  0
SECTION
  2
HEADER
  9
$ACADVER
  1
AC1014
  9
$ACADMAINTVER
 70
     9
  9
$DWGCODEPAGE
  3
ANSI_932
  9
$INSBASE
 10
0.0
 20
0.0
 30
0.0
  9
$EXTMIN
 10
-94.14349790496837
 20
-32.25000100000001
 30
-0.00000001
  9
$EXTMAX
 10
12.05776903085493
 20
9.085048994909978
 30
0.00000001
  9
$LIMMIN
 10
-96.48964381372685
 20
-39.88318434356182
  9
$LIMMAX
 10
16.11050586761723
 20
15.96719754207873
  9
$ORTHOMODE
 70
     0
  9
$REGENMODE
 70
     1
  9
$FILLMODE
 70
     1
  9
$QTEXTMODE
 70
     0
  9
$MIRRTEXT
 70
     0
  9
$DRAGMODE
 70
     2
  9
$LTSCALE
 40
1.0
  9
$OSMODE
 70
    55
  9
$ATTMODE
 70
     1
  9
$TEXTSIZE
 40
2.5
  9
$TRACEWID
 40
1.0
  9
$TEXTSTYLE
  7
STANDARD
  9
$CLAYER
  8
AM_0
  9
$CELTYPE
  6
BYLAYER
  9
$CECOLOR
 62
   256
  9
$CELTSCALE
 40
1.0
  9
$DELOBJ
 70
     1
  9
$DISPSILH
 70
     0
  9
$DIMSCALE
 40
0.5
  9
$DIMASZ
 40
2.5
  9
$DIMEXO
 40
1.0
  9
$DIMDLI
 40
12.0
  9
$DIMRND
 40
0.0
  9
$DIMDLE
 40
0.0
  9
$DIMEXE
 40
1.0
  9
$DIMTP
 40
0.1
  9
$DIMTM
 40
0.1
  9
$DIMTXT
 40
3.2
  9
$DIMCEN
 40
0.0
  9
$DIMTSZ
 40
0.0
  9
$DIMTOL
 70
     0
  9
$DIMLIM
 70
     0
  9
$DIMTIH
 70
     0
  9
$DIMTOH
 70
     0
  9
$DIMSE1
 70
     0
  9
$DIMSE2
 70
     0
  9
$DIMTAD
 70
     3
  9
$DIMZIN
 70
     8
  9
$DIMBLK
  1
OPEN30
  9
$DIMASO
 70
     1
  9
$DIMSHO
 70
     1
  9
$DIMPOST
  1

  9
$DIMAPOST
  1
"
  9
$DIMALT
 70
     0
  9
$DIMALTD
 70
     2
  9
$DIMALTF
 40
0.0393701
  9
$DIMLFAC
 40
1.0
  9
$DIMTOFL
 70
     1
  9
$DIMTVP
 40
0.0
  9
$DIMTIX
 70
     0
  9
$DIMSOXD
 70
     0
  9
$DIMSAH
 70
     0
  9
$DIMBLK1
  1

  9
$DIMBLK2
  1

  9
$DIMSTYLE
  2
AM_JIS
  9
$DIMCLRD
 70
   256
  9
$DIMCLRE
 70
   256
  9
$DIMCLRT
 70
     2
  9
$DIMTFAC
 40
0.71
  9
$DIMGAP
 40
1.5
  9
$DIMJUST
 70
     0
  9
$DIMSD1
 70
     0
  9
$DIMSD2
 70
     0
  9
$DIMTOLJ
 70
     0
  9
$DIMTZIN
 70
     0
  9
$DIMALTZ
 70
     0
  9
$DIMALTTZ
 70
     0
  9
$DIMFIT
 70
     3
  9
$DIMUPT
 70
     0
  9
$DIMUNIT
 70
     2
  9
$DIMDEC
 70
     3
  9
$DIMTDEC
 70
     3
  9
$DIMALTU
 70
     2
  9
$DIMALTTD
 70
     2
  9
$DIMTXSTY
  7
ASAMI
  9
$DIMAUNIT
 70
     0
  9
$LUNITS
 70
     2
  9
$LUPREC
 70
     2
  9
$SKETCHINC
 40
1.0
  9
$FILLETRAD
 40
2.5
  9
$AUNITS
 70
     0
  9
$AUPREC
 70
     0
  9
$MENU
  1
.
  9
$ELEVATION
 40
0.0
  9
$PELEVATION
 40
0.0
  9
$THICKNESS
 40
0.0
  9
$LIMCHECK
 70
     0
  9
$BLIPMODE
 70
     0
  9
$CHAMFERA
 40
1.0
  9
$CHAMFERB
 40
1.0
  9
$CHAMFERC
 40
20.0
  9
$CHAMFERD
 40
0.0
  9
$SKPOLY
 70
     0
  9
$TDCREATE
 40
2452836.771637361
  9
$TDUPDATE
 40
2453151.800862465
  9
$TDINDWG
 40
0.0518466088
  9
$TDUSRTIMER
 40
0.0518466088
  9
$USRTIMER
 70
     1
  9
$ANGBASE
 50
0.0
  9
$ANGDIR
 70
     0
  9
$PDMODE
 70
     0
  9
$PDSIZE
 40
0.0
  9
$PLINEWID
 40
0.0
  9
$COORDS
 70
     1
  9
$SPLFRAME
 70
     0
  9
$SPLINETYPE
 70
     6
  9
$SPLINESEGS
 70
     8
  9
$ATTDIA
 70
     1
  9
$ATTREQ
 70
     1
  9
$HANDLING
 70
 12289
  9
$HANDSEED
  5
224D
  9
$SURFTAB1
 70
     6
  9
$SURFTAB2
 70
     6
  9
$SURFTYPE
 70
     6
  9
$SURFU
 70
     6
  9
$SURFV
 70
     6
  9
$UCSNAME
  2

  9
$UCSORG
 10
0.0
 20
0.0
 30
0.0
  9
$UCSXDIR
 10
1.0
 20
0.0
 30
0.0
  9
$UCSYDIR
 10
0.0
 20
1.0
 30
0.0
  9
$PUCSNAME
  2

  9
$PUCSORG
 10
0.0
 20
0.0
 30
0.0
  9
$PUCSXDIR
 10
1.0
 20
0.0
 30
0.0
  9
$PUCSYDIR
 10
0.0
 20
1.0
 30
0.0
  9
$USERI1
 70
     0
  9
$USERI2
 70
     0
  9
$USERI3
 70
     0
  9
$USERI4
 70
     0
  9
$USERI5
 70
     0
  9
$USERR1
 40
0.0
  9
$USERR2
 40
0.0
  9
$USERR3
 40
0.0
  9
$USERR4
 40
0.0
  9
$USERR5
 40
0.0
  9
$WORLDVIEW
 70
     1
  9
$SHADEDGE
 70
     3
  9
$SHADEDIF
 70
    70
  9
$TILEMODE
 70
     1
  9
$MAXACTVP
 70
    64
  9
$PINSBASE
 10
0.0
 20
0.0
 30
0.0
  9
$PLIMCHECK
 70
     0
  9
$PEXTMIN
 10
1.000000000000000E+20
 20
1.000000000000000E+20
 30
1.000000000000000E+20
  9
$PEXTMAX
 10
-1.000000000000000E+20
 20
-1.000000000000000E+20
 30
-1.000000000000000E+20
  9
$PLIMMIN
 10
0.0
 20
0.0
  9
$PLIMMAX
 10
841.0
 20
594.0
  9
$UNITMODE
 70
     0
  9
$VISRETAIN
 70
     1
  9
$PLINEGEN
 70
     0
  9
$PSLTSCALE
 70
     0
  9
$TREEDEPTH
 70
  3020
  9
$PICKSTYLE
 70
     0
  9
$CMLSTYLE
  2
STANDARD
  9
$CMLJUST
 70
     0
  9
$CMLSCALE
 40
20.0
  9
$PROXYGRAPHICS
 70
     1
  9
$MEASUREMENT
 70
     1
  0
ENDSEC
  0
SECTION
  2
CLASSES
  0
CLASS
  1
ACDBDICTIONARYWDFLT
  2
AcDbDictionaryWithDefault
  3
AutoCAD 2000
 90
        0
280
     0
281
     0
  0
CLASS
  1
ACDBPLACEHOLDER
  2
AcDbPlaceHolder
  3
AutoCAD 2000
 90
        0
280
     0
281
     0
  0
CLASS
  1
LAYOUT
  2
AcDbLayout
  3
AutoCAD 2000
 90
        0
280
     0
281
     0
  0
CLASS
  1
AMGSETTINGSOBJ
  2
AmgSettingsObj
  3
"AcadM|Product Description: AutoCAD Mechanical 2000|Company: Autodesk"
 90
        0
280
     0
281
     0
  0
CLASS
  1
ACME_DOCUMENT
  2
AcMeDbDoc
  3
AcMeServices
 90
        0
280
     0
281
     0
  0
CLASS
  1
ACMESCOPE
  2
AcMeScope
  3
AcMeServices
 90
        0
280
     0
281
     0
  0
CLASS
  1
ACMECOMMANDHISTORY
  2
AcMeCommandHistory
  3
AcMeServices
 90
        0
280
     0
281
     0
  0
CLASS
  1
DICTIONARYVAR
  2
AcDbDictionaryVar
  3
AutoCAD 2000
 90
        0
280
     0
281
     0
  0
CLASS
  1
ACIMSYSVARMAN
  2
AcImSysVarManager
  3
AcMeServices
 90
        0
280
     0
281
     0
  0
CLASS
  1
ACIMREALSYSVAR
  2
AcImRealSysVar
  3
AcMeServices
 90
        0
280
     0
281
     0
  0
CLASS
  1
ACIMINTSYSVAR
  2
AcImIntSysVar
  3
AcMeServices
 90
        0
280
     0
281
     0
  0
CLASS
  1
ACMEDRAWINGMAN
  2
AcMeDrawingMan
  3
AcMeServices
 90
        0
280
     0
281
     0
  0
CLASS
  1
ACMEVIEW
  2
AcMeView
  3
AcMeServices
 90
        0
280
     0
281
     0
  0
CLASS
  1
ACDBENTITYCACHE
  2
AcMeEntityCache
  3
AcMeServices
 90
        0
280
     0
281
     0
  0
CLASS
  1
GSMANAGER
  2
AcMeGSManager
  3
AcMeServices
 90
        0
280
     0
281
     0
  0
CLASS
  1
AmdtInternalReactor
  2
AmdtInternalReactor
  3
AcMeServices
 90
        0
280
     0
281
     0
  0
CLASS
  1
ACMESTATEMGR
  2
AcMeStateMgr
  3
AcMeServices
 90
        0
280
     0
281
     0
  0
CLASS
  1
ACME_DATABASE
  2
AcMeDbDatabase
  3
AcMeServices
 90
        0
280
     0
281
     0
  0
CLASS
  1
ACRFINSADJUSTERMGR
  2
AcRfInsAdjusterMgr
  3
AcMeServices
 90
        0
280
     0
281
     0
  0
CLASS
  1
ACMDATADICTIONARY
  2
AcmDataDictionary
  3
"AcmSymBB|Product Description: AutoCAD Mechanical 2000|Company: Autodesk"
 90
        0
280
     0
281
     0
  0
CLASS
  1
ACMDATAENTRYBLOCK
  2
AcmDataEntryBlock
  3
"AcmSymBB|Product Description: AutoCAD Mechanical 2000|Company: Autodesk"
 90
        0
280
     0
281
     0
  0
CLASS
  1
AMGOBJPROPCFG
  2
AmgObjPropCfg
  3
"AmgLay|Product Description: AutoCAD Mechanical 2000|Company: Autodesk"
 90
        1
280
     0
281
     0
  0
CLASS
  1
ACAMGFILTERDAT
  2
AcAmgFilterDat
  3
"AcadM|Product Description: AutoCAD Mechanical 2000|Company: Autodesk"
 90
        0
280
     0
281
     0
  0
CLASS
  1
LAYER_INDEX
  2
AcDbLayerIndex
  3
AutoCAD 2000
 90
        0
280
     0
281
     0
  0
CLASS
  1
IDBUFFER
  2
AcDbIdBuffer
  3
AutoCAD 2000
 90
        0
280
     0
281
     0
  0
CLASS
  1
ACIMSTRSYSVAR
  2
AcImStrSysVar
  3
AcMeServices
 90
        0
280
     0
281
     0
  0
CLASS
  1
ACMSTANDARDJIS
  2
AcmStandardJIS
  3
"AcmSymBB|Product Description: AutoCAD Mechanical 2000|Company: Autodesk"
 90
        0
280
     0
281
     0
  0
CLASS
  1
ACMSURFSTANDARDJIS
  2
AcmSurfTextStdJIS
  3
"AcmSymBB|Product Description: AutoCAD Mechanical 2000|Company: Autodesk"
 90
        0
280
     0
281
     0
  0
CLASS
  1
ACMFCFSTANDARDJIS
  2
AcmFCFStdJIS
  3
"AcmSymBB|Product Description: AutoCAD Mechanical 2000|Company: Autodesk"
 90
        0
280
     0
281
     0
  0
CLASS
  1
ACMWELDSTANDARDJIS
  2
AcmWeldingStdJIS
  3
"AcmSymBB|Product Description: AutoCAD Mechanical 2000|Company: Autodesk"
 90
        0
280
     0
281
     0
  0
CLASS
  1
ACMIDSTANDARDJIS
  2
AcmIdStdJIS
  3
"AcmSymBB|Product Description: AutoCAD Mechanical 2000|Company: Autodesk"
 90
        0
280
     0
281
     0
  0
CLASS
  1
ACMDATUMSTANDARDJIS
  2
AcmDatumStdJIS
  3
"AcmSymBB|Product Description: AutoCAD Mechanical 2000|Company: Autodesk"
 90
        0
280
     0
281
     0
  0
CLASS
  1
ACMBOMSTANDARDJIS
  2
AcmBOMStdJIS
  3
"AcmSymBB|Product Description: AutoCAD Mechanical 2000|Company: Autodesk"
 90
        0
280
     0
281
     0
  0
CLASS
  1
ACMSTANDARDANSI
  2
AcmStandardANSI
  3
"AcmSymBB|Product Description: AutoCAD Mechanical 2000|Company: Autodesk"
 90
        0
280
     0
281
     0
  0
CLASS
  1
ACMSURFSTANDARDANSI
  2
AcmSurfTextStdANSI
  3
"AcmSymBB|Product Description: AutoCAD Mechanical 2000|Company: Autodesk"
 90
        0
280
     0
281
     0
  0
CLASS
  1
ACMFCFSTANDARDANSI
  2
AcmFCFStdANSI
  3
"AcmSymBB|Product Description: AutoCAD Mechanical 2000|Company: Autodesk"
 90
        0
280
     0
281
     0
  0
CLASS
  1
ACMWELDSTANDARDANSI
  2
AcmWeldingStdANSI
  3
"AcmSymBB|Product Description: AutoCAD Mechanical 2000|Company: Autodesk"
 90
        0
280
     0
281
     0
  0
CLASS
  1
ACMIDSTANDARDANSI
  2
AcmIdStdANSI
  3
"AcmSymBB|Product Description: AutoCAD Mechanical 2000|Company: Autodesk"
 90
        0
280
     0
281
     0
  0
CLASS
  1
ACMDATUMSTANDARDANSI
  2
AcmDatumStdANSI
  3
"AcmSymBB|Product Description: AutoCAD Mechanical 2000|Company: Autodesk"
 90
        0
280
     0
281
     0
  0
CLASS
  1
ACMBOMSTANDARDANSI
  2
AcmBOMStdANSI
  3
"AcmSymBB|Product Description: AutoCAD Mechanical 2000|Company: Autodesk"
 90
        0
280
     0
281
     0
  0
CLASS
  1
ACMSTANDARDBSI
  2
AcmStandardBSI
  3
"AcmSymBB|Product Description: AutoCAD Mechanical 2000|Company: Autodesk"
 90
        0
280
     0
281
     0
  0
CLASS
  1
ACMSURFSTANDARDBSI
  2
AcmSurfTextStdBSI
  3
"AcmSymBB|Product Description: AutoCAD Mechanical 2000|Company: Autodesk"
 90
        0
280
     0
281
     0
  0
CLASS
  1
ACMFCFSTANDARDBSI
  2
AcmFCFStdBSI
  3
"AcmSymBB|Product Description: AutoCAD Mechanical 2000|Company: Autodesk"
 90
        0
280
     0
281
     0
  0
CLASS
  1
ACMWELDSTANDARDBSI
  2
AcmWeldingStdBSI
  3
"AcmSymBB|Product Description: AutoCAD Mechanical 2000|Company: Autodesk"
 90
        0
280
     0
281
     0
  0
CLASS
  1
ACMIDSTANDARDBSI
  2
AcmIdStdBSI
  3
"AcmSymBB|Product Description: AutoCAD Mechanical 2000|Company: Autodesk"
 90
        0
280
     0
281
     0
  0
CLASS
  1
ACMDATUMSTANDARDBSI
  2
AcmDatumStdBSI
  3
"AcmSymBB|Product Description: AutoCAD Mechanical 2000|Company: Autodesk"
 90
        0
280
     0
281
     0
  0
CLASS
  1
ACMBOMSTANDARDBSI
  2
AcmBOMStdBSI
  3
"AcmSymBB|Product Description: AutoCAD Mechanical 2000|Company: Autodesk"
 90
        0
280
     0
281
     0
  0
CLASS
  1
LONG_TRANSACTION
  2
AcDbLongTransaction
  3
AutoCAD 2000
 90
        0
280
     0
281
     0
  0
CLASS
  1
LWPOLYLINE
  2
AcDbPolyline
  3
AutoCAD 2000
 90
        0
280
     0
281
     1
  0
CLASS
  1
HATCH
  2
AcDbHatch
  3
AutoCAD 2000
 90
        0
280
     0
281
     1
  0
CLASS
  1
XRECORD
  2
AcDbXrecord
  3
AutoCAD 2000
 90
        0
280
     0
281
     0
  0
ENDSEC
  0
SECTION
  2
TABLES
  0
TABLE
  2
VPORT
  5
8
330
0
100
AcDbSymbolTable
 70
     3
  0
VPORT
  5
2222
330
8
100
AcDbSymbolTableRecord
100
AcDbViewportTableRecord
  2
*ACTIVE
 70
     0
 10
0.0
 20
0.0
 11
1.0
 21
1.0
 12
-41.04434432324803
 22
-11.58302122391687
 13
0.0
 23
0.0
 14
2.5
 24
2.5
 15
10.0
 25
10.0
 16
0.0
 26
0.0
 36
1.0
 17
0.0
 27
0.0
 37
0.0
 40
68.09976689374841
 41
1.56570841889117
 42
50.0
 43
0.0
 44
0.0
 50
0.0
 51
0.0
 71
     0
 72
   100
 73
     1
 74
     3
 75
     0
 76
     0
 77
     0
 78
     0
  0
ENDTAB
  0
TABLE
  2
LTYPE
  5
5
330
0
100
AcDbSymbolTable
 70
    10
  0
LTYPE
  5
14
330
5
100
AcDbSymbolTableRecord
100
AcDbLinetypeTableRecord
  2
BYBLOCK
 70
     0
  3

 72
    65
 73
     0
 40
0.0
  0
LTYPE
  5
15
330
5
100
AcDbSymbolTableRecord
100
AcDbLinetypeTableRecord
  2
BYLAYER
 70
     0
  3

 72
    65
 73
     0
 40
0.0
  0
LTYPE
  5
16
330
5
100
AcDbSymbolTableRecord
100
AcDbLinetypeTableRecord
  2
CONTINUOUS
 70
     0
  3
Solid line
 72
    65
 73
     0
 40
0.0
  0
LTYPE
  5
4B
330
5
100
AcDbSymbolTableRecord
100
AcDbLinetypeTableRecord
  2
AM_ISO02W050
 70
     0
  3
__ __ __ __ __ __ __ __ __ __ __ __ __ __ __
 72
    65
 73
     2
 40
7.5
 49
6.0
 74
     0
 49
-1.5
 74
     0
  0
LTYPE
  5
4C
330
5
100
AcDbSymbolTableRecord
100
AcDbLinetypeTableRecord
  2
AM_ISO08W050
 70
     0
  3
____ . ____ . ____ . ____ . ____ . ____ . ____
 72
    65
 73
     4
 40
18.0
 49
12.0
 74
     0
 49
-1.5
 74
     0
 49
3.0
 74
     0
 49
-1.5
 74
     0
  0
LTYPE
  5
4D
330
5
100
AcDbSymbolTableRecord
100
AcDbLinetypeTableRecord
  2
AM_ISO09W050
 70
     0
  3
_____ . . _____ . . _____ . . ____ .. ____
 72
    65
 73
     6
 40
22.5
 49
12.0
 74
     0
 49
-1.5
 74
     0
 49
3.0
 74
     0
 49
-1.5
 74
     0
 49
3.0
 74
     0
 49
-1.5
 74
     0
  0
LTYPE
  5
4E
330
5
100
AcDbSymbolTableRecord
100
AcDbLinetypeTableRecord
  2
AMCONSTR
 70
     0
  3
_______________________
 72
    65
 73
     2
 40
9999.0
 49
9999.0
 74
     0
 49
0.0
 74
     0
  0
LTYPE
  5
4F
330
5
100
AcDbSymbolTableRecord
100
AcDbLinetypeTableRecord
  2
AM_ISO02W050X2
 70
     0
  3
 _ _ _ _ _ _ _ _ _ _ _ _
 72
    65
 73
     2
 40
3.75
 49
3.0
 74
     0
 49
-0.75
 74
     0
  0
LTYPE
  5
50
330
5
100
AcDbSymbolTableRecord
100
AcDbLinetypeTableRecord
  2
AM_ISO08W050X2
 70
     0
  3
__ . __ . __ . __ . __ . __
 72
    65
 73
     4
 40
9.0
 49
6.0
 74
     0
 49
-0.75
 74
     0
 49
1.5
 74
     0
 49
-0.75
 74
     0
  0
LTYPE
  5
53
330
5
100
AcDbSymbolTableRecord
100
AcDbLinetypeTableRecord
  2
AMZIGZAG
 70
     0
  3
/\/-/\/-/\/-/\/-/\/-/\/
 72
    65
 73
     2
 40
11.00009999999999
 49
0.0001
 74
     4
 75
   135
340
52
 46
0.04
 50
0.0
 44
0.0
 45
0.0
 49
-11.0
 74
     0
  0
LTYPE
  5
166
330
5
100
AcDbSymbolTableRecord
100
AcDbLinetypeTableRecord
  2
ACJISTGL
 70
     0
  3
_ _ _ _ _
 72
    65
 73
     2
 40
3.0
 49
2.0
 74
     0
 49
-1.0
 74
     0
  0
LTYPE
  5
26A
330
5
100
AcDbSymbolTableRecord
100
AcDbLinetypeTableRecord
  2
ACJISTGB
 70
     0
  3
__ . . __ . .
 72
    65
 73
     6
 40
9.0
 49
4.0
 74
     0
 49
-1.0
 74
     0
 49
1.0
 74
     0
 49
-1.0
 74
     0
 49
1.0
 74
     0
 49
-1.0
 74
     0
  0
ENDTAB
  0
TABLE
  2
LAYER
  5
2
330
0
100
AcDbSymbolTable
 70
     7
  0
LAYER
  5
10
330
2
100
AcDbSymbolTableRecord
100
AcDbLayerTableRecord
  2
0
 70
     0
 62
     7
  6
CONTINUOUS
  0
LAYER
  5
3F9
330
2
100
AcDbSymbolTableRecord
100
AcDbLayerTableRecord
  2
AM_0
 70
     0
 62
     7
  6
CONTINUOUS
  0
LAYER
  5
BD4
330
2
100
AcDbSymbolTableRecord
100
AcDbLayerTableRecord
  2
AM_11
 70
     0
 62
     3
  6
AM_ISO09W050
  0
LAYER
  5
BD5
330
2
100
AcDbSymbolTableRecord
100
AcDbLayerTableRecord
  2
AM_7
 70
     0
 62
     4
  6
AM_ISO08W050
  0
LAYER
  5
BD6
330
2
100
AcDbSymbolTableRecord
100
AcDbLayerTableRecord
  2
AM_5
 70
     0
 62
     3
  6
CONTINUOUS
  0
LAYER
  5
BD7
330
2
100
AcDbSymbolTableRecord
100
AcDbLayerTableRecord
  2
DEFPOINTS
 70
     0
 62
     7
  6
CONTINUOUS
  0
LAYER
  5
E59
330
2
100
AcDbSymbolTableRecord
100
AcDbLayerTableRecord
  2
AM_6
 70
     0
 62
     2
  6
CONTINUOUS
  0
ENDTAB
  0
TABLE
  2
STYLE
  5
3
330
0
100
AcDbSymbolTable
 70
     5
  0
STYLE
  5
11
330
3
100
AcDbSymbolTableRecord
100
AcDbTextStyleTableRecord
  2
STANDARD
 70
     0
 40
0.0
 41
1.0
 50
0.0
 71
     0
 42
2.5
  3
simplex.shx
  4
EXTFONT.SHX
  0
STYLE
  5
52
330
3
100
AcDbSymbolTableRecord
100
AcDbTextStyleTableRecord
  2

 70
     1
 40
0.0
 41
1.0
 50
0.0
 71
     0
 42
2.5
  3
ltypeshp.shx
  4

  0
STYLE
  5
6B
330
3
100
AcDbSymbolTableRecord
100
AcDbTextStyleTableRecord
  2
ASAMI
 70
     0
 40
0.0
 41
1.0
 50
0.0
 71
     0
 42
2.5
  3
simplex.shx
  4
EXTFONT.SHX
  0
STYLE
  5
262
330
3
100
AcDbSymbolTableRecord
100
AcDbTextStyleTableRecord
  2
ACJISTS
 70
     0
 40
1.0
 41
1.0
 50
0.0
 71
     0
 42
2.5
  3
simplex.shx
  4
bigfont.shx
  0
STYLE
  5
269
330
3
100
AcDbSymbolTableRecord
100
AcDbTextStyleTableRecord
  2
ACJISGDT
 70
     0
 40
0.0
 41
1.0
 50
0.0
 71
     0
 42
2.5
  3
amgdtans.shx
  4

  0
ENDTAB
  0
TABLE
  2
VIEW
  5
6
330
0
100
AcDbSymbolTable
 70
     0
  0
ENDTAB
  0
TABLE
  2
UCS
  5
7
330
0
100
AcDbSymbolTable
 70
     0
  0
ENDTAB
  0
TABLE
  2
APPID
  5
9
330
0
100
AcDbSymbolTable
 70
    12
  0
APPID
  5
12
330
9
100
AcDbSymbolTableRecord
100
AcDbRegAppTableRecord
  2
ACAD
 70
     0
  0
APPID
  5
30
330
9
100
AcDbSymbolTableRecord
100
AcDbRegAppTableRecord
  2
MCAD_NO_VIS
 70
     0
  0
APPID
  5
31
330
9
100
AcDbSymbolTableRecord
100
AcDbRegAppTableRecord
  2
ACAD_TEMP_GRAPHIC
 70
     0
  0
APPID
  5
2C2
330
9
100
AcDbSymbolTableRecord
100
AcDbRegAppTableRecord
  2
GENIUS_GENDTOL_13
 70
     0
  0
APPID
  5
339
330
9
100
AcDbSymbolTableRecord
100
AcDbRegAppTableRecord
  2
GENIUS_GENODEF_13
 70
     0
  0
APPID
  5
33A
330
9
100
AcDbSymbolTableRecord
100
AcDbRegAppTableRecord
  2
GENIUS_GENOBJ-N-RSBK_13
 70
     0
  0
APPID
  5
33B
330
9
100
AcDbSymbolTableRecord
100
AcDbRegAppTableRecord
  2
GENIUS_GENOBJ-N-LIB_13
 70
     0
  0
APPID
  5
33C
330
9
100
AcDbSymbolTableRecord
100
AcDbRegAppTableRecord
  2
GENIUS_GENSCALE_13
 70
     0
  0
APPID
  5
378
330
9
100
AcDbSymbolTableRecord
100
AcDbRegAppTableRecord
  2
GENIUS_GENDIMSH_14
 70
     0
  0
APPID
  5
BD8
330
9
100
AcDbSymbolTableRecord
100
AcDbRegAppTableRecord
  2
GENIUS_GENOBJ-N-CEN_13
 70
     0
  0
APPID
  5
BD9
330
9
100
AcDbSymbolTableRecord
100
AcDbRegAppTableRecord
  2
GENIUS_GENFIL_13
 70
     0
  0
APPID
  5
BDA
330
9
100
AcDbSymbolTableRecord
100
AcDbRegAppTableRecord
  2
GENIUS_GENOBJ-N-CHA_13
 70
     0
  0
ENDTAB
  0
TABLE
  2
DIMSTYLE
  5
A
330
0
100
AcDbSymbolTable
 70
     8
  0
DIMSTYLE
105
58
102
{ACAD_REACTORS
330
D71
330
D7A
330
DA6
330
15D1
102
}
330
A
100
AcDbSymbolTableRecord
100
AcDbDimStyleTableRecord
  2
AM_JIS
 70
     0
  3

  4
"
  5
OPEN30
  6

  7

 40
0.5
 41
2.5
 42
1.0
 43
12.0
 44
1.0
 45
0.0
 46
0.0
 47
0.1
 48
0.1
140
3.2
141
0.0
142
0.0
143
0.0393701
144
1.0
145
0.0
146
0.71
147
1.5
 71
     0
 72
     0
 73
     0
 74
     0
 75
     0
 76
     0
 77
     3
 78
     8
170
     0
171
     2
172
     1
173
     0
174
     0
175
     0
176
   256
177
   256
178
     2
270
     2
271
     3
272
     3
273
     2
274
     2
340
6B
275
     0
280
     0
281
     0
282
     0
283
     0
284
     0
285
     0
286
     0
287
     3
288
     0
  0
DIMSTYLE
105
5F
330
A
100
AcDbSymbolTableRecord
100
AcDbDimStyleTableRecord
  2
AM_JIS$3
 70
     0
  3

  4
"
  5
OPEN30
  6

  7

 40
0.5
 41
2.5
 42
1.0
 43
10.0
 44
1.0
 45
0.0
 46
0.0
 47
0.1
 48
0.1
140
3.2
141
0.0
142
0.0
143
0.0393701
144
1.0
145
0.0
146
0.71
147
1.5
 71
     0
 72
     0
 73
     0
 74
     1
 75
     0
 76
     0
 77
     3
 78
     8
170
     0
171
     2
172
     0
173
     0
174
     0
175
     0
176
   256
177
   256
178
     2
270
     2
271
     2
272
     3
273
     2
274
     2
340
6B
275
     0
280
     0
281
     0
282
     0
283
     0
284
     0
285
     0
286
     0
287
     0
288
     1
  0
DIMSTYLE
105
60
330
A
100
AcDbSymbolTableRecord
100
AcDbDimStyleTableRecord
  2
AM_JIS$4
 70
     0
  3

  4
"
  5
OPEN30
  6

  7

 40
0.5
 41
2.5
 42
1.0
 43
10.0
 44
1.0
 45
0.0
 46
0.0
 47
0.1
 48
0.1
140
3.2
141
0.0
142
0.0
143
0.0393701
144
1.0
145
0.0
146
0.71
147
1.5
 71
     0
 72
     0
 73
     0
 74
     1
 75
     0
 76
     0
 77
     3
 78
     8
170
     0
171
     2
172
     0
173
     0
174
     0
175
     0
176
   256
177
   256
178
     2
270
     2
271
     2
272
     3
273
     2
274
     2
340
6B
275
     0
280
     0
281
     0
282
     0
283
     0
284
     0
285
     0
286
     0
287
     0
288
     1
  0
DIMSTYLE
105
61
330
A
100
AcDbSymbolTableRecord
100
AcDbDimStyleTableRecord
  2
AM_JIS$6
 70
     0
  3

  4
"
  5
OPEN30
  6

  7

 40
0.5
 41
2.5
 42
1.0
 43
10.0
 44
1.0
 45
0.0
 46
0.0
 47
0.1
 48
0.1
140
3.2
141
0.0
142
0.0
143
0.0393701
144
1.0
145
0.0
146
0.71
147
1.5
 71
     0
 72
     0
 73
     0
 74
     0
 75
     0
 76
     0
 77
     0
 78
     8
170
     0
171
     2
172
     1
173
     0
174
     0
175
     0
176
   256
177
   256
178
     2
270
     2
271
     2
272
     2
273
     2
274
     2
340
6B
275
     0
280
     0
281
     0
282
     0
283
     0
284
     0
285
     0
286
     0
287
     3
288
     0
  0
DIMSTYLE
105
62
330
A
100
AcDbSymbolTableRecord
100
AcDbDimStyleTableRecord
  2
AM_JIS$7
 70
     0
  3

  4
"
  5
OPEN30
  6

  7

 40
0.5
 41
2.5
 42
1.0
 43
10.0
 44
1.0
 45
0.0
 46
0.0
 47
0.1
 48
0.1
140
3.2
141
0.0
142
0.0
143
0.0393701
144
1.0
145
0.0
146
0.71
147
1.5
 71
     0
 72
     0
 73
     0
 74
     0
 75
     0
 76
     0
 77
     3
 78
     8
170
     0
171
     2
172
     1
173
     0
174
     0
175
     0
176
   256
177
   256
178
     2
270
     2
271
     2
272
     3
273
     2
274
     2
340
6B
275
     0
280
     0
281
     0
282
     0
283
     0
284
     0
285
     0
286
     0
287
     3
288
     0
  0
DIMSTYLE
105
63
330
A
100
AcDbSymbolTableRecord
100
AcDbDimStyleTableRecord
  2
AM_JIS$SF
 70
     0
  3

  4
"
  5
OPEN30
  6

  7

 40
0.5
 41
2.5
 42
1.0
 43
10.0
 44
1.0
 45
0.0
 46
0.0
 47
0.1
 48
0.1
140
3.2
141
0.0
142
0.0
143
0.0393701
144
1.0
145
0.0
146
0.71
147
1.5
 71
     0
 72
     0
 73
     0
 74
     0
 75
     1
 76
     1
 77
     3
 78
     8
170
     0
171
     2
172
     1
173
     0
174
     0
175
     0
176
   256
177
   256
178
     2
270
     2
271
     2
272
     2
273
     2
274
     2
340
6B
275
     0
280
     0
281
     0
282
     0
283
     0
284
     0
285
     0
286
     0
287
     3
288
     0
  0
DIMSTYLE
105
68
330
A
100
AcDbSymbolTableRecord
100
AcDbDimStyleTableRecord
  2
AM_JIS$SH
 70
     0
  3

  4
"
  5

  6
GENAXEH
  7
OPEN30
 40
0.5
 41
2.5
 42
1.0
 43
10.0
 44
1.0
 45
0.0
 46
0.0
 47
0.1
 48
0.1
140
3.2
141
0.0
142
0.0
143
0.0393701
144
2.0
145
0.0
146
0.71
147
1.5
 71
     0
 72
     0
 73
     0
 74
     0
 75
     1
 76
     1
 77
     3
 78
     8
170
     0
171
     2
172
     1
173
     1
174
     0
175
     0
176
   256
177
   256
178
     2
270
     2
271
     2
272
     2
273
     2
274
     2
340
6B
275
     0
280
     0
281
     0
282
     0
283
     0
284
     0
285
     0
286
     0
287
     3
288
     0
  0
DIMSTYLE
105
B34
330
A
100
AcDbSymbolTableRecord
100
AcDbDimStyleTableRecord
  2
AM_JIS$2
 70
     0
  3

  4
"
  5
OPEN30
  6

  7

 40
0.5
 41
2.5
 42
1.0
 43
12.0
 44
1.0
 45
0.0
 46
0.0
 47
0.1
 48
0.1
140
3.2
141
0.0
142
0.0
143
0.0393701
144
1.0
145
0.0
146
0.71
147
1.5
 71
     0
 72
     0
 73
     0
 74
     0
 75
     0
 76
     0
 77
     3
 78
     8
170
     0
171
     2
172
     1
173
     0
174
     0
175
     0
176
   256
177
   256
178
     2
270
     2
271
     3
272
     3
273
     2
274
     2
340
6B
275
     0
280
     0
281
     0
282
     0
283
     0
284
     0
285
     0
286
     0
287
     3
288
     0
  0
ENDTAB
  0
TABLE
  2
BLOCK_RECORD
  5
1
330
0
100
AcDbSymbolTable
 70
     9
  0
BLOCK_RECORD
  5
1F
102
{ACAD_XDICTIONARY
360
74
102
}
330
1
100
AcDbSymbolTableRecord
100
AcDbBlockTableRecord
  2
*MODEL_SPACE
  0
BLOCK_RECORD
  5
101
102
{ACAD_XDICTIONARY
360
224B
102
}
330
1
100
AcDbSymbolTableRecord
100
AcDbBlockTableRecord
  2
*PAPER_SPACE
  0
BLOCK_RECORD
  5
59
330
1
100
AcDbSymbolTableRecord
100
AcDbBlockTableRecord
  2
_OPEN30
  0
BLOCK_RECORD
  5
64
330
1
100
AcDbSymbolTableRecord
100
AcDbBlockTableRecord
  2
GENAXEH
  0
BLOCK_RECORD
  5
DDA
330
1
100
AcDbSymbolTableRecord
100
AcDbBlockTableRecord
  2
*D5
  0
BLOCK_RECORD
  5
DF3
330
1
100
AcDbSymbolTableRecord
100
AcDbBlockTableRecord
  2
*D6
  0
BLOCK_RECORD
  5
DFF
330
1
100
AcDbSymbolTableRecord
100
AcDbBlockTableRecord
  2
*D7
  0
BLOCK_RECORD
  5
15D2
330
1
100
AcDbSymbolTableRecord
100
AcDbBlockTableRecord
  2
*D8
  0
ENDTAB
  0
ENDSEC
  0
SECTION
  2
BLOCKS
  0
BLOCK
  5
20
330
1F
100
AcDbEntity
  8
0
100
AcDbBlockBegin
  2
*MODEL_SPACE
 70
     0
 10
0.0
 20
0.0
 30
0.0
  3
*MODEL_SPACE
  1

  0
ENDBLK
  5
21
330
1F
100
AcDbEntity
  8
0
100
AcDbBlockEnd
  0
BLOCK
  5
103
330
101
100
AcDbEntity
 67
     1
  8
0
100
AcDbBlockBegin
  2
*PAPER_SPACE
 70
     0
 10
0.0
 20
0.0
 30
0.0
  3
*PAPER_SPACE
  1

  0
ENDBLK
  5
104
330
101
100
AcDbEntity
 67
     1
  8
0
100
AcDbBlockEnd
  0
BLOCK
  5
5D
330
59
100
AcDbEntity
  8
0
100
AcDbBlockBegin
  2
_OPEN30
 70
     0
 10
0.0
 20
0.0
 30
0.0
  3
_OPEN30
  1

  0
LINE
  5
5A
330
59
100
AcDbEntity
  8
0
 62
     0
100
AcDbLine
 10
-1.0
 20
0.26794919
 30
0.0
 11
0.0
 21
0.0
 31
0.0
  0
LINE
  5
5B
330
59
100
AcDbEntity
  8
0
 62
     0
100
AcDbLine
 10
0.0
 20
0.0
 30
0.0
 11
-1.0
 21
-0.26794919
 31
0.0
  0
LINE
  5
5C
330
59
100
AcDbEntity
  8
0
 62
     0
100
AcDbLine
 10
0.0
 20
0.0
 30
0.0
 11
-1.0
 21
0.0
 31
0.0
  0
ENDBLK
  5
5E
330
59
100
AcDbEntity
  8
0
100
AcDbBlockEnd
  0
BLOCK
  5
66
330
64
100
AcDbEntity
  8
0
100
AcDbBlockBegin
  2
GENAXEH
 70
     0
 10
0.0
 20
0.0
 30
0.0
  3
GENAXEH
  1

  0
LINE
  5
65
330
64
100
AcDbEntity
  8
0
100
AcDbLine
 10
-1.0
 20
0.0
 30
0.0
 11
1.0
 21
0.0
 31
0.0
  0
ENDBLK
  5
67
330
64
100
AcDbEntity
  8
0
100
AcDbBlockEnd
  0
BLOCK
  5
DE4
330
DDA
100
AcDbEntity
  8
0
100
AcDbBlockBegin
  2
*D5
 70
     1
 10
0.0
 20
0.0
 30
0.0
  3
*D5
  1

  0
LINE
  5
1F61
330
DDA
100
AcDbEntity
  8
AM_5
100
AcDbLine
 10
0.000000000000572
 20
-8.0000000000162
 30
0.0
 11
0.0000000000005711
 21
-21.500001
 31
0.0
  0
LINE
  5
1F62
330
DDA
100
AcDbEntity
  8
AM_5
100
AcDbLine
 10
-80.0
 20
-7.500000000000003
 30
0.0
 11
-80.0
 21
-21.500001
 31
0.0
  0
LINE
  5
1F63
330
DDA
100
AcDbEntity
  8
AM_5
100
AcDbLine
 10
-1.249999999999428
 20
-21.000001
 30
0.0
 11
-78.75
 21
-21.000001
 31
0.0
  0
INSERT
  5
1F64
330
DDA
100
AcDbEntity
  8
AM_5
100
AcDbBlockReference
  2
_OPEN30
 10
0.0000000000005712
 20
-21.000001
 30
0.0
 41
1.25
 42
1.25
 43
1.25
  0
INSERT
  5
1F65
330
DDA
100
AcDbEntity
  8
AM_5
100
AcDbBlockReference
  2
_OPEN30
 10
-80.0
 20
-21.000001
 30
0.0
 41
1.25
 42
1.25
 43
1.25
 50
180.0
  0
MTEXT
  5
1F66
330
DDA
100
AcDbEntity
  8
AM_5
 62
     2
100
AcDbMText
 10
-39.99999999999971
 20
-19.450001
 30
0.0
 40
1.6
 41
0.0
 71
     5
 72
     1
  1
80
  7
ASAMI
1001
ACAD
1000
MTEXTBEGIN
1070
    73
1070
     1
1070
    44
1040
1.0
1070
    74
1070
     0
1000
MTEXTEND
  0
POINT
  5
1F67
330
DDA
100
AcDbEntity
  8
DEFPOINTS
 62
     0
100
AcDbPoint
 10
0.000000000000572
 20
-7.5000000000162
 30
0.0
  0
POINT
  5
1F68
330
DDA
100
AcDbEntity
  8
DEFPOINTS
 62
     0
100
AcDbPoint
 10
-80.0
 20
-7.000000000000003
 30
0.0
  0
POINT
  5
1F69
330
DDA
100
AcDbEntity
  8
DEFPOINTS
 62
     0
100
AcDbPoint
 10
-80.0
 20
-21.000001
 30
0.0
  0
ENDBLK
  5
DE5
330
DDA
100
AcDbEntity
  8
0
100
AcDbBlockEnd
  0
BLOCK
  5
DFD
330
DF3
100
AcDbEntity
  8
0
100
AcDbBlockBegin
  2
*D6
 70
     1
 10
0.0
 20
0.0
 30
0.0
  3
*D6
  1

  0
LINE
  5
1FCF
330
DF3
100
AcDbEntity
  8
AM_5
100
AcDbLine
 10
-25.0
 20
-8.000000000016214
 30
0.0
 11
-25.0
 21
-15.500001
 31
0.0
  0
LINE
  5
1FD0
330
DF3
100
AcDbEntity
  8
AM_5
100
AcDbLine
 10
0.000000000000572
 20
-8.0000000000162
 30
0.0
 11
0.0000000000005715
 21
-15.500001
 31
0.0
  0
LINE
  5
1FD1
330
DF3
100
AcDbEntity
  8
AM_5
100
AcDbLine
 10
-23.75
 20
-15.000001
 30
0.0
 11
-1.249999999999428
 21
-15.000001
 31
0.0
  0
INSERT
  5
1FD2
330
DF3
100
AcDbEntity
  8
AM_5
100
AcDbBlockReference
  2
_OPEN30
 10
-25.0
 20
-15.000001
 30
0.0
 41
1.25
 42
1.25
 43
1.25
 50
180.0
  0
INSERT
  5
1FD3
330
DF3
100
AcDbEntity
  8
AM_5
100
AcDbBlockReference
  2
_OPEN30
 10
0.0000000000005715
 20
-15.000001
 30
0.0
 41
1.25
 42
1.25
 43
1.25
  0
MTEXT
  5
1FD4
330
DF3
100
AcDbEntity
  8
AM_5
 62
     2
100
AcDbMText
 10
-12.49999999999971
 20
-13.450001
 30
0.0
 40
1.6
 41
0.0
 71
     5
 72
     1
  1
25
  7
ASAMI
1001
ACAD
1000
MTEXTBEGIN
1070
    73
1070
     1
1070
    44
1040
1.0
1070
    74
1070
     0
1000
MTEXTEND
  0
POINT
  5
1FD5
330
DF3
100
AcDbEntity
  8
DEFPOINTS
 62
     0
100
AcDbPoint
 10
-25.0
 20
-7.500000000016214
 30
0.0
  0
POINT
  5
1FD6
330
DF3
100
AcDbEntity
  8
DEFPOINTS
 62
     0
100
AcDbPoint
 10
0.000000000000572
 20
-7.5000000000162
 30
0.0
  0
POINT
  5
1FD7
330
DF3
100
AcDbEntity
  8
DEFPOINTS
 62
     0
100
AcDbPoint
 10
0.0000000000005715
 20
-15.000001
 30
0.0
  0
ENDBLK
  5
DFE
330
DF3
100
AcDbEntity
  8
0
100
AcDbBlockEnd
  0
BLOCK
  5
E0A
330
DFF
100
AcDbEntity
  8
0
100
AcDbBlockBegin
  2
*D7
 70
     1
 10
0.0
 20
0.0
 30
0.0
  3
*D7
  1

  0
LINE
  5
1F6A
330
DFF
100
AcDbEntity
  8
AM_5
100
AcDbLine
 10
0.5000000000016911
 20
7.499999999983799
 30
0.0
 11
12.05776903085493
 21
7.499999999983796
 31
0.0
  0
LINE
  5
1F6B
330
DFF
100
AcDbEntity
  8
AM_5
100
AcDbLine
 10
0.500000000000572
 20
-7.5000000000162
 30
0.0
 11
12.05776903085492
 21
-7.500000000016203
 31
0.0
  0
LINE
  5
1F6C
330
DFF
100
AcDbEntity
  8
AM_5
100
AcDbLine
 10
11.55776903085492
 20
6.249999999983796
 30
0.0
 11
11.55776903085492
 21
-6.250000000016203
 31
0.0
  0
INSERT
  5
1F6D
330
DFF
100
AcDbEntity
  8
AM_5
100
AcDbBlockReference
  2
_OPEN30
 10
11.55776903085492
 20
7.499999999983796
 30
0.0
 41
1.25
 42
1.25
 43
1.25
 50
90.0
  0
INSERT
  5
1F6E
330
DFF
100
AcDbEntity
  8
AM_5
100
AcDbBlockReference
  2
_OPEN30
 10
11.55776903085492
 20
-7.500000000016203
 30
0.0
 41
1.25
 42
1.25
 43
1.25
 50
270.0
  0
MTEXT
  5
1F6F
330
DFF
100
AcDbEntity
  8
AM_5
 62
     2
100
AcDbMText
 10
10.00776903085492
 20
-0.0000000000162018
 30
0.0
 40
1.6
 41
0.0
 71
     5
 72
     1
  1
%%c15
  7
ASAMI
 11
0.0000000000000001
 21
1.0
 31
0.0
1001
ACAD
1000
MTEXTBEGIN
1070
    73
1070
     1
1070
    44
1040
1.0
1070
    74
1070
     0
1000
MTEXTEND
  0
POINT
  5
1F70
330
DFF
100
AcDbEntity
  8
DEFPOINTS
 62
     0
100
AcDbPoint
 10
0.0000000000016911
 20
7.499999999983799
 30
0.0
  0
POINT
  5
1F71
330
DFF
100
AcDbEntity
  8
DEFPOINTS
 62
     0
100
AcDbPoint
 10
0.000000000000572
 20
-7.5000000000162
 30
0.0
  0
POINT
  5
1F72
330
DFF
100
AcDbEntity
  8
DEFPOINTS
 62
     0
100
AcDbPoint
 10
11.55776903085492
 20
-7.500000000016203
 30
0.0
  0
ENDBLK
  5
E0B
330
DFF
100
AcDbEntity
  8
0
100
AcDbBlockEnd
  0
BLOCK
  5
15DC
330
15D2
100
AcDbEntity
  8
0
100
AcDbBlockBegin
  2
*D8
 70
     1
 10
0.0
 20
0.0
 30
0.0
  3
*D8
  1

  0
LINE
  5
15DE
330
15D2
100
AcDbEntity
  8
AM_5
100
AcDbLine
 10
-79.50000000000001
 20
7.999999999999999
 30
0.0
 11
-92.29349790496838
 21
8.000000000000003
 31
0.0
  0
LINE
  5
15DF
330
15D2
100
AcDbEntity
  8
AM_5
100
AcDbLine
 10
-79.5
 20
-8.0
 30
0.0
 11
-92.29349790496838
 21
-7.999999999999997
 31
0.0
  0
LINE
  5
15E0
330
15D2
100
AcDbEntity
  8
AM_5
100
AcDbLine
 10
-91.79349790496837
 20
6.750000000000002
 30
0.0
 11
-91.79349790496837
 21
-6.749999999999997
 31
0.0
  0
INSERT
  5
15E1
330
15D2
100
AcDbEntity
  8
AM_5
100
AcDbBlockReference
  2
_OPEN30
 10
-91.79349790496837
 20
8.000000000000001
 30
0.0
 41
1.25
 42
1.25
 43
1.25
 50
90.0
  0
INSERT
  5
15E2
330
15D2
100
AcDbEntity
  8
AM_5
100
AcDbBlockReference
  2
_OPEN30
 10
-91.79349790496837
 20
-7.999999999999997
 30
0.0
 41
1.25
 42
1.25
 43
1.25
 50
270.0
  0
MTEXT
  5
15E3
330
15D2
100
AcDbEntity
  8
AM_5
 62
     2
100
AcDbMText
 10
-93.34349790496837
 20
-0.000000000000012
 30
0.0
 40
1.6
 41
0.0
 71
     5
 72
     1
  1
%%c16
  7
ASAMI
 11
0.0000000000000001
 21
1.0
 31
0.0
1001
ACAD
1000
MTEXTBEGIN
1070
    73
1070
     1
1070
    44
1040
1.0
1070
    74
1070
     0
1000
MTEXTEND
  0
POINT
  5
15E4
330
15D2
100
AcDbEntity
  8
DEFPOINTS
 62
     0
100
AcDbPoint
 10
-79.00000000000002
 20
7.999999999999999
 30
0.0
  0
POINT
  5
15E5
330
15D2
100
AcDbEntity
  8
DEFPOINTS
 62
     0
100
AcDbPoint
 10
-79.0
 20
-8.0
 30
0.0
  0
POINT
  5
15E6
330
15D2
100
AcDbEntity
  8
DEFPOINTS
 62
     0
100
AcDbPoint
 10
-91.79349790496837
 20
-7.999999999999997
 30
0.0
  0
ENDBLK
  5
15DD
330
15D2
100
AcDbEntity
  8
0
100
AcDbBlockEnd
  0
ENDSEC
  0
SECTION
  2
ENTITIES
  0
DIMENSION
  5
D71
330
1F
100
AcDbEntity
  8
AM_5
100
AcDbDimension
  2
*D5
 10
-80.0
 20
-21.000001
 30
0.0
 11
-39.99999999999971
 21
-19.450001
 31
0.0
 70
    32
  1
<>
  3
AM_JIS
100
AcDbAlignedDimension
 13
0.000000000000572
 23
-7.5000000000162
 33
0.0
 14
-80.0
 24
-7.000000000000003
 34
0.0
100
AcDbRotatedDimension
1001
GENIUS_GENDTOL_13
1000

1000
h7
1000

1040
0.0
  0
LINE
  5
D74
330
1F
100
AcDbEntity
  8
AM_7
  6
AM_ISO08W050X2
100
AcDbLine
 10
4.557768030854926
 20
0.0
 30
0.0
 11
-84.79349690496837
 21
-0.0000000000000444
 31
0.0
1001
GENIUS_GENODEF_13
1002
{
1000
HIER
1070
     0
1002
}
1002
{
1000
MANEDIT
1070
     0
1002
}
1002
{
1000
NOSEL
1070
     0
1002
}
1002
{
1000
BEHIND
1070
     0
1002
}
1002
{
1000
REACTOR
1002
}
1001
GENIUS_GENOBJ-N-CEN_13
1002
{
1000
OWNER
1000
GEN
1002
}
  0
DIMENSION
  5
D7A
330
1F
100
AcDbEntity
  8
AM_5
100
AcDbDimension
  2
*D6
 10
0.0000000000005715
 20
-15.000001
 30
0.0
 11
-12.49999999999971
 21
-13.450001
 31
0.0
 70
    32
  1
<>
  3
AM_JIS
100
AcDbAlignedDimension
 13
-25.0
 23
-7.500000000016214
 33
0.0
 14
0.000000000000572
 24
-7.5000000000162
 34
0.0
100
AcDbRotatedDimension
1001
GENIUS_GENDTOL_13
1000

1000
h7
1000

1040
0.0
  0
DIMENSION
  5
DA6
330
1F
100
AcDbEntity
  8
AM_5
100
AcDbDimension
  2
*D7
 10
11.55776903085492
 20
-7.500000000016203
 30
0.0
 11
10.00776903085492
 21
-0.0000000000162018
 31
0.0
 70
    32
  1
%%c<>
  3
AM_JIS
100
AcDbAlignedDimension
 13
0.0000000000016911
 23
7.499999999983799
 33
0.0
 14
0.000000000000572
 24
-7.5000000000162
 34
0.0
 50
270.0
100
AcDbRotatedDimension
1001
GENIUS_GENDTOL_13
1000

1000
h7
1000

1040
0.0
  0
TEXT
  5
E5A
330
1F
100
AcDbEntity
  8
AM_6
100
AcDbText
 10
-47.97619047619019
 20
-32.25000099999999
 30
0.0
 40
2.5
  1
SSM4150
 72
     4
 11
-39.99999999999971
 21
-31.000001
 31
0.0
100
AcDbText
  0
LINE
  5
15CB
330
1F
100
AcDbEntity
  8
AM_0
100
AcDbLine
 10
-36.0
 20
8.000000000000017
 30
0.0
 11
-79.0
 21
8.0
 31
0.0
  0
LINE
  5
15CC
330
1F
100
AcDbEntity
  8
AM_0
100
AcDbLine
 10
-36.0
 20
-7.999999999999936
 30
0.0
 11
-79.0
 21
-8.000000000000001
 31
0.0
  0
LINE
  5
15CF
330
1F
100
AcDbEntity
  8
AM_0
100
AcDbLine
 10
-80.0
 20
-7.000000000000003
 30
0.0
 11
-80.0
 21
7.0
 31
0.0
  0
LINE
  5
15D0
330
1F
100
AcDbEntity
  8
AM_0
100
AcDbLine
 10
-79.0
 20
-8.0
 30
0.0
 11
-79.0
 21
7.999999999999999
 31
0.0
  0
DIMENSION
  5
15D1
330
1F
100
AcDbEntity
  8
AM_5
100
AcDbDimension
  2
*D8
 10
-91.79349790496837
 20
-7.999999999999997
 30
0.0
 11
-93.34349790496837
 21
-0.000000000000012
 31
0.0
 70
    32
  1
%%c<>
  3
AM_JIS
100
AcDbAlignedDimension
 13
-79.00000000000002
 23
7.999999999999999
 33
0.0
 14
-79.0
 24
-8.0
 34
0.0
 50
270.0
100
AcDbRotatedDimension
1001
GENIUS_GENDTOL_13
1000

1000
h7
1000

1040
0.0
  0
LINE
  5
15EF
330
1F
100
AcDbEntity
  8
AM_0
100
AcDbLine
 10
-79.0
 20
8.0
 30
0.0
 11
-80.0
 21
7.0
 31
0.0
1001
GENIUS_GENFIL_13
1070
     0
1040
1.0
1040
1.0
1040
20.0
1040
0.0
1002
{
1002
}
1001
GENIUS_GENODEF_13
1002
{
1000
HIER
1070
     0
1002
}
1002
{
1000
MANEDIT
1070
     0
1002
}
1002
{
1000
NOSEL
1070
     0
1002
}
1002
{
1000
BEHIND
1070
     0
1002
}
1002
{
1000
REACTOR
1002
}
1001
GENIUS_GENOBJ-N-CHA_13
1002
{
1000
OWNER
1000
GEN
1002
}
  0
LINE
  5
15F2
330
1F
100
AcDbEntity
  8
AM_0
100
AcDbLine
 10
-80.0
 20
-7.000000000000003
 30
0.0
 11
-79.0
 21
-8.000000000000001
 31
0.0
1001
GENIUS_GENFIL_13
1070
     0
1040
1.0
1040
1.0
1040
20.0
1040
0.0
1002
{
1002
}
1001
GENIUS_GENODEF_13
1002
{
1000
HIER
1070
     0
1002
}
1002
{
1000
MANEDIT
1070
     0
1002
}
1002
{
1000
NOSEL
1070
     0
1002
}
1002
{
1000
BEHIND
1070
     0
1002
}
1002
{
1000
REACTOR
1002
}
1001
GENIUS_GENOBJ-N-CHA_13
1002
{
1000
OWNER
1000
GEN
1002
}
  0
LINE
  5
1604
330
1F
100
AcDbEntity
  8
AM_0
100
AcDbLine
 10
-36.0
 20
-7.99999999999993
 30
0.0
 11
-36.00000000000001
 21
8.000000000000015
 31
0.0
  0
LINE
  5
175C
330
1F
100
AcDbEntity
  8
AM_0
100
AcDbLine
 10
-36.00000000000001
 20
8.000000000000015
 30
0.0
 11
-34.62626129022856
 21
7.499999999983948
 31
0.0
  0
LINE
  5
175D
330
1F
100
AcDbEntity
  8
AM_0
100
AcDbLine
 10
-34.62626129022856
 20
7.499999999983949
 30
0.0
 11
-34.6262612902299
 21
-7.499999999984356
 31
0.0
  0
LINE
  5
175E
330
1F
100
AcDbEntity
  8
AM_0
100
AcDbLine
 10
-34.6262612902299
 20
-7.499999999984353
 30
0.0
 11
-36.0
 21
-7.999999999999931
 31
0.0
  0
SPLINE
  5
1EC5
330
1F
100
AcDbEntity
  8
AM_0
100
AcDbSpline
210
0.0
220
0.0
230
1.0
 70
     8
 71
     3
 72
     8
 73
     4
 74
     0
 42
0.0000000001
 43
0.0000000001
 40
12.94851199321065
 40
12.94851199321065
 40
12.94851199321065
 40
12.94851199321065
 40
14.48999654934396
 40
14.48999654934396
 40
14.48999654934396
 40
14.48999654934396
 10
-24.99999999999991
 20
2.354878513452604
 30
0.0
 10
-21.7994642390991
 20
0.7978700430602004
 30
0.0
 10
-21.09973211954869
 20
0.3989350215220639
 30
0.0
 10
-20.39999999999829
 20
-0.0000000000160441
 30
0.0
  0
SPLINE
  5
1EC7
330
1F
100
AcDbEntity
  8
AM_0
100
AcDbSpline
210
0.0
220
0.0
230
1.0
 70
     8
 71
     3
 72
     8
 73
     4
 74
     0
 42
0.0000000001
 43
0.0000000001
 40
1.870660592686466
 40
1.870660592686466
 40
1.870660592686466
 40
1.870660592686466
 40
14.43901837670146
 40
14.43901837670146
 40
14.43901837670146
 40
14.43901837670146
 10
-0.1574999999982722
 20
-7.100161736448853
 30
0.0
 10
-6.308946886841525
 20
-6.332850918168418
 30
0.0
 10
-12.04538685692396
 20
-3.166425459092266
 30
0.0
 10
-17.78182682700641
 20
-0.0000000000161293
 30
0.0
  0
SPLINE
  5
1ECA
330
1F
100
AcDbEntity
  8
AM_0
100
AcDbSpline
210
0.0
220
0.0
230
1.0
 70
     8
 71
     3
 72
     8
 73
     4
 74
     2
 42
0.0000000001
 43
0.0000000001
 44
0.0000000001
 12
-1.0
 22
-0.0000000000000008
 32
0.0
 40
0.0
 40
0.0
 40
0.0
 40
0.0
 40
21.73499482401594
 40
21.73499482401594
 40
21.73499482401594
 40
21.73499482401594
 10
0.0000000000017124
 20
-7.5000000000162
 30
0.0
 10
-7.244998274670267
 20
-7.500000000016205
 30
0.0
 10
-13.82249913733428
 20
-3.75000000001621
 30
0.0
 10
-20.39999999999829
 20
-0.0000000000162146
 30
0.0
 11
0.0000000000017124
 21
-7.5000000000162
 31
0.0
 11
-20.39999999999829
 21
-0.0000000000162146
 31
0.0
  0
SPLINE
  5
1ECB
330
1F
100
AcDbEntity
  8
AM_0
100
AcDbSpline
210
0.0
220
0.0
230
1.0
 70
     8
 71
     3
 72
     8
 73
     4
 74
     2
 42
0.0000000001
 43
0.0000000001
 44
0.0000000001
 12
1.0
 22
0.0000000000000006
 32
0.0
 40
0.0
 40
0.0
 40
0.0
 40
0.0
 40
21.73499482401593
 40
21.73499482401593
 40
21.73499482401593
 40
21.73499482401593
 10
-20.39999999999829
 20
7.499999999983955
 30
0.0
 10
-13.15500172532631
 20
7.49999999998396
 30
0.0
 10
-6.577500862662304
 20
3.749999999983972
 30
0.0
 10
0.0000000000017053
 20
-0.0000000000160156
 30
0.0
 11
-20.39999999999829
 21
7.499999999983955
 31
0.0
 11
0.0000000000017053
 21
-0.0000000000160156
 31
0.0
  0
SPLINE
  5
1ECC
330
1F
100
AcDbEntity
  8
AM_0
100
AcDbSpline
210
0.0
220
0.0
230
1.0
 70
     8
 71
     3
 72
     8
 73
     4
 74
     0
 42
0.0000000001
 43
0.0000000001
 40
0.3581103616548037
 40
0.3581103616548037
 40
0.3581103616548037
 40
0.3581103616548037
 40
12.40023413887867
 40
12.40023413887867
 40
12.40023413887867
 40
12.40023413887867
 10
-17.24581289898164
 20
7.268768134262799
 30
0.0
 10
-11.25046018317861
 20
7.120145905578041
 30
0.0
 10
-5.681939067223332
 20
4.504051692711314
 30
0.0
 10
-0.1752191885920382
 20
1.53069053489726
 30
0.0
  0
SPLINE
  5
1ECD
330
1F
100
AcDbEntity
  8
AM_0
100
AcDbSpline
210
0.0
220
0.0
230
1.0
 70
     8
 71
     3
 72
     8
 73
     4
 74
     0
 42
0.0000000001
 43
0.0000000001
 40
4.542668862435135
 40
4.542668862435135
 40
4.542668862435135
 40
4.542668862435135
 40
14.36247867694493
 40
14.36247867694493
 40
14.36247867694493
 40
14.36247867694493
 10
-1.027499999996202
 20
-5.996424983201137
 30
0.0
 10
-5.729189755281609
 20
-4.735508529875488
 30
0.0
 10
-10.24810736690848
 20
-2.367754264945801
 30
0.0
 10
-14.76702497853536
 20
-0.0000000000161009
 30
0.0
  0
SPLINE
  5
1ECE
330
1F
100
AcDbEntity
  8
AM_0
100
AcDbSpline
210
0.0
220
0.0
230
1.0
 70
     8
 71
     3
 72
     8
 73
     4
 74
     0
 42
0.0000000001
 43
0.0000000001
 40
0.0
 40
0.0
 40
0.0
 40
0.0
 40
5.635889483499127
 40
5.635889483499127
 40
5.635889483499127
 40
5.635889483499127
 10
0.0000000000016911
 20
7.499999999983813
 30
0.0
 10
-2.817944741747858
 20
7.499999999983813
 30
0.0
 10
-5.534908880752475
 20
6.932691043452521
 30
0.0
 10
-8.190168859564046
 20
6.018728157540678
 30
0.0
  0
SPLINE
  5
1ECF
330
1F
100
AcDbEntity
  8
AM_0
100
AcDbSpline
210
0.0
220
0.0
230
1.0
 70
     8
 71
     3
 72
     8
 73
     4
 74
     2
 42
0.0000000001
 43
0.0000000001
 44
0.0000000001
 12
-0.6417012268563094
 22
-0.7669547153848835
 32
0.0
 13
-0.990099942783104
 23
-0.140364180975397
 33
0.0
 40
0.0
 40
0.0
 40
0.0
 40
0.0
 40
3.879847985425064
 40
3.879847985425064
 40
3.879847985425064
 40
3.879847985425064
 10
0.0000000000016911
 20
6.112054030009758
 30
0.0
 10
-0.8299010707527237
 20
5.120164794210327
 30
0.0
 10
-2.254379257072297
 20
4.694210695370341
 30
0.0
 10
-3.53485834653113
 20
4.51268013377593
 30
0.0
 11
0.0000000000016911
 21
6.112054030009758
 31
0.0
 11
-3.53485834653113
 21
4.51268013377593
 31
0.0
  0
SPLINE
  5
1ED0
330
1F
100
AcDbEntity
  8
AM_0
100
AcDbSpline
210
0.0
220
0.0
230
1.0
 70
     8
 71
     3
 72
     8
 73
     4
 74
     0
 42
0.0000000001
 43
0.0000000001
 40
0.7142832446738512
 40
0.7142832446738512
 40
0.7142832446738512
 40
0.7142832446738512
 40
9.361146747480315
 40
9.361146747480315
 40
9.361146747480315
 40
9.361146747480315
 10
-13.69977295870488
 20
6.900896684720223
 30
0.0
 10
-9.409734050828006
 20
6.698675158441162
 30
0.0
 10
-5.316662027170345
 20
5.303654824183254
 30
0.0
 10
-1.29576780694326
 20
3.471537674205237
 30
0.0
  0
SPLINE
  5
1ED3
330
1F
100
AcDbEntity
  8
AM_0
100
AcDbSpline
210
0.0
220
0.0
230
1.0
 70
     8
 71
     3
 72
     8
 73
     4
 74
     0
 42
0.0000000001
 43
0.0000000001
 40
10.38442441395913
 40
10.38442441395913
 40
10.38442441395913
 40
10.38442441395913
 40
14.43901837670146
 40
14.43901837670146
 40
14.43901837670146
 40
14.43901837670146
 10
-25.53226266260482
 20
3.855193871439126
 30
0.0
 10
-22.53414685271234
 20
2.762249311049941
 30
0.0
 10
-19.63242141303195
 20
1.021499369310546
 30
0.0
 10
-17.78182682700641
 20
-0.0000000000161293
 30
0.0
  0
LINE
  5
1ED5
330
1F
100
AcDbEntity
  8
AM_11
100
AcDbLine
 10
0.00000000000054
 20
7.499999999983799
 30
0.0
 11
-25.00000000000003
 21
7.499999999983756
 31
0.0
  0
LINE
  5
1ED6
330
1F
100
AcDbEntity
  8
AM_0
100
AcDbLine
 10
-0.1574999999982936
 20
1.49999999998397
 30
0.0
 11
-1.601286296617089
 21
4.000711220999392
 31
0.0
  0
LINE
  5
1ED7
330
1F
100
AcDbEntity
  8
AM_0
100
AcDbLine
 10
-1.290686978535052
 20
-2.210482147766015
 30
0.0
 11
-0.1574999999982829
 21
-1.990346781860978
 31
0.0
  0
LINE
  5
1ED8
330
1F
100
AcDbEntity
  8
AM_0
100
AcDbLine
 10
0.0000000000017017
 20
-1.5000000000162
 30
0.0
 11
-0.8660254037827748
 21
-0.0000000000161151
 31
0.0
  0
LINE
  5
1ED9
330
1F
100
AcDbEntity
  8
AM_0
100
AcDbLine
 10
-3.534858346531127
 20
-1.200000000016217
 30
0.0
 11
-0.173205080755185
 21
-1.200000000016217
 31
0.0
  0
LINE
  5
1EDA
330
1F
100
AcDbEntity
  8
AM_0
100
AcDbLine
 10
0.0000000000017017
 20
-0.0000000000162004
 30
0.0
 11
-3.534858346531127
 21
-0.0000000000162004
 31
0.0
  0
LINE
  5
1EDB
330
1F
100
AcDbEntity
  8
AM_0
100
AcDbLine
 10
-0.1574999999982722
 20
-7.100161736448853
 30
0.0
 11
-1.027499999998291
 21
-5.996424983209067
 31
0.0
  0
LINE
  5
1EDC
330
1F
100
AcDbEntity
  8
AM_11
100
AcDbLine
 10
-25.0
 20
-7.500000000016214
 30
0.0
 11
0.0000000000017124
 21
-7.5000000000162
 31
0.0
  0
ARC
  5
1EE0
330
1F
100
AcDbEntity
  8
AM_0
100
AcDbCircle
 10
2.978509773042507
 20
-3.815820247093057
 30
0.0
 40
4.561047173274075
100
AcDbArc
 50
159.392326973258
 51
208.5609268810354
  0
LINE
  5
1EF2
330
1F
100
AcDbEntity
  8
AM_11
100
AcDbLine
 10
-25.00000000000002
 20
7.499999999983955
 30
0.0
 11
-25.0
 21
-7.500000000016214
 31
0.0
  0
LINE
  5
1F02
330
1F
100
AcDbEntity
  8
AM_0
100
AcDbLine
 10
-3.534858346531127
 20
-1.200000000016217
 30
0.0
 11
-1.290686978535052
 21
-2.210482147766015
 31
0.0
  0
LINE
  5
1F03
330
1F
100
AcDbEntity
  8
AM_0
100
AcDbLine
 10
-3.534858346531127
 20
-0.0000000000162004
 30
0.0
 11
-3.534858346531127
 21
-1.200000000016217
 31
0.0
  0
LINE
  5
1F04
330
1F
100
AcDbEntity
  8
AM_0
100
AcDbLine
 10
-1.601286296617089
 20
4.000711220999392
 30
0.0
 11
-3.534858346531127
 21
4.512680133775916
 31
0.0
  0
LINE
  5
1F05
330
1F
100
AcDbEntity
  8
AM_0
100
AcDbLine
 10
-0.1574999999982722
 20
-7.100161736448939
 30
0.0
 11
-0.1574999999982829
 21
-1.990346781860978
 31
0.0
  0
LINE
  5
1F06
330
1F
100
AcDbEntity
  8
AM_0
100
AcDbLine
 10
0.0000000000017124
 20
-7.5000000000162
 30
0.0
 11
0.0000000000017017
 21
-1.5000000000162
 31
0.0
  0
LINE
  5
1F07
330
1F
100
AcDbEntity
  8
AM_0
100
AcDbLine
 10
0.0000000000017124
 20
-7.5000000000162
 30
0.0
 11
-0.1574999999982722
 21
-7.100161736448939
 31
0.0
  0
LINE
  5
1F08
330
1F
100
AcDbEntity
  8
AM_0
100
AcDbLine
 10
0.0000000000017017
 20
-0.0000000000162004
 30
0.0
 11
0.0000000000016911
 21
7.499999999983799
 31
0.0
  0
LINE
  5
1F09
330
1F
100
AcDbEntity
  8
AM_0
100
AcDbLine
 10
0.0000000000017017
 20
-0.0000000000162004
 30
0.0
 11
-0.1574999999982936
 21
1.49999999998397
 31
0.0
  0
LINE
  5
1F0A
330
1F
100
AcDbEntity
  8
AM_0
100
AcDbLine
 10
-0.1574999999982829
 20
-1.990346781860978
 30
0.0
 11
0.0000000000017017
 21
-1.5000000000162
 31
0.0
  0
LINE
  5
1F0B
330
1F
100
AcDbEntity
  8
AM_0
100
AcDbLine
 10
0.0000000000017017
 20
-0.0000000000162004
 30
0.0
 11
-0.1332639137142486
 21
-1.269180130644826
 31
0.0
  0
SPLINE
  5
1F0E
330
1F
100
AcDbEntity
  8
AM_0
100
AcDbSpline
210
0.0
220
0.0
230
1.0
 70
     8
 71
     3
 72
     8
 73
     4
 74
     0
 42
0.0000000001
 43
0.0000000001
 40
4.48458745047074
 40
4.48458745047074
 40
4.48458745047074
 40
4.48458745047074
 40
14.36247867694493
 40
14.36247867694493
 40
14.36247867694493
 40
14.36247867694493
 10
-28.9901688595665
 20
6.018623220241352
 30
0.0
 10
-24.25831645407951
 20
4.763517730324508
 30
0.0
 10
-19.71267071630837
 20
2.381758865154182
 30
0.0
 10
-14.76702497853536
 20
-0.0000000000161009
 30
0.0
  0
POLYLINE
  5
1F0F
330
1F
100
AcDbEntity
  8
AM_0
100
AcDb2dPolyline
 66
     1
 10
0.0
 20
0.0
 30
0.0
 70
     2
  0
VERTEX
  5
1F10
330
1F0F
100
AcDbEntity
  8
AM_0
100
AcDbVertex
100
AcDb2dVertex
 10
-28.99016885956651
 20
6.018623220241337
 30
0.0
 42
-0.0080850818469205
  0
VERTEX
  5
1F11
330
1F0F
100
AcDbEntity
  8
AM_0
100
AcDbVertex
100
AcDb2dVertex
 10
-29.7422319601623
 20
6.254194181025354
 30
0.0
 42
-0.0113772357485858
 70
     1
  0
VERTEX
  5
1F12
330
1F0F
100
AcDbEntity
  8
AM_0
100
AcDbVertex
100
AcDb2dVertex
 10
-30.27805593960299
 20
6.445305902521397
 30
0.0
 42
-0.0082896290467094
  0
VERTEX
  5
1F13
330
1F0F
100
AcDbEntity
  8
AM_0
100
AcDbVertex
100
AcDb2dVertex
 10
-31.98581298043886
 20
7.13124213850061
 30
0.0
 42
-0.2726804491113656
 70
     1
  0
VERTEX
  5
1F14
330
1F0F
100
AcDbEntity
  8
AM_0
100
AcDbVertex
100
AcDb2dVertex
 10
-32.02170024526497
 20
7.179456099087261
 30
0.0
 42
-0.4014058829339297
  0
VERTEX
  5
1F15
330
1F0F
100
AcDbEntity
  8
AM_0
100
AcDbVertex
100
AcDb2dVertex
 10
-31.95664172507362
 20
7.26398106391413
 30
0.0
 42
-0.0313656446754737
 70
     1
  0
VERTEX
  5
1F16
330
1F0F
100
AcDbEntity
  8
AM_0
100
AcDbVertex
100
AcDb2dVertex
 10
-30.78449185479114
 20
7.368179736989645
 30
0.0
 42
-0.0039726403541645
  0
VERTEX
  5
1F17
330
1F0F
100
AcDbEntity
  8
AM_0
100
AcDbVertex
100
AcDb2dVertex
 10
-29.71703681383054
 20
7.387402755660133
 30
0.0
 42
0.0019401889352083
 70
     1
  0
VERTEX
  5
1F18
330
1F0F
100
AcDbEntity
  8
AM_0
100
AcDbVertex
100
AcDb2dVertex
 10
-27.53124999999993
 20
7.417877784866306
 30
0.0
 42
0.0036525506412497
  0
VERTEX
  5
1F19
330
1F0F
100
AcDbEntity
  8
AM_0
100
AcDbVertex
100
AcDb2dVertex
 10
-26.67171988671661
 20
7.439479658163634
 30
0.0
 42
0.0018773371428962
 70
     1
  0
VERTEX
  5
1F1A
330
1F0F
100
AcDbEntity
  8
AM_0
100
AcDbVertex
100
AcDb2dVertex
 10
-24.99999999999992
 20
7.499999999983771
 30
0.0
  0
SEQEND
  5
1F1B
330
1F0F
100
AcDbEntity
  8
AM_0
  0
LINE
  5
1F1C
330
1F
100
AcDbEntity
  8
AM_0
100
AcDbLine
 10
-24.99999999999992
 20
4.702738008339196
 30
0.0
 11
-25.53226266260482
 21
3.855193871439126
 31
0.0
  0
LINE
  5
1F1D
330
1F
100
AcDbEntity
  8
AM_0
100
AcDbLine
 10
-25.53226266260482
 20
3.855193871439126
 30
0.0
 11
-24.99999999999991
 21
2.354878513452604
 31
0.0
  0
LWPOLYLINE
  5
1F1E
330
1F
100
AcDbEntity
  8
AM_0
100
AcDbPolyline
 90
        7
 70
     0
 43
0.0
 10
-24.99999999999992
 20
2.354878513452604
 10
-27.53124999999992
 20
2.891474551836296
 10
-30.90624999999992
 20
2.715151777415201
 10
-31.74999999999992
 20
1.710888931215237
 10
-30.90624999999992
 20
-0.0653920933669099
 10
-27.53124999999991
 20
-3.329787581316821
 10
-24.99999999999991
 20
-4.980777297594642
  0
SPLINE
  5
1F1F
330
1F
100
AcDbEntity
  8
AM_0
100
AcDbSpline
210
0.0
220
0.0
230
1.0
 70
     8
 71
     3
 72
     8
 73
     4
 74
     0
 42
0.0000000001
 43
0.0000000001
 40
0.0
 40
0.0
 40
0.0
 40
0.0
 40
1.412269715655734
 40
1.412269715655734
 40
1.412269715655734
 40
1.412269715655734
 10
-22.9000000000002
 20
-7.396603118884854
 30
0.0
 10
-23.60613485782809
 20
-7.396603118884854
 30
0.0
 10
-24.30592885346223
 20
-7.360980159456403
 30
0.0
 10
-24.99999999999991
 20
-7.293206237753679
 30
0.0
  0
SPLINE
  5
1F20
330
1F
100
AcDbEntity
  8
AM_0
100
AcDbSpline
210
0.0
220
0.0
230
1.0
 70
     8
 71
     3
 72
     8
 73
     4
 74
     0
 42
0.0000000001
 43
0.0000000001
 40
0.0
 40
0.0
 40
0.0
 40
0.0
 40
1.412269715655931
 40
1.412269715655931
 40
1.412269715655931
 40
1.412269715655931
 10
-20.80000000000024
 20
-7.500000000016029
 30
0.0
 10
-21.50613485782821
 20
-7.500000000016029
 30
0.0
 10
-22.20592885346243
 20
-7.464377040587578
 30
0.0
 10
-22.90000000000024
 20
-7.396603118884854
 30
0.0
  0
ARC
  5
1F21
330
1F
100
AcDbEntity
  8
AM_0
100
AcDbCircle
 10
-24.97564955894743
 20
-23.30458422318199
 30
0.0
 40
16.01139650174946
100
AcDbArc
 50
90.08713656171535
 51
99.21891394236288
  0
LINE
  5
1F22
330
1F
100
AcDbEntity
  8
AM_0
100
AcDbLine
 10
-24.99999999999991
 20
-4.980777297594642
 30
0.0
 11
-25.00000000000008
 21
-7.293206237753736
 31
0.0
  0
SPLINE
  5
1F23
330
1F
100
AcDbEntity
  8
AM_0
100
AcDbSpline
210
0.0
220
0.0
230
1.0
 70
     8
 71
     3
 72
     8
 73
     4
 74
     0
 42
0.0000000001
 43
0.0000000001
 40
0.0
 40
0.0
 40
0.0
 40
0.0
 40
6.769478140335353
 40
6.769478140335353
 40
6.769478140335353
 40
6.769478140335353
 10
-15.16702497853731
 20
-6.926166755720061
 30
0.0
 10
-18.55176404870498
 20
-6.926166755720061
 30
0.0
 10
-21.80946309905274
 20
-6.156833449730697
 30
0.0
 10
-24.99999999999991
 20
-4.980777297594642
 30
0.0
  0
SPLINE
  5
1F24
330
1F
100
AcDbEntity
  8
AM_0
100
AcDbSpline
210
0.0
220
0.0
230
1.0
 70
     8
 71
     3
 72
     8
 73
     4
 74
     0
 42
0.0000000001
 43
0.0000000001
 40
0.0
 40
0.0
 40
0.0
 40
0.0
 40
4.662554012798695
 40
4.662554012798695
 40
4.662554012798695
 40
4.662554012798695
 10
-18.18182682700832
 20
-7.275425505519109
 30
0.0
 10
-20.51310383340762
 20
-7.275425505519109
 30
0.0
 10
-22.77876553509279
 20
-6.896109807774394
 30
0.0
 10
-24.99999999999991
 20
-6.259964573220258
 30
0.0
  0
SPLINE
  5
1F25
330
1F
100
AcDbEntity
  8
AM_0
100
AcDbSpline
210
0.0
220
0.0
230
1.0
 70
     8
 71
     3
 72
     8
 73
     4
 74
     0
 42
0.0000000001
 43
0.0000000001
 40
0.0
 40
0.0
 40
0.0
 40
0.0
 40
4.451443990518192
 40
4.451443990518192
 40
4.451443990518192
 40
4.451443990518192
 10
-15.16702497853731
 20
-6.926166755720231
 30
0.0
 10
-12.94130298327819
 20
-6.926166755720231
 30
0.0
 10
-10.77051382127875
 20
-6.593502621387358
 30
0.0
 10
-8.637631849821175
 20
-6.031278823401407
 30
0.0
  0
SPLINE
  5
1F26
330
1F
100
AcDbEntity
  8
AM_0
100
AcDbSpline
210
0.0
220
0.0
230
1.0
 70
     8
 71
     3
 72
     8
 73
     4
 74
     0
 42
0.0000000001
 43
0.0000000001
 40
0.0
 40
0.0
 40
0.0
 40
0.0
 40
2.764560748519282
 40
2.764560748519282
 40
2.764560748519282
 40
2.764560748519282
 10
-18.18182682700832
 20
-7.27542550551928
 30
0.0
 10
-16.7995464527487
 20
-7.27542550551928
 30
0.0
 10
-15.4403340641832
 20
-7.142071722781281
 30
0.0
 10
-14.09977295886482
 20
-6.90089668478086
 30
0.0
  0
SPLINE
  5
1F27
330
1F
100
AcDbEntity
  8
AM_0
100
AcDbSpline
210
0.0
220
0.0
230
1.0
 70
     8
 71
     3
 72
     8
 73
     4
 74
     0
 42
0.0000000001
 43
0.0000000001
 40
0.0
 40
0.0
 40
0.0
 40
0.0
 40
2.130230809022907
 40
2.130230809022907
 40
2.130230809022907
 40
2.130230809022907
 10
-20.80000000000024
 20
-7.5000000000162
 30
0.0
 10
-19.73488459548876
 20
-7.5000000000162
 30
0.0
 10
-18.68419586919482
 20
-7.418950931746451
 30
0.0
 10
-17.64581289898387
 20
-7.268768134295044
 30
0.0
  0
LINE
  5
1FE2
330
1F
100
AcDbEntity
  8
AM_0
100
AcDbLine
 10
-20.39999999999829
 20
7.499999999983955
 30
0.0
 11
-34.62626129022856
 21
7.499999999983948
 31
0.0
  0
LINE
  5
1FE3
330
1F
100
AcDbEntity
  8
AM_0
100
AcDbLine
 10
-27.54078804820968
 20
-7.500000000016218
 30
0.0
 11
-34.62626129031746
 21
-7.500000000016222
 31
0.0
  0
VIEWPORT
  5
110
330
101
100
AcDbEntity
 67
     1
  8
0
100
AcDbViewport
 10
420.5
 20
297.0
 30
0.0
 40
948.9782706766916
 41
628.452
 68
     1
 69
     1
1001
ACAD
1000
MVIEW
1002
{
1070
    16
1010
0.0
1020
0.0
1030
0.0
1010
0.0
1020
0.0
1030
1.0
1040
0.0
1040
628.452
1040
420.5
1040
297.0
1040
50.0
1040
0.0
1040
0.0
1070
     0
1070
   100
1070
     1
1070
     1
1070
     0
1070
     0
1070
     0
1070
     0
1040
0.0
1040
0.0
1040
0.0
1040
10.0
1040
10.0
1040
10.0
1040
10.0
1070
     0
1002
{
1002
}
1002
}
  0
ENDSEC
  0
SECTION
  2
OBJECTS
  0
DICTIONARY
  5
C
330
0
100
AcDbDictionary
  3
ACAD_GROUP
350
D
  3
ACAD_LAYOUT
350
1A
  3
ACAD_MLINESTYLE
350
17
  3
ACAD_PLOTSETTINGS
350
19
  3
ACAD_PLOTSTYLENAME
350
E
  3
ACDBVARIABLEDICTIONARY
350
34
  3
ACMDICTIONARY
350
43
  3
AMG
350
2B
  3
AMGSNAPSETTINGS
350
6E
  3
DWGPROPS
350
2217
  3
ACDBHEADERROUNDTRIPXREC
350
2223
  0
DICTIONARY
  5
74
330
1F
100
AcDbDictionary
280
     1
  3
ACAD_INDEX
360
2219
  3
ACAD_LAYOUTSELFREF
360
2246
  0
DICTIONARY
  5
224B
330
101
100
AcDbDictionary
280
     1
  3
ACAD_LAYOUTSELFREF
360
224C
  0
DICTIONARY
  5
D
102
{ACAD_REACTORS
330
C
102
}
330
C
100
AcDbDictionary
  0
DICTIONARY
  5
1A
102
{ACAD_REACTORS
330
C
102
}
330
C
100
AcDbDictionary
  0
DICTIONARY
  5
17
102
{ACAD_REACTORS
330
C
102
}
330
C
100
AcDbDictionary
  3
STANDARD
350
18
  0
DICTIONARY
  5
19
102
{ACAD_REACTORS
330
C
102
}
330
C
100
AcDbDictionary
  0
ACDBDICTIONARYWDFLT
  5
E
102
{ACAD_REACTORS
330
C
102
}
330
C
100
AcDbDictionary
281
     1
  3
Normal
350
F
100
AcDbDictionaryWithDefault
340
F
  0
DICTIONARY
  5
34
102
{ACAD_REACTORS
330
C
102
}
330
C
100
AcDbDictionary
  3
INDEXCTL
350
35
  3
SORTENTS
350
B5E
  0
DICTIONARY
  5
43
102
{ACAD_REACTORS
330
C
102
}
330
C
100
AcDbDictionary
  3
ACMSTDDICTIONARY
350
260
  0
DICTIONARY
  5
2B
102
{ACAD_REACTORS
330
C
102
}
330
C
100
AcDbDictionary
  3
ACMGSETTINGS
350
2C
  0
DICTIONARY
  5
6E
102
{ACAD_REACTORS
330
C
102
}
330
C
100
AcDbDictionary
  0
XRECORD
  5
2217
102
{ACAD_REACTORS
330
C
102
}
330
C
100
AcDbXrecord
  1
DWGPROPS COOKIE
  2

  3

  4

  6

  7

  8

  9

300
AmdtFileType=82
301
=
302
=
303
=
304
=
305
=
306
=
307
=
308
=
309
=
 40
0.0516115046296296
 41
2452836.771637361
 42
2452845.70928331
  1

 90
        1
  0
DICTIONARY
  5
2223
102
{ACAD_REACTORS
330
C
102
}
330
C
100
AcDbDictionary
  3
TSTACKALIGN
350
2224
  3
TSTACKSIZE
350
2225
  3
HYPERLINKBASE
350
2226
  3
STYLESHEET
350
2227
  3
LAYOUTDICT
350
2228
  3
PLOTSETDICT
350
2229
  3
PLOTSTYLNAMDICT
350
222A
  3
LWETCUNION
350
222B
  3
INSUNITS
350
222C
  3
CEPSNTYPE
350
222D
  3
FINGERPRINTGUID
350
222E
  3
VERSIONGUID
350
222F
  3
PSVPSCALE
350
2230
  3
DIMSTYLEDATA
350
2231
  3
PUCSORTHOREF
350
2232
  3
PUCSORTHOVIEW
350
2233
  3
PUCSBASE
350
2234
  3
PUCSORGTOP
350
2235
  3
PUCSORGBOTTOM
350
2236
  3
PUCSORGLEFT
350
2237
  3
PUCSORGRIGHT
350
2238
  3
PUCSORGFRONT
350
2239
  3
PUCSORGBACK
350
223A
  3
UCSORTHOREF
350
223B
  3
UCSORTHOVIEW
350
223C
  3
UCSBASE
350
223D
  3
UCSORGTOP
350
223E
  3
UCSORGBOTTOM
350
223F
  3
UCSORGLEFT
350
2240
  3
UCSORGRIGHT
350
2241
  3
UCSORGFRONT
350
2242
  3
UCSORGBACK
350
2243
  0
DICTIONARY
  5
2219
102
{ACAD_REACTORS
330
74
102
}
330
74
100
AcDbDictionary
  3
*A1
350
221A
  0
XRECORD
  5
2246
102
{ACAD_REACTORS
330
74
102
}
330
74
100
AcDbXrecord
340
1F
  0
XRECORD
  5
224C
102
{ACAD_REACTORS
330
224B
102
}
330
224B
100
AcDbXrecord
340
101
  0
MLINESTYLE
  5
18
102
{ACAD_REACTORS
330
17
102
}
330
17
100
AcDbMlineStyle
  2
STANDARD
 70
     0
  3

 62
   256
 51
90.0
 52
90.0
 71
     2
 49
0.5
 62
   256
  6
BYLAYER
 49
-0.5
 62
   256
  6
BYLAYER
  0
ACDBPLACEHOLDER
  5
F
102
{ACAD_REACTORS
330
E
102
}
330
E
100
AcDbPlaceHolder
280
     0
  0
DICTIONARYVAR
  5
35
102
{ACAD_REACTORS
330
34
102
}
330
34
100
DictionaryVariables
280
     0
  1
1
  0
DICTIONARYVAR
  5
B5E
102
{ACAD_REACTORS
330
34
102
}
330
34
100
DictionaryVariables
280
     0
  1
96
  0
DICTIONARY
  5
260
102
{ACAD_REACTORS
330
43
102
}
330
43
100
AcDbDictionary
  0
DICTIONARY
  5
2C
102
{ACAD_REACTORS
330
2B
102
}
330
2B
100
AcDbDictionary
  3
DWGSETTINGS
350
2D
  0
XRECORD
  5
2224
102
{ACAD_REACTORS
330
2223
102
}
330
2223
100
AcDbXrecord
 90
        1
  0
XRECORD
  5
2225
102
{ACAD_REACTORS
330
2223
102
}
330
2223
100
AcDbXrecord
 90
       70
  0
XRECORD
  5
2226
102
{ACAD_REACTORS
330
2223
102
}
330
2223
100
AcDbXrecord
  1

  0
XRECORD
  5
2227
102
{ACAD_REACTORS
330
2223
102
}
330
2223
100
AcDbXrecord
  1
ASAMI.ctb
  0
XRECORD
  5
2228
102
{ACAD_REACTORS
330
2223
102
}
330
2223
100
AcDbXrecord
340
1A
  0
XRECORD
  5
2229
102
{ACAD_REACTORS
330
2223
102
}
330
2223
100
AcDbXrecord
340
19
  0
XRECORD
  5
222A
102
{ACAD_REACTORS
330
2223
102
}
330
2223
100
AcDbXrecord
340
E
  0
XRECORD
  5
222B
102
{ACAD_REACTORS
330
2223
102
}
330
2223
100
AcDbXrecord
 90
    10781
  0
XRECORD
  5
222C
102
{ACAD_REACTORS
330
2223
102
}
330
2223
100
AcDbXrecord
 90
        4
  0
XRECORD
  5
222D
102
{ACAD_REACTORS
330
2223
102
}
330
2223
100
AcDbXrecord
 90
        0
  0
XRECORD
  5
222E
102
{ACAD_REACTORS
330
2223
102
}
330
2223
100
AcDbXrecord
  1
{AFB28963-8C59-40AE-9337-C84526B81ACE}
  0
XRECORD
  5
222F
102
{ACAD_REACTORS
330
2223
102
}
330
2223
100
AcDbXrecord
  1
{C1670113-2527-404A-AABF-2A3319D98C5D}
  0
XRECORD
  5
2230
102
{ACAD_REACTORS
330
2223
102
}
330
2223
100
AcDbXrecord
 40
0.0
  0
XRECORD
  5
2231
102
{ACAD_REACTORS
330
2223
102
}
330
2223
100
AcDbXrecord
1000
DSTYLE
1002
{
1070
    79
 70
     2
1070
   341
340
59
1070
   342
340
59
1070
   371
 70
    -1
1070
   372
 70
    -1
1002
}
  0
XRECORD
  5
2232
102
{ACAD_REACTORS
330
2223
102
}
330
2223
100
AcDbXrecord
340
0
  0
XRECORD
  5
2233
102
{ACAD_REACTORS
330
2223
102
}
330
2223
100
AcDbXrecord
 70
     0
  0
XRECORD
  5
2234
102
{ACAD_REACTORS
330
2223
102
}
330
2223
100
AcDbXrecord
340
0
  0
XRECORD
  5
2235
102
{ACAD_REACTORS
330
2223
102
}
330
2223
100
AcDbXrecord
 10
0.0
 20
0.0
 30
0.0
  0
XRECORD
  5
2236
102
{ACAD_REACTORS
330
2223
102
}
330
2223
100
AcDbXrecord
 10
0.0
 20
0.0
 30
0.0
  0
XRECORD
  5
2237
102
{ACAD_REACTORS
330
2223
102
}
330
2223
100
AcDbXrecord
 10
0.0
 20
0.0
 30
0.0
  0
XRECORD
  5
2238
102
{ACAD_REACTORS
330
2223
102
}
330
2223
100
AcDbXrecord
 10
0.0
 20
0.0
 30
0.0
  0
XRECORD
  5
2239
102
{ACAD_REACTORS
330
2223
102
}
330
2223
100
AcDbXrecord
 10
0.0
 20
0.0
 30
0.0
  0
XRECORD
  5
223A
102
{ACAD_REACTORS
330
2223
102
}
330
2223
100
AcDbXrecord
 10
0.0
 20
0.0
 30
0.0
  0
XRECORD
  5
223B
102
{ACAD_REACTORS
330
2223
102
}
330
2223
100
AcDbXrecord
340
0
  0
XRECORD
  5
223C
102
{ACAD_REACTORS
330
2223
102
}
330
2223
100
AcDbXrecord
 70
     0
  0
XRECORD
  5
223D
102
{ACAD_REACTORS
330
2223
102
}
330
2223
100
AcDbXrecord
340
0
  0
XRECORD
  5
223E
102
{ACAD_REACTORS
330
2223
102
}
330
2223
100
AcDbXrecord
 10
0.0
 20
0.0
 30
0.0
  0
XRECORD
  5
223F
102
{ACAD_REACTORS
330
2223
102
}
330
2223
100
AcDbXrecord
 10
0.0
 20
0.0
 30
0.0
  0
XRECORD
  5
2240
102
{ACAD_REACTORS
330
2223
102
}
330
2223
100
AcDbXrecord
 10
0.0
 20
0.0
 30
0.0
  0
XRECORD
  5
2241
102
{ACAD_REACTORS
330
2223
102
}
330
2223
100
AcDbXrecord
 10
0.0
 20
0.0
 30
0.0
  0
XRECORD
  5
2242
102
{ACAD_REACTORS
330
2223
102
}
330
2223
100
AcDbXrecord
 10
0.0
 20
0.0
 30
0.0
  0
XRECORD
  5
2243
102
{ACAD_REACTORS
330
2223
102
}
330
2223
100
AcDbXrecord
 10
0.0
 20
0.0
 30
0.0
  0
LAYER_INDEX
  5
221A
102
{ACAD_REACTORS
330
2219
102
}
330
2219
100
AcDbIndex
 40
2453151.800862465
100
AcDbLayerIndex
  8
0
360
221B
 90
        0
  8
AM_0
360
221C
 90
       53
  8
AM_11
360
221D
 90
        3
  8
AM_7
360
221E
 90
        1
  8
AM_5
360
221F
 90
        4
  8
Defpoints
360
2220
 90
        0
  8
AM_6
360
2221
 90
        1
  0
XRECORD
  5
2D
102
{ACAD_REACTORS
330
2C
102
}
330
2C
100
AcDbXrecord
  1
VERSION
140
15.0
  1
PRODUCT
  2
AutoCAD Mechanical 2000
  0
IDBUFFER
  5
221B
330
0
100
AcDbIdBuffer
  0
IDBUFFER
  5
221C
330
0
100
AcDbIdBuffer
330
1F25
330
1F26
330
1F27
330
1FE2
330
1FE3
330
15CB
330
15CC
330
15CF
330
15D0
330
15EF
330
15F2
330
1604
330
175C
330
175D
330
175E
330
1EC5
330
1EC7
330
1ECA
330
1ECB
330
1ECC
330
1ECD
330
1ECE
330
1ECF
330
1ED0
330
1ED3
330
1ED6
330
1ED7
330
1ED8
330
1ED9
330
1EDA
330
1EDB
330
1EE0
330
1F02
330
1F03
330
1F04
330
1F05
330
1F06
330
1F07
330
1F08
330
1F09
330
1F0A
330
1F0B
330
1F0E
330
1F0F
330
1F1C
330
1F1D
330
1F1E
330
1F1F
330
1F20
330
1F21
330
1F22
330
1F23
330
1F24
  0
IDBUFFER
  5
221D
330
0
100
AcDbIdBuffer
330
1ED5
330
1EDC
330
1EF2
  0
IDBUFFER
  5
221E
330
0
100
AcDbIdBuffer
330
D74
  0
IDBUFFER
  5
221F
330
0
100
AcDbIdBuffer
330
D71
330
D7A
330
DA6
330
15D1
  0
IDBUFFER
  5
2220
330
0
100
AcDbIdBuffer
  0
IDBUFFER
  5
2221
330
0
100
AcDbIdBuffer
330
E5A
  0
ENDSEC
  0
EOF
