  0
SECTION
  2
HEADER
  9
$ACADVER
  1
AC1014
  9
$ACADMAINTVER
 70
     9
  9
$DWGCODEPAGE
  3
ANSI_932
  9
$INSBASE
 10
0.0
 20
0.0
 30
0.0
  9
$EXTMIN
 10
-113.4934979049683
 20
-56.50000101
 30
-0.00000001
  9
$EXTMAX
 10
19.55776903085492
 20
9.688567076075678
 30
0.00000001
  9
$LIMMIN
 10
-119.6340413857288
 20
-67.06366584018934
  9
$LIMMAX
 10
27.89956517286816
 20
28.12820040937879
  9
$ORTHOMODE
 70
     0
  9
$REGENMODE
 70
     1
  9
$FILLMODE
 70
     1
  9
$QTEXTMODE
 70
     0
  9
$MIRRTEXT
 70
     0
  9
$DRAGMODE
 70
     2
  9
$LTSCALE
 40
1.0
  9
$OSMODE
 70
    55
  9
$ATTMODE
 70
     1
  9
$TEXTSIZE
 40
2.5
  9
$TRACEWID
 40
1.0
  9
$TEXTSTYLE
  7
STANDARD
  9
$CLAYER
  8
AM_0
  9
$CELTYPE
  6
BYLAYER
  9
$CECOLOR
 62
   256
  9
$CELTSCALE
 40
1.0
  9
$DELOBJ
 70
     1
  9
$DISPSILH
 70
     0
  9
$DIMSCALE
 40
0.5
  9
$DIMASZ
 40
2.5
  9
$DIMEXO
 40
1.0
  9
$DIMDLI
 40
12.0
  9
$DIMRND
 40
0.0
  9
$DIMDLE
 40
0.0
  9
$DIMEXE
 40
1.0
  9
$DIMTP
 40
0.1
  9
$DIMTM
 40
0.1
  9
$DIMTXT
 40
3.2
  9
$DIMCEN
 40
0.0
  9
$DIMTSZ
 40
0.0
  9
$DIMTOL
 70
     0
  9
$DIMLIM
 70
     0
  9
$DIMTIH
 70
     0
  9
$DIMTOH
 70
     0
  9
$DIMSE1
 70
     0
  9
$DIMSE2
 70
     0
  9
$DIMTAD
 70
     3
  9
$DIMZIN
 70
     8
  9
$DIMBLK
  1
OPEN30
  9
$DIMASO
 70
     1
  9
$DIMSHO
 70
     1
  9
$DIMPOST
  1

  9
$DIMAPOST
  1
"
  9
$DIMALT
 70
     0
  9
$DIMALTD
 70
     2
  9
$DIMALTF
 40
0.0393701
  9
$DIMLFAC
 40
1.0
  9
$DIMTOFL
 70
     1
  9
$DIMTVP
 40
0.0
  9
$DIMTIX
 70
     0
  9
$DIMSOXD
 70
     0
  9
$DIMSAH
 70
     0
  9
$DIMBLK1
  1

  9
$DIMBLK2
  1

  9
$DIMSTYLE
  2
AM_JIS
  9
$DIMCLRD
 70
   256
  9
$DIMCLRE
 70
   256
  9
$DIMCLRT
 70
     2
  9
$DIMTFAC
 40
0.71
  9
$DIMGAP
 40
1.5
  9
$DIMJUST
 70
     0
  9
$DIMSD1
 70
     0
  9
$DIMSD2
 70
     0
  9
$DIMTOLJ
 70
     0
  9
$DIMTZIN
 70
     0
  9
$DIMALTZ
 70
     0
  9
$DIMALTTZ
 70
     0
  9
$DIMFIT
 70
     3
  9
$DIMUPT
 70
     0
  9
$DIMUNIT
 70
     2
  9
$DIMDEC
 70
     3
  9
$DIMTDEC
 70
     3
  9
$DIMALTU
 70
     2
  9
$DIMALTTD
 70
     2
  9
$DIMTXSTY
  7
ASAMI
  9
$DIMAUNIT
 70
     0
  9
$LUNITS
 70
     2
  9
$LUPREC
 70
     2
  9
$SKETCHINC
 40
1.0
  9
$FILLETRAD
 40
2.5
  9
$AUNITS
 70
     0
  9
$AUPREC
 70
     0
  9
$MENU
  1
.
  9
$ELEVATION
 40
0.0
  9
$PELEVATION
 40
0.0
  9
$THICKNESS
 40
0.0
  9
$LIMCHECK
 70
     0
  9
$BLIPMODE
 70
     0
  9
$CHAMFERA
 40
1.0
  9
$CHAMFERB
 40
1.0
  9
$CHAMFERC
 40
20.0
  9
$CHAMFERD
 40
0.0
  9
$SKPOLY
 70
     0
  9
$TDCREATE
 40
2452836.771637361
  9
$TDUPDATE
 40
2453151.801119815
  9
$TDINDWG
 40
0.0417952199
  9
$TDUSRTIMER
 40
0.0417952199
  9
$USRTIMER
 70
     1
  9
$ANGBASE
 50
0.0
  9
$ANGDIR
 70
     0
  9
$PDMODE
 70
     0
  9
$PDSIZE
 40
0.0
  9
$PLINEWID
 40
0.0
  9
$COORDS
 70
     1
  9
$SPLFRAME
 70
     0
  9
$SPLINETYPE
 70
     6
  9
$SPLINESEGS
 70
     8
  9
$ATTDIA
 70
     1
  9
$ATTREQ
 70
     1
  9
$HANDLING
 70
 12289
  9
$HANDSEED
  5
1B41
  9
$SURFTAB1
 70
     6
  9
$SURFTAB2
 70
     6
  9
$SURFTYPE
 70
     6
  9
$SURFU
 70
     6
  9
$SURFV
 70
     6
  9
$UCSNAME
  2

  9
$UCSORG
 10
0.0
 20
0.0
 30
0.0
  9
$UCSXDIR
 10
1.0
 20
0.0
 30
0.0
  9
$UCSYDIR
 10
0.0
 20
1.0
 30
0.0
  9
$PUCSNAME
  2

  9
$PUCSORG
 10
0.0
 20
0.0
 30
0.0
  9
$PUCSXDIR
 10
1.0
 20
0.0
 30
0.0
  9
$PUCSYDIR
 10
0.0
 20
1.0
 30
0.0
  9
$USERI1
 70
     0
  9
$USERI2
 70
     0
  9
$USERI3
 70
     0
  9
$USERI4
 70
     0
  9
$USERI5
 70
     0
  9
$USERR1
 40
0.0
  9
$USERR2
 40
0.0
  9
$USERR3
 40
0.0
  9
$USERR4
 40
0.0
  9
$USERR5
 40
0.0
  9
$WORLDVIEW
 70
     1
  9
$SHADEDGE
 70
     3
  9
$SHADEDIF
 70
    70
  9
$TILEMODE
 70
     1
  9
$MAXACTVP
 70
    64
  9
$PINSBASE
 10
0.0
 20
0.0
 30
0.0
  9
$PLIMCHECK
 70
     0
  9
$PEXTMIN
 10
1.000000000000000E+20
 20
1.000000000000000E+20
 30
1.000000000000000E+20
  9
$PEXTMAX
 10
-1.000000000000000E+20
 20
-1.000000000000000E+20
 30
-1.000000000000000E+20
  9
$PLIMMIN
 10
0.0
 20
0.0
  9
$PLIMMAX
 10
841.0
 20
594.0
  9
$UNITMODE
 70
     0
  9
$VISRETAIN
 70
     1
  9
$PLINEGEN
 70
     0
  9
$PSLTSCALE
 70
     0
  9
$TREEDEPTH
 70
  3020
  9
$PICKSTYLE
 70
     0
  9
$CMLSTYLE
  2
STANDARD
  9
$CMLJUST
 70
     0
  9
$CMLSCALE
 40
20.0
  9
$PROXYGRAPHICS
 70
     1
  9
$MEASUREMENT
 70
     1
  0
ENDSEC
  0
SECTION
  2
CLASSES
  0
CLASS
  1
ACDBDICTIONARYWDFLT
  2
AcDbDictionaryWithDefault
  3
AutoCAD 2000
 90
        0
280
     0
281
     0
  0
CLASS
  1
ACDBPLACEHOLDER
  2
AcDbPlaceHolder
  3
AutoCAD 2000
 90
        0
280
     0
281
     0
  0
CLASS
  1
LAYOUT
  2
AcDbLayout
  3
AutoCAD 2000
 90
        0
280
     0
281
     0
  0
CLASS
  1
AMGSETTINGSOBJ
  2
AmgSettingsObj
  3
"AcadM|Product Description: AutoCAD Mechanical 2000|Company: Autodesk"
 90
        0
280
     0
281
     0
  0
CLASS
  1
ACME_DOCUMENT
  2
AcMeDbDoc
  3
AcMeServices
 90
        0
280
     0
281
     0
  0
CLASS
  1
ACMESCOPE
  2
AcMeScope
  3
AcMeServices
 90
        0
280
     0
281
     0
  0
CLASS
  1
ACMECOMMANDHISTORY
  2
AcMeCommandHistory
  3
AcMeServices
 90
        0
280
     0
281
     0
  0
CLASS
  1
DICTIONARYVAR
  2
AcDbDictionaryVar
  3
AutoCAD 2000
 90
        0
280
     0
281
     0
  0
CLASS
  1
ACIMSYSVARMAN
  2
AcImSysVarManager
  3
AcMeServices
 90
        0
280
     0
281
     0
  0
CLASS
  1
ACIMREALSYSVAR
  2
AcImRealSysVar
  3
AcMeServices
 90
        0
280
     0
281
     0
  0
CLASS
  1
ACIMINTSYSVAR
  2
AcImIntSysVar
  3
AcMeServices
 90
        0
280
     0
281
     0
  0
CLASS
  1
ACMEDRAWINGMAN
  2
AcMeDrawingMan
  3
AcMeServices
 90
        0
280
     0
281
     0
  0
CLASS
  1
ACMEVIEW
  2
AcMeView
  3
AcMeServices
 90
        0
280
     0
281
     0
  0
CLASS
  1
ACDBENTITYCACHE
  2
AcMeEntityCache
  3
AcMeServices
 90
        0
280
     0
281
     0
  0
CLASS
  1
GSMANAGER
  2
AcMeGSManager
  3
AcMeServices
 90
        0
280
     0
281
     0
  0
CLASS
  1
AmdtInternalReactor
  2
AmdtInternalReactor
  3
AcMeServices
 90
        0
280
     0
281
     0
  0
CLASS
  1
ACMESTATEMGR
  2
AcMeStateMgr
  3
AcMeServices
 90
        0
280
     0
281
     0
  0
CLASS
  1
ACME_DATABASE
  2
AcMeDbDatabase
  3
AcMeServices
 90
        0
280
     0
281
     0
  0
CLASS
  1
ACRFINSADJUSTERMGR
  2
AcRfInsAdjusterMgr
  3
AcMeServices
 90
        0
280
     0
281
     0
  0
CLASS
  1
ACMDATADICTIONARY
  2
AcmDataDictionary
  3
"AcmSymBB|Product Description: AutoCAD Mechanical 2000|Company: Autodesk"
 90
        0
280
     0
281
     0
  0
CLASS
  1
ACMDATAENTRYBLOCK
  2
AcmDataEntryBlock
  3
"AcmSymBB|Product Description: AutoCAD Mechanical 2000|Company: Autodesk"
 90
        0
280
     0
281
     0
  0
CLASS
  1
AMGOBJPROPCFG
  2
AmgObjPropCfg
  3
"AmgLay|Product Description: AutoCAD Mechanical 2000|Company: Autodesk"
 90
        1
280
     0
281
     0
  0
CLASS
  1
ACAMGFILTERDAT
  2
AcAmgFilterDat
  3
"AcadM|Product Description: AutoCAD Mechanical 2000|Company: Autodesk"
 90
        0
280
     0
281
     0
  0
CLASS
  1
LAYER_INDEX
  2
AcDbLayerIndex
  3
AutoCAD 2000
 90
        0
280
     0
281
     0
  0
CLASS
  1
IDBUFFER
  2
AcDbIdBuffer
  3
AutoCAD 2000
 90
        0
280
     0
281
     0
  0
CLASS
  1
ACIMSTRSYSVAR
  2
AcImStrSysVar
  3
AcMeServices
 90
        0
280
     0
281
     0
  0
CLASS
  1
ACMSTANDARDJIS
  2
AcmStandardJIS
  3
"AcmSymBB|Product Description: AutoCAD Mechanical 2000|Company: Autodesk"
 90
        0
280
     0
281
     0
  0
CLASS
  1
ACMSURFSTANDARDJIS
  2
AcmSurfTextStdJIS
  3
"AcmSymBB|Product Description: AutoCAD Mechanical 2000|Company: Autodesk"
 90
        0
280
     0
281
     0
  0
CLASS
  1
ACMFCFSTANDARDJIS
  2
AcmFCFStdJIS
  3
"AcmSymBB|Product Description: AutoCAD Mechanical 2000|Company: Autodesk"
 90
        0
280
     0
281
     0
  0
CLASS
  1
ACMWELDSTANDARDJIS
  2
AcmWeldingStdJIS
  3
"AcmSymBB|Product Description: AutoCAD Mechanical 2000|Company: Autodesk"
 90
        0
280
     0
281
     0
  0
CLASS
  1
ACMIDSTANDARDJIS
  2
AcmIdStdJIS
  3
"AcmSymBB|Product Description: AutoCAD Mechanical 2000|Company: Autodesk"
 90
        0
280
     0
281
     0
  0
CLASS
  1
ACMDATUMSTANDARDJIS
  2
AcmDatumStdJIS
  3
"AcmSymBB|Product Description: AutoCAD Mechanical 2000|Company: Autodesk"
 90
        0
280
     0
281
     0
  0
CLASS
  1
ACMBOMSTANDARDJIS
  2
AcmBOMStdJIS
  3
"AcmSymBB|Product Description: AutoCAD Mechanical 2000|Company: Autodesk"
 90
        0
280
     0
281
     0
  0
CLASS
  1
ACMSTANDARDANSI
  2
AcmStandardANSI
  3
"AcmSymBB|Product Description: AutoCAD Mechanical 2000|Company: Autodesk"
 90
        0
280
     0
281
     0
  0
CLASS
  1
ACMSURFSTANDARDANSI
  2
AcmSurfTextStdANSI
  3
"AcmSymBB|Product Description: AutoCAD Mechanical 2000|Company: Autodesk"
 90
        0
280
     0
281
     0
  0
CLASS
  1
ACMFCFSTANDARDANSI
  2
AcmFCFStdANSI
  3
"AcmSymBB|Product Description: AutoCAD Mechanical 2000|Company: Autodesk"
 90
        0
280
     0
281
     0
  0
CLASS
  1
ACMWELDSTANDARDANSI
  2
AcmWeldingStdANSI
  3
"AcmSymBB|Product Description: AutoCAD Mechanical 2000|Company: Autodesk"
 90
        0
280
     0
281
     0
  0
CLASS
  1
ACMIDSTANDARDANSI
  2
AcmIdStdANSI
  3
"AcmSymBB|Product Description: AutoCAD Mechanical 2000|Company: Autodesk"
 90
        0
280
     0
281
     0
  0
CLASS
  1
ACMDATUMSTANDARDANSI
  2
AcmDatumStdANSI
  3
"AcmSymBB|Product Description: AutoCAD Mechanical 2000|Company: Autodesk"
 90
        0
280
     0
281
     0
  0
CLASS
  1
ACMBOMSTANDARDANSI
  2
AcmBOMStdANSI
  3
"AcmSymBB|Product Description: AutoCAD Mechanical 2000|Company: Autodesk"
 90
        0
280
     0
281
     0
  0
CLASS
  1
ACMSTANDARDBSI
  2
AcmStandardBSI
  3
"AcmSymBB|Product Description: AutoCAD Mechanical 2000|Company: Autodesk"
 90
        0
280
     0
281
     0
  0
CLASS
  1
ACMSURFSTANDARDBSI
  2
AcmSurfTextStdBSI
  3
"AcmSymBB|Product Description: AutoCAD Mechanical 2000|Company: Autodesk"
 90
        0
280
     0
281
     0
  0
CLASS
  1
ACMFCFSTANDARDBSI
  2
AcmFCFStdBSI
  3
"AcmSymBB|Product Description: AutoCAD Mechanical 2000|Company: Autodesk"
 90
        0
280
     0
281
     0
  0
CLASS
  1
ACMWELDSTANDARDBSI
  2
AcmWeldingStdBSI
  3
"AcmSymBB|Product Description: AutoCAD Mechanical 2000|Company: Autodesk"
 90
        0
280
     0
281
     0
  0
CLASS
  1
ACMIDSTANDARDBSI
  2
AcmIdStdBSI
  3
"AcmSymBB|Product Description: AutoCAD Mechanical 2000|Company: Autodesk"
 90
        0
280
     0
281
     0
  0
CLASS
  1
ACMDATUMSTANDARDBSI
  2
AcmDatumStdBSI
  3
"AcmSymBB|Product Description: AutoCAD Mechanical 2000|Company: Autodesk"
 90
        0
280
     0
281
     0
  0
CLASS
  1
ACMBOMSTANDARDBSI
  2
AcmBOMStdBSI
  3
"AcmSymBB|Product Description: AutoCAD Mechanical 2000|Company: Autodesk"
 90
        0
280
     0
281
     0
  0
CLASS
  1
LONG_TRANSACTION
  2
AcDbLongTransaction
  3
AutoCAD 2000
 90
        0
280
     0
281
     0
  0
CLASS
  1
LWPOLYLINE
  2
AcDbPolyline
  3
AutoCAD 2000
 90
        0
280
     0
281
     1
  0
CLASS
  1
HATCH
  2
AcDbHatch
  3
AutoCAD 2000
 90
        0
280
     0
281
     1
  0
CLASS
  1
XRECORD
  2
AcDbXrecord
  3
AutoCAD 2000
 90
        0
280
     0
281
     0
  0
ENDSEC
  0
SECTION
  2
TABLES
  0
TABLE
  2
VPORT
  5
8
330
0
100
AcDbSymbolTable
 70
     3
  0
VPORT
  5
1B16
330
8
100
AcDbSymbolTableRecord
100
AcDbViewportTableRecord
  2
*ACTIVE
 70
     0
 10
0.0
 20
0.0
 11
1.0
 21
1.0
 12
-46.97031801344372
 22
-23.407672946384
 13
0.0
 23
0.0
 14
2.5
 24
2.5
 15
10.0
 25
10.0
 16
0.0
 26
0.0
 36
1.0
 17
0.0
 27
0.0
 37
0.0
 40
85.32272207115203
 41
1.56570841889117
 42
50.0
 43
0.0
 44
0.0
 50
0.0
 51
0.0
 71
     0
 72
   100
 73
     1
 74
     3
 75
     0
 76
     0
 77
     0
 78
     0
  0
ENDTAB
  0
TABLE
  2
LTYPE
  5
5
330
0
100
AcDbSymbolTable
 70
    10
  0
LTYPE
  5
14
330
5
100
AcDbSymbolTableRecord
100
AcDbLinetypeTableRecord
  2
BYBLOCK
 70
     0
  3

 72
    65
 73
     0
 40
0.0
  0
LTYPE
  5
15
330
5
100
AcDbSymbolTableRecord
100
AcDbLinetypeTableRecord
  2
BYLAYER
 70
     0
  3

 72
    65
 73
     0
 40
0.0
  0
LTYPE
  5
16
330
5
100
AcDbSymbolTableRecord
100
AcDbLinetypeTableRecord
  2
CONTINUOUS
 70
     0
  3
Solid line
 72
    65
 73
     0
 40
0.0
  0
LTYPE
  5
4B
330
5
100
AcDbSymbolTableRecord
100
AcDbLinetypeTableRecord
  2
AM_ISO02W050
 70
     0
  3
__ __ __ __ __ __ __ __ __ __ __ __ __ __ __
 72
    65
 73
     2
 40
7.5
 49
6.0
 74
     0
 49
-1.5
 74
     0
  0
LTYPE
  5
4C
330
5
100
AcDbSymbolTableRecord
100
AcDbLinetypeTableRecord
  2
AM_ISO08W050
 70
     0
  3
____ . ____ . ____ . ____ . ____ . ____ . ____
 72
    65
 73
     4
 40
18.0
 49
12.0
 74
     0
 49
-1.5
 74
     0
 49
3.0
 74
     0
 49
-1.5
 74
     0
  0
LTYPE
  5
4D
330
5
100
AcDbSymbolTableRecord
100
AcDbLinetypeTableRecord
  2
AM_ISO09W050
 70
     0
  3
_____ . . _____ . . _____ . . ____ .. ____
 72
    65
 73
     6
 40
22.5
 49
12.0
 74
     0
 49
-1.5
 74
     0
 49
3.0
 74
     0
 49
-1.5
 74
     0
 49
3.0
 74
     0
 49
-1.5
 74
     0
  0
LTYPE
  5
4E
330
5
100
AcDbSymbolTableRecord
100
AcDbLinetypeTableRecord
  2
AMCONSTR
 70
     0
  3
_______________________
 72
    65
 73
     2
 40
9999.0
 49
9999.0
 74
     0
 49
0.0
 74
     0
  0
LTYPE
  5
4F
330
5
100
AcDbSymbolTableRecord
100
AcDbLinetypeTableRecord
  2
AM_ISO02W050X2
 70
     0
  3
 _ _ _ _ _ _ _ _ _ _ _ _
 72
    65
 73
     2
 40
3.75
 49
3.0
 74
     0
 49
-0.75
 74
     0
  0
LTYPE
  5
50
330
5
100
AcDbSymbolTableRecord
100
AcDbLinetypeTableRecord
  2
AM_ISO08W050X2
 70
     0
  3
__ . __ . __ . __ . __ . __
 72
    65
 73
     4
 40
9.0
 49
6.0
 74
     0
 49
-0.75
 74
     0
 49
1.5
 74
     0
 49
-0.75
 74
     0
  0
LTYPE
  5
53
330
5
100
AcDbSymbolTableRecord
100
AcDbLinetypeTableRecord
  2
AMZIGZAG
 70
     0
  3
/\/-/\/-/\/-/\/-/\/-/\/
 72
    65
 73
     2
 40
11.00009999999999
 49
0.0001
 74
     4
 75
   135
340
52
 46
0.04
 50
0.0
 44
0.0
 45
0.0
 49
-11.0
 74
     0
  0
LTYPE
  5
166
330
5
100
AcDbSymbolTableRecord
100
AcDbLinetypeTableRecord
  2
ACJISTGL
 70
     0
  3
_ _ _ _ _
 72
    65
 73
     2
 40
3.0
 49
2.0
 74
     0
 49
-1.0
 74
     0
  0
LTYPE
  5
26A
330
5
100
AcDbSymbolTableRecord
100
AcDbLinetypeTableRecord
  2
ACJISTGB
 70
     0
  3
__ . . __ . .
 72
    65
 73
     6
 40
9.0
 49
4.0
 74
     0
 49
-1.0
 74
     0
 49
1.0
 74
     0
 49
-1.0
 74
     0
 49
1.0
 74
     0
 49
-1.0
 74
     0
  0
ENDTAB
  0
TABLE
  2
LAYER
  5
2
330
0
100
AcDbSymbolTable
 70
     7
  0
LAYER
  5
10
330
2
100
AcDbSymbolTableRecord
100
AcDbLayerTableRecord
  2
0
 70
     0
 62
     7
  6
CONTINUOUS
  0
LAYER
  5
3F9
330
2
100
AcDbSymbolTableRecord
100
AcDbLayerTableRecord
  2
AM_0
 70
     0
 62
     7
  6
CONTINUOUS
  0
LAYER
  5
BD4
330
2
100
AcDbSymbolTableRecord
100
AcDbLayerTableRecord
  2
AM_11
 70
     0
 62
     3
  6
AM_ISO09W050
  0
LAYER
  5
BD5
330
2
100
AcDbSymbolTableRecord
100
AcDbLayerTableRecord
  2
AM_7
 70
     0
 62
     4
  6
AM_ISO08W050
  0
LAYER
  5
BD6
330
2
100
AcDbSymbolTableRecord
100
AcDbLayerTableRecord
  2
AM_5
 70
     0
 62
     3
  6
CONTINUOUS
  0
LAYER
  5
BD7
330
2
100
AcDbSymbolTableRecord
100
AcDbLayerTableRecord
  2
DEFPOINTS
 70
     0
 62
     7
  6
CONTINUOUS
  0
LAYER
  5
E59
330
2
100
AcDbSymbolTableRecord
100
AcDbLayerTableRecord
  2
AM_6
 70
     0
 62
     2
  6
CONTINUOUS
  0
ENDTAB
  0
TABLE
  2
STYLE
  5
3
330
0
100
AcDbSymbolTable
 70
     5
  0
STYLE
  5
11
330
3
100
AcDbSymbolTableRecord
100
AcDbTextStyleTableRecord
  2
STANDARD
 70
     0
 40
0.0
 41
1.0
 50
0.0
 71
     0
 42
2.5
  3
simplex.shx
  4
EXTFONT.SHX
  0
STYLE
  5
52
330
3
100
AcDbSymbolTableRecord
100
AcDbTextStyleTableRecord
  2

 70
     1
 40
0.0
 41
1.0
 50
0.0
 71
     0
 42
2.5
  3
ltypeshp.shx
  4

  0
STYLE
  5
6B
330
3
100
AcDbSymbolTableRecord
100
AcDbTextStyleTableRecord
  2
ASAMI
 70
     0
 40
0.0
 41
1.0
 50
0.0
 71
     0
 42
2.5
  3
simplex.shx
  4
EXTFONT.SHX
  0
STYLE
  5
262
330
3
100
AcDbSymbolTableRecord
100
AcDbTextStyleTableRecord
  2
ACJISTS
 70
     0
 40
1.0
 41
1.0
 50
0.0
 71
     0
 42
2.5
  3
simplex.shx
  4
bigfont.shx
  0
STYLE
  5
269
330
3
100
AcDbSymbolTableRecord
100
AcDbTextStyleTableRecord
  2
ACJISGDT
 70
     0
 40
0.0
 41
1.0
 50
0.0
 71
     0
 42
2.5
  3
amgdtans.shx
  4

  0
ENDTAB
  0
TABLE
  2
VIEW
  5
6
330
0
100
AcDbSymbolTable
 70
     0
  0
ENDTAB
  0
TABLE
  2
UCS
  5
7
330
0
100
AcDbSymbolTable
 70
     0
  0
ENDTAB
  0
TABLE
  2
APPID
  5
9
330
0
100
AcDbSymbolTable
 70
    12
  0
APPID
  5
12
330
9
100
AcDbSymbolTableRecord
100
AcDbRegAppTableRecord
  2
ACAD
 70
     0
  0
APPID
  5
30
330
9
100
AcDbSymbolTableRecord
100
AcDbRegAppTableRecord
  2
MCAD_NO_VIS
 70
     0
  0
APPID
  5
31
330
9
100
AcDbSymbolTableRecord
100
AcDbRegAppTableRecord
  2
ACAD_TEMP_GRAPHIC
 70
     0
  0
APPID
  5
2C2
330
9
100
AcDbSymbolTableRecord
100
AcDbRegAppTableRecord
  2
GENIUS_GENDTOL_13
 70
     0
  0
APPID
  5
339
330
9
100
AcDbSymbolTableRecord
100
AcDbRegAppTableRecord
  2
GENIUS_GENODEF_13
 70
     0
  0
APPID
  5
33A
330
9
100
AcDbSymbolTableRecord
100
AcDbRegAppTableRecord
  2
GENIUS_GENOBJ-N-RSBK_13
 70
     0
  0
APPID
  5
33B
330
9
100
AcDbSymbolTableRecord
100
AcDbRegAppTableRecord
  2
GENIUS_GENOBJ-N-LIB_13
 70
     0
  0
APPID
  5
33C
330
9
100
AcDbSymbolTableRecord
100
AcDbRegAppTableRecord
  2
GENIUS_GENSCALE_13
 70
     0
  0
APPID
  5
378
330
9
100
AcDbSymbolTableRecord
100
AcDbRegAppTableRecord
  2
GENIUS_GENDIMSH_14
 70
     0
  0
APPID
  5
BD8
330
9
100
AcDbSymbolTableRecord
100
AcDbRegAppTableRecord
  2
GENIUS_GENOBJ-N-CEN_13
 70
     0
  0
APPID
  5
BD9
330
9
100
AcDbSymbolTableRecord
100
AcDbRegAppTableRecord
  2
GENIUS_GENFIL_13
 70
     0
  0
APPID
  5
BDA
330
9
100
AcDbSymbolTableRecord
100
AcDbRegAppTableRecord
  2
GENIUS_GENOBJ-N-CHA_13
 70
     0
  0
ENDTAB
  0
TABLE
  2
DIMSTYLE
  5
A
330
0
100
AcDbSymbolTable
 70
     8
  0
DIMSTYLE
105
58
102
{ACAD_REACTORS
330
D71
330
D7A
330
DA6
330
15D1
102
}
330
A
100
AcDbSymbolTableRecord
100
AcDbDimStyleTableRecord
  2
AM_JIS
 70
     0
  3

  4
"
  5
OPEN30
  6

  7

 40
1.0
 41
2.5
 42
1.0
 43
12.0
 44
1.0
 45
0.0
 46
0.0
 47
0.1
 48
0.1
140
3.2
141
0.0
142
0.0
143
0.0393701
144
1.0
145
0.0
146
0.71
147
1.5
 71
     0
 72
     0
 73
     0
 74
     0
 75
     0
 76
     0
 77
     3
 78
     8
170
     0
171
     2
172
     1
173
     0
174
     0
175
     0
176
   256
177
   256
178
     2
270
     2
271
     3
272
     3
273
     2
274
     2
340
6B
275
     0
280
     0
281
     0
282
     0
283
     0
284
     0
285
     0
286
     0
287
     3
288
     0
  0
DIMSTYLE
105
5F
330
A
100
AcDbSymbolTableRecord
100
AcDbDimStyleTableRecord
  2
AM_JIS$3
 70
     0
  3

  4
"
  5
OPEN30
  6

  7

 40
1.0
 41
2.5
 42
1.0
 43
10.0
 44
1.0
 45
0.0
 46
0.0
 47
0.1
 48
0.1
140
3.2
141
0.0
142
0.0
143
0.0393701
144
1.0
145
0.0
146
0.71
147
1.5
 71
     0
 72
     0
 73
     0
 74
     1
 75
     0
 76
     0
 77
     3
 78
     8
170
     0
171
     2
172
     0
173
     0
174
     0
175
     0
176
   256
177
   256
178
     2
270
     2
271
     2
272
     3
273
     2
274
     2
340
6B
275
     0
280
     0
281
     0
282
     0
283
     0
284
     0
285
     0
286
     0
287
     0
288
     1
  0
DIMSTYLE
105
60
330
A
100
AcDbSymbolTableRecord
100
AcDbDimStyleTableRecord
  2
AM_JIS$4
 70
     0
  3

  4
"
  5
OPEN30
  6

  7

 40
1.0
 41
2.5
 42
1.0
 43
10.0
 44
1.0
 45
0.0
 46
0.0
 47
0.1
 48
0.1
140
3.2
141
0.0
142
0.0
143
0.0393701
144
1.0
145
0.0
146
0.71
147
1.5
 71
     0
 72
     0
 73
     0
 74
     1
 75
     0
 76
     0
 77
     3
 78
     8
170
     0
171
     2
172
     0
173
     0
174
     0
175
     0
176
   256
177
   256
178
     2
270
     2
271
     2
272
     3
273
     2
274
     2
340
6B
275
     0
280
     0
281
     0
282
     0
283
     0
284
     0
285
     0
286
     0
287
     0
288
     1
  0
DIMSTYLE
105
61
330
A
100
AcDbSymbolTableRecord
100
AcDbDimStyleTableRecord
  2
AM_JIS$6
 70
     0
  3

  4
"
  5
OPEN30
  6

  7

 40
1.0
 41
2.5
 42
1.0
 43
10.0
 44
1.0
 45
0.0
 46
0.0
 47
0.1
 48
0.1
140
3.2
141
0.0
142
0.0
143
0.0393701
144
1.0
145
0.0
146
0.71
147
1.5
 71
     0
 72
     0
 73
     0
 74
     0
 75
     0
 76
     0
 77
     0
 78
     8
170
     0
171
     2
172
     1
173
     0
174
     0
175
     0
176
   256
177
   256
178
     2
270
     2
271
     2
272
     2
273
     2
274
     2
340
6B
275
     0
280
     0
281
     0
282
     0
283
     0
284
     0
285
     0
286
     0
287
     3
288
     0
  0
DIMSTYLE
105
62
330
A
100
AcDbSymbolTableRecord
100
AcDbDimStyleTableRecord
  2
AM_JIS$7
 70
     0
  3

  4
"
  5
OPEN30
  6

  7

 40
1.0
 41
2.5
 42
1.0
 43
10.0
 44
1.0
 45
0.0
 46
0.0
 47
0.1
 48
0.1
140
3.2
141
0.0
142
0.0
143
0.0393701
144
1.0
145
0.0
146
0.71
147
1.5
 71
     0
 72
     0
 73
     0
 74
     0
 75
     0
 76
     0
 77
     3
 78
     8
170
     0
171
     2
172
     1
173
     0
174
     0
175
     0
176
   256
177
   256
178
     2
270
     2
271
     2
272
     3
273
     2
274
     2
340
6B
275
     0
280
     0
281
     0
282
     0
283
     0
284
     0
285
     0
286
     0
287
     3
288
     0
  0
DIMSTYLE
105
63
330
A
100
AcDbSymbolTableRecord
100
AcDbDimStyleTableRecord
  2
AM_JIS$SF
 70
     0
  3

  4
"
  5
OPEN30
  6

  7

 40
1.0
 41
2.5
 42
1.0
 43
10.0
 44
1.0
 45
0.0
 46
0.0
 47
0.1
 48
0.1
140
3.2
141
0.0
142
0.0
143
0.0393701
144
1.0
145
0.0
146
0.71
147
1.5
 71
     0
 72
     0
 73
     0
 74
     0
 75
     1
 76
     1
 77
     3
 78
     8
170
     0
171
     2
172
     1
173
     0
174
     0
175
     0
176
   256
177
   256
178
     2
270
     2
271
     2
272
     2
273
     2
274
     2
340
6B
275
     0
280
     0
281
     0
282
     0
283
     0
284
     0
285
     0
286
     0
287
     3
288
     0
  0
DIMSTYLE
105
68
330
A
100
AcDbSymbolTableRecord
100
AcDbDimStyleTableRecord
  2
AM_JIS$SH
 70
     0
  3

  4
"
  5

  6
GENAXEH
  7
OPEN30
 40
1.0
 41
2.5
 42
1.0
 43
10.0
 44
1.0
 45
0.0
 46
0.0
 47
0.1
 48
0.1
140
3.2
141
0.0
142
0.0
143
0.0393701
144
2.0
145
0.0
146
0.71
147
1.5
 71
     0
 72
     0
 73
     0
 74
     0
 75
     1
 76
     1
 77
     3
 78
     8
170
     0
171
     2
172
     1
173
     1
174
     0
175
     0
176
   256
177
   256
178
     2
270
     2
271
     2
272
     2
273
     2
274
     2
340
6B
275
     0
280
     0
281
     0
282
     0
283
     0
284
     0
285
     0
286
     0
287
     3
288
     0
  0
DIMSTYLE
105
B34
330
A
100
AcDbSymbolTableRecord
100
AcDbDimStyleTableRecord
  2
AM_JIS$2
 70
     0
  3

  4
"
  5
OPEN30
  6

  7

 40
1.0
 41
2.5
 42
1.0
 43
12.0
 44
1.0
 45
0.0
 46
0.0
 47
0.1
 48
0.1
140
3.2
141
0.0
142
0.0
143
0.0393701
144
1.0
145
0.0
146
0.71
147
1.5
 71
     0
 72
     0
 73
     0
 74
     0
 75
     0
 76
     0
 77
     3
 78
     8
170
     0
171
     2
172
     1
173
     0
174
     0
175
     0
176
   256
177
   256
178
     2
270
     2
271
     3
272
     3
273
     2
274
     2
340
6B
275
     0
280
     0
281
     0
282
     0
283
     0
284
     0
285
     0
286
     0
287
     3
288
     0
  0
ENDTAB
  0
TABLE
  2
BLOCK_RECORD
  5
1
330
0
100
AcDbSymbolTable
 70
    10
  0
BLOCK_RECORD
  5
1F
102
{ACAD_XDICTIONARY
360
74
102
}
330
1
100
AcDbSymbolTableRecord
100
AcDbBlockTableRecord
  2
*MODEL_SPACE
  0
BLOCK_RECORD
  5
101
102
{ACAD_XDICTIONARY
360
1B3F
102
}
330
1
100
AcDbSymbolTableRecord
100
AcDbBlockTableRecord
  2
*PAPER_SPACE
  0
BLOCK_RECORD
  5
59
330
1
100
AcDbSymbolTableRecord
100
AcDbBlockTableRecord
  2
_OPEN30
  0
BLOCK_RECORD
  5
64
330
1
100
AcDbSymbolTableRecord
100
AcDbBlockTableRecord
  2
GENAXEH
  0
BLOCK_RECORD
  5
DDA
330
1
100
AcDbSymbolTableRecord
100
AcDbBlockTableRecord
  2
*D5
  0
BLOCK_RECORD
  5
DF3
330
1
100
AcDbSymbolTableRecord
100
AcDbBlockTableRecord
  2
*D6
  0
BLOCK_RECORD
  5
DFF
330
1
100
AcDbSymbolTableRecord
100
AcDbBlockTableRecord
  2
*D7
  0
BLOCK_RECORD
  5
15D2
330
1
100
AcDbSymbolTableRecord
100
AcDbBlockTableRecord
  2
*D8
  0
BLOCK_RECORD
  5
1ADD
330
1
100
AcDbSymbolTableRecord
100
AcDbBlockTableRecord
  2
A$C2C6773B8
  0
ENDTAB
  0
ENDSEC
  0
SECTION
  2
BLOCKS
  0
BLOCK
  5
20
330
1F
100
AcDbEntity
  8
0
100
AcDbBlockBegin
  2
*MODEL_SPACE
 70
     0
 10
0.0
 20
0.0
 30
0.0
  3
*MODEL_SPACE
  1

  0
ENDBLK
  5
21
330
1F
100
AcDbEntity
  8
0
100
AcDbBlockEnd
  0
BLOCK
  5
103
330
101
100
AcDbEntity
 67
     1
  8
0
100
AcDbBlockBegin
  2
*PAPER_SPACE
 70
     0
 10
0.0
 20
0.0
 30
0.0
  3
*PAPER_SPACE
  1

  0
ENDBLK
  5
104
330
101
100
AcDbEntity
 67
     1
  8
0
100
AcDbBlockEnd
  0
BLOCK
  5
5D
330
59
100
AcDbEntity
  8
0
100
AcDbBlockBegin
  2
_OPEN30
 70
     0
 10
0.0
 20
0.0
 30
0.0
  3
_OPEN30
  1

  0
LINE
  5
5A
330
59
100
AcDbEntity
  8
0
 62
     0
100
AcDbLine
 10
-1.0
 20
0.26794919
 30
0.0
 11
0.0
 21
0.0
 31
0.0
  0
LINE
  5
5B
330
59
100
AcDbEntity
  8
0
 62
     0
100
AcDbLine
 10
0.0
 20
0.0
 30
0.0
 11
-1.0
 21
-0.26794919
 31
0.0
  0
LINE
  5
5C
330
59
100
AcDbEntity
  8
0
 62
     0
100
AcDbLine
 10
0.0
 20
0.0
 30
0.0
 11
-1.0
 21
0.0
 31
0.0
  0
ENDBLK
  5
5E
330
59
100
AcDbEntity
  8
0
100
AcDbBlockEnd
  0
BLOCK
  5
66
330
64
100
AcDbEntity
  8
0
100
AcDbBlockBegin
  2
GENAXEH
 70
     0
 10
0.0
 20
0.0
 30
0.0
  3
GENAXEH
  1

  0
LINE
  5
65
330
64
100
AcDbEntity
  8
0
100
AcDbLine
 10
-1.0
 20
0.0
 30
0.0
 11
1.0
 21
0.0
 31
0.0
  0
ENDBLK
  5
67
330
64
100
AcDbEntity
  8
0
100
AcDbBlockEnd
  0
BLOCK
  5
DE4
330
DDA
100
AcDbEntity
  8
0
100
AcDbBlockBegin
  2
*D5
 70
     1
 10
0.0
 20
0.0
 30
0.0
  3
*D5
  1

  0
LINE
  5
1A60
330
DDA
100
AcDbEntity
  8
AM_5
100
AcDbLine
 10
-0.0000000000003109
 20
-9.0
 30
0.0
 11
-0.0000000000003125
 21
-35.00000100999999
 31
0.0
  0
LINE
  5
1A61
330
DDA
100
AcDbEntity
  8
AM_5
100
AcDbLine
 10
-90.0
 20
-8.000000000000012
 30
0.0
 11
-90.0
 21
-35.00000100999999
 31
0.0
  0
LINE
  5
1A62
330
DDA
100
AcDbEntity
  8
AM_5
100
AcDbLine
 10
-2.500000000000312
 20
-34.00000100999999
 30
0.0
 11
-87.5
 21
-34.00000100999999
 31
0.0
  0
INSERT
  5
1A63
330
DDA
100
AcDbEntity
  8
AM_5
100
AcDbBlockReference
  2
_OPEN30
 10
-0.0000000000003125
 20
-34.00000100999999
 30
0.0
 41
2.5
 42
2.5
 43
2.5
  0
INSERT
  5
1A64
330
DDA
100
AcDbEntity
  8
AM_5
100
AcDbBlockReference
  2
_OPEN30
 10
-90.0
 20
-34.00000100999999
 30
0.0
 41
2.5
 42
2.5
 43
2.5
 50
180.0
  0
MTEXT
  5
1A65
330
DDA
100
AcDbEntity
  8
AM_5
 62
     2
100
AcDbMText
 10
-45.00000000000015
 20
-30.90000100999999
 30
0.0
 40
3.2
 41
0.0
 71
     5
 72
     1
  1
90
  7
ASAMI
1001
ACAD
1000
MTEXTBEGIN
1070
    73
1070
     1
1070
    44
1040
1.0
1070
    74
1070
     0
1000
MTEXTEND
  0
POINT
  5
1A66
330
DDA
100
AcDbEntity
  8
DEFPOINTS
 62
     0
100
AcDbPoint
 10
-0.0000000000003109
 20
-8.0
 30
0.0
  0
POINT
  5
1A67
330
DDA
100
AcDbEntity
  8
DEFPOINTS
 62
     0
100
AcDbPoint
 10
-90.0
 20
-7.000000000000012
 30
0.0
  0
POINT
  5
1A68
330
DDA
100
AcDbEntity
  8
DEFPOINTS
 62
     0
100
AcDbPoint
 10
-90.0
 20
-34.00000100999999
 30
0.0
  0
ENDBLK
  5
DE5
330
DDA
100
AcDbEntity
  8
0
100
AcDbBlockEnd
  0
BLOCK
  5
DFD
330
DF3
100
AcDbEntity
  8
0
100
AcDbBlockBegin
  2
*D6
 70
     1
 10
0.0
 20
0.0
 30
0.0
  3
*D6
  1

  0
LINE
  5
1A57
330
DF3
100
AcDbEntity
  8
AM_5
100
AcDbLine
 10
-35.00000000000023
 20
-9.00000000000003
 30
0.0
 11
-35.00000000000023
 21
-23.00000100999999
 31
0.0
  0
LINE
  5
1A58
330
DF3
100
AcDbEntity
  8
AM_5
100
AcDbLine
 10
-0.0000000000003109
 20
-9.0
 30
0.0
 11
-0.0000000000003118
 21
-23.00000100999999
 31
0.0
  0
LINE
  5
1A59
330
DF3
100
AcDbEntity
  8
AM_5
100
AcDbLine
 10
-32.50000000000023
 20
-22.00000100999999
 30
0.0
 11
-2.500000000000311
 21
-22.00000100999999
 31
0.0
  0
INSERT
  5
1A5A
330
DF3
100
AcDbEntity
  8
AM_5
100
AcDbBlockReference
  2
_OPEN30
 10
-35.00000000000023
 20
-22.00000100999999
 30
0.0
 41
2.5
 42
2.5
 43
2.5
 50
180.0
  0
INSERT
  5
1A5B
330
DF3
100
AcDbEntity
  8
AM_5
100
AcDbBlockReference
  2
_OPEN30
 10
-0.0000000000003117
 20
-22.00000100999999
 30
0.0
 41
2.5
 42
2.5
 43
2.5
  0
MTEXT
  5
1A5C
330
DF3
100
AcDbEntity
  8
AM_5
 62
     2
100
AcDbMText
 10
-17.50000000000027
 20
-18.90000100999999
 30
0.0
 40
3.2
 41
0.0
 71
     5
 72
     1
  1
35
  7
ASAMI
1001
ACAD
1000
MTEXTBEGIN
1070
    73
1070
     1
1070
    44
1040
1.0
1070
    74
1070
     0
1000
MTEXTEND
  0
POINT
  5
1A5D
330
DF3
100
AcDbEntity
  8
DEFPOINTS
 62
     0
100
AcDbPoint
 10
-35.00000000000023
 20
-8.00000000000003
 30
0.0
  0
POINT
  5
1A5E
330
DF3
100
AcDbEntity
  8
DEFPOINTS
 62
     0
100
AcDbPoint
 10
-0.0000000000003109
 20
-8.0
 30
0.0
  0
POINT
  5
1A5F
330
DF3
100
AcDbEntity
  8
DEFPOINTS
 62
     0
100
AcDbPoint
 10
-0.0000000000003117
 20
-22.00000100999999
 30
0.0
  0
ENDBLK
  5
DFE
330
DF3
100
AcDbEntity
  8
0
100
AcDbBlockEnd
  0
BLOCK
  5
E0A
330
DFF
100
AcDbEntity
  8
0
100
AcDbBlockBegin
  2
*D7
 70
     1
 10
0.0
 20
0.0
 30
0.0
  3
*D7
  1

  0
LINE
  5
1A72
330
DFF
100
AcDbEntity
  8
AM_5
100
AcDbLine
 10
1.000000000000006
 20
8.0
 30
0.0
 11
19.55776903085492
 21
7.999999999999994
 31
0.0
  0
LINE
  5
1A73
330
DFF
100
AcDbEntity
  8
AM_5
100
AcDbLine
 10
0.9999999999996891
 20
-8.0
 30
0.0
 11
19.55776903085492
 21
-8.000000000000005
 31
0.0
  0
LINE
  5
1A74
330
DFF
100
AcDbEntity
  8
AM_5
100
AcDbLine
 10
18.55776903085492
 20
5.499999999999994
 30
0.0
 11
18.55776903085492
 21
-5.500000000000006
 31
0.0
  0
INSERT
  5
1A75
330
DFF
100
AcDbEntity
  8
AM_5
100
AcDbBlockReference
  2
_OPEN30
 10
18.55776903085492
 20
7.999999999999994
 30
0.0
 41
2.5
 42
2.5
 43
2.5
 50
90.0
  0
INSERT
  5
1A76
330
DFF
100
AcDbEntity
  8
AM_5
100
AcDbBlockReference
  2
_OPEN30
 10
18.55776903085492
 20
-8.000000000000005
 30
0.0
 41
2.5
 42
2.5
 43
2.5
 50
270.0
  0
MTEXT
  5
1A77
330
DFF
100
AcDbEntity
  8
AM_5
 62
     2
100
AcDbMText
 10
15.45776903085492
 20
-0.0000000000000021
 30
0.0
 40
3.2
 41
0.0
 71
     5
 72
     1
  1
%%c16
  7
ASAMI
 11
0.0000000000000001
 21
1.0
 31
0.0
1001
ACAD
1000
MTEXTBEGIN
1070
    73
1070
     1
1070
    44
1040
1.0
1070
    74
1070
     0
1000
MTEXTEND
  0
POINT
  5
1A78
330
DFF
100
AcDbEntity
  8
DEFPOINTS
 62
     0
100
AcDbPoint
 10
0.0000000000000065
 20
8.0
 30
0.0
  0
POINT
  5
1A79
330
DFF
100
AcDbEntity
  8
DEFPOINTS
 62
     0
100
AcDbPoint
 10
-0.0000000000003109
 20
-8.0
 30
0.0
  0
POINT
  5
1A7A
330
DFF
100
AcDbEntity
  8
DEFPOINTS
 62
     0
100
AcDbPoint
 10
18.55776903085492
 20
-8.000000000000005
 30
0.0
  0
ENDBLK
  5
E0B
330
DFF
100
AcDbEntity
  8
0
100
AcDbBlockEnd
  0
BLOCK
  5
15DC
330
15D2
100
AcDbEntity
  8
0
100
AcDbBlockBegin
  2
*D8
 70
     1
 10
0.0
 20
0.0
 30
0.0
  3
*D8
  1

  0
LINE
  5
1A69
330
15D2
100
AcDbEntity
  8
AM_5
100
AcDbLine
 10
-90.00000000000001
 20
7.999999999999991
 30
0.0
 11
-109.7934979049683
 21
7.999999999999995
 31
0.0
  0
LINE
  5
1A6A
330
15D2
100
AcDbEntity
  8
AM_5
100
AcDbLine
 10
-90.0
 20
-8.000000000000008
 30
0.0
 11
-109.7934979049683
 21
-8.000000000000001
 31
0.0
  0
LINE
  5
1A6B
330
15D2
100
AcDbEntity
  8
AM_5
100
AcDbLine
 10
-108.7934979049683
 20
5.499999999999995
 30
0.0
 11
-108.7934979049683
 21
-5.500000000000002
 31
0.0
  0
INSERT
  5
1A6C
330
15D2
100
AcDbEntity
  8
AM_5
100
AcDbBlockReference
  2
_OPEN30
 10
-108.7934979049683
 20
7.999999999999995
 30
0.0
 41
2.5
 42
2.5
 43
2.5
 50
90.0
  0
INSERT
  5
1A6D
330
15D2
100
AcDbEntity
  8
AM_5
100
AcDbBlockReference
  2
_OPEN30
 10
-108.7934979049683
 20
-8.000000000000001
 30
0.0
 41
2.5
 42
2.5
 43
2.5
 50
270.0
  0
MTEXT
  5
1A6E
330
15D2
100
AcDbEntity
  8
AM_5
 62
     2
100
AcDbMText
 10
-111.8934979049683
 20
-0.0000000000000205
 30
0.0
 40
3.2
 41
0.0
 71
     5
 72
     1
  1
%%c16
  7
ASAMI
 11
0.0000000000000001
 21
1.0
 31
0.0
1001
ACAD
1000
MTEXTBEGIN
1070
    73
1070
     1
1070
    44
1040
1.0
1070
    74
1070
     0
1000
MTEXTEND
  0
POINT
  5
1A6F
330
15D2
100
AcDbEntity
  8
DEFPOINTS
 62
     0
100
AcDbPoint
 10
-89.00000000000002
 20
7.99999999999999
 30
0.0
  0
POINT
  5
1A70
330
15D2
100
AcDbEntity
  8
DEFPOINTS
 62
     0
100
AcDbPoint
 10
-89.0
 20
-8.000000000000008
 30
0.0
  0
POINT
  5
1A71
330
15D2
100
AcDbEntity
  8
DEFPOINTS
 62
     0
100
AcDbPoint
 10
-108.7934979049683
 20
-8.000000000000001
 30
0.0
  0
ENDBLK
  5
15DD
330
15D2
100
AcDbEntity
  8
0
100
AcDbBlockEnd
  0
BLOCK
  5
1AE6
330
1ADD
100
AcDbEntity
  8
0
100
AcDbBlockBegin
  2
A$C2C6773B8
 70
     0
 10
0.0
 20
0.0
 30
0.0
  3
A$C2C6773B8
  1

  0
LINE
  5
1ADE
330
1ADD
100
AcDbEntity
  8
AM_0
100
AcDbLine
 10
-0.0000000000017009
 20
-0.0000000000161981
 30
0.0
 11
-3.534858346534529
 21
-0.0000000000161981
 31
0.0
  0
LINE
  5
1ADF
330
1ADD
100
AcDbEntity
  8
AM_0
100
AcDbLine
 10
-3.534858346534529
 20
-1.200000000016215
 30
0.0
 11
-0.1732050807585876
 21
-1.200000000016215
 31
0.0
  0
LINE
  5
1AE0
330
1ADD
100
AcDbEntity
  8
AM_0
100
AcDbLine
 10
-0.0000000000017009
 20
-1.500000000016198
 30
0.0
 11
-0.8660254037861774
 21
-0.0000000000161128
 31
0.0
  0
LINE
  5
1AE1
330
1ADD
100
AcDbEntity
  8
AM_0
100
AcDbLine
 10
-1.290686978538455
 20
-2.210482147766013
 30
0.0
 11
-0.1575000000016855
 21
-1.990346781860976
 31
0.0
  0
LINE
  5
1AE2
330
1ADD
100
AcDbEntity
  8
AM_0
100
AcDbLine
 10
-3.534858346534529
 20
-0.0000000000161981
 30
0.0
 11
-3.534858346534529
 21
-1.200000000016215
 31
0.0
  0
LINE
  5
1AE3
330
1ADD
100
AcDbEntity
  8
AM_0
100
AcDbLine
 10
-3.534858346534529
 20
-1.200000000016215
 30
0.0
 11
-1.290686978538455
 21
-2.210482147766013
 31
0.0
  0
LINE
  5
1AE4
330
1ADD
100
AcDbEntity
  8
AM_0
100
AcDbLine
 10
-0.0000000000017009
 20
-0.0000000000161981
 30
0.0
 11
-0.1332639137176512
 21
-1.269180130644824
 31
0.0
  0
LINE
  5
1AE5
330
1ADD
100
AcDbEntity
  8
AM_0
100
AcDbLine
 10
-0.1575000000016855
 20
-1.990346781860976
 30
0.0
 11
-0.0000000000017009
 21
-1.500000000016198
 31
0.0
  0
ENDBLK
  5
1AE7
330
1ADD
100
AcDbEntity
  8
0
100
AcDbBlockEnd
  0
ENDSEC
  0
SECTION
  2
ENTITIES
  0
DIMENSION
  5
D71
330
1F
100
AcDbEntity
  8
AM_5
100
AcDbDimension
  2
*D5
 10
-90.0
 20
-34.00000100999999
 30
0.0
 11
-45.00000000000015
 21
-30.90000100999999
 31
0.0
 70
    32
  1
<>
  3
AM_JIS
100
AcDbAlignedDimension
 13
-0.0000000000003109
 23
-8.0
 33
0.0
 14
-90.0
 24
-7.000000000000012
 34
0.0
100
AcDbRotatedDimension
1001
GENIUS_GENDTOL_13
1000

1000
h7
1000

1040
0.0
  0
LINE
  5
D74
330
1F
100
AcDbEntity
  8
AM_7
  6
AM_ISO08W050X2
100
AcDbLine
 10
4.557768030854926
 20
0.0
 30
0.0
 11
-94.79349690496837
 21
-0.0000000000000533
 31
0.0
1001
GENIUS_GENODEF_13
1002
{
1000
HIER
1070
     0
1002
}
1002
{
1000
MANEDIT
1070
     0
1002
}
1002
{
1000
NOSEL
1070
     0
1002
}
1002
{
1000
BEHIND
1070
     0
1002
}
1002
{
1000
REACTOR
1002
}
1001
GENIUS_GENOBJ-N-CEN_13
1002
{
1000
OWNER
1000
GEN
1002
}
  0
DIMENSION
  5
D7A
330
1F
100
AcDbEntity
  8
AM_5
100
AcDbDimension
  2
*D6
 10
-0.0000000000003117
 20
-22.00000100999999
 30
0.0
 11
-17.50000000000027
 21
-18.90000100999999
 31
0.0
 70
    32
  1
<>
  3
AM_JIS
100
AcDbAlignedDimension
 13
-35.00000000000023
 23
-8.00000000000003
 33
0.0
 14
-0.0000000000003109
 24
-8.0
 34
0.0
100
AcDbRotatedDimension
1001
GENIUS_GENDTOL_13
1000

1000
h7
1000

1040
0.0
  0
DIMENSION
  5
DA6
330
1F
100
AcDbEntity
  8
AM_5
100
AcDbDimension
  2
*D7
 10
18.55776903085492
 20
-8.000000000000005
 30
0.0
 11
15.45776903085492
 21
-0.0000000000000021
 31
0.0
 70
    32
  1
%%c<>
  3
AM_JIS
100
AcDbAlignedDimension
 13
0.0000000000000065
 23
8.0
 33
0.0
 14
-0.0000000000003109
 24
-8.0
 34
0.0
 50
270.0
100
AcDbRotatedDimension
1001
GENIUS_GENDTOL_13
1000

1000
h7
1000

1040
0.0
  0
TEXT
  5
E5A
330
1F
100
AcDbEntity
  8
AM_6
100
AcDbText
 10
-60.95238095238109
 20
-56.50000100999999
 30
0.0
 40
5.0
  1
SSM4160
 72
     4
 11
-45.00000000000014
 21
-54.00000100999999
 31
0.0
100
AcDbText
  0
LINE
  5
15CB
330
1F
100
AcDbEntity
  8
AM_0
100
AcDbLine
 10
-40.35215570775593
 20
7.999999999999964
 30
0.0
 11
-89.0
 21
7.999999999999991
 31
0.0
  0
LINE
  5
15CC
330
1F
100
AcDbEntity
  8
AM_0
100
AcDbLine
 10
-42.34768199400585
 20
-7.999999999999937
 30
0.0
 11
-89.0
 21
-8.00000000000001
 31
0.0
  0
LINE
  5
15CF
330
1F
100
AcDbEntity
  8
AM_0
100
AcDbLine
 10
-90.0
 20
-7.000000000000012
 30
0.0
 11
-90.0
 21
6.999999999999991
 31
0.0
  0
LINE
  5
15D0
330
1F
100
AcDbEntity
  8
AM_0
100
AcDbLine
 10
-89.0
 20
-8.000000000000008
 30
0.0
 11
-89.0
 21
7.99999999999999
 31
0.0
  0
DIMENSION
  5
15D1
330
1F
100
AcDbEntity
  8
AM_5
100
AcDbDimension
  2
*D8
 10
-108.7934979049683
 20
-8.000000000000001
 30
0.0
 11
-111.8934979049683
 21
-0.0000000000000205
 31
0.0
 70
    32
  1
%%c<>
  3
AM_JIS
100
AcDbAlignedDimension
 13
-89.00000000000002
 23
7.99999999999999
 33
0.0
 14
-89.0
 24
-8.000000000000008
 34
0.0
 50
270.0
100
AcDbRotatedDimension
1001
GENIUS_GENDTOL_13
1000

1000
h7
1000

1040
0.0
  0
LINE
  5
15EF
330
1F
100
AcDbEntity
  8
AM_0
100
AcDbLine
 10
-89.0
 20
7.999999999999991
 30
0.0
 11
-90.0
 21
6.999999999999991
 31
0.0
1001
GENIUS_GENFIL_13
1070
     0
1040
1.0
1040
1.0
1040
20.0
1040
0.0
1002
{
1002
}
1001
GENIUS_GENODEF_13
1002
{
1000
HIER
1070
     0
1002
}
1002
{
1000
MANEDIT
1070
     0
1002
}
1002
{
1000
NOSEL
1070
     0
1002
}
1002
{
1000
BEHIND
1070
     0
1002
}
1002
{
1000
REACTOR
1002
}
1001
GENIUS_GENOBJ-N-CHA_13
1002
{
1000
OWNER
1000
GEN
1002
}
  0
LINE
  5
15F2
330
1F
100
AcDbEntity
  8
AM_0
100
AcDbLine
 10
-90.0
 20
-7.000000000000012
 30
0.0
 11
-89.0
 21
-8.00000000000001
 31
0.0
1001
GENIUS_GENFIL_13
1070
     0
1040
1.0
1040
1.0
1040
20.0
1040
0.0
1002
{
1002
}
1001
GENIUS_GENODEF_13
1002
{
1000
HIER
1070
     0
1002
}
1002
{
1000
MANEDIT
1070
     0
1002
}
1002
{
1000
NOSEL
1070
     0
1002
}
1002
{
1000
BEHIND
1070
     0
1002
}
1002
{
1000
REACTOR
1002
}
1001
GENIUS_GENOBJ-N-CHA_13
1002
{
1000
OWNER
1000
GEN
1002
}
  0
LINE
  5
19A3
330
1F
100
AcDbEntity
  8
AM_0
100
AcDbLine
 10
-1.698333950959634
 20
4.267425302416633
 30
0.0
 11
-3.749092185716957
 21
4.813525476044922
 31
0.0
  0
LINE
  5
19A4
330
1F
100
AcDbEntity
  8
AM_0
100
AcDbLine
 10
-0.0000000000003109
 20
0.0
 30
0.0
 11
-0.1670454545457485
 21
1.600000000000179
 31
0.0
  0
LINE
  5
19A8
330
1F
100
AcDbEntity
  8
AM_0
100
AcDbLine
 10
-3.749092185716946
 20
-1.280000000000015
 30
0.0
 11
-1.368910431781717
 21
-2.357847624266469
 31
0.0
  0
LINE
  5
19AB
330
1F
100
AcDbEntity
  8
AM_0
100
AcDbLine
 10
-1.368910431781717
 20
-2.357847624266469
 30
0.0
 11
-0.1670454545457485
 21
-2.123036567301099
 31
0.0
  0
LINE
  5
19AD
330
1F
100
AcDbEntity
  8
AM_0
100
AcDbLine
 10
-0.0000000000003109
 20
-8.0
 30
0.0
 11
-0.1670454545457485
 21
-7.573505852194919
 31
0.0
  0
LINE
  5
19AE
330
1F
100
AcDbEntity
  8
AM_0
100
AcDbLine
 10
-0.1670454545457485
 20
-7.573505852194827
 30
0.0
 11
-1.089772727273041
 21
-6.39618664873906
 31
0.0
  0
LINE
  5
19AF
330
1F
100
AcDbEntity
  8
AM_0
100
AcDbLine
 10
-0.0000000000003109
 20
-8.0
 30
0.0
 11
-0.0000000000003109
 21
-1.600000000000001
 31
0.0
  0
LINE
  5
19B0
330
1F
100
AcDbEntity
  8
AM_0
100
AcDbLine
 10
-0.1670454545457485
 20
-7.573505852194919
 30
0.0
 11
-0.1670454545457485
 21
-2.123036567301099
 31
0.0
  0
ELLIPSE
  5
19B1
330
1F
100
AcDbEntity
  8
AM_0
100
AcDbEllipse
 10
3.159025516861153
 20
-4.070208263548636
 30
0.0
 11
-0.0000000000000889
 21
4.865116984825678
 31
0.0
210
0.0
220
0.0
230
1.0
 40
0.9943181818181823
 41
1.211124581303804
 42
2.0692785382903
  0
LINE
  5
19B2
330
1F
100
AcDbEntity
  8
AM_0
100
AcDbLine
 10
-0.0000000000003109
 20
0.0
 30
0.0
 11
-0.0000000000003215
 21
8.0
 31
0.0
  0
LINE
  5
19B3
330
1F
100
AcDbEntity
  8
AM_0
100
AcDbLine
 10
-0.1670454545457485
 20
1.600000000000179
 30
0.0
 11
-1.698333950959634
 21
4.267425302416633
 31
0.0
  0
SPLINE
  5
19B4
330
1F
100
AcDbEntity
  8
AM_0
100
AcDbSpline
210
0.0
220
0.0
230
1.0
 70
     8
 71
     3
 72
     8
 73
     4
 74
     0
 42
0.0000000001
 43
0.0000000001
 40
0.0
 40
0.0
 40
0.0
 40
0.0
 40
2.764560748519282
 40
2.764560748519282
 40
2.764560748519282
 40
2.764560748519282
 10
-18.85951330137282
 20
-7.760453872536629
 30
0.0
 10
-17.39345835897625
 20
-7.760453872536629
 30
0.0
 10
-15.95186946201285
 20
-7.618209837616099
 30
0.0
 10
-14.53006222909941
 20
-7.360956463748983
 30
0.0
  0
SPLINE
  5
19B5
330
1F
100
AcDbEntity
  8
AM_0
100
AcDbSpline
210
0.0
220
0.0
230
1.0
 70
     8
 71
     3
 72
     8
 73
     4
 74
     0
 42
0.0000000001
 43
0.0000000001
 40
1.870660592686466
 40
1.870660592686466
 40
1.870660592686466
 40
1.870660592686466
 40
14.43901837670146
 40
14.43901837670146
 40
14.43901837670146
 40
14.43901837670146
 10
-0.1670454545457485
 20
-7.573505852194827
 30
0.0
 10
-6.691307304227979
 20
-6.755040979362362
 30
0.0
 10
-12.77541030280026
 20
-3.377520489681145
 30
0.0
 10
-18.85951330137255
 20
0.0000000000000782
 30
0.0
  0
SPLINE
  5
19B6
330
1F
100
AcDbEntity
  8
AM_0
100
AcDbSpline
210
0.0
220
0.0
230
1.0
 70
     8
 71
     3
 72
     8
 73
     4
 74
     0
 42
0.0000000001
 43
0.0000000001
 40
0.3581103616548037
 40
0.3581103616548037
 40
0.3581103616548037
 40
0.3581103616548037
 40
12.40023413887867
 40
12.40023413887867
 40
12.40023413887867
 40
12.40023413887867
 10
-18.29101368074021
 20
7.753352676564269
 30
0.0
 10
-11.93230625488852
 20
7.594822299300531
 30
0.0
 10
-6.026299010693534
 20
4.804321805576002
 30
0.0
 10
-0.1858385333572965
 20
1.632736570574344
 30
0.0
  0
SPLINE
  5
19B7
330
1F
100
AcDbEntity
  8
AM_0
100
AcDbSpline
210
0.0
220
0.0
230
1.0
 70
     8
 71
     3
 72
     8
 73
     4
 74
     0
 42
0.0000000001
 43
0.0000000001
 40
4.542668862435135
 40
4.542668862435135
 40
4.542668862435135
 40
4.542668862435135
 40
14.36247867694493
 40
14.36247867694493
 40
14.36247867694493
 40
14.36247867694493
 10
-1.089772727270824
 20
-6.396186648730598
 30
0.0
 10
-6.076413376815946
 20
-5.051209098516572
 30
0.0
 10
-10.86920478308687
 20
-2.525604549258254
 30
0.0
 10
-15.6619961893578
 20
0.0000000000000782
 30
0.0
  0
SPLINE
  5
19B8
330
1F
100
AcDbEntity
  8
AM_0
100
AcDbSpline
210
0.0
220
0.0
230
1.0
 70
     8
 71
     3
 72
     8
 73
     4
 74
     0
 42
0.0000000001
 43
0.0000000001
 40
0.0
 40
0.0
 40
0.0
 40
0.0
 40
5.635889483499127
 40
5.635889483499127
 40
5.635889483499127
 40
5.635889483499127
 10
-0.0000000000003215
 20
8.0
 30
0.0
 10
-2.98872927155288
 20
8.0
 30
0.0
 10
-5.870357903830505
 20
7.394870446366624
 30
0.0
 10
-8.686542729842777
 20
6.419976701393991
 30
0.0
  0
SPLINE
  5
19B9
330
1F
100
AcDbEntity
  8
AM_0
100
AcDbSpline
210
0.0
220
0.0
230
1.0
 70
     8
 71
     3
 72
     8
 73
     4
 74
     0
 42
0.0000000001
 43
0.0000000001
 40
0.0
 40
0.0
 40
0.0
 40
0.0
 40
2.586565323616714
 40
2.586565323616714
 40
2.586565323616714
 40
2.586565323616714
 10
-0.0000000000003215
 20
6.519524298694342
 30
0.0
 10
-0.8801981053459151
 20
5.461509113841614
 30
0.0
 10
-2.391008302957587
 20
5.007158075078962
 30
0.0
 10
-3.749092185716957
 20
4.813525476044922
 30
0.0
  0
SPLINE
  5
19BA
330
1F
100
AcDbEntity
  8
AM_0
100
AcDbSpline
210
0.0
220
0.0
230
1.0
 70
     8
 71
     3
 72
     8
 73
     4
 74
     0
 42
0.0000000001
 43
0.0000000001
 40
0.7142832446738512
 40
0.7142832446738512
 40
0.7142832446738512
 40
0.7142832446738512
 40
9.361146747480315
 40
9.361146747480315
 40
9.361146747480315
 40
9.361146747480315
 10
-14.53006222893153
 20
7.360956463718856
 30
0.0
 10
-9.980020963001514
 20
7.145253502354535
 30
0.0
 10
-5.638883968213093
 20
5.657231812479402
 30
0.0
 10
-1.374299189184361
 20
3.702973519169518
 30
0.0
  0
SPLINE
  5
19BB
330
1F
100
AcDbEntity
  8
AM_0
100
AcDbSpline
210
0.0
220
0.0
230
1.0
 70
     8
 71
     3
 72
     8
 73
     4
 74
     0
 42
0.0000000001
 43
0.0000000001
 40
0.0
 40
0.0
 40
0.0
 40
0.0
 40
4.451443990518192
 40
4.451443990518192
 40
4.451443990518192
 40
4.451443990518192
 10
-15.66199618935812
 20
-7.387911206084311
 30
0.0
 10
-13.30138195196208
 20
-7.387911206084311
 30
0.0
 10
-10.99902981044752
 20
-7.033069462795914
 30
0.0
 10
-8.736882264962218
 20
-6.433364078277556
 30
0.0
  0
LINE
  5
19BC
330
1F
100
AcDbEntity
  8
AM_0
100
AcDbLine
 10
-35.0000000000004
 20
6.560382274645668
 30
0.0
 11
-35.41905023218952
 21
7.290346089395526
 31
0.0
  0
LINE
  5
19BD
330
1F
100
AcDbEntity
  8
AM_0
100
AcDbLine
 10
-36.15807735280753
 20
-2.370602397902189
 30
0.0
 11
-35.0000000000003
 21
-4.475540031786046
 31
0.0
  0
LINE
  5
19BE
330
1F
100
AcDbEntity
  8
AM_0
100
AcDbLine
 10
-35.00000000000017
 20
-1.205907460221645
 30
0.0
 11
-36.15807735280753
 21
-2.370602397902189
 31
0.0
  0
LINE
  5
19BF
330
1F
100
AcDbEntity
  8
AM_11
100
AcDbLine
 10
-35.00000000000023
 20
7.999999999999978
 30
0.0
 11
-35.00000000000022
 21
-8.000000000000021
 31
0.0
  0
ELLIPSE
  5
19C0
330
1F
100
AcDbEntity
  8
AM_0
100
AcDbEllipse
 10
-43.25625511368198
 20
7.244510023436461
 30
0.0
 11
-0.0000000000065005
 21
15.27187127590713
 31
0.0
210
0.0
220
0.0
230
1.0
 40
0.994318181818169
 41
3.201461614289561
 42
3.427250019213019
  0
POLYLINE
  5
19C1
330
1F
100
AcDbEntity
  8
AM_0
100
AcDb2dPolyline
 66
     1
 10
0.0
 20
0.0
 30
0.0
 70
     2
  0
VERTEX
  5
19C2
330
19C1
100
AcDbEntity
  8
AM_0
100
AcDbVertex
100
AcDb2dVertex
 10
-38.97727272727302
 20
-7.408493441185896
 30
0.0
 42
-0.0230918143391583
  0
VERTEX
  5
19C3
330
19C1
100
AcDbEntity
  8
AM_0
100
AcDbVertex
100
AcDb2dVertex
 10
-39.89446004934506
 20
-7.174722011439392
 30
0.0
 42
-0.0355587143075394
 70
     1
  0
VERTEX
  5
19C4
330
19C1
100
AcDbEntity
  8
AM_0
100
AcDbVertex
100
AcDb2dVertex
 10
-40.46875000000029
 20
-6.953709601213105
 30
0.0
 42
-0.0216088548285507
  0
VERTEX
  5
19C5
330
19C1
100
AcDbEntity
  8
AM_0
100
AcDbVertex
100
AcDb2dVertex
 10
-41.80865217270432
 20
-6.252556549894435
 30
0.0
 42
-0.0414110700152503
 70
     1
  0
VERTEX
  5
19C6
330
19C1
100
AcDbEntity
  8
AM_0
100
AcDbVertex
100
AcDb2dVertex
 10
-42.45738636363666
 20
-5.800666429342598
 30
0.0
 42
-0.0653031023268945
  0
VERTEX
  5
19C7
330
19C1
100
AcDbEntity
  8
AM_0
100
AcDbVertex
100
AcDb2dVertex
 10
-42.87527890220744
 20
-5.351195166103138
 30
0.0
 42
-0.1569363594221426
 70
     1
  0
VERTEX
  5
19C8
330
19C1
100
AcDbEntity
  8
AM_0
100
AcDbVertex
100
AcDb2dVertex
 10
-42.95454545454574
 20
-5.102407097444825
 30
0.0
 42
-0.1617045000652558
  0
VERTEX
  5
19C9
330
19C1
100
AcDbEntity
  8
AM_0
100
AcDbVertex
100
AcDb2dVertex
 10
-42.87390970196664
 20
-4.859216522373685
 30
0.0
 42
-0.0680210806811403
 70
     1
  0
VERTEX
  5
19CA
330
19C1
100
AcDbEntity
  8
AM_0
100
AcDbVertex
100
AcDb2dVertex
 10
-42.45738636363666
 20
-4.434356824124755
 30
0.0
 42
-0.0450747416233525
  0
VERTEX
  5
19CB
330
19C1
100
AcDbEntity
  8
AM_0
100
AcDbVertex
100
AcDb2dVertex
 10
-41.81475851164981
 20
-4.023250661882705
 30
0.0
 42
-0.0231467319857815
 70
     1
  0
VERTEX
  5
19CC
330
19C1
100
AcDbEntity
  8
AM_0
100
AcDbVertex
100
AcDb2dVertex
 10
-40.46875000000029
 20
-3.402149886565283
 30
0.0
 42
-0.0364444523572374
  0
VERTEX
  5
19CD
330
19C1
100
AcDbEntity
  8
AM_0
100
AcDbVertex
100
AcDb2dVertex
 10
-39.88418443237096
 20
-3.213165917630817
 30
0.0
 42
-0.0242139410122645
 70
     1
  0
VERTEX
  5
19CE
330
19C1
100
AcDbEntity
  8
AM_0
100
AcDbVertex
100
AcDb2dVertex
 10
-38.97727272727302
 20
-3.037993222325738
 30
0.0
  0
SEQEND
  5
19CF
330
19C1
100
AcDbEntity
  8
AM_0
  0
POLYLINE
  5
19D0
330
1F
100
AcDbEntity
  8
AM_0
100
AcDb2dPolyline
 66
     1
 10
0.0
 20
0.0
 30
0.0
 70
     2
  0
VERTEX
  5
19D1
330
19D0
100
AcDbEntity
  8
AM_0
100
AcDbVertex
100
AcDb2dVertex
 10
-35.0000000000003
 20
6.560382274645675
 30
0.0
 42
0.0113495642762015
  0
VERTEX
  5
19D2
330
19D0
100
AcDbEntity
  8
AM_0
100
AcDbVertex
100
AcDb2dVertex
 10
-36.85455445628411
 20
6.839649885514006
 30
0.0
 42
0.0187918863228812
 70
     1
  0
VERTEX
  5
19D3
330
19D0
100
AcDbEntity
  8
AM_0
100
AcDbVertex
100
AcDb2dVertex
 10
-37.98295454545485
 20
6.9401725994732
 30
0.0
 42
0.0075788461628208
  0
VERTEX
  5
19D4
330
19D0
100
AcDbEntity
  8
AM_0
100
AcDbVertex
100
AcDb2dVertex
 10
-40.98260117980637
 20
7.047648226420164
 30
0.0
 42
0.0232722457202398
 70
     1
  0
VERTEX
  5
19D5
330
19D0
100
AcDbEntity
  8
AM_0
100
AcDbVertex
100
AcDb2dVertex
 10
-41.96022727272758
 20
7.021997570819145
 30
0.0
 42
0.0542958387243925
  0
VERTEX
  5
19D6
330
19D0
100
AcDbEntity
  8
AM_0
100
AcDbVertex
100
AcDb2dVertex
 10
-42.8940316535565
 20
6.850031325854047
 30
0.0
 42
0.4413285869607302
 70
     1
  0
VERTEX
  5
19D7
330
19D0
100
AcDbEntity
  8
AM_0
100
AcDbVertex
100
AcDb2dVertex
 10
-42.95454545454576
 20
6.724032217337551
 30
0.0
 42
0.0678159998049314
  0
VERTEX
  5
19D8
330
19D0
100
AcDbEntity
  8
AM_0
100
AcDbVertex
100
AcDb2dVertex
 10
-42.88004480153686
 20
6.592161795224704
 30
0.0
 42
0.006836731909696
 70
     1
  0
VERTEX
  5
19D9
330
19D0
100
AcDbEntity
  8
AM_0
100
AcDbVertex
100
AcDb2dVertex
 10
-41.96022727272758
 20
5.414368161324617
 30
0.0
 42
0.0061465077983929
  0
VERTEX
  5
19DA
330
19D0
100
AcDbEntity
  8
AM_0
100
AcDbVertex
100
AcDb2dVertex
 10
-40.5737376842207
 20
3.730900715970598
 30
0.0
 42
0.0040253861954876
 70
     1
  0
VERTEX
  5
19DB
330
19D0
100
AcDbEntity
  8
AM_0
100
AcDbVertex
100
AcDb2dVertex
 10
-38.4051479905065
 20
1.204251946256341
 30
0.0
 42
0.0594163782683759
  0
VERTEX
  5
19DC
330
19D0
100
AcDbEntity
  8
AM_0
100
AcDbVertex
100
AcDb2dVertex
 10
-37.4247095170215
 20
0.3183584180150092
 30
0.0
 42
0.0273113651513278
 70
     1
  0
VERTEX
  5
19DD
330
19D0
100
AcDbEntity
  8
AM_0
100
AcDbVertex
100
AcDb2dVertex
 10
-35.0000000000003
 20
-1.205907460221638
 30
0.0
  0
SEQEND
  5
19DE
330
19D0
100
AcDbEntity
  8
AM_0
  0
ELLIPSE
  5
19DF
330
1F
100
AcDbEntity
  8
AM_0
100
AcDbEllipse
 10
-43.24418587195034
 20
-21.26241016951792
 30
0.0
 11
0.0000000000252618
 21
18.72283606136268
 31
0.0
210
0.0
220
0.0
230
1.0
 40
0.9943181818181647
 41
-0.4587681791436045
 42
-0.2312569029257687
  0
SPLINE
  5
19E0
330
1F
100
AcDbEntity
  8
AM_0
100
AcDbSpline
210
0.0
220
0.0
230
1.0
 70
     8
 71
     3
 72
     8
 73
     4
 74
     0
 42
0.0000000001
 43
0.0000000001
 40
0.0
 40
0.0
 40
0.0
 40
0.0
 40
9.068166399416787
 40
9.068166399416787
 40
9.068166399416787
 40
9.068166399416787
 10
-21.63636363636425
 20
-7.999999999999829
 30
0.0
 10
-26.44523975726709
 20
-7.999999999999843
 30
0.0
 10
-30.97684383152569
 20
-6.433384609496648
 30
0.0
 10
-35.40469895476766
 20
-4.280577046438814
 30
0.0
  0
SPLINE
  5
19E1
330
1F
100
AcDbEntity
  8
AM_0
100
AcDbSpline
210
0.0
220
0.0
230
1.0
 70
     8
 71
     3
 72
     8
 73
     4
 74
     0
 42
0.0000000001
 43
0.0000000001
 40
5.360156850992435
 40
5.360156850992435
 40
5.360156850992435
 40
5.360156850992435
 40
14.48999654934396
 40
14.48999654934396
 40
14.48999654934396
 40
14.48999654934396
 10
-35.0000000000004
 20
6.560382274645668
 30
0.0
 10
-30.42739610490392
 20
5.040630433422826
 30
0.0
 10
-26.03187987063392
 20
2.520315216711495
 30
0.0
 10
-21.63636363636393
 20
0.0000000000001705
 30
0.0
  0
SPLINE
  5
19E2
330
1F
100
AcDbEntity
  8
AM_0
100
AcDbSpline
210
0.0
220
0.0
230
1.0
 70
     8
 71
     3
 72
     8
 73
     4
 74
     0
 42
0.0000000001
 43
0.0000000001
 40
0.0
 40
0.0
 40
0.0
 40
0.0
 40
5.635889483499305
 40
5.635889483499305
 40
5.635889483499305
 40
5.635889483499305
 10
-21.63636363636426
 20
8.00000000000017
 30
0.0
 10
-24.62509290791695
 20
8.00000000000017
 30
0.0
 10
-27.50672154019462
 20
7.39487044636678
 30
0.0
 10
-30.32290636620694
 20
6.419976701394055
 30
0.0
  0
SPLINE
  5
19E3
330
1F
100
AcDbEntity
  8
AM_0
100
AcDbSpline
210
0.0
220
0.0
230
1.0
 70
     8
 71
     3
 72
     8
 73
     4
 74
     0
 42
0.0000000001
 43
0.0000000001
 40
0.0
 40
0.0
 40
0.0
 40
0.0
 40
4.451443990518192
 40
4.451443990518192
 40
4.451443990518192
 40
4.451443990518192
 10
-38.97727272727303
 20
-7.408493441185896
 30
0.0
 10
-34.9377455883257
 20
-7.387911206084325
 30
0.0
 10
-32.63539344681115
 20
-7.033069462795921
 30
0.0
 10
-30.37324590132584
 20
-6.433364078277577
 30
0.0
  0
SPLINE
  5
19E4
330
1F
100
AcDbEntity
  8
AM_0
100
AcDbSpline
210
0.0
220
0.0
230
1.0
 70
     8
 71
     3
 72
     8
 73
     4
 74
     0
 42
0.0000000001
 43
0.0000000001
 40
1.090140354492627
 40
1.090140354492627
 40
1.090140354492627
 40
1.090140354492627
 40
14.36247867694493
 40
14.36247867694493
 40
14.36247867694493
 40
14.36247867694493
 10
-35.57426304052155
 20
7.325682662096802
 30
0.0
 10
-28.61775607769645
 20
6.827154227966886
 30
0.0
 10
-22.13987613352715
 20
3.413577113983492
 30
0.0
 10
-15.6619961893578
 20
0.0000000000000782
 30
0.0
  0
SPLINE
  5
19E5
330
1F
100
AcDbEntity
  8
AM_0
100
AcDbSpline
210
0.0
220
0.0
230
1.0
 70
     8
 71
     3
 72
     8
 73
     4
 74
     0
 42
0.0000000001
 43
0.0000000001
 40
0.0
 40
0.0
 40
0.0
 40
0.0
 40
12.79333816032526
 40
12.79333816032526
 40
12.79333816032526
 40
12.79333816032526
 10
-15.66199618935812
 20
-7.387911206084126
 30
0.0
 10
-22.44634218347
 20
-7.387911206084126
 30
0.0
 10
-28.74945890613654
 20
-4.457013664250482
 30
0.0
 10
-35.00000000000017
 20
-1.205907460221645
 30
0.0
  0
SPLINE
  5
19E6
330
1F
100
AcDbEntity
  8
AM_0
100
AcDbSpline
210
0.0
220
0.0
230
1.0
 70
     8
 71
     3
 72
     8
 73
     4
 74
     0
 42
0.0000000001
 43
0.0000000001
 40
0.0
 40
0.0
 40
0.0
 40
0.0
 40
14.48999654934395
 40
14.48999654934395
 40
14.48999654934395
 40
14.48999654934395
 10
-0.0000000000003109
 20
-8.0
 30
0.0
 10
-7.68408907919786
 20
-8.000000000000014
 30
0.0
 10
-14.6602263577809
 20
-4.000000000000014
 30
0.0
 10
-21.63636363636393
 20
-0.0000000000000142
 30
0.0
  0
SPLINE
  5
19E7
330
1F
100
AcDbEntity
  8
AM_0
100
AcDbSpline
210
0.0
220
0.0
230
1.0
 70
     8
 71
     3
 72
     8
 73
     4
 74
     0
 42
0.0000000001
 43
0.0000000001
 40
0.0
 40
0.0
 40
0.0
 40
0.0
 40
14.48999654934396
 40
14.48999654934396
 40
14.48999654934396
 40
14.48999654934396
 10
-21.63636363636395
 20
8.00000000000017
 30
0.0
 10
-13.95227455716639
 20
8.00000000000017
 30
0.0
 10
-6.976137278583351
 20
4.00000000000017
 30
0.0
 10
-0.0000000000003109
 20
0.0000000000001847
 30
0.0
  0
SPLINE
  5
19E8
330
1F
100
AcDbEntity
  8
AM_0
100
AcDbSpline
210
0.0
220
0.0
230
1.0
 70
     8
 71
     3
 72
     8
 73
     4
 74
     0
 42
0.0000000001
 43
0.0000000001
 40
0.0
 40
0.0
 40
0.0
 40
0.0
 40
11.45610476152127
 40
11.45610476152127
 40
11.45610476152127
 40
11.45610476152127
 10
-18.85951330137282
 20
-7.760453872536444
 30
0.0
 10
-24.93472037187654
 20
-7.760453872536444
 30
0.0
 10
-30.58979573831805
 20
-5.317834817199148
 30
0.0
 10
-36.15807735275236
 20
-2.37060239779678
 30
0.0
  0
SPLINE
  5
19E9
330
1F
100
AcDbEntity
  8
AM_0
100
AcDbSpline
210
0.0
220
0.0
230
1.0
 70
     8
 71
     3
 72
     8
 73
     4
 74
     0
 42
0.0000000001
 43
0.0000000001
 40
0.3581103616548037
 40
0.3581103616548037
 40
0.3581103616548037
 40
0.3581103616548037
 40
14.43901837670146
 40
14.43901837670146
 40
14.43901837670146
 40
14.43901837670146
 10
-40.35215570775593
 20
7.999999999999964
 30
0.0
 10
-32.49211290574161
 20
7.567982412885136
 30
0.0
 10
-25.67581310355707
 20
3.7839912064426
 30
0.0
 10
-18.85951330137255
 20
0.0000000000000782
 30
0.0
  0
SPLINE
  5
19EA
330
1F
100
AcDbEntity
  8
AM_0
100
AcDbSpline
210
0.0
220
0.0
230
1.0
 70
     8
 71
     3
 72
     8
 73
     4
 74
     0
 42
0.0000000001
 43
0.0000000001
 40
0.0
 40
0.0
 40
0.0
 40
0.0
 40
2.130230809022907
 40
2.130230809022907
 40
2.130230809022907
 40
2.130230809022907
 10
-21.63636363636425
 20
-8.000000000000014
 30
0.0
 10
-20.5066957830945
 20
-8.000000000000014
 30
0.0
 10
-19.39232895217669
 20
-7.913547660512278
 30
0.0
 10
-18.29101368074083
 20
-7.753352676564112
 30
0.0
  0
LINE
  5
19EB
330
1F
100
AcDbEntity
  8
AM_11
100
AcDbLine
 10
-35.00000000000023
 20
-8.00000000000003
 30
0.0
 11
-0.0000000000003109
 21
-8.0
 31
0.0
  0
LINE
  5
19EC
330
1F
100
AcDbEntity
  8
AM_11
100
AcDbLine
 10
-0.0000000000015419
 20
8.0
 30
0.0
 11
-35.00000000000023
 21
7.999999999999968
 31
0.0
  0
LINE
  5
1AE9
330
1F
100
AcDbEntity
  8
AM_0
100
AcDbLine
 10
-0.0000000000017956
 20
-0.0000000000172804
 30
0.0
 11
-3.770515569636812
 21
-0.0000000000172804
 31
0.0
  0
LINE
  5
1AEA
330
1F
100
AcDbEntity
  8
AM_0
100
AcDbLine
 10
-3.770515569636812
 20
-1.280000000017298
 30
0.0
 11
-0.1847520861424748
 21
-1.280000000017298
 31
0.0
  0
LINE
  5
1AEB
330
1F
100
AcDbEntity
  8
AM_0
100
AcDbLine
 10
-0.0000000000017956
 20
-1.60000000001728
 30
0.0
 11
-0.9237604307052372
 21
-0.0000000000171895
 31
0.0
  0
LINE
  5
1AEC
330
1F
100
AcDbEntity
  8
AM_0
100
AcDbLine
 10
-1.376732777107667
 20
-2.35784762428375
 30
0.0
 11
-0.1680000000017792
 21
-2.123036567318377
 31
0.0
  0
LINE
  5
1AED
330
1F
100
AcDbEntity
  8
AM_0
100
AcDbLine
 10
-3.770515569636812
 20
-0.0000000000172804
 30
0.0
 11
-3.770515569636812
 21
-1.280000000017298
 31
0.0
  0
LINE
  5
1AEF
330
1F
100
AcDbEntity
  8
AM_0
100
AcDbLine
 10
-0.0000000000017956
 20
-0.0000000000172804
 30
0.0
 11
-0.1421481746321427
 21
-1.353792139354482
 31
0.0
  0
LINE
  5
1AF0
330
1F
100
AcDbEntity
  8
AM_0
100
AcDbLine
 10
-0.1680000000017792
 20
-2.123036567318377
 30
0.0
 11
-0.0000000000017956
 21
-1.60000000001728
 31
0.0
  0
VIEWPORT
  5
110
330
101
100
AcDbEntity
 67
     1
  8
0
100
AcDbViewport
 10
420.5
 20
297.0
 30
0.0
 40
948.9782706766916
 41
628.452
 68
     1
 69
     1
1001
ACAD
1000
MVIEW
1002
{
1070
    16
1010
0.0
1020
0.0
1030
0.0
1010
0.0
1020
0.0
1030
1.0
1040
0.0
1040
628.452
1040
420.5
1040
297.0
1040
50.0
1040
0.0
1040
0.0
1070
     0
1070
   100
1070
     1
1070
     1
1070
     0
1070
     0
1070
     0
1070
     0
1040
0.0
1040
0.0
1040
0.0
1040
10.0
1040
10.0
1040
10.0
1040
10.0
1070
     0
1002
{
1002
}
1002
}
  0
ENDSEC
  0
SECTION
  2
OBJECTS
  0
DICTIONARY
  5
C
330
0
100
AcDbDictionary
  3
ACAD_GROUP
350
D
  3
ACAD_LAYOUT
350
1A
  3
ACAD_MLINESTYLE
350
17
  3
ACAD_PLOTSETTINGS
350
19
  3
ACAD_PLOTSTYLENAME
350
E
  3
ACDBVARIABLEDICTIONARY
350
34
  3
ACMDICTIONARY
350
43
  3
AMG
350
2B
  3
AMGSNAPSETTINGS
350
6E
  3
DWGPROPS
350
1B0B
  3
ACDBHEADERROUNDTRIPXREC
350
1B17
  0
DICTIONARY
  5
74
330
1F
100
AcDbDictionary
280
     1
  3
ACAD_INDEX
360
1B0D
  3
ACAD_LAYOUTSELFREF
360
1B3A
  0
DICTIONARY
  5
1B3F
330
101
100
AcDbDictionary
280
     1
  3
ACAD_LAYOUTSELFREF
360
1B40
  0
DICTIONARY
  5
D
102
{ACAD_REACTORS
330
C
102
}
330
C
100
AcDbDictionary
  0
DICTIONARY
  5
1A
102
{ACAD_REACTORS
330
C
102
}
330
C
100
AcDbDictionary
  0
DICTIONARY
  5
17
102
{ACAD_REACTORS
330
C
102
}
330
C
100
AcDbDictionary
  3
STANDARD
350
18
  0
DICTIONARY
  5
19
102
{ACAD_REACTORS
330
C
102
}
330
C
100
AcDbDictionary
  0
ACDBDICTIONARYWDFLT
  5
E
102
{ACAD_REACTORS
330
C
102
}
330
C
100
AcDbDictionary
281
     1
  3
Normal
350
F
100
AcDbDictionaryWithDefault
340
F
  0
DICTIONARY
  5
34
102
{ACAD_REACTORS
330
C
102
}
330
C
100
AcDbDictionary
  3
INDEXCTL
350
35
  3
SORTENTS
350
B5E
  0
DICTIONARY
  5
43
102
{ACAD_REACTORS
330
C
102
}
330
C
100
AcDbDictionary
  3
ACMSTDDICTIONARY
350
260
  0
DICTIONARY
  5
2B
102
{ACAD_REACTORS
330
C
102
}
330
C
100
AcDbDictionary
  3
ACMGSETTINGS
350
2C
  0
DICTIONARY
  5
6E
102
{ACAD_REACTORS
330
C
102
}
330
C
100
AcDbDictionary
  0
XRECORD
  5
1B0B
102
{ACAD_REACTORS
330
C
102
}
330
C
100
AcDbXrecord
  1
DWGPROPS COOKIE
  2

  3

  4

  6

  7

  8

  9

300
AmdtFileType=82
301
=
302
=
303
=
304
=
305
=
306
=
307
=
308
=
309
=
 40
0.0415744097222222
 41
2452836.771637361
 42
2452845.706154872
  1

 90
        1
  0
DICTIONARY
  5
1B17
102
{ACAD_REACTORS
330
C
102
}
330
C
100
AcDbDictionary
  3
TSTACKALIGN
350
1B18
  3
TSTACKSIZE
350
1B19
  3
HYPERLINKBASE
350
1B1A
  3
STYLESHEET
350
1B1B
  3
LAYOUTDICT
350
1B1C
  3
PLOTSETDICT
350
1B1D
  3
PLOTSTYLNAMDICT
350
1B1E
  3
LWETCUNION
350
1B1F
  3
INSUNITS
350
1B20
  3
CEPSNTYPE
350
1B21
  3
FINGERPRINTGUID
350
1B22
  3
VERSIONGUID
350
1B23
  3
PSVPSCALE
350
1B24
  3
DIMSTYLEDATA
350
1B25
  3
PUCSORTHOREF
350
1B26
  3
PUCSORTHOVIEW
350
1B27
  3
PUCSBASE
350
1B28
  3
PUCSORGTOP
350
1B29
  3
PUCSORGBOTTOM
350
1B2A
  3
PUCSORGLEFT
350
1B2B
  3
PUCSORGRIGHT
350
1B2C
  3
PUCSORGFRONT
350
1B2D
  3
PUCSORGBACK
350
1B2E
  3
UCSORTHOREF
350
1B2F
  3
UCSORTHOVIEW
350
1B30
  3
UCSBASE
350
1B31
  3
UCSORGTOP
350
1B32
  3
UCSORGBOTTOM
350
1B33
  3
UCSORGLEFT
350
1B34
  3
UCSORGRIGHT
350
1B35
  3
UCSORGFRONT
350
1B36
  3
UCSORGBACK
350
1B37
  0
DICTIONARY
  5
1B0D
102
{ACAD_REACTORS
330
74
102
}
330
74
100
AcDbDictionary
  3
*A1
350
1B0E
  0
XRECORD
  5
1B3A
102
{ACAD_REACTORS
330
74
102
}
330
74
100
AcDbXrecord
340
1F
  0
XRECORD
  5
1B40
102
{ACAD_REACTORS
330
1B3F
102
}
330
1B3F
100
AcDbXrecord
340
101
  0
MLINESTYLE
  5
18
102
{ACAD_REACTORS
330
17
102
}
330
17
100
AcDbMlineStyle
  2
STANDARD
 70
     0
  3

 62
   256
 51
90.0
 52
90.0
 71
     2
 49
0.5
 62
   256
  6
BYLAYER
 49
-0.5
 62
   256
  6
BYLAYER
  0
ACDBPLACEHOLDER
  5
F
102
{ACAD_REACTORS
330
E
102
}
330
E
100
AcDbPlaceHolder
280
     0
  0
DICTIONARYVAR
  5
35
102
{ACAD_REACTORS
330
34
102
}
330
34
100
DictionaryVariables
280
     0
  1
1
  0
DICTIONARYVAR
  5
B5E
102
{ACAD_REACTORS
330
34
102
}
330
34
100
DictionaryVariables
280
     0
  1
96
  0
DICTIONARY
  5
260
102
{ACAD_REACTORS
330
43
102
}
330
43
100
AcDbDictionary
  0
DICTIONARY
  5
2C
102
{ACAD_REACTORS
330
2B
102
}
330
2B
100
AcDbDictionary
  3
DWGSETTINGS
350
2D
  0
XRECORD
  5
1B18
102
{ACAD_REACTORS
330
1B17
102
}
330
1B17
100
AcDbXrecord
 90
        1
  0
XRECORD
  5
1B19
102
{ACAD_REACTORS
330
1B17
102
}
330
1B17
100
AcDbXrecord
 90
       70
  0
XRECORD
  5
1B1A
102
{ACAD_REACTORS
330
1B17
102
}
330
1B17
100
AcDbXrecord
  1

  0
XRECORD
  5
1B1B
102
{ACAD_REACTORS
330
1B17
102
}
330
1B17
100
AcDbXrecord
  1
ASAMI.ctb
  0
XRECORD
  5
1B1C
102
{ACAD_REACTORS
330
1B17
102
}
330
1B17
100
AcDbXrecord
340
1A
  0
XRECORD
  5
1B1D
102
{ACAD_REACTORS
330
1B17
102
}
330
1B17
100
AcDbXrecord
340
19
  0
XRECORD
  5
1B1E
102
{ACAD_REACTORS
330
1B17
102
}
330
1B17
100
AcDbXrecord
340
E
  0
XRECORD
  5
1B1F
102
{ACAD_REACTORS
330
1B17
102
}
330
1B17
100
AcDbXrecord
 90
    10781
  0
XRECORD
  5
1B20
102
{ACAD_REACTORS
330
1B17
102
}
330
1B17
100
AcDbXrecord
 90
        4
  0
XRECORD
  5
1B21
102
{ACAD_REACTORS
330
1B17
102
}
330
1B17
100
AcDbXrecord
 90
        0
  0
XRECORD
  5
1B22
102
{ACAD_REACTORS
330
1B17
102
}
330
1B17
100
AcDbXrecord
  1
{AFB28963-8C59-40AE-9337-C84526B81ACE}
  0
XRECORD
  5
1B23
102
{ACAD_REACTORS
330
1B17
102
}
330
1B17
100
AcDbXrecord
  1
{06F1D7E7-49DE-4790-9F9D-4CA34301DBB2}
  0
XRECORD
  5
1B24
102
{ACAD_REACTORS
330
1B17
102
}
330
1B17
100
AcDbXrecord
 40
0.0
  0
XRECORD
  5
1B25
102
{ACAD_REACTORS
330
1B17
102
}
330
1B17
100
AcDbXrecord
1000
DSTYLE
1002
{
1070
    79
 70
     2
1070
   341
340
59
1070
   342
340
59
1070
   371
 70
    -1
1070
   372
 70
    -1
1002
}
  0
XRECORD
  5
1B26
102
{ACAD_REACTORS
330
1B17
102
}
330
1B17
100
AcDbXrecord
340
0
  0
XRECORD
  5
1B27
102
{ACAD_REACTORS
330
1B17
102
}
330
1B17
100
AcDbXrecord
 70
     0
  0
XRECORD
  5
1B28
102
{ACAD_REACTORS
330
1B17
102
}
330
1B17
100
AcDbXrecord
340
0
  0
XRECORD
  5
1B29
102
{ACAD_REACTORS
330
1B17
102
}
330
1B17
100
AcDbXrecord
 10
0.0
 20
0.0
 30
0.0
  0
XRECORD
  5
1B2A
102
{ACAD_REACTORS
330
1B17
102
}
330
1B17
100
AcDbXrecord
 10
0.0
 20
0.0
 30
0.0
  0
XRECORD
  5
1B2B
102
{ACAD_REACTORS
330
1B17
102
}
330
1B17
100
AcDbXrecord
 10
0.0
 20
0.0
 30
0.0
  0
XRECORD
  5
1B2C
102
{ACAD_REACTORS
330
1B17
102
}
330
1B17
100
AcDbXrecord
 10
0.0
 20
0.0
 30
0.0
  0
XRECORD
  5
1B2D
102
{ACAD_REACTORS
330
1B17
102
}
330
1B17
100
AcDbXrecord
 10
0.0
 20
0.0
 30
0.0
  0
XRECORD
  5
1B2E
102
{ACAD_REACTORS
330
1B17
102
}
330
1B17
100
AcDbXrecord
 10
0.0
 20
0.0
 30
0.0
  0
XRECORD
  5
1B2F
102
{ACAD_REACTORS
330
1B17
102
}
330
1B17
100
AcDbXrecord
340
0
  0
XRECORD
  5
1B30
102
{ACAD_REACTORS
330
1B17
102
}
330
1B17
100
AcDbXrecord
 70
     0
  0
XRECORD
  5
1B31
102
{ACAD_REACTORS
330
1B17
102
}
330
1B17
100
AcDbXrecord
340
0
  0
XRECORD
  5
1B32
102
{ACAD_REACTORS
330
1B17
102
}
330
1B17
100
AcDbXrecord
 10
0.0
 20
0.0
 30
0.0
  0
XRECORD
  5
1B33
102
{ACAD_REACTORS
330
1B17
102
}
330
1B17
100
AcDbXrecord
 10
0.0
 20
0.0
 30
0.0
  0
XRECORD
  5
1B34
102
{ACAD_REACTORS
330
1B17
102
}
330
1B17
100
AcDbXrecord
 10
0.0
 20
0.0
 30
0.0
  0
XRECORD
  5
1B35
102
{ACAD_REACTORS
330
1B17
102
}
330
1B17
100
AcDbXrecord
 10
0.0
 20
0.0
 30
0.0
  0
XRECORD
  5
1B36
102
{ACAD_REACTORS
330
1B17
102
}
330
1B17
100
AcDbXrecord
 10
0.0
 20
0.0
 30
0.0
  0
XRECORD
  5
1B37
102
{ACAD_REACTORS
330
1B17
102
}
330
1B17
100
AcDbXrecord
 10
0.0
 20
0.0
 30
0.0
  0
LAYER_INDEX
  5
1B0E
102
{ACAD_REACTORS
330
1B0D
102
}
330
1B0D
100
AcDbIndex
 40
2453151.801119815
100
AcDbLayerIndex
  8
0
360
1B0F
 90
        0
  8
AM_0
360
1B10
 90
       50
  8
AM_11
360
1B11
 90
        3
  8
AM_7
360
1B12
 90
        1
  8
AM_5
360
1B13
 90
        4
  8
Defpoints
360
1B14
 90
        0
  8
AM_6
360
1B15
 90
        1
  0
XRECORD
  5
2D
102
{ACAD_REACTORS
330
2C
102
}
330
2C
100
AcDbXrecord
  1
VERSION
140
15.0
  1
PRODUCT
  2
AutoCAD Mechanical 2000
  0
IDBUFFER
  5
1B0F
330
0
100
AcDbIdBuffer
  0
IDBUFFER
  5
1B10
330
0
100
AcDbIdBuffer
330
1AEF
330
1AF0
330
15CB
330
15CC
330
15CF
330
15D0
330
15EF
330
15F2
330
19A3
330
19A4
330
19A8
330
19AB
330
19AD
330
19AE
330
19AF
330
19B0
330
19B1
330
19B2
330
19B3
330
19B4
330
19B5
330
19B6
330
19B7
330
19B8
330
19B9
330
19BA
330
19BB
330
19BC
330
19BD
330
19BE
330
19C0
330
19C1
330
19D0
330
19DF
330
19E0
330
19E1
330
19E2
330
19E3
330
19E4
330
19E5
330
19E6
330
19E7
330
19E8
330
19E9
330
19EA
330
1AE9
330
1AEA
330
1AEB
330
1AEC
330
1AED
  0
IDBUFFER
  5
1B11
330
0
100
AcDbIdBuffer
330
19BF
330
19EB
330
19EC
  0
IDBUFFER
  5
1B12
330
0
100
AcDbIdBuffer
330
D74
  0
IDBUFFER
  5
1B13
330
0
100
AcDbIdBuffer
330
D71
330
D7A
330
DA6
330
15D1
  0
IDBUFFER
  5
1B14
330
0
100
AcDbIdBuffer
  0
IDBUFFER
  5
1B15
330
0
100
AcDbIdBuffer
330
E5A
  0
ENDSEC
  0
EOF
