  0
SECTION
  2
HEADER
  9
$ACADVER
  1
AC1014
  9
$ACADMAINTVER
 70
     9
  9
$DWGCODEPAGE
  3
ANSI_932
  9
$INSBASE
 10
0.0
 20
0.0
 30
0.0
  9
$EXTMIN
 10
-128.4934979049684
 20
-58.50000100999993
 30
-0.00000001
  9
$EXTMAX
 10
19.55776903085493
 20
12.09072191176439
 30
0.00000001
  9
$LIMMIN
 10
-133.2804221653769
 20
-67.93022325066147
  9
$LIMMAX
 10
29.00098956170484
 20
30.4689381648875
  9
$ORTHOMODE
 70
     0
  9
$REGENMODE
 70
     1
  9
$FILLMODE
 70
     1
  9
$QTEXTMODE
 70
     0
  9
$MIRRTEXT
 70
     0
  9
$DRAGMODE
 70
     2
  9
$LTSCALE
 40
1.0
  9
$OSMODE
 70
    55
  9
$ATTMODE
 70
     1
  9
$TEXTSIZE
 40
2.5
  9
$TRACEWID
 40
1.0
  9
$TEXTSTYLE
  7
STANDARD
  9
$CLAYER
  8
AM_0
  9
$CELTYPE
  6
BYLAYER
  9
$CECOLOR
 62
   256
  9
$CELTSCALE
 40
1.0
  9
$DELOBJ
 70
     1
  9
$DISPSILH
 70
     0
  9
$DIMSCALE
 40
0.5
  9
$DIMASZ
 40
2.5
  9
$DIMEXO
 40
1.0
  9
$DIMDLI
 40
12.0
  9
$DIMRND
 40
0.0
  9
$DIMDLE
 40
0.0
  9
$DIMEXE
 40
1.0
  9
$DIMTP
 40
0.1
  9
$DIMTM
 40
0.1
  9
$DIMTXT
 40
3.2
  9
$DIMCEN
 40
0.0
  9
$DIMTSZ
 40
0.0
  9
$DIMTOL
 70
     0
  9
$DIMLIM
 70
     0
  9
$DIMTIH
 70
     0
  9
$DIMTOH
 70
     0
  9
$DIMSE1
 70
     0
  9
$DIMSE2
 70
     0
  9
$DIMTAD
 70
     3
  9
$DIMZIN
 70
     8
  9
$DIMBLK
  1
OPEN30
  9
$DIMASO
 70
     1
  9
$DIMSHO
 70
     1
  9
$DIMPOST
  1

  9
$DIMAPOST
  1
"
  9
$DIMALT
 70
     0
  9
$DIMALTD
 70
     2
  9
$DIMALTF
 40
0.0393701
  9
$DIMLFAC
 40
1.0
  9
$DIMTOFL
 70
     1
  9
$DIMTVP
 40
0.0
  9
$DIMTIX
 70
     0
  9
$DIMSOXD
 70
     0
  9
$DIMSAH
 70
     0
  9
$DIMBLK1
  1

  9
$DIMBLK2
  1

  9
$DIMSTYLE
  2
AM_JIS
  9
$DIMCLRD
 70
   256
  9
$DIMCLRE
 70
   256
  9
$DIMCLRT
 70
     2
  9
$DIMTFAC
 40
0.71
  9
$DIMGAP
 40
1.5
  9
$DIMJUST
 70
     0
  9
$DIMSD1
 70
     0
  9
$DIMSD2
 70
     0
  9
$DIMTOLJ
 70
     0
  9
$DIMTZIN
 70
     0
  9
$DIMALTZ
 70
     0
  9
$DIMALTTZ
 70
     0
  9
$DIMFIT
 70
     3
  9
$DIMUPT
 70
     0
  9
$DIMUNIT
 70
     2
  9
$DIMDEC
 70
     3
  9
$DIMTDEC
 70
     3
  9
$DIMALTU
 70
     2
  9
$DIMALTTD
 70
     2
  9
$DIMTXSTY
  7
ASAMI
  9
$DIMAUNIT
 70
     0
  9
$LUNITS
 70
     2
  9
$LUPREC
 70
     2
  9
$SKETCHINC
 40
1.0
  9
$FILLETRAD
 40
2.5
  9
$AUNITS
 70
     0
  9
$AUPREC
 70
     0
  9
$MENU
  1
.
  9
$ELEVATION
 40
0.0
  9
$PELEVATION
 40
0.0
  9
$THICKNESS
 40
0.0
  9
$LIMCHECK
 70
     0
  9
$BLIPMODE
 70
     0
  9
$CHAMFERA
 40
1.0
  9
$CHAMFERB
 40
1.0
  9
$CHAMFERC
 40
20.0
  9
$CHAMFERD
 40
0.0
  9
$SKPOLY
 70
     0
  9
$TDCREATE
 40
2452836.771637361
  9
$TDUPDATE
 40
2453151.793591412
  9
$TDINDWG
 40
0.0584899537
  9
$TDUSRTIMER
 40
0.0584899537
  9
$USRTIMER
 70
     1
  9
$ANGBASE
 50
0.0
  9
$ANGDIR
 70
     0
  9
$PDMODE
 70
     0
  9
$PDSIZE
 40
0.0
  9
$PLINEWID
 40
0.0
  9
$COORDS
 70
     1
  9
$SPLFRAME
 70
     0
  9
$SPLINETYPE
 70
     6
  9
$SPLINESEGS
 70
     8
  9
$ATTDIA
 70
     1
  9
$ATTREQ
 70
     1
  9
$HANDLING
 70
 12289
  9
$HANDSEED
  5
1D25
  9
$SURFTAB1
 70
     6
  9
$SURFTAB2
 70
     6
  9
$SURFTYPE
 70
     6
  9
$SURFU
 70
     6
  9
$SURFV
 70
     6
  9
$UCSNAME
  2

  9
$UCSORG
 10
0.0
 20
0.0
 30
0.0
  9
$UCSXDIR
 10
1.0
 20
0.0
 30
0.0
  9
$UCSYDIR
 10
0.0
 20
1.0
 30
0.0
  9
$PUCSNAME
  2

  9
$PUCSORG
 10
0.0
 20
0.0
 30
0.0
  9
$PUCSXDIR
 10
1.0
 20
0.0
 30
0.0
  9
$PUCSYDIR
 10
0.0
 20
1.0
 30
0.0
  9
$USERI1
 70
     0
  9
$USERI2
 70
     0
  9
$USERI3
 70
     0
  9
$USERI4
 70
     0
  9
$USERI5
 70
     0
  9
$USERR1
 40
0.0
  9
$USERR2
 40
0.0
  9
$USERR3
 40
0.0
  9
$USERR4
 40
0.0
  9
$USERR5
 40
0.0
  9
$WORLDVIEW
 70
     1
  9
$SHADEDGE
 70
     3
  9
$SHADEDIF
 70
    70
  9
$TILEMODE
 70
     1
  9
$MAXACTVP
 70
    64
  9
$PINSBASE
 10
0.0
 20
0.0
 30
0.0
  9
$PLIMCHECK
 70
     0
  9
$PEXTMIN
 10
1.000000000000000E+20
 20
1.000000000000000E+20
 30
1.000000000000000E+20
  9
$PEXTMAX
 10
-1.000000000000000E+20
 20
-1.000000000000000E+20
 30
-1.000000000000000E+20
  9
$PLIMMIN
 10
0.0
 20
0.0
  9
$PLIMMAX
 10
841.0
 20
594.0
  9
$UNITMODE
 70
     0
  9
$VISRETAIN
 70
     1
  9
$PLINEGEN
 70
     0
  9
$PSLTSCALE
 70
     0
  9
$TREEDEPTH
 70
  3020
  9
$PICKSTYLE
 70
     0
  9
$CMLSTYLE
  2
STANDARD
  9
$CMLJUST
 70
     0
  9
$CMLSCALE
 40
20.0
  9
$PROXYGRAPHICS
 70
     1
  9
$MEASUREMENT
 70
     1
  0
ENDSEC
  0
SECTION
  2
CLASSES
  0
CLASS
  1
ACDBDICTIONARYWDFLT
  2
AcDbDictionaryWithDefault
  3
AutoCAD 2000
 90
        0
280
     0
281
     0
  0
CLASS
  1
ACDBPLACEHOLDER
  2
AcDbPlaceHolder
  3
AutoCAD 2000
 90
        0
280
     0
281
     0
  0
CLASS
  1
LAYOUT
  2
AcDbLayout
  3
AutoCAD 2000
 90
        0
280
     0
281
     0
  0
CLASS
  1
AMGSETTINGSOBJ
  2
AmgSettingsObj
  3
"AcadM|Product Description: AutoCAD Mechanical 2000|Company: Autodesk"
 90
        0
280
     0
281
     0
  0
CLASS
  1
ACME_DOCUMENT
  2
AcMeDbDoc
  3
AcMeServices
 90
        0
280
     0
281
     0
  0
CLASS
  1
ACMESCOPE
  2
AcMeScope
  3
AcMeServices
 90
        0
280
     0
281
     0
  0
CLASS
  1
ACMECOMMANDHISTORY
  2
AcMeCommandHistory
  3
AcMeServices
 90
        0
280
     0
281
     0
  0
CLASS
  1
DICTIONARYVAR
  2
AcDbDictionaryVar
  3
AutoCAD 2000
 90
        0
280
     0
281
     0
  0
CLASS
  1
ACIMSYSVARMAN
  2
AcImSysVarManager
  3
AcMeServices
 90
        0
280
     0
281
     0
  0
CLASS
  1
ACIMREALSYSVAR
  2
AcImRealSysVar
  3
AcMeServices
 90
        0
280
     0
281
     0
  0
CLASS
  1
ACIMINTSYSVAR
  2
AcImIntSysVar
  3
AcMeServices
 90
        0
280
     0
281
     0
  0
CLASS
  1
ACMEDRAWINGMAN
  2
AcMeDrawingMan
  3
AcMeServices
 90
        0
280
     0
281
     0
  0
CLASS
  1
ACMEVIEW
  2
AcMeView
  3
AcMeServices
 90
        0
280
     0
281
     0
  0
CLASS
  1
ACDBENTITYCACHE
  2
AcMeEntityCache
  3
AcMeServices
 90
        0
280
     0
281
     0
  0
CLASS
  1
GSMANAGER
  2
AcMeGSManager
  3
AcMeServices
 90
        0
280
     0
281
     0
  0
CLASS
  1
AmdtInternalReactor
  2
AmdtInternalReactor
  3
AcMeServices
 90
        0
280
     0
281
     0
  0
CLASS
  1
ACMESTATEMGR
  2
AcMeStateMgr
  3
AcMeServices
 90
        0
280
     0
281
     0
  0
CLASS
  1
ACME_DATABASE
  2
AcMeDbDatabase
  3
AcMeServices
 90
        0
280
     0
281
     0
  0
CLASS
  1
ACRFINSADJUSTERMGR
  2
AcRfInsAdjusterMgr
  3
AcMeServices
 90
        0
280
     0
281
     0
  0
CLASS
  1
ACMDATADICTIONARY
  2
AcmDataDictionary
  3
"AcmSymBB|Product Description: AutoCAD Mechanical 2000|Company: Autodesk"
 90
        0
280
     0
281
     0
  0
CLASS
  1
ACMDATAENTRYBLOCK
  2
AcmDataEntryBlock
  3
"AcmSymBB|Product Description: AutoCAD Mechanical 2000|Company: Autodesk"
 90
        0
280
     0
281
     0
  0
CLASS
  1
AMGOBJPROPCFG
  2
AmgObjPropCfg
  3
"AmgLay|Product Description: AutoCAD Mechanical 2000|Company: Autodesk"
 90
        1
280
     0
281
     0
  0
CLASS
  1
ACAMGFILTERDAT
  2
AcAmgFilterDat
  3
"AcadM|Product Description: AutoCAD Mechanical 2000|Company: Autodesk"
 90
        0
280
     0
281
     0
  0
CLASS
  1
LAYER_INDEX
  2
AcDbLayerIndex
  3
AutoCAD 2000
 90
        0
280
     0
281
     0
  0
CLASS
  1
IDBUFFER
  2
AcDbIdBuffer
  3
AutoCAD 2000
 90
        0
280
     0
281
     0
  0
CLASS
  1
ACIMSTRSYSVAR
  2
AcImStrSysVar
  3
AcMeServices
 90
        0
280
     0
281
     0
  0
CLASS
  1
ACMSTANDARDJIS
  2
AcmStandardJIS
  3
"AcmSymBB|Product Description: AutoCAD Mechanical 2000|Company: Autodesk"
 90
        0
280
     0
281
     0
  0
CLASS
  1
ACMSURFSTANDARDJIS
  2
AcmSurfTextStdJIS
  3
"AcmSymBB|Product Description: AutoCAD Mechanical 2000|Company: Autodesk"
 90
        0
280
     0
281
     0
  0
CLASS
  1
ACMFCFSTANDARDJIS
  2
AcmFCFStdJIS
  3
"AcmSymBB|Product Description: AutoCAD Mechanical 2000|Company: Autodesk"
 90
        0
280
     0
281
     0
  0
CLASS
  1
ACMWELDSTANDARDJIS
  2
AcmWeldingStdJIS
  3
"AcmSymBB|Product Description: AutoCAD Mechanical 2000|Company: Autodesk"
 90
        0
280
     0
281
     0
  0
CLASS
  1
ACMIDSTANDARDJIS
  2
AcmIdStdJIS
  3
"AcmSymBB|Product Description: AutoCAD Mechanical 2000|Company: Autodesk"
 90
        0
280
     0
281
     0
  0
CLASS
  1
ACMDATUMSTANDARDJIS
  2
AcmDatumStdJIS
  3
"AcmSymBB|Product Description: AutoCAD Mechanical 2000|Company: Autodesk"
 90
        0
280
     0
281
     0
  0
CLASS
  1
ACMBOMSTANDARDJIS
  2
AcmBOMStdJIS
  3
"AcmSymBB|Product Description: AutoCAD Mechanical 2000|Company: Autodesk"
 90
        0
280
     0
281
     0
  0
CLASS
  1
ACMSTANDARDANSI
  2
AcmStandardANSI
  3
"AcmSymBB|Product Description: AutoCAD Mechanical 2000|Company: Autodesk"
 90
        0
280
     0
281
     0
  0
CLASS
  1
ACMSURFSTANDARDANSI
  2
AcmSurfTextStdANSI
  3
"AcmSymBB|Product Description: AutoCAD Mechanical 2000|Company: Autodesk"
 90
        0
280
     0
281
     0
  0
CLASS
  1
ACMFCFSTANDARDANSI
  2
AcmFCFStdANSI
  3
"AcmSymBB|Product Description: AutoCAD Mechanical 2000|Company: Autodesk"
 90
        0
280
     0
281
     0
  0
CLASS
  1
ACMWELDSTANDARDANSI
  2
AcmWeldingStdANSI
  3
"AcmSymBB|Product Description: AutoCAD Mechanical 2000|Company: Autodesk"
 90
        0
280
     0
281
     0
  0
CLASS
  1
ACMIDSTANDARDANSI
  2
AcmIdStdANSI
  3
"AcmSymBB|Product Description: AutoCAD Mechanical 2000|Company: Autodesk"
 90
        0
280
     0
281
     0
  0
CLASS
  1
ACMDATUMSTANDARDANSI
  2
AcmDatumStdANSI
  3
"AcmSymBB|Product Description: AutoCAD Mechanical 2000|Company: Autodesk"
 90
        0
280
     0
281
     0
  0
CLASS
  1
ACMBOMSTANDARDANSI
  2
AcmBOMStdANSI
  3
"AcmSymBB|Product Description: AutoCAD Mechanical 2000|Company: Autodesk"
 90
        0
280
     0
281
     0
  0
CLASS
  1
ACMSTANDARDBSI
  2
AcmStandardBSI
  3
"AcmSymBB|Product Description: AutoCAD Mechanical 2000|Company: Autodesk"
 90
        0
280
     0
281
     0
  0
CLASS
  1
ACMSURFSTANDARDBSI
  2
AcmSurfTextStdBSI
  3
"AcmSymBB|Product Description: AutoCAD Mechanical 2000|Company: Autodesk"
 90
        0
280
     0
281
     0
  0
CLASS
  1
ACMFCFSTANDARDBSI
  2
AcmFCFStdBSI
  3
"AcmSymBB|Product Description: AutoCAD Mechanical 2000|Company: Autodesk"
 90
        0
280
     0
281
     0
  0
CLASS
  1
ACMWELDSTANDARDBSI
  2
AcmWeldingStdBSI
  3
"AcmSymBB|Product Description: AutoCAD Mechanical 2000|Company: Autodesk"
 90
        0
280
     0
281
     0
  0
CLASS
  1
ACMIDSTANDARDBSI
  2
AcmIdStdBSI
  3
"AcmSymBB|Product Description: AutoCAD Mechanical 2000|Company: Autodesk"
 90
        0
280
     0
281
     0
  0
CLASS
  1
ACMDATUMSTANDARDBSI
  2
AcmDatumStdBSI
  3
"AcmSymBB|Product Description: AutoCAD Mechanical 2000|Company: Autodesk"
 90
        0
280
     0
281
     0
  0
CLASS
  1
ACMBOMSTANDARDBSI
  2
AcmBOMStdBSI
  3
"AcmSymBB|Product Description: AutoCAD Mechanical 2000|Company: Autodesk"
 90
        0
280
     0
281
     0
  0
CLASS
  1
LONG_TRANSACTION
  2
AcDbLongTransaction
  3
AutoCAD 2000
 90
        0
280
     0
281
     0
  0
CLASS
  1
LWPOLYLINE
  2
AcDbPolyline
  3
AutoCAD 2000
 90
        0
280
     0
281
     1
  0
CLASS
  1
HATCH
  2
AcDbHatch
  3
AutoCAD 2000
 90
        0
280
     0
281
     1
  0
CLASS
  1
XRECORD
  2
AcDbXrecord
  3
AutoCAD 2000
 90
        0
280
     0
281
     0
  0
ENDSEC
  0
SECTION
  2
TABLES
  0
TABLE
  2
VPORT
  5
8
330
0
100
AcDbSymbolTable
 70
     3
  0
VPORT
  5
1CFA
330
8
100
AcDbSymbolTableRecord
100
AcDbViewportTableRecord
  2
*ACTIVE
 70
     0
 10
0.0
 20
0.0
 11
1.0
 21
1.0
 12
-54.46736068719473
 22
-23.20496942193332
 13
0.0
 23
0.0
 14
2.5
 24
2.5
 15
10.0
 25
10.0
 16
0.0
 26
0.0
 36
1.0
 17
0.0
 27
0.0
 37
0.0
 40
94.93734833283749
 41
1.56570841889117
 42
50.0
 43
0.0
 44
0.0
 50
0.0
 51
0.0
 71
     0
 72
   100
 73
     1
 74
     3
 75
     0
 76
     0
 77
     0
 78
     0
  0
ENDTAB
  0
TABLE
  2
LTYPE
  5
5
330
0
100
AcDbSymbolTable
 70
    10
  0
LTYPE
  5
14
330
5
100
AcDbSymbolTableRecord
100
AcDbLinetypeTableRecord
  2
BYBLOCK
 70
     0
  3

 72
    65
 73
     0
 40
0.0
  0
LTYPE
  5
15
330
5
100
AcDbSymbolTableRecord
100
AcDbLinetypeTableRecord
  2
BYLAYER
 70
     0
  3

 72
    65
 73
     0
 40
0.0
  0
LTYPE
  5
16
330
5
100
AcDbSymbolTableRecord
100
AcDbLinetypeTableRecord
  2
CONTINUOUS
 70
     0
  3
Solid line
 72
    65
 73
     0
 40
0.0
  0
LTYPE
  5
4B
330
5
100
AcDbSymbolTableRecord
100
AcDbLinetypeTableRecord
  2
AM_ISO02W050
 70
     0
  3
__ __ __ __ __ __ __ __ __ __ __ __ __ __ __
 72
    65
 73
     2
 40
7.5
 49
6.0
 74
     0
 49
-1.5
 74
     0
  0
LTYPE
  5
4C
330
5
100
AcDbSymbolTableRecord
100
AcDbLinetypeTableRecord
  2
AM_ISO08W050
 70
     0
  3
____ . ____ . ____ . ____ . ____ . ____ . ____
 72
    65
 73
     4
 40
18.0
 49
12.0
 74
     0
 49
-1.5
 74
     0
 49
3.0
 74
     0
 49
-1.5
 74
     0
  0
LTYPE
  5
4D
330
5
100
AcDbSymbolTableRecord
100
AcDbLinetypeTableRecord
  2
AM_ISO09W050
 70
     0
  3
_____ . . _____ . . _____ . . ____ .. ____
 72
    65
 73
     6
 40
22.5
 49
12.0
 74
     0
 49
-1.5
 74
     0
 49
3.0
 74
     0
 49
-1.5
 74
     0
 49
3.0
 74
     0
 49
-1.5
 74
     0
  0
LTYPE
  5
4E
330
5
100
AcDbSymbolTableRecord
100
AcDbLinetypeTableRecord
  2
AMCONSTR
 70
     0
  3
_______________________
 72
    65
 73
     2
 40
9999.0
 49
9999.0
 74
     0
 49
0.0
 74
     0
  0
LTYPE
  5
4F
330
5
100
AcDbSymbolTableRecord
100
AcDbLinetypeTableRecord
  2
AM_ISO02W050X2
 70
     0
  3
 _ _ _ _ _ _ _ _ _ _ _ _
 72
    65
 73
     2
 40
3.75
 49
3.0
 74
     0
 49
-0.75
 74
     0
  0
LTYPE
  5
50
330
5
100
AcDbSymbolTableRecord
100
AcDbLinetypeTableRecord
  2
AM_ISO08W050X2
 70
     0
  3
__ . __ . __ . __ . __ . __
 72
    65
 73
     4
 40
9.0
 49
6.0
 74
     0
 49
-0.75
 74
     0
 49
1.5
 74
     0
 49
-0.75
 74
     0
  0
LTYPE
  5
53
330
5
100
AcDbSymbolTableRecord
100
AcDbLinetypeTableRecord
  2
AMZIGZAG
 70
     0
  3
/\/-/\/-/\/-/\/-/\/-/\/
 72
    65
 73
     2
 40
11.00009999999999
 49
0.0001
 74
     4
 75
   135
340
52
 46
0.04
 50
0.0
 44
0.0
 45
0.0
 49
-11.0
 74
     0
  0
LTYPE
  5
166
330
5
100
AcDbSymbolTableRecord
100
AcDbLinetypeTableRecord
  2
ACJISTGL
 70
     0
  3
_ _ _ _ _
 72
    65
 73
     2
 40
3.0
 49
2.0
 74
     0
 49
-1.0
 74
     0
  0
LTYPE
  5
26A
330
5
100
AcDbSymbolTableRecord
100
AcDbLinetypeTableRecord
  2
ACJISTGB
 70
     0
  3
__ . . __ . .
 72
    65
 73
     6
 40
9.0
 49
4.0
 74
     0
 49
-1.0
 74
     0
 49
1.0
 74
     0
 49
-1.0
 74
     0
 49
1.0
 74
     0
 49
-1.0
 74
     0
  0
ENDTAB
  0
TABLE
  2
LAYER
  5
2
330
0
100
AcDbSymbolTable
 70
     7
  0
LAYER
  5
10
330
2
100
AcDbSymbolTableRecord
100
AcDbLayerTableRecord
  2
0
 70
     0
 62
     7
  6
CONTINUOUS
  0
LAYER
  5
3F9
330
2
100
AcDbSymbolTableRecord
100
AcDbLayerTableRecord
  2
AM_0
 70
     0
 62
     7
  6
CONTINUOUS
  0
LAYER
  5
BD4
330
2
100
AcDbSymbolTableRecord
100
AcDbLayerTableRecord
  2
AM_11
 70
     0
 62
     3
  6
AM_ISO09W050
  0
LAYER
  5
BD5
330
2
100
AcDbSymbolTableRecord
100
AcDbLayerTableRecord
  2
AM_7
 70
     0
 62
     4
  6
AM_ISO08W050
  0
LAYER
  5
BD6
330
2
100
AcDbSymbolTableRecord
100
AcDbLayerTableRecord
  2
AM_5
 70
     0
 62
     3
  6
CONTINUOUS
  0
LAYER
  5
BD7
330
2
100
AcDbSymbolTableRecord
100
AcDbLayerTableRecord
  2
DEFPOINTS
 70
     0
 62
     7
  6
CONTINUOUS
  0
LAYER
  5
E59
330
2
100
AcDbSymbolTableRecord
100
AcDbLayerTableRecord
  2
AM_6
 70
     0
 62
     2
  6
CONTINUOUS
  0
ENDTAB
  0
TABLE
  2
STYLE
  5
3
330
0
100
AcDbSymbolTable
 70
     5
  0
STYLE
  5
11
330
3
100
AcDbSymbolTableRecord
100
AcDbTextStyleTableRecord
  2
STANDARD
 70
     0
 40
0.0
 41
1.0
 50
0.0
 71
     0
 42
2.5
  3
simplex.shx
  4
EXTFONT.SHX
  0
STYLE
  5
52
330
3
100
AcDbSymbolTableRecord
100
AcDbTextStyleTableRecord
  2

 70
     1
 40
0.0
 41
1.0
 50
0.0
 71
     0
 42
2.5
  3
ltypeshp.shx
  4

  0
STYLE
  5
6B
330
3
100
AcDbSymbolTableRecord
100
AcDbTextStyleTableRecord
  2
ASAMI
 70
     0
 40
0.0
 41
1.0
 50
0.0
 71
     0
 42
2.5
  3
simplex.shx
  4
EXTFONT.SHX
  0
STYLE
  5
262
330
3
100
AcDbSymbolTableRecord
100
AcDbTextStyleTableRecord
  2
ACJISTS
 70
     0
 40
1.0
 41
1.0
 50
0.0
 71
     0
 42
2.5
  3
simplex.shx
  4
bigfont.shx
  0
STYLE
  5
269
330
3
100
AcDbSymbolTableRecord
100
AcDbTextStyleTableRecord
  2
ACJISGDT
 70
     0
 40
0.0
 41
1.0
 50
0.0
 71
     0
 42
2.5
  3
amgdtans.shx
  4

  0
ENDTAB
  0
TABLE
  2
VIEW
  5
6
330
0
100
AcDbSymbolTable
 70
     0
  0
ENDTAB
  0
TABLE
  2
UCS
  5
7
330
0
100
AcDbSymbolTable
 70
     0
  0
ENDTAB
  0
TABLE
  2
APPID
  5
9
330
0
100
AcDbSymbolTable
 70
    12
  0
APPID
  5
12
330
9
100
AcDbSymbolTableRecord
100
AcDbRegAppTableRecord
  2
ACAD
 70
     0
  0
APPID
  5
30
330
9
100
AcDbSymbolTableRecord
100
AcDbRegAppTableRecord
  2
MCAD_NO_VIS
 70
     0
  0
APPID
  5
31
330
9
100
AcDbSymbolTableRecord
100
AcDbRegAppTableRecord
  2
ACAD_TEMP_GRAPHIC
 70
     0
  0
APPID
  5
2C2
330
9
100
AcDbSymbolTableRecord
100
AcDbRegAppTableRecord
  2
GENIUS_GENDTOL_13
 70
     0
  0
APPID
  5
339
330
9
100
AcDbSymbolTableRecord
100
AcDbRegAppTableRecord
  2
GENIUS_GENODEF_13
 70
     0
  0
APPID
  5
33A
330
9
100
AcDbSymbolTableRecord
100
AcDbRegAppTableRecord
  2
GENIUS_GENOBJ-N-RSBK_13
 70
     0
  0
APPID
  5
33B
330
9
100
AcDbSymbolTableRecord
100
AcDbRegAppTableRecord
  2
GENIUS_GENOBJ-N-LIB_13
 70
     0
  0
APPID
  5
33C
330
9
100
AcDbSymbolTableRecord
100
AcDbRegAppTableRecord
  2
GENIUS_GENSCALE_13
 70
     0
  0
APPID
  5
378
330
9
100
AcDbSymbolTableRecord
100
AcDbRegAppTableRecord
  2
GENIUS_GENDIMSH_14
 70
     0
  0
APPID
  5
BD8
330
9
100
AcDbSymbolTableRecord
100
AcDbRegAppTableRecord
  2
GENIUS_GENOBJ-N-CEN_13
 70
     0
  0
APPID
  5
BD9
330
9
100
AcDbSymbolTableRecord
100
AcDbRegAppTableRecord
  2
GENIUS_GENFIL_13
 70
     0
  0
APPID
  5
BDA
330
9
100
AcDbSymbolTableRecord
100
AcDbRegAppTableRecord
  2
GENIUS_GENOBJ-N-CHA_13
 70
     0
  0
ENDTAB
  0
TABLE
  2
DIMSTYLE
  5
A
330
0
100
AcDbSymbolTable
 70
     8
  0
DIMSTYLE
105
58
102
{ACAD_REACTORS
330
D71
330
D7A
330
DA6
330
1AA8
102
}
330
A
100
AcDbSymbolTableRecord
100
AcDbDimStyleTableRecord
  2
AM_JIS
 70
     0
  3

  4
"
  5
OPEN30
  6

  7

 40
1.0
 41
2.5
 42
1.0
 43
12.0
 44
1.0
 45
0.0
 46
0.0
 47
0.1
 48
0.1
140
3.2
141
0.0
142
0.0
143
0.0393701
144
1.0
145
0.0
146
0.71
147
1.5
 71
     0
 72
     0
 73
     0
 74
     0
 75
     0
 76
     0
 77
     3
 78
     8
170
     0
171
     2
172
     1
173
     0
174
     0
175
     0
176
   256
177
   256
178
     2
270
     2
271
     3
272
     3
273
     2
274
     2
340
6B
275
     0
280
     0
281
     0
282
     0
283
     0
284
     0
285
     0
286
     0
287
     3
288
     0
  0
DIMSTYLE
105
5F
330
A
100
AcDbSymbolTableRecord
100
AcDbDimStyleTableRecord
  2
AM_JIS$3
 70
     0
  3

  4
"
  5
OPEN30
  6

  7

 40
1.0
 41
2.5
 42
1.0
 43
10.0
 44
1.0
 45
0.0
 46
0.0
 47
0.1
 48
0.1
140
3.2
141
0.0
142
0.0
143
0.0393701
144
1.0
145
0.0
146
0.71
147
1.5
 71
     0
 72
     0
 73
     0
 74
     1
 75
     0
 76
     0
 77
     3
 78
     8
170
     0
171
     2
172
     0
173
     0
174
     0
175
     0
176
   256
177
   256
178
     2
270
     2
271
     2
272
     3
273
     2
274
     2
340
6B
275
     0
280
     0
281
     0
282
     0
283
     0
284
     0
285
     0
286
     0
287
     0
288
     1
  0
DIMSTYLE
105
60
330
A
100
AcDbSymbolTableRecord
100
AcDbDimStyleTableRecord
  2
AM_JIS$4
 70
     0
  3

  4
"
  5
OPEN30
  6

  7

 40
1.0
 41
2.5
 42
1.0
 43
10.0
 44
1.0
 45
0.0
 46
0.0
 47
0.1
 48
0.1
140
3.2
141
0.0
142
0.0
143
0.0393701
144
1.0
145
0.0
146
0.71
147
1.5
 71
     0
 72
     0
 73
     0
 74
     1
 75
     0
 76
     0
 77
     3
 78
     8
170
     0
171
     2
172
     0
173
     0
174
     0
175
     0
176
   256
177
   256
178
     2
270
     2
271
     2
272
     3
273
     2
274
     2
340
6B
275
     0
280
     0
281
     0
282
     0
283
     0
284
     0
285
     0
286
     0
287
     0
288
     1
  0
DIMSTYLE
105
61
330
A
100
AcDbSymbolTableRecord
100
AcDbDimStyleTableRecord
  2
AM_JIS$6
 70
     0
  3

  4
"
  5
OPEN30
  6

  7

 40
1.0
 41
2.5
 42
1.0
 43
10.0
 44
1.0
 45
0.0
 46
0.0
 47
0.1
 48
0.1
140
3.2
141
0.0
142
0.0
143
0.0393701
144
1.0
145
0.0
146
0.71
147
1.5
 71
     0
 72
     0
 73
     0
 74
     0
 75
     0
 76
     0
 77
     0
 78
     8
170
     0
171
     2
172
     1
173
     0
174
     0
175
     0
176
   256
177
   256
178
     2
270
     2
271
     2
272
     2
273
     2
274
     2
340
6B
275
     0
280
     0
281
     0
282
     0
283
     0
284
     0
285
     0
286
     0
287
     3
288
     0
  0
DIMSTYLE
105
62
330
A
100
AcDbSymbolTableRecord
100
AcDbDimStyleTableRecord
  2
AM_JIS$7
 70
     0
  3

  4
"
  5
OPEN30
  6

  7

 40
1.0
 41
2.5
 42
1.0
 43
10.0
 44
1.0
 45
0.0
 46
0.0
 47
0.1
 48
0.1
140
3.2
141
0.0
142
0.0
143
0.0393701
144
1.0
145
0.0
146
0.71
147
1.5
 71
     0
 72
     0
 73
     0
 74
     0
 75
     0
 76
     0
 77
     3
 78
     8
170
     0
171
     2
172
     1
173
     0
174
     0
175
     0
176
   256
177
   256
178
     2
270
     2
271
     2
272
     3
273
     2
274
     2
340
6B
275
     0
280
     0
281
     0
282
     0
283
     0
284
     0
285
     0
286
     0
287
     3
288
     0
  0
DIMSTYLE
105
63
330
A
100
AcDbSymbolTableRecord
100
AcDbDimStyleTableRecord
  2
AM_JIS$SF
 70
     0
  3

  4
"
  5
OPEN30
  6

  7

 40
1.0
 41
2.5
 42
1.0
 43
10.0
 44
1.0
 45
0.0
 46
0.0
 47
0.1
 48
0.1
140
3.2
141
0.0
142
0.0
143
0.0393701
144
1.0
145
0.0
146
0.71
147
1.5
 71
     0
 72
     0
 73
     0
 74
     0
 75
     1
 76
     1
 77
     3
 78
     8
170
     0
171
     2
172
     1
173
     0
174
     0
175
     0
176
   256
177
   256
178
     2
270
     2
271
     2
272
     2
273
     2
274
     2
340
6B
275
     0
280
     0
281
     0
282
     0
283
     0
284
     0
285
     0
286
     0
287
     3
288
     0
  0
DIMSTYLE
105
68
330
A
100
AcDbSymbolTableRecord
100
AcDbDimStyleTableRecord
  2
AM_JIS$SH
 70
     0
  3

  4
"
  5

  6
GENAXEH
  7
OPEN30
 40
1.0
 41
2.5
 42
1.0
 43
10.0
 44
1.0
 45
0.0
 46
0.0
 47
0.1
 48
0.1
140
3.2
141
0.0
142
0.0
143
0.0393701
144
2.0
145
0.0
146
0.71
147
1.5
 71
     0
 72
     0
 73
     0
 74
     0
 75
     1
 76
     1
 77
     3
 78
     8
170
     0
171
     2
172
     1
173
     1
174
     0
175
     0
176
   256
177
   256
178
     2
270
     2
271
     2
272
     2
273
     2
274
     2
340
6B
275
     0
280
     0
281
     0
282
     0
283
     0
284
     0
285
     0
286
     0
287
     3
288
     0
  0
DIMSTYLE
105
B34
330
A
100
AcDbSymbolTableRecord
100
AcDbDimStyleTableRecord
  2
AM_JIS$2
 70
     0
  3

  4
"
  5
OPEN30
  6

  7

 40
1.0
 41
2.5
 42
1.0
 43
12.0
 44
1.0
 45
0.0
 46
0.0
 47
0.1
 48
0.1
140
3.2
141
0.0
142
0.0
143
0.0393701
144
1.0
145
0.0
146
0.71
147
1.5
 71
     0
 72
     0
 73
     0
 74
     0
 75
     0
 76
     0
 77
     3
 78
     8
170
     0
171
     2
172
     1
173
     0
174
     0
175
     0
176
   256
177
   256
178
     2
270
     2
271
     3
272
     3
273
     2
274
     2
340
6B
275
     0
280
     0
281
     0
282
     0
283
     0
284
     0
285
     0
286
     0
287
     3
288
     0
  0
ENDTAB
  0
TABLE
  2
BLOCK_RECORD
  5
1
330
0
100
AcDbSymbolTable
 70
    10
  0
BLOCK_RECORD
  5
1F
102
{ACAD_XDICTIONARY
360
74
102
}
330
1
100
AcDbSymbolTableRecord
100
AcDbBlockTableRecord
  2
*MODEL_SPACE
  0
BLOCK_RECORD
  5
101
102
{ACAD_XDICTIONARY
360
1D23
102
}
330
1
100
AcDbSymbolTableRecord
100
AcDbBlockTableRecord
  2
*PAPER_SPACE
  0
BLOCK_RECORD
  5
59
330
1
100
AcDbSymbolTableRecord
100
AcDbBlockTableRecord
  2
_OPEN30
  0
BLOCK_RECORD
  5
64
330
1
100
AcDbSymbolTableRecord
100
AcDbBlockTableRecord
  2
GENAXEH
  0
BLOCK_RECORD
  5
DDA
330
1
100
AcDbSymbolTableRecord
100
AcDbBlockTableRecord
  2
*D5
  0
BLOCK_RECORD
  5
DF3
330
1
100
AcDbSymbolTableRecord
100
AcDbBlockTableRecord
  2
*D6
  0
BLOCK_RECORD
  5
DFF
330
1
100
AcDbSymbolTableRecord
100
AcDbBlockTableRecord
  2
*D7
  0
BLOCK_RECORD
  5
1AA9
330
1
100
AcDbSymbolTableRecord
100
AcDbBlockTableRecord
  2
*D8
  0
BLOCK_RECORD
  5
1C94
330
1
100
AcDbSymbolTableRecord
100
AcDbBlockTableRecord
  2
A$C2C6773B8
  0
ENDTAB
  0
ENDSEC
  0
SECTION
  2
BLOCKS
  0
BLOCK
  5
20
330
1F
100
AcDbEntity
  8
0
100
AcDbBlockBegin
  2
*MODEL_SPACE
 70
     0
 10
0.0
 20
0.0
 30
0.0
  3
*MODEL_SPACE
  1

  0
ENDBLK
  5
21
330
1F
100
AcDbEntity
  8
0
100
AcDbBlockEnd
  0
BLOCK
  5
103
330
101
100
AcDbEntity
 67
     1
  8
0
100
AcDbBlockBegin
  2
*PAPER_SPACE
 70
     0
 10
0.0
 20
0.0
 30
0.0
  3
*PAPER_SPACE
  1

  0
ENDBLK
  5
104
330
101
100
AcDbEntity
 67
     1
  8
0
100
AcDbBlockEnd
  0
BLOCK
  5
5D
330
59
100
AcDbEntity
  8
0
100
AcDbBlockBegin
  2
_OPEN30
 70
     0
 10
0.0
 20
0.0
 30
0.0
  3
_OPEN30
  1

  0
LINE
  5
5A
330
59
100
AcDbEntity
  8
0
 62
     0
100
AcDbLine
 10
-1.0
 20
0.26794919
 30
0.0
 11
0.0
 21
0.0
 31
0.0
  0
LINE
  5
5B
330
59
100
AcDbEntity
  8
0
 62
     0
100
AcDbLine
 10
0.0
 20
0.0
 30
0.0
 11
-1.0
 21
-0.26794919
 31
0.0
  0
LINE
  5
5C
330
59
100
AcDbEntity
  8
0
 62
     0
100
AcDbLine
 10
0.0
 20
0.0
 30
0.0
 11
-1.0
 21
0.0
 31
0.0
  0
ENDBLK
  5
5E
330
59
100
AcDbEntity
  8
0
100
AcDbBlockEnd
  0
BLOCK
  5
66
330
64
100
AcDbEntity
  8
0
100
AcDbBlockBegin
  2
GENAXEH
 70
     0
 10
0.0
 20
0.0
 30
0.0
  3
GENAXEH
  1

  0
LINE
  5
65
330
64
100
AcDbEntity
  8
0
100
AcDbLine
 10
-1.0
 20
0.0
 30
0.0
 11
1.0
 21
0.0
 31
0.0
  0
ENDBLK
  5
67
330
64
100
AcDbEntity
  8
0
100
AcDbBlockEnd
  0
BLOCK
  5
DE4
330
DDA
100
AcDbEntity
  8
0
100
AcDbBlockBegin
  2
*D5
 70
     1
 10
0.0
 20
0.0
 30
0.0
  3
*D5
  1

  0
LINE
  5
1C08
330
DDA
100
AcDbEntity
  8
AM_5
100
AcDbLine
 10
-0.0000000000003095
 20
-11.0000000000002
 30
0.0
 11
-0.0000000000003111
 21
-37.00000100999992
 31
0.0
  0
LINE
  5
1C09
330
DDA
100
AcDbEntity
  8
AM_5
100
AcDbLine
 10
-105.0
 20
-10.00000000000002
 30
0.0
 11
-105.0
 21
-37.00000100999992
 31
0.0
  0
LINE
  5
1C0A
330
DDA
100
AcDbEntity
  8
AM_5
100
AcDbLine
 10
-2.50000000000031
 20
-36.00000100999992
 30
0.0
 11
-102.5
 21
-36.00000100999992
 31
0.0
  0
INSERT
  5
1C0B
330
DDA
100
AcDbEntity
  8
AM_5
100
AcDbBlockReference
  2
_OPEN30
 10
-0.000000000000311
 20
-36.00000100999992
 30
0.0
 41
2.5
 42
2.5
 43
2.5
  0
INSERT
  5
1C0C
330
DDA
100
AcDbEntity
  8
AM_5
100
AcDbBlockReference
  2
_OPEN30
 10
-105.0
 20
-36.00000100999992
 30
0.0
 41
2.5
 42
2.5
 43
2.5
 50
180.0
  0
MTEXT
  5
1C0D
330
DDA
100
AcDbEntity
  8
AM_5
 62
     2
100
AcDbMText
 10
-52.50000000000016
 20
-32.90000100999991
 30
0.0
 40
3.2
 41
0.0
 71
     5
 72
     1
  1
105
  7
ASAMI
1001
ACAD
1000
MTEXTBEGIN
1070
    73
1070
     1
1070
    44
1040
1.0
1070
    74
1070
     0
1000
MTEXTEND
  0
POINT
  5
1C0E
330
DDA
100
AcDbEntity
  8
DEFPOINTS
 62
     0
100
AcDbPoint
 10
-0.0000000000003095
 20
-10.0000000000002
 30
0.0
  0
POINT
  5
1C0F
330
DDA
100
AcDbEntity
  8
DEFPOINTS
 62
     0
100
AcDbPoint
 10
-105.0
 20
-9.000000000000023
 30
0.0
  0
POINT
  5
1C10
330
DDA
100
AcDbEntity
  8
DEFPOINTS
 62
     0
100
AcDbPoint
 10
-105.0
 20
-36.00000100999992
 30
0.0
  0
ENDBLK
  5
DE5
330
DDA
100
AcDbEntity
  8
0
100
AcDbBlockEnd
  0
BLOCK
  5
DFD
330
DF3
100
AcDbEntity
  8
0
100
AcDbBlockBegin
  2
*D6
 70
     1
 10
0.0
 20
0.0
 30
0.0
  3
*D6
  1

  0
LINE
  5
1C1A
330
DF3
100
AcDbEntity
  8
AM_5
100
AcDbLine
 10
-40.0000000000004
 20
-11.00000000000003
 30
0.0
 11
-40.0000000000004
 21
-25.00000100999992
 31
0.0
  0
LINE
  5
1C1B
330
DF3
100
AcDbEntity
  8
AM_5
100
AcDbLine
 10
-0.0000000000003095
 20
-11.0000000000002
 30
0.0
 11
-0.0000000000003104
 21
-25.00000100999992
 31
0.0
  0
LINE
  5
1C1C
330
DF3
100
AcDbEntity
  8
AM_5
100
AcDbLine
 10
-37.5000000000004
 20
-24.00000100999992
 30
0.0
 11
-2.50000000000031
 21
-24.00000100999992
 31
0.0
  0
INSERT
  5
1C1D
330
DF3
100
AcDbEntity
  8
AM_5
100
AcDbBlockReference
  2
_OPEN30
 10
-40.0000000000004
 20
-24.00000100999992
 30
0.0
 41
2.5
 42
2.5
 43
2.5
 50
180.0
  0
INSERT
  5
1C1E
330
DF3
100
AcDbEntity
  8
AM_5
100
AcDbBlockReference
  2
_OPEN30
 10
-0.0000000000003103
 20
-24.00000100999992
 30
0.0
 41
2.5
 42
2.5
 43
2.5
  0
MTEXT
  5
1C1F
330
DF3
100
AcDbEntity
  8
AM_5
 62
     2
100
AcDbMText
 10
-20.00000000000035
 20
-20.90000100999991
 30
0.0
 40
3.2
 41
0.0
 71
     5
 72
     1
  1
40
  7
ASAMI
1001
ACAD
1000
MTEXTBEGIN
1070
    73
1070
     1
1070
    44
1040
1.0
1070
    74
1070
     0
1000
MTEXTEND
  0
POINT
  5
1C20
330
DF3
100
AcDbEntity
  8
DEFPOINTS
 62
     0
100
AcDbPoint
 10
-40.0000000000004
 20
-10.00000000000003
 30
0.0
  0
POINT
  5
1C21
330
DF3
100
AcDbEntity
  8
DEFPOINTS
 62
     0
100
AcDbPoint
 10
-0.0000000000003095
 20
-10.0000000000002
 30
0.0
  0
POINT
  5
1C22
330
DF3
100
AcDbEntity
  8
DEFPOINTS
 62
     0
100
AcDbPoint
 10
-0.0000000000003103
 20
-24.00000100999992
 30
0.0
  0
ENDBLK
  5
DFE
330
DF3
100
AcDbEntity
  8
0
100
AcDbBlockEnd
  0
BLOCK
  5
E0A
330
DFF
100
AcDbEntity
  8
0
100
AcDbBlockBegin
  2
*D7
 70
     1
 10
0.0
 20
0.0
 30
0.0
  3
*D7
  1

  0
LINE
  5
1C11
330
DFF
100
AcDbEntity
  8
AM_5
100
AcDbLine
 10
1.000000000000008
 20
10.0
 30
0.0
 11
19.55776903085493
 21
9.999999999999994
 31
0.0
  0
LINE
  5
1C12
330
DFF
100
AcDbEntity
  8
AM_5
100
AcDbLine
 10
0.9999999999996113
 20
-10.0
 30
0.0
 11
19.55776903085492
 21
-10.0
 31
0.0
  0
LINE
  5
1C13
330
DFF
100
AcDbEntity
  8
AM_5
100
AcDbLine
 10
18.55776903085492
 20
7.499999999999993
 30
0.0
 11
18.55776903085492
 21
-7.500000000000006
 31
0.0
  0
INSERT
  5
1C14
330
DFF
100
AcDbEntity
  8
AM_5
100
AcDbBlockReference
  2
_OPEN30
 10
18.55776903085493
 20
9.999999999999994
 30
0.0
 41
2.5
 42
2.5
 43
2.5
 50
90.0
  0
INSERT
  5
1C15
330
DFF
100
AcDbEntity
  8
AM_5
100
AcDbBlockReference
  2
_OPEN30
 10
18.55776903085492
 20
-10.0
 30
0.0
 41
2.5
 42
2.5
 43
2.5
 50
270.0
  0
MTEXT
  5
1C16
330
DFF
100
AcDbEntity
  8
AM_5
 62
     2
100
AcDbMText
 10
15.45776903085492
 20
-0.0000000000000025
 30
0.0
 40
3.2
 41
0.0
 71
     5
 72
     1
  1
%%c20
  7
ASAMI
 11
0.0000000000000001
 21
1.0
 31
0.0
1001
ACAD
1000
MTEXTBEGIN
1070
    73
1070
     1
1070
    44
1040
1.0
1070
    74
1070
     0
1000
MTEXTEND
  0
POINT
  5
1C17
330
DFF
100
AcDbEntity
  8
DEFPOINTS
 62
     0
100
AcDbPoint
 10
0.0000000000000082
 20
10.0
 30
0.0
  0
POINT
  5
1C18
330
DFF
100
AcDbEntity
  8
DEFPOINTS
 62
     0
100
AcDbPoint
 10
-0.0000000000003886
 20
-10.0
 30
0.0
  0
POINT
  5
1C19
330
DFF
100
AcDbEntity
  8
DEFPOINTS
 62
     0
100
AcDbPoint
 10
18.55776903085492
 20
-10.0
 30
0.0
  0
ENDBLK
  5
E0B
330
DFF
100
AcDbEntity
  8
0
100
AcDbBlockEnd
  0
BLOCK
  5
1AB3
330
1AA9
100
AcDbEntity
  8
0
100
AcDbBlockBegin
  2
*D8
 70
     1
 10
0.0
 20
0.0
 30
0.0
  3
*D8
  1

  0
LINE
  5
1AEB
330
1AA9
100
AcDbEntity
  8
AM_5
100
AcDbLine
 10
-105.0
 20
9.999999999999982
 30
0.0
 11
-124.7934979049683
 21
9.999999999999989
 31
0.0
  0
LINE
  5
1AEC
330
1AA9
100
AcDbEntity
  8
AM_5
100
AcDbLine
 10
-105.0
 20
-10.00000000000001
 30
0.0
 11
-124.7934979049683
 21
-10.00000000000001
 31
0.0
  0
LINE
  5
1AED
330
1AA9
100
AcDbEntity
  8
AM_5
100
AcDbLine
 10
-123.7934979049683
 20
7.499999999999988
 30
0.0
 11
-123.7934979049683
 21
-7.500000000000011
 31
0.0
  0
INSERT
  5
1AEE
330
1AA9
100
AcDbEntity
  8
AM_5
100
AcDbBlockReference
  2
_OPEN30
 10
-123.7934979049683
 20
9.999999999999987
 30
0.0
 41
2.5
 42
2.5
 43
2.5
 50
90.0
  0
INSERT
  5
1AEF
330
1AA9
100
AcDbEntity
  8
AM_5
100
AcDbBlockReference
  2
_OPEN30
 10
-123.7934979049683
 20
-10.00000000000001
 30
0.0
 41
2.5
 42
2.5
 43
2.5
 50
270.0
  0
MTEXT
  5
1AF0
330
1AA9
100
AcDbEntity
  8
AM_5
 62
     2
100
AcDbMText
 10
-126.8934979049683
 20
-0.0000000000000311
 30
0.0
 40
3.2
 41
0.0
 71
     5
 72
     1
  1
%%c20
  7
ASAMI
 11
0.0000000000000001
 21
1.0
 31
0.0
1001
ACAD
1000
MTEXTBEGIN
1070
    73
1070
     1
1070
    44
1040
1.0
1070
    74
1070
     0
1000
MTEXTEND
  0
POINT
  5
1AF1
330
1AA9
100
AcDbEntity
  8
DEFPOINTS
 62
     0
100
AcDbPoint
 10
-104.0
 20
9.999999999999982
 30
0.0
  0
POINT
  5
1AF2
330
1AA9
100
AcDbEntity
  8
DEFPOINTS
 62
     0
100
AcDbPoint
 10
-104.0
 20
-10.00000000000001
 30
0.0
  0
POINT
  5
1AF3
330
1AA9
100
AcDbEntity
  8
DEFPOINTS
 62
     0
100
AcDbPoint
 10
-123.7934979049683
 20
-10.00000000000001
 30
0.0
  0
ENDBLK
  5
1AB4
330
1AA9
100
AcDbEntity
  8
0
100
AcDbBlockEnd
  0
BLOCK
  5
1C9D
330
1C94
100
AcDbEntity
  8
0
100
AcDbBlockBegin
  2
A$C2C6773B8
 70
     0
 10
0.0
 20
0.0
 30
0.0
  3
A$C2C6773B8
  1

  0
LINE
  5
1C95
330
1C94
100
AcDbEntity
  8
AM_0
100
AcDbLine
 10
-0.0000000000017009
 20
-0.0000000000161981
 30
0.0
 11
-3.534858346534529
 21
-0.0000000000161981
 31
0.0
  0
LINE
  5
1C96
330
1C94
100
AcDbEntity
  8
AM_0
100
AcDbLine
 10
-3.534858346534529
 20
-1.200000000016215
 30
0.0
 11
-0.1732050807585876
 21
-1.200000000016215
 31
0.0
  0
LINE
  5
1C97
330
1C94
100
AcDbEntity
  8
AM_0
100
AcDbLine
 10
-0.0000000000017009
 20
-1.500000000016198
 30
0.0
 11
-0.8660254037861774
 21
-0.0000000000161128
 31
0.0
  0
LINE
  5
1C98
330
1C94
100
AcDbEntity
  8
AM_0
100
AcDbLine
 10
-1.290686978538455
 20
-2.210482147766013
 30
0.0
 11
-0.1575000000016855
 21
-1.990346781860976
 31
0.0
  0
LINE
  5
1C99
330
1C94
100
AcDbEntity
  8
AM_0
100
AcDbLine
 10
-3.534858346534529
 20
-0.0000000000161981
 30
0.0
 11
-3.534858346534529
 21
-1.200000000016215
 31
0.0
  0
LINE
  5
1C9A
330
1C94
100
AcDbEntity
  8
AM_0
100
AcDbLine
 10
-3.534858346534529
 20
-1.200000000016215
 30
0.0
 11
-1.290686978538455
 21
-2.210482147766013
 31
0.0
  0
LINE
  5
1C9B
330
1C94
100
AcDbEntity
  8
AM_0
100
AcDbLine
 10
-0.0000000000017009
 20
-0.0000000000161981
 30
0.0
 11
-0.1332639137176512
 21
-1.269180130644824
 31
0.0
  0
LINE
  5
1C9C
330
1C94
100
AcDbEntity
  8
AM_0
100
AcDbLine
 10
-0.1575000000016855
 20
-1.990346781860976
 30
0.0
 11
-0.0000000000017009
 21
-1.500000000016198
 31
0.0
  0
ENDBLK
  5
1C9E
330
1C94
100
AcDbEntity
  8
0
100
AcDbBlockEnd
  0
ENDSEC
  0
SECTION
  2
ENTITIES
  0
DIMENSION
  5
D71
330
1F
100
AcDbEntity
  8
AM_5
100
AcDbDimension
  2
*D5
 10
-105.0
 20
-36.00000100999992
 30
0.0
 11
-52.50000000000016
 21
-32.90000100999991
 31
0.0
 70
    32
  1
<>
  3
AM_JIS
100
AcDbAlignedDimension
 13
-0.0000000000003095
 23
-10.0000000000002
 33
0.0
 14
-105.0
 24
-9.000000000000023
 34
0.0
100
AcDbRotatedDimension
1001
GENIUS_GENDTOL_13
1000

1000
h7
1000

1040
0.0
  0
LINE
  5
D74
330
1F
100
AcDbEntity
  8
AM_7
  6
AM_ISO08W050X2
100
AcDbLine
 10
4.557768030854926
 20
0.0
 30
0.0
 11
-109.7934969049683
 21
-0.0000000000000711
 31
0.0
1001
GENIUS_GENODEF_13
1002
{
1000
HIER
1070
     0
1002
}
1002
{
1000
MANEDIT
1070
     0
1002
}
1002
{
1000
NOSEL
1070
     0
1002
}
1002
{
1000
BEHIND
1070
     0
1002
}
1002
{
1000
REACTOR
1002
}
1001
GENIUS_GENOBJ-N-CEN_13
1002
{
1000
OWNER
1000
GEN
1002
}
  0
DIMENSION
  5
D7A
330
1F
100
AcDbEntity
  8
AM_5
100
AcDbDimension
  2
*D6
 10
-0.0000000000003103
 20
-24.00000100999992
 30
0.0
 11
-20.00000000000035
 21
-20.90000100999991
 31
0.0
 70
    32
  1
<>
  3
AM_JIS
100
AcDbAlignedDimension
 13
-40.0000000000004
 23
-10.00000000000003
 33
0.0
 14
-0.0000000000003095
 24
-10.0000000000002
 34
0.0
100
AcDbRotatedDimension
1001
GENIUS_GENDTOL_13
1000

1000
h7
1000

1040
0.0
  0
DIMENSION
  5
DA6
330
1F
100
AcDbEntity
  8
AM_5
100
AcDbDimension
  2
*D7
 10
18.55776903085492
 20
-10.0
 30
0.0
 11
15.45776903085492
 21
-0.0000000000000025
 31
0.0
 70
    32
  1
%%c<>
  3
AM_JIS
100
AcDbAlignedDimension
 13
0.0000000000000082
 23
10.0
 33
0.0
 14
-0.0000000000003886
 24
-10.0
 34
0.0
 50
270.0
100
AcDbRotatedDimension
1001
GENIUS_GENDTOL_13
1000

1000
h7
1000

1040
0.0
  0
TEXT
  5
E5A
330
1F
100
AcDbEntity
  8
AM_6
100
AcDbText
 10
-73.69047619047633
 20
-58.50000100999992
 30
0.0
 40
5.0
  1
SSM4200ZX
 72
     4
 11
-52.50000000000015
 21
-56.00000100999992
 31
0.0
100
AcDbText
  0
LINE
  5
1AA4
330
1F
100
AcDbEntity
  8
AM_0
100
AcDbLine
 10
-46.23940898521555
 20
-9.999999999999918
 30
0.0
 11
-104.0
 21
-10.00000000000002
 31
0.0
  0
LINE
  5
1AA6
330
1F
100
AcDbEntity
  8
AM_0
100
AcDbLine
 10
-105.0
 20
-9.000000000000023
 30
0.0
 11
-105.0
 21
8.999999999999985
 31
0.0
  0
LINE
  5
1AA7
330
1F
100
AcDbEntity
  8
AM_0
100
AcDbLine
 10
-104.0
 20
-10.00000000000001
 30
0.0
 11
-104.0
 21
9.999999999999982
 31
0.0
  0
DIMENSION
  5
1AA8
330
1F
100
AcDbEntity
  8
AM_5
100
AcDbDimension
  2
*D8
 10
-123.7934979049683
 20
-10.00000000000001
 30
0.0
 11
-126.8934979049683
 21
-0.0000000000000311
 31
0.0
 70
    32
  1
%%c<>
  3
AM_JIS
100
AcDbAlignedDimension
 13
-104.0
 23
9.999999999999982
 33
0.0
 14
-104.0
 24
-10.00000000000001
 34
0.0
 50
270.0
100
AcDbRotatedDimension
1001
GENIUS_GENDTOL_13
1000

1000
h7
1000

1040
0.0
  0
LINE
  5
1AB5
330
1F
100
AcDbEntity
  8
AM_0
100
AcDbLine
 10
-48.42258684930712
 20
9.999999999999955
 30
0.0
 11
-104.0
 21
9.999999999999985
 31
0.0
  0
LINE
  5
1AC1
330
1F
100
AcDbEntity
  8
AM_0
100
AcDbLine
 10
-104.0
 20
9.999999999999985
 30
0.0
 11
-105.0
 21
8.999999999999985
 31
0.0
1001
GENIUS_GENFIL_13
1070
     0
1040
1.0
1040
1.0
1040
20.0
1040
0.0
1002
{
1002
}
1001
GENIUS_GENODEF_13
1002
{
1000
HIER
1070
     0
1002
}
1002
{
1000
MANEDIT
1070
     0
1002
}
1002
{
1000
NOSEL
1070
     0
1002
}
1002
{
1000
BEHIND
1070
     0
1002
}
1002
{
1000
REACTOR
1002
}
1001
GENIUS_GENOBJ-N-CHA_13
1002
{
1000
OWNER
1000
GEN
1002
}
  0
LINE
  5
1AC4
330
1F
100
AcDbEntity
  8
AM_0
100
AcDbLine
 10
-105.0
 20
-9.000000000000023
 30
0.0
 11
-104.0
 21
-10.00000000000002
 31
0.0
1001
GENIUS_GENFIL_13
1070
     0
1040
1.0
1040
1.0
1040
20.0
1040
0.0
1002
{
1002
}
1001
GENIUS_GENODEF_13
1002
{
1000
HIER
1070
     0
1002
}
1002
{
1000
MANEDIT
1070
     0
1002
}
1002
{
1000
NOSEL
1070
     0
1002
}
1002
{
1000
BEHIND
1070
     0
1002
}
1002
{
1000
REACTOR
1002
}
1001
GENIUS_GENOBJ-N-CHA_13
1002
{
1000
OWNER
1000
GEN
1002
}
  0
LINE
  5
1B84
330
1F
100
AcDbEntity
  8
AM_0
100
AcDbLine
 10
-2.038000741151561
 20
5.334281628020791
 30
0.0
 11
-4.498910622860348
 21
6.016906845056153
 31
0.0
  0
LINE
  5
1B85
330
1F
100
AcDbEntity
  8
AM_0
100
AcDbLine
 10
-0.000000000000373
 20
0.0
 30
0.0
 11
-0.2004545454548982
 21
2.000000000000223
 31
0.0
  0
LINE
  5
1B88
330
1F
100
AcDbEntity
  8
AM_0
100
AcDbLine
 10
-0.2004545454548982
 20
2.000000000000223
 30
0.0
 11
-2.038000741151561
 21
5.334281628020791
 31
0.0
  0
LINE
  5
1B89
330
1F
100
AcDbEntity
  8
AM_0
100
AcDbLine
 10
-0.000000000000373
 20
0.0
 30
0.0
 11
-0.0000000000003858
 21
10.0
 31
0.0
  0
SPLINE
  5
1B8A
330
1F
100
AcDbEntity
  8
AM_0
100
AcDbSpline
210
0.0
220
0.0
230
1.0
 70
     8
 71
     3
 72
     8
 73
     4
 74
     0
 42
0.0000000001
 43
0.0000000001
 40
0.0
 40
0.0
 40
0.0
 40
0.0
 40
14.48999654934396
 40
14.48999654934396
 40
14.48999654934396
 40
14.48999654934396
 10
-25.96363636363673
 20
10.00000000000021
 30
0.0
 10
-16.74272946859967
 20
10.00000000000021
 30
0.0
 10
-8.371364734300021
 20
5.000000000000213
 30
0.0
 10
-0.000000000000373
 20
0.0000000000002309
 30
0.0
  0
SPLINE
  5
1B8B
330
1F
100
AcDbEntity
  8
AM_0
100
AcDbSpline
210
0.0
220
0.0
230
1.0
 70
     8
 71
     3
 72
     8
 73
     4
 74
     0
 42
0.0000000001
 43
0.0000000001
 40
0.0
 40
0.0
 40
0.0
 40
0.0
 40
5.635889483499305
 40
5.635889483499305
 40
5.635889483499305
 40
5.635889483499305
 10
-25.96363636363712
 20
10.00000000000021
 30
0.0
 10
-29.55011148950034
 20
10.00000000000021
 30
0.0
 10
-33.00806584823355
 20
9.243588057958476
 30
0.0
 10
-36.38748763944833
 20
8.024970876742569
 30
0.0
  0
SPLINE
  5
1B8C
330
1F
100
AcDbEntity
  8
AM_0
100
AcDbSpline
210
0.0
220
0.0
230
1.0
 70
     8
 71
     3
 72
     8
 73
     4
 74
     0
 42
0.0000000001
 43
0.0000000001
 40
0.7142832446738512
 40
0.7142832446738512
 40
0.7142832446738512
 40
0.7142832446738512
 40
9.361146747480315
 40
9.361146747480315
 40
9.361146747480315
 40
9.361146747480315
 10
-17.43607467471784
 20
9.201195579648571
 30
0.0
 10
-11.97602515560181
 20
8.931566877943168
 30
0.0
 10
-6.766660761855711
 20
7.071539765599252
 30
0.0
 10
-1.649159027021233
 20
4.628716898961897
 30
0.0
  0
SPLINE
  5
1B8D
330
1F
100
AcDbEntity
  8
AM_0
100
AcDbSpline
210
0.0
220
0.0
230
1.0
 70
     8
 71
     3
 72
     8
 73
     4
 74
     0
 42
0.0000000001
 43
0.0000000001
 40
0.0
 40
0.0
 40
0.0
 40
0.0
 40
2.586565323616714
 40
2.586565323616714
 40
2.586565323616714
 40
2.586565323616714
 10
-0.0000000000003858
 20
8.149405373367928
 30
0.0
 10
-1.056237726415098
 20
6.826886392302018
 30
0.0
 10
-2.869209963549104
 20
6.258947593848702
 30
0.0
 10
-4.498910622860348
 20
6.016906845056153
 30
0.0
  0
SPLINE
  5
1B8E
330
1F
100
AcDbEntity
  8
AM_0
100
AcDbSpline
210
0.0
220
0.0
230
1.0
 70
     8
 71
     3
 72
     8
 73
     4
 74
     0
 42
0.0000000001
 43
0.0000000001
 40
0.0
 40
0.0
 40
0.0
 40
0.0
 40
5.635889483499127
 40
5.635889483499127
 40
5.635889483499127
 40
5.635889483499127
 10
-0.0000000000003858
 20
10.0
 30
0.0
 10
-3.586475125863457
 20
10.0
 30
0.0
 10
-7.044429484596606
 20
9.24358805795828
 30
0.0
 10
-10.42385127581133
 20
8.024970876742489
 30
0.0
  0
SPLINE
  5
1B8F
330
1F
100
AcDbEntity
  8
AM_0
100
AcDbSpline
210
0.0
220
0.0
230
1.0
 70
     8
 71
     3
 72
     8
 73
     4
 74
     0
 42
0.0000000001
 43
0.0000000001
 40
0.3581103616548037
 40
0.3581103616548037
 40
0.3581103616548037
 40
0.3581103616548037
 40
12.40023413887867
 40
12.40023413887867
 40
12.40023413887867
 40
12.40023413887867
 10
-21.94921641688826
 20
9.691690845705336
 30
0.0
 10
-14.31876750586623
 20
9.493527874125664
 30
0.0
 10
-7.231558812832241
 20
6.005402256970002
 30
0.0
 10
-0.2230062400287558
 20
2.04092071321793
 30
0.0
  0
LINE
  5
1B90
330
1F
100
AcDbEntity
  8
AM_0
100
AcDbLine
 10
-0.000000000000373
 20
-10.0
 30
0.0
 11
-0.2004545454548982
 21
-9.466882315243649
 31
0.0
  0
LINE
  5
1B91
330
1F
100
AcDbEntity
  8
AM_0
100
AcDbLine
 10
-0.2004545454548982
 20
-9.466882315243534
 30
0.0
 11
-1.30772727272765
 21
-7.995233310923826
 31
0.0
  0
SPLINE
  5
1B92
330
1F
100
AcDbEntity
  8
AM_0
100
AcDbSpline
210
0.0
220
0.0
230
1.0
 70
     8
 71
     3
 72
     8
 73
     4
 74
     0
 42
0.0000000001
 43
0.0000000001
 40
0.0
 40
0.0
 40
0.0
 40
0.0
 40
4.451443990518192
 40
4.451443990518192
 40
4.451443990518192
 40
4.451443990518192
 10
-18.79439542722974
 20
-9.234889007605389
 30
0.0
 10
-15.96165834235449
 20
-9.234889007605389
 30
0.0
 10
-13.19883577253703
 20
-8.791336828494893
 30
0.0
 10
-10.48425871795466
 20
-8.041705097846945
 30
0.0
  0
SPLINE
  5
1B93
330
1F
100
AcDbEntity
  8
AM_0
100
AcDbSpline
210
0.0
220
0.0
230
1.0
 70
     8
 71
     3
 72
     8
 73
     4
 74
     0
 42
0.0000000001
 43
0.0000000001
 40
0.0
 40
0.0
 40
0.0
 40
0.0
 40
2.130230809022907
 40
2.130230809022907
 40
2.130230809022907
 40
2.130230809022907
 10
-25.9636363636371
 20
-10.00000000000001
 30
0.0
 10
-24.6080349397134
 20
-10.00000000000001
 30
0.0
 10
-23.27079474261202
 20
-9.891934575640348
 30
0.0
 10
-21.949216416889
 20
-9.69169084570514
 30
0.0
  0
SPLINE
  5
1B94
330
1F
100
AcDbEntity
  8
AM_0
100
AcDbSpline
210
0.0
220
0.0
230
1.0
 70
     8
 71
     3
 72
     8
 73
     4
 74
     0
 42
0.0000000001
 43
0.0000000001
 40
0.0
 40
0.0
 40
0.0
 40
0.0
 40
2.764560748519282
 40
2.764560748519282
 40
2.764560748519282
 40
2.764560748519282
 10
-22.63141596164739
 20
-9.700567340670787
 30
0.0
 10
-20.87215003077151
 20
-9.700567340670787
 30
0.0
 10
-19.14224335441542
 20
-9.522762297020124
 30
0.0
 10
-17.43607467491929
 20
-9.201195579686229
 30
0.0
  0
SPLINE
  5
1B95
330
1F
100
AcDbEntity
  8
AM_0
100
AcDbSpline
210
0.0
220
0.0
230
1.0
 70
     8
 71
     3
 72
     8
 73
     4
 74
     0
 42
0.0000000001
 43
0.0000000001
 40
0.0
 40
0.0
 40
0.0
 40
0.0
 40
14.48999654934395
 40
14.48999654934395
 40
14.48999654934395
 40
14.48999654934395
 10
-0.000000000000373
 20
-10.0
 30
0.0
 10
-9.220906895037431
 20
-10.00000000000001
 30
0.0
 10
-17.59227162933708
 20
-5.000000000000017
 30
0.0
 10
-25.96363636363672
 20
-0.0000000000000178
 30
0.0
  0
SPLINE
  5
1B96
330
1F
100
AcDbEntity
  8
AM_0
100
AcDbSpline
210
0.0
220
0.0
230
1.0
 70
     8
 71
     3
 72
     8
 73
     4
 74
     0
 42
0.0000000001
 43
0.0000000001
 40
4.542668862435135
 40
4.542668862435135
 40
4.542668862435135
 40
4.542668862435135
 40
14.36247867694493
 40
14.36247867694493
 40
14.36247867694493
 40
14.36247867694493
 10
-1.307727272724989
 20
-7.995233310913247
 30
0.0
 10
-7.291696052179134
 20
-6.314011373145715
 30
0.0
 10
-13.04304573970425
 20
-3.157005686572817
 30
0.0
 10
-18.79439542722936
 20
0.0000000000000977
 30
0.0
  0
SPLINE
  5
1B97
330
1F
100
AcDbEntity
  8
AM_0
100
AcDbSpline
210
0.0
220
0.0
230
1.0
 70
     8
 71
     3
 72
     8
 73
     4
 74
     0
 42
0.0000000001
 43
0.0000000001
 40
1.870660592686466
 40
1.870660592686466
 40
1.870660592686466
 40
1.870660592686466
 40
14.43901837670146
 40
14.43901837670146
 40
14.43901837670146
 40
14.43901837670146
 10
-0.2004545454548982
 20
-9.466882315243534
 30
0.0
 10
-8.029568765073575
 20
-8.443801224202953
 30
0.0
 10
-15.33049236336032
 20
-4.221900612101432
 30
0.0
 10
-22.63141596164706
 20
0.0000000000000977
 30
0.0
  0
LINE
  5
1B98
330
1F
100
AcDbEntity
  8
AM_0
100
AcDbLine
 10
-0.2004545454548982
 20
-9.466882315243649
 30
0.0
 11
-0.2004545454548982
 21
-2.653795709126374
 31
0.0
  0
LINE
  5
1B99
330
1F
100
AcDbEntity
  8
AM_0
100
AcDbLine
 10
-0.000000000000373
 20
-10.0
 30
0.0
 11
-0.000000000000373
 21
-2.000000000000001
 31
0.0
  0
ELLIPSE
  5
1B9A
330
1F
100
AcDbEntity
  8
AM_0
100
AcDbEllipse
 10
3.790830620233383
 20
-5.087760329435795
 30
0.0
 11
-0.8403710354660997
 21
6.260111464001555
 31
0.0
210
0.0
220
0.0
230
1.0
 40
0.919002863725556
 41
1.101825731108839
 42
1.927112712507074
  0
LINE
  5
1B9B
330
1F
100
AcDbEntity
  8
AM_0
100
AcDbLine
 10
-40.00000000000061
 20
7.45128827174485
 30
0.0
 11
-40.50286027862756
 21
8.363743040182173
 31
0.0
  0
LINE
  5
1B9C
330
1F
100
AcDbEntity
  8
AM_0
100
AcDbLine
 10
-41.38969282336918
 20
-3.704848152641393
 30
0.0
 11
-40.00000000000051
 21
-5.950996085552082
 31
0.0
  0
LINE
  5
1B9D
330
1F
100
AcDbEntity
  8
AM_0
100
AcDbLine
 10
-40.00000000000035
 20
-1.863955371096581
 30
0.0
 11
-41.38969282336918
 21
-3.704848152641393
 31
0.0
  0
ELLIPSE
  5
1BAD
330
1F
100
AcDbEntity
  8
AM_0
100
AcDbEllipse
 10
-49.90750613641852
 20
8.699066483476052
 30
0.0
 11
-0.0000000000011569
 21
19.08983909488392
 31
0.0
210
0.0
220
0.0
230
1.0
 40
0.9545454545454363
 41
3.344276696915802
 42
3.427250019213385
  0
POLYLINE
  5
1BAE
330
1F
100
AcDbEntity
  8
AM_0
100
AcDb2dPolyline
 66
     1
 10
0.0
 20
0.0
 30
0.0
 70
     2
  0
VERTEX
  5
1BAF
330
1BAE
100
AcDbEntity
  8
AM_0
100
AcDbVertex
100
AcDb2dVertex
 10
-44.77272727272777
 20
-9.617187847301895
 30
0.0
 42
-0.0230918143391583
  0
VERTEX
  5
1BB0
330
1BAE
100
AcDbEntity
  8
AM_0
100
AcDbVertex
100
AcDb2dVertex
 10
-45.87335205921422
 20
-9.324973560118765
 30
0.0
 42
-0.0355587143075394
 70
     1
  0
VERTEX
  5
1BB1
330
1BAE
100
AcDbEntity
  8
AM_0
100
AcDbVertex
100
AcDb2dVertex
 10
-46.56250000000048
 20
-9.048708047335907
 30
0.0
 42
-0.0216088548285507
  0
VERTEX
  5
1BB2
330
1BAE
100
AcDbEntity
  8
AM_0
100
AcDbVertex
100
AcDb2dVertex
 10
-48.17038260724532
 20
-8.172266733187569
 30
0.0
 42
-0.0414110700152503
 70
     1
  0
VERTEX
  5
1BB3
330
1BAE
100
AcDbEntity
  8
AM_0
100
AcDbVertex
100
AcDb2dVertex
 10
-48.94886363636413
 20
-7.607404082497772
 30
0.0
 42
-0.0653031023268945
  0
VERTEX
  5
1BB4
330
1BAE
100
AcDbEntity
  8
AM_0
100
AcDbVertex
100
AcDb2dVertex
 10
-49.45033468264908
 20
-7.045565003448448
 30
0.0
 42
-0.1569363594221426
 70
     1
  0
VERTEX
  5
1BB5
330
1BAE
100
AcDbEntity
  8
AM_0
100
AcDbVertex
100
AcDb2dVertex
 10
-49.54545454545503
 20
-6.734579917625556
 30
0.0
 42
-0.1617045000652558
  0
VERTEX
  5
1BB6
330
1BAE
100
AcDbEntity
  8
AM_0
100
AcDbVertex
100
AcDb2dVertex
 10
-49.44869164236012
 20
-6.430591698786631
 30
0.0
 42
-0.0680210806811403
 70
     1
  0
VERTEX
  5
1BB7
330
1BAE
100
AcDbEntity
  8
AM_0
100
AcDbVertex
100
AcDb2dVertex
 10
-48.94886363636413
 20
-5.899517075975468
 30
0.0
 42
-0.0450747416233525
  0
VERTEX
  5
1BB8
330
1BAE
100
AcDbEntity
  8
AM_0
100
AcDbVertex
100
AcDb2dVertex
 10
-48.17771021397992
 20
-5.385634373172907
 30
0.0
 42
-0.0231467319857815
 70
     1
  0
VERTEX
  5
1BB9
330
1BAE
100
AcDbEntity
  8
AM_0
100
AcDbVertex
100
AcDb2dVertex
 10
-46.56250000000048
 20
-4.609258404026128
 30
0.0
 42
-0.0364444523572374
  0
VERTEX
  5
1BBA
330
1BAE
100
AcDbEntity
  8
AM_0
100
AcDbVertex
100
AcDb2dVertex
 10
-45.8610213188453
 20
-4.373028442858046
 30
0.0
 42
-0.0242139410122645
 70
     1
  0
VERTEX
  5
1BBB
330
1BAE
100
AcDbEntity
  8
AM_0
100
AcDbVertex
100
AcDb2dVertex
 10
-44.77272727272777
 20
-4.154062573726697
 30
0.0
  0
SEQEND
  5
1BBC
330
1BAE
100
AcDbEntity
  8
AM_0
  0
SPLINE
  5
1BBE
330
1F
100
AcDbEntity
  8
AM_0
100
AcDbSpline
210
0.0
220
0.0
230
1.0
 70
     8
 71
     3
 72
     8
 73
     4
 74
     0
 42
0.0000000001
 43
0.0000000001
 40
0.0
 40
0.0
 40
0.0
 40
0.0
 40
10.67755528242136
 40
10.67755528242136
 40
10.67755528242136
 40
10.67755528242136
 10
-22.63141596164739
 20
-9.700567340670556
 30
0.0
 10
-29.42622386864282
 20
-9.700567340670556
 30
0.0
 10
-35.78306980014378
 20
-7.048189089119635
 30
0.0
 10
-41.38969282336917
 20
-3.704848152641396
 30
0.0
  0
SPLINE
  5
1BBF
330
1F
100
AcDbEntity
  8
AM_0
100
AcDbSpline
210
0.0
220
0.0
230
1.0
 70
     8
 71
     3
 72
     8
 73
     4
 74
     0
 42
0.0000000001
 43
0.0000000001
 40
0.0
 40
0.0
 40
0.0
 40
0.0
 40
12.79333816032526
 40
12.79333816032526
 40
12.79333816032526
 40
12.79333816032526
 10
-18.79439542722974
 20
-9.234889007605158
 30
0.0
 10
-26.93561062016401
 20
-9.234889007605158
 30
0.0
 10
-34.49935068736385
 20
-5.571267080313102
 30
0.0
 10
-40.0000000000004
 20
-1.863955371096633
 30
0.0
  0
SPLINE
  5
1BC0
330
1F
100
AcDbEntity
  8
AM_0
100
AcDbSpline
210
0.0
220
0.0
230
1.0
 70
     8
 71
     3
 72
     8
 73
     4
 74
     0
 42
0.0000000001
 43
0.0000000001
 40
0.0
 40
0.0
 40
0.0
 40
0.0
 40
4.451443990518192
 40
4.451443990518192
 40
4.451443990518192
 40
4.451443990518192
 10
-44.77272727272779
 20
-9.617187847301895
 30
0.0
 10
-39.92529470599098
 20
-9.591460053424931
 30
0.0
 10
-37.16247213617352
 20
-9.147907874314427
 30
0.0
 10
-34.60740740703185
 20
-8.441953192793533
 30
0.0
  0
SPLINE
  5
1BC1
330
1F
100
AcDbEntity
  8
AM_0
100
AcDbSpline
210
0.0
220
0.0
230
1.0
 70
     8
 71
     3
 72
     8
 73
     4
 74
     0
 42
0.0000000001
 43
0.0000000001
 40
0.0
 40
0.0
 40
0.0
 40
0.0
 40
9.068166399416787
 40
9.068166399416787
 40
9.068166399416787
 40
9.068166399416787
 10
-25.9636363636371
 20
-9.999999999999786
 30
0.0
 10
-31.73428770872051
 20
-9.999999999999804
 30
0.0
 10
-36.11373675757458
 20
-8.041730761870811
 30
0.0
 10
-40.00000000000094
 20
-5.950996085551885
 30
0.0
  0
LINE
  5
1BC2
330
1F
100
AcDbEntity
  8
AM_11
100
AcDbLine
 10
-40.00000000000039
 20
-10.00000000000003
 30
0.0
 11
-0.000000000000373
 21
-10.0
 31
0.0
  0
SPLINE
  5
1BC3
330
1F
100
AcDbEntity
  8
AM_0
100
AcDbSpline
210
0.0
220
0.0
230
1.0
 70
     8
 71
     3
 72
     8
 73
     4
 74
     0
 42
0.0000000001
 43
0.0000000001
 40
0.3581103616548037
 40
0.3581103616548037
 40
0.3581103616548037
 40
0.3581103616548037
 40
14.43901837670146
 40
14.43901837670146
 40
14.43901837670146
 40
14.43901837670146
 10
-48.42258684930712
 20
9.999999999999955
 30
0.0
 10
-38.99053548688993
 20
9.45997801610642
 30
0.0
 10
-30.81097572426848
 20
4.72998900805325
 30
0.0
 10
-22.63141596164706
 20
0.0000000000000977
 30
0.0
  0
SPLINE
  5
1BC4
330
1F
100
AcDbEntity
  8
AM_0
100
AcDbSpline
210
0.0
220
0.0
230
1.0
 70
     8
 71
     3
 72
     8
 73
     4
 74
     0
 42
0.0000000001
 43
0.0000000001
 40
1.090140354492627
 40
1.090140354492627
 40
1.090140354492627
 40
1.090140354492627
 40
14.36247867694493
 40
14.36247867694493
 40
14.36247867694493
 40
14.36247867694493
 10
-42.68911564862586
 20
9.157103327621003
 30
0.0
 10
-34.34130729323573
 20
8.533942784958608
 30
0.0
 10
-26.56785136023258
 20
4.266971392479366
 30
0.0
 10
-18.79439542722936
 20
0.0000000000000977
 30
0.0
  0
SPLINE
  5
1BC5
330
1F
100
AcDbEntity
  8
AM_0
100
AcDbSpline
210
0.0
220
0.0
230
1.0
 70
     8
 71
     3
 72
     8
 73
     4
 74
     0
 42
0.0000000001
 43
0.0000000001
 40
6.474453511960974
 40
6.474453511960974
 40
6.474453511960974
 40
6.474453511960974
 40
14.48999654934396
 40
14.48999654934396
 40
14.48999654934396
 40
14.48999654934396
 10
-40.00000000000064
 20
7.451288271743896
 30
0.0
 10
-35.22534102738934
 20
5.531777050524022
 30
0.0
 10
-30.59448869551303
 20
2.765888525262114
 30
0.0
 10
-25.96363636363672
 20
0.0000000000002132
 30
0.0
  0
ELLIPSE
  5
1BC6
330
1F
100
AcDbEntity
  8
AM_0
100
AcDbEllipse
 10
-49.89302304634055
 20
-26.93458375771692
 30
0.0
 11
0.0000000000024619
 21
23.40354507670337
 31
0.0
210
0.0
220
0.0
230
1.0
 40
0.9545454545454454
 41
-0.4587681791448471
 42
-0.2312569029270142
  0
LINE
  5
1BC7
330
1F
100
AcDbEntity
  8
AM_11
100
AcDbLine
 10
-0.0000000000018503
 20
10.0
 30
0.0
 11
-40.0000000000004
 21
9.99999999999996
 31
0.0
  0
LINE
  5
1BDA
330
1F
100
AcDbEntity
  8
AM_11
100
AcDbLine
 10
-40.0000000000004
 20
9.999999999999975
 30
0.0
 11
-40.00000000000039
 21
-10.00000000000002
 31
0.0
  0
POLYLINE
  5
1BE6
330
1F
100
AcDbEntity
  8
AM_0
100
AcDb2dPolyline
 66
     1
 10
0.0
 20
0.0
 30
0.0
  0
VERTEX
  5
1BE7
330
1BE6
100
AcDbEntity
  8
AM_0
100
AcDbVertex
100
AcDb2dVertex
 10
-40.00000000000061
 20
7.45128827174485
 30
0.0
 42
0.0080157674607026
  0
VERTEX
  5
1BE8
330
1BE6
100
AcDbEntity
  8
AM_0
100
AcDbVertex
100
AcDb2dVertex
 10
-42.01454312078474
 20
7.827663297885715
 30
0.0
 42
0.0187918863228812
  0
VERTEX
  5
1BE9
330
1BE6
100
AcDbEntity
  8
AM_0
100
AcDbVertex
100
AcDb2dVertex
 10
-43.36862322778963
 20
7.953316690334707
 30
0.0
 42
0.0075788461628208
  0
VERTEX
  5
1BEA
330
1BE6
100
AcDbEntity
  8
AM_0
100
AcDbVertex
100
AcDb2dVertex
 10
-46.96819918901145
 20
8.087661224018413
 30
0.0
 42
0.0232722457202398
  0
VERTEX
  5
1BEB
330
1BE6
100
AcDbEntity
  8
AM_0
100
AcDbVertex
100
AcDb2dVertex
 10
-48.14135050051691
 20
8.055597904517137
 30
0.0
 42
0.0542958387243925
  0
VERTEX
  5
1BEC
330
1BE6
100
AcDbEntity
  8
AM_0
100
AcDbVertex
100
AcDb2dVertex
 10
-49.26191575751161
 20
7.840640098310766
 30
0.0
 42
0.4413285869607302
  0
VERTEX
  5
1BED
330
1BE6
100
AcDbEntity
  8
AM_0
100
AcDbVertex
100
AcDb2dVertex
 10
-49.33453231869872
 20
7.683141212665146
 30
0.0
 42
0.0678159998049314
  0
VERTEX
  5
1BEE
330
1BE6
100
AcDbEntity
  8
AM_0
100
AcDbVertex
100
AcDb2dVertex
 10
-49.24513153508804
 20
7.518303185024089
 30
0.0
 42
0.006836731909696
  0
VERTEX
  5
1BEF
330
1BE6
100
AcDbEntity
  8
AM_0
100
AcDbVertex
100
AcDb2dVertex
 10
-48.14135050051691
 20
6.046061142648978
 30
0.0
 42
0.0072764221784082
  0
VERTEX
  5
1BF0
330
1BE6
100
AcDbEntity
  8
AM_0
100
AcDbVertex
100
AcDb2dVertex
 10
-46.68848522106482
 20
4.307054849143712
 30
0.0
 42
0.0040253861954876
  0
VERTEX
  5
1BF1
330
1BE6
100
AcDbEntity
  8
AM_0
100
AcDbVertex
100
AcDb2dVertex
 10
-44.08617758860778
 20
1.148743887000893
 30
0.0
 42
0.0594163782683759
  0
VERTEX
  5
1BF2
330
1BE6
100
AcDbEntity
  8
AM_0
100
AcDbVertex
100
AcDb2dVertex
 10
-42.90965142042579
 20
0.0413769766992278
 30
0.0
 42
0.0273113651513278
  0
VERTEX
  5
1BF3
330
1BE6
100
AcDbEntity
  8
AM_0
100
AcDbVertex
100
AcDb2dVertex
 10
-40.00000000000035
 20
-1.863955371096581
 30
0.0
  0
SEQEND
  5
1BF4
330
1BE6
100
AcDbEntity
  8
AM_0
  0
LINE
  5
1CA0
330
1F
100
AcDbEntity
  8
AM_0
100
AcDbLine
 10
-0.0000000000032065
 20
-0.0000000000159536
 30
0.0
 11
-4.713144462046978
 21
-0.0000000000159536
 31
0.0
  0
LINE
  5
1CA1
330
1F
100
AcDbEntity
  8
AM_0
100
AcDbLine
 10
-4.713144462046978
 20
-1.600000000015976
 30
0.0
 11
-0.2309401076790555
 21
-1.600000000015976
 31
0.0
  0
LINE
  5
1CA2
330
1F
100
AcDbEntity
  8
AM_0
100
AcDbLine
 10
-0.0000000000032065
 20
-2.000000000015953
 30
0.0
 11
-1.154700538382508
 21
-0.0000000000158399
 31
0.0
  0
LINE
  5
1CA3
330
1F
100
AcDbEntity
  8
AM_0
100
AcDbLine
 10
-1.720915971385546
 20
-2.947309530349039
 30
0.0
 11
-0.2004545454548982
 21
-2.653795709126374
 31
0.0
  0
LINE
  5
1CA4
330
1F
100
AcDbEntity
  8
AM_0
100
AcDbLine
 10
-4.713144462046978
 20
-0.0000000000159536
 30
0.0
 11
-4.713144462046978
 21
-1.600000000015976
 31
0.0
  0
LINE
  5
1CA5
330
1F
100
AcDbEntity
  8
AM_0
100
AcDbLine
 10
-4.713144462046978
 20
-1.600000000015976
 30
0.0
 11
-1.720915971385546
 21
-2.947309530349039
 31
0.0
  0
LINE
  5
1CA6
330
1F
100
AcDbEntity
  8
AM_0
100
AcDbLine
 10
-0.0000000000032065
 20
-0.0000000000159536
 30
0.0
 11
-0.1776852182911403
 21
-1.692240174187455
 31
0.0
  0
LINE
  5
1CA7
330
1F
100
AcDbEntity
  8
AM_0
100
AcDbLine
 10
-0.2004545454548982
 20
-2.653795709126374
 30
0.0
 11
-0.0000000000032065
 21
-2.000000000015953
 31
0.0
  0
VIEWPORT
  5
110
330
101
100
AcDbEntity
 67
     1
  8
0
100
AcDbViewport
 10
420.5
 20
297.0
 30
0.0
 40
948.9782706766916
 41
628.452
 68
     1
 69
     1
1001
ACAD
1000
MVIEW
1002
{
1070
    16
1010
0.0
1020
0.0
1030
0.0
1010
0.0
1020
0.0
1030
1.0
1040
0.0
1040
628.452
1040
420.5
1040
297.0
1040
50.0
1040
0.0
1040
0.0
1070
     0
1070
   100
1070
     1
1070
     1
1070
     0
1070
     0
1070
     0
1070
     0
1040
0.0
1040
0.0
1040
0.0
1040
10.0
1040
10.0
1040
10.0
1040
10.0
1070
     0
1002
{
1002
}
1002
}
  0
ENDSEC
  0
SECTION
  2
OBJECTS
  0
DICTIONARY
  5
C
330
0
100
AcDbDictionary
  3
ACAD_GROUP
350
D
  3
ACAD_LAYOUT
350
1A
  3
ACAD_MLINESTYLE
350
17
  3
ACAD_PLOTSETTINGS
350
19
  3
ACAD_PLOTSTYLENAME
350
E
  3
ACDBVARIABLEDICTIONARY
350
34
  3
ACMDICTIONARY
350
43
  3
AMG
350
2B
  3
AMGSNAPSETTINGS
350
6E
  3
DWGPROPS
350
1CEF
  3
ACDBHEADERROUNDTRIPXREC
350
1CFB
  0
DICTIONARY
  5
74
330
1F
100
AcDbDictionary
280
     1
  3
ACAD_INDEX
360
1CF1
  3
ACAD_LAYOUTSELFREF
360
1D1E
  0
DICTIONARY
  5
1D23
330
101
100
AcDbDictionary
280
     1
  3
ACAD_LAYOUTSELFREF
360
1D24
  0
DICTIONARY
  5
D
102
{ACAD_REACTORS
330
C
102
}
330
C
100
AcDbDictionary
  0
DICTIONARY
  5
1A
102
{ACAD_REACTORS
330
C
102
}
330
C
100
AcDbDictionary
  0
DICTIONARY
  5
17
102
{ACAD_REACTORS
330
C
102
}
330
C
100
AcDbDictionary
  3
STANDARD
350
18
  0
DICTIONARY
  5
19
102
{ACAD_REACTORS
330
C
102
}
330
C
100
AcDbDictionary
  0
ACDBDICTIONARYWDFLT
  5
E
102
{ACAD_REACTORS
330
C
102
}
330
C
100
AcDbDictionary
281
     1
  3
Normal
350
F
100
AcDbDictionaryWithDefault
340
F
  0
DICTIONARY
  5
34
102
{ACAD_REACTORS
330
C
102
}
330
C
100
AcDbDictionary
  3
INDEXCTL
350
35
  3
SORTENTS
350
B5E
  0
DICTIONARY
  5
43
102
{ACAD_REACTORS
330
C
102
}
330
C
100
AcDbDictionary
  3
ACMSTDDICTIONARY
350
260
  0
DICTIONARY
  5
2B
102
{ACAD_REACTORS
330
C
102
}
330
C
100
AcDbDictionary
  3
ACMGSETTINGS
350
2C
  0
DICTIONARY
  5
6E
102
{ACAD_REACTORS
330
C
102
}
330
C
100
AcDbDictionary
  0
XRECORD
  5
1CEF
102
{ACAD_REACTORS
330
C
102
}
330
C
100
AcDbXrecord
  1
DWGPROPS COOKIE
  2

  3

  4

  6

  7

  8

  9

300
AmdtFileType=82
301
=
302
=
303
=
304
=
305
=
306
=
307
=
308
=
309
=
 40
0.0582477893518519
 41
2452836.771637361
 42
2452901.600027117
  1

 90
        1
  0
DICTIONARY
  5
1CFB
102
{ACAD_REACTORS
330
C
102
}
330
C
100
AcDbDictionary
  3
TSTACKALIGN
350
1CFC
  3
TSTACKSIZE
350
1CFD
  3
HYPERLINKBASE
350
1CFE
  3
STYLESHEET
350
1CFF
  3
LAYOUTDICT
350
1D00
  3
PLOTSETDICT
350
1D01
  3
PLOTSTYLNAMDICT
350
1D02
  3
LWETCUNION
350
1D03
  3
INSUNITS
350
1D04
  3
CEPSNTYPE
350
1D05
  3
FINGERPRINTGUID
350
1D06
  3
VERSIONGUID
350
1D07
  3
PSVPSCALE
350
1D08
  3
DIMSTYLEDATA
350
1D09
  3
PUCSORTHOREF
350
1D0A
  3
PUCSORTHOVIEW
350
1D0B
  3
PUCSBASE
350
1D0C
  3
PUCSORGTOP
350
1D0D
  3
PUCSORGBOTTOM
350
1D0E
  3
PUCSORGLEFT
350
1D0F
  3
PUCSORGRIGHT
350
1D10
  3
PUCSORGFRONT
350
1D11
  3
PUCSORGBACK
350
1D12
  3
UCSORTHOREF
350
1D13
  3
UCSORTHOVIEW
350
1D14
  3
UCSBASE
350
1D15
  3
UCSORGTOP
350
1D16
  3
UCSORGBOTTOM
350
1D17
  3
UCSORGLEFT
350
1D18
  3
UCSORGRIGHT
350
1D19
  3
UCSORGFRONT
350
1D1A
  3
UCSORGBACK
350
1D1B
  0
DICTIONARY
  5
1CF1
102
{ACAD_REACTORS
330
74
102
}
330
74
100
AcDbDictionary
  3
*A1
350
1CF2
  0
XRECORD
  5
1D1E
102
{ACAD_REACTORS
330
74
102
}
330
74
100
AcDbXrecord
340
1F
  0
XRECORD
  5
1D24
102
{ACAD_REACTORS
330
1D23
102
}
330
1D23
100
AcDbXrecord
340
101
  0
MLINESTYLE
  5
18
102
{ACAD_REACTORS
330
17
102
}
330
17
100
AcDbMlineStyle
  2
STANDARD
 70
     0
  3

 62
   256
 51
90.0
 52
90.0
 71
     2
 49
0.5
 62
   256
  6
BYLAYER
 49
-0.5
 62
   256
  6
BYLAYER
  0
ACDBPLACEHOLDER
  5
F
102
{ACAD_REACTORS
330
E
102
}
330
E
100
AcDbPlaceHolder
280
     0
  0
DICTIONARYVAR
  5
35
102
{ACAD_REACTORS
330
34
102
}
330
34
100
DictionaryVariables
280
     0
  1
1
  0
DICTIONARYVAR
  5
B5E
102
{ACAD_REACTORS
330
34
102
}
330
34
100
DictionaryVariables
280
     0
  1
96
  0
DICTIONARY
  5
260
102
{ACAD_REACTORS
330
43
102
}
330
43
100
AcDbDictionary
  0
DICTIONARY
  5
2C
102
{ACAD_REACTORS
330
2B
102
}
330
2B
100
AcDbDictionary
  3
DWGSETTINGS
350
2D
  0
XRECORD
  5
1CFC
102
{ACAD_REACTORS
330
1CFB
102
}
330
1CFB
100
AcDbXrecord
 90
        1
  0
XRECORD
  5
1CFD
102
{ACAD_REACTORS
330
1CFB
102
}
330
1CFB
100
AcDbXrecord
 90
       70
  0
XRECORD
  5
1CFE
102
{ACAD_REACTORS
330
1CFB
102
}
330
1CFB
100
AcDbXrecord
  1

  0
XRECORD
  5
1CFF
102
{ACAD_REACTORS
330
1CFB
102
}
330
1CFB
100
AcDbXrecord
  1
ASAMI.ctb
  0
XRECORD
  5
1D00
102
{ACAD_REACTORS
330
1CFB
102
}
330
1CFB
100
AcDbXrecord
340
1A
  0
XRECORD
  5
1D01
102
{ACAD_REACTORS
330
1CFB
102
}
330
1CFB
100
AcDbXrecord
340
19
  0
XRECORD
  5
1D02
102
{ACAD_REACTORS
330
1CFB
102
}
330
1CFB
100
AcDbXrecord
340
E
  0
XRECORD
  5
1D03
102
{ACAD_REACTORS
330
1CFB
102
}
330
1CFB
100
AcDbXrecord
 90
    10781
  0
XRECORD
  5
1D04
102
{ACAD_REACTORS
330
1CFB
102
}
330
1CFB
100
AcDbXrecord
 90
        4
  0
XRECORD
  5
1D05
102
{ACAD_REACTORS
330
1CFB
102
}
330
1CFB
100
AcDbXrecord
 90
        0
  0
XRECORD
  5
1D06
102
{ACAD_REACTORS
330
1CFB
102
}
330
1CFB
100
AcDbXrecord
  1
{AFB28963-8C59-40AE-9337-C84526B81ACE}
  0
XRECORD
  5
1D07
102
{ACAD_REACTORS
330
1CFB
102
}
330
1CFB
100
AcDbXrecord
  1
{E24E6902-CD51-4874-B79D-425EFE8AE7B1}
  0
XRECORD
  5
1D08
102
{ACAD_REACTORS
330
1CFB
102
}
330
1CFB
100
AcDbXrecord
 40
0.0
  0
XRECORD
  5
1D09
102
{ACAD_REACTORS
330
1CFB
102
}
330
1CFB
100
AcDbXrecord
1000
DSTYLE
1002
{
1070
    79
 70
     2
1070
   341
340
59
1070
   342
340
59
1070
   371
 70
    -1
1070
   372
 70
    -1
1002
}
  0
XRECORD
  5
1D0A
102
{ACAD_REACTORS
330
1CFB
102
}
330
1CFB
100
AcDbXrecord
340
0
  0
XRECORD
  5
1D0B
102
{ACAD_REACTORS
330
1CFB
102
}
330
1CFB
100
AcDbXrecord
 70
     0
  0
XRECORD
  5
1D0C
102
{ACAD_REACTORS
330
1CFB
102
}
330
1CFB
100
AcDbXrecord
340
0
  0
XRECORD
  5
1D0D
102
{ACAD_REACTORS
330
1CFB
102
}
330
1CFB
100
AcDbXrecord
 10
0.0
 20
0.0
 30
0.0
  0
XRECORD
  5
1D0E
102
{ACAD_REACTORS
330
1CFB
102
}
330
1CFB
100
AcDbXrecord
 10
0.0
 20
0.0
 30
0.0
  0
XRECORD
  5
1D0F
102
{ACAD_REACTORS
330
1CFB
102
}
330
1CFB
100
AcDbXrecord
 10
0.0
 20
0.0
 30
0.0
  0
XRECORD
  5
1D10
102
{ACAD_REACTORS
330
1CFB
102
}
330
1CFB
100
AcDbXrecord
 10
0.0
 20
0.0
 30
0.0
  0
XRECORD
  5
1D11
102
{ACAD_REACTORS
330
1CFB
102
}
330
1CFB
100
AcDbXrecord
 10
0.0
 20
0.0
 30
0.0
  0
XRECORD
  5
1D12
102
{ACAD_REACTORS
330
1CFB
102
}
330
1CFB
100
AcDbXrecord
 10
0.0
 20
0.0
 30
0.0
  0
XRECORD
  5
1D13
102
{ACAD_REACTORS
330
1CFB
102
}
330
1CFB
100
AcDbXrecord
340
0
  0
XRECORD
  5
1D14
102
{ACAD_REACTORS
330
1CFB
102
}
330
1CFB
100
AcDbXrecord
 70
     0
  0
XRECORD
  5
1D15
102
{ACAD_REACTORS
330
1CFB
102
}
330
1CFB
100
AcDbXrecord
340
0
  0
XRECORD
  5
1D16
102
{ACAD_REACTORS
330
1CFB
102
}
330
1CFB
100
AcDbXrecord
 10
0.0
 20
0.0
 30
0.0
  0
XRECORD
  5
1D17
102
{ACAD_REACTORS
330
1CFB
102
}
330
1CFB
100
AcDbXrecord
 10
0.0
 20
0.0
 30
0.0
  0
XRECORD
  5
1D18
102
{ACAD_REACTORS
330
1CFB
102
}
330
1CFB
100
AcDbXrecord
 10
0.0
 20
0.0
 30
0.0
  0
XRECORD
  5
1D19
102
{ACAD_REACTORS
330
1CFB
102
}
330
1CFB
100
AcDbXrecord
 10
0.0
 20
0.0
 30
0.0
  0
XRECORD
  5
1D1A
102
{ACAD_REACTORS
330
1CFB
102
}
330
1CFB
100
AcDbXrecord
 10
0.0
 20
0.0
 30
0.0
  0
XRECORD
  5
1D1B
102
{ACAD_REACTORS
330
1CFB
102
}
330
1CFB
100
AcDbXrecord
 10
0.0
 20
0.0
 30
0.0
  0
LAYER_INDEX
  5
1CF2
102
{ACAD_REACTORS
330
1CF1
102
}
330
1CF1
100
AcDbIndex
 40
2453151.793591412
100
AcDbLayerIndex
  8
0
360
1CF3
 90
        0
  8
AM_0
360
1CF4
 90
       49
  8
AM_11
360
1CF5
 90
        3
  8
AM_7
360
1CF6
 90
        1
  8
AM_5
360
1CF7
 90
        4
  8
Defpoints
360
1CF8
 90
        0
  8
AM_6
360
1CF9
 90
        1
  0
XRECORD
  5
2D
102
{ACAD_REACTORS
330
2C
102
}
330
2C
100
AcDbXrecord
  1
VERSION
140
15.0
  1
PRODUCT
  2
AutoCAD Mechanical 2000
  0
IDBUFFER
  5
1CF3
330
0
100
AcDbIdBuffer
  0
IDBUFFER
  5
1CF4
330
0
100
AcDbIdBuffer
330
1CA7
330
1AA4
330
1AA6
330
1AA7
330
1AB5
330
1AC1
330
1AC4
330
1B84
330
1B85
330
1B88
330
1B89
330
1B8A
330
1B8B
330
1B8C
330
1B8D
330
1B8E
330
1B8F
330
1B90
330
1B91
330
1B92
330
1B93
330
1B94
330
1B95
330
1B96
330
1B97
330
1B98
330
1B99
330
1B9A
330
1B9B
330
1B9C
330
1B9D
330
1BAD
330
1BAE
330
1BBE
330
1BBF
330
1BC0
330
1BC1
330
1BC3
330
1BC4
330
1BC5
330
1BC6
330
1BE6
330
1CA0
330
1CA1
330
1CA2
330
1CA3
330
1CA4
330
1CA5
330
1CA6
  0
IDBUFFER
  5
1CF5
330
0
100
AcDbIdBuffer
330
1BC2
330
1BC7
330
1BDA
  0
IDBUFFER
  5
1CF6
330
0
100
AcDbIdBuffer
330
D74
  0
IDBUFFER
  5
1CF7
330
0
100
AcDbIdBuffer
330
D71
330
D7A
330
DA6
330
1AA8
  0
IDBUFFER
  5
1CF8
330
0
100
AcDbIdBuffer
  0
IDBUFFER
  5
1CF9
330
0
100
AcDbIdBuffer
330
E5A
  0
ENDSEC
  0
EOF
