  0
SECTION
  2
HEADER
  9
$ACADVER
  1
AC1014
  9
$ACADMAINTVER
 70
     9
  9
$DWGCODEPAGE
  3
ANSI_932
  9
$INSBASE
 10
0.0
 20
0.0
 30
0.0
  9
$EXTMIN
 10
-143.4934979049683
 20
-61.00000100999992
 30
-0.00000001
  9
$EXTMAX
 10
19.55776903085493
 20
15.11340238645175
 30
0.00000001
  9
$LIMMIN
 10
-154.8803626837177
 20
-76.82057281041892
  9
$LIMMAX
 10
33.61754440405627
 20
40.3196389356276
  9
$ORTHOMODE
 70
     0
  9
$REGENMODE
 70
     1
  9
$FILLMODE
 70
     1
  9
$QTEXTMODE
 70
     0
  9
$MIRRTEXT
 70
     0
  9
$DRAGMODE
 70
     2
  9
$LTSCALE
 40
1.0
  9
$OSMODE
 70
    55
  9
$ATTMODE
 70
     1
  9
$TEXTSIZE
 40
2.5
  9
$TRACEWID
 40
1.0
  9
$TEXTSTYLE
  7
STANDARD
  9
$CLAYER
  8
AM_0
  9
$CELTYPE
  6
BYLAYER
  9
$CECOLOR
 62
   256
  9
$CELTSCALE
 40
1.0
  9
$DELOBJ
 70
     1
  9
$DISPSILH
 70
     0
  9
$DIMSCALE
 40
0.5
  9
$DIMASZ
 40
2.5
  9
$DIMEXO
 40
1.0
  9
$DIMDLI
 40
12.0
  9
$DIMRND
 40
0.0
  9
$DIMDLE
 40
0.0
  9
$DIMEXE
 40
1.0
  9
$DIMTP
 40
0.1
  9
$DIMTM
 40
0.1
  9
$DIMTXT
 40
3.2
  9
$DIMCEN
 40
0.0
  9
$DIMTSZ
 40
0.0
  9
$DIMTOL
 70
     0
  9
$DIMLIM
 70
     0
  9
$DIMTIH
 70
     0
  9
$DIMTOH
 70
     0
  9
$DIMSE1
 70
     0
  9
$DIMSE2
 70
     0
  9
$DIMTAD
 70
     3
  9
$DIMZIN
 70
     8
  9
$DIMBLK
  1
OPEN30
  9
$DIMASO
 70
     1
  9
$DIMSHO
 70
     1
  9
$DIMPOST
  1

  9
$DIMAPOST
  1
"
  9
$DIMALT
 70
     0
  9
$DIMALTD
 70
     2
  9
$DIMALTF
 40
0.0393701
  9
$DIMLFAC
 40
1.0
  9
$DIMTOFL
 70
     1
  9
$DIMTVP
 40
0.0
  9
$DIMTIX
 70
     0
  9
$DIMSOXD
 70
     0
  9
$DIMSAH
 70
     0
  9
$DIMBLK1
  1

  9
$DIMBLK2
  1

  9
$DIMSTYLE
  2
AM_JIS
  9
$DIMCLRD
 70
   256
  9
$DIMCLRE
 70
   256
  9
$DIMCLRT
 70
     2
  9
$DIMTFAC
 40
0.71
  9
$DIMGAP
 40
1.5
  9
$DIMJUST
 70
     0
  9
$DIMSD1
 70
     0
  9
$DIMSD2
 70
     0
  9
$DIMTOLJ
 70
     0
  9
$DIMTZIN
 70
     0
  9
$DIMALTZ
 70
     0
  9
$DIMALTTZ
 70
     0
  9
$DIMFIT
 70
     3
  9
$DIMUPT
 70
     0
  9
$DIMUNIT
 70
     2
  9
$DIMDEC
 70
     3
  9
$DIMTDEC
 70
     3
  9
$DIMALTU
 70
     2
  9
$DIMALTTD
 70
     2
  9
$DIMTXSTY
  7
ASAMI
  9
$DIMAUNIT
 70
     0
  9
$LUNITS
 70
     2
  9
$LUPREC
 70
     2
  9
$SKETCHINC
 40
1.0
  9
$FILLETRAD
 40
2.5
  9
$AUNITS
 70
     0
  9
$AUPREC
 70
     0
  9
$MENU
  1
.
  9
$ELEVATION
 40
0.0
  9
$PELEVATION
 40
0.0
  9
$THICKNESS
 40
0.0
  9
$LIMCHECK
 70
     0
  9
$BLIPMODE
 70
     0
  9
$CHAMFERA
 40
1.0
  9
$CHAMFERB
 40
1.0
  9
$CHAMFERC
 40
20.0
  9
$CHAMFERD
 40
0.0
  9
$SKPOLY
 70
     0
  9
$TDCREATE
 40
2452836.771637361
  9
$TDUPDATE
 40
2453151.793892708
  9
$TDINDWG
 40
0.0547822801
  9
$TDUSRTIMER
 40
0.0547822801
  9
$USRTIMER
 70
     1
  9
$ANGBASE
 50
0.0
  9
$ANGDIR
 70
     0
  9
$PDMODE
 70
     0
  9
$PDSIZE
 40
0.0
  9
$PLINEWID
 40
0.0
  9
$COORDS
 70
     1
  9
$SPLFRAME
 70
     0
  9
$SPLINETYPE
 70
     6
  9
$SPLINESEGS
 70
     8
  9
$ATTDIA
 70
     1
  9
$ATTREQ
 70
     1
  9
$HANDLING
 70
 12289
  9
$HANDSEED
  5
1DA8
  9
$SURFTAB1
 70
     6
  9
$SURFTAB2
 70
     6
  9
$SURFTYPE
 70
     6
  9
$SURFU
 70
     6
  9
$SURFV
 70
     6
  9
$UCSNAME
  2

  9
$UCSORG
 10
0.0
 20
0.0
 30
0.0
  9
$UCSXDIR
 10
1.0
 20
0.0
 30
0.0
  9
$UCSYDIR
 10
0.0
 20
1.0
 30
0.0
  9
$PUCSNAME
  2

  9
$PUCSORG
 10
0.0
 20
0.0
 30
0.0
  9
$PUCSXDIR
 10
1.0
 20
0.0
 30
0.0
  9
$PUCSYDIR
 10
0.0
 20
1.0
 30
0.0
  9
$USERI1
 70
     0
  9
$USERI2
 70
     0
  9
$USERI3
 70
     0
  9
$USERI4
 70
     0
  9
$USERI5
 70
     0
  9
$USERR1
 40
0.0
  9
$USERR2
 40
0.0
  9
$USERR3
 40
0.0
  9
$USERR4
 40
0.0
  9
$USERR5
 40
0.0
  9
$WORLDVIEW
 70
     1
  9
$SHADEDGE
 70
     3
  9
$SHADEDIF
 70
    70
  9
$TILEMODE
 70
     1
  9
$MAXACTVP
 70
    64
  9
$PINSBASE
 10
0.0
 20
0.0
 30
0.0
  9
$PLIMCHECK
 70
     0
  9
$PEXTMIN
 10
1.000000000000000E+20
 20
1.000000000000000E+20
 30
1.000000000000000E+20
  9
$PEXTMAX
 10
-1.000000000000000E+20
 20
-1.000000000000000E+20
 30
-1.000000000000000E+20
  9
$PLIMMIN
 10
0.0
 20
0.0
  9
$PLIMMAX
 10
841.0
 20
594.0
  9
$UNITMODE
 70
     0
  9
$VISRETAIN
 70
     1
  9
$PLINEGEN
 70
     0
  9
$PSLTSCALE
 70
     0
  9
$TREEDEPTH
 70
  3020
  9
$PICKSTYLE
 70
     0
  9
$CMLSTYLE
  2
STANDARD
  9
$CMLJUST
 70
     0
  9
$CMLSCALE
 40
20.0
  9
$PROXYGRAPHICS
 70
     1
  9
$MEASUREMENT
 70
     1
  0
ENDSEC
  0
SECTION
  2
CLASSES
  0
CLASS
  1
ACDBDICTIONARYWDFLT
  2
AcDbDictionaryWithDefault
  3
AutoCAD 2000
 90
        0
280
     0
281
     0
  0
CLASS
  1
ACDBPLACEHOLDER
  2
AcDbPlaceHolder
  3
AutoCAD 2000
 90
        0
280
     0
281
     0
  0
CLASS
  1
LAYOUT
  2
AcDbLayout
  3
AutoCAD 2000
 90
        0
280
     0
281
     0
  0
CLASS
  1
AMGSETTINGSOBJ
  2
AmgSettingsObj
  3
"AcadM|Product Description: AutoCAD Mechanical 2000|Company: Autodesk"
 90
        0
280
     0
281
     0
  0
CLASS
  1
ACME_DOCUMENT
  2
AcMeDbDoc
  3
AcMeServices
 90
        0
280
     0
281
     0
  0
CLASS
  1
ACMESCOPE
  2
AcMeScope
  3
AcMeServices
 90
        0
280
     0
281
     0
  0
CLASS
  1
ACMECOMMANDHISTORY
  2
AcMeCommandHistory
  3
AcMeServices
 90
        0
280
     0
281
     0
  0
CLASS
  1
DICTIONARYVAR
  2
AcDbDictionaryVar
  3
AutoCAD 2000
 90
        0
280
     0
281
     0
  0
CLASS
  1
ACIMSYSVARMAN
  2
AcImSysVarManager
  3
AcMeServices
 90
        0
280
     0
281
     0
  0
CLASS
  1
ACIMREALSYSVAR
  2
AcImRealSysVar
  3
AcMeServices
 90
        0
280
     0
281
     0
  0
CLASS
  1
ACIMINTSYSVAR
  2
AcImIntSysVar
  3
AcMeServices
 90
        0
280
     0
281
     0
  0
CLASS
  1
ACMEDRAWINGMAN
  2
AcMeDrawingMan
  3
AcMeServices
 90
        0
280
     0
281
     0
  0
CLASS
  1
ACMEVIEW
  2
AcMeView
  3
AcMeServices
 90
        0
280
     0
281
     0
  0
CLASS
  1
ACDBENTITYCACHE
  2
AcMeEntityCache
  3
AcMeServices
 90
        0
280
     0
281
     0
  0
CLASS
  1
GSMANAGER
  2
AcMeGSManager
  3
AcMeServices
 90
        0
280
     0
281
     0
  0
CLASS
  1
AmdtInternalReactor
  2
AmdtInternalReactor
  3
AcMeServices
 90
        0
280
     0
281
     0
  0
CLASS
  1
ACMESTATEMGR
  2
AcMeStateMgr
  3
AcMeServices
 90
        0
280
     0
281
     0
  0
CLASS
  1
ACME_DATABASE
  2
AcMeDbDatabase
  3
AcMeServices
 90
        0
280
     0
281
     0
  0
CLASS
  1
ACRFINSADJUSTERMGR
  2
AcRfInsAdjusterMgr
  3
AcMeServices
 90
        0
280
     0
281
     0
  0
CLASS
  1
ACMDATADICTIONARY
  2
AcmDataDictionary
  3
"AcmSymBB|Product Description: AutoCAD Mechanical 2000|Company: Autodesk"
 90
        0
280
     0
281
     0
  0
CLASS
  1
ACMDATAENTRYBLOCK
  2
AcmDataEntryBlock
  3
"AcmSymBB|Product Description: AutoCAD Mechanical 2000|Company: Autodesk"
 90
        0
280
     0
281
     0
  0
CLASS
  1
AMGOBJPROPCFG
  2
AmgObjPropCfg
  3
"AmgLay|Product Description: AutoCAD Mechanical 2000|Company: Autodesk"
 90
        1
280
     0
281
     0
  0
CLASS
  1
ACAMGFILTERDAT
  2
AcAmgFilterDat
  3
"AcadM|Product Description: AutoCAD Mechanical 2000|Company: Autodesk"
 90
        0
280
     0
281
     0
  0
CLASS
  1
LAYER_INDEX
  2
AcDbLayerIndex
  3
AutoCAD 2000
 90
        0
280
     0
281
     0
  0
CLASS
  1
IDBUFFER
  2
AcDbIdBuffer
  3
AutoCAD 2000
 90
        0
280
     0
281
     0
  0
CLASS
  1
ACIMSTRSYSVAR
  2
AcImStrSysVar
  3
AcMeServices
 90
        0
280
     0
281
     0
  0
CLASS
  1
ACMSTANDARDJIS
  2
AcmStandardJIS
  3
"AcmSymBB|Product Description: AutoCAD Mechanical 2000|Company: Autodesk"
 90
        0
280
     0
281
     0
  0
CLASS
  1
ACMSURFSTANDARDJIS
  2
AcmSurfTextStdJIS
  3
"AcmSymBB|Product Description: AutoCAD Mechanical 2000|Company: Autodesk"
 90
        0
280
     0
281
     0
  0
CLASS
  1
ACMFCFSTANDARDJIS
  2
AcmFCFStdJIS
  3
"AcmSymBB|Product Description: AutoCAD Mechanical 2000|Company: Autodesk"
 90
        0
280
     0
281
     0
  0
CLASS
  1
ACMWELDSTANDARDJIS
  2
AcmWeldingStdJIS
  3
"AcmSymBB|Product Description: AutoCAD Mechanical 2000|Company: Autodesk"
 90
        0
280
     0
281
     0
  0
CLASS
  1
ACMIDSTANDARDJIS
  2
AcmIdStdJIS
  3
"AcmSymBB|Product Description: AutoCAD Mechanical 2000|Company: Autodesk"
 90
        0
280
     0
281
     0
  0
CLASS
  1
ACMDATUMSTANDARDJIS
  2
AcmDatumStdJIS
  3
"AcmSymBB|Product Description: AutoCAD Mechanical 2000|Company: Autodesk"
 90
        0
280
     0
281
     0
  0
CLASS
  1
ACMBOMSTANDARDJIS
  2
AcmBOMStdJIS
  3
"AcmSymBB|Product Description: AutoCAD Mechanical 2000|Company: Autodesk"
 90
        0
280
     0
281
     0
  0
CLASS
  1
ACMSTANDARDANSI
  2
AcmStandardANSI
  3
"AcmSymBB|Product Description: AutoCAD Mechanical 2000|Company: Autodesk"
 90
        0
280
     0
281
     0
  0
CLASS
  1
ACMSURFSTANDARDANSI
  2
AcmSurfTextStdANSI
  3
"AcmSymBB|Product Description: AutoCAD Mechanical 2000|Company: Autodesk"
 90
        0
280
     0
281
     0
  0
CLASS
  1
ACMFCFSTANDARDANSI
  2
AcmFCFStdANSI
  3
"AcmSymBB|Product Description: AutoCAD Mechanical 2000|Company: Autodesk"
 90
        0
280
     0
281
     0
  0
CLASS
  1
ACMWELDSTANDARDANSI
  2
AcmWeldingStdANSI
  3
"AcmSymBB|Product Description: AutoCAD Mechanical 2000|Company: Autodesk"
 90
        0
280
     0
281
     0
  0
CLASS
  1
ACMIDSTANDARDANSI
  2
AcmIdStdANSI
  3
"AcmSymBB|Product Description: AutoCAD Mechanical 2000|Company: Autodesk"
 90
        0
280
     0
281
     0
  0
CLASS
  1
ACMDATUMSTANDARDANSI
  2
AcmDatumStdANSI
  3
"AcmSymBB|Product Description: AutoCAD Mechanical 2000|Company: Autodesk"
 90
        0
280
     0
281
     0
  0
CLASS
  1
ACMBOMSTANDARDANSI
  2
AcmBOMStdANSI
  3
"AcmSymBB|Product Description: AutoCAD Mechanical 2000|Company: Autodesk"
 90
        0
280
     0
281
     0
  0
CLASS
  1
ACMSTANDARDBSI
  2
AcmStandardBSI
  3
"AcmSymBB|Product Description: AutoCAD Mechanical 2000|Company: Autodesk"
 90
        0
280
     0
281
     0
  0
CLASS
  1
ACMSURFSTANDARDBSI
  2
AcmSurfTextStdBSI
  3
"AcmSymBB|Product Description: AutoCAD Mechanical 2000|Company: Autodesk"
 90
        0
280
     0
281
     0
  0
CLASS
  1
ACMFCFSTANDARDBSI
  2
AcmFCFStdBSI
  3
"AcmSymBB|Product Description: AutoCAD Mechanical 2000|Company: Autodesk"
 90
        0
280
     0
281
     0
  0
CLASS
  1
ACMWELDSTANDARDBSI
  2
AcmWeldingStdBSI
  3
"AcmSymBB|Product Description: AutoCAD Mechanical 2000|Company: Autodesk"
 90
        0
280
     0
281
     0
  0
CLASS
  1
ACMIDSTANDARDBSI
  2
AcmIdStdBSI
  3
"AcmSymBB|Product Description: AutoCAD Mechanical 2000|Company: Autodesk"
 90
        0
280
     0
281
     0
  0
CLASS
  1
ACMDATUMSTANDARDBSI
  2
AcmDatumStdBSI
  3
"AcmSymBB|Product Description: AutoCAD Mechanical 2000|Company: Autodesk"
 90
        0
280
     0
281
     0
  0
CLASS
  1
ACMBOMSTANDARDBSI
  2
AcmBOMStdBSI
  3
"AcmSymBB|Product Description: AutoCAD Mechanical 2000|Company: Autodesk"
 90
        0
280
     0
281
     0
  0
CLASS
  1
LONG_TRANSACTION
  2
AcDbLongTransaction
  3
AutoCAD 2000
 90
        0
280
     0
281
     0
  0
CLASS
  1
LWPOLYLINE
  2
AcDbPolyline
  3
AutoCAD 2000
 90
        0
280
     0
281
     1
  0
CLASS
  1
HATCH
  2
AcDbHatch
  3
AutoCAD 2000
 90
        0
280
     0
281
     1
  0
CLASS
  1
XRECORD
  2
AcDbXrecord
  3
AutoCAD 2000
 90
        0
280
     0
281
     0
  0
ENDSEC
  0
SECTION
  2
TABLES
  0
TABLE
  2
VPORT
  5
8
330
0
100
AcDbSymbolTable
 70
     3
  0
VPORT
  5
1D7D
330
8
100
AcDbSymbolTableRecord
100
AcDbViewportTableRecord
  2
*ACTIVE
 70
     0
 10
0.0
 20
0.0
 11
1.0
 21
1.0
 12
-61.96886486089024
 22
-22.94243834726441
 13
0.0
 23
0.0
 14
2.5
 24
2.5
 15
10.0
 25
10.0
 16
0.0
 26
0.0
 36
1.0
 17
0.0
 27
0.0
 37
0.0
 40
104.5587570267725
 41
1.56570841889117
 42
50.0
 43
0.0
 44
0.0
 50
0.0
 51
0.0
 71
     0
 72
   100
 73
     1
 74
     3
 75
     0
 76
     0
 77
     0
 78
     0
  0
ENDTAB
  0
TABLE
  2
LTYPE
  5
5
330
0
100
AcDbSymbolTable
 70
    10
  0
LTYPE
  5
14
330
5
100
AcDbSymbolTableRecord
100
AcDbLinetypeTableRecord
  2
BYBLOCK
 70
     0
  3

 72
    65
 73
     0
 40
0.0
  0
LTYPE
  5
15
330
5
100
AcDbSymbolTableRecord
100
AcDbLinetypeTableRecord
  2
BYLAYER
 70
     0
  3

 72
    65
 73
     0
 40
0.0
  0
LTYPE
  5
16
330
5
100
AcDbSymbolTableRecord
100
AcDbLinetypeTableRecord
  2
CONTINUOUS
 70
     0
  3
Solid line
 72
    65
 73
     0
 40
0.0
  0
LTYPE
  5
4B
330
5
100
AcDbSymbolTableRecord
100
AcDbLinetypeTableRecord
  2
AM_ISO02W050
 70
     0
  3
__ __ __ __ __ __ __ __ __ __ __ __ __ __ __
 72
    65
 73
     2
 40
7.5
 49
6.0
 74
     0
 49
-1.5
 74
     0
  0
LTYPE
  5
4C
330
5
100
AcDbSymbolTableRecord
100
AcDbLinetypeTableRecord
  2
AM_ISO08W050
 70
     0
  3
____ . ____ . ____ . ____ . ____ . ____ . ____
 72
    65
 73
     4
 40
18.0
 49
12.0
 74
     0
 49
-1.5
 74
     0
 49
3.0
 74
     0
 49
-1.5
 74
     0
  0
LTYPE
  5
4D
330
5
100
AcDbSymbolTableRecord
100
AcDbLinetypeTableRecord
  2
AM_ISO09W050
 70
     0
  3
_____ . . _____ . . _____ . . ____ .. ____
 72
    65
 73
     6
 40
22.5
 49
12.0
 74
     0
 49
-1.5
 74
     0
 49
3.0
 74
     0
 49
-1.5
 74
     0
 49
3.0
 74
     0
 49
-1.5
 74
     0
  0
LTYPE
  5
4E
330
5
100
AcDbSymbolTableRecord
100
AcDbLinetypeTableRecord
  2
AMCONSTR
 70
     0
  3
_______________________
 72
    65
 73
     2
 40
9999.0
 49
9999.0
 74
     0
 49
0.0
 74
     0
  0
LTYPE
  5
4F
330
5
100
AcDbSymbolTableRecord
100
AcDbLinetypeTableRecord
  2
AM_ISO02W050X2
 70
     0
  3
 _ _ _ _ _ _ _ _ _ _ _ _
 72
    65
 73
     2
 40
3.75
 49
3.0
 74
     0
 49
-0.75
 74
     0
  0
LTYPE
  5
50
330
5
100
AcDbSymbolTableRecord
100
AcDbLinetypeTableRecord
  2
AM_ISO08W050X2
 70
     0
  3
__ . __ . __ . __ . __ . __
 72
    65
 73
     4
 40
9.0
 49
6.0
 74
     0
 49
-0.75
 74
     0
 49
1.5
 74
     0
 49
-0.75
 74
     0
  0
LTYPE
  5
53
330
5
100
AcDbSymbolTableRecord
100
AcDbLinetypeTableRecord
  2
AMZIGZAG
 70
     0
  3
/\/-/\/-/\/-/\/-/\/-/\/
 72
    65
 73
     2
 40
11.00009999999999
 49
0.0001
 74
     4
 75
   135
340
52
 46
0.04
 50
0.0
 44
0.0
 45
0.0
 49
-11.0
 74
     0
  0
LTYPE
  5
166
330
5
100
AcDbSymbolTableRecord
100
AcDbLinetypeTableRecord
  2
ACJISTGL
 70
     0
  3
_ _ _ _ _
 72
    65
 73
     2
 40
3.0
 49
2.0
 74
     0
 49
-1.0
 74
     0
  0
LTYPE
  5
26A
330
5
100
AcDbSymbolTableRecord
100
AcDbLinetypeTableRecord
  2
ACJISTGB
 70
     0
  3
__ . . __ . .
 72
    65
 73
     6
 40
9.0
 49
4.0
 74
     0
 49
-1.0
 74
     0
 49
1.0
 74
     0
 49
-1.0
 74
     0
 49
1.0
 74
     0
 49
-1.0
 74
     0
  0
ENDTAB
  0
TABLE
  2
LAYER
  5
2
330
0
100
AcDbSymbolTable
 70
     7
  0
LAYER
  5
10
330
2
100
AcDbSymbolTableRecord
100
AcDbLayerTableRecord
  2
0
 70
     0
 62
     7
  6
CONTINUOUS
  0
LAYER
  5
3F9
330
2
100
AcDbSymbolTableRecord
100
AcDbLayerTableRecord
  2
AM_0
 70
     0
 62
     7
  6
CONTINUOUS
  0
LAYER
  5
BD4
330
2
100
AcDbSymbolTableRecord
100
AcDbLayerTableRecord
  2
AM_11
 70
     0
 62
     3
  6
AM_ISO09W050
  0
LAYER
  5
BD5
330
2
100
AcDbSymbolTableRecord
100
AcDbLayerTableRecord
  2
AM_7
 70
     0
 62
     4
  6
AM_ISO08W050
  0
LAYER
  5
BD6
330
2
100
AcDbSymbolTableRecord
100
AcDbLayerTableRecord
  2
AM_5
 70
     0
 62
     3
  6
CONTINUOUS
  0
LAYER
  5
BD7
330
2
100
AcDbSymbolTableRecord
100
AcDbLayerTableRecord
  2
DEFPOINTS
 70
     0
 62
     7
  6
CONTINUOUS
  0
LAYER
  5
E59
330
2
100
AcDbSymbolTableRecord
100
AcDbLayerTableRecord
  2
AM_6
 70
     0
 62
     2
  6
CONTINUOUS
  0
ENDTAB
  0
TABLE
  2
STYLE
  5
3
330
0
100
AcDbSymbolTable
 70
     5
  0
STYLE
  5
11
330
3
100
AcDbSymbolTableRecord
100
AcDbTextStyleTableRecord
  2
STANDARD
 70
     0
 40
0.0
 41
1.0
 50
0.0
 71
     0
 42
2.5
  3
simplex.shx
  4
EXTFONT.SHX
  0
STYLE
  5
52
330
3
100
AcDbSymbolTableRecord
100
AcDbTextStyleTableRecord
  2

 70
     1
 40
0.0
 41
1.0
 50
0.0
 71
     0
 42
2.5
  3
ltypeshp.shx
  4

  0
STYLE
  5
6B
330
3
100
AcDbSymbolTableRecord
100
AcDbTextStyleTableRecord
  2
ASAMI
 70
     0
 40
0.0
 41
1.0
 50
0.0
 71
     0
 42
2.5
  3
simplex.shx
  4
EXTFONT.SHX
  0
STYLE
  5
262
330
3
100
AcDbSymbolTableRecord
100
AcDbTextStyleTableRecord
  2
ACJISTS
 70
     0
 40
1.0
 41
1.0
 50
0.0
 71
     0
 42
2.5
  3
simplex.shx
  4
bigfont.shx
  0
STYLE
  5
269
330
3
100
AcDbSymbolTableRecord
100
AcDbTextStyleTableRecord
  2
ACJISGDT
 70
     0
 40
0.0
 41
1.0
 50
0.0
 71
     0
 42
2.5
  3
amgdtans.shx
  4

  0
ENDTAB
  0
TABLE
  2
VIEW
  5
6
330
0
100
AcDbSymbolTable
 70
     0
  0
ENDTAB
  0
TABLE
  2
UCS
  5
7
330
0
100
AcDbSymbolTable
 70
     0
  0
ENDTAB
  0
TABLE
  2
APPID
  5
9
330
0
100
AcDbSymbolTable
 70
    12
  0
APPID
  5
12
330
9
100
AcDbSymbolTableRecord
100
AcDbRegAppTableRecord
  2
ACAD
 70
     0
  0
APPID
  5
30
330
9
100
AcDbSymbolTableRecord
100
AcDbRegAppTableRecord
  2
MCAD_NO_VIS
 70
     0
  0
APPID
  5
31
330
9
100
AcDbSymbolTableRecord
100
AcDbRegAppTableRecord
  2
ACAD_TEMP_GRAPHIC
 70
     0
  0
APPID
  5
2C2
330
9
100
AcDbSymbolTableRecord
100
AcDbRegAppTableRecord
  2
GENIUS_GENDTOL_13
 70
     0
  0
APPID
  5
339
330
9
100
AcDbSymbolTableRecord
100
AcDbRegAppTableRecord
  2
GENIUS_GENODEF_13
 70
     0
  0
APPID
  5
33A
330
9
100
AcDbSymbolTableRecord
100
AcDbRegAppTableRecord
  2
GENIUS_GENOBJ-N-RSBK_13
 70
     0
  0
APPID
  5
33B
330
9
100
AcDbSymbolTableRecord
100
AcDbRegAppTableRecord
  2
GENIUS_GENOBJ-N-LIB_13
 70
     0
  0
APPID
  5
33C
330
9
100
AcDbSymbolTableRecord
100
AcDbRegAppTableRecord
  2
GENIUS_GENSCALE_13
 70
     0
  0
APPID
  5
378
330
9
100
AcDbSymbolTableRecord
100
AcDbRegAppTableRecord
  2
GENIUS_GENDIMSH_14
 70
     0
  0
APPID
  5
BD8
330
9
100
AcDbSymbolTableRecord
100
AcDbRegAppTableRecord
  2
GENIUS_GENOBJ-N-CEN_13
 70
     0
  0
APPID
  5
BD9
330
9
100
AcDbSymbolTableRecord
100
AcDbRegAppTableRecord
  2
GENIUS_GENFIL_13
 70
     0
  0
APPID
  5
BDA
330
9
100
AcDbSymbolTableRecord
100
AcDbRegAppTableRecord
  2
GENIUS_GENOBJ-N-CHA_13
 70
     0
  0
ENDTAB
  0
TABLE
  2
DIMSTYLE
  5
A
330
0
100
AcDbSymbolTable
 70
     8
  0
DIMSTYLE
105
58
102
{ACAD_REACTORS
330
D71
330
D7A
330
DA6
330
1C41
102
}
330
A
100
AcDbSymbolTableRecord
100
AcDbDimStyleTableRecord
  2
AM_JIS
 70
     0
  3

  4
"
  5
OPEN30
  6

  7

 40
1.0
 41
2.5
 42
1.0
 43
12.0
 44
1.0
 45
0.0
 46
0.0
 47
0.1
 48
0.1
140
3.2
141
0.0
142
0.0
143
0.0393701
144
1.0
145
0.0
146
0.71
147
1.5
 71
     0
 72
     0
 73
     0
 74
     0
 75
     0
 76
     0
 77
     3
 78
     8
170
     0
171
     2
172
     1
173
     0
174
     0
175
     0
176
   256
177
   256
178
     2
270
     2
271
     3
272
     3
273
     2
274
     2
340
6B
275
     0
280
     0
281
     0
282
     0
283
     0
284
     0
285
     0
286
     0
287
     3
288
     0
  0
DIMSTYLE
105
5F
330
A
100
AcDbSymbolTableRecord
100
AcDbDimStyleTableRecord
  2
AM_JIS$3
 70
     0
  3

  4
"
  5
OPEN30
  6

  7

 40
1.0
 41
2.5
 42
1.0
 43
10.0
 44
1.0
 45
0.0
 46
0.0
 47
0.1
 48
0.1
140
3.2
141
0.0
142
0.0
143
0.0393701
144
1.0
145
0.0
146
0.71
147
1.5
 71
     0
 72
     0
 73
     0
 74
     1
 75
     0
 76
     0
 77
     3
 78
     8
170
     0
171
     2
172
     0
173
     0
174
     0
175
     0
176
   256
177
   256
178
     2
270
     2
271
     2
272
     3
273
     2
274
     2
340
6B
275
     0
280
     0
281
     0
282
     0
283
     0
284
     0
285
     0
286
     0
287
     0
288
     1
  0
DIMSTYLE
105
60
330
A
100
AcDbSymbolTableRecord
100
AcDbDimStyleTableRecord
  2
AM_JIS$4
 70
     0
  3

  4
"
  5
OPEN30
  6

  7

 40
1.0
 41
2.5
 42
1.0
 43
10.0
 44
1.0
 45
0.0
 46
0.0
 47
0.1
 48
0.1
140
3.2
141
0.0
142
0.0
143
0.0393701
144
1.0
145
0.0
146
0.71
147
1.5
 71
     0
 72
     0
 73
     0
 74
     1
 75
     0
 76
     0
 77
     3
 78
     8
170
     0
171
     2
172
     0
173
     0
174
     0
175
     0
176
   256
177
   256
178
     2
270
     2
271
     2
272
     3
273
     2
274
     2
340
6B
275
     0
280
     0
281
     0
282
     0
283
     0
284
     0
285
     0
286
     0
287
     0
288
     1
  0
DIMSTYLE
105
61
330
A
100
AcDbSymbolTableRecord
100
AcDbDimStyleTableRecord
  2
AM_JIS$6
 70
     0
  3

  4
"
  5
OPEN30
  6

  7

 40
1.0
 41
2.5
 42
1.0
 43
10.0
 44
1.0
 45
0.0
 46
0.0
 47
0.1
 48
0.1
140
3.2
141
0.0
142
0.0
143
0.0393701
144
1.0
145
0.0
146
0.71
147
1.5
 71
     0
 72
     0
 73
     0
 74
     0
 75
     0
 76
     0
 77
     0
 78
     8
170
     0
171
     2
172
     1
173
     0
174
     0
175
     0
176
   256
177
   256
178
     2
270
     2
271
     2
272
     2
273
     2
274
     2
340
6B
275
     0
280
     0
281
     0
282
     0
283
     0
284
     0
285
     0
286
     0
287
     3
288
     0
  0
DIMSTYLE
105
62
330
A
100
AcDbSymbolTableRecord
100
AcDbDimStyleTableRecord
  2
AM_JIS$7
 70
     0
  3

  4
"
  5
OPEN30
  6

  7

 40
1.0
 41
2.5
 42
1.0
 43
10.0
 44
1.0
 45
0.0
 46
0.0
 47
0.1
 48
0.1
140
3.2
141
0.0
142
0.0
143
0.0393701
144
1.0
145
0.0
146
0.71
147
1.5
 71
     0
 72
     0
 73
     0
 74
     0
 75
     0
 76
     0
 77
     3
 78
     8
170
     0
171
     2
172
     1
173
     0
174
     0
175
     0
176
   256
177
   256
178
     2
270
     2
271
     2
272
     3
273
     2
274
     2
340
6B
275
     0
280
     0
281
     0
282
     0
283
     0
284
     0
285
     0
286
     0
287
     3
288
     0
  0
DIMSTYLE
105
63
330
A
100
AcDbSymbolTableRecord
100
AcDbDimStyleTableRecord
  2
AM_JIS$SF
 70
     0
  3

  4
"
  5
OPEN30
  6

  7

 40
1.0
 41
2.5
 42
1.0
 43
10.0
 44
1.0
 45
0.0
 46
0.0
 47
0.1
 48
0.1
140
3.2
141
0.0
142
0.0
143
0.0393701
144
1.0
145
0.0
146
0.71
147
1.5
 71
     0
 72
     0
 73
     0
 74
     0
 75
     1
 76
     1
 77
     3
 78
     8
170
     0
171
     2
172
     1
173
     0
174
     0
175
     0
176
   256
177
   256
178
     2
270
     2
271
     2
272
     2
273
     2
274
     2
340
6B
275
     0
280
     0
281
     0
282
     0
283
     0
284
     0
285
     0
286
     0
287
     3
288
     0
  0
DIMSTYLE
105
68
330
A
100
AcDbSymbolTableRecord
100
AcDbDimStyleTableRecord
  2
AM_JIS$SH
 70
     0
  3

  4
"
  5

  6
GENAXEH
  7
OPEN30
 40
1.0
 41
2.5
 42
1.0
 43
10.0
 44
1.0
 45
0.0
 46
0.0
 47
0.1
 48
0.1
140
3.2
141
0.0
142
0.0
143
0.0393701
144
2.0
145
0.0
146
0.71
147
1.5
 71
     0
 72
     0
 73
     0
 74
     0
 75
     1
 76
     1
 77
     3
 78
     8
170
     0
171
     2
172
     1
173
     1
174
     0
175
     0
176
   256
177
   256
178
     2
270
     2
271
     2
272
     2
273
     2
274
     2
340
6B
275
     0
280
     0
281
     0
282
     0
283
     0
284
     0
285
     0
286
     0
287
     3
288
     0
  0
DIMSTYLE
105
B34
330
A
100
AcDbSymbolTableRecord
100
AcDbDimStyleTableRecord
  2
AM_JIS$2
 70
     0
  3

  4
"
  5
OPEN30
  6

  7

 40
1.0
 41
2.5
 42
1.0
 43
12.0
 44
1.0
 45
0.0
 46
0.0
 47
0.1
 48
0.1
140
3.2
141
0.0
142
0.0
143
0.0393701
144
1.0
145
0.0
146
0.71
147
1.5
 71
     0
 72
     0
 73
     0
 74
     0
 75
     0
 76
     0
 77
     3
 78
     8
170
     0
171
     2
172
     1
173
     0
174
     0
175
     0
176
   256
177
   256
178
     2
270
     2
271
     3
272
     3
273
     2
274
     2
340
6B
275
     0
280
     0
281
     0
282
     0
283
     0
284
     0
285
     0
286
     0
287
     3
288
     0
  0
ENDTAB
  0
TABLE
  2
BLOCK_RECORD
  5
1
330
0
100
AcDbSymbolTable
 70
    10
  0
BLOCK_RECORD
  5
1F
102
{ACAD_XDICTIONARY
360
74
102
}
330
1
100
AcDbSymbolTableRecord
100
AcDbBlockTableRecord
  2
*MODEL_SPACE
  0
BLOCK_RECORD
  5
101
102
{ACAD_XDICTIONARY
360
1DA6
102
}
330
1
100
AcDbSymbolTableRecord
100
AcDbBlockTableRecord
  2
*PAPER_SPACE
  0
BLOCK_RECORD
  5
59
330
1
100
AcDbSymbolTableRecord
100
AcDbBlockTableRecord
  2
_OPEN30
  0
BLOCK_RECORD
  5
64
330
1
100
AcDbSymbolTableRecord
100
AcDbBlockTableRecord
  2
GENAXEH
  0
BLOCK_RECORD
  5
DDA
330
1
100
AcDbSymbolTableRecord
100
AcDbBlockTableRecord
  2
*D5
  0
BLOCK_RECORD
  5
DF3
330
1
100
AcDbSymbolTableRecord
100
AcDbBlockTableRecord
  2
*D6
  0
BLOCK_RECORD
  5
DFF
330
1
100
AcDbSymbolTableRecord
100
AcDbBlockTableRecord
  2
*D7
  0
BLOCK_RECORD
  5
1C42
330
1
100
AcDbSymbolTableRecord
100
AcDbBlockTableRecord
  2
*D8
  0
BLOCK_RECORD
  5
1D19
330
1
100
AcDbSymbolTableRecord
100
AcDbBlockTableRecord
  2
A$C2C6773B8
  0
ENDTAB
  0
ENDSEC
  0
SECTION
  2
BLOCKS
  0
BLOCK
  5
20
330
1F
100
AcDbEntity
  8
0
100
AcDbBlockBegin
  2
*MODEL_SPACE
 70
     0
 10
0.0
 20
0.0
 30
0.0
  3
*MODEL_SPACE
  1

  0
ENDBLK
  5
21
330
1F
100
AcDbEntity
  8
0
100
AcDbBlockEnd
  0
BLOCK
  5
103
330
101
100
AcDbEntity
 67
     1
  8
0
100
AcDbBlockBegin
  2
*PAPER_SPACE
 70
     0
 10
0.0
 20
0.0
 30
0.0
  3
*PAPER_SPACE
  1

  0
ENDBLK
  5
104
330
101
100
AcDbEntity
 67
     1
  8
0
100
AcDbBlockEnd
  0
BLOCK
  5
5D
330
59
100
AcDbEntity
  8
0
100
AcDbBlockBegin
  2
_OPEN30
 70
     0
 10
0.0
 20
0.0
 30
0.0
  3
_OPEN30
  1

  0
LINE
  5
5A
330
59
100
AcDbEntity
  8
0
 62
     0
100
AcDbLine
 10
-1.0
 20
0.26794919
 30
0.0
 11
0.0
 21
0.0
 31
0.0
  0
LINE
  5
5B
330
59
100
AcDbEntity
  8
0
 62
     0
100
AcDbLine
 10
0.0
 20
0.0
 30
0.0
 11
-1.0
 21
-0.26794919
 31
0.0
  0
LINE
  5
5C
330
59
100
AcDbEntity
  8
0
 62
     0
100
AcDbLine
 10
0.0
 20
0.0
 30
0.0
 11
-1.0
 21
0.0
 31
0.0
  0
ENDBLK
  5
5E
330
59
100
AcDbEntity
  8
0
100
AcDbBlockEnd
  0
BLOCK
  5
66
330
64
100
AcDbEntity
  8
0
100
AcDbBlockBegin
  2
GENAXEH
 70
     0
 10
0.0
 20
0.0
 30
0.0
  3
GENAXEH
  1

  0
LINE
  5
65
330
64
100
AcDbEntity
  8
0
100
AcDbLine
 10
-1.0
 20
0.0
 30
0.0
 11
1.0
 21
0.0
 31
0.0
  0
ENDBLK
  5
67
330
64
100
AcDbEntity
  8
0
100
AcDbBlockEnd
  0
BLOCK
  5
DE4
330
DDA
100
AcDbEntity
  8
0
100
AcDbBlockBegin
  2
*D5
 70
     1
 10
0.0
 20
0.0
 30
0.0
  3
*D5
  1

  0
LINE
  5
1CA8
330
DDA
100
AcDbEntity
  8
AM_5
100
AcDbLine
 10
-0.0000000000003095
 20
-11.0000000000002
 30
0.0
 11
-0.0000000000003113
 21
-39.5000010099999
 31
0.0
  0
LINE
  5
1CA9
330
DDA
100
AcDbEntity
  8
AM_5
100
AcDbLine
 10
-120.0
 20
-12.50000000000004
 30
0.0
 11
-120.0
 21
-39.5000010099999
 31
0.0
  0
LINE
  5
1CAA
330
DDA
100
AcDbEntity
  8
AM_5
100
AcDbLine
 10
-2.500000000000311
 20
-38.5000010099999
 30
0.0
 11
-117.5
 21
-38.5000010099999
 31
0.0
  0
INSERT
  5
1CAB
330
DDA
100
AcDbEntity
  8
AM_5
100
AcDbBlockReference
  2
_OPEN30
 10
-0.0000000000003112
 20
-38.5000010099999
 30
0.0
 41
2.5
 42
2.5
 43
2.5
  0
INSERT
  5
1CAC
330
DDA
100
AcDbEntity
  8
AM_5
100
AcDbBlockReference
  2
_OPEN30
 10
-120.0
 20
-38.5000010099999
 30
0.0
 41
2.5
 42
2.5
 43
2.5
 50
180.0
  0
MTEXT
  5
1CAD
330
DDA
100
AcDbEntity
  8
AM_5
 62
     2
100
AcDbMText
 10
-60.00000000000016
 20
-35.4000010099999
 30
0.0
 40
3.2
 41
0.0
 71
     5
 72
     1
  1
120
  7
ASAMI
1001
ACAD
1000
MTEXTBEGIN
1070
    73
1070
     1
1070
    44
1040
1.0
1070
    74
1070
     0
1000
MTEXTEND
  0
POINT
  5
1CAE
330
DDA
100
AcDbEntity
  8
DEFPOINTS
 62
     0
100
AcDbPoint
 10
-0.0000000000003095
 20
-10.0000000000002
 30
0.0
  0
POINT
  5
1CAF
330
DDA
100
AcDbEntity
  8
DEFPOINTS
 62
     0
100
AcDbPoint
 10
-120.0
 20
-11.50000000000004
 30
0.0
  0
POINT
  5
1CB0
330
DDA
100
AcDbEntity
  8
DEFPOINTS
 62
     0
100
AcDbPoint
 10
-120.0
 20
-38.5000010099999
 30
0.0
  0
ENDBLK
  5
DE5
330
DDA
100
AcDbEntity
  8
0
100
AcDbBlockEnd
  0
BLOCK
  5
DFD
330
DF3
100
AcDbEntity
  8
0
100
AcDbBlockBegin
  2
*D6
 70
     1
 10
0.0
 20
0.0
 30
0.0
  3
*D6
  1

  0
LINE
  5
1C9F
330
DF3
100
AcDbEntity
  8
AM_5
100
AcDbLine
 10
-50.00000000000049
 20
-13.50000000000004
 30
0.0
 11
-50.00000000000049
 21
-27.5000010099999
 31
0.0
  0
LINE
  5
1CA0
330
DF3
100
AcDbEntity
  8
AM_5
100
AcDbLine
 10
-0.0000000000016201
 20
-13.5
 30
0.0
 11
-0.000000000001621
 21
-27.5000010099999
 31
0.0
  0
LINE
  5
1CA1
330
DF3
100
AcDbEntity
  8
AM_5
100
AcDbLine
 10
-47.50000000000048
 20
-26.5000010099999
 30
0.0
 11
-2.50000000000162
 21
-26.5000010099999
 31
0.0
  0
INSERT
  5
1CA2
330
DF3
100
AcDbEntity
  8
AM_5
100
AcDbBlockReference
  2
_OPEN30
 10
-50.00000000000049
 20
-26.5000010099999
 30
0.0
 41
2.5
 42
2.5
 43
2.5
 50
180.0
  0
INSERT
  5
1CA3
330
DF3
100
AcDbEntity
  8
AM_5
100
AcDbBlockReference
  2
_OPEN30
 10
-0.0000000000016209
 20
-26.5000010099999
 30
0.0
 41
2.5
 42
2.5
 43
2.5
  0
MTEXT
  5
1CA4
330
DF3
100
AcDbEntity
  8
AM_5
 62
     2
100
AcDbMText
 10
-25.00000000000105
 20
-23.4000010099999
 30
0.0
 40
3.2
 41
0.0
 71
     5
 72
     1
  1
50
  7
ASAMI
1001
ACAD
1000
MTEXTBEGIN
1070
    73
1070
     1
1070
    44
1040
1.0
1070
    74
1070
     0
1000
MTEXTEND
  0
POINT
  5
1CA5
330
DF3
100
AcDbEntity
  8
DEFPOINTS
 62
     0
100
AcDbPoint
 10
-50.00000000000049
 20
-12.50000000000004
 30
0.0
  0
POINT
  5
1CA6
330
DF3
100
AcDbEntity
  8
DEFPOINTS
 62
     0
100
AcDbPoint
 10
-0.00000000000162
 20
-12.5
 30
0.0
  0
POINT
  5
1CA7
330
DF3
100
AcDbEntity
  8
DEFPOINTS
 62
     0
100
AcDbPoint
 10
-0.0000000000016209
 20
-26.5000010099999
 30
0.0
  0
ENDBLK
  5
DFE
330
DF3
100
AcDbEntity
  8
0
100
AcDbBlockEnd
  0
BLOCK
  5
E0A
330
DFF
100
AcDbEntity
  8
0
100
AcDbBlockBegin
  2
*D7
 70
     1
 10
0.0
 20
0.0
 30
0.0
  3
*D7
  1

  0
LINE
  5
1CB1
330
DFF
100
AcDbEntity
  8
AM_5
100
AcDbLine
 10
1.00000000000001
 20
12.5
 30
0.0
 11
19.55776903085493
 21
12.49999999999999
 31
0.0
  0
LINE
  5
1CB2
330
DFF
100
AcDbEntity
  8
AM_5
100
AcDbLine
 10
0.9999999999995143
 20
-12.5
 30
0.0
 11
19.55776903085492
 21
-12.5
 31
0.0
  0
LINE
  5
1CB3
330
DFF
100
AcDbEntity
  8
AM_5
100
AcDbLine
 10
18.55776903085493
 20
9.999999999999994
 30
0.0
 11
18.55776903085492
 21
-10.0
 31
0.0
  0
INSERT
  5
1CB4
330
DFF
100
AcDbEntity
  8
AM_5
100
AcDbBlockReference
  2
_OPEN30
 10
18.55776903085493
 20
12.49999999999999
 30
0.0
 41
2.5
 42
2.5
 43
2.5
 50
90.0
  0
INSERT
  5
1CB5
330
DFF
100
AcDbEntity
  8
AM_5
100
AcDbBlockReference
  2
_OPEN30
 10
18.55776903085492
 20
-12.5
 30
0.0
 41
2.5
 42
2.5
 43
2.5
 50
270.0
  0
MTEXT
  5
1CB6
330
DFF
100
AcDbEntity
  8
AM_5
 62
     2
100
AcDbMText
 10
15.45776903085492
 20
-0.0000000000000025
 30
0.0
 40
3.2
 41
0.0
 71
     5
 72
     1
  1
%%c25
  7
ASAMI
 11
0.0000000000000001
 21
1.0
 31
0.0
1001
ACAD
1000
MTEXTBEGIN
1070
    73
1070
     1
1070
    44
1040
1.0
1070
    74
1070
     0
1000
MTEXTEND
  0
POINT
  5
1CB7
330
DFF
100
AcDbEntity
  8
DEFPOINTS
 62
     0
100
AcDbPoint
 10
0.0000000000000102
 20
12.5
 30
0.0
  0
POINT
  5
1CB8
330
DFF
100
AcDbEntity
  8
DEFPOINTS
 62
     0
100
AcDbPoint
 10
-0.0000000000004857
 20
-12.5
 30
0.0
  0
POINT
  5
1CB9
330
DFF
100
AcDbEntity
  8
DEFPOINTS
 62
     0
100
AcDbPoint
 10
18.55776903085492
 20
-12.5
 30
0.0
  0
ENDBLK
  5
E0B
330
DFF
100
AcDbEntity
  8
0
100
AcDbBlockEnd
  0
BLOCK
  5
1C4C
330
1C42
100
AcDbEntity
  8
0
100
AcDbBlockBegin
  2
*D8
 70
     1
 10
0.0
 20
0.0
 30
0.0
  3
*D8
  1

  0
LINE
  5
1C70
330
1C42
100
AcDbEntity
  8
AM_5
100
AcDbLine
 10
-120.0
 20
12.49999999999996
 30
0.0
 11
-139.7934979049683
 21
12.49999999999996
 31
0.0
  0
LINE
  5
1C71
330
1C42
100
AcDbEntity
  8
AM_5
100
AcDbLine
 10
-120.0
 20
-12.50000000000003
 30
0.0
 11
-139.7934979049683
 21
-12.50000000000003
 31
0.0
  0
LINE
  5
1C72
330
1C42
100
AcDbEntity
  8
AM_5
100
AcDbLine
 10
-138.7934979049683
 20
9.999999999999966
 30
0.0
 11
-138.7934979049683
 21
-10.00000000000003
 31
0.0
  0
INSERT
  5
1C73
330
1C42
100
AcDbEntity
  8
AM_5
100
AcDbBlockReference
  2
_OPEN30
 10
-138.7934979049683
 20
12.49999999999996
 30
0.0
 41
2.5
 42
2.5
 43
2.5
 50
90.0
  0
INSERT
  5
1C74
330
1C42
100
AcDbEntity
  8
AM_5
100
AcDbBlockReference
  2
_OPEN30
 10
-138.7934979049683
 20
-12.50000000000003
 30
0.0
 41
2.5
 42
2.5
 43
2.5
 50
270.0
  0
MTEXT
  5
1C75
330
1C42
100
AcDbEntity
  8
AM_5
 62
     2
100
AcDbMText
 10
-141.8934979049683
 20
-0.0000000000000551
 30
0.0
 40
3.2
 41
0.0
 71
     5
 72
     1
  1
%%c25
  7
ASAMI
 11
0.0000000000000001
 21
1.0
 31
0.0
1001
ACAD
1000
MTEXTBEGIN
1070
    73
1070
     1
1070
    44
1040
1.0
1070
    74
1070
     0
1000
MTEXTEND
  0
POINT
  5
1C76
330
1C42
100
AcDbEntity
  8
DEFPOINTS
 62
     0
100
AcDbPoint
 10
-119.0
 20
12.49999999999996
 30
0.0
  0
POINT
  5
1C77
330
1C42
100
AcDbEntity
  8
DEFPOINTS
 62
     0
100
AcDbPoint
 10
-119.0
 20
-12.50000000000003
 30
0.0
  0
POINT
  5
1C78
330
1C42
100
AcDbEntity
  8
DEFPOINTS
 62
     0
100
AcDbPoint
 10
-138.7934979049683
 20
-12.50000000000003
 30
0.0
  0
ENDBLK
  5
1C4D
330
1C42
100
AcDbEntity
  8
0
100
AcDbBlockEnd
  0
BLOCK
  5
1D22
330
1D19
100
AcDbEntity
  8
0
100
AcDbBlockBegin
  2
A$C2C6773B8
 70
     0
 10
0.0
 20
0.0
 30
0.0
  3
A$C2C6773B8
  1

  0
LINE
  5
1D1A
330
1D19
100
AcDbEntity
  8
AM_0
100
AcDbLine
 10
-0.0000000000017009
 20
-0.0000000000161981
 30
0.0
 11
-3.534858346534529
 21
-0.0000000000161981
 31
0.0
  0
LINE
  5
1D1B
330
1D19
100
AcDbEntity
  8
AM_0
100
AcDbLine
 10
-3.534858346534529
 20
-1.200000000016215
 30
0.0
 11
-0.1732050807585876
 21
-1.200000000016215
 31
0.0
  0
LINE
  5
1D1C
330
1D19
100
AcDbEntity
  8
AM_0
100
AcDbLine
 10
-0.0000000000017009
 20
-1.500000000016198
 30
0.0
 11
-0.8660254037861774
 21
-0.0000000000161128
 31
0.0
  0
LINE
  5
1D1D
330
1D19
100
AcDbEntity
  8
AM_0
100
AcDbLine
 10
-1.290686978538455
 20
-2.210482147766013
 30
0.0
 11
-0.1575000000016855
 21
-1.990346781860976
 31
0.0
  0
LINE
  5
1D1E
330
1D19
100
AcDbEntity
  8
AM_0
100
AcDbLine
 10
-3.534858346534529
 20
-0.0000000000161981
 30
0.0
 11
-3.534858346534529
 21
-1.200000000016215
 31
0.0
  0
LINE
  5
1D1F
330
1D19
100
AcDbEntity
  8
AM_0
100
AcDbLine
 10
-3.534858346534529
 20
-1.200000000016215
 30
0.0
 11
-1.290686978538455
 21
-2.210482147766013
 31
0.0
  0
LINE
  5
1D20
330
1D19
100
AcDbEntity
  8
AM_0
100
AcDbLine
 10
-0.0000000000017009
 20
-0.0000000000161981
 30
0.0
 11
-0.1332639137176512
 21
-1.269180130644824
 31
0.0
  0
LINE
  5
1D21
330
1D19
100
AcDbEntity
  8
AM_0
100
AcDbLine
 10
-0.1575000000016855
 20
-1.990346781860976
 30
0.0
 11
-0.0000000000017009
 21
-1.500000000016198
 31
0.0
  0
ENDBLK
  5
1D23
330
1D19
100
AcDbEntity
  8
0
100
AcDbBlockEnd
  0
ENDSEC
  0
SECTION
  2
ENTITIES
  0
DIMENSION
  5
D71
330
1F
100
AcDbEntity
  8
AM_5
100
AcDbDimension
  2
*D5
 10
-120.0
 20
-38.5000010099999
 30
0.0
 11
-60.00000000000016
 21
-35.4000010099999
 31
0.0
 70
    32
  1
<>
  3
AM_JIS
100
AcDbAlignedDimension
 13
-0.0000000000003095
 23
-10.0000000000002
 33
0.0
 14
-120.0
 24
-11.50000000000004
 34
0.0
100
AcDbRotatedDimension
1001
GENIUS_GENDTOL_13
1000

1000
h7
1000

1040
0.0
  0
LINE
  5
D74
330
1F
100
AcDbEntity
  8
AM_7
  6
AM_ISO08W050X2
100
AcDbLine
 10
4.557768030854926
 20
0.0
 30
0.0
 11
-124.7934969049683
 21
-0.0000000000000924
 31
0.0
1001
GENIUS_GENODEF_13
1002
{
1000
HIER
1070
     0
1002
}
1002
{
1000
MANEDIT
1070
     0
1002
}
1002
{
1000
NOSEL
1070
     0
1002
}
1002
{
1000
BEHIND
1070
     0
1002
}
1002
{
1000
REACTOR
1002
}
1001
GENIUS_GENOBJ-N-CEN_13
1002
{
1000
OWNER
1000
GEN
1002
}
  0
DIMENSION
  5
D7A
330
1F
100
AcDbEntity
  8
AM_5
100
AcDbDimension
  2
*D6
 10
-0.0000000000016209
 20
-26.5000010099999
 30
0.0
 11
-25.00000000000105
 21
-23.4000010099999
 31
0.0
 70
    32
  1
<>
  3
AM_JIS
100
AcDbAlignedDimension
 13
-50.00000000000049
 23
-12.50000000000004
 33
0.0
 14
-0.00000000000162
 24
-12.5
 34
0.0
100
AcDbRotatedDimension
1001
GENIUS_GENDTOL_13
1000

1000
h7
1000

1040
0.0
  0
DIMENSION
  5
DA6
330
1F
100
AcDbEntity
  8
AM_5
100
AcDbDimension
  2
*D7
 10
18.55776903085492
 20
-12.5
 30
0.0
 11
15.45776903085492
 21
-0.0000000000000025
 31
0.0
 70
    32
  1
%%c<>
  3
AM_JIS
100
AcDbAlignedDimension
 13
0.0000000000000102
 23
12.5
 33
0.0
 14
-0.0000000000004857
 24
-12.5
 34
0.0
 50
270.0
100
AcDbRotatedDimension
1001
GENIUS_GENDTOL_13
1000

1000
h7
1000

1040
0.0
  0
TEXT
  5
E5A
330
1F
100
AcDbEntity
  8
AM_6
100
AcDbText
 10
-81.19047619047634
 20
-61.00000100999991
 30
0.0
 40
5.0
  1
SSM4250ZX
 72
     4
 11
-60.00000000000015
 21
-58.50000100999991
 31
0.0
100
AcDbText
  0
LINE
  5
1B84
330
1F
100
AcDbEntity
  8
AM_0
100
AcDbLine
 10
-2.547500926439451
 20
6.667852035025989
 30
0.0
 11
-5.623638278575436
 21
7.521133556320192
 31
0.0
  0
LINE
  5
1B85
330
1F
100
AcDbEntity
  8
AM_0
100
AcDbLine
 10
-0.0000000000004663
 20
0.0
 30
0.0
 11
-0.2505681818186227
 21
2.500000000000279
 31
0.0
  0
LINE
  5
1B86
330
1F
100
AcDbEntity
  8
AM_0
100
AcDbLine
 10
-2.053365647672576
 20
-3.684136912916358
 30
0.0
 11
-0.2505681818186227
 21
-3.317244636407967
 31
0.0
  0
LINE
  5
1B88
330
1F
100
AcDbEntity
  8
AM_0
100
AcDbLine
 10
-0.2505681818186227
 20
2.500000000000279
 30
0.0
 11
-2.547500926439451
 21
6.667852035025989
 31
0.0
  0
LINE
  5
1B89
330
1F
100
AcDbEntity
  8
AM_0
100
AcDbLine
 10
-0.0000000000004663
 20
0.0
 30
0.0
 11
-0.0000000000004823
 21
12.5
 31
0.0
  0
SPLINE
  5
1B8A
330
1F
100
AcDbEntity
  8
AM_0
100
AcDbSpline
210
0.0
220
0.0
230
1.0
 70
     8
 71
     3
 72
     8
 73
     4
 74
     0
 42
0.0000000001
 43
0.0000000001
 40
0.0
 40
0.0
 40
0.0
 40
0.0
 40
14.48999654934396
 40
14.48999654934396
 40
14.48999654934396
 40
14.48999654934396
 10
-32.45454545454592
 20
12.50000000000026
 30
0.0
 10
-20.92841183574959
 20
12.50000000000026
 30
0.0
 10
-10.46420591787502
 20
6.250000000000266
 30
0.0
 10
-0.0000000000004663
 20
0.0000000000002887
 30
0.0
  0
SPLINE
  5
1B8B
330
1F
100
AcDbEntity
  8
AM_0
100
AcDbSpline
210
0.0
220
0.0
230
1.0
 70
     8
 71
     3
 72
     8
 73
     4
 74
     0
 42
0.0000000001
 43
0.0000000001
 40
0.0
 40
0.0
 40
0.0
 40
0.0
 40
5.635889483499305
 40
5.635889483499305
 40
5.635889483499305
 40
5.635889483499305
 10
-32.4545454545464
 20
12.50000000000026
 30
0.0
 10
-36.93763936187543
 20
12.50000000000026
 30
0.0
 10
-41.26008231029193
 20
11.55448507244809
 30
0.0
 10
-45.48435954931041
 20
10.03121359592821
 30
0.0
  0
SPLINE
  5
1B8C
330
1F
100
AcDbEntity
  8
AM_0
100
AcDbSpline
210
0.0
220
0.0
230
1.0
 70
     8
 71
     3
 72
     8
 73
     4
 74
     0
 42
0.0000000001
 43
0.0000000001
 40
0.7142832446738512
 40
0.7142832446738512
 40
0.7142832446738512
 40
0.7142832446738512
 40
9.361146747480315
 40
9.361146747480315
 40
9.361146747480315
 40
9.361146747480315
 10
-21.7950933433973
 20
11.50149447456071
 30
0.0
 10
-14.97003144450227
 20
11.16445859742896
 30
0.0
 10
-8.45832595231964
 20
8.839424706999066
 30
0.0
 10
-2.061448783776541
 20
5.785896123702372
 30
0.0
  0
SPLINE
  5
1B8D
330
1F
100
AcDbEntity
  8
AM_0
100
AcDbSpline
210
0.0
220
0.0
230
1.0
 70
     8
 71
     3
 72
     8
 73
     4
 74
     0
 42
0.0000000001
 43
0.0000000001
 40
0.0
 40
0.0
 40
0.0
 40
0.0
 40
2.586565323616714
 40
2.586565323616714
 40
2.586565323616714
 40
2.586565323616714
 10
-0.0000000000004823
 20
10.18675671670991
 30
0.0
 10
-1.320297158018872
 20
8.533607990377522
 30
0.0
 10
-3.58651245443638
 20
7.823684492310878
 30
0.0
 10
-5.623638278575436
 20
7.521133556320192
 30
0.0
  0
SPLINE
  5
1B8E
330
1F
100
AcDbEntity
  8
AM_0
100
AcDbSpline
210
0.0
220
0.0
230
1.0
 70
     8
 71
     3
 72
     8
 73
     4
 74
     0
 42
0.0000000001
 43
0.0000000001
 40
0.0
 40
0.0
 40
0.0
 40
0.0
 40
5.635889483499127
 40
5.635889483499127
 40
5.635889483499127
 40
5.635889483499127
 10
-0.0000000000004823
 20
12.5
 30
0.0
 10
-4.483093907329321
 20
12.5
 30
0.0
 10
-8.805536855745758
 20
11.55448507244785
 30
0.0
 10
-13.02981409476416
 20
10.03121359592811
 30
0.0
  0
SPLINE
  5
1B8F
330
1F
100
AcDbEntity
  8
AM_0
100
AcDbSpline
210
0.0
220
0.0
230
1.0
 70
     8
 71
     3
 72
     8
 73
     4
 74
     0
 42
0.0000000001
 43
0.0000000001
 40
0.3581103616548037
 40
0.3581103616548037
 40
0.3581103616548037
 40
0.3581103616548037
 40
12.40023413887867
 40
12.40023413887867
 40
12.40023413887867
 40
12.40023413887867
 10
-27.43652052111032
 20
12.11461355713167
 30
0.0
 10
-17.89845938233279
 20
11.86690984265708
 30
0.0
 10
-9.039448516040302
 20
7.506752821212502
 30
0.0
 10
-0.2787578000359447
 20
2.551150891522413
 30
0.0
  0
LINE
  5
1B90
330
1F
100
AcDbEntity
  8
AM_0
100
AcDbLine
 10
-0.0000000000004663
 20
-12.5
 30
0.0
 11
-0.2505681818186227
 21
-11.83360289405456
 31
0.0
  0
LINE
  5
1B91
330
1F
100
AcDbEntity
  8
AM_0
100
AcDbLine
 10
-0.2505681818186227
 20
-11.83360289405442
 30
0.0
 11
-1.634659090909562
 21
-9.994041638654781
 31
0.0
  0
SPLINE
  5
1B92
330
1F
100
AcDbEntity
  8
AM_0
100
AcDbSpline
210
0.0
220
0.0
230
1.0
 70
     8
 71
     3
 72
     8
 73
     4
 74
     0
 42
0.0000000001
 43
0.0000000001
 40
0.0
 40
0.0
 40
0.0
 40
0.0
 40
4.451443990518192
 40
4.451443990518192
 40
4.451443990518192
 40
4.451443990518192
 10
-23.49299428403718
 20
-11.54361125950673
 30
0.0
 10
-19.95207292794312
 20
-11.54361125950673
 30
0.0
 10
-16.49854471567129
 20
-10.98917103561861
 30
0.0
 10
-13.10532339744332
 20
-10.05213137230868
 30
0.0
  0
SPLINE
  5
1B93
330
1F
100
AcDbEntity
  8
AM_0
100
AcDbSpline
210
0.0
220
0.0
230
1.0
 70
     8
 71
     3
 72
     8
 73
     4
 74
     0
 42
0.0000000001
 43
0.0000000001
 40
0.0
 40
0.0
 40
0.0
 40
0.0
 40
2.130230809022907
 40
2.130230809022907
 40
2.130230809022907
 40
2.130230809022907
 10
-32.45454545454637
 20
-12.50000000000002
 30
0.0
 10
-30.76004367464175
 20
-12.50000000000002
 30
0.0
 10
-29.08849342826503
 20
-12.36491821955043
 30
0.0
 10
-27.43652052111125
 20
-12.11461355713142
 30
0.0
  0
SPLINE
  5
1B94
330
1F
100
AcDbEntity
  8
AM_0
100
AcDbSpline
210
0.0
220
0.0
230
1.0
 70
     8
 71
     3
 72
     8
 73
     4
 74
     0
 42
0.0000000001
 43
0.0000000001
 40
0.0
 40
0.0
 40
0.0
 40
0.0
 40
2.764560748519282
 40
2.764560748519282
 40
2.764560748519282
 40
2.764560748519282
 10
-28.28926995205923
 20
-12.12570917583848
 30
0.0
 10
-26.09018753846438
 20
-12.12570917583848
 30
0.0
 10
-23.92780419301927
 20
-11.90345287127515
 30
0.0
 10
-21.79509334364912
 20
-11.50149447460778
 30
0.0
  0
SPLINE
  5
1B95
330
1F
100
AcDbEntity
  8
AM_0
100
AcDbSpline
210
0.0
220
0.0
230
1.0
 70
     8
 71
     3
 72
     8
 73
     4
 74
     0
 42
0.0000000001
 43
0.0000000001
 40
0.0
 40
0.0
 40
0.0
 40
0.0
 40
14.48999654934395
 40
14.48999654934395
 40
14.48999654934395
 40
14.48999654934395
 10
-0.0000000000004663
 20
-12.5
 30
0.0
 10
-11.52613361879678
 20
-12.50000000000002
 30
0.0
 10
-21.99033953667135
 20
-6.250000000000022
 30
0.0
 10
-32.4545454545459
 20
-0.0000000000000222
 30
0.0
  0
SPLINE
  5
1B96
330
1F
100
AcDbEntity
  8
AM_0
100
AcDbSpline
210
0.0
220
0.0
230
1.0
 70
     8
 71
     3
 72
     8
 73
     4
 74
     0
 42
0.0000000001
 43
0.0000000001
 40
4.542668862435135
 40
4.542668862435135
 40
4.542668862435135
 40
4.542668862435135
 40
14.36247867694493
 40
14.36247867694493
 40
14.36247867694493
 40
14.36247867694493
 10
-1.634659090906237
 20
-9.99404163864156
 30
0.0
 10
-9.114620065223919
 20
-7.892514216432145
 30
0.0
 10
-16.30380717463031
 20
-3.946257108216022
 30
0.0
 10
-23.4929942840367
 20
0.0000000000001221
 30
0.0
  0
SPLINE
  5
1B97
330
1F
100
AcDbEntity
  8
AM_0
100
AcDbSpline
210
0.0
220
0.0
230
1.0
 70
     8
 71
     3
 72
     8
 73
     4
 74
     0
 42
0.0000000001
 43
0.0000000001
 40
1.870660592686466
 40
1.870660592686466
 40
1.870660592686466
 40
1.870660592686466
 40
14.43901837670146
 40
14.43901837670146
 40
14.43901837670146
 40
14.43901837670146
 10
-0.2505681818186227
 20
-11.83360289405442
 30
0.0
 10
-10.03696095634196
 20
-10.55475153025369
 30
0.0
 10
-19.1631154542004
 20
-5.27737576512679
 30
0.0
 10
-28.28926995205883
 20
0.0000000000001221
 30
0.0
  0
LINE
  5
1B98
330
1F
100
AcDbEntity
  8
AM_0
100
AcDbLine
 10
-0.2505681818186227
 20
-11.83360289405456
 30
0.0
 11
-0.2505681818186227
 21
-3.317244636407967
 31
0.0
  0
LINE
  5
1B99
330
1F
100
AcDbEntity
  8
AM_0
100
AcDbLine
 10
-0.0000000000004663
 20
-12.5
 30
0.0
 11
-0.0000000000004663
 21
-2.500000000000002
 31
0.0
  0
ELLIPSE
  5
1B9A
330
1F
100
AcDbEntity
  8
AM_0
100
AcDbEllipse
 10
4.738538275291729
 20
-6.359700411794744
 30
0.0
 11
-0.000000000000017
 21
7.60174528879011
 31
0.0
210
0.0
220
0.0
230
1.0
 40
0.9545454545454564
 41
1.21112458130382
 42
2.069278538290317
  0
LINE
  5
1B9B
330
1F
100
AcDbEntity
  8
AM_0
100
AcDbLine
 10
-50.00000000000077
 20
9.314110339681063
 30
0.0
 11
-50.62857534828445
 21
10.45467880022771
 31
0.0
  0
LINE
  5
1B9C
330
1F
100
AcDbEntity
  8
AM_0
100
AcDbLine
 10
-51.73711602921148
 20
-4.631060190801742
 30
0.0
 11
-50.00000000000063
 21
-7.438745106940103
 31
0.0
  0
LINE
  5
1B9D
330
1F
100
AcDbEntity
  8
AM_0
100
AcDbLine
 10
-50.00000000000044
 20
-2.329944213870727
 30
0.0
 11
-51.73711602921148
 21
-4.631060190801742
 31
0.0
  0
ELLIPSE
  5
1BAD
330
1F
100
AcDbEntity
  8
AM_0
100
AcDbEllipse
 10
-62.38438267052315
 20
10.87383310434506
 30
0.0
 11
-0.0000000000014461
 21
23.8622988686049
 31
0.0
210
0.0
220
0.0
230
1.0
 40
0.9545454545454362
 41
3.344276696915802
 42
3.427250019213385
  0
POLYLINE
  5
1BAE
330
1F
100
AcDbEntity
  8
AM_0
100
AcDb2dPolyline
 66
     1
 10
0.0
 20
0.0
 30
0.0
 70
     2
  0
VERTEX
  5
1BAF
330
1BAE
100
AcDbEntity
  8
AM_0
100
AcDbVertex
100
AcDb2dVertex
 10
-55.96590909090971
 20
-12.02148480912736
 30
0.0
 42
-0.0230918143391583
  0
VERTEX
  5
1BB0
330
1BAE
100
AcDbEntity
  8
AM_0
100
AcDbVertex
100
AcDb2dVertex
 10
-57.34169007401778
 20
-11.65621695014845
 30
0.0
 42
-0.0355587143075394
 70
     1
  0
VERTEX
  5
1BB1
330
1BAE
100
AcDbEntity
  8
AM_0
100
AcDbVertex
100
AcDb2dVertex
 10
-58.20312500000061
 20
-11.31088505916988
 30
0.0
 42
-0.0216088548285507
  0
VERTEX
  5
1BB2
330
1BAE
100
AcDbEntity
  8
AM_0
100
AcDbVertex
100
AcDb2dVertex
 10
-60.21297825905666
 20
-10.21533341648446
 30
0.0
 42
-0.0414110700152503
 70
     1
  0
VERTEX
  5
1BB3
330
1BAE
100
AcDbEntity
  8
AM_0
100
AcDbVertex
100
AcDb2dVertex
 10
-61.18607954545517
 20
-9.509255103122216
 30
0.0
 42
-0.0653031023268945
  0
VERTEX
  5
1BB4
330
1BAE
100
AcDbEntity
  8
AM_0
100
AcDbVertex
100
AcDb2dVertex
 10
-61.81291835331134
 20
-8.806956254310559
 30
0.0
 42
-0.1569363594221426
 70
     1
  0
VERTEX
  5
1BB5
330
1BAE
100
AcDbEntity
  8
AM_0
100
AcDbVertex
100
AcDb2dVertex
 10
-61.9318181818188
 20
-8.418224897031944
 30
0.0
 42
-0.1617045000652558
  0
VERTEX
  5
1BB6
330
1BAE
100
AcDbEntity
  8
AM_0
100
AcDbVertex
100
AcDb2dVertex
 10
-61.81086455295015
 20
-8.038239623483288
 30
0.0
 42
-0.0680210806811403
 70
     1
  0
VERTEX
  5
1BB7
330
1BAE
100
AcDbEntity
  8
AM_0
100
AcDbVertex
100
AcDb2dVertex
 10
-61.18607954545517
 20
-7.374396344969335
 30
0.0
 42
-0.0450747416233525
  0
VERTEX
  5
1BB8
330
1BAE
100
AcDbEntity
  8
AM_0
100
AcDbVertex
100
AcDb2dVertex
 10
-60.22213776747491
 20
-6.732042966466133
 30
0.0
 42
-0.0231467319857815
 70
     1
  0
VERTEX
  5
1BB9
330
1BAE
100
AcDbEntity
  8
AM_0
100
AcDbVertex
100
AcDb2dVertex
 10
-58.20312500000061
 20
-5.76157300503266
 30
0.0
 42
-0.0364444523572374
  0
VERTEX
  5
1BBA
330
1BAE
100
AcDbEntity
  8
AM_0
100
AcDbVertex
100
AcDb2dVertex
 10
-57.32627664855662
 20
-5.466285553572558
 30
0.0
 42
-0.0242139410122645
 70
     1
  0
VERTEX
  5
1BBB
330
1BAE
100
AcDbEntity
  8
AM_0
100
AcDbVertex
100
AcDb2dVertex
 10
-55.96590909090971
 20
-5.192578217158372
 30
0.0
  0
SEQEND
  5
1BBC
330
1BAE
100
AcDbEntity
  8
AM_0
  0
SPLINE
  5
1BBE
330
1F
100
AcDbEntity
  8
AM_0
100
AcDbSpline
210
0.0
220
0.0
230
1.0
 70
     8
 71
     3
 72
     8
 73
     4
 74
     0
 42
0.0000000001
 43
0.0000000001
 40
0.0
 40
0.0
 40
0.0
 40
0.0
 40
10.67755528242136
 40
10.67755528242136
 40
10.67755528242136
 40
10.67755528242136
 10
-28.28926995205923
 20
-12.12570917583819
 30
0.0
 10
-36.78277983580352
 20
-12.12570917583819
 30
0.0
 10
-44.72883725017972
 20
-8.810236361399542
 30
0.0
 10
-51.73711602921146
 20
-4.631060190801746
 30
0.0
  0
SPLINE
  5
1BBF
330
1F
100
AcDbEntity
  8
AM_0
100
AcDbSpline
210
0.0
220
0.0
230
1.0
 70
     8
 71
     3
 72
     8
 73
     4
 74
     0
 42
0.0000000001
 43
0.0000000001
 40
0.0
 40
0.0
 40
0.0
 40
0.0
 40
12.79333816032526
 40
12.79333816032526
 40
12.79333816032526
 40
12.79333816032526
 10
-23.49299428403718
 20
-11.54361125950644
 30
0.0
 10
-33.66951327520501
 20
-11.54361125950644
 30
0.0
 10
-43.12418835920481
 20
-6.964083850391378
 30
0.0
 10
-50.0000000000005
 20
-2.329944213870791
 30
0.0
  0
SPLINE
  5
1BC0
330
1F
100
AcDbEntity
  8
AM_0
100
AcDbSpline
210
0.0
220
0.0
230
1.0
 70
     8
 71
     3
 72
     8
 73
     4
 74
     0
 42
0.0000000001
 43
0.0000000001
 40
0.0
 40
0.0
 40
0.0
 40
0.0
 40
4.451443990518192
 40
4.451443990518192
 40
4.451443990518192
 40
4.451443990518192
 10
-55.96590909090974
 20
-12.02148480912736
 30
0.0
 10
-49.90661838248873
 20
-11.98932506678116
 30
0.0
 10
-46.4530901702169
 20
-11.43488484289303
 30
0.0
 10
-43.25925925878981
 20
-10.55244149099191
 30
0.0
  0
SPLINE
  5
1BC1
330
1F
100
AcDbEntity
  8
AM_0
100
AcDbSpline
210
0.0
220
0.0
230
1.0
 70
     8
 71
     3
 72
     8
 73
     4
 74
     0
 42
0.0000000001
 43
0.0000000001
 40
0.0
 40
0.0
 40
0.0
 40
0.0
 40
9.068166399416787
 40
9.068166399416787
 40
9.068166399416787
 40
9.068166399416787
 10
-32.45454545454637
 20
-12.49999999999973
 30
0.0
 10
-39.66785963590064
 20
-12.49999999999975
 30
0.0
 10
-45.14217094696824
 20
-10.05216345233851
 30
0.0
 10
-50.00000000000117
 20
-7.438745106939856
 30
0.0
  0
LINE
  5
1BC2
330
1F
100
AcDbEntity
  8
AM_11
100
AcDbLine
 10
-50.00000000000049
 20
-12.50000000000004
 30
0.0
 11
-0.0000000000004663
 21
-12.5
 31
0.0
  0
SPLINE
  5
1BC3
330
1F
100
AcDbEntity
  8
AM_0
100
AcDbSpline
210
0.0
220
0.0
230
1.0
 70
     8
 71
     3
 72
     8
 73
     4
 74
     0
 42
0.0000000001
 43
0.0000000001
 40
0.3581103616548037
 40
0.3581103616548037
 40
0.3581103616548037
 40
0.3581103616548037
 40
14.43901837670146
 40
14.43901837670146
 40
14.43901837670146
 40
14.43901837670146
 10
-60.5282335616339
 20
12.49999999999994
 30
0.0
 10
-48.73816935861242
 20
11.82497252013302
 30
0.0
 10
-38.5137196553356
 20
5.912486260066563
 30
0.0
 10
-28.28926995205883
 20
0.0000000000001221
 30
0.0
  0
SPLINE
  5
1BC4
330
1F
100
AcDbEntity
  8
AM_0
100
AcDbSpline
210
0.0
220
0.0
230
1.0
 70
     8
 71
     3
 72
     8
 73
     4
 74
     0
 42
0.0000000001
 43
0.0000000001
 40
1.090140354492627
 40
1.090140354492627
 40
1.090140354492627
 40
1.090140354492627
 40
14.36247867694493
 40
14.36247867694493
 40
14.36247867694493
 40
14.36247867694493
 10
-53.36139456078232
 20
11.44637915952625
 30
0.0
 10
-42.92663411654467
 20
10.66742848119826
 30
0.0
 10
-33.20981420029073
 20
5.333714240599207
 30
0.0
 10
-23.4929942840367
 20
0.0000000000001221
 30
0.0
  0
SPLINE
  5
1BC5
330
1F
100
AcDbEntity
  8
AM_0
100
AcDbSpline
210
0.0
220
0.0
230
1.0
 70
     8
 71
     3
 72
     8
 73
     4
 74
     0
 42
0.0000000001
 43
0.0000000001
 40
6.474453511960974
 40
6.474453511960974
 40
6.474453511960974
 40
6.474453511960974
 40
14.48999654934396
 40
14.48999654934396
 40
14.48999654934396
 40
14.48999654934396
 10
-50.00000000000081
 20
9.314110339679871
 30
0.0
 10
-44.03167628423668
 20
6.914721313155027
 30
0.0
 10
-38.24311086939129
 20
3.457360656577643
 30
0.0
 10
-32.4545454545459
 20
0.0000000000002665
 30
0.0
  0
ELLIPSE
  5
1BC6
330
1F
100
AcDbEntity
  8
AM_0
100
AcDbEllipse
 10
-62.36627880792569
 20
-33.66822969714616
 30
0.0
 11
0.0000000000030774
 21
29.25443134587922
 31
0.0
210
0.0
220
0.0
230
1.0
 40
0.9545454545454452
 41
-0.4587681791448471
 42
-0.2312569029270142
  0
LINE
  5
1BC7
330
1F
100
AcDbEntity
  8
AM_11
100
AcDbLine
 10
-0.0000000000023128
 20
12.5
 30
0.0
 11
-50.0000000000005
 21
12.49999999999995
 31
0.0
  0
LINE
  5
1BDA
330
1F
100
AcDbEntity
  8
AM_11
100
AcDbLine
 10
-50.0000000000005
 20
12.49999999999996
 30
0.0
 11
-50.00000000000049
 21
-12.50000000000002
 31
0.0
  0
POLYLINE
  5
1BE6
330
1F
100
AcDbEntity
  8
AM_0
100
AcDb2dPolyline
 66
     1
 10
0.0
 20
0.0
 30
0.0
  0
VERTEX
  5
1BE7
330
1BE6
100
AcDbEntity
  8
AM_0
100
AcDbVertex
100
AcDb2dVertex
 10
-50.00000000000077
 20
9.314110339681063
 30
0.0
 42
0.0080157674607026
  0
VERTEX
  5
1BE8
330
1BE6
100
AcDbEntity
  8
AM_0
100
AcDbVertex
100
AcDb2dVertex
 10
-52.51817890098092
 20
9.784579122357143
 30
0.0
 42
0.0187918863228812
  0
VERTEX
  5
1BE9
330
1BE6
100
AcDbEntity
  8
AM_0
100
AcDbVertex
100
AcDb2dVertex
 10
-54.21077903473705
 20
9.941645862918385
 30
0.0
 42
0.0075788461628208
  0
VERTEX
  5
1BEA
330
1BE6
100
AcDbEntity
  8
AM_0
100
AcDbVertex
100
AcDb2dVertex
 10
-58.71024898626432
 20
10.10957653002301
 30
0.0
 42
0.0232722457202398
  0
VERTEX
  5
1BEB
330
1BE6
100
AcDbEntity
  8
AM_0
100
AcDbVertex
100
AcDb2dVertex
 10
-60.17668812564615
 20
10.06949738064642
 30
0.0
 42
0.0542958387243925
  0
VERTEX
  5
1BEC
330
1BE6
100
AcDbEntity
  8
AM_0
100
AcDbVertex
100
AcDb2dVertex
 10
-61.57739469688952
 20
9.800800122888457
 30
0.0
 42
0.4413285869607302
  0
VERTEX
  5
1BED
330
1BE6
100
AcDbEntity
  8
AM_0
100
AcDbVertex
100
AcDb2dVertex
 10
-61.6681653983734
 20
9.603926515831433
 30
0.0
 42
0.0678159998049314
  0
VERTEX
  5
1BEE
330
1BE6
100
AcDbEntity
  8
AM_0
100
AcDbVertex
100
AcDb2dVertex
 10
-61.55641441886005
 20
9.397878981280111
 30
0.0
 42
0.006836731909696
  0
VERTEX
  5
1BEF
330
1BE6
100
AcDbEntity
  8
AM_0
100
AcDbVertex
100
AcDb2dVertex
 10
-60.17668812564615
 20
7.557576428311223
 30
0.0
 42
0.0072764221784082
  0
VERTEX
  5
1BF0
330
1BE6
100
AcDbEntity
  8
AM_0
100
AcDbVertex
100
AcDb2dVertex
 10
-58.36060652633102
 20
5.38381856142964
 30
0.0
 42
0.0040253861954876
  0
VERTEX
  5
1BF1
330
1BE6
100
AcDbEntity
  8
AM_0
100
AcDbVertex
100
AcDb2dVertex
 10
-55.10772198575972
 20
1.435929858751117
 30
0.0
 42
0.0594163782683759
  0
VERTEX
  5
1BF2
330
1BE6
100
AcDbEntity
  8
AM_0
100
AcDbVertex
100
AcDb2dVertex
 10
-53.63706427553224
 20
0.0517212208740348
 30
0.0
 42
0.0273113651513278
  0
VERTEX
  5
1BF3
330
1BE6
100
AcDbEntity
  8
AM_0
100
AcDbVertex
100
AcDb2dVertex
 10
-50.00000000000044
 20
-2.329944213870727
 30
0.0
  0
SEQEND
  5
1BF4
330
1BE6
100
AcDbEntity
  8
AM_0
  0
LINE
  5
1C3B
330
1F
100
AcDbEntity
  8
AM_0
100
AcDbLine
 10
-57.79926123151953
 20
-12.49999999999991
 30
0.0
 11
-119.0
 21
-12.50000000000004
 31
0.0
  0
LINE
  5
1C3C
330
1F
100
AcDbEntity
  8
AM_0
100
AcDbLine
 10
-60.52823356163402
 20
12.49999999999995
 30
0.0
 11
-119.0
 21
12.49999999999996
 31
0.0
  0
LINE
  5
1C3F
330
1F
100
AcDbEntity
  8
AM_0
100
AcDbLine
 10
-120.0
 20
-11.50000000000004
 30
0.0
 11
-120.0
 21
11.49999999999996
 31
0.0
  0
LINE
  5
1C40
330
1F
100
AcDbEntity
  8
AM_0
100
AcDbLine
 10
-119.0
 20
-12.50000000000003
 30
0.0
 11
-119.0
 21
12.49999999999996
 31
0.0
  0
DIMENSION
  5
1C41
330
1F
100
AcDbEntity
  8
AM_5
100
AcDbDimension
  2
*D8
 10
-138.7934979049683
 20
-12.50000000000003
 30
0.0
 11
-141.8934979049683
 21
-0.0000000000000551
 31
0.0
 70
    32
  1
%%c<>
  3
AM_JIS
100
AcDbAlignedDimension
 13
-119.0
 23
12.49999999999996
 33
0.0
 14
-119.0
 24
-12.50000000000003
 34
0.0
 50
270.0
100
AcDbRotatedDimension
1001
GENIUS_GENDTOL_13
1000

1000
h7
1000

1040
0.0
  0
LINE
  5
1C59
330
1F
100
AcDbEntity
  8
AM_0
100
AcDbLine
 10
-120.0
 20
11.49999999999996
 30
0.0
 11
-119.0
 21
12.49999999999996
 31
0.0
1001
GENIUS_GENFIL_13
1070
     0
1040
1.0
1040
1.0
1040
20.0
1040
0.0
1002
{
1002
}
1001
GENIUS_GENODEF_13
1002
{
1000
HIER
1070
     0
1002
}
1002
{
1000
MANEDIT
1070
     0
1002
}
1002
{
1000
NOSEL
1070
     0
1002
}
1002
{
1000
BEHIND
1070
     0
1002
}
1002
{
1000
REACTOR
1002
}
1001
GENIUS_GENOBJ-N-CHA_13
1002
{
1000
OWNER
1000
GEN
1002
}
  0
LINE
  5
1C5C
330
1F
100
AcDbEntity
  8
AM_0
100
AcDbLine
 10
-120.0
 20
-11.50000000000004
 30
0.0
 11
-119.0
 21
-12.50000000000004
 31
0.0
1001
GENIUS_GENFIL_13
1070
     0
1040
1.0
1040
1.0
1040
20.0
1040
0.0
1002
{
1002
}
1001
GENIUS_GENODEF_13
1002
{
1000
HIER
1070
     0
1002
}
1002
{
1000
MANEDIT
1070
     0
1002
}
1002
{
1000
NOSEL
1070
     0
1002
}
1002
{
1000
BEHIND
1070
     0
1002
}
1002
{
1000
REACTOR
1002
}
1001
GENIUS_GENOBJ-N-CHA_13
1002
{
1000
OWNER
1000
GEN
1002
}
  0
LINE
  5
1D25
330
1F
100
AcDbEntity
  8
AM_0
100
AcDbLine
 10
-0.0000000000043836
 20
-0.0000000000162014
 30
0.0
 11
-5.891430577559098
 21
-0.0000000000162014
 31
0.0
  0
LINE
  5
1D26
330
1F
100
AcDbEntity
  8
AM_0
100
AcDbLine
 10
-5.891430577559098
 20
-2.00000000001623
 30
0.0
 11
-0.2886751345991949
 21
-2.00000000001623
 31
0.0
  0
LINE
  5
1D27
330
1F
100
AcDbEntity
  8
AM_0
100
AcDbLine
 10
-0.0000000000043836
 20
-2.500000000016201
 30
0.0
 11
-1.443375672978511
 21
-0.0000000000160593
 31
0.0
  0
LINE
  5
1D29
330
1F
100
AcDbEntity
  8
AM_0
100
AcDbLine
 10
-5.891430577559098
 20
-0.0000000000162014
 30
0.0
 11
-5.891430577559098
 21
-2.00000000001623
 31
0.0
  0
LINE
  5
1D2A
330
1F
100
AcDbEntity
  8
AM_0
100
AcDbLine
 10
-5.891430577559098
 20
-2.00000000001623
 30
0.0
 11
-2.053365647672598
 21
-3.684136912916381
 31
0.0
  0
LINE
  5
1D2B
330
1F
100
AcDbEntity
  8
AM_0
100
AcDbLine
 10
-0.0000000000043836
 20
-0.0000000000162014
 30
0.0
 11
-0.2221065228643009
 21
-2.115300217730579
 31
0.0
  0
LINE
  5
1D2C
330
1F
100
AcDbEntity
  8
AM_0
100
AcDbLine
 10
-0.2505681818186227
 20
-3.317244636407967
 30
0.0
 11
-0.0000000000043836
 21
-2.500000000016201
 31
0.0
  0
VIEWPORT
  5
110
330
101
100
AcDbEntity
 67
     1
  8
0
100
AcDbViewport
 10
420.5
 20
297.0
 30
0.0
 40
948.9782706766916
 41
628.452
 68
     1
 69
     1
1001
ACAD
1000
MVIEW
1002
{
1070
    16
1010
0.0
1020
0.0
1030
0.0
1010
0.0
1020
0.0
1030
1.0
1040
0.0
1040
628.452
1040
420.5
1040
297.0
1040
50.0
1040
0.0
1040
0.0
1070
     0
1070
   100
1070
     1
1070
     1
1070
     0
1070
     0
1070
     0
1070
     0
1040
0.0
1040
0.0
1040
0.0
1040
10.0
1040
10.0
1040
10.0
1040
10.0
1070
     0
1002
{
1002
}
1002
}
  0
ENDSEC
  0
SECTION
  2
OBJECTS
  0
DICTIONARY
  5
C
330
0
100
AcDbDictionary
  3
ACAD_GROUP
350
D
  3
ACAD_LAYOUT
350
1A
  3
ACAD_MLINESTYLE
350
17
  3
ACAD_PLOTSETTINGS
350
19
  3
ACAD_PLOTSTYLENAME
350
E
  3
ACDBVARIABLEDICTIONARY
350
34
  3
ACMDICTIONARY
350
43
  3
AMG
350
2B
  3
AMGSNAPSETTINGS
350
6E
  3
DWGPROPS
350
1D72
  3
ACDBHEADERROUNDTRIPXREC
350
1D7E
  0
DICTIONARY
  5
74
330
1F
100
AcDbDictionary
280
     1
  3
ACAD_INDEX
360
1D74
  3
ACAD_LAYOUTSELFREF
360
1DA1
  0
DICTIONARY
  5
1DA6
330
101
100
AcDbDictionary
280
     1
  3
ACAD_LAYOUTSELFREF
360
1DA7
  0
DICTIONARY
  5
D
102
{ACAD_REACTORS
330
C
102
}
330
C
100
AcDbDictionary
  0
DICTIONARY
  5
1A
102
{ACAD_REACTORS
330
C
102
}
330
C
100
AcDbDictionary
  0
DICTIONARY
  5
17
102
{ACAD_REACTORS
330
C
102
}
330
C
100
AcDbDictionary
  3
STANDARD
350
18
  0
DICTIONARY
  5
19
102
{ACAD_REACTORS
330
C
102
}
330
C
100
AcDbDictionary
  0
ACDBDICTIONARYWDFLT
  5
E
102
{ACAD_REACTORS
330
C
102
}
330
C
100
AcDbDictionary
281
     1
  3
Normal
350
F
100
AcDbDictionaryWithDefault
340
F
  0
DICTIONARY
  5
34
102
{ACAD_REACTORS
330
C
102
}
330
C
100
AcDbDictionary
  3
INDEXCTL
350
35
  3
SORTENTS
350
B5E
  0
DICTIONARY
  5
43
102
{ACAD_REACTORS
330
C
102
}
330
C
100
AcDbDictionary
  3
ACMSTDDICTIONARY
350
260
  0
DICTIONARY
  5
2B
102
{ACAD_REACTORS
330
C
102
}
330
C
100
AcDbDictionary
  3
ACMGSETTINGS
350
2C
  0
DICTIONARY
  5
6E
102
{ACAD_REACTORS
330
C
102
}
330
C
100
AcDbDictionary
  0
XRECORD
  5
1D72
102
{ACAD_REACTORS
330
C
102
}
330
C
100
AcDbXrecord
  1
DWGPROPS COOKIE
  2

  3

  4

  6

  7

  8

  9

300
AmdtFileType=82
301
=
302
=
303
=
304
=
305
=
306
=
307
=
308
=
309
=
 40
0.054517337962963
 41
2452836.771637361
 42
2452901.599961828
  1

 90
        1
  0
DICTIONARY
  5
1D7E
102
{ACAD_REACTORS
330
C
102
}
330
C
100
AcDbDictionary
  3
TSTACKALIGN
350
1D7F
  3
TSTACKSIZE
350
1D80
  3
HYPERLINKBASE
350
1D81
  3
STYLESHEET
350
1D82
  3
LAYOUTDICT
350
1D83
  3
PLOTSETDICT
350
1D84
  3
PLOTSTYLNAMDICT
350
1D85
  3
LWETCUNION
350
1D86
  3
INSUNITS
350
1D87
  3
CEPSNTYPE
350
1D88
  3
FINGERPRINTGUID
350
1D89
  3
VERSIONGUID
350
1D8A
  3
PSVPSCALE
350
1D8B
  3
DIMSTYLEDATA
350
1D8C
  3
PUCSORTHOREF
350
1D8D
  3
PUCSORTHOVIEW
350
1D8E
  3
PUCSBASE
350
1D8F
  3
PUCSORGTOP
350
1D90
  3
PUCSORGBOTTOM
350
1D91
  3
PUCSORGLEFT
350
1D92
  3
PUCSORGRIGHT
350
1D93
  3
PUCSORGFRONT
350
1D94
  3
PUCSORGBACK
350
1D95
  3
UCSORTHOREF
350
1D96
  3
UCSORTHOVIEW
350
1D97
  3
UCSBASE
350
1D98
  3
UCSORGTOP
350
1D99
  3
UCSORGBOTTOM
350
1D9A
  3
UCSORGLEFT
350
1D9B
  3
UCSORGRIGHT
350
1D9C
  3
UCSORGFRONT
350
1D9D
  3
UCSORGBACK
350
1D9E
  0
DICTIONARY
  5
1D74
102
{ACAD_REACTORS
330
74
102
}
330
74
100
AcDbDictionary
  3
*A1
350
1D75
  0
XRECORD
  5
1DA1
102
{ACAD_REACTORS
330
74
102
}
330
74
100
AcDbXrecord
340
1F
  0
XRECORD
  5
1DA7
102
{ACAD_REACTORS
330
1DA6
102
}
330
1DA6
100
AcDbXrecord
340
101
  0
MLINESTYLE
  5
18
102
{ACAD_REACTORS
330
17
102
}
330
17
100
AcDbMlineStyle
  2
STANDARD
 70
     0
  3

 62
   256
 51
90.0
 52
90.0
 71
     2
 49
0.5
 62
   256
  6
BYLAYER
 49
-0.5
 62
   256
  6
BYLAYER
  0
ACDBPLACEHOLDER
  5
F
102
{ACAD_REACTORS
330
E
102
}
330
E
100
AcDbPlaceHolder
280
     0
  0
DICTIONARYVAR
  5
35
102
{ACAD_REACTORS
330
34
102
}
330
34
100
DictionaryVariables
280
     0
  1
1
  0
DICTIONARYVAR
  5
B5E
102
{ACAD_REACTORS
330
34
102
}
330
34
100
DictionaryVariables
280
     0
  1
96
  0
DICTIONARY
  5
260
102
{ACAD_REACTORS
330
43
102
}
330
43
100
AcDbDictionary
  0
DICTIONARY
  5
2C
102
{ACAD_REACTORS
330
2B
102
}
330
2B
100
AcDbDictionary
  3
DWGSETTINGS
350
2D
  0
XRECORD
  5
1D7F
102
{ACAD_REACTORS
330
1D7E
102
}
330
1D7E
100
AcDbXrecord
 90
        1
  0
XRECORD
  5
1D80
102
{ACAD_REACTORS
330
1D7E
102
}
330
1D7E
100
AcDbXrecord
 90
       70
  0
XRECORD
  5
1D81
102
{ACAD_REACTORS
330
1D7E
102
}
330
1D7E
100
AcDbXrecord
  1

  0
XRECORD
  5
1D82
102
{ACAD_REACTORS
330
1D7E
102
}
330
1D7E
100
AcDbXrecord
  1
ASAMI.ctb
  0
XRECORD
  5
1D83
102
{ACAD_REACTORS
330
1D7E
102
}
330
1D7E
100
AcDbXrecord
340
1A
  0
XRECORD
  5
1D84
102
{ACAD_REACTORS
330
1D7E
102
}
330
1D7E
100
AcDbXrecord
340
19
  0
XRECORD
  5
1D85
102
{ACAD_REACTORS
330
1D7E
102
}
330
1D7E
100
AcDbXrecord
340
E
  0
XRECORD
  5
1D86
102
{ACAD_REACTORS
330
1D7E
102
}
330
1D7E
100
AcDbXrecord
 90
    10781
  0
XRECORD
  5
1D87
102
{ACAD_REACTORS
330
1D7E
102
}
330
1D7E
100
AcDbXrecord
 90
        4
  0
XRECORD
  5
1D88
102
{ACAD_REACTORS
330
1D7E
102
}
330
1D7E
100
AcDbXrecord
 90
        0
  0
XRECORD
  5
1D89
102
{ACAD_REACTORS
330
1D7E
102
}
330
1D7E
100
AcDbXrecord
  1
{AFB28963-8C59-40AE-9337-C84526B81ACE}
  0
XRECORD
  5
1D8A
102
{ACAD_REACTORS
330
1D7E
102
}
330
1D7E
100
AcDbXrecord
  1
{24697F5C-A941-40AC-AFA5-9A85AD77DB4D}
  0
XRECORD
  5
1D8B
102
{ACAD_REACTORS
330
1D7E
102
}
330
1D7E
100
AcDbXrecord
 40
0.0
  0
XRECORD
  5
1D8C
102
{ACAD_REACTORS
330
1D7E
102
}
330
1D7E
100
AcDbXrecord
1000
DSTYLE
1002
{
1070
    79
 70
     2
1070
   341
340
59
1070
   342
340
59
1070
   371
 70
    -1
1070
   372
 70
    -1
1002
}
  0
XRECORD
  5
1D8D
102
{ACAD_REACTORS
330
1D7E
102
}
330
1D7E
100
AcDbXrecord
340
0
  0
XRECORD
  5
1D8E
102
{ACAD_REACTORS
330
1D7E
102
}
330
1D7E
100
AcDbXrecord
 70
     0
  0
XRECORD
  5
1D8F
102
{ACAD_REACTORS
330
1D7E
102
}
330
1D7E
100
AcDbXrecord
340
0
  0
XRECORD
  5
1D90
102
{ACAD_REACTORS
330
1D7E
102
}
330
1D7E
100
AcDbXrecord
 10
0.0
 20
0.0
 30
0.0
  0
XRECORD
  5
1D91
102
{ACAD_REACTORS
330
1D7E
102
}
330
1D7E
100
AcDbXrecord
 10
0.0
 20
0.0
 30
0.0
  0
XRECORD
  5
1D92
102
{ACAD_REACTORS
330
1D7E
102
}
330
1D7E
100
AcDbXrecord
 10
0.0
 20
0.0
 30
0.0
  0
XRECORD
  5
1D93
102
{ACAD_REACTORS
330
1D7E
102
}
330
1D7E
100
AcDbXrecord
 10
0.0
 20
0.0
 30
0.0
  0
XRECORD
  5
1D94
102
{ACAD_REACTORS
330
1D7E
102
}
330
1D7E
100
AcDbXrecord
 10
0.0
 20
0.0
 30
0.0
  0
XRECORD
  5
1D95
102
{ACAD_REACTORS
330
1D7E
102
}
330
1D7E
100
AcDbXrecord
 10
0.0
 20
0.0
 30
0.0
  0
XRECORD
  5
1D96
102
{ACAD_REACTORS
330
1D7E
102
}
330
1D7E
100
AcDbXrecord
340
0
  0
XRECORD
  5
1D97
102
{ACAD_REACTORS
330
1D7E
102
}
330
1D7E
100
AcDbXrecord
 70
     0
  0
XRECORD
  5
1D98
102
{ACAD_REACTORS
330
1D7E
102
}
330
1D7E
100
AcDbXrecord
340
0
  0
XRECORD
  5
1D99
102
{ACAD_REACTORS
330
1D7E
102
}
330
1D7E
100
AcDbXrecord
 10
0.0
 20
0.0
 30
0.0
  0
XRECORD
  5
1D9A
102
{ACAD_REACTORS
330
1D7E
102
}
330
1D7E
100
AcDbXrecord
 10
0.0
 20
0.0
 30
0.0
  0
XRECORD
  5
1D9B
102
{ACAD_REACTORS
330
1D7E
102
}
330
1D7E
100
AcDbXrecord
 10
0.0
 20
0.0
 30
0.0
  0
XRECORD
  5
1D9C
102
{ACAD_REACTORS
330
1D7E
102
}
330
1D7E
100
AcDbXrecord
 10
0.0
 20
0.0
 30
0.0
  0
XRECORD
  5
1D9D
102
{ACAD_REACTORS
330
1D7E
102
}
330
1D7E
100
AcDbXrecord
 10
0.0
 20
0.0
 30
0.0
  0
XRECORD
  5
1D9E
102
{ACAD_REACTORS
330
1D7E
102
}
330
1D7E
100
AcDbXrecord
 10
0.0
 20
0.0
 30
0.0
  0
LAYER_INDEX
  5
1D75
102
{ACAD_REACTORS
330
1D74
102
}
330
1D74
100
AcDbIndex
 40
2453151.793892708
100
AcDbLayerIndex
  8
0
360
1D76
 90
        0
  8
AM_0
360
1D77
 90
       49
  8
AM_11
360
1D78
 90
        3
  8
AM_7
360
1D79
 90
        1
  8
AM_5
360
1D7A
 90
        4
  8
Defpoints
360
1D7B
 90
        0
  8
AM_6
360
1D7C
 90
        1
  0
XRECORD
  5
2D
102
{ACAD_REACTORS
330
2C
102
}
330
2C
100
AcDbXrecord
  1
VERSION
140
15.0
  1
PRODUCT
  2
AutoCAD Mechanical 2000
  0
IDBUFFER
  5
1D76
330
0
100
AcDbIdBuffer
  0
IDBUFFER
  5
1D77
330
0
100
AcDbIdBuffer
330
1D2C
330
1B84
330
1B85
330
1B86
330
1B88
330
1B89
330
1B8A
330
1B8B
330
1B8C
330
1B8D
330
1B8E
330
1B8F
330
1B90
330
1B91
330
1B92
330
1B93
330
1B94
330
1B95
330
1B96
330
1B97
330
1B98
330
1B99
330
1B9A
330
1B9B
330
1B9C
330
1B9D
330
1BAD
330
1BAE
330
1BBE
330
1BBF
330
1BC0
330
1BC1
330
1BC3
330
1BC4
330
1BC5
330
1BC6
330
1BE6
330
1C3B
330
1C3C
330
1C3F
330
1C40
330
1C59
330
1C5C
330
1D25
330
1D26
330
1D27
330
1D29
330
1D2A
330
1D2B
  0
IDBUFFER
  5
1D78
330
0
100
AcDbIdBuffer
330
1BC2
330
1BC7
330
1BDA
  0
IDBUFFER
  5
1D79
330
0
100
AcDbIdBuffer
330
D74
  0
IDBUFFER
  5
1D7A
330
0
100
AcDbIdBuffer
330
D71
330
D7A
330
DA6
330
1C41
  0
IDBUFFER
  5
1D7B
330
0
100
AcDbIdBuffer
  0
IDBUFFER
  5
1D7C
330
0
100
AcDbIdBuffer
330
E5A
  0
ENDSEC
  0
EOF
