  0
SECTION
  2
HEADER
  9
$ACADVER
  1
AC1014
  9
$ACADMAINTVER
 70
     9
  9
$DWGCODEPAGE
  3
ANSI_932
  9
$INSBASE
 10
0.0
 20
0.0
 30
0.0
  9
$EXTMIN
 10
-68.70000099999299
 20
-50.50000000000003
 30
-0.00000001
  9
$EXTMAX
 10
15.8794966799315
 20
14.05428571389555
 30
0.00000001
  9
$LIMMIN
 10
-87.39141271433661
 20
-67.26183548650574
  9
$LIMMAX
 10
52.05631106649213
 20
39.33981107433274
  9
$ORTHOMODE
 70
     0
  9
$REGENMODE
 70
     1
  9
$FILLMODE
 70
     1
  9
$QTEXTMODE
 70
     0
  9
$MIRRTEXT
 70
     0
  9
$DRAGMODE
 70
     2
  9
$LTSCALE
 40
1.0
  9
$OSMODE
 70
  2103
  9
$ATTMODE
 70
     1
  9
$TEXTSIZE
 40
2.5
  9
$TRACEWID
 40
1.0
  9
$TEXTSTYLE
  7
STANDARD
  9
$CLAYER
  8
AM_0
  9
$CELTYPE
  6
BYLAYER
  9
$CECOLOR
 62
   256
  9
$CELTSCALE
 40
1.0
  9
$DELOBJ
 70
     1
  9
$DISPSILH
 70
     0
  9
$DIMSCALE
 40
1.0
  9
$DIMASZ
 40
2.5
  9
$DIMEXO
 40
1.0
  9
$DIMDLI
 40
12.0
  9
$DIMRND
 40
0.0
  9
$DIMDLE
 40
0.0
  9
$DIMEXE
 40
1.0
  9
$DIMTP
 40
0.1
  9
$DIMTM
 40
0.1
  9
$DIMTXT
 40
3.2
  9
$DIMCEN
 40
0.0
  9
$DIMTSZ
 40
0.0
  9
$DIMTOL
 70
     0
  9
$DIMLIM
 70
     0
  9
$DIMTIH
 70
     0
  9
$DIMTOH
 70
     0
  9
$DIMSE1
 70
     0
  9
$DIMSE2
 70
     0
  9
$DIMTAD
 70
     3
  9
$DIMZIN
 70
     8
  9
$DIMBLK
  1
OPEN30
  9
$DIMASO
 70
     1
  9
$DIMSHO
 70
     1
  9
$DIMPOST
  1

  9
$DIMAPOST
  1
"
  9
$DIMALT
 70
     0
  9
$DIMALTD
 70
     2
  9
$DIMALTF
 40
0.0393701
  9
$DIMLFAC
 40
1.0
  9
$DIMTOFL
 70
     1
  9
$DIMTVP
 40
0.0
  9
$DIMTIX
 70
     0
  9
$DIMSOXD
 70
     0
  9
$DIMSAH
 70
     0
  9
$DIMBLK1
  1

  9
$DIMBLK2
  1

  9
$DIMSTYLE
  2
AM_JIS
  9
$DIMCLRD
 70
   256
  9
$DIMCLRE
 70
   256
  9
$DIMCLRT
 70
     2
  9
$DIMTFAC
 40
0.71
  9
$DIMGAP
 40
1.5
  9
$DIMJUST
 70
     0
  9
$DIMSD1
 70
     0
  9
$DIMSD2
 70
     0
  9
$DIMTOLJ
 70
     0
  9
$DIMTZIN
 70
     0
  9
$DIMALTZ
 70
     0
  9
$DIMALTTZ
 70
     0
  9
$DIMFIT
 70
     3
  9
$DIMUPT
 70
     0
  9
$DIMUNIT
 70
     2
  9
$DIMDEC
 70
     3
  9
$DIMTDEC
 70
     3
  9
$DIMALTU
 70
     2
  9
$DIMALTTD
 70
     2
  9
$DIMTXSTY
  7
ASAMI
  9
$DIMAUNIT
 70
     0
  9
$LUNITS
 70
     2
  9
$LUPREC
 70
     2
  9
$SKETCHINC
 40
1.0
  9
$FILLETRAD
 40
2.5
  9
$AUNITS
 70
     0
  9
$AUPREC
 70
     0
  9
$MENU
  1
.
  9
$ELEVATION
 40
0.0
  9
$PELEVATION
 40
0.0
  9
$THICKNESS
 40
0.0
  9
$LIMCHECK
 70
     0
  9
$BLIPMODE
 70
     0
  9
$CHAMFERA
 40
0.5
  9
$CHAMFERB
 40
0.5
  9
$CHAMFERC
 40
20.0
  9
$CHAMFERD
 40
0.0
  9
$SKPOLY
 70
     0
  9
$TDCREATE
 40
2452808.461142939
  9
$TDUPDATE
 40
2452844.457790972
  9
$TDINDWG
 40
0.1049244097
  9
$TDUSRTIMER
 40
0.1049244097
  9
$USRTIMER
 70
     1
  9
$ANGBASE
 50
0.0
  9
$ANGDIR
 70
     0
  9
$PDMODE
 70
     0
  9
$PDSIZE
 40
0.0
  9
$PLINEWID
 40
0.0
  9
$COORDS
 70
     2
  9
$SPLFRAME
 70
     0
  9
$SPLINETYPE
 70
     6
  9
$SPLINESEGS
 70
     8
  9
$ATTDIA
 70
     1
  9
$ATTREQ
 70
     1
  9
$HANDLING
 70
 12289
  9
$HANDSEED
  5
3AE0
  9
$SURFTAB1
 70
     6
  9
$SURFTAB2
 70
     6
  9
$SURFTYPE
 70
     6
  9
$SURFU
 70
     6
  9
$SURFV
 70
     6
  9
$UCSNAME
  2

  9
$UCSORG
 10
0.000000000012605
 20
-0.0000000000000141
 30
0.0
  9
$UCSXDIR
 10
1.0
 20
0.0
 30
0.0
  9
$UCSYDIR
 10
0.0
 20
1.0
 30
0.0
  9
$PUCSNAME
  2

  9
$PUCSORG
 10
0.0
 20
0.0
 30
0.0
  9
$PUCSXDIR
 10
1.0
 20
0.0
 30
0.0
  9
$PUCSYDIR
 10
0.0
 20
1.0
 30
0.0
  9
$USERI1
 70
     0
  9
$USERI2
 70
     0
  9
$USERI3
 70
     0
  9
$USERI4
 70
     0
  9
$USERI5
 70
     0
  9
$USERR1
 40
0.0
  9
$USERR2
 40
0.0
  9
$USERR3
 40
0.0
  9
$USERR4
 40
0.0
  9
$USERR5
 40
0.0
  9
$WORLDVIEW
 70
     1
  9
$SHADEDGE
 70
     3
  9
$SHADEDIF
 70
    70
  9
$TILEMODE
 70
     1
  9
$MAXACTVP
 70
    64
  9
$PINSBASE
 10
0.0
 20
0.0
 30
0.0
  9
$PLIMCHECK
 70
     0
  9
$PEXTMIN
 10
1.000000000000000E+20
 20
1.000000000000000E+20
 30
1.000000000000000E+20
  9
$PEXTMAX
 10
-1.000000000000000E+20
 20
-1.000000000000000E+20
 30
-1.000000000000000E+20
  9
$PLIMMIN
 10
0.0
 20
0.0
  9
$PLIMMAX
 10
841.0
 20
594.0
  9
$UNITMODE
 70
     0
  9
$VISRETAIN
 70
     1
  9
$PLINEGEN
 70
     0
  9
$PSLTSCALE
 70
     0
  9
$TREEDEPTH
 70
  3020
  9
$PICKSTYLE
 70
     0
  9
$CMLSTYLE
  2
STANDARD
  9
$CMLJUST
 70
     0
  9
$CMLSCALE
 40
20.0
  9
$PROXYGRAPHICS
 70
     1
  9
$MEASUREMENT
 70
     1
  0
ENDSEC
  0
SECTION
  2
CLASSES
  0
CLASS
  1
ACDBDICTIONARYWDFLT
  2
AcDbDictionaryWithDefault
  3
AutoCAD 2000
 90
        0
280
     0
281
     0
  0
CLASS
  1
ACDBPLACEHOLDER
  2
AcDbPlaceHolder
  3
AutoCAD 2000
 90
        0
280
     0
281
     0
  0
CLASS
  1
LAYOUT
  2
AcDbLayout
  3
AutoCAD 2000
 90
        0
280
     0
281
     0
  0
CLASS
  1
AMGSETTINGSOBJ
  2
AmgSettingsObj
  3
"AcadM|Product Description: AutoCAD Mechanical 2000|Company: Autodesk"
 90
        0
280
     0
281
     0
  0
CLASS
  1
ACME_DOCUMENT
  2
AcMeDbDoc
  3
AcMeServices
 90
        0
280
     0
281
     0
  0
CLASS
  1
ACMESCOPE
  2
AcMeScope
  3
AcMeServices
 90
        0
280
     0
281
     0
  0
CLASS
  1
ACMECOMMANDHISTORY
  2
AcMeCommandHistory
  3
AcMeServices
 90
        0
280
     0
281
     0
  0
CLASS
  1
DICTIONARYVAR
  2
AcDbDictionaryVar
  3
AutoCAD 2000
 90
        0
280
     0
281
     0
  0
CLASS
  1
ACIMSYSVARMAN
  2
AcImSysVarManager
  3
AcMeServices
 90
        0
280
     0
281
     0
  0
CLASS
  1
ACIMREALSYSVAR
  2
AcImRealSysVar
  3
AcMeServices
 90
        0
280
     0
281
     0
  0
CLASS
  1
ACIMINTSYSVAR
  2
AcImIntSysVar
  3
AcMeServices
 90
        0
280
     0
281
     0
  0
CLASS
  1
ACMEDRAWINGMAN
  2
AcMeDrawingMan
  3
AcMeServices
 90
        0
280
     0
281
     0
  0
CLASS
  1
ACMEVIEW
  2
AcMeView
  3
AcMeServices
 90
        0
280
     0
281
     0
  0
CLASS
  1
ACDBENTITYCACHE
  2
AcMeEntityCache
  3
AcMeServices
 90
        0
280
     0
281
     0
  0
CLASS
  1
GSMANAGER
  2
AcMeGSManager
  3
AcMeServices
 90
        0
280
     0
281
     0
  0
CLASS
  1
AmdtInternalReactor
  2
AmdtInternalReactor
  3
AcMeServices
 90
        0
280
     0
281
     0
  0
CLASS
  1
ACMESTATEMGR
  2
AcMeStateMgr
  3
AcMeServices
 90
        0
280
     0
281
     0
  0
CLASS
  1
ACME_DATABASE
  2
AcMeDbDatabase
  3
AcMeServices
 90
        0
280
     0
281
     0
  0
CLASS
  1
ACRFINSADJUSTERMGR
  2
AcRfInsAdjusterMgr
  3
AcMeServices
 90
        0
280
     0
281
     0
  0
CLASS
  1
ACMDATADICTIONARY
  2
AcmDataDictionary
  3
"AcmSymBB|Product Description: AutoCAD Mechanical 2000|Company: Autodesk"
 90
        0
280
     0
281
     0
  0
CLASS
  1
ACMDATAENTRYBLOCK
  2
AcmDataEntryBlock
  3
"AcmSymBB|Product Description: AutoCAD Mechanical 2000|Company: Autodesk"
 90
        0
280
     0
281
     0
  0
CLASS
  1
AMGOBJPROPCFG
  2
AmgObjPropCfg
  3
"AmgLay|Product Description: AutoCAD Mechanical 2000|Company: Autodesk"
 90
        1
280
     0
281
     0
  0
CLASS
  1
ACAMGFILTERDAT
  2
AcAmgFilterDat
  3
"AcadM|Product Description: AutoCAD Mechanical 2000|Company: Autodesk"
 90
        0
280
     0
281
     0
  0
CLASS
  1
LAYER_INDEX
  2
AcDbLayerIndex
  3
AutoCAD 2000
 90
        0
280
     0
281
     0
  0
CLASS
  1
IDBUFFER
  2
AcDbIdBuffer
  3
AutoCAD 2000
 90
        0
280
     0
281
     0
  0
CLASS
  1
ACIMSTRSYSVAR
  2
AcImStrSysVar
  3
AcMeServices
 90
        0
280
     0
281
     0
  0
CLASS
  1
ACMSTANDARDJIS
  2
AcmStandardJIS
  3
"AcmSymBB|Product Description: AutoCAD Mechanical 2000|Company: Autodesk"
 90
        0
280
     0
281
     0
  0
CLASS
  1
ACMSURFSTANDARDJIS
  2
AcmSurfTextStdJIS
  3
"AcmSymBB|Product Description: AutoCAD Mechanical 2000|Company: Autodesk"
 90
        0
280
     0
281
     0
  0
CLASS
  1
ACMFCFSTANDARDJIS
  2
AcmFCFStdJIS
  3
"AcmSymBB|Product Description: AutoCAD Mechanical 2000|Company: Autodesk"
 90
        0
280
     0
281
     0
  0
CLASS
  1
ACMWELDSTANDARDJIS
  2
AcmWeldingStdJIS
  3
"AcmSymBB|Product Description: AutoCAD Mechanical 2000|Company: Autodesk"
 90
        0
280
     0
281
     0
  0
CLASS
  1
ACMIDSTANDARDJIS
  2
AcmIdStdJIS
  3
"AcmSymBB|Product Description: AutoCAD Mechanical 2000|Company: Autodesk"
 90
        0
280
     0
281
     0
  0
CLASS
  1
ACMDATUMSTANDARDJIS
  2
AcmDatumStdJIS
  3
"AcmSymBB|Product Description: AutoCAD Mechanical 2000|Company: Autodesk"
 90
        0
280
     0
281
     0
  0
CLASS
  1
ACMBOMSTANDARDJIS
  2
AcmBOMStdJIS
  3
"AcmSymBB|Product Description: AutoCAD Mechanical 2000|Company: Autodesk"
 90
        0
280
     0
281
     0
  0
CLASS
  1
ACMSTANDARDANSI
  2
AcmStandardANSI
  3
"AcmSymBB|Product Description: AutoCAD Mechanical 2000|Company: Autodesk"
 90
        0
280
     0
281
     0
  0
CLASS
  1
ACMSURFSTANDARDANSI
  2
AcmSurfTextStdANSI
  3
"AcmSymBB|Product Description: AutoCAD Mechanical 2000|Company: Autodesk"
 90
        0
280
     0
281
     0
  0
CLASS
  1
ACMFCFSTANDARDANSI
  2
AcmFCFStdANSI
  3
"AcmSymBB|Product Description: AutoCAD Mechanical 2000|Company: Autodesk"
 90
        0
280
     0
281
     0
  0
CLASS
  1
ACMWELDSTANDARDANSI
  2
AcmWeldingStdANSI
  3
"AcmSymBB|Product Description: AutoCAD Mechanical 2000|Company: Autodesk"
 90
        0
280
     0
281
     0
  0
CLASS
  1
ACMIDSTANDARDANSI
  2
AcmIdStdANSI
  3
"AcmSymBB|Product Description: AutoCAD Mechanical 2000|Company: Autodesk"
 90
        0
280
     0
281
     0
  0
CLASS
  1
ACMDATUMSTANDARDANSI
  2
AcmDatumStdANSI
  3
"AcmSymBB|Product Description: AutoCAD Mechanical 2000|Company: Autodesk"
 90
        0
280
     0
281
     0
  0
CLASS
  1
ACMBOMSTANDARDANSI
  2
AcmBOMStdANSI
  3
"AcmSymBB|Product Description: AutoCAD Mechanical 2000|Company: Autodesk"
 90
        0
280
     0
281
     0
  0
CLASS
  1
ACMSTANDARDBSI
  2
AcmStandardBSI
  3
"AcmSymBB|Product Description: AutoCAD Mechanical 2000|Company: Autodesk"
 90
        0
280
     0
281
     0
  0
CLASS
  1
ACMSURFSTANDARDBSI
  2
AcmSurfTextStdBSI
  3
"AcmSymBB|Product Description: AutoCAD Mechanical 2000|Company: Autodesk"
 90
        0
280
     0
281
     0
  0
CLASS
  1
ACMFCFSTANDARDBSI
  2
AcmFCFStdBSI
  3
"AcmSymBB|Product Description: AutoCAD Mechanical 2000|Company: Autodesk"
 90
        0
280
     0
281
     0
  0
CLASS
  1
ACMWELDSTANDARDBSI
  2
AcmWeldingStdBSI
  3
"AcmSymBB|Product Description: AutoCAD Mechanical 2000|Company: Autodesk"
 90
        0
280
     0
281
     0
  0
CLASS
  1
ACMIDSTANDARDBSI
  2
AcmIdStdBSI
  3
"AcmSymBB|Product Description: AutoCAD Mechanical 2000|Company: Autodesk"
 90
        0
280
     0
281
     0
  0
CLASS
  1
ACMDATUMSTANDARDBSI
  2
AcmDatumStdBSI
  3
"AcmSymBB|Product Description: AutoCAD Mechanical 2000|Company: Autodesk"
 90
        0
280
     0
281
     0
  0
CLASS
  1
ACMBOMSTANDARDBSI
  2
AcmBOMStdBSI
  3
"AcmSymBB|Product Description: AutoCAD Mechanical 2000|Company: Autodesk"
 90
        0
280
     0
281
     0
  0
CLASS
  1
LONG_TRANSACTION
  2
AcDbLongTransaction
  3
AutoCAD 2000
 90
        0
280
     0
281
     0
  0
CLASS
  1
LWPOLYLINE
  2
AcDbPolyline
  3
AutoCAD 2000
 90
        0
280
     0
281
     1
  0
CLASS
  1
HATCH
  2
AcDbHatch
  3
AutoCAD 2000
 90
        0
280
     0
281
     1
  0
CLASS
  1
XRECORD
  2
AcDbXrecord
  3
AutoCAD 2000
 90
        0
280
     0
281
     0
  0
ENDSEC
  0
SECTION
  2
TABLES
  0
TABLE
  2
VPORT
  5
8
330
0
100
AcDbSymbolTable
 70
     3
  0
VPORT
  5
3AB5
330
8
100
AcDbSymbolTableRecord
100
AcDbViewportTableRecord
  2
*ACTIVE
 70
     0
 10
0.0
 20
0.0
 11
1.0
 21
1.0
 12
-26.40750298484942
 22
-18.22273550394449
 13
0.0
 23
0.0
 14
2.5
 24
2.5
 15
10.0
 25
10.0
 16
0.0
 26
0.0
 36
1.0
 17
0.0
 27
0.0
 37
0.0
 40
64.95752549649946
 41
1.56570841889117
 42
50.0
 43
0.0
 44
0.0
 50
0.0
 51
0.0
 71
     0
 72
   100
 73
     1
 74
     3
 75
     0
 76
     0
 77
     0
 78
     0
  0
ENDTAB
  0
TABLE
  2
LTYPE
  5
5
330
0
100
AcDbSymbolTable
 70
    10
  0
LTYPE
  5
14
330
5
100
AcDbSymbolTableRecord
100
AcDbLinetypeTableRecord
  2
BYBLOCK
 70
     0
  3

 72
    65
 73
     0
 40
0.0
  0
LTYPE
  5
15
330
5
100
AcDbSymbolTableRecord
100
AcDbLinetypeTableRecord
  2
BYLAYER
 70
     0
  3

 72
    65
 73
     0
 40
0.0
  0
LTYPE
  5
16
330
5
100
AcDbSymbolTableRecord
100
AcDbLinetypeTableRecord
  2
CONTINUOUS
 70
     0
  3
Solid line
 72
    65
 73
     0
 40
0.0
  0
LTYPE
  5
4B
330
5
100
AcDbSymbolTableRecord
100
AcDbLinetypeTableRecord
  2
AM_ISO02W050
 70
     0
  3
__ __ __ __ __ __ __ __ __ __ __ __ __ __ __
 72
    65
 73
     2
 40
7.5
 49
6.0
 74
     0
 49
-1.5
 74
     0
  0
LTYPE
  5
4C
330
5
100
AcDbSymbolTableRecord
100
AcDbLinetypeTableRecord
  2
AM_ISO08W050
 70
     0
  3
____ . ____ . ____ . ____ . ____ . ____ . ____
 72
    65
 73
     4
 40
18.0
 49
12.0
 74
     0
 49
-1.5
 74
     0
 49
3.0
 74
     0
 49
-1.5
 74
     0
  0
LTYPE
  5
4D
330
5
100
AcDbSymbolTableRecord
100
AcDbLinetypeTableRecord
  2
AM_ISO09W050
 70
     0
  3
_____ . . _____ . . _____ . . ____ .. ____
 72
    65
 73
     6
 40
22.5
 49
12.0
 74
     0
 49
-1.5
 74
     0
 49
3.0
 74
     0
 49
-1.5
 74
     0
 49
3.0
 74
     0
 49
-1.5
 74
     0
  0
LTYPE
  5
4E
330
5
100
AcDbSymbolTableRecord
100
AcDbLinetypeTableRecord
  2
AMCONSTR
 70
     0
  3
_______________________
 72
    65
 73
     2
 40
9999.0
 49
9999.0
 74
     0
 49
0.0
 74
     0
  0
LTYPE
  5
4F
330
5
100
AcDbSymbolTableRecord
100
AcDbLinetypeTableRecord
  2
AM_ISO02W050X2
 70
     0
  3
 _ _ _ _ _ _ _ _ _ _ _ _
 72
    65
 73
     2
 40
3.75
 49
3.0
 74
     0
 49
-0.75
 74
     0
  0
LTYPE
  5
50
330
5
100
AcDbSymbolTableRecord
100
AcDbLinetypeTableRecord
  2
AM_ISO08W050X2
 70
     0
  3
__ . __ . __ . __ . __ . __
 72
    65
 73
     4
 40
9.0
 49
6.0
 74
     0
 49
-0.75
 74
     0
 49
1.5
 74
     0
 49
-0.75
 74
     0
  0
LTYPE
  5
53
330
5
100
AcDbSymbolTableRecord
100
AcDbLinetypeTableRecord
  2
AMZIGZAG
 70
     0
  3
/\/-/\/-/\/-/\/-/\/-/\/
 72
    65
 73
     2
 40
11.00009999999999
 49
0.0001
 74
     4
 75
   135
340
52
 46
0.04
 50
0.0
 44
0.0
 45
0.0
 49
-11.0
 74
     0
  0
LTYPE
  5
166
330
5
100
AcDbSymbolTableRecord
100
AcDbLinetypeTableRecord
  2
ACJISTGL
 70
     0
  3
_ _ _ _ _
 72
    65
 73
     2
 40
3.0
 49
2.0
 74
     0
 49
-1.0
 74
     0
  0
LTYPE
  5
26A
330
5
100
AcDbSymbolTableRecord
100
AcDbLinetypeTableRecord
  2
ACJISTGB
 70
     0
  3
__ . . __ . .
 72
    65
 73
     6
 40
9.0
 49
4.0
 74
     0
 49
-1.0
 74
     0
 49
1.0
 74
     0
 49
-1.0
 74
     0
 49
1.0
 74
     0
 49
-1.0
 74
     0
  0
ENDTAB
  0
TABLE
  2
LAYER
  5
2
330
0
100
AcDbSymbolTable
 70
     7
  0
LAYER
  5
10
330
2
100
AcDbSymbolTableRecord
100
AcDbLayerTableRecord
  2
0
 70
     0
 62
     7
  6
CONTINUOUS
  0
LAYER
  5
3F9
330
2
100
AcDbSymbolTableRecord
100
AcDbLayerTableRecord
  2
AM_0
 70
     0
 62
     7
  6
CONTINUOUS
  0
LAYER
  5
BA4
330
2
100
AcDbSymbolTableRecord
100
AcDbLayerTableRecord
  2
AM_11
 70
     0
 62
     3
  6
AM_ISO09W050
  0
LAYER
  5
BA6
330
2
100
AcDbSymbolTableRecord
100
AcDbLayerTableRecord
  2
AM_6
 70
     0
 62
     2
  6
CONTINUOUS
  0
LAYER
  5
BA7
330
2
100
AcDbSymbolTableRecord
100
AcDbLayerTableRecord
  2
AM_7
 70
     0
 62
     4
  6
AM_ISO08W050
  0
LAYER
  5
D0E
330
2
100
AcDbSymbolTableRecord
100
AcDbLayerTableRecord
  2
AM_5
 70
     0
 62
     3
  6
CONTINUOUS
  0
LAYER
  5
FE8
330
2
100
AcDbSymbolTableRecord
100
AcDbLayerTableRecord
  2
DEFPOINTS
 70
     0
 62
     7
  6
CONTINUOUS
  0
ENDTAB
  0
TABLE
  2
STYLE
  5
3
330
0
100
AcDbSymbolTable
 70
     5
  0
STYLE
  5
11
330
3
100
AcDbSymbolTableRecord
100
AcDbTextStyleTableRecord
  2
STANDARD
 70
     0
 40
0.0
 41
1.0
 50
0.0
 71
     0
 42
2.5
  3
simplex.shx
  4
EXTFONT.SHX
  0
STYLE
  5
52
330
3
100
AcDbSymbolTableRecord
100
AcDbTextStyleTableRecord
  2

 70
     1
 40
0.0
 41
1.0
 50
0.0
 71
     0
 42
2.5
  3
ltypeshp.shx
  4

  0
STYLE
  5
6B
330
3
100
AcDbSymbolTableRecord
100
AcDbTextStyleTableRecord
  2
ASAMI
 70
     0
 40
0.0
 41
1.0
 50
0.0
 71
     0
 42
2.5
  3
simplex.shx
  4
EXTFONT.SHX
  0
STYLE
  5
262
330
3
100
AcDbSymbolTableRecord
100
AcDbTextStyleTableRecord
  2
ACJISTS
 70
     0
 40
1.0
 41
1.0
 50
0.0
 71
     0
 42
2.5
  3
simplex.shx
  4
bigfont.shx
  0
STYLE
  5
269
330
3
100
AcDbSymbolTableRecord
100
AcDbTextStyleTableRecord
  2
ACJISGDT
 70
     0
 40
0.0
 41
1.0
 50
0.0
 71
     0
 42
2.5
  3
amgdtans.shx
  4

  0
ENDTAB
  0
TABLE
  2
VIEW
  5
6
330
0
100
AcDbSymbolTable
 70
     0
  0
ENDTAB
  0
TABLE
  2
UCS
  5
7
330
0
100
AcDbSymbolTable
 70
     0
  0
ENDTAB
  0
TABLE
  2
APPID
  5
9
330
0
100
AcDbSymbolTable
 70
    12
  0
APPID
  5
12
330
9
100
AcDbSymbolTableRecord
100
AcDbRegAppTableRecord
  2
ACAD
 70
     0
  0
APPID
  5
30
330
9
100
AcDbSymbolTableRecord
100
AcDbRegAppTableRecord
  2
MCAD_NO_VIS
 70
     0
  0
APPID
  5
31
330
9
100
AcDbSymbolTableRecord
100
AcDbRegAppTableRecord
  2
ACAD_TEMP_GRAPHIC
 70
     0
  0
APPID
  5
2C2
330
9
100
AcDbSymbolTableRecord
100
AcDbRegAppTableRecord
  2
GENIUS_GENDTOL_13
 70
     0
  0
APPID
  5
339
330
9
100
AcDbSymbolTableRecord
100
AcDbRegAppTableRecord
  2
GENIUS_GENODEF_13
 70
     0
  0
APPID
  5
33A
330
9
100
AcDbSymbolTableRecord
100
AcDbRegAppTableRecord
  2
GENIUS_GENOBJ-N-RSBK_13
 70
     0
  0
APPID
  5
33B
330
9
100
AcDbSymbolTableRecord
100
AcDbRegAppTableRecord
  2
GENIUS_GENOBJ-N-LIB_13
 70
     0
  0
APPID
  5
33C
330
9
100
AcDbSymbolTableRecord
100
AcDbRegAppTableRecord
  2
GENIUS_GENSCALE_13
 70
     0
  0
APPID
  5
378
330
9
100
AcDbSymbolTableRecord
100
AcDbRegAppTableRecord
  2
GENIUS_GENDIMSH_14
 70
     0
  0
APPID
  5
BA8
330
9
100
AcDbSymbolTableRecord
100
AcDbRegAppTableRecord
  2
GENIUS_GENOBJ-N-CEN_13
 70
     0
  0
APPID
  5
EE8
330
9
100
AcDbSymbolTableRecord
100
AcDbRegAppTableRecord
  2
GENIUS_GENFIL_13
 70
     0
  0
APPID
  5
EE9
330
9
100
AcDbSymbolTableRecord
100
AcDbRegAppTableRecord
  2
GENIUS_GENOBJ-N-CHA_13
 70
     0
  0
ENDTAB
  0
TABLE
  2
DIMSTYLE
  5
A
330
0
100
AcDbSymbolTable
 70
     8
  0
DIMSTYLE
105
58
102
{ACAD_REACTORS
330
35E3
330
38FB
330
3935
330
3944
102
}
330
A
100
AcDbSymbolTableRecord
100
AcDbDimStyleTableRecord
  2
AM_JIS
 70
     0
  3

  4
"
  5
OPEN30
  6

  7

 40
1.0
 41
2.5
 42
1.0
 43
12.0
 44
1.0
 45
0.0
 46
0.0
 47
0.1
 48
0.1
140
3.2
141
0.0
142
0.0
143
0.0393701
144
1.0
145
0.0
146
0.71
147
1.5
 71
     0
 72
     0
 73
     0
 74
     0
 75
     0
 76
     0
 77
     3
 78
     8
170
     0
171
     2
172
     1
173
     0
174
     0
175
     0
176
   256
177
   256
178
     2
270
     2
271
     3
272
     3
273
     2
274
     2
340
6B
275
     0
280
     0
281
     0
282
     0
283
     0
284
     0
285
     0
286
     0
287
     3
288
     0
  0
DIMSTYLE
105
5F
330
A
100
AcDbSymbolTableRecord
100
AcDbDimStyleTableRecord
  2
AM_JIS$3
 70
     0
  3

  4
"
  5
OPEN30
  6

  7

 40
1.0
 41
2.5
 42
1.0
 43
10.0
 44
1.0
 45
0.0
 46
0.0
 47
0.1
 48
0.1
140
3.2
141
0.0
142
0.0
143
0.0393701
144
1.0
145
0.0
146
0.71
147
1.5
 71
     0
 72
     0
 73
     0
 74
     1
 75
     0
 76
     0
 77
     3
 78
     8
170
     0
171
     2
172
     0
173
     0
174
     0
175
     0
176
   256
177
   256
178
     2
270
     2
271
     2
272
     3
273
     2
274
     2
340
6B
275
     0
280
     0
281
     0
282
     0
283
     0
284
     0
285
     0
286
     0
287
     0
288
     1
  0
DIMSTYLE
105
60
330
A
100
AcDbSymbolTableRecord
100
AcDbDimStyleTableRecord
  2
AM_JIS$4
 70
     0
  3

  4
"
  5
OPEN30
  6

  7

 40
1.0
 41
2.5
 42
1.0
 43
10.0
 44
1.0
 45
0.0
 46
0.0
 47
0.1
 48
0.1
140
3.2
141
0.0
142
0.0
143
0.0393701
144
1.0
145
0.0
146
0.71
147
1.5
 71
     0
 72
     0
 73
     0
 74
     1
 75
     0
 76
     0
 77
     3
 78
     8
170
     0
171
     2
172
     0
173
     0
174
     0
175
     0
176
   256
177
   256
178
     2
270
     2
271
     2
272
     3
273
     2
274
     2
340
6B
275
     0
280
     0
281
     0
282
     0
283
     0
284
     0
285
     0
286
     0
287
     0
288
     1
  0
DIMSTYLE
105
61
330
A
100
AcDbSymbolTableRecord
100
AcDbDimStyleTableRecord
  2
AM_JIS$6
 70
     0
  3

  4
"
  5
OPEN30
  6

  7

 40
1.0
 41
2.5
 42
1.0
 43
10.0
 44
1.0
 45
0.0
 46
0.0
 47
0.1
 48
0.1
140
3.2
141
0.0
142
0.0
143
0.0393701
144
1.0
145
0.0
146
0.71
147
1.5
 71
     0
 72
     0
 73
     0
 74
     0
 75
     0
 76
     0
 77
     0
 78
     8
170
     0
171
     2
172
     1
173
     0
174
     0
175
     0
176
   256
177
   256
178
     2
270
     2
271
     2
272
     2
273
     2
274
     2
340
6B
275
     0
280
     0
281
     0
282
     0
283
     0
284
     0
285
     0
286
     0
287
     3
288
     0
  0
DIMSTYLE
105
62
330
A
100
AcDbSymbolTableRecord
100
AcDbDimStyleTableRecord
  2
AM_JIS$7
 70
     0
  3

  4
"
  5
OPEN30
  6

  7

 40
1.0
 41
2.5
 42
1.0
 43
10.0
 44
1.0
 45
0.0
 46
0.0
 47
0.1
 48
0.1
140
3.2
141
0.0
142
0.0
143
0.0393701
144
1.0
145
0.0
146
0.71
147
1.5
 71
     0
 72
     0
 73
     0
 74
     0
 75
     0
 76
     0
 77
     3
 78
     8
170
     0
171
     2
172
     1
173
     0
174
     0
175
     0
176
   256
177
   256
178
     2
270
     2
271
     2
272
     3
273
     2
274
     2
340
6B
275
     0
280
     0
281
     0
282
     0
283
     0
284
     0
285
     0
286
     0
287
     3
288
     0
  0
DIMSTYLE
105
63
330
A
100
AcDbSymbolTableRecord
100
AcDbDimStyleTableRecord
  2
AM_JIS$SF
 70
     0
  3

  4
"
  5
OPEN30
  6

  7

 40
1.0
 41
2.5
 42
1.0
 43
10.0
 44
1.0
 45
0.0
 46
0.0
 47
0.1
 48
0.1
140
3.2
141
0.0
142
0.0
143
0.0393701
144
1.0
145
0.0
146
0.71
147
1.5
 71
     0
 72
     0
 73
     0
 74
     0
 75
     1
 76
     1
 77
     3
 78
     8
170
     0
171
     2
172
     1
173
     0
174
     0
175
     0
176
   256
177
   256
178
     2
270
     2
271
     2
272
     2
273
     2
274
     2
340
6B
275
     0
280
     0
281
     0
282
     0
283
     0
284
     0
285
     0
286
     0
287
     3
288
     0
  0
DIMSTYLE
105
68
330
A
100
AcDbSymbolTableRecord
100
AcDbDimStyleTableRecord
  2
AM_JIS$SH
 70
     0
  3

  4
"
  5

  6
GENAXEH
  7
OPEN30
 40
1.0
 41
2.5
 42
1.0
 43
10.0
 44
1.0
 45
0.0
 46
0.0
 47
0.1
 48
0.1
140
3.2
141
0.0
142
0.0
143
0.0393701
144
2.0
145
0.0
146
0.71
147
1.5
 71
     0
 72
     0
 73
     0
 74
     0
 75
     1
 76
     1
 77
     3
 78
     8
170
     0
171
     2
172
     1
173
     1
174
     0
175
     0
176
   256
177
   256
178
     2
270
     2
271
     2
272
     2
273
     2
274
     2
340
6B
275
     0
280
     0
281
     0
282
     0
283
     0
284
     0
285
     0
286
     0
287
     3
288
     0
  0
DIMSTYLE
105
B34
330
A
100
AcDbSymbolTableRecord
100
AcDbDimStyleTableRecord
  2
AM_JIS$2
 70
     0
  3

  4
"
  5
OPEN30
  6

  7

 40
1.0
 41
2.5
 42
1.0
 43
12.0
 44
1.0
 45
0.0
 46
0.0
 47
0.1
 48
0.1
140
3.2
141
0.0
142
0.0
143
0.0393701
144
1.0
145
0.0
146
0.71
147
1.5
 71
     0
 72
     0
 73
     0
 74
     0
 75
     0
 76
     0
 77
     3
 78
     8
170
     0
171
     2
172
     1
173
     0
174
     0
175
     0
176
   256
177
   256
178
     2
270
     2
271
     3
272
     3
273
     2
274
     2
340
6B
275
     0
280
     0
281
     0
282
     0
283
     0
284
     0
285
     0
286
     0
287
     3
288
     0
  0
ENDTAB
  0
TABLE
  2
BLOCK_RECORD
  5
1
330
0
100
AcDbSymbolTable
 70
     9
  0
BLOCK_RECORD
  5
1F
102
{ACAD_XDICTIONARY
360
74
102
}
330
1
100
AcDbSymbolTableRecord
100
AcDbBlockTableRecord
  2
*MODEL_SPACE
  0
BLOCK_RECORD
  5
101
102
{ACAD_XDICTIONARY
360
3ADE
102
}
330
1
100
AcDbSymbolTableRecord
100
AcDbBlockTableRecord
  2
*PAPER_SPACE
  0
BLOCK_RECORD
  5
59
330
1
100
AcDbSymbolTableRecord
100
AcDbBlockTableRecord
  2
_OPEN30
  0
BLOCK_RECORD
  5
64
330
1
100
AcDbSymbolTableRecord
100
AcDbBlockTableRecord
  2
GENAXEH
  0
BLOCK_RECORD
  5
364A
330
1
100
AcDbSymbolTableRecord
100
AcDbBlockTableRecord
  2
*D5
  0
BLOCK_RECORD
  5
38FC
330
1
100
AcDbSymbolTableRecord
100
AcDbBlockTableRecord
  2
*D6
  0
BLOCK_RECORD
  5
3936
330
1
100
AcDbSymbolTableRecord
100
AcDbBlockTableRecord
  2
*D7
  0
BLOCK_RECORD
  5
3945
330
1
100
AcDbSymbolTableRecord
100
AcDbBlockTableRecord
  2
*D8
  0
ENDTAB
  0
ENDSEC
  0
SECTION
  2
BLOCKS
  0
BLOCK
  5
20
330
1F
100
AcDbEntity
  8
0
100
AcDbBlockBegin
  2
*MODEL_SPACE
 70
     0
 10
0.0
 20
0.0
 30
0.0
  3
*MODEL_SPACE
  1

  0
ENDBLK
  5
21
330
1F
100
AcDbEntity
  8
0
100
AcDbBlockEnd
  0
BLOCK
  5
103
330
101
100
AcDbEntity
 67
     1
  8
0
100
AcDbBlockBegin
  2
*PAPER_SPACE
 70
     0
 10
0.0
 20
0.0
 30
0.0
  3
*PAPER_SPACE
  1

  0
ENDBLK
  5
104
330
101
100
AcDbEntity
 67
     1
  8
0
100
AcDbBlockEnd
  0
BLOCK
  5
5D
330
59
100
AcDbEntity
  8
0
100
AcDbBlockBegin
  2
_OPEN30
 70
     0
 10
0.0
 20
0.0
 30
0.0
  3
_OPEN30
  1

  0
LINE
  5
5A
330
59
100
AcDbEntity
  8
0
 62
     0
100
AcDbLine
 10
-1.0
 20
0.26794919
 30
0.0
 11
0.0
 21
0.0
 31
0.0
  0
LINE
  5
5B
330
59
100
AcDbEntity
  8
0
 62
     0
100
AcDbLine
 10
0.0
 20
0.0
 30
0.0
 11
-1.0
 21
-0.26794919
 31
0.0
  0
LINE
  5
5C
330
59
100
AcDbEntity
  8
0
 62
     0
100
AcDbLine
 10
0.0
 20
0.0
 30
0.0
 11
-1.0
 21
0.0
 31
0.0
  0
ENDBLK
  5
5E
330
59
100
AcDbEntity
  8
0
100
AcDbBlockEnd
  0
BLOCK
  5
66
330
64
100
AcDbEntity
  8
0
100
AcDbBlockBegin
  2
GENAXEH
 70
     0
 10
0.0
 20
0.0
 30
0.0
  3
GENAXEH
  1

  0
LINE
  5
65
330
64
100
AcDbEntity
  8
0
100
AcDbLine
 10
-1.0
 20
0.0
 30
0.0
 11
1.0
 21
0.0
 31
0.0
  0
ENDBLK
  5
67
330
64
100
AcDbEntity
  8
0
100
AcDbBlockEnd
  0
BLOCK
  5
3656
330
364A
100
AcDbEntity
  8
0
100
AcDbBlockBegin
  2
*D5
 70
     1
 10
0.0
 20
0.0
 30
0.0
  3
*D5
  1

  0
LINE
  5
3995
330
364A
100
AcDbEntity
  8
AM_5
100
AcDbLine
 10
-50.65624999999299
 20
1.999999999999993
 30
0.0
 11
-65.00000099999299
 21
1.999999999999997
 31
0.0
  0
LINE
  5
3996
330
364A
100
AcDbEntity
  8
AM_5
100
AcDbLine
 10
-50.65624999999299
 20
-2.000000000000007
 30
0.0
 11
-65.00000099999299
 21
-2.000000000000002
 31
0.0
  0
LINE
  5
3997
330
364A
100
AcDbEntity
  8
AM_5
100
AcDbLine
 10
-64.00000099999299
 20
4.499999999999996
 30
0.0
 11
-64.00000099999299
 21
6.999999999999996
 31
0.0
  0
LINE
  5
3998
330
364A
100
AcDbEntity
  8
AM_5
100
AcDbLine
 10
-64.00000099999299
 20
-4.500000000000003
 30
0.0
 11
-64.00000099999299
 21
-7.000000000000003
 31
0.0
  0
LINE
  5
3999
330
364A
100
AcDbEntity
  8
AM_5
100
AcDbLine
 10
-64.00000099999299
 20
1.999999999999996
 30
0.0
 11
-64.00000099999299
 21
-2.000000000000003
 31
0.0
  0
INSERT
  5
399A
330
364A
100
AcDbEntity
  8
AM_5
100
AcDbBlockReference
  2
_OPEN30
 10
-64.00000099999299
 20
1.999999999999996
 30
0.0
 41
2.5
 42
2.5
 43
2.5
 50
270.0
  0
INSERT
  5
399B
330
364A
100
AcDbEntity
  8
AM_5
100
AcDbBlockReference
  2
_OPEN30
 10
-64.00000099999299
 20
-2.000000000000003
 30
0.0
 41
2.5
 42
2.5
 43
2.5
 50
90.0
  0
MTEXT
  5
399C
330
364A
100
AcDbEntity
  8
AM_5
 62
     2
100
AcDbMText
 10
-67.10000099999298
 20
-0.000000000000013
 30
0.0
 40
3.2
 41
0.0
 71
     5
 72
     1
  1
%%c4
  7
ASAMI
 11
0.0000000000000001
 21
1.0
 31
0.0
1001
ACAD
1000
MTEXTBEGIN
1070
    73
1070
     1
1070
    44
1040
1.0
1070
    74
1070
     0
1000
MTEXTEND
  0
POINT
  5
399D
330
364A
100
AcDbEntity
  8
DEFPOINTS
 62
     0
100
AcDbPoint
 10
-49.65624999999299
 20
1.999999999999992
 30
0.0
  0
POINT
  5
399E
330
364A
100
AcDbEntity
  8
DEFPOINTS
 62
     0
100
AcDbPoint
 10
-49.65624999999299
 20
-2.000000000000007
 30
0.0
  0
POINT
  5
399F
330
364A
100
AcDbEntity
  8
DEFPOINTS
 62
     0
100
AcDbPoint
 10
-64.00000099999299
 20
-2.000000000000003
 30
0.0
  0
ENDBLK
  5
3657
330
364A
100
AcDbEntity
  8
0
100
AcDbBlockEnd
  0
BLOCK
  5
3908
330
38FC
100
AcDbEntity
  8
0
100
AcDbBlockBegin
  2
*D6
 70
     1
 10
0.0
 20
0.0
 30
0.0
  3
*D6
  1

  0
LINE
  5
39A0
330
38FC
100
AcDbEntity
  8
AM_5
100
AcDbLine
 10
1.00000000001108
 20
-1.00000000028003
 30
0.0
 11
15.8794966799315
 21
-1.000000000280035
 31
0.0
  0
LINE
  5
39A1
330
38FC
100
AcDbEntity
  8
AM_5
100
AcDbLine
 10
1.000000000012605
 20
0.999999999999974
 30
0.0
 11
15.8794966799315
 21
0.9999999999999698
 31
0.0
  0
LINE
  5
39A2
330
38FC
100
AcDbEntity
  8
AM_5
100
AcDbLine
 10
14.8794966799315
 20
-3.500000000280034
 30
0.0
 11
14.8794966799315
 21
-6.000000000280035
 31
0.0
  0
LINE
  5
39A3
330
38FC
100
AcDbEntity
  8
AM_5
100
AcDbLine
 10
14.8794966799315
 20
3.49999999999997
 30
0.0
 11
14.8794966799315
 21
14.05428571389555
 31
0.0
  0
LINE
  5
39A4
330
38FC
100
AcDbEntity
  8
AM_5
100
AcDbLine
 10
14.8794966799315
 20
-1.000000000280034
 30
0.0
 11
14.8794966799315
 21
0.9999999999999701
 31
0.0
  0
INSERT
  5
39A5
330
38FC
100
AcDbEntity
  8
AM_5
100
AcDbBlockReference
  2
_OPEN30
 10
14.8794966799315
 20
-1.000000000280034
 30
0.0
 41
2.5
 42
2.5
 43
2.5
 50
90.0
  0
INSERT
  5
39A6
330
38FC
100
AcDbEntity
  8
AM_5
100
AcDbBlockReference
  2
_OPEN30
 10
14.8794966799315
 20
0.9999999999999701
 30
0.0
 41
2.5
 42
2.5
 43
2.5
 50
270.0
  0
MTEXT
  5
39A7
330
38FC
100
AcDbEntity
  8
AM_5
 62
     2
100
AcDbMText
 10
11.7794966799315
 20
10.03999999960984
 30
0.0
 40
3.2
 41
0.0
 71
     5
 72
     1
  1
%%c2
  7
ASAMI
 11
0.0000000000000001
 21
1.0
 31
0.0
1001
ACAD
1000
MTEXTBEGIN
1070
    73
1070
     1
1070
    44
1040
1.0
1070
    74
1070
     0
1000
MTEXTEND
  0
POINT
  5
39A8
330
38FC
100
AcDbEntity
  8
DEFPOINTS
 62
     0
100
AcDbPoint
 10
0.0000000000110809
 20
-1.00000000028003
 30
0.0
  0
POINT
  5
39A9
330
38FC
100
AcDbEntity
  8
DEFPOINTS
 62
     0
100
AcDbPoint
 10
0.000000000012605
 20
0.9999999999999744
 30
0.0
  0
POINT
  5
39AA
330
38FC
100
AcDbEntity
  8
DEFPOINTS
 62
     0
100
AcDbPoint
 10
14.8794966799315
 20
0.9999999999999701
 30
0.0
  0
ENDBLK
  5
3909
330
38FC
100
AcDbEntity
  8
0
100
AcDbBlockEnd
  0
BLOCK
  5
3942
330
3936
100
AcDbEntity
  8
0
100
AcDbBlockBegin
  2
*D7
 70
     1
 10
0.0
 20
0.0
 30
0.0
  3
*D7
  1

  0
LINE
  5
3960
330
3936
100
AcDbEntity
  8
AM_5
100
AcDbLine
 10
0.0000000000110809
 20
-2.250000000000014
 30
0.0
 11
0.0000000000110799
 21
-17.00000100000002
 31
0.0
  0
LINE
  5
3961
330
3936
100
AcDbEntity
  8
AM_5
100
AcDbLine
 10
-6.000000844134232
 20
-2.250000000000014
 30
0.0
 11
-6.000000844134233
 21
-17.00000100000002
 31
0.0
  0
LINE
  5
3962
330
3936
100
AcDbEntity
  8
AM_5
100
AcDbLine
 10
2.50000000001108
 20
-16.00000100000001
 30
0.0
 11
5.00000000001108
 21
-16.00000100000001
 31
0.0
  0
LINE
  5
3963
330
3936
100
AcDbEntity
  8
AM_5
100
AcDbLine
 10
-8.500000844134234
 20
-16.00000100000001
 30
0.0
 11
-11.00000084413423
 21
-16.00000100000001
 31
0.0
  0
LINE
  5
3964
330
3936
100
AcDbEntity
  8
AM_5
100
AcDbLine
 10
0.00000000001108
 20
-16.00000100000001
 30
0.0
 11
-6.000000844134233
 21
-16.00000100000001
 31
0.0
  0
INSERT
  5
3965
330
3936
100
AcDbEntity
  8
AM_5
100
AcDbBlockReference
  2
_OPEN30
 10
0.00000000001108
 20
-16.00000100000001
 30
0.0
 41
2.5
 42
2.5
 43
2.5
 50
180.0
  0
INSERT
  5
3966
330
3936
100
AcDbEntity
  8
AM_5
100
AcDbBlockReference
  2
_OPEN30
 10
-6.000000844134233
 20
-16.00000100000001
 30
0.0
 41
2.5
 42
2.5
 43
2.5
  0
MTEXT
  5
3967
330
3936
100
AcDbEntity
  8
AM_5
 62
     2
100
AcDbMText
 10
-3.000000422061576
 20
-12.90000100000002
 30
0.0
 40
3.2
 41
0.0
 71
     5
 72
     1
  1
6
  7
ASAMI
1001
ACAD
1000
MTEXTBEGIN
1070
    73
1070
     1
1070
    44
1040
1.0
1070
    74
1070
     0
1000
MTEXTEND
  0
POINT
  5
3968
330
3936
100
AcDbEntity
  8
DEFPOINTS
 62
     0
100
AcDbPoint
 10
0.0000000000110809
 20
-1.250000000000014
 30
0.0
  0
POINT
  5
3969
330
3936
100
AcDbEntity
  8
DEFPOINTS
 62
     0
100
AcDbPoint
 10
-6.000000844134232
 20
-1.250000000000014
 30
0.0
  0
POINT
  5
396A
330
3936
100
AcDbEntity
  8
DEFPOINTS
 62
     0
100
AcDbPoint
 10
-6.000000844134233
 20
-16.00000100000001
 30
0.0
  0
ENDBLK
  5
3943
330
3936
100
AcDbEntity
  8
0
100
AcDbBlockEnd
  0
BLOCK
  5
394F
330
3945
100
AcDbEntity
  8
0
100
AcDbBlockBegin
  2
*D8
 70
     1
 10
0.0
 20
0.0
 30
0.0
  3
*D8
  1

  0
LINE
  5
398B
330
3945
100
AcDbEntity
  8
AM_5
100
AcDbLine
 10
0.0000000000084057
 20
-2.445860856500438
 30
0.0
 11
0.000000000008404
 21
-29.00000100000001
 31
0.0
  0
LINE
  5
398C
330
3945
100
AcDbEntity
  8
AM_5
100
AcDbLine
 10
-49.999999999993
 20
-2.833333333333349
 30
0.0
 11
-49.999999999993
 21
-29.00000100000001
 31
0.0
  0
LINE
  5
398D
330
3945
100
AcDbEntity
  8
AM_5
100
AcDbLine
 10
-2.499999999991596
 20
-28.00000100000001
 30
0.0
 11
-47.49999999999299
 21
-28.00000100000001
 31
0.0
  0
INSERT
  5
398E
330
3945
100
AcDbEntity
  8
AM_5
100
AcDbBlockReference
  2
_OPEN30
 10
0.0000000000084041
 20
-28.00000100000001
 30
0.0
 41
2.5
 42
2.5
 43
2.5
  0
INSERT
  5
398F
330
3945
100
AcDbEntity
  8
AM_5
100
AcDbBlockReference
  2
_OPEN30
 10
-49.999999999993
 20
-28.00000100000001
 30
0.0
 41
2.5
 42
2.5
 43
2.5
 50
180.0
  0
MTEXT
  5
3990
330
3945
100
AcDbEntity
  8
AM_5
 62
     2
100
AcDbMText
 10
-24.99999999999229
 20
-24.90000100000001
 30
0.0
 40
3.2
 41
0.0
 71
     5
 72
     1
  1
50
  7
ASAMI
1001
ACAD
1000
MTEXTBEGIN
1070
    73
1070
     1
1070
    44
1040
1.0
1070
    74
1070
     0
1000
MTEXTEND
  0
POINT
  5
3991
330
3945
100
AcDbEntity
  8
DEFPOINTS
 62
     0
100
AcDbPoint
 10
0.0000000000084057
 20
-1.445860856500438
 30
0.0
  0
POINT
  5
3992
330
3945
100
AcDbEntity
  8
DEFPOINTS
 62
     0
100
AcDbPoint
 10
-49.999999999993
 20
-1.833333333333349
 30
0.0
  0
POINT
  5
3993
330
3945
100
AcDbEntity
  8
DEFPOINTS
 62
     0
100
AcDbPoint
 10
-49.999999999993
 20
-28.00000100000001
 30
0.0
  0
ENDBLK
  5
3950
330
3945
100
AcDbEntity
  8
0
100
AcDbBlockEnd
  0
ENDSEC
  0
SECTION
  2
ENTITIES
  0
TEXT
  5
F07
330
1F
100
AcDbEntity
  8
AM_6
100
AcDbText
 10
-48.45238095237368
 20
-50.5
 30
0.0
 40
5.0
  1
SSUP3020ZX
 72
     4
 11
-24.99999999999272
 21
-48.0
 31
0.0
100
AcDbText
  0
LINE
  5
35E0
330
1F
100
AcDbEntity
  8
AM_0
100
AcDbLine
 10
-10.73205080755628
 20
1.999999999999992
 30
0.0
 11
-49.65624999999299
 21
1.999999999999992
 31
0.0
  0
LINE
  5
35E1
330
1F
100
AcDbEntity
  8
AM_0
100
AcDbLine
 10
-10.73205080755628
 20
-2.000000000000021
 30
0.0
 11
-49.65624999999299
 21
-2.000000000000007
 31
0.0
  0
DIMENSION
  5
35E3
330
1F
100
AcDbEntity
  8
AM_5
100
AcDbDimension
  2
*D5
 10
-64.00000099999299
 20
-2.000000000000003
 30
0.0
 11
-64.00000099999299
 21
-0.0000000000000134
 31
0.0
 70
   160
  1
%%c<>
  3
AM_JIS
100
AcDbAlignedDimension
 13
-49.65624999999299
 23
1.999999999999992
 33
0.0
 14
-49.65624999999299
 24
-2.000000000000007
 34
0.0
 50
270.0
100
AcDbRotatedDimension
1001
GENIUS_GENDTOL_13
1000

1000
h7
1000

1040
0.0
  0
LINE
  5
35E4
330
1F
100
AcDbEntity
  8
AM_0
100
AcDbLine
 10
-49.65624999999299
 20
1.999999999999992
 30
0.0
 11
-49.65624999999299
 21
-2.000000000000007
 31
0.0
  0
LINE
  5
35E5
330
1F
100
AcDbEntity
  8
AM_0
100
AcDbLine
 10
-49.999999999993
 20
1.833333333333321
 30
0.0
 11
-49.999999999993
 21
-1.833333333333349
 31
0.0
  0
LINE
  5
35E6
330
1F
100
AcDbEntity
  8
AM_0
100
AcDbLine
 10
-49.65624999999299
 20
-2.000000000000007
 30
0.0
 11
-49.999999999993
 21
-1.833333333333349
 31
0.0
1001
GENIUS_GENFIL_13
1070
     0
1040
0.5
1040
0.5
1040
20.0
1040
0.0
1002
{
1002
}
1001
GENIUS_GENODEF_13
1002
{
1000
HIER
1070
     0
1002
}
1002
{
1000
MANEDIT
1070
     0
1002
}
1002
{
1000
NOSEL
1070
     0
1002
}
1002
{
1000
BEHIND
1070
     0
1002
}
1002
{
1000
REACTOR
1002
}
1001
GENIUS_GENOBJ-N-CHA_13
1002
{
1000
OWNER
1000
GEN
1002
}
  0
LINE
  5
35E7
330
1F
100
AcDbEntity
  8
AM_0
100
AcDbLine
 10
-49.65624999999299
 20
2.004232093234222
 30
0.0
 11
-49.65624999999299
 21
2.004232093234222
 31
0.0
  0
LINE
  5
35E8
330
1F
100
AcDbEntity
  8
AM_0
100
AcDbLine
 10
-49.65624999999299
 20
1.999999999999992
 30
0.0
 11
-49.999999999993
 21
1.833333333333321
 31
0.0
1001
GENIUS_GENFIL_13
1070
     0
1040
0.5
1040
0.5
1040
20.0
1040
0.0
1002
{
1002
}
1001
GENIUS_GENODEF_13
1002
{
1000
HIER
1070
     0
1002
}
1002
{
1000
MANEDIT
1070
     0
1002
}
1002
{
1000
NOSEL
1070
     0
1002
}
1002
{
1000
BEHIND
1070
     0
1002
}
1002
{
1000
REACTOR
1002
}
1001
GENIUS_GENOBJ-N-CHA_13
1002
{
1000
OWNER
1000
GEN
1002
}
  0
LINE
  5
362A
330
1F
100
AcDbEntity
  8
AM_0
100
AcDbLine
 10
-10.73205080755628
 20
-2.000000000000021
 30
0.0
 11
-6.999999999987394
 21
-1.000000000000014
 31
0.0
  0
LINE
  5
362C
330
1F
100
AcDbEntity
  8
AM_0
100
AcDbLine
 10
-6.999999999987394
 20
0.9999999999999857
 30
0.0
 11
-10.73205080755628
 21
1.999999999999992
 31
0.0
  0
LINE
  5
38D7
330
1F
100
AcDbEntity
  8
AM_0
100
AcDbLine
 10
0.0000000000110809
 20
-0.0211604661727193
 30
0.0
 11
-0.0294655561166941
 21
-0.050419427719649
 31
0.0
  0
LINE
  5
38D8
330
1F
100
AcDbEntity
  8
AM_0
100
AcDbLine
 10
-0.0360050533296637
 20
-0.0203314284861932
 30
0.0
 11
-0.1800252666930682
 21
0.4336540974993654
 31
0.0
  0
LINE
  5
38D9
330
1F
100
AcDbEntity
  8
AM_0
100
AcDbLine
 10
0.0000000000110809
 20
-0.5105429179115987
 30
0.0
 11
-0.0360050533296637
 21
-0.6314391191842248
 31
0.0
  0
LINE
  5
38DA
330
1F
100
AcDbEntity
  8
AM_0
100
AcDbLine
 10
-0.0720101066705148
 20
-0.4701999561321742
 30
0.0
 11
0.0000000000110809
 21
-0.5105429179115987
 31
0.0
  0
LINE
  5
38DB
330
1F
100
AcDbEntity
  8
AM_11
100
AcDbLine
 10
0.000000000012605
 20
-1.000000000000014
 30
0.0
 11
0.0000000000110809
 21
-0.5105429179115987
 31
0.0
  0
LINE
  5
38DC
330
1F
100
AcDbEntity
  8
AM_0
100
AcDbLine
 10
0.0000000000110809
 20
-0.1859894266530233
 30
0.0
 11
0.0000000000110809
 21
-0.5105429179115987
 31
0.0
  0
LINE
  5
38DD
330
1F
100
AcDbEntity
  8
AM_0
100
AcDbLine
 10
0.0000000000110809
 20
-0.5105429179115987
 30
0.0
 11
-0.0360050533296637
 21
-0.3048161802733233
 31
0.0
  0
LINE
  5
38DE
330
1F
100
AcDbEntity
  8
AM_0
100
AcDbLine
 10
-0.1138880939589306
 20
-0.430735255548771
 30
0.0
 11
-0.6401667061088397
 21
-0.3741742437751014
 31
0.0
  0
LINE
  5
38DF
330
1F
100
AcDbEntity
  8
AM_0
100
AcDbLine
 10
0.0000000000110809
 20
-0.5105429179115987
 30
0.0
 11
-0.2679927175542929
 21
-0.7285893773633092
 31
0.0
  0
LINE
  5
38E0
330
1F
100
AcDbEntity
  8
AM_0
100
AcDbLine
 10
-0.0360050533296637
 20
-0.6314391191842248
 30
0.0
 11
-0.1800252666930682
 21
-0.8401259079255311
 31
0.0
  0
LINE
  5
38E1
330
1F
100
AcDbEntity
  8
AM_0
100
AcDbLine
 10
-0.0360050533296637
 20
-0.3048161802733233
 30
0.0
 11
-0.0360050533296637
 21
-0.0203314284861932
 31
0.0
  0
LINE
  5
38E2
330
1F
100
AcDbEntity
  8
AM_0
100
AcDbLine
 10
-0.0360050533296637
 20
-0.0203314284861932
 30
0.0
 11
0.0000000000110809
 21
-0.1859894266530233
 31
0.0
  0
LINE
  5
38E3
330
1F
100
AcDbEntity
  8
AM_0
100
AcDbLine
 10
-0.8321936572598573
 20
0.5566171064752412
 30
0.0
 11
-0.6778250211533781
 21
0.4033308094745821
 31
0.0
  0
LINE
  5
38E4
330
1F
100
AcDbEntity
  8
AM_0
100
AcDbLine
 10
0.0000000000110809
 20
-0.0211604661727193
 30
0.0
 11
0.0000000000110809
 21
0.9999999999999857
 31
0.0
  0
LINE
  5
38E5
330
1F
100
AcDbEntity
  8
AM_11
100
AcDbLine
 10
0.000000000012605
 20
-1.000000000000014
 30
0.0
 11
0.000000000012605
 21
0.9999999999999857
 31
0.0
  0
LINE
  5
38E6
330
1F
100
AcDbEntity
  8
AM_0
100
AcDbLine
 10
-5.970847269208093
 20
0.9999999999999857
 30
0.0
 11
-6.999999999987394
 21
0.9999999999999857
 31
0.0
  0
LINE
  5
38E7
330
1F
100
AcDbEntity
  8
AM_0
100
AcDbLine
 10
-5.27282004514819
 20
-1.000000000000014
 30
0.0
 11
-6.999999999987394
 21
-1.000000000000014
 31
0.0
  0
LINE
  5
38E8
330
1F
100
AcDbEntity
  8
AM_0
100
AcDbLine
 10
-5.280741156643607
 20
0.5424072582949266
 30
0.0
 11
-5.280741156642818
 21
0.6987940014803968
 31
0.0
  0
LINE
  5
38E9
330
1F
100
AcDbEntity
  8
AM_11
100
AcDbLine
 10
-6.000000844134238
 20
-1.000000000000014
 30
0.0
 11
-6.000000844134238
 21
0.9999999999999857
 31
0.0
  0
POLYLINE
  5
38EA
330
1F
100
AcDbEntity
  8
AM_0
100
AcDb2dPolyline
 66
     1
 10
0.0
 20
0.0
 30
0.0
 70
     2
  0
VERTEX
  5
38EB
330
38EA
100
AcDbEntity
  8
AM_0
100
AcDbVertex
100
AcDb2dVertex
 10
-5.280741156642189
 20
0.542407258294432
 30
0.0
 42
0.0163510200184555
  0
VERTEX
  5
38EC
330
38EA
100
AcDbEntity
  8
AM_0
100
AcDbVertex
100
AcDb2dVertex
 10
-5.56484057155275
 20
0.6325338877697932
 30
0.0
 42
0.0236329905934865
 70
     1
  0
VERTEX
  5
38ED
330
38EA
100
AcDbEntity
  8
AM_0
100
AcDbVertex
100
AcDb2dVertex
 10
-5.766809376743999
 20
0.6816240097304018
 30
0.0
 42
0.0136924015569504
  0
VERTEX
  5
38EE
330
38EA
100
AcDbEntity
  8
AM_0
100
AcDbVertex
100
AcDb2dVertex
 10
-6.258125631263077
 20
0.768533919606992
 30
0.0
 42
0.0437471596433213
 70
     1
  0
VERTEX
  5
38EF
330
38EA
100
AcDbEntity
  8
AM_0
100
AcDbVertex
100
AcDb2dVertex
 10
-6.414900336878265
 20
0.7808982737677725
 30
0.0
 42
0.0737828887826182
  0
VERTEX
  5
38F0
330
38EA
100
AcDbEntity
  8
AM_0
100
AcDbVertex
100
AcDb2dVertex
 10
-6.553197871204506
 20
0.7646167097045095
 30
0.0
 42
0.3022986902902931
 70
     1
  0
VERTEX
  5
38F1
330
38EA
100
AcDbEntity
  8
AM_0
100
AcDbVertex
100
AcDb2dVertex
 10
-6.576923076911999
 20
0.7409557863695313
 30
0.0
 42
0.1640404297379002
  0
VERTEX
  5
38F2
330
38EA
100
AcDbEntity
  8
AM_0
100
AcDbVertex
100
AcDb2dVertex
 10
-6.565422737652117
 20
0.6973499730297847
 30
0.0
 42
0.0324399100382136
 70
     1
  0
VERTEX
  5
38F3
330
38EA
100
AcDbEntity
  8
AM_0
100
AcDbVertex
100
AcDb2dVertex
 10
-6.414900336878265
 20
0.5165028920385538
 30
0.0
 42
0.0076492520245086
  0
VERTEX
  5
38F4
330
38EA
100
AcDbEntity
  8
AM_0
100
AcDbVertex
100
AcDb2dVertex
 10
-6.220430465324927
 20
0.3187732145295542
 30
0.0
 42
0.0033664759505265
 70
     1
  0
VERTEX
  5
38F5
330
38EA
100
AcDbEntity
  8
AM_0
100
AcDbVertex
100
AcDb2dVertex
 10
-5.76680937674336
 20
-0.1222644716549183
 30
0.0
 42
0.0145714002245221
  0
VERTEX
  5
38F6
330
38EA
100
AcDbEntity
  8
AM_0
100
AcDbVertex
100
AcDb2dVertex
 10
-5.609634667556104
 20
-0.2644256810663279
 30
0.0
 42
0.007325916991168
 70
     1
  0
VERTEX
  5
38F7
330
38EA
100
AcDbEntity
  8
AM_0
100
AcDbVertex
100
AcDb2dVertex
 10
-5.282505868824941
 20
-0.5354696542336541
 30
0.0
  0
SEQEND
  5
38F8
330
38EA
100
AcDbEntity
  8
AM_0
  0
LINE
  5
38F9
330
1F
100
AcDbEntity
  8
AM_11
100
AcDbLine
 10
-6.000000844134238
 20
-1.000000000000014
 30
0.0
 11
0.000000000012605
 21
-1.000000000000014
 31
0.0
  0
LINE
  5
38FA
330
1F
100
AcDbEntity
  8
AM_11
100
AcDbLine
 10
0.000000000012605
 20
0.9999999999999857
 30
0.0
 11
-6.000000844134238
 21
0.9999999999999857
 31
0.0
  0
DIMENSION
  5
38FB
330
1F
100
AcDbEntity
  8
AM_5
100
AcDbDimension
  2
*D6
 10
14.8794966799315
 20
0.9999999999999701
 30
0.0
 11
14.8794966799315
 21
10.03999999960984
 31
0.0
 70
   160
  1
%%c<>
  3
AM_JIS
100
AcDbAlignedDimension
 13
0.0000000000110809
 23
-1.00000000028003
 33
0.0
 14
0.000000000012605
 24
0.9999999999999744
 34
0.0
 50
89.99999999361357
100
AcDbRotatedDimension
1001
GENIUS_GENDTOL_13
1000

1000
h7
1000

1040
0.0
  0
ELLIPSE
  5
390A
330
1F
100
AcDbEntity
  8
AM_0
100
AcDbEllipse
 10
-0.0289239535910824
 20
-0.6775396452371894
 30
0.0
 11
0.2467948049370858
 21
0.0000000000000039
 31
0.0
210
0.0
220
0.0
230
1.0
 40
0.8332163742688059
 41
3.392472074534122
 42
4.053479687717057
  0
ELLIPSE
  5
390B
330
1F
100
AcDbEntity
  8
AM_0
100
AcDbEllipse
 10
1.911409181008711
 20
0.3378410547780363
 30
0.0
 11
-2.09459331635228
 21
0.0000000000000066
 31
0.0
210
0.0
220
0.0
230
1.0
 40
0.8332163742688161
 41
-0.054926954584225
 42
0.3771070164460981
  0
SPLINE
  5
390C
330
1F
100
AcDbEntity
  8
AM_0
100
AcDbSpline
210
0.0
220
0.0
230
1.0
 70
     8
 71
     3
 72
     8
 73
     4
 74
     0
 42
0.0000000001
 43
0.0000000001
 40
0.6397612841816997
 40
0.6397612841816997
 40
0.6397612841816997
 40
0.6397612841816997
 40
7.939880490758838
 40
7.939880490758838
 40
7.939880490758838
 40
7.939880490758838
 10
-5.648609372152556
 20
0.9041045193921632
 30
0.0
 10
-5.087554994232412
 20
0.8143754321176032
 30
0.0
 10
-4.652417939818185
 20
0.4071877160588003
 30
0.0
 10
-4.217280885404171
 20
0.0000000000000142
 30
0.0
  0
SPLINE
  5
390D
330
1F
100
AcDbEntity
  8
AM_0
100
AcDbSpline
210
0.0
220
0.0
230
1.0
 70
     8
 71
     3
 72
     8
 73
     4
 74
     0
 42
0.0000000001
 43
0.0000000001
 40
0.5179125576517913
 40
0.5179125576517913
 40
0.5179125576517913
 40
0.5179125576517913
 40
8.138271981564475
 40
8.138271981564475
 40
8.138271981564475
 40
8.138271981564475
 10
-5.970847269208093
 20
0.9999999999999857
 30
0.0
 10
-5.382573853313587
 20
0.8942784732500371
 30
0.0
 10
-4.946852901334811
 20
0.4471392366250059
 30
0.0
 10
-4.511131949355938
 20
0.0000000000000142
 30
0.0
  0
SPLINE
  5
390E
330
1F
100
AcDbEntity
  8
AM_0
100
AcDbSpline
210
0.0
220
0.0
230
1.0
 70
     8
 71
     3
 72
     8
 73
     4
 74
     0
 42
0.0000000001
 43
0.0000000001
 40
0.2299567350972117
 40
0.2299567350972117
 40
0.2299567350972117
 40
0.2299567350972117
 40
7.769701155129346
 40
7.769701155129346
 40
7.769701155129346
 40
7.769701155129346
 10
-5.388459803891528
 20
0.8379546886483552
 30
0.0
 10
-4.793207997552364
 20
0.7988054301778079
 30
0.0
 10
-4.327337380068794
 20
0.3994027150888855
 30
0.0
 10
-3.861466762585436
 20
-0.0000000000000142
 30
0.0
  0
SPLINE
  5
390F
330
1F
100
AcDbEntity
  8
AM_0
100
AcDbSpline
210
0.0
220
0.0
230
1.0
 70
     8
 71
     3
 72
     8
 73
     4
 74
     0
 42
0.0000000001
 43
0.0000000001
 40
5.129729518825886
 40
5.129729518825886
 40
5.129729518825886
 40
5.129729518825886
 40
8.272127900365292
 40
8.272127900365292
 40
8.272127900365292
 40
8.272127900365292
 10
-5.280741156643607
 20
0.5424072582949266
 30
0.0
 10
-5.094938058321819
 20
0.3798778765740025
 30
0.0
 10
-4.920202044435789
 20
0.1899389382869885
 30
0.0
 10
-4.745466030549771
 20
-0.0000000000000142
 30
0.0
  0
SPLINE
  5
3910
330
1F
100
AcDbEntity
  8
AM_0
100
AcDbSpline
210
0.0
220
0.0
230
1.0
 70
     8
 71
     3
 72
     8
 73
     4
 74
     0
 42
0.0000000001
 43
0.0000000001
 40
0.5179125576349786
 40
0.5179125576349786
 40
0.5179125576349786
 40
0.5179125576349786
 40
1.981387939834528
 40
1.981387939834528
 40
1.981387939834528
 40
1.981387939834528
 10
-4.916379273703665
 20
-0.9493786916226698
 30
0.0
 10
-4.803402494752344
 20
-0.9387968005787826
 30
0.0
 10
-4.696052226608689
 20
-0.9137555444311859
 30
0.0
 10
-4.593247908685334
 20
-0.8770318164593534
 30
0.0
  0
SPLINE
  5
3911
330
1F
100
AcDbEntity
  8
AM_0
100
AcDbSpline
210
0.0
220
0.0
230
1.0
 70
     8
 71
     3
 72
     8
 73
     4
 74
     0
 42
0.0000000001
 43
0.0000000001
 40
0.6432030004477055
 40
0.6432030004477055
 40
0.6432030004477055
 40
0.6432030004477055
 40
1.797818050668038
 40
1.797818050668038
 40
1.797818050668038
 40
1.797818050668038
 10
-4.593365591971149
 20
-0.8770452730932307
 30
0.0
 10
-4.504666566794185
 20
-0.8669068430745456
 30
0.0
 10
-4.419133682371679
 20
-0.8481662286152953
 30
0.0
 10
-4.336265933448665
 20
-0.8221846261823801
 30
0.0
  0
SPLINE
  5
3912
330
1F
100
AcDbEntity
  8
AM_0
100
AcDbSpline
210
0.0
220
0.0
230
1.0
 70
     8
 71
     3
 72
     8
 73
     4
 74
     0
 42
0.0000000001
 43
0.0000000001
 40
0.0
 40
0.0
 40
0.0
 40
0.0
 40
1.570112951298052
 40
1.570112951298052
 40
1.570112951298052
 40
1.570112951298052
 10
-5.27282004514851
 20
-1.000000000000031
 30
0.0
 10
-5.147193377231545
 20
-1.000000000000031
 30
0.0
 10
-5.028839959533542
 20
-0.9819865327268331
 30
0.0
 10
-4.916379273703569
 20
-0.9493786916233974
 30
0.0
  0
SPLINE
  5
3913
330
1F
100
AcDbEntity
  8
AM_0
100
AcDbSpline
210
0.0
220
0.0
230
1.0
 70
     8
 71
     3
 72
     8
 73
     4
 74
     0
 42
0.0000000001
 43
0.0000000001
 40
0.0
 40
0.0
 40
0.0
 40
0.0
 40
1.973247866266529
 40
1.973247866266529
 40
1.973247866266529
 40
1.973247866266529
 10
-4.388820777184069
 20
-0.8231684163042162
 30
0.0
 10
-4.230938789007186
 20
-0.8231684163042162
 30
0.0
 10
-4.08218886306421
 20
-0.7966215442255902
 30
0.0
 10
-3.940251756702345
 20
-0.7502698301206607
 30
0.0
  0
SPLINE
  5
3914
330
1F
100
AcDbEntity
  8
AM_0
100
AcDbSpline
210
0.0
220
0.0
230
1.0
 70
     8
 71
     3
 72
     8
 73
     4
 74
     0
 42
0.0000000001
 43
0.0000000001
 40
0.1383879590723462
 40
0.1383879590723462
 40
0.1383879590723462
 40
0.1383879590723462
 40
4.12619780763684
 40
4.12619780763684
 40
4.12619780763684
 40
4.12619780763684
 10
-4.421984612319796
 20
-0.8227790289777518
 30
0.0
 10
-4.738488615048588
 20
-0.8153209353683935
 30
0.0
 10
-5.018359875987364
 20
-0.7013715930921451
 30
0.0
 10
-5.280741156642179
 20
-0.536578941017396
 30
0.0
  0
SPLINE
  5
3915
330
1F
100
AcDbEntity
  8
AM_0
100
AcDbSpline
210
0.0
220
0.0
230
1.0
 70
     8
 71
     3
 72
     8
 73
     4
 74
     0
 42
0.0000000001
 43
0.0000000001
 40
0.0
 40
0.0
 40
0.0
 40
0.0
 40
1.570112951298052
 40
1.570112951298052
 40
1.570112951298052
 40
1.570112951298052
 10
-5.272900056297661
 20
-1.000000000000031
 30
0.0
 10
-5.147273388380696
 20
-1.000000000000031
 30
0.0
 10
-5.028919970682693
 20
-0.9819865327268331
 30
0.0
 10
-4.91645928485272
 20
-0.9493786916233974
 30
0.0
  0
SPLINE
  5
3916
330
1F
100
AcDbEntity
  8
AM_0
100
AcDbSpline
210
0.0
220
0.0
230
1.0
 70
     8
 71
     3
 72
     8
 73
     4
 74
     0
 42
0.0000000001
 43
0.0000000001
 40
0.0
 40
0.0
 40
0.0
 40
0.0
 40
8.27212790036493
 40
8.27212790036493
 40
8.27212790036493
 40
8.27212790036493
 10
-3.163644020442788
 20
-1.000000000000031
 30
0.0
 10
-3.825507145542328
 20
-1.000000000000031
 30
0.0
 10
-4.285486588046055
 20
-0.5000000000000313
 30
0.0
 10
-4.745466030549771
 20
-0.0000000000000312
 30
0.0
  0
SPLINE
  5
3917
330
1F
100
AcDbEntity
  8
AM_0
100
AcDbSpline
210
0.0
220
0.0
230
1.0
 70
     8
 71
     3
 72
     8
 73
     4
 74
     0
 42
0.0000000001
 43
0.0000000001
 40
0.0
 40
0.0
 40
0.0
 40
0.0
 40
3.655156164497277
 40
3.655156164497277
 40
3.655156164497277
 40
3.655156164497277
 10
-4.21819202710029
 20
0.9999999999999857
 30
0.0
 10
-4.510645566371
 20
1.000000000000144
 30
0.0
 10
-4.763682555559917
 20
0.9023780684629485
 30
0.0
 10
-4.994719752211238
 20
0.7502698301208143
 30
0.0
  0
SPLINE
  5
3918
330
1F
100
AcDbEntity
  8
AM_0
100
AcDbSpline
210
0.0
220
0.0
230
1.0
 70
     8
 71
     3
 72
     8
 73
     4
 74
     0
 42
0.0000000001
 43
0.0000000001
 40
5.58452476840911
 40
5.58452476840911
 40
5.58452476840911
 40
5.58452476840911
 40
8.27212790036518
 40
8.27212790036518
 40
8.27212790036518
 40
8.27212790036518
 10
-0.0720101066704082
 20
-0.4701999561320775
 30
0.0
 10
-0.2283806098146783
 20
-0.3248986432907401
 30
0.0
 10
-0.3778273066257185
 20
-0.1624493216453999
 30
0.0
 10
-0.5272740034367587
 20
-0.0000000000000312
 30
0.0
  0
SPLINE
  5
3919
330
1F
100
AcDbEntity
  8
AM_0
100
AcDbSpline
210
0.0
220
0.0
230
1.0
 70
     8
 71
     3
 72
     8
 73
     4
 74
     0
 42
0.0000000001
 43
0.0000000001
 40
6.850968446318445
 40
6.850968446318445
 40
6.850968446318445
 40
6.850968446318445
 40
8.138271981564475
 40
8.138271981564475
 40
8.138271981564475
 40
8.138271981564475
 10
-0.0713861292558065
 20
-0.2247150975379924
 30
0.0
 10
-0.1457276739327149
 20
-0.1510700186262881
 30
0.0
 10
-0.2193337980878205
 20
-0.0755350093131568
 30
0.0
 10
-0.2929399222429261
 20
-0.0000000000000312
 30
0.0
  0
SPLINE
  5
391A
330
1F
100
AcDbEntity
  8
AM_0
100
AcDbSpline
210
0.0
220
0.0
230
1.0
 70
     8
 71
     3
 72
     8
 73
     4
 74
     0
 42
0.0000000001
 43
0.0000000001
 40
0.0
 40
0.0
 40
0.0
 40
0.0
 40
3.860109074512531
 40
3.860109074512531
 40
3.860109074512531
 40
3.860109074512531
 10
-0.0720101066704082
 20
0.9980074545942471
 30
0.0
 10
-0.0120674292002576
 20
0.7455601097366157
 30
0.0
 10
-0.5233415836397555
 20
0.5566171064752412
 30
0.0
 10
-0.8321936572602943
 20
0.5566171064752412
 30
0.0
  0
SPLINE
  5
391B
330
1F
100
AcDbEntity
  8
AM_0
100
AcDbSpline
210
0.0
220
0.0
230
1.0
 70
     8
 71
     3
 72
     8
 73
     4
 74
     0
 42
0.0000000001
 43
0.0000000001
 40
0.2299567350972117
 40
0.2299567350972117
 40
0.2299567350972117
 40
0.2299567350972117
 40
4.912075065647881
 40
4.912075065647881
 40
4.912075065647881
 40
4.912075065647881
 10
-1.170267776778409
 20
0.8220974944663367
 30
0.0
 10
-0.8006213751910777
 20
0.807633317023928
 30
0.0
 10
-0.4808683229456037
 20
0.6481293524410916
 30
0.0
 10
-0.1800252666930682
 20
0.4336540974993711
 30
0.0
  0
SPLINE
  5
391C
330
1F
100
AcDbEntity
  8
AM_0
100
AcDbSpline
210
0.0
220
0.0
230
1.0
 70
     8
 71
     3
 72
     8
 73
     4
 74
     0
 42
0.0000000001
 43
0.0000000001
 40
0.0
 40
0.0
 40
0.0
 40
0.0
 40
3.655156164497277
 40
3.655156164497277
 40
3.655156164497277
 40
3.655156164497277
 10
0.000000000012605
 20
0.9999999999999857
 30
0.0
 10
-0.2924535392579877
 20
1.000000000000144
 30
0.0
 10
-0.5454905284470222
 20
0.9023780684629485
 30
0.0
 10
-0.7765277250983438
 20
0.7502698301208143
 30
0.0
  0
SPLINE
  5
391D
330
1F
100
AcDbEntity
  8
AM_0
100
AcDbSpline
210
0.0
220
0.0
230
1.0
 70
     8
 71
     3
 72
     8
 73
     4
 74
     0
 42
0.0000000001
 43
0.0000000001
 40
0.0
 40
0.0
 40
0.0
 40
0.0
 40
8.272127900365285
 40
8.272127900365285
 40
8.272127900365285
 40
8.272127900365285
 10
-2.109096013543847
 20
0.9999999999999857
 30
0.0
 10
-1.447232888444275
 20
0.9999999999999857
 30
0.0
 10
-0.9872534459405173
 20
0.4999999999999859
 30
0.0
 10
-0.5272740034367587
 20
-0.0000000000000142
 30
0.0
  0
SPLINE
  5
391E
330
1F
100
AcDbEntity
  8
AM_0
100
AcDbSpline
210
0.0
220
0.0
230
1.0
 70
     8
 71
     3
 72
     8
 73
     4
 74
     0
 42
0.0000000001
 43
0.0000000001
 40
0.5179125576517913
 40
0.5179125576517913
 40
0.5179125576517913
 40
0.5179125576517913
 40
8.138271981564475
 40
8.138271981564475
 40
8.138271981564475
 40
8.138271981564475
 10
-1.752655242095197
 20
0.9493786916222717
 30
0.0
 10
-1.164381826200585
 20
0.8942784732500371
 30
0.0
 10
-0.7286608742217027
 20
0.4471392366250059
 30
0.0
 10
-0.2929399222429261
 20
0.0000000000000142
 30
0.0
  0
SPLINE
  5
391F
330
1F
100
AcDbEntity
  8
AM_0
100
AcDbSpline
210
0.0
220
0.0
230
1.0
 70
     8
 71
     3
 72
     8
 73
     4
 74
     0
 42
0.0000000001
 43
0.0000000001
 40
0.6397612841816997
 40
0.6397612841816997
 40
0.6397612841816997
 40
0.6397612841816997
 40
6.972227720174165
 40
6.972227720174165
 40
6.972227720174165
 40
6.972227720174165
 10
-1.430417345039661
 20
0.8773506458053219
 30
0.0
 10
-0.9437324134092222
 20
0.8227229862162033
 30
0.0
 10
-0.5517957701162289
 20
0.509087713410068
 30
0.0
 10
-0.1724182975879387
 20
0.1611202019870774
 30
0.0
  0
SPLINE
  5
3920
330
1F
100
AcDbEntity
  8
AM_0
100
AcDbSpline
210
0.0
220
0.0
230
1.0
 70
     8
 71
     3
 72
     8
 73
     4
 74
     0
 42
0.0000000001
 43
0.0000000001
 40
0.0
 40
0.0
 40
0.0
 40
0.0
 40
0.0092824582075338
 40
0.0092824582075338
 40
0.0092824582075338
 40
0.0092824582075338
 10
-0.1705487389219051
 20
-0.8231684163042162
 30
0.0
 10
-0.1698060380265076
 20
-0.8231684163042162
 30
0.0
 10
-0.1690635392150703
 20
-0.8231678288471899
 30
0.0
 10
-0.1683212422459306
 20
-0.8231666546350341
 30
0.0
  0
SPLINE
  5
3921
330
1F
100
AcDbEntity
  8
AM_0
100
AcDbSpline
210
0.0
220
0.0
230
1.0
 70
     8
 71
     3
 72
     8
 73
     4
 74
     0
 42
0.0000000001
 43
0.0000000001
 40
0.0
 40
0.0
 40
0.0
 40
0.0
 40
1.512029330426235
 40
1.512029330426235
 40
1.512029330426235
 40
1.512029330426235
 10
-0.5263628617405339
 20
-0.8857449341098943
 30
0.0
 10
-0.4053837135024203
 20
-0.8855721381005738
 30
0.0
 10
-0.2903128992303721
 20
-0.8693468092274402
 30
0.0
 10
-0.1800252666930682
 20
-0.8401259079252982
 30
0.0
  0
SPLINE
  5
3922
330
1F
100
AcDbEntity
  8
AM_0
100
AcDbSpline
210
0.0
220
0.0
230
1.0
 70
     8
 71
     3
 72
     8
 73
     4
 74
     0
 42
0.0000000001
 43
0.0000000001
 40
0.0
 40
0.0
 40
0.0
 40
0.0
 40
1.981387939834528
 40
1.981387939834528
 40
1.981387939834528
 40
1.981387939834528
 10
-0.8202139256922897
 20
-0.9550575028953888
 30
0.0
 10
-0.6616806402198244
 20
-0.9550575028953604
 30
0.0
 10
-0.5141618370432255
 20
-0.9267517861931681
 30
0.0
 10
-0.3749758704230643
 20
-0.8770318164593534
 30
0.0
  0
SPLINE
  5
3923
330
1F
100
AcDbEntity
  8
AM_0
100
AcDbSpline
210
0.0
220
0.0
230
1.0
 70
     8
 71
     3
 72
     8
 73
     4
 74
     0
 42
0.0000000001
 43
0.0000000001
 40
0.0
 40
0.0
 40
0.0
 40
0.0
 40
1.570112951298052
 40
1.570112951298052
 40
1.570112951298052
 40
1.570112951298052
 10
-1.054548006886239
 20
-1.000000000000031
 30
0.0
 10
-0.9289213389692747
 20
-1.000000000000031
 30
0.0
 10
-0.8105679212712715
 20
-0.9819865327268331
 30
0.0
 10
-0.6981072354412988
 20
-0.9493786916233974
 30
0.0
  0
SPLINE
  5
3924
330
1F
100
AcDbEntity
  8
AM_0
100
AcDbSpline
210
0.0
220
0.0
230
1.0
 70
     8
 71
     3
 72
     8
 73
     4
 74
     0
 42
0.0000000001
 43
0.0000000001
 40
0.0
 40
0.0
 40
0.0
 40
0.0
 40
1.973247866266529
 40
1.973247866266529
 40
1.973247866266529
 40
1.973247866266529
 10
-2.279644752478358
 20
-0.8231684163042162
 30
0.0
 10
-2.121762764301475
 20
-0.8231684163042162
 30
0.0
 10
-1.973012838358489
 20
-0.7966215442255902
 30
0.0
 10
-1.831075731996644
 20
-0.7502698301206607
 30
0.0
  0
SPLINE
  5
3925
330
1F
100
AcDbEntity
  8
AM_0
100
AcDbSpline
210
0.0
220
0.0
230
1.0
 70
     8
 71
     3
 72
    10
 73
     6
 74
     0
 42
0.0000000001
 43
0.0000000001
 40
0.0
 40
0.0
 40
0.0
 40
0.0
 40
1.624816058741878
 40
2.635428435777873
 40
3.678161543961334
 40
3.678161543961334
 40
3.678161543961334
 40
3.678161543961334
 10
-0.2679927175542929
 20
-0.7285893773632637
 30
0.0
 10
-0.3937649651178674
 20
-0.701178461113372
 30
0.0
 10
-0.5626056141222513
 20
-0.6622828911779636
 30
0.0
 10
-0.9385536406168064
 20
-0.5280311093677739
 30
0.0
 10
-0.7229115711074954
 20
-0.365281362370925
 30
0.0
 10
-0.6401667061088397
 20
-0.3741742437751014
 30
0.0
  0
SPLINE
  5
3926
330
1F
100
AcDbEntity
  8
AM_0
100
AcDbSpline
210
0.0
220
0.0
230
1.0
 70
     8
 71
     3
 72
     8
 73
     4
 74
     0
 42
0.0000000001
 43
0.0000000001
 40
0.0
 40
0.0
 40
0.0
 40
0.0
 40
8.138271981564608
 40
8.138271981564608
 40
8.138271981564608
 40
8.138271981564608
 10
-0.8202139256922897
 20
-0.9550575028953888
 30
0.0
 10
-1.47136707413318
 20
-0.9550575028953888
 30
0.0
 10
-1.936701504966279
 20
-0.4775287514477071
 30
0.0
 10
-2.402035935799379
 20
-0.0000000000000312
 30
0.0
  0
SPLINE
  5
3927
330
1F
100
AcDbEntity
  8
AM_0
100
AcDbSpline
210
0.0
220
0.0
230
1.0
 70
     8
 71
     3
 72
     8
 73
     4
 74
     0
 42
0.0000000001
 43
0.0000000001
 40
0.0
 40
0.0
 40
0.0
 40
0.0
 40
7.939880490758586
 40
7.939880490758586
 40
7.939880490758586
 40
7.939880490758586
 10
-0.5263628617405339
 20
-0.8857449341099114
 30
0.0
 10
-1.161642463050668
 20
-0.8857449341099114
 30
0.0
 10
-1.634913667449087
 20
-0.4428724670549712
 30
0.0
 10
-2.108184871847505
 20
-0.0000000000000312
 30
0.0
  0
SPLINE
  5
3928
330
1F
100
AcDbEntity
  8
AM_0
100
AcDbSpline
210
0.0
220
0.0
230
1.0
 70
     8
 71
     3
 72
     8
 73
     4
 74
     0
 42
0.0000000001
 43
0.0000000001
 40
0.1383879590723462
 40
0.1383879590723462
 40
0.1383879590723462
 40
0.1383879590723462
 40
7.769701155129346
 40
7.769701155129346
 40
7.769701155129346
 40
7.769701155129346
 10
-0.2036325629083748
 20
-0.8227790289777518
 30
0.0
 10
-0.8093136922376906
 20
-0.8085067716886984
 30
0.0
 10
-1.280842220633235
 20
-0.404253385844359
 30
0.0
 10
-1.752370749028877
 20
-0.0000000000000312
 30
0.0
  0
SPLINE
  5
3929
330
1F
100
AcDbEntity
  8
AM_0
100
AcDbSpline
210
0.0
220
0.0
230
1.0
 70
     8
 71
     3
 72
     8
 73
     4
 74
     0
 42
0.0000000001
 43
0.0000000001
 40
0.0
 40
0.0
 40
0.0
 40
0.0
 40
1.570112951298052
 40
1.570112951298052
 40
1.570112951298052
 40
1.570112951298052
 10
-3.163644020442788
 20
-1.000000000000031
 30
0.0
 10
-3.038017352525834
 20
-1.000000000000031
 30
0.0
 10
-2.919663934827831
 20
-0.9819865327268331
 30
0.0
 10
-2.807203248997858
 20
-0.9493786916233974
 30
0.0
  0
SPLINE
  5
392A
330
1F
100
AcDbEntity
  8
AM_0
100
AcDbSpline
210
0.0
220
0.0
230
1.0
 70
     8
 71
     3
 72
     8
 73
     4
 74
     0
 42
0.0000000001
 43
0.0000000001
 40
0.0
 40
0.0
 40
0.0
 40
0.0
 40
8.138271981564608
 40
8.138271981564608
 40
8.138271981564608
 40
8.138271981564608
 10
-2.929309939248849
 20
-0.9550575028953888
 30
0.0
 10
-3.580463087689739
 20
-0.9550575028953888
 30
0.0
 10
-4.045797518522839
 20
-0.4775287514477071
 30
0.0
 10
-4.511131949355938
 20
-0.0000000000000312
 30
0.0
  0
SPLINE
  5
392B
330
1F
100
AcDbEntity
  8
AM_0
100
AcDbSpline
210
0.0
220
0.0
230
1.0
 70
     8
 71
     3
 72
     8
 73
     4
 74
     0
 42
0.0000000001
 43
0.0000000001
 40
0.0
 40
0.0
 40
0.0
 40
0.0
 40
7.939880490758586
 40
7.939880490758586
 40
7.939880490758586
 40
7.939880490758586
 10
-2.635458875297093
 20
-0.8857449341099114
 30
0.0
 10
-3.270738476607228
 20
-0.8857449341099114
 30
0.0
 10
-3.744009681005646
 20
-0.4428724670549712
 30
0.0
 10
-4.217280885404065
 20
-0.0000000000000312
 30
0.0
  0
SPLINE
  5
392C
330
1F
100
AcDbEntity
  8
AM_0
100
AcDbSpline
210
0.0
220
0.0
230
1.0
 70
     8
 71
     3
 72
     8
 73
     4
 74
     0
 42
0.0000000001
 43
0.0000000001
 40
0.0
 40
0.0
 40
0.0
 40
0.0
 40
7.769701155129467
 40
7.769701155129467
 40
7.769701155129467
 40
7.769701155129467
 10
-2.279644752478358
 20
-0.8231684163042162
 30
0.0
 10
-2.90130809588442
 20
-0.8231684163042162
 30
0.0
 10
-3.381387429234923
 20
-0.4115842081521208
 30
0.0
 10
-3.861466762585436
 20
-0.0000000000000312
 30
0.0
  0
SPLINE
  5
392D
330
1F
100
AcDbEntity
  8
AM_0
100
AcDbSpline
210
0.0
220
0.0
230
1.0
 70
     8
 71
     3
 72
     8
 73
     4
 74
     0
 42
0.0000000001
 43
0.0000000001
 40
0.0
 40
0.0
 40
0.0
 40
0.0
 40
1.797818050668038
 40
1.797818050668038
 40
1.797818050668038
 40
1.797818050668038
 10
-2.635458875297093
 20
-0.8857449341098943
 30
0.0
 10
-2.491613453729978
 20
-0.8855394779204205
 30
0.0
 10
-2.35612090899157
 20
-0.8626398357609021
 30
0.0
 10
-2.227089908742954
 20
-0.8221846261823801
 30
0.0
  0
SPLINE
  5
392E
330
1F
100
AcDbEntity
  8
AM_0
100
AcDbSpline
210
0.0
220
0.0
230
1.0
 70
     8
 71
     3
 72
     8
 73
     4
 74
     0
 42
0.0000000001
 43
0.0000000001
 40
0.0
 40
0.0
 40
0.0
 40
0.0
 40
1.981387939834528
 40
1.981387939834528
 40
1.981387939834528
 40
1.981387939834528
 10
-2.929309939248849
 20
-0.9550575028953888
 30
0.0
 10
-2.770776653776383
 20
-0.9550575028953604
 30
0.0
 10
-2.623257850599774
 20
-0.9267517861931681
 30
0.0
 10
-2.484071883979623
 20
-0.8770318164593534
 30
0.0
  0
SPLINE
  5
392F
330
1F
100
AcDbEntity
  8
AM_0
100
AcDbSpline
210
0.0
220
0.0
230
1.0
 70
     8
 71
     3
 72
     8
 73
     4
 74
     0
 42
0.0000000001
 43
0.0000000001
 40
0.0
 40
0.0
 40
0.0
 40
0.0
 40
8.272127900365292
 40
8.272127900365292
 40
8.272127900365292
 40
8.272127900365292
 10
-1.054548006886239
 20
-1.000000000000031
 30
0.0
 10
-1.7164111319858
 20
-1.000000000000031
 30
0.0
 10
-2.176390574489559
 20
-0.5000000000000313
 30
0.0
 10
-2.636370016993318
 20
-0.0000000000000312
 30
0.0
  0
SPLINE
  5
3930
330
1F
100
AcDbEntity
  8
AM_0
100
AcDbSpline
210
0.0
220
0.0
230
1.0
 70
     8
 71
     3
 72
     8
 73
     4
 74
     0
 42
0.0000000001
 43
0.0000000001
 40
0.0
 40
0.0
 40
0.0
 40
0.0
 40
3.655156164497277
 40
3.655156164497277
 40
3.655156164497277
 40
3.655156164497277
 10
-2.109096013543847
 20
0.9999999999999857
 30
0.0
 10
-2.401549552814547
 20
1.000000000000144
 30
0.0
 10
-2.654586542003464
 20
0.9023780684629485
 30
0.0
 10
-2.885623738654796
 20
0.7502698301208143
 30
0.0
  0
SPLINE
  5
3931
330
1F
100
AcDbEntity
  8
AM_0
100
AcDbSpline
210
0.0
220
0.0
230
1.0
 70
     8
 71
     3
 72
     8
 73
     4
 74
     0
 42
0.0000000001
 43
0.0000000001
 40
0.6397612841816997
 40
0.6397612841816997
 40
0.6397612841816997
 40
0.6397612841816997
 40
7.939880490758838
 40
7.939880490758838
 40
7.939880490758838
 40
7.939880490758838
 10
-3.539513358596103
 20
0.8773506458053219
 30
0.0
 10
-2.978458980675853
 20
0.8143754321176032
 30
0.0
 10
-2.543321926261732
 20
0.4071877160588003
 30
0.0
 10
-2.108184871847612
 20
0.0000000000000142
 30
0.0
  0
SPLINE
  5
3932
330
1F
100
AcDbEntity
  8
AM_0
100
AcDbSpline
210
0.0
220
0.0
230
1.0
 70
     8
 71
     3
 72
     8
 73
     4
 74
     0
 42
0.0000000001
 43
0.0000000001
 40
0.2299567350972117
 40
0.2299567350972117
 40
0.2299567350972117
 40
0.2299567350972117
 40
7.769701155129346
 40
7.769701155129346
 40
7.769701155129346
 40
7.769701155129346
 10
-3.279363790334969
 20
0.8220974944663367
 30
0.0
 10
-2.684111983995922
 20
0.7988054301778079
 30
0.0
 10
-2.218241366512341
 20
0.3994027150888855
 30
0.0
 10
-1.752370749028877
 20
-0.0000000000000142
 30
0.0
  0
SPLINE
  5
3933
330
1F
100
AcDbEntity
  8
AM_0
100
AcDbSpline
210
0.0
220
0.0
230
1.0
 70
     8
 71
     3
 72
     8
 73
     4
 74
     0
 42
0.0000000001
 43
0.0000000001
 40
0.5179125576517913
 40
0.5179125576517913
 40
0.5179125576517913
 40
0.5179125576517913
 40
8.138271981564475
 40
8.138271981564475
 40
8.138271981564475
 40
8.138271981564475
 10
-3.86175125565164
 20
0.9493786916222717
 30
0.0
 10
-3.273477839757134
 20
0.8942784732500371
 30
0.0
 10
-2.837756887778262
 20
0.4471392366250059
 30
0.0
 10
-2.402035935799379
 20
0.0000000000000142
 30
0.0
  0
SPLINE
  5
3934
330
1F
100
AcDbEntity
  8
AM_0
100
AcDbSpline
210
0.0
220
0.0
230
1.0
 70
     8
 71
     3
 72
     8
 73
     4
 74
     0
 42
0.0000000001
 43
0.0000000001
 40
0.0
 40
0.0
 40
0.0
 40
0.0
 40
8.272127900364923
 40
8.272127900364923
 40
8.272127900364923
 40
8.272127900364923
 10
-4.21819202710029
 20
0.9999999999999857
 30
0.0
 10
-3.55632890200075
 20
0.9999999999999857
 30
0.0
 10
-3.096349459497034
 20
0.4999999999999973
 30
0.0
 10
-2.636370016993318
 20
-0.0000000000000142
 30
0.0
  0
DIMENSION
  5
3935
330
1F
100
AcDbEntity
  8
AM_5
100
AcDbDimension
  2
*D7
 10
-6.000000844134233
 20
-16.00000100000001
 30
0.0
 11
-3.000000422061576
 21
-12.90000100000002
 31
0.0
 70
    32
  1
<>
  3
AM_JIS
100
AcDbAlignedDimension
 13
0.0000000000110809
 23
-1.250000000000014
 33
0.0
 14
-6.000000844134232
 24
-1.250000000000014
 34
0.0
100
AcDbRotatedDimension
1001
GENIUS_GENDTOL_13
1000

1000
h7
1000

1040
0.0
  0
DIMENSION
  5
3944
330
1F
100
AcDbEntity
  8
AM_5
100
AcDbDimension
  2
*D8
 10
-49.999999999993
 20
-28.00000100000001
 30
0.0
 11
-24.99999999999229
 21
-24.90000100000001
 31
0.0
 70
    32
  1
<>
  3
AM_JIS
100
AcDbAlignedDimension
 13
0.0000000000084057
 23
-1.445860856500438
 33
0.0
 14
-49.999999999993
 24
-1.833333333333349
 34
0.0
100
AcDbRotatedDimension
1001
GENIUS_GENDTOL_13
1000

1000
h7
1000

1040
0.0
  0
LINE
  5
3951
330
1F
100
AcDbEntity
  8
AM_7
  6
AM_ISO08W050X2
100
AcDbLine
 10
0.8794956799315052
 20
-0.0000000000000142
 30
0.0
 11
-51.33295602914893
 21
-0.0000000000000068
 31
0.0
1001
GENIUS_GENODEF_13
1002
{
1000
HIER
1070
     0
1002
}
1002
{
1000
MANEDIT
1070
     0
1002
}
1002
{
1000
NOSEL
1070
     0
1002
}
1002
{
1000
BEHIND
1070
     0
1002
}
1002
{
1000
REACTOR
1002
}
1001
GENIUS_GENOBJ-N-CEN_13
1002
{
1000
OWNER
1000
GEN
1002
}
  0
LINE
  5
397C
330
1F
100
AcDbEntity
  8
AM_0
100
AcDbLine
 10
-6.999999999987394
 20
0.9999999999999857
 30
0.0
 11
-6.999999999987394
 21
-1.000000000000014
 31
0.0
  0
LINE
  5
397F
330
1F
100
AcDbEntity
  8
AM_0
100
AcDbLine
 10
-10.73205080755628
 20
1.999999999999992
 30
0.0
 11
-10.73205080755628
 21
-2.000000000000021
 31
0.0
  0
VIEWPORT
  5
110
330
101
100
AcDbEntity
 67
     1
  8
0
100
AcDbViewport
 10
420.5
 20
297.0
 30
0.0
 40
948.9782706766916
 41
628.452
 68
     1
 69
     1
1001
ACAD
1000
MVIEW
1002
{
1070
    16
1010
0.0
1020
0.0
1030
0.0
1010
0.0
1020
0.0
1030
1.0
1040
0.0
1040
628.452
1040
420.5
1040
297.0
1040
50.0
1040
0.0
1040
0.0
1070
     0
1070
   100
1070
     1
1070
     1
1070
     0
1070
     0
1070
     0
1070
     0
1040
0.0
1040
0.0
1040
0.0
1040
10.0
1040
10.0
1040
10.0
1040
10.0
1070
     0
1002
{
1002
}
1002
}
  0
ENDSEC
  0
SECTION
  2
OBJECTS
  0
DICTIONARY
  5
C
330
0
100
AcDbDictionary
  3
ACAD_GROUP
350
D
  3
ACAD_LAYOUT
350
1A
  3
ACAD_MLINESTYLE
350
17
  3
ACAD_PLOTSETTINGS
350
19
  3
ACAD_PLOTSTYLENAME
350
E
  3
ACDBVARIABLEDICTIONARY
350
34
  3
ACMDICTIONARY
350
43
  3
AMG
350
2B
  3
AMGSNAPSETTINGS
350
6E
  3
DWGPROPS
350
3AAA
  3
ACDBHEADERROUNDTRIPXREC
350
3AB6
  0
DICTIONARY
  5
74
330
1F
100
AcDbDictionary
280
     1
  3
ACAD_INDEX
360
3AAC
  3
ACAD_LAYOUTSELFREF
360
3AD9
  0
DICTIONARY
  5
3ADE
330
101
100
AcDbDictionary
280
     1
  3
ACAD_LAYOUTSELFREF
360
3ADF
  0
DICTIONARY
  5
D
102
{ACAD_REACTORS
330
C
102
}
330
C
100
AcDbDictionary
  0
DICTIONARY
  5
1A
102
{ACAD_REACTORS
330
C
102
}
330
C
100
AcDbDictionary
  0
DICTIONARY
  5
17
102
{ACAD_REACTORS
330
C
102
}
330
C
100
AcDbDictionary
  3
STANDARD
350
18
  0
DICTIONARY
  5
19
102
{ACAD_REACTORS
330
C
102
}
330
C
100
AcDbDictionary
  0
ACDBDICTIONARYWDFLT
  5
E
102
{ACAD_REACTORS
330
C
102
}
330
C
100
AcDbDictionary
281
     1
  3
Normal
350
F
100
AcDbDictionaryWithDefault
340
F
  0
DICTIONARY
  5
34
102
{ACAD_REACTORS
330
C
102
}
330
C
100
AcDbDictionary
  3
INDEXCTL
350
35
  3
SORTENTS
350
B5E
  0
DICTIONARY
  5
43
102
{ACAD_REACTORS
330
C
102
}
330
C
100
AcDbDictionary
  3
ACMSTDDICTIONARY
350
260
  0
DICTIONARY
  5
2B
102
{ACAD_REACTORS
330
C
102
}
330
C
100
AcDbDictionary
  3
ACMGSETTINGS
350
2C
  0
DICTIONARY
  5
6E
102
{ACAD_REACTORS
330
C
102
}
330
C
100
AcDbDictionary
  0
XRECORD
  5
3AAA
102
{ACAD_REACTORS
330
C
102
}
330
C
100
AcDbXrecord
  1
DWGPROPS COOKIE
  2

  3

  4

  6

  7

  8

  9

300
AmdtFileType=82
301
=
302
=
303
=
304
=
305
=
306
=
307
=
308
=
309
=
 40
0.1048788425925926
 41
2452808.461142939
 42
2452844.405388634
  1

 90
        1
  0
DICTIONARY
  5
3AB6
102
{ACAD_REACTORS
330
C
102
}
330
C
100
AcDbDictionary
  3
TSTACKALIGN
350
3AB7
  3
TSTACKSIZE
350
3AB8
  3
HYPERLINKBASE
350
3AB9
  3
STYLESHEET
350
3ABA
  3
LAYOUTDICT
350
3ABB
  3
PLOTSETDICT
350
3ABC
  3
PLOTSTYLNAMDICT
350
3ABD
  3
LWETCUNION
350
3ABE
  3
INSUNITS
350
3ABF
  3
CEPSNTYPE
350
3AC0
  3
FINGERPRINTGUID
350
3AC1
  3
VERSIONGUID
350
3AC2
  3
PSVPSCALE
350
3AC3
  3
DIMSTYLEDATA
350
3AC4
  3
PUCSORTHOREF
350
3AC5
  3
PUCSORTHOVIEW
350
3AC6
  3
PUCSBASE
350
3AC7
  3
PUCSORGTOP
350
3AC8
  3
PUCSORGBOTTOM
350
3AC9
  3
PUCSORGLEFT
350
3ACA
  3
PUCSORGRIGHT
350
3ACB
  3
PUCSORGFRONT
350
3ACC
  3
PUCSORGBACK
350
3ACD
  3
UCSORTHOREF
350
3ACE
  3
UCSORTHOVIEW
350
3ACF
  3
UCSBASE
350
3AD0
  3
UCSORGTOP
350
3AD1
  3
UCSORGBOTTOM
350
3AD2
  3
UCSORGLEFT
350
3AD3
  3
UCSORGRIGHT
350
3AD4
  3
UCSORGFRONT
350
3AD5
  3
UCSORGBACK
350
3AD6
  0
DICTIONARY
  5
3AAC
102
{ACAD_REACTORS
330
74
102
}
330
74
100
AcDbDictionary
  3
*A1
350
3AAD
  0
XRECORD
  5
3AD9
102
{ACAD_REACTORS
330
74
102
}
330
74
100
AcDbXrecord
340
1F
  0
XRECORD
  5
3ADF
102
{ACAD_REACTORS
330
3ADE
102
}
330
3ADE
100
AcDbXrecord
340
101
  0
MLINESTYLE
  5
18
102
{ACAD_REACTORS
330
17
102
}
330
17
100
AcDbMlineStyle
  2
STANDARD
 70
     0
  3

 62
   256
 51
90.0
 52
90.0
 71
     2
 49
0.5
 62
   256
  6
BYLAYER
 49
-0.5
 62
   256
  6
BYLAYER
  0
ACDBPLACEHOLDER
  5
F
102
{ACAD_REACTORS
330
E
102
}
330
E
100
AcDbPlaceHolder
280
     0
  0
DICTIONARYVAR
  5
35
102
{ACAD_REACTORS
330
34
102
}
330
34
100
DictionaryVariables
280
     0
  1
1
  0
DICTIONARYVAR
  5
B5E
102
{ACAD_REACTORS
330
34
102
}
330
34
100
DictionaryVariables
280
     0
  1
96
  0
DICTIONARY
  5
260
102
{ACAD_REACTORS
330
43
102
}
330
43
100
AcDbDictionary
  0
DICTIONARY
  5
2C
102
{ACAD_REACTORS
330
2B
102
}
330
2B
100
AcDbDictionary
  3
DWGSETTINGS
350
2D
  0
XRECORD
  5
3AB7
102
{ACAD_REACTORS
330
3AB6
102
}
330
3AB6
100
AcDbXrecord
 90
        1
  0
XRECORD
  5
3AB8
102
{ACAD_REACTORS
330
3AB6
102
}
330
3AB6
100
AcDbXrecord
 90
       70
  0
XRECORD
  5
3AB9
102
{ACAD_REACTORS
330
3AB6
102
}
330
3AB6
100
AcDbXrecord
  1

  0
XRECORD
  5
3ABA
102
{ACAD_REACTORS
330
3AB6
102
}
330
3AB6
100
AcDbXrecord
  1
ASAMI.ctb
  0
XRECORD
  5
3ABB
102
{ACAD_REACTORS
330
3AB6
102
}
330
3AB6
100
AcDbXrecord
340
1A
  0
XRECORD
  5
3ABC
102
{ACAD_REACTORS
330
3AB6
102
}
330
3AB6
100
AcDbXrecord
340
19
  0
XRECORD
  5
3ABD
102
{ACAD_REACTORS
330
3AB6
102
}
330
3AB6
100
AcDbXrecord
340
E
  0
XRECORD
  5
3ABE
102
{ACAD_REACTORS
330
3AB6
102
}
330
3AB6
100
AcDbXrecord
 90
    10781
  0
XRECORD
  5
3ABF
102
{ACAD_REACTORS
330
3AB6
102
}
330
3AB6
100
AcDbXrecord
 90
        4
  0
XRECORD
  5
3AC0
102
{ACAD_REACTORS
330
3AB6
102
}
330
3AB6
100
AcDbXrecord
 90
        0
  0
XRECORD
  5
3AC1
102
{ACAD_REACTORS
330
3AB6
102
}
330
3AB6
100
AcDbXrecord
  1
{AFB28963-8C59-40AE-9337-C84526B81ACE}
  0
XRECORD
  5
3AC2
102
{ACAD_REACTORS
330
3AB6
102
}
330
3AB6
100
AcDbXrecord
  1
{B6C7EF9D-B87A-4F89-8F58-95636E0958D2}
  0
XRECORD
  5
3AC3
102
{ACAD_REACTORS
330
3AB6
102
}
330
3AB6
100
AcDbXrecord
 40
0.0
  0
XRECORD
  5
3AC4
102
{ACAD_REACTORS
330
3AB6
102
}
330
3AB6
100
AcDbXrecord
1000
DSTYLE
1002
{
1070
    79
 70
     2
1070
   341
340
59
1070
   342
340
59
1070
   371
 70
    -1
1070
   372
 70
    -1
1002
}
  0
XRECORD
  5
3AC5
102
{ACAD_REACTORS
330
3AB6
102
}
330
3AB6
100
AcDbXrecord
340
0
  0
XRECORD
  5
3AC6
102
{ACAD_REACTORS
330
3AB6
102
}
330
3AB6
100
AcDbXrecord
 70
     0
  0
XRECORD
  5
3AC7
102
{ACAD_REACTORS
330
3AB6
102
}
330
3AB6
100
AcDbXrecord
340
0
  0
XRECORD
  5
3AC8
102
{ACAD_REACTORS
330
3AB6
102
}
330
3AB6
100
AcDbXrecord
 10
0.0
 20
0.0
 30
0.0
  0
XRECORD
  5
3AC9
102
{ACAD_REACTORS
330
3AB6
102
}
330
3AB6
100
AcDbXrecord
 10
0.0
 20
0.0
 30
0.0
  0
XRECORD
  5
3ACA
102
{ACAD_REACTORS
330
3AB6
102
}
330
3AB6
100
AcDbXrecord
 10
0.0
 20
0.0
 30
0.0
  0
XRECORD
  5
3ACB
102
{ACAD_REACTORS
330
3AB6
102
}
330
3AB6
100
AcDbXrecord
 10
0.0
 20
0.0
 30
0.0
  0
XRECORD
  5
3ACC
102
{ACAD_REACTORS
330
3AB6
102
}
330
3AB6
100
AcDbXrecord
 10
0.0
 20
0.0
 30
0.0
  0
XRECORD
  5
3ACD
102
{ACAD_REACTORS
330
3AB6
102
}
330
3AB6
100
AcDbXrecord
 10
0.0
 20
0.0
 30
0.0
  0
XRECORD
  5
3ACE
102
{ACAD_REACTORS
330
3AB6
102
}
330
3AB6
100
AcDbXrecord
340
0
  0
XRECORD
  5
3ACF
102
{ACAD_REACTORS
330
3AB6
102
}
330
3AB6
100
AcDbXrecord
 70
     0
  0
XRECORD
  5
3AD0
102
{ACAD_REACTORS
330
3AB6
102
}
330
3AB6
100
AcDbXrecord
340
0
  0
XRECORD
  5
3AD1
102
{ACAD_REACTORS
330
3AB6
102
}
330
3AB6
100
AcDbXrecord
 10
0.0
 20
0.0
 30
0.0
  0
XRECORD
  5
3AD2
102
{ACAD_REACTORS
330
3AB6
102
}
330
3AB6
100
AcDbXrecord
 10
0.0
 20
0.0
 30
0.0
  0
XRECORD
  5
3AD3
102
{ACAD_REACTORS
330
3AB6
102
}
330
3AB6
100
AcDbXrecord
 10
0.0
 20
0.0
 30
0.0
  0
XRECORD
  5
3AD4
102
{ACAD_REACTORS
330
3AB6
102
}
330
3AB6
100
AcDbXrecord
 10
0.0
 20
0.0
 30
0.0
  0
XRECORD
  5
3AD5
102
{ACAD_REACTORS
330
3AB6
102
}
330
3AB6
100
AcDbXrecord
 10
0.0
 20
0.0
 30
0.0
  0
XRECORD
  5
3AD6
102
{ACAD_REACTORS
330
3AB6
102
}
330
3AB6
100
AcDbXrecord
 10
0.0
 20
0.0
 30
0.0
  0
LAYER_INDEX
  5
3AAD
102
{ACAD_REACTORS
330
3AAC
102
}
330
3AAC
100
AcDbIndex
 40
2452844.457790972
100
AcDbLayerIndex
  8
0
360
3AAE
 90
        0
  8
AM_0
360
3AAF
 90
       71
  8
AM_11
360
3AB0
 90
        5
  8
AM_6
360
3AB1
 90
        1
  8
AM_7
360
3AB2
 90
        1
  8
AM_5
360
3AB3
 90
        4
  8
Defpoints
360
3AB4
 90
        0
  0
XRECORD
  5
2D
102
{ACAD_REACTORS
330
2C
102
}
330
2C
100
AcDbXrecord
  1
VERSION
140
15.0
  1
PRODUCT
  2
AutoCAD Mechanical 2000
  0
IDBUFFER
  5
3AAE
330
0
100
AcDbIdBuffer
  0
IDBUFFER
  5
3AAF
330
0
100
AcDbIdBuffer
330
3920
330
3921
330
3922
330
3923
330
3924
330
3925
330
3926
330
3927
330
3928
330
3929
330
392A
330
392B
330
392C
330
392D
330
392E
330
392F
330
3930
330
3931
330
3932
330
3933
330
3934
330
397C
330
397F
330
35E0
330
35E1
330
35E4
330
35E5
330
35E6
330
35E7
330
35E8
330
362A
330
362C
330
38D7
330
38D8
330
38D9
330
38DA
330
38DC
330
38DD
330
38DE
330
38DF
330
38E0
330
38E1
330
38E2
330
38E3
330
38E4
330
38E6
330
38E7
330
38E8
330
38EA
330
390A
330
390B
330
390C
330
390D
330
390E
330
390F
330
3910
330
3911
330
3912
330
3913
330
3914
330
3915
330
3916
330
3917
330
3918
330
3919
330
391A
330
391B
330
391C
330
391D
330
391E
330
391F
  0
IDBUFFER
  5
3AB0
330
0
100
AcDbIdBuffer
330
38DB
330
38E5
330
38E9
330
38F9
330
38FA
  0
IDBUFFER
  5
3AB1
330
0
100
AcDbIdBuffer
330
F07
  0
IDBUFFER
  5
3AB2
330
0
100
AcDbIdBuffer
330
3951
  0
IDBUFFER
  5
3AB3
330
0
100
AcDbIdBuffer
330
35E3
330
38FB
330
3935
330
3944
  0
IDBUFFER
  5
3AB4
330
0
100
AcDbIdBuffer
  0
ENDSEC
  0
EOF
