  0
SECTION
  2
HEADER
  9
$ACADVER
  1
AC1014
  9
$ACADMAINTVER
 70
     9
  9
$DWGCODEPAGE
  3
ANSI_932
  9
$INSBASE
 10
0.0
 20
0.0
 30
0.0
  9
$EXTMIN
 10
-90.73056725641405
 20
-52.50000000000007
 30
-0.00000001
  9
$EXTMAX
 10
18.3157904736842
 20
21.36587034962833
 30
0.00000001
  9
$LIMMIN
 10
-98.53627251070134
 20
-60.72219971313876
  9
$LIMMAX
 10
23.18637885849403
 20
30.94592328510276
  9
$ORTHOMODE
 70
     0
  9
$REGENMODE
 70
     1
  9
$FILLMODE
 70
     1
  9
$QTEXTMODE
 70
     0
  9
$MIRRTEXT
 70
     0
  9
$DRAGMODE
 70
     2
  9
$LTSCALE
 40
1.0
  9
$OSMODE
 70
  2103
  9
$ATTMODE
 70
     1
  9
$TEXTSIZE
 40
2.5
  9
$TRACEWID
 40
1.0
  9
$TEXTSTYLE
  7
ACJISGDT
  9
$CLAYER
  8
AM_0
  9
$CELTYPE
  6
BYLAYER
  9
$CECOLOR
 62
   256
  9
$CELTSCALE
 40
1.0
  9
$DELOBJ
 70
     1
  9
$DISPSILH
 70
     0
  9
$DIMSCALE
 40
1.0
  9
$DIMASZ
 40
2.5
  9
$DIMEXO
 40
1.0
  9
$DIMDLI
 40
12.0
  9
$DIMRND
 40
0.0
  9
$DIMDLE
 40
0.0
  9
$DIMEXE
 40
1.0
  9
$DIMTP
 40
0.1
  9
$DIMTM
 40
0.1
  9
$DIMTXT
 40
3.2
  9
$DIMCEN
 40
0.0
  9
$DIMTSZ
 40
0.0
  9
$DIMTOL
 70
     0
  9
$DIMLIM
 70
     0
  9
$DIMTIH
 70
     0
  9
$DIMTOH
 70
     0
  9
$DIMSE1
 70
     0
  9
$DIMSE2
 70
     0
  9
$DIMTAD
 70
     3
  9
$DIMZIN
 70
     8
  9
$DIMBLK
  1
OPEN30
  9
$DIMASO
 70
     1
  9
$DIMSHO
 70
     1
  9
$DIMPOST
  1

  9
$DIMAPOST
  1
"
  9
$DIMALT
 70
     0
  9
$DIMALTD
 70
     2
  9
$DIMALTF
 40
0.0393701
  9
$DIMLFAC
 40
1.0
  9
$DIMTOFL
 70
     1
  9
$DIMTVP
 40
0.0
  9
$DIMTIX
 70
     0
  9
$DIMSOXD
 70
     0
  9
$DIMSAH
 70
     0
  9
$DIMBLK1
  1

  9
$DIMBLK2
  1

  9
$DIMSTYLE
  2
AM_JIS
  9
$DIMCLRD
 70
   256
  9
$DIMCLRE
 70
   256
  9
$DIMCLRT
 70
     2
  9
$DIMTFAC
 40
0.71
  9
$DIMGAP
 40
1.5
  9
$DIMJUST
 70
     0
  9
$DIMSD1
 70
     0
  9
$DIMSD2
 70
     0
  9
$DIMTOLJ
 70
     0
  9
$DIMTZIN
 70
     0
  9
$DIMALTZ
 70
     0
  9
$DIMALTTZ
 70
     0
  9
$DIMFIT
 70
     3
  9
$DIMUPT
 70
     0
  9
$DIMUNIT
 70
     2
  9
$DIMDEC
 70
     3
  9
$DIMTDEC
 70
     3
  9
$DIMALTU
 70
     2
  9
$DIMALTTD
 70
     2
  9
$DIMTXSTY
  7
ASAMI
  9
$DIMAUNIT
 70
     0
  9
$LUNITS
 70
     2
  9
$LUPREC
 70
     2
  9
$SKETCHINC
 40
1.0
  9
$FILLETRAD
 40
2.5
  9
$AUNITS
 70
     0
  9
$AUPREC
 70
     0
  9
$MENU
  1
.
  9
$ELEVATION
 40
0.0
  9
$PELEVATION
 40
0.0
  9
$THICKNESS
 40
0.0
  9
$LIMCHECK
 70
     0
  9
$BLIPMODE
 70
     0
  9
$CHAMFERA
 40
0.5
  9
$CHAMFERB
 40
0.5
  9
$CHAMFERC
 40
20.0
  9
$CHAMFERD
 40
0.0
  9
$SKPOLY
 70
     0
  9
$TDCREATE
 40
2452808.461142939
  9
$TDUPDATE
 40
2452844.458320313
  9
$TDINDWG
 40
0.0647368750
  9
$TDUSRTIMER
 40
0.0647368750
  9
$USRTIMER
 70
     1
  9
$ANGBASE
 50
0.0
  9
$ANGDIR
 70
     0
  9
$PDMODE
 70
     0
  9
$PDSIZE
 40
0.0
  9
$PLINEWID
 40
0.0
  9
$COORDS
 70
     2
  9
$SPLFRAME
 70
     0
  9
$SPLINETYPE
 70
     6
  9
$SPLINESEGS
 70
     8
  9
$ATTDIA
 70
     1
  9
$ATTREQ
 70
     1
  9
$HANDLING
 70
 12289
  9
$HANDSEED
  5
26A5
  9
$SURFTAB1
 70
     6
  9
$SURFTAB2
 70
     6
  9
$SURFTYPE
 70
     6
  9
$SURFU
 70
     6
  9
$SURFV
 70
     6
  9
$UCSNAME
  2

  9
$UCSORG
 10
0.0
 20
-0.0000000000000111
 30
0.0
  9
$UCSXDIR
 10
1.0
 20
0.0
 30
0.0
  9
$UCSYDIR
 10
0.0
 20
1.0
 30
0.0
  9
$PUCSNAME
  2

  9
$PUCSORG
 10
0.0
 20
0.0
 30
0.0
  9
$PUCSXDIR
 10
1.0
 20
0.0
 30
0.0
  9
$PUCSYDIR
 10
0.0
 20
1.0
 30
0.0
  9
$USERI1
 70
     0
  9
$USERI2
 70
     0
  9
$USERI3
 70
     0
  9
$USERI4
 70
     0
  9
$USERI5
 70
     0
  9
$USERR1
 40
0.0
  9
$USERR2
 40
0.0
  9
$USERR3
 40
0.0
  9
$USERR4
 40
0.0
  9
$USERR5
 40
0.0
  9
$WORLDVIEW
 70
     1
  9
$SHADEDGE
 70
     3
  9
$SHADEDIF
 70
    70
  9
$TILEMODE
 70
     1
  9
$MAXACTVP
 70
    64
  9
$PINSBASE
 10
0.0
 20
0.0
 30
0.0
  9
$PLIMCHECK
 70
     0
  9
$PEXTMIN
 10
1.000000000000000E+20
 20
1.000000000000000E+20
 30
1.000000000000000E+20
  9
$PEXTMAX
 10
-1.000000000000000E+20
 20
-1.000000000000000E+20
 30
-1.000000000000000E+20
  9
$PLIMMIN
 10
0.0
 20
0.0
  9
$PLIMMAX
 10
841.0
 20
594.0
  9
$UNITMODE
 70
     0
  9
$VISRETAIN
 70
     1
  9
$PLINEGEN
 70
     0
  9
$PSLTSCALE
 70
     0
  9
$TREEDEPTH
 70
  3020
  9
$PICKSTYLE
 70
     0
  9
$CMLSTYLE
  2
STANDARD
  9
$CMLJUST
 70
     0
  9
$CMLSCALE
 40
20.0
  9
$PROXYGRAPHICS
 70
     1
  9
$MEASUREMENT
 70
     1
  0
ENDSEC
  0
SECTION
  2
CLASSES
  0
CLASS
  1
ACDBDICTIONARYWDFLT
  2
AcDbDictionaryWithDefault
  3
AutoCAD 2000
 90
        0
280
     0
281
     0
  0
CLASS
  1
ACDBPLACEHOLDER
  2
AcDbPlaceHolder
  3
AutoCAD 2000
 90
        0
280
     0
281
     0
  0
CLASS
  1
LAYOUT
  2
AcDbLayout
  3
AutoCAD 2000
 90
        0
280
     0
281
     0
  0
CLASS
  1
AMGSETTINGSOBJ
  2
AmgSettingsObj
  3
"AcadM|Product Description: AutoCAD Mechanical 2000|Company: Autodesk"
 90
        0
280
     0
281
     0
  0
CLASS
  1
ACME_DOCUMENT
  2
AcMeDbDoc
  3
AcMeServices
 90
        0
280
     0
281
     0
  0
CLASS
  1
ACMESCOPE
  2
AcMeScope
  3
AcMeServices
 90
        0
280
     0
281
     0
  0
CLASS
  1
ACMECOMMANDHISTORY
  2
AcMeCommandHistory
  3
AcMeServices
 90
        0
280
     0
281
     0
  0
CLASS
  1
DICTIONARYVAR
  2
AcDbDictionaryVar
  3
AutoCAD 2000
 90
        0
280
     0
281
     0
  0
CLASS
  1
ACIMSYSVARMAN
  2
AcImSysVarManager
  3
AcMeServices
 90
        0
280
     0
281
     0
  0
CLASS
  1
ACIMREALSYSVAR
  2
AcImRealSysVar
  3
AcMeServices
 90
        0
280
     0
281
     0
  0
CLASS
  1
ACIMINTSYSVAR
  2
AcImIntSysVar
  3
AcMeServices
 90
        0
280
     0
281
     0
  0
CLASS
  1
ACMEDRAWINGMAN
  2
AcMeDrawingMan
  3
AcMeServices
 90
        0
280
     0
281
     0
  0
CLASS
  1
ACMEVIEW
  2
AcMeView
  3
AcMeServices
 90
        0
280
     0
281
     0
  0
CLASS
  1
ACDBENTITYCACHE
  2
AcMeEntityCache
  3
AcMeServices
 90
        0
280
     0
281
     0
  0
CLASS
  1
GSMANAGER
  2
AcMeGSManager
  3
AcMeServices
 90
        0
280
     0
281
     0
  0
CLASS
  1
AmdtInternalReactor
  2
AmdtInternalReactor
  3
AcMeServices
 90
        0
280
     0
281
     0
  0
CLASS
  1
ACMESTATEMGR
  2
AcMeStateMgr
  3
AcMeServices
 90
        0
280
     0
281
     0
  0
CLASS
  1
ACME_DATABASE
  2
AcMeDbDatabase
  3
AcMeServices
 90
        0
280
     0
281
     0
  0
CLASS
  1
ACRFINSADJUSTERMGR
  2
AcRfInsAdjusterMgr
  3
AcMeServices
 90
        0
280
     0
281
     0
  0
CLASS
  1
ACMDATADICTIONARY
  2
AcmDataDictionary
  3
"AcmSymBB|Product Description: AutoCAD Mechanical 2000|Company: Autodesk"
 90
        0
280
     0
281
     0
  0
CLASS
  1
ACMDATAENTRYBLOCK
  2
AcmDataEntryBlock
  3
"AcmSymBB|Product Description: AutoCAD Mechanical 2000|Company: Autodesk"
 90
        0
280
     0
281
     0
  0
CLASS
  1
AMGOBJPROPCFG
  2
AmgObjPropCfg
  3
"AmgLay|Product Description: AutoCAD Mechanical 2000|Company: Autodesk"
 90
        1
280
     0
281
     0
  0
CLASS
  1
ACAMGFILTERDAT
  2
AcAmgFilterDat
  3
"AcadM|Product Description: AutoCAD Mechanical 2000|Company: Autodesk"
 90
        0
280
     0
281
     0
  0
CLASS
  1
LAYER_INDEX
  2
AcDbLayerIndex
  3
AutoCAD 2000
 90
        0
280
     0
281
     0
  0
CLASS
  1
IDBUFFER
  2
AcDbIdBuffer
  3
AutoCAD 2000
 90
        0
280
     0
281
     0
  0
CLASS
  1
ACIMSTRSYSVAR
  2
AcImStrSysVar
  3
AcMeServices
 90
        0
280
     0
281
     0
  0
CLASS
  1
ACMSTANDARDJIS
  2
AcmStandardJIS
  3
"AcmSymBB|Product Description: AutoCAD Mechanical 2000|Company: Autodesk"
 90
        0
280
     0
281
     0
  0
CLASS
  1
ACMSURFSTANDARDJIS
  2
AcmSurfTextStdJIS
  3
"AcmSymBB|Product Description: AutoCAD Mechanical 2000|Company: Autodesk"
 90
        0
280
     0
281
     0
  0
CLASS
  1
ACMFCFSTANDARDJIS
  2
AcmFCFStdJIS
  3
"AcmSymBB|Product Description: AutoCAD Mechanical 2000|Company: Autodesk"
 90
        0
280
     0
281
     0
  0
CLASS
  1
ACMWELDSTANDARDJIS
  2
AcmWeldingStdJIS
  3
"AcmSymBB|Product Description: AutoCAD Mechanical 2000|Company: Autodesk"
 90
        0
280
     0
281
     0
  0
CLASS
  1
ACMIDSTANDARDJIS
  2
AcmIdStdJIS
  3
"AcmSymBB|Product Description: AutoCAD Mechanical 2000|Company: Autodesk"
 90
        0
280
     0
281
     0
  0
CLASS
  1
ACMDATUMSTANDARDJIS
  2
AcmDatumStdJIS
  3
"AcmSymBB|Product Description: AutoCAD Mechanical 2000|Company: Autodesk"
 90
        0
280
     0
281
     0
  0
CLASS
  1
ACMBOMSTANDARDJIS
  2
AcmBOMStdJIS
  3
"AcmSymBB|Product Description: AutoCAD Mechanical 2000|Company: Autodesk"
 90
        0
280
     0
281
     0
  0
CLASS
  1
ACMSTANDARDANSI
  2
AcmStandardANSI
  3
"AcmSymBB|Product Description: AutoCAD Mechanical 2000|Company: Autodesk"
 90
        0
280
     0
281
     0
  0
CLASS
  1
ACMSURFSTANDARDANSI
  2
AcmSurfTextStdANSI
  3
"AcmSymBB|Product Description: AutoCAD Mechanical 2000|Company: Autodesk"
 90
        0
280
     0
281
     0
  0
CLASS
  1
ACMFCFSTANDARDANSI
  2
AcmFCFStdANSI
  3
"AcmSymBB|Product Description: AutoCAD Mechanical 2000|Company: Autodesk"
 90
        0
280
     0
281
     0
  0
CLASS
  1
ACMWELDSTANDARDANSI
  2
AcmWeldingStdANSI
  3
"AcmSymBB|Product Description: AutoCAD Mechanical 2000|Company: Autodesk"
 90
        0
280
     0
281
     0
  0
CLASS
  1
ACMIDSTANDARDANSI
  2
AcmIdStdANSI
  3
"AcmSymBB|Product Description: AutoCAD Mechanical 2000|Company: Autodesk"
 90
        0
280
     0
281
     0
  0
CLASS
  1
ACMDATUMSTANDARDANSI
  2
AcmDatumStdANSI
  3
"AcmSymBB|Product Description: AutoCAD Mechanical 2000|Company: Autodesk"
 90
        0
280
     0
281
     0
  0
CLASS
  1
ACMBOMSTANDARDANSI
  2
AcmBOMStdANSI
  3
"AcmSymBB|Product Description: AutoCAD Mechanical 2000|Company: Autodesk"
 90
        0
280
     0
281
     0
  0
CLASS
  1
ACMSTANDARDBSI
  2
AcmStandardBSI
  3
"AcmSymBB|Product Description: AutoCAD Mechanical 2000|Company: Autodesk"
 90
        0
280
     0
281
     0
  0
CLASS
  1
ACMSURFSTANDARDBSI
  2
AcmSurfTextStdBSI
  3
"AcmSymBB|Product Description: AutoCAD Mechanical 2000|Company: Autodesk"
 90
        0
280
     0
281
     0
  0
CLASS
  1
ACMFCFSTANDARDBSI
  2
AcmFCFStdBSI
  3
"AcmSymBB|Product Description: AutoCAD Mechanical 2000|Company: Autodesk"
 90
        0
280
     0
281
     0
  0
CLASS
  1
ACMWELDSTANDARDBSI
  2
AcmWeldingStdBSI
  3
"AcmSymBB|Product Description: AutoCAD Mechanical 2000|Company: Autodesk"
 90
        0
280
     0
281
     0
  0
CLASS
  1
ACMIDSTANDARDBSI
  2
AcmIdStdBSI
  3
"AcmSymBB|Product Description: AutoCAD Mechanical 2000|Company: Autodesk"
 90
        0
280
     0
281
     0
  0
CLASS
  1
ACMDATUMSTANDARDBSI
  2
AcmDatumStdBSI
  3
"AcmSymBB|Product Description: AutoCAD Mechanical 2000|Company: Autodesk"
 90
        0
280
     0
281
     0
  0
CLASS
  1
ACMBOMSTANDARDBSI
  2
AcmBOMStdBSI
  3
"AcmSymBB|Product Description: AutoCAD Mechanical 2000|Company: Autodesk"
 90
        0
280
     0
281
     0
  0
CLASS
  1
LONG_TRANSACTION
  2
AcDbLongTransaction
  3
AutoCAD 2000
 90
        0
280
     0
281
     0
  0
CLASS
  1
LWPOLYLINE
  2
AcDbPolyline
  3
AutoCAD 2000
 90
        0
280
     0
281
     1
  0
CLASS
  1
HATCH
  2
AcDbHatch
  3
AutoCAD 2000
 90
        0
280
     0
281
     1
  0
CLASS
  1
XRECORD
  2
AcDbXrecord
  3
AutoCAD 2000
 90
        0
280
     0
281
     0
  0
ENDSEC
  0
SECTION
  2
TABLES
  0
TABLE
  2
VPORT
  5
8
330
0
100
AcDbSymbolTable
 70
     3
  0
VPORT
  5
267A
330
8
100
AcDbSymbolTableRecord
100
AcDbViewportTableRecord
  2
*ACTIVE
 70
     0
 10
0.0
 20
0.0
 11
1.0
 21
1.0
 12
-36.20647869949964
 22
-15.56595201933865
 13
0.0
 23
0.0
 14
2.5
 24
2.5
 15
10.0
 25
10.0
 16
0.0
 26
0.0
 36
1.0
 17
0.0
 27
0.0
 37
0.0
 40
74.32684185402766
 41
1.56570841889117
 42
50.0
 43
0.0
 44
0.0
 50
0.0
 51
0.0
 71
     0
 72
   100
 73
     1
 74
     3
 75
     0
 76
     0
 77
     0
 78
     0
  0
ENDTAB
  0
TABLE
  2
LTYPE
  5
5
330
0
100
AcDbSymbolTable
 70
    10
  0
LTYPE
  5
14
330
5
100
AcDbSymbolTableRecord
100
AcDbLinetypeTableRecord
  2
BYBLOCK
 70
     0
  3

 72
    65
 73
     0
 40
0.0
  0
LTYPE
  5
15
330
5
100
AcDbSymbolTableRecord
100
AcDbLinetypeTableRecord
  2
BYLAYER
 70
     0
  3

 72
    65
 73
     0
 40
0.0
  0
LTYPE
  5
16
330
5
100
AcDbSymbolTableRecord
100
AcDbLinetypeTableRecord
  2
CONTINUOUS
 70
     0
  3
Solid line
 72
    65
 73
     0
 40
0.0
  0
LTYPE
  5
4B
330
5
100
AcDbSymbolTableRecord
100
AcDbLinetypeTableRecord
  2
AM_ISO02W050
 70
     0
  3
__ __ __ __ __ __ __ __ __ __ __ __ __ __ __
 72
    65
 73
     2
 40
7.5
 49
6.0
 74
     0
 49
-1.5
 74
     0
  0
LTYPE
  5
4C
330
5
100
AcDbSymbolTableRecord
100
AcDbLinetypeTableRecord
  2
AM_ISO08W050
 70
     0
  3
____ . ____ . ____ . ____ . ____ . ____ . ____
 72
    65
 73
     4
 40
18.0
 49
12.0
 74
     0
 49
-1.5
 74
     0
 49
3.0
 74
     0
 49
-1.5
 74
     0
  0
LTYPE
  5
4D
330
5
100
AcDbSymbolTableRecord
100
AcDbLinetypeTableRecord
  2
AM_ISO09W050
 70
     0
  3
_____ . . _____ . . _____ . . ____ .. ____
 72
    65
 73
     6
 40
22.5
 49
12.0
 74
     0
 49
-1.5
 74
     0
 49
3.0
 74
     0
 49
-1.5
 74
     0
 49
3.0
 74
     0
 49
-1.5
 74
     0
  0
LTYPE
  5
4E
330
5
100
AcDbSymbolTableRecord
100
AcDbLinetypeTableRecord
  2
AMCONSTR
 70
     0
  3
_______________________
 72
    65
 73
     2
 40
9999.0
 49
9999.0
 74
     0
 49
0.0
 74
     0
  0
LTYPE
  5
4F
330
5
100
AcDbSymbolTableRecord
100
AcDbLinetypeTableRecord
  2
AM_ISO02W050X2
 70
     0
  3
 _ _ _ _ _ _ _ _ _ _ _ _
 72
    65
 73
     2
 40
3.75
 49
3.0
 74
     0
 49
-0.75
 74
     0
  0
LTYPE
  5
50
330
5
100
AcDbSymbolTableRecord
100
AcDbLinetypeTableRecord
  2
AM_ISO08W050X2
 70
     0
  3
__ . __ . __ . __ . __ . __
 72
    65
 73
     4
 40
9.0
 49
6.0
 74
     0
 49
-0.75
 74
     0
 49
1.5
 74
     0
 49
-0.75
 74
     0
  0
LTYPE
  5
53
330
5
100
AcDbSymbolTableRecord
100
AcDbLinetypeTableRecord
  2
AMZIGZAG
 70
     0
  3
/\/-/\/-/\/-/\/-/\/-/\/
 72
    65
 73
     2
 40
11.00009999999999
 49
0.0001
 74
     4
 75
   135
340
52
 46
0.04
 50
0.0
 44
0.0
 45
0.0
 49
-11.0
 74
     0
  0
LTYPE
  5
166
330
5
100
AcDbSymbolTableRecord
100
AcDbLinetypeTableRecord
  2
ACJISTGL
 70
     0
  3
_ _ _ _ _
 72
    65
 73
     2
 40
3.0
 49
2.0
 74
     0
 49
-1.0
 74
     0
  0
LTYPE
  5
26A
330
5
100
AcDbSymbolTableRecord
100
AcDbLinetypeTableRecord
  2
ACJISTGB
 70
     0
  3
__ . . __ . .
 72
    65
 73
     6
 40
9.0
 49
4.0
 74
     0
 49
-1.0
 74
     0
 49
1.0
 74
     0
 49
-1.0
 74
     0
 49
1.0
 74
     0
 49
-1.0
 74
     0
  0
ENDTAB
  0
TABLE
  2
LAYER
  5
2
330
0
100
AcDbSymbolTable
 70
     7
  0
LAYER
  5
10
330
2
100
AcDbSymbolTableRecord
100
AcDbLayerTableRecord
  2
0
 70
     0
 62
     7
  6
CONTINUOUS
  0
LAYER
  5
3F9
330
2
100
AcDbSymbolTableRecord
100
AcDbLayerTableRecord
  2
AM_0
 70
     0
 62
     7
  6
CONTINUOUS
  0
LAYER
  5
BA4
330
2
100
AcDbSymbolTableRecord
100
AcDbLayerTableRecord
  2
AM_11
 70
     0
 62
     3
  6
AM_ISO09W050
  0
LAYER
  5
BA6
330
2
100
AcDbSymbolTableRecord
100
AcDbLayerTableRecord
  2
AM_6
 70
     0
 62
     2
  6
CONTINUOUS
  0
LAYER
  5
BA7
330
2
100
AcDbSymbolTableRecord
100
AcDbLayerTableRecord
  2
AM_7
 70
     0
 62
     4
  6
AM_ISO08W050
  0
LAYER
  5
D0E
330
2
100
AcDbSymbolTableRecord
100
AcDbLayerTableRecord
  2
AM_5
 70
     0
 62
     3
  6
CONTINUOUS
  0
LAYER
  5
FE8
330
2
100
AcDbSymbolTableRecord
100
AcDbLayerTableRecord
  2
DEFPOINTS
 70
     0
 62
     7
  6
CONTINUOUS
  0
ENDTAB
  0
TABLE
  2
STYLE
  5
3
330
0
100
AcDbSymbolTable
 70
     5
  0
STYLE
  5
11
330
3
100
AcDbSymbolTableRecord
100
AcDbTextStyleTableRecord
  2
STANDARD
 70
     0
 40
0.0
 41
1.0
 50
0.0
 71
     0
 42
2.5
  3
simplex.shx
  4
EXTFONT.SHX
  0
STYLE
  5
52
330
3
100
AcDbSymbolTableRecord
100
AcDbTextStyleTableRecord
  2

 70
     1
 40
0.0
 41
1.0
 50
0.0
 71
     0
 42
2.5
  3
ltypeshp.shx
  4

  0
STYLE
  5
6B
330
3
100
AcDbSymbolTableRecord
100
AcDbTextStyleTableRecord
  2
ASAMI
 70
     0
 40
0.0
 41
1.0
 50
0.0
 71
     0
 42
2.5
  3
simplex.shx
  4
EXTFONT.SHX
  0
STYLE
  5
262
330
3
100
AcDbSymbolTableRecord
100
AcDbTextStyleTableRecord
  2
ACJISTS
 70
     0
 40
1.0
 41
1.0
 50
0.0
 71
     0
 42
2.5
  3
simplex.shx
  4
bigfont.shx
  0
STYLE
  5
269
330
3
100
AcDbSymbolTableRecord
100
AcDbTextStyleTableRecord
  2
ACJISGDT
 70
     0
 40
0.0
 41
1.0
 50
0.0
 71
     0
 42
2.5
  3
amgdtans.shx
  4

  0
ENDTAB
  0
TABLE
  2
VIEW
  5
6
330
0
100
AcDbSymbolTable
 70
     0
  0
ENDTAB
  0
TABLE
  2
UCS
  5
7
330
0
100
AcDbSymbolTable
 70
     0
  0
ENDTAB
  0
TABLE
  2
APPID
  5
9
330
0
100
AcDbSymbolTable
 70
    12
  0
APPID
  5
12
330
9
100
AcDbSymbolTableRecord
100
AcDbRegAppTableRecord
  2
ACAD
 70
     0
  0
APPID
  5
30
330
9
100
AcDbSymbolTableRecord
100
AcDbRegAppTableRecord
  2
MCAD_NO_VIS
 70
     0
  0
APPID
  5
31
330
9
100
AcDbSymbolTableRecord
100
AcDbRegAppTableRecord
  2
ACAD_TEMP_GRAPHIC
 70
     0
  0
APPID
  5
2C2
330
9
100
AcDbSymbolTableRecord
100
AcDbRegAppTableRecord
  2
GENIUS_GENDTOL_13
 70
     0
  0
APPID
  5
339
330
9
100
AcDbSymbolTableRecord
100
AcDbRegAppTableRecord
  2
GENIUS_GENODEF_13
 70
     0
  0
APPID
  5
33A
330
9
100
AcDbSymbolTableRecord
100
AcDbRegAppTableRecord
  2
GENIUS_GENOBJ-N-RSBK_13
 70
     0
  0
APPID
  5
33B
330
9
100
AcDbSymbolTableRecord
100
AcDbRegAppTableRecord
  2
GENIUS_GENOBJ-N-LIB_13
 70
     0
  0
APPID
  5
33C
330
9
100
AcDbSymbolTableRecord
100
AcDbRegAppTableRecord
  2
GENIUS_GENSCALE_13
 70
     0
  0
APPID
  5
378
330
9
100
AcDbSymbolTableRecord
100
AcDbRegAppTableRecord
  2
GENIUS_GENDIMSH_14
 70
     0
  0
APPID
  5
BA8
330
9
100
AcDbSymbolTableRecord
100
AcDbRegAppTableRecord
  2
GENIUS_GENOBJ-N-CEN_13
 70
     0
  0
APPID
  5
EE8
330
9
100
AcDbSymbolTableRecord
100
AcDbRegAppTableRecord
  2
GENIUS_GENFIL_13
 70
     0
  0
APPID
  5
EE9
330
9
100
AcDbSymbolTableRecord
100
AcDbRegAppTableRecord
  2
GENIUS_GENOBJ-N-CHA_13
 70
     0
  0
ENDTAB
  0
TABLE
  2
DIMSTYLE
  5
A
330
0
100
AcDbSymbolTable
 70
     8
  0
DIMSTYLE
105
58
102
{ACAD_REACTORS
330
2396
330
24B0
330
24EA
330
2551
102
}
330
A
100
AcDbSymbolTableRecord
100
AcDbDimStyleTableRecord
  2
AM_JIS
 70
     0
  3

  4
"
  5
OPEN30
  6

  7

 40
1.0
 41
2.5
 42
1.0
 43
12.0
 44
1.0
 45
0.0
 46
0.0
 47
0.1
 48
0.1
140
3.2
141
0.0
142
0.0
143
0.0393701
144
1.0
145
0.0
146
0.71
147
1.5
 71
     0
 72
     0
 73
     0
 74
     0
 75
     0
 76
     0
 77
     3
 78
     8
170
     0
171
     2
172
     1
173
     0
174
     0
175
     0
176
   256
177
   256
178
     2
270
     2
271
     3
272
     3
273
     2
274
     2
340
6B
275
     0
280
     0
281
     0
282
     0
283
     0
284
     0
285
     0
286
     0
287
     3
288
     0
  0
DIMSTYLE
105
5F
330
A
100
AcDbSymbolTableRecord
100
AcDbDimStyleTableRecord
  2
AM_JIS$3
 70
     0
  3

  4
"
  5
OPEN30
  6

  7

 40
1.0
 41
2.5
 42
1.0
 43
10.0
 44
1.0
 45
0.0
 46
0.0
 47
0.1
 48
0.1
140
3.2
141
0.0
142
0.0
143
0.0393701
144
1.0
145
0.0
146
0.71
147
1.5
 71
     0
 72
     0
 73
     0
 74
     1
 75
     0
 76
     0
 77
     3
 78
     8
170
     0
171
     2
172
     0
173
     0
174
     0
175
     0
176
   256
177
   256
178
     2
270
     2
271
     2
272
     3
273
     2
274
     2
340
6B
275
     0
280
     0
281
     0
282
     0
283
     0
284
     0
285
     0
286
     0
287
     0
288
     1
  0
DIMSTYLE
105
60
330
A
100
AcDbSymbolTableRecord
100
AcDbDimStyleTableRecord
  2
AM_JIS$4
 70
     0
  3

  4
"
  5
OPEN30
  6

  7

 40
1.0
 41
2.5
 42
1.0
 43
10.0
 44
1.0
 45
0.0
 46
0.0
 47
0.1
 48
0.1
140
3.2
141
0.0
142
0.0
143
0.0393701
144
1.0
145
0.0
146
0.71
147
1.5
 71
     0
 72
     0
 73
     0
 74
     1
 75
     0
 76
     0
 77
     3
 78
     8
170
     0
171
     2
172
     0
173
     0
174
     0
175
     0
176
   256
177
   256
178
     2
270
     2
271
     2
272
     3
273
     2
274
     2
340
6B
275
     0
280
     0
281
     0
282
     0
283
     0
284
     0
285
     0
286
     0
287
     0
288
     1
  0
DIMSTYLE
105
61
330
A
100
AcDbSymbolTableRecord
100
AcDbDimStyleTableRecord
  2
AM_JIS$6
 70
     0
  3

  4
"
  5
OPEN30
  6

  7

 40
1.0
 41
2.5
 42
1.0
 43
10.0
 44
1.0
 45
0.0
 46
0.0
 47
0.1
 48
0.1
140
3.2
141
0.0
142
0.0
143
0.0393701
144
1.0
145
0.0
146
0.71
147
1.5
 71
     0
 72
     0
 73
     0
 74
     0
 75
     0
 76
     0
 77
     0
 78
     8
170
     0
171
     2
172
     1
173
     0
174
     0
175
     0
176
   256
177
   256
178
     2
270
     2
271
     2
272
     2
273
     2
274
     2
340
6B
275
     0
280
     0
281
     0
282
     0
283
     0
284
     0
285
     0
286
     0
287
     3
288
     0
  0
DIMSTYLE
105
62
330
A
100
AcDbSymbolTableRecord
100
AcDbDimStyleTableRecord
  2
AM_JIS$7
 70
     0
  3

  4
"
  5
OPEN30
  6

  7

 40
1.0
 41
2.5
 42
1.0
 43
10.0
 44
1.0
 45
0.0
 46
0.0
 47
0.1
 48
0.1
140
3.2
141
0.0
142
0.0
143
0.0393701
144
1.0
145
0.0
146
0.71
147
1.5
 71
     0
 72
     0
 73
     0
 74
     0
 75
     0
 76
     0
 77
     3
 78
     8
170
     0
171
     2
172
     1
173
     0
174
     0
175
     0
176
   256
177
   256
178
     2
270
     2
271
     2
272
     3
273
     2
274
     2
340
6B
275
     0
280
     0
281
     0
282
     0
283
     0
284
     0
285
     0
286
     0
287
     3
288
     0
  0
DIMSTYLE
105
63
330
A
100
AcDbSymbolTableRecord
100
AcDbDimStyleTableRecord
  2
AM_JIS$SF
 70
     0
  3

  4
"
  5
OPEN30
  6

  7

 40
1.0
 41
2.5
 42
1.0
 43
10.0
 44
1.0
 45
0.0
 46
0.0
 47
0.1
 48
0.1
140
3.2
141
0.0
142
0.0
143
0.0393701
144
1.0
145
0.0
146
0.71
147
1.5
 71
     0
 72
     0
 73
     0
 74
     0
 75
     1
 76
     1
 77
     3
 78
     8
170
     0
171
     2
172
     1
173
     0
174
     0
175
     0
176
   256
177
   256
178
     2
270
     2
271
     2
272
     2
273
     2
274
     2
340
6B
275
     0
280
     0
281
     0
282
     0
283
     0
284
     0
285
     0
286
     0
287
     3
288
     0
  0
DIMSTYLE
105
68
330
A
100
AcDbSymbolTableRecord
100
AcDbDimStyleTableRecord
  2
AM_JIS$SH
 70
     0
  3

  4
"
  5

  6
GENAXEH
  7
OPEN30
 40
1.0
 41
2.5
 42
1.0
 43
10.0
 44
1.0
 45
0.0
 46
0.0
 47
0.1
 48
0.1
140
3.2
141
0.0
142
0.0
143
0.0393701
144
2.0
145
0.0
146
0.71
147
1.5
 71
     0
 72
     0
 73
     0
 74
     0
 75
     1
 76
     1
 77
     3
 78
     8
170
     0
171
     2
172
     1
173
     1
174
     0
175
     0
176
   256
177
   256
178
     2
270
     2
271
     2
272
     2
273
     2
274
     2
340
6B
275
     0
280
     0
281
     0
282
     0
283
     0
284
     0
285
     0
286
     0
287
     3
288
     0
  0
DIMSTYLE
105
B34
330
A
100
AcDbSymbolTableRecord
100
AcDbDimStyleTableRecord
  2
AM_JIS$2
 70
     0
  3

  4
"
  5
OPEN30
  6

  7

 40
1.0
 41
2.5
 42
1.0
 43
12.0
 44
1.0
 45
0.0
 46
0.0
 47
0.1
 48
0.1
140
3.2
141
0.0
142
0.0
143
0.0393701
144
1.0
145
0.0
146
0.71
147
1.5
 71
     0
 72
     0
 73
     0
 74
     0
 75
     0
 76
     0
 77
     3
 78
     8
170
     0
171
     2
172
     1
173
     0
174
     0
175
     0
176
   256
177
   256
178
     2
270
     2
271
     3
272
     3
273
     2
274
     2
340
6B
275
     0
280
     0
281
     0
282
     0
283
     0
284
     0
285
     0
286
     0
287
     3
288
     0
  0
ENDTAB
  0
TABLE
  2
BLOCK_RECORD
  5
1
330
0
100
AcDbSymbolTable
 70
     9
  0
BLOCK_RECORD
  5
1F
102
{ACAD_XDICTIONARY
360
74
102
}
330
1
100
AcDbSymbolTableRecord
100
AcDbBlockTableRecord
  2
*MODEL_SPACE
  0
BLOCK_RECORD
  5
101
102
{ACAD_XDICTIONARY
360
26A3
102
}
330
1
100
AcDbSymbolTableRecord
100
AcDbBlockTableRecord
  2
*PAPER_SPACE
  0
BLOCK_RECORD
  5
59
330
1
100
AcDbSymbolTableRecord
100
AcDbBlockTableRecord
  2
_OPEN30
  0
BLOCK_RECORD
  5
64
330
1
100
AcDbSymbolTableRecord
100
AcDbBlockTableRecord
  2
GENAXEH
  0
BLOCK_RECORD
  5
23EF
330
1
100
AcDbSymbolTableRecord
100
AcDbBlockTableRecord
  2
*D5
  0
BLOCK_RECORD
  5
24B1
330
1
100
AcDbSymbolTableRecord
100
AcDbBlockTableRecord
  2
*D6
  0
BLOCK_RECORD
  5
24EB
330
1
100
AcDbSymbolTableRecord
100
AcDbBlockTableRecord
  2
*D7
  0
BLOCK_RECORD
  5
2552
330
1
100
AcDbSymbolTableRecord
100
AcDbBlockTableRecord
  2
*D8
  0
ENDTAB
  0
ENDSEC
  0
SECTION
  2
BLOCKS
  0
BLOCK
  5
20
330
1F
100
AcDbEntity
  8
0
100
AcDbBlockBegin
  2
*MODEL_SPACE
 70
     0
 10
0.0
 20
0.0
 30
0.0
  3
*MODEL_SPACE
  1

  0
ENDBLK
  5
21
330
1F
100
AcDbEntity
  8
0
100
AcDbBlockEnd
  0
BLOCK
  5
103
330
101
100
AcDbEntity
 67
     1
  8
0
100
AcDbBlockBegin
  2
*PAPER_SPACE
 70
     0
 10
0.0
 20
0.0
 30
0.0
  3
*PAPER_SPACE
  1

  0
ENDBLK
  5
104
330
101
100
AcDbEntity
 67
     1
  8
0
100
AcDbBlockEnd
  0
BLOCK
  5
5D
330
59
100
AcDbEntity
  8
0
100
AcDbBlockBegin
  2
_OPEN30
 70
     0
 10
0.0
 20
0.0
 30
0.0
  3
_OPEN30
  1

  0
LINE
  5
5A
330
59
100
AcDbEntity
  8
0
 62
     0
100
AcDbLine
 10
-1.0
 20
0.26794919
 30
0.0
 11
0.0
 21
0.0
 31
0.0
  0
LINE
  5
5B
330
59
100
AcDbEntity
  8
0
 62
     0
100
AcDbLine
 10
0.0
 20
0.0
 30
0.0
 11
-1.0
 21
-0.26794919
 31
0.0
  0
LINE
  5
5C
330
59
100
AcDbEntity
  8
0
 62
     0
100
AcDbLine
 10
0.0
 20
0.0
 30
0.0
 11
-1.0
 21
0.0
 31
0.0
  0
ENDBLK
  5
5E
330
59
100
AcDbEntity
  8
0
100
AcDbBlockEnd
  0
BLOCK
  5
66
330
64
100
AcDbEntity
  8
0
100
AcDbBlockBegin
  2
GENAXEH
 70
     0
 10
0.0
 20
0.0
 30
0.0
  3
GENAXEH
  1

  0
LINE
  5
65
330
64
100
AcDbEntity
  8
0
100
AcDbLine
 10
-1.0
 20
0.0
 30
0.0
 11
1.0
 21
0.0
 31
0.0
  0
ENDBLK
  5
67
330
64
100
AcDbEntity
  8
0
100
AcDbBlockEnd
  0
BLOCK
  5
23F9
330
23EF
100
AcDbEntity
  8
0
100
AcDbBlockBegin
  2
*D5
 70
     1
 10
0.0
 20
0.0
 30
0.0
  3
*D5
  1

  0
LINE
  5
2541
330
23EF
100
AcDbEntity
  8
AM_5
100
AcDbLine
 10
-0.0000000000056039
 20
-4.36842105263159
 30
0.0
 11
-0.0000000000056055
 21
-30.99576890676578
 31
0.0
  0
LINE
  5
2542
330
23EF
100
AcDbEntity
  8
AM_5
100
AcDbLine
 10
-70.0000000000056
 20
-3.851665035763168
 30
0.0
 11
-70.0000000000056
 21
-30.99576890676578
 31
0.0
  0
LINE
  5
2543
330
23EF
100
AcDbEntity
  8
AM_5
100
AcDbLine
 10
-2.500000000005605
 20
-29.99576890676578
 30
0.0
 11
-67.5000000000056
 21
-29.99576890676578
 31
0.0
  0
INSERT
  5
2544
330
23EF
100
AcDbEntity
  8
AM_5
100
AcDbBlockReference
  2
_OPEN30
 10
-0.0000000000056054
 20
-29.99576890676578
 30
0.0
 41
2.5
 42
2.5
 43
2.5
  0
INSERT
  5
2545
330
23EF
100
AcDbEntity
  8
AM_5
100
AcDbBlockReference
  2
_OPEN30
 10
-70.0000000000056
 20
-29.99576890676578
 30
0.0
 41
2.5
 42
2.5
 43
2.5
 50
180.0
  0
MTEXT
  5
2546
330
23EF
100
AcDbEntity
  8
AM_5
 62
     2
100
AcDbMText
 10
-35.00000000000559
 20
-26.89576890676578
 30
0.0
 40
3.2
 41
0.0
 71
     5
 72
     1
  1
70
  7
ASAMI
1001
ACAD
1000
MTEXTBEGIN
1070
    73
1070
     1
1070
    44
1040
1.0
1070
    74
1070
     0
1000
MTEXTEND
  0
POINT
  5
2547
330
23EF
100
AcDbEntity
  8
DEFPOINTS
 62
     0
100
AcDbPoint
 10
-0.0000000000056038
 20
-3.36842105263159
 30
0.0
  0
POINT
  5
2548
330
23EF
100
AcDbEntity
  8
DEFPOINTS
 62
     0
100
AcDbPoint
 10
-70.0000000000056
 20
-2.851665035763168
 30
0.0
  0
POINT
  5
2549
330
23EF
100
AcDbEntity
  8
DEFPOINTS
 62
     0
100
AcDbPoint
 10
-70.0000000000056
 20
-29.99576890676578
 30
0.0
  0
ENDBLK
  5
23FA
330
23EF
100
AcDbEntity
  8
0
100
AcDbBlockEnd
  0
BLOCK
  5
24BD
330
24B1
100
AcDbEntity
  8
0
100
AcDbBlockBegin
  2
*D6
 70
     1
 10
0.0
 20
0.0
 30
0.0
  3
*D6
  1

  0
LINE
  5
2613
330
24B1
100
AcDbEntity
  8
AM_5
100
AcDbLine
 10
0.9999999999959243
 20
-3.734129651421687
 30
0.0
 11
18.3157904736842
 21
-3.734129651421693
 31
0.0
  0
LINE
  5
2614
330
24B1
100
AcDbEntity
  8
AM_5
100
AcDbLine
 10
0.9999999999999992
 20
3.765870349628338
 30
0.0
 11
18.3157904736842
 21
3.765870349628333
 31
0.0
  0
LINE
  5
2615
330
24B1
100
AcDbEntity
  8
AM_5
100
AcDbLine
 10
17.3157904736842
 20
-6.234129651421692
 30
0.0
 11
17.3157904736842
 21
-8.734129651421692
 31
0.0
  0
LINE
  5
2616
330
24B1
100
AcDbEntity
  8
AM_5
100
AcDbLine
 10
17.3157904736842
 20
6.265870349628334
 30
0.0
 11
17.3157904736842
 21
21.36587034962833
 31
0.0
  0
LINE
  5
2617
330
24B1
100
AcDbEntity
  8
AM_5
100
AcDbLine
 10
17.3157904736842
 20
-3.734129651421692
 30
0.0
 11
17.3157904736842
 21
3.765870349628333
 31
0.0
  0
INSERT
  5
2618
330
24B1
100
AcDbEntity
  8
AM_5
100
AcDbBlockReference
  2
_OPEN30
 10
17.3157904736842
 20
-3.734129651421692
 30
0.0
 41
2.5
 42
2.5
 43
2.5
 50
90.0
  0
INSERT
  5
2619
330
24B1
100
AcDbEntity
  8
AM_5
100
AcDbBlockReference
  2
_OPEN30
 10
17.3157904736842
 20
3.765870349628333
 30
0.0
 41
2.5
 42
2.5
 43
2.5
 50
270.0
  0
MTEXT
  5
261A
330
24B1
100
AcDbEntity
  8
AM_5
 62
     2
100
AcDbMText
 10
14.2157904736842
 20
15.06587034962833
 30
0.0
 40
3.2
 41
0.0
 71
     5
 72
     1
  1
%%c7.5
  7
ASAMI
 11
0.0000000000000001
 21
1.0
 31
0.0
1001
ACAD
1000
MTEXTBEGIN
1070
    73
1070
     1
1070
    44
1040
1.0
1070
    74
1070
     0
1000
MTEXTEND
  0
POINT
  5
261B
330
24B1
100
AcDbEntity
  8
DEFPOINTS
 62
     0
100
AcDbPoint
 10
-0.0000000000040757
 20
-3.734129651421687
 30
0.0
  0
POINT
  5
261C
330
24B1
100
AcDbEntity
  8
DEFPOINTS
 62
     0
100
AcDbPoint
 10
-0.0000000000000007
 20
3.765870349628338
 30
0.0
  0
POINT
  5
261D
330
24B1
100
AcDbEntity
  8
DEFPOINTS
 62
     0
100
AcDbPoint
 10
17.3157904736842
 20
3.765870349628333
 30
0.0
  0
ENDBLK
  5
24BE
330
24B1
100
AcDbEntity
  8
0
100
AcDbBlockEnd
  0
BLOCK
  5
24F5
330
24EB
100
AcDbEntity
  8
0
100
AcDbBlockBegin
  2
*D7
 70
     1
 10
0.0
 20
0.0
 30
0.0
  3
*D7
  1

  0
LINE
  5
260A
330
24EB
100
AcDbEntity
  8
AM_5
100
AcDbLine
 10
-0.0000000000040756
 20
-4.734129650371619
 30
0.0
 11
-0.0000000000040765
 21
-18.9957689067657
 31
0.0
  0
LINE
  5
260B
330
24EB
100
AcDbEntity
  8
AM_5
100
AcDbLine
 10
-16.00000225105824
 20
-4.734129650371619
 30
0.0
 11
-16.00000225105824
 21
-18.9957689067657
 31
0.0
  0
LINE
  5
260C
330
24EB
100
AcDbEntity
  8
AM_5
100
AcDbLine
 10
-2.500000000004076
 20
-17.9957689067657
 30
0.0
 11
-13.50000225105824
 21
-17.9957689067657
 31
0.0
  0
INSERT
  5
260D
330
24EB
100
AcDbEntity
  8
AM_5
100
AcDbBlockReference
  2
_OPEN30
 10
-0.0000000000040764
 20
-17.9957689067657
 30
0.0
 41
2.5
 42
2.5
 43
2.5
  0
INSERT
  5
260E
330
24EB
100
AcDbEntity
  8
AM_5
100
AcDbBlockReference
  2
_OPEN30
 10
-16.00000225105824
 20
-17.9957689067657
 30
0.0
 41
2.5
 42
2.5
 43
2.5
 50
180.0
  0
MTEXT
  5
260F
330
24EB
100
AcDbEntity
  8
AM_5
 62
     2
100
AcDbMText
 10
-8.000001125531159
 20
-14.8957689067657
 30
0.0
 40
3.2
 41
0.0
 71
     5
 72
     1
  1
16
  7
ASAMI
1001
ACAD
1000
MTEXTBEGIN
1070
    73
1070
     1
1070
    44
1040
1.0
1070
    74
1070
     0
1000
MTEXTEND
  0
POINT
  5
2610
330
24EB
100
AcDbEntity
  8
DEFPOINTS
 62
     0
100
AcDbPoint
 10
-0.0000000000040755
 20
-3.734129650371619
 30
0.0
  0
POINT
  5
2611
330
24EB
100
AcDbEntity
  8
DEFPOINTS
 62
     0
100
AcDbPoint
 10
-16.00000225105824
 20
-3.734129650371619
 30
0.0
  0
POINT
  5
2612
330
24EB
100
AcDbEntity
  8
DEFPOINTS
 62
     0
100
AcDbPoint
 10
-16.00000225105824
 20
-17.9957689067657
 30
0.0
  0
ENDBLK
  5
24F6
330
24EB
100
AcDbEntity
  8
0
100
AcDbBlockEnd
  0
BLOCK
  5
255E
330
2552
100
AcDbEntity
  8
0
100
AcDbBlockBegin
  2
*D8
 70
     1
 10
0.0
 20
0.0
 30
0.0
  3
*D8
  1

  0
LINE
  5
25FF
330
2552
100
AcDbEntity
  8
AM_5
100
AcDbLine
 10
-70.6562500000056
 20
-3.995767906765782
 30
0.0
 11
-87.03056725641404
 21
-3.995767906765777
 31
0.0
  0
LINE
  5
2600
330
2552
100
AcDbEntity
  8
AM_5
100
AcDbLine
 10
-70.6562500000056
 20
4.004232093234208
 30
0.0
 11
-87.03056725641404
 21
4.004232093234213
 31
0.0
  0
LINE
  5
2601
330
2552
100
AcDbEntity
  8
AM_5
100
AcDbLine
 10
-86.03056725641405
 20
-6.495767906765777
 30
0.0
 11
-86.03056725641405
 21
-8.995767906765777
 31
0.0
  0
LINE
  5
2602
330
2552
100
AcDbEntity
  8
AM_5
100
AcDbLine
 10
-86.03056725641405
 20
6.504232093234213
 30
0.0
 11
-86.03056725641405
 21
17.03280352180564
 31
0.0
  0
LINE
  5
2603
330
2552
100
AcDbEntity
  8
AM_5
100
AcDbLine
 10
-86.03056725641405
 20
-3.995767906765778
 30
0.0
 11
-86.03056725641405
 21
4.004232093234213
 31
0.0
  0
INSERT
  5
2604
330
2552
100
AcDbEntity
  8
AM_5
100
AcDbBlockReference
  2
_OPEN30
 10
-86.03056725641405
 20
-3.995767906765778
 30
0.0
 41
2.5
 42
2.5
 43
2.5
 50
90.0
  0
INSERT
  5
2605
330
2552
100
AcDbEntity
  8
AM_5
100
AcDbBlockReference
  2
_OPEN30
 10
-86.03056725641405
 20
4.004232093234213
 30
0.0
 41
2.5
 42
2.5
 43
2.5
 50
270.0
  0
MTEXT
  5
2606
330
2552
100
AcDbEntity
  8
AM_5
 62
     2
100
AcDbMText
 10
-89.13056725641403
 20
13.01851780751991
 30
0.0
 40
3.2
 41
0.0
 71
     5
 72
     1
  1
%%c8
  7
ASAMI
 11
0.0000000000000001
 21
1.0
 31
0.0
1001
ACAD
1000
MTEXTBEGIN
1070
    73
1070
     1
1070
    44
1040
1.0
1070
    74
1070
     0
1000
MTEXTEND
  0
POINT
  5
2607
330
2552
100
AcDbEntity
  8
DEFPOINTS
 62
     0
100
AcDbPoint
 10
-69.6562500000056
 20
-3.995767906765782
 30
0.0
  0
POINT
  5
2608
330
2552
100
AcDbEntity
  8
DEFPOINTS
 62
     0
100
AcDbPoint
 10
-69.6562500000056
 20
4.004232093234207
 30
0.0
  0
POINT
  5
2609
330
2552
100
AcDbEntity
  8
DEFPOINTS
 62
     0
100
AcDbPoint
 10
-86.03056725641405
 20
4.004232093234213
 30
0.0
  0
ENDBLK
  5
255F
330
2552
100
AcDbEntity
  8
0
100
AcDbBlockEnd
  0
ENDSEC
  0
SECTION
  2
ENTITIES
  0
TEXT
  5
F07
330
1F
100
AcDbEntity
  8
AM_6
100
AcDbText
 10
-58.45238095238094
 20
-52.50000000000004
 30
0.0
 40
5.0
  1
SSUP3075ZX
 72
     4
 11
-35.0
 21
-50.00000000000004
 31
0.0
100
AcDbText
  0
DIMENSION
  5
2396
330
1F
100
AcDbEntity
  8
AM_5
100
AcDbDimension
  2
*D5
 10
-70.0000000000056
 20
-29.99576890676578
 30
0.0
 11
-35.00000000000559
 21
-26.89576890676578
 31
0.0
 70
    32
  1
<>
  3
AM_JIS
100
AcDbAlignedDimension
 13
-0.0000000000056038
 23
-3.36842105263159
 33
0.0
 14
-70.0000000000056
 24
-2.851665035763168
 34
0.0
 50
0.0000000000000821
100
AcDbRotatedDimension
1001
GENIUS_GENDTOL_13
1000

1000
h7
1000

1040
0.0
  0
LINE
  5
2397
330
1F
100
AcDbEntity
  8
AM_7
100
AcDbLine
 10
-72.03056625641405
 20
-0.00000000000002
 30
0.0
 11
3.31578947368421
 21
-0.0000000000000166
 31
0.0
1001
GENIUS_GENODEF_13
1002
{
1000
HIER
1070
     0
1002
}
1002
{
1000
MANEDIT
1070
     0
1002
}
1002
{
1000
NOSEL
1070
     0
1002
}
1002
{
1000
BEHIND
1070
     0
1002
}
1002
{
1000
REACTOR
1002
}
1001
GENIUS_GENOBJ-N-CEN_13
1002
{
1000
OWNER
1000
GEN
1002
}
  0
LINE
  5
2398
330
1F
100
AcDbEntity
  8
AM_7
100
AcDbLine
 10
-72.03056625641405
 20
-0.00000000000002
 30
0.0
 11
2.999999999994397
 21
-0.000000000000015
 31
0.0
1001
GENIUS_GENODEF_13
1002
{
1000
HIER
1070
     0
1002
}
1002
{
1000
MANEDIT
1070
     0
1002
}
1002
{
1000
NOSEL
1070
     0
1002
}
1002
{
1000
BEHIND
1070
     0
1002
}
1002
{
1000
REACTOR
1002
}
1001
GENIUS_GENOBJ-N-CEN_13
1002
{
1000
OWNER
1000
GEN
1002
}
  0
LINE
  5
2399
330
1F
100
AcDbEntity
  8
AM_0
100
AcDbLine
 10
-69.6562500000056
 20
-3.995767906765782
 30
0.0
 11
-18.93074484738327
 21
-3.983521980587394
 31
0.0
  0
LINE
  5
239A
330
1F
100
AcDbEntity
  8
AM_0
100
AcDbLine
 10
-18.88957813771773
 20
4.004232093234216
 30
0.0
 11
-69.6562500000056
 21
4.004232093234207
 31
0.0
  0
LINE
  5
239B
330
1F
100
AcDbEntity
  8
AM_0
100
AcDbLine
 10
-70.0000000000056
 20
3.754232093234207
 30
0.0
 11
-70.0000000000056
 21
-3.745767906765783
 31
0.0
  0
LINE
  5
239C
330
1F
100
AcDbEntity
  8
AM_0
100
AcDbLine
 10
-69.6562500000056
 20
4.004232093234207
 30
0.0
 11
-69.6562500000056
 21
-3.995767906765782
 31
0.0
  0
LINE
  5
239D
330
1F
100
AcDbEntity
  8
AM_0
100
AcDbLine
 10
-69.6562500000056
 20
-3.995767906765782
 30
0.0
 11
-70.0000000000056
 21
-3.745767906765783
 31
0.0
1001
GENIUS_GENFIL_13
1070
     0
1040
0.5
1040
0.5
1040
20.0
1040
0.0
1002
{
1002
}
1001
GENIUS_GENODEF_13
1002
{
1000
HIER
1070
     0
1002
}
1002
{
1000
MANEDIT
1070
     0
1002
}
1002
{
1000
NOSEL
1070
     0
1002
}
1002
{
1000
BEHIND
1070
     0
1002
}
1002
{
1000
REACTOR
1002
}
1001
GENIUS_GENOBJ-N-CHA_13
1002
{
1000
OWNER
1000
GEN
1002
}
  0
LINE
  5
239E
330
1F
100
AcDbEntity
  8
AM_0
100
AcDbLine
 10
-69.6562500000056
 20
4.004232093234207
 30
0.0
 11
-69.6562500000056
 21
4.004232093234207
 31
0.0
  0
LINE
  5
239F
330
1F
100
AcDbEntity
  8
AM_0
100
AcDbLine
 10
-69.6562500000056
 20
4.004232093234207
 30
0.0
 11
-70.0000000000056
 21
3.754232093234207
 31
0.0
1001
GENIUS_GENFIL_13
1070
     0
1040
0.5
1040
0.5
1040
20.0
1040
0.0
1002
{
1002
}
1001
GENIUS_GENODEF_13
1002
{
1000
HIER
1070
     0
1002
}
1002
{
1000
MANEDIT
1070
     0
1002
}
1002
{
1000
NOSEL
1070
     0
1002
}
1002
{
1000
BEHIND
1070
     0
1002
}
1002
{
1000
REACTOR
1002
}
1001
GENIUS_GENOBJ-N-CHA_13
1002
{
1000
OWNER
1000
GEN
1002
}
  0
LINE
  5
248E
330
1F
100
AcDbEntity
  8
AM_0
100
AcDbLine
 10
-2.219183086059888
 20
2.103184498910574
 30
0.0
 11
-1.807533389775946
 21
1.528360885158103
 31
0.0
  0
LINE
  5
248F
330
1F
100
AcDbEntity
  8
AM_0
100
AcDbLine
 10
-0.0960134755793849
 20
-0.060372507194792
 30
0.0
 11
-0.0000000000040753
 21
-0.6815900003204049
 31
0.0
  0
LINE
  5
2490
330
1F
100
AcDbEntity
  8
AM_0
100
AcDbLine
 10
-0.0000000000040753
 20
-0.063481398519265
 30
0.0
 11
-0.0785748163447982
 21
-0.1732025043202512
 31
0.0
  0
LINE
  5
2491
330
1F
100
AcDbEntity
  8
AM_0
100
AcDbLine
 10
-0.0000000000040753
 20
-1.898665592540061
 30
0.0
 11
-0.0960134755793849
 21
-1.127190326396551
 31
0.0
  0
LINE
  5
2492
330
1F
100
AcDbEntity
  8
AM_0
100
AcDbLine
 10
-0.192026951154984
 20
-1.74737948586722
 30
0.0
 11
-0.0000000000040753
 21
-1.898665592540061
 31
0.0
  0
LINE
  5
2493
330
1F
100
AcDbEntity
  8
AM_0
100
AcDbLine
 10
-0.0000000000040753
 20
-1.898665592540061
 30
0.0
 11
-0.0960134755793849
 21
-2.352026347312409
 31
0.0
  0
LINE
  5
2494
330
1F
100
AcDbEntity
  8
AM_0
100
AcDbLine
 10
-0.3037015839240828
 20
-1.599386858679459
 30
0.0
 11
-1.70711121632384
 21
-1.387283064528198
 31
0.0
  0
LINE
  5
2495
330
1F
100
AcDbEntity
  8
AM_0
100
AcDbLine
 10
-0.0000000000040753
 20
-0.6815900003204049
 30
0.0
 11
-0.0000000000040753
 21
-1.898665592540061
 31
0.0
  0
LINE
  5
2496
330
1F
100
AcDbEntity
  8
AM_0
100
AcDbLine
 10
-0.0960134755793849
 20
-1.127190326396551
 30
0.0
 11
-0.0960134755793849
 21
-0.060372507194792
 31
0.0
  0
LINE
  5
2497
330
1F
100
AcDbEntity
  8
AM_11
100
AcDbLine
 10
-0.0000000000000006
 20
-3.734129650371619
 30
0.0
 11
-0.0000000000040753
 21
-1.898665592540061
 31
0.0
  0
LINE
  5
2498
330
1F
100
AcDbEntity
  8
AM_0
100
AcDbLine
 10
-0.0960134755793849
 20
-2.352026347312409
 30
0.0
 11
-0.4800673778817833
 21
-3.134601805092308
 31
0.0
  0
LINE
  5
2499
330
1F
100
AcDbEntity
  8
AM_0
100
AcDbLine
 10
-0.0000000000040753
 20
-1.898665592540061
 30
0.0
 11
-0.7146472468450491
 21
-2.716339815483997
 31
0.0
  0
LINE
  5
249A
330
1F
100
AcDbEntity
  8
AM_11
100
AcDbLine
 10
0.0000000000000002
 20
-3.734129650371619
 30
0.0
 11
-0.0000000000000006
 21
3.765870349628366
 31
0.0
  0
LINE
  5
249B
330
1F
100
AcDbEntity
  8
AM_0
100
AcDbLine
 10
-0.0000000000040753
 20
-0.063481398519265
 30
0.0
 11
-0.0000000000040753
 21
3.765870349628366
 31
0.0
  0
LINE
  5
249C
330
1F
100
AcDbEntity
  8
AM_0
100
AcDbLine
 10
-0.0960134755793849
 20
-0.060372507194792
 30
0.0
 11
-0.4800673778817833
 21
1.64207321525104
 31
0.0
  0
LINE
  5
249D
330
1F
100
AcDbEntity
  8
AM_0
100
AcDbLine
 10
-14.08197641774989
 20
2.049897568234416
 30
0.0
 11
-14.08197641774781
 21
2.63634785517993
 31
0.0
  0
LINE
  5
249E
330
1F
100
AcDbEntity
  8
AM_11
100
AcDbLine
 10
-16.00000225105824
 20
-3.734129650371619
 30
0.0
 11
-16.00000225105824
 21
3.765870349628366
 31
0.0
  0
POLYLINE
  5
249F
330
1F
100
AcDbEntity
  8
AM_0
100
AcDb2dPolyline
 66
     1
 10
0.0
 20
0.0
 30
0.0
 70
     2
  0
VERTEX
  5
24A0
330
249F
100
AcDbEntity
  8
AM_0
100
AcDbVertex
100
AcDb2dVertex
 10
-14.08197641774611
 20
2.049897568232541
 30
0.0
 42
0.0163510200184555
  0
VERTEX
  5
24A1
330
249F
100
AcDbEntity
  8
AM_0
100
AcDbVertex
100
AcDb2dVertex
 10
-14.83957485750763
 20
2.387872428765145
 30
0.0
 42
0.0236329905934865
 70
     1
  0
VERTEX
  5
24A2
330
249F
100
AcDbEntity
  8
AM_0
100
AcDbVertex
100
AcDb2dVertex
 10
-15.3781583380176
 20
2.571960386117448
 30
0.0
 42
0.0136924015569504
  0
VERTEX
  5
24A3
330
249F
100
AcDbEntity
  8
AM_0
100
AcDbVertex
100
AcDb2dVertex
 10
-16.68833501673515
 20
2.89787254815464
 30
0.0
 42
0.0437471596433213
 70
     1
  0
VERTEX
  5
24A4
330
249F
100
AcDbEntity
  8
AM_0
100
AcDbVertex
100
AcDb2dVertex
 10
-17.10640089837566
 20
2.944238876257588
 30
0.0
 42
0.0737828887826182
  0
VERTEX
  5
24A5
330
249F
100
AcDbEntity
  8
AM_0
100
AcDbVertex
100
AcDb2dVertex
 10
-17.47519432324562
 20
2.883183011020351
 30
0.0
 42
0.3022986902902931
 70
     1
  0
VERTEX
  5
24A6
330
249F
100
AcDbEntity
  8
AM_0
100
AcDbVertex
100
AcDb2dVertex
 10
-17.5384615384656
 20
2.794454548514162
 30
0.0
 42
0.1640404297379002
  0
VERTEX
  5
24A7
330
249F
100
AcDbEntity
  8
AM_0
100
AcDbVertex
100
AcDb2dVertex
 10
-17.50779396710592
 20
2.630932748490133
 30
0.0
 42
0.0324399100382136
 70
     1
  0
VERTEX
  5
24A8
330
249F
100
AcDbEntity
  8
AM_0
100
AcDbVertex
100
AcDb2dVertex
 10
-17.10640089837566
 20
1.952756194772998
 30
0.0
 42
0.0076492520245086
  0
VERTEX
  5
24A9
330
249F
100
AcDbEntity
  8
AM_0
100
AcDbVertex
100
AcDb2dVertex
 10
-16.58781457423343
 20
1.21126990411427
 30
0.0
 42
0.0033664759505265
 70
     1
  0
VERTEX
  5
24AA
330
249F
100
AcDbEntity
  8
AM_0
100
AcDbVertex
100
AcDb2dVertex
 10
-15.37815833801592
 20
-0.4426214190775112
 30
0.0
 42
0.0145714002245221
  0
VERTEX
  5
24AB
330
249F
100
AcDbEntity
  8
AM_0
100
AcDbVertex
100
AcDb2dVertex
 10
-14.95902578018324
 20
-0.9757259543703078
 30
0.0
 42
0.007325916991168
 70
     1
  0
VERTEX
  5
24AC
330
249F
100
AcDbEntity
  8
AM_0
100
AcDbVertex
100
AcDb2dVertex
 10
-14.08668231690013
 20
-1.99214085374778
 30
0.0
  0
SEQEND
  5
24AD
330
249F
100
AcDbEntity
  8
AM_0
  0
LINE
  5
24AE
330
1F
100
AcDbEntity
  8
AM_11
100
AcDbLine
 10
-16.00000225105824
 20
-3.734129650371619
 30
0.0
 11
-0.0000000000000006
 21
-3.734129650371619
 31
0.0
  0
LINE
  5
24AF
330
1F
100
AcDbEntity
  8
AM_11
100
AcDbLine
 10
-0.0000000000000006
 20
3.765870349628366
 30
0.0
 11
-16.00000225105824
 21
3.765870349628366
 31
0.0
  0
DIMENSION
  5
24B0
330
1F
100
AcDbEntity
  8
AM_5
100
AcDbDimension
  2
*D6
 10
17.3157904736842
 20
3.765870349628333
 30
0.0
 11
17.3157904736842
 21
15.06587034962833
 31
0.0
 70
   160
  1
%%c<>
  3
AM_JIS
100
AcDbAlignedDimension
 13
-0.0000000000040757
 23
-3.734129651421687
 33
0.0
 14
-0.0000000000000007
 24
3.765870349628338
 34
0.0
 50
89.99999999545865
100
AcDbRotatedDimension
1001
GENIUS_GENDTOL_13
1000

1000
h7
1000

1040
0.0
  0
ELLIPSE
  5
24BF
330
1F
100
AcDbEntity
  8
AM_0
100
AcDbEllipse
 10
5.097091149322953
 20
1.282774305046056
 30
0.0
 11
0.0000000000000524
 21
6.544685432320234
 31
0.0
210
0.0
220
0.0
230
1.0
 40
0.8534531162270409
 41
1.515869372210673
 42
1.947903343241005
  0
ELLIPSE
  5
24C0
330
1F
100
AcDbEntity
  8
AM_0
100
AcDbEllipse
 10
-0.0771305429431603
 20
-2.524903320011037
 30
0.0
 11
0.0000000000000055
 21
0.7711255220927127
 31
0.0
210
0.0
220
0.0
230
1.0
 40
0.853453116227042
 41
1.821675747739258
 42
2.482683360922186
  0
SPLINE
  5
24C1
330
1F
100
AcDbEntity
  8
AM_0
100
AcDbSpline
210
0.0
220
0.0
230
1.0
 70
     8
 71
     3
 72
     8
 73
     4
 74
     0
 42
0.0000000001
 43
0.0000000001
 40
0.6397612841816997
 40
0.6397612841816997
 40
0.6397612841816997
 40
0.6397612841816997
 40
7.939880490758838
 40
7.939880490758838
 40
7.939880490758838
 40
7.939880490758838
 10
-15.06295832577377
 20
3.406262297349032
 30
0.0
 10
-13.56681331798671
 20
3.069778220069432
 30
0.0
 10
-12.40644783954876
 20
1.542824284848943
 30
0.0
 10
-11.2460823611114
 20
0.0158703496284645
 30
0.0
  0
SPLINE
  5
24C2
330
1F
100
AcDbEntity
  8
AM_0
100
AcDbSpline
210
0.0
220
0.0
230
1.0
 70
     8
 71
     3
 72
     8
 73
     4
 74
     0
 42
0.0000000001
 43
0.0000000001
 40
0.5179125576517913
 40
0.5179125576517913
 40
0.5179125576517913
 40
0.5179125576517913
 40
8.138271981564475
 40
8.138271981564475
 40
8.138271981564475
 40
8.138271981564475
 10
-15.92225938458853
 20
3.765870349628366
 30
0.0
 10
-14.35353027553652
 20
3.36941462431606
 30
0.0
 10
-13.19160773692646
 20
1.692642486972213
 30
0.0
 10
-12.02968519831611
 20
0.0158703496284645
 30
0.0
  0
SPLINE
  5
24C3
330
1F
100
AcDbEntity
  8
AM_0
100
AcDbSpline
210
0.0
220
0.0
230
1.0
 70
     8
 71
     3
 72
     8
 73
     4
 74
     0
 42
0.0000000001
 43
0.0000000001
 40
0.2299567350972117
 40
0.2299567350972117
 40
0.2299567350972117
 40
0.2299567350972117
 40
7.769701155129346
 40
7.769701155129346
 40
7.769701155129346
 40
7.769701155129346
 10
-14.36922614374435
 20
3.158200432059752
 30
0.0
 10
-12.78188799350659
 20
3.011390712795201
 30
0.0
 10
-11.53956634688373
 20
1.513630531211741
 30
0.0
 10
-10.29724470026144
 20
0.0158703496283792
 30
0.0
  0
SPLINE
  5
24C4
330
1F
100
AcDbEntity
  8
AM_0
100
AcDbSpline
210
0.0
220
0.0
230
1.0
 70
     8
 71
     3
 72
     8
 73
     4
 74
     0
 42
0.0000000001
 43
0.0000000001
 40
5.129729518825886
 40
5.129729518825886
 40
5.129729518825886
 40
5.129729518825886
 40
8.272127900365292
 40
8.272127900365292
 40
8.272127900365292
 40
8.272127900365292
 10
-14.08197641774989
 20
2.049897568234416
 30
0.0
 10
-13.5865014888918
 20
1.44041238678093
 30
0.0
 10
-13.12053878519573
 20
0.7281413682046498
 30
0.0
 10
-12.65457608149966
 20
0.0158703496283792
 30
0.0
  0
SPLINE
  5
24C5
330
1F
100
AcDbEntity
  8
AM_0
100
AcDbSpline
210
0.0
220
0.0
230
1.0
 70
     8
 71
     3
 72
     8
 73
     4
 74
     0
 42
0.0000000001
 43
0.0000000001
 40
0.5179125576349786
 40
0.5179125576349786
 40
0.5179125576349786
 40
0.5179125576349786
 40
1.981387939834528
 40
1.981387939834528
 40
1.981387939834528
 40
1.981387939834528
 10
-13.11034472991005
 20
-3.544299743956588
 30
0.0
 10
-12.80907331937319
 20
-3.504617652542001
 30
0.0
 10
-12.52280593765678
 20
-3.410712941988501
 30
0.0
 10
-12.24866108986117
 20
-3.272998962094141
 30
0.0
  0
SPLINE
  5
24C6
330
1F
100
AcDbEntity
  8
AM_0
100
AcDbSpline
210
0.0
220
0.0
230
1.0
 70
     8
 71
     3
 72
     8
 73
     4
 74
     0
 42
0.0000000001
 43
0.0000000001
 40
0.6432030004477055
 40
0.6432030004477055
 40
0.6432030004477055
 40
0.6432030004477055
 40
1.797818050668038
 40
1.797818050668038
 40
1.797818050668038
 40
1.797818050668038
 10
-12.24897491195669
 20
-3.273049424471214
 30
0.0
 10
-12.01244417815143
 20
-3.235030311901144
 30
0.0
 10
-11.7843564863581
 20
-3.164753007678924
 30
0.0
 10
-11.56337582256338
 20
-3.067321998555492
 30
0.0
  0
SPLINE
  5
24C7
330
1F
100
AcDbEntity
  8
AM_0
100
AcDbSpline
210
0.0
220
0.0
230
1.0
 70
     8
 71
     3
 72
     8
 73
     4
 74
     0
 42
0.0000000001
 43
0.0000000001
 40
0.0
 40
0.0
 40
0.0
 40
0.0
 40
1.570112951298052
 40
1.570112951298052
 40
1.570112951298052
 40
1.570112951298052
 10
-14.06085345376296
 20
-3.734129650371705
 30
0.0
 10
-13.72584900598441
 20
-3.734129650371705
 30
0.0
 10
-13.41023989212305
 20
-3.66657914809719
 30
0.0
 10
-13.11034472990979
 20
-3.544299743959306
 30
0.0
  0
SPLINE
  5
24C8
330
1F
100
AcDbEntity
  8
AM_0
100
AcDbSpline
210
0.0
220
0.0
230
1.0
 70
     8
 71
     3
 72
     8
 73
     4
 74
     0
 42
0.0000000001
 43
0.0000000001
 40
0.0
 40
0.0
 40
0.0
 40
0.0
 40
1.973247866266529
 40
1.973247866266529
 40
1.973247866266529
 40
1.973247866266529
 10
-11.70352207252445
 20
-3.071011211512377
 30
0.0
 10
-11.28250343738611
 20
-3.071011211512377
 30
0.0
 10
-10.88583696820483
 20
-2.971460441217551
 30
0.0
 10
-10.50733801790655
 20
-2.797641513324044
 30
0.0
  0
SPLINE
  5
24C9
330
1F
100
AcDbEntity
  8
AM_0
100
AcDbSpline
210
0.0
220
0.0
230
1.0
 70
     8
 71
     3
 72
     8
 73
     4
 74
     0
 42
0.0000000001
 43
0.0000000001
 40
0.1383879590723462
 40
0.1383879590723462
 40
0.1383879590723462
 40
0.1383879590723462
 40
4.12619780763684
 40
4.12619780763684
 40
4.12619780763684
 40
4.12619780763684
 10
-11.79195896621973
 20
-3.069551009038157
 30
0.0
 10
-12.63596964016319
 20
-3.041583158003052
 30
0.0
 10
-13.38229300266658
 20
-2.61427312446711
 30
0.0
 10
-14.0819764177461
 20
-1.996300679186834
 30
0.0
  0
SPLINE
  5
24CA
330
1F
100
AcDbEntity
  8
AM_0
100
AcDbSpline
210
0.0
220
0.0
230
1.0
 70
     8
 71
     3
 72
     8
 73
     4
 74
     0
 42
0.0000000001
 43
0.0000000001
 40
0.0
 40
0.0
 40
0.0
 40
0.0
 40
1.570112951298052
 40
1.570112951298052
 40
1.570112951298052
 40
1.570112951298052
 10
-14.06106681682737
 20
-3.734129650371705
 30
0.0
 10
-13.72606236904881
 20
-3.734129650371705
 30
0.0
 10
-13.41045325518746
 20
-3.66657914809719
 30
0.0
 10
-13.1105580929742
 20
-3.544299743959306
 30
0.0
  0
SPLINE
  5
24CB
330
1F
100
AcDbEntity
  8
AM_0
100
AcDbSpline
210
0.0
220
0.0
230
1.0
 70
     8
 71
     3
 72
     8
 73
     4
 74
     0
 42
0.0000000001
 43
0.0000000001
 40
0.0
 40
0.0
 40
0.0
 40
0.0
 40
8.27212790036493
 40
8.27212790036493
 40
8.27212790036493
 40
8.27212790036493
 10
-8.436384054547735
 20
-3.734129650371705
 30
0.0
 10
-10.2013523881465
 20
-3.734129650371705
 30
0.0
 10
-11.42796423482308
 20
-1.859129650371695
 30
0.0
 10
-12.65457608149966
 20
0.0158703496282939
 30
0.0
  0
SPLINE
  5
24CC
330
1F
100
AcDbEntity
  8
AM_0
100
AcDbSpline
210
0.0
220
0.0
230
1.0
 70
     8
 71
     3
 72
     8
 73
     4
 74
     0
 42
0.0000000001
 43
0.0000000001
 40
0.0
 40
0.0
 40
0.0
 40
0.0
 40
3.655156164497277
 40
3.655156164497277
 40
3.655156164497277
 40
3.655156164497277
 10
-11.24851207230106
 20
3.765870349628366
 30
0.0
 10
-12.02838817702295
 20
3.765870349628964
 30
0.0
 10
-12.70315348152673
 20
3.399788106364479
 30
0.0
 10
-13.31925267259693
 20
2.829382212581474
 30
0.0
  0
SPLINE
  5
24CD
330
1F
100
AcDbEntity
  8
AM_0
100
AcDbSpline
210
0.0
220
0.0
230
1.0
 70
     8
 71
     3
 72
     8
 73
     4
 74
     0
 42
0.0000000001
 43
0.0000000001
 40
5.58452476840911
 40
5.58452476840911
 40
5.58452476840911
 40
5.58452476840911
 40
8.27212790036518
 40
8.27212790036518
 40
8.27212790036518
 40
8.27212790036518
 10
-0.1920269511546925
 20
-1.747379485866879
 30
0.0
 10
-0.6090149595394287
 20
-1.202499562711842
 30
0.0
 10
-1.007539484368869
 20
-0.593314606541817
 30
0.0
 10
-1.406064009198308
 20
0.0158703496282939
 30
0.0
  0
SPLINE
  5
24CE
330
1F
100
AcDbEntity
  8
AM_0
100
AcDbSpline
210
0.0
220
0.0
230
1.0
 70
     8
 71
     3
 72
     8
 73
     4
 74
     0
 42
0.0000000001
 43
0.0000000001
 40
6.850968446318445
 40
6.850968446318445
 40
6.850968446318445
 40
6.850968446318445
 40
8.138271981564475
 40
8.138271981564475
 40
8.138271981564475
 40
8.138271981564475
 10
-0.1903630113824185
 20
-0.8268112661390389
 30
0.0
 10
-0.3886071305208647
 20
-0.5506422202201476
 30
0.0
 10
-0.5848901282678078
 20
-0.2673859352959269
 30
0.0
 10
-0.7811731260147514
 20
0.0158703496282939
 30
0.0
  0
SPLINE
  5
24CF
330
1F
100
AcDbEntity
  8
AM_0
100
AcDbSpline
210
0.0
220
0.0
230
1.0
 70
     8
 71
     3
 72
     8
 73
     4
 74
     0
 42
0.0000000001
 43
0.0000000001
 40
0.0
 40
0.0
 40
0.0
 40
0.0
 40
3.860109074512531
 40
3.860109074512531
 40
3.860109074512531
 40
3.860109074512531
 10
-0.1920269511546925
 20
3.758398304356867
 30
0.0
 10
-0.0321798112342971
 20
2.81172076114073
 30
0.0
 10
-1.395577556406306
 20
2.103184498910574
 30
0.0
 10
-2.219183086061052
 20
2.103184498910574
 30
0.0
  0
SPLINE
  5
24D0
330
1F
100
AcDbEntity
  8
AM_0
100
AcDbSpline
210
0.0
220
0.0
230
1.0
 70
     8
 71
     3
 72
     8
 73
     4
 74
     0
 42
0.0000000001
 43
0.0000000001
 40
0.2299567350972117
 40
0.2299567350972117
 40
0.2299567350972117
 40
0.2299567350972117
 40
4.912075065647881
 40
4.912075065647881
 40
4.912075065647881
 40
4.912075065647881
 10
-3.120714071442708
 20
3.098735953877204
 30
0.0
 10
-2.134990333876478
 20
3.044495288468151
 30
0.0
 10
-1.282315527888556
 20
2.446355421282513
 30
0.0
 10
-0.4800673778817833
 20
1.64207321525104
 30
0.0
  0
SPLINE
  5
24D1
330
1F
100
AcDbEntity
  8
AM_0
100
AcDbSpline
210
0.0
220
0.0
230
1.0
 70
     8
 71
     3
 72
     8
 73
     4
 74
     0
 42
0.0000000001
 43
0.0000000001
 40
0.0
 40
0.0
 40
0.0
 40
0.0
 40
3.655156164497277
 40
3.655156164497277
 40
3.655156164497277
 40
3.655156164497277
 10
-0.0000000000000006
 20
3.765870349628366
 30
0.0
 10
-0.7798761047215935
 20
3.765870349628964
 30
0.0
 10
-1.454641409225667
 20
3.399788106364479
 30
0.0
 10
-2.070740600295869
 20
2.829382212581474
 30
0.0
  0
SPLINE
  5
24D2
330
1F
100
AcDbEntity
  8
AM_0
100
AcDbSpline
210
0.0
220
0.0
230
1.0
 70
     8
 71
     3
 72
     8
 73
     4
 74
     0
 42
0.0000000001
 43
0.0000000001
 40
0.0
 40
0.0
 40
0.0
 40
0.0
 40
8.272127900365285
 40
8.272127900365285
 40
8.272127900365285
 40
8.272127900365285
 10
-5.624256036150534
 20
3.765870349628366
 30
0.0
 10
-3.859287702551688
 20
3.765870349628366
 30
0.0
 10
-2.632675855875
 20
1.890870349628368
 30
0.0
 10
-1.406064009198308
 20
0.0158703496283792
 30
0.0
  0
SPLINE
  5
24D3
330
1F
100
AcDbEntity
  8
AM_0
100
AcDbSpline
210
0.0
220
0.0
230
1.0
 70
     8
 71
     3
 72
     8
 73
     4
 74
     0
 42
0.0000000001
 43
0.0000000001
 40
0.5179125576517913
 40
0.5179125576517913
 40
0.5179125576517913
 40
0.5179125576517913
 40
8.138271981564475
 40
8.138271981564475
 40
8.138271981564475
 40
8.138271981564475
 10
-4.673747312287468
 20
3.57604044321196
 30
0.0
 10
-3.105018203235164
 20
3.36941462431606
 30
0.0
 10
-1.943095664624812
 20
1.692642486972213
 30
0.0
 10
-0.7811731260147514
 20
0.0158703496284645
 30
0.0
  0
SPLINE
  5
24D4
330
1F
100
AcDbEntity
  8
AM_0
100
AcDbSpline
210
0.0
220
0.0
230
1.0
 70
     8
 71
     3
 72
     8
 73
     4
 74
     0
 42
0.0000000001
 43
0.0000000001
 40
0.6397612841816997
 40
0.6397612841816997
 40
0.6397612841816997
 40
0.6397612841816997
 40
6.972227720174165
 40
6.972227720174165
 40
6.972227720174165
 40
6.972227720174165
 10
-3.814446253472707
 20
3.305935271398377
 30
0.0
 10
-2.516619769124885
 20
3.101081547939184
 30
0.0
 10
-1.471455387010235
 20
1.924949274916155
 30
0.0
 10
-0.4597821269347805
 20
0.6200711070799727
 30
0.0
  0
SPLINE
  5
24D5
330
1F
100
AcDbEntity
  8
AM_0
100
AcDbSpline
210
0.0
220
0.0
230
1.0
 70
     8
 71
     3
 72
     8
 73
     4
 74
     0
 42
0.0000000001
 43
0.0000000001
 40
0.0
 40
0.0
 40
0.0
 40
0.0
 40
0.0092824582075338
 40
0.0092824582075338
 40
0.0092824582075338
 40
0.0092824582075338
 10
-0.4547966371586908
 20
-3.071011211512377
 30
0.0
 10
-0.4528161014376362
 20
-3.071011211512377
 30
0.0
 10
-0.4508361046071444
 20
-3.071009008548549
 30
0.0
 10
-0.4488566460227644
 20
-3.071004605252944
 30
0.0
  0
SPLINE
  5
24D6
330
1F
100
AcDbEntity
  8
AM_0
100
AcDbSpline
210
0.0
220
0.0
230
1.0
 70
     8
 71
     3
 72
     8
 73
     4
 74
     0
 42
0.0000000001
 43
0.0000000001
 40
0.0
 40
0.0
 40
0.0
 40
0.0
 40
1.512029330426235
 40
1.512029330426235
 40
1.512029330426235
 40
1.512029330426235
 10
-1.403634298008361
 20
-3.305673153283669
 30
0.0
 10
-1.081023236040075
 20
-3.305025168248739
 30
0.0
 10
-0.7741677313146093
 20
-3.244180184974489
 30
0.0
 10
-0.4800673778817833
 20
-3.134601805091455
 30
0.0
  0
SPLINE
  5
24D7
330
1F
100
AcDbEntity
  8
AM_0
100
AcDbSpline
210
0.0
220
0.0
230
1.0
 70
     8
 71
     3
 72
     8
 73
     4
 74
     0
 42
0.0000000001
 43
0.0000000001
 40
0.0
 40
0.0
 40
0.0
 40
0.0
 40
1.981387939834528
 40
1.981387939834528
 40
1.981387939834528
 40
1.981387939834528
 10
-2.18723713521306
 20
-3.565595286229274
 30
0.0
 10
-1.764481707286486
 20
-3.565595286229188
 30
0.0
 10
-1.37109823214887
 20
-3.459448848595946
 30
0.0
 10
-0.999935654495117
 20
-3.272998962094141
 30
0.0
  0
SPLINE
  5
24D8
330
1F
100
AcDbEntity
  8
AM_0
100
AcDbSpline
210
0.0
220
0.0
230
1.0
 70
     8
 71
     3
 72
     8
 73
     4
 74
     0
 42
0.0000000001
 43
0.0000000001
 40
0.0
 40
0.0
 40
0.0
 40
0.0
 40
1.570112951298052
 40
1.570112951298052
 40
1.570112951298052
 40
1.570112951298052
 10
-2.812128018396909
 20
-3.734129650371705
 30
0.0
 10
-2.477123570618353
 20
-3.734129650371705
 30
0.0
 10
-2.161514456757003
 20
-3.66657914809719
 30
0.0
 10
-1.861619294543739
 20
-3.544299743959306
 30
0.0
  0
SPLINE
  5
24D9
330
1F
100
AcDbEntity
  8
AM_0
100
AcDbSpline
210
0.0
220
0.0
230
1.0
 70
     8
 71
     3
 72
     8
 73
     4
 74
     0
 42
0.0000000001
 43
0.0000000001
 40
0.0
 40
0.0
 40
0.0
 40
0.0
 40
1.973247866266529
 40
1.973247866266529
 40
1.973247866266529
 40
1.973247866266529
 10
-6.079052673309226
 20
-3.071011211512377
 30
0.0
 10
-5.658034038170887
 20
-3.071011211512377
 30
0.0
 10
-5.261367568989599
 20
-2.971460441217551
 30
0.0
 10
-4.882868618691323
 20
-2.797641513324044
 30
0.0
  0
SPLINE
  5
24DA
330
1F
100
AcDbEntity
  8
AM_0
100
AcDbSpline
210
0.0
220
0.0
230
1.0
 70
     8
 71
     3
 72
    10
 73
     6
 74
     0
 42
0.0000000001
 43
0.0000000001
 40
0.0
 40
0.0
 40
0.0
 40
0.0
 40
1.624816058741878
 40
2.635428435777873
 40
3.678161543961334
 40
3.678161543961334
 40
3.678161543961334
 40
3.678161543961334
 10
-0.7146472468450491
 20
-2.716339815483827
 30
0.0
 10
-1.050039907014586
 20
-2.613548879546744
 30
0.0
 10
-1.500281637692955
 20
-2.467690492288951
 30
0.0
 10
-2.502809708345091
 20
-1.964246310500729
 30
0.0
 10
-1.92776418965359
 20
-1.353934759262568
 30
0.0
 10
-1.70711121632384
 20
-1.387283064528198
 30
0.0
  0
SPLINE
  5
24DB
330
1F
100
AcDbEntity
  8
AM_0
100
AcDbSpline
210
0.0
220
0.0
230
1.0
 70
     8
 71
     3
 72
     8
 73
     4
 74
     0
 42
0.0000000001
 43
0.0000000001
 40
0.0
 40
0.0
 40
0.0
 40
0.0
 40
8.138271981564608
 40
8.138271981564608
 40
8.138271981564608
 40
8.138271981564608
 10
-2.18723713521306
 20
-3.565595286229274
 30
0.0
 10
-3.923645531055435
 20
-3.565595286229274
 30
0.0
 10
-5.16453734661036
 20
-1.774862468300489
 30
0.0
 10
-6.405429162165283
 20
0.0158703496282939
 30
0.0
  0
SPLINE
  5
24DC
330
1F
100
AcDbEntity
  8
AM_0
100
AcDbSpline
210
0.0
220
0.0
230
1.0
 70
     8
 71
     3
 72
     8
 73
     4
 74
     0
 42
0.0000000001
 43
0.0000000001
 40
0.0
 40
0.0
 40
0.0
 40
0.0
 40
7.939880490758586
 40
7.939880490758586
 40
7.939880490758586
 40
7.939880490758586
 10
-1.403634298008361
 20
-3.305673153283755
 30
0.0
 10
-3.097713234835404
 20
-3.305673153283755
 30
0.0
 10
-4.359769779897848
 20
-1.644901401827731
 30
0.0
 10
-5.621826324960292
 20
0.0158703496282939
 30
0.0
  0
SPLINE
  5
24DD
330
1F
100
AcDbEntity
  8
AM_0
100
AcDbSpline
210
0.0
220
0.0
230
1.0
 70
     8
 71
     3
 72
     8
 73
     4
 74
     0
 42
0.0000000001
 43
0.0000000001
 40
0.1383879590723462
 40
0.1383879590723462
 40
0.1383879590723462
 40
0.1383879590723462
 40
7.769701155129346
 40
7.769701155129346
 40
7.769701155129346
 40
7.769701155129346
 10
-0.5430201677892754
 20
-3.069551009038157
 30
0.0
 10
-2.158169846000801
 20
-3.016030044204206
 30
0.0
 10
-3.415579255055566
 20
-1.500079847287913
 30
0.0
 10
-4.672988664110624
 20
0.0158703496282939
 30
0.0
  0
SPLINE
  5
24DE
330
1F
100
AcDbEntity
  8
AM_0
100
AcDbSpline
210
0.0
220
0.0
230
1.0
 70
     8
 71
     3
 72
     8
 73
     4
 74
     0
 42
0.0000000001
 43
0.0000000001
 40
0.0
 40
0.0
 40
0.0
 40
0.0
 40
1.570112951298052
 40
1.570112951298052
 40
1.570112951298052
 40
1.570112951298052
 10
-8.436384054547735
 20
-3.734129650371705
 30
0.0
 10
-8.101379606769182
 20
-3.734129650371705
 30
0.0
 10
-7.785770492907825
 20
-3.66657914809719
 30
0.0
 10
-7.485875330694563
 20
-3.544299743959306
 30
0.0
  0
SPLINE
  5
24DF
330
1F
100
AcDbEntity
  8
AM_0
100
AcDbSpline
210
0.0
220
0.0
230
1.0
 70
     8
 71
     3
 72
     8
 73
     4
 74
     0
 42
0.0000000001
 43
0.0000000001
 40
0.0
 40
0.0
 40
0.0
 40
0.0
 40
8.138271981564608
 40
8.138271981564608
 40
8.138271981564608
 40
8.138271981564608
 10
-7.811493171363885
 20
-3.565595286229274
 30
0.0
 10
-9.547901567206258
 20
-3.565595286229274
 30
0.0
 10
-10.78879338276118
 20
-1.774862468300489
 30
0.0
 10
-12.02968519831611
 20
0.0158703496282939
 30
0.0
  0
SPLINE
  5
24E0
330
1F
100
AcDbEntity
  8
AM_0
100
AcDbSpline
210
0.0
220
0.0
230
1.0
 70
     8
 71
     3
 72
     8
 73
     4
 74
     0
 42
0.0000000001
 43
0.0000000001
 40
0.0
 40
0.0
 40
0.0
 40
0.0
 40
7.939880490758586
 40
7.939880490758586
 40
7.939880490758586
 40
7.939880490758586
 10
-7.027890334159183
 20
-3.305673153283755
 30
0.0
 10
-8.721969270986232
 20
-3.305673153283755
 30
0.0
 10
-9.984025816048676
 20
-1.644901401827731
 30
0.0
 10
-11.24608236111111
 20
0.0158703496282939
 30
0.0
  0
SPLINE
  5
24E1
330
1F
100
AcDbEntity
  8
AM_0
100
AcDbSpline
210
0.0
220
0.0
230
1.0
 70
     8
 71
     3
 72
     8
 73
     4
 74
     0
 42
0.0000000001
 43
0.0000000001
 40
0.0
 40
0.0
 40
0.0
 40
0.0
 40
7.769701155129467
 40
7.769701155129467
 40
7.769701155129467
 40
7.769701155129467
 10
-6.079052673309226
 20
-3.071011211512377
 30
0.0
 10
-7.736821589058737
 20
-3.071011211512377
 30
0.0
 10
-9.017033144660091
 20
-1.527570430942042
 30
0.0
 10
-10.29724470026144
 20
0.0158703496282939
 30
0.0
  0
SPLINE
  5
24E2
330
1F
100
AcDbEntity
  8
AM_0
100
AcDbSpline
210
0.0
220
0.0
230
1.0
 70
     8
 71
     3
 72
     8
 73
     4
 74
     0
 42
0.0000000001
 43
0.0000000001
 40
0.0
 40
0.0
 40
0.0
 40
0.0
 40
1.797818050668038
 40
1.797818050668038
 40
1.797818050668038
 40
1.797818050668038
 10
-7.027890334159183
 20
-3.305673153283669
 30
0.0
 10
-6.644302543313552
 20
-3.304902692573143
 30
0.0
 10
-6.282989090677792
 20
-3.219029034474948
 30
0.0
 10
-5.938906423348157
 20
-3.067321998555492
 30
0.0
  0
SPLINE
  5
24E3
330
1F
100
AcDbEntity
  8
AM_0
100
AcDbSpline
210
0.0
220
0.0
230
1.0
 70
     8
 71
     3
 72
     8
 73
     4
 74
     0
 42
0.0000000001
 43
0.0000000001
 40
0.0
 40
0.0
 40
0.0
 40
0.0
 40
1.981387939834528
 40
1.981387939834528
 40
1.981387939834528
 40
1.981387939834528
 10
-7.811493171363885
 20
-3.565595286229274
 30
0.0
 10
-7.388737743437313
 20
-3.565595286229188
 30
0.0
 10
-6.995354268299692
 20
-3.459448848595946
 30
0.0
 10
-6.624191690645939
 20
-3.272998962094141
 30
0.0
  0
SPLINE
  5
24E4
330
1F
100
AcDbEntity
  8
AM_0
100
AcDbSpline
210
0.0
220
0.0
230
1.0
 70
     8
 71
     3
 72
     8
 73
     4
 74
     0
 42
0.0000000001
 43
0.0000000001
 40
0.0
 40
0.0
 40
0.0
 40
0.0
 40
8.272127900365292
 40
8.272127900365292
 40
8.272127900365292
 40
8.272127900365292
 10
-2.812128018396909
 20
-3.734129650371705
 30
0.0
 10
-4.577096351995751
 20
-3.734129650371705
 30
0.0
 10
-5.803708198672441
 20
-1.859129650371706
 30
0.0
 10
-7.030320045349135
 20
0.0158703496282939
 30
0.0
  0
SPLINE
  5
24E5
330
1F
100
AcDbEntity
  8
AM_0
100
AcDbSpline
210
0.0
220
0.0
230
1.0
 70
     8
 71
     3
 72
     8
 73
     4
 74
     0
 42
0.0000000001
 43
0.0000000001
 40
0.0
 40
0.0
 40
0.0
 40
0.0
 40
3.655156164497277
 40
3.655156164497277
 40
3.655156164497277
 40
3.655156164497277
 10
-5.624256036150534
 20
3.765870349628366
 30
0.0
 10
-6.404132140872415
 20
3.765870349628964
 30
0.0
 10
-7.078897445376199
 20
3.399788106364479
 30
0.0
 10
-7.694996636446402
 20
2.829382212581474
 30
0.0
  0
SPLINE
  5
24E6
330
1F
100
AcDbEntity
  8
AM_0
100
AcDbSpline
210
0.0
220
0.0
230
1.0
 70
     8
 71
     3
 72
     8
 73
     4
 74
     0
 42
0.0000000001
 43
0.0000000001
 40
0.6397612841816997
 40
0.6397612841816997
 40
0.6397612841816997
 40
0.6397612841816997
 40
7.939880490758838
 40
7.939880490758838
 40
7.939880490758838
 40
7.939880490758838
 10
-9.438702289623236
 20
3.305935271398377
 30
0.0
 10
-7.942557281835886
 20
3.069778220069432
 30
0.0
 10
-6.782191803398236
 20
1.542824284848943
 30
0.0
 10
-5.621826324960582
 20
0.0158703496284645
 30
0.0
  0
SPLINE
  5
24E7
330
1F
100
AcDbEntity
  8
AM_0
100
AcDbSpline
210
0.0
220
0.0
230
1.0
 70
     8
 71
     3
 72
     8
 73
     4
 74
     0
 42
0.0000000001
 43
0.0000000001
 40
0.2299567350972117
 40
0.2299567350972117
 40
0.2299567350972117
 40
0.2299567350972117
 40
7.769701155129346
 40
7.769701155129346
 40
7.769701155129346
 40
7.769701155129346
 10
-8.744970107593532
 20
3.098735953877204
 30
0.0
 10
-7.157631957356063
 20
3.011390712795201
 30
0.0
 10
-5.915310310733199
 20
1.513630531211741
 30
0.0
 10
-4.672988664110624
 20
0.0158703496283792
 30
0.0
  0
SPLINE
  5
24E8
330
1F
100
AcDbEntity
  8
AM_0
100
AcDbSpline
210
0.0
220
0.0
230
1.0
 70
     8
 71
     3
 72
     8
 73
     4
 74
     0
 42
0.0000000001
 43
0.0000000001
 40
0.5179125576517913
 40
0.5179125576517913
 40
0.5179125576517913
 40
0.5179125576517913
 40
8.138271981564475
 40
8.138271981564475
 40
8.138271981564475
 40
8.138271981564475
 10
-10.298003348438
 20
3.57604044321196
 30
0.0
 10
-8.729274239385988
 20
3.36941462431606
 30
0.0
 10
-7.56735170077564
 20
1.692642486972213
 30
0.0
 10
-6.405429162165283
 20
0.0158703496284645
 30
0.0
  0
SPLINE
  5
24E9
330
1F
100
AcDbEntity
  8
AM_0
100
AcDbSpline
210
0.0
220
0.0
230
1.0
 70
     8
 71
     3
 72
     8
 73
     4
 74
     0
 42
0.0000000001
 43
0.0000000001
 40
0.0
 40
0.0
 40
0.0
 40
0.0
 40
8.272127900364923
 40
8.272127900364923
 40
8.272127900364923
 40
8.272127900364923
 10
-11.24851207230106
 20
3.765870349628366
 30
0.0
 10
-9.483543738702296
 20
3.765870349628366
 30
0.0
 10
-8.256931892025715
 20
1.890870349628389
 30
0.0
 10
-7.030320045349135
 20
0.0158703496283792
 30
0.0
  0
DIMENSION
  5
24EA
330
1F
100
AcDbEntity
  8
AM_5
100
AcDbDimension
  2
*D7
 10
-16.00000225105824
 20
-17.9957689067657
 30
0.0
 11
-8.000001125531159
 21
-14.8957689067657
 31
0.0
 70
    32
  1
<>
  3
AM_JIS
100
AcDbAlignedDimension
 13
-0.0000000000040755
 23
-3.734129650371619
 33
0.0
 14
-16.00000225105824
 24
-3.734129650371619
 34
0.0
 50
0.0000000000001166
100
AcDbRotatedDimension
1001
GENIUS_GENDTOL_13
1000

1000
h7
1000

1040
0.0
  0
LINE
  5
2527
330
1F
100
AcDbEntity
  8
AM_0
100
AcDbLine
 10
-15.92225938458853
 20
3.765870349628366
 30
0.0
 11
-18.0
 21
3.765870349628366
 31
0.0
  0
LINE
  5
2528
330
1F
100
AcDbEntity
  8
AM_0
100
AcDbLine
 10
-14.06085345375999
 20
-3.734129650371619
 30
0.0
 11
-18.0
 21
-3.734129650371619
 31
0.0
  0
LINE
  5
253B
330
1F
100
AcDbEntity
  8
AM_0
100
AcDbLine
 10
-18.88957813771773
 20
4.004232093234216
 30
0.0
 11
-18.88957813771773
 21
-3.972491393977468
 31
0.0
  0
LINE
  5
253D
330
1F
100
AcDbEntity
  8
AM_0
100
AcDbLine
 10
-18.0
 20
3.765870349628366
 30
0.0
 11
-18.88957813771773
 21
4.004232093234216
 31
0.0
  0
LINE
  5
253E
330
1F
100
AcDbEntity
  8
AM_0
100
AcDbLine
 10
-18.0
 20
3.765870349628366
 30
0.0
 11
-18.0
 21
-3.734129650371619
 31
0.0
  0
LINE
  5
253F
330
1F
100
AcDbEntity
  8
AM_0
100
AcDbLine
 10
-18.0
 20
-3.734129650371619
 30
0.0
 11
-18.88957813771773
 21
-3.972491393977468
 31
0.0
  0
DIMENSION
  5
2551
330
1F
100
AcDbEntity
  8
AM_5
100
AcDbDimension
  2
*D8
 10
-86.03056725641405
 20
4.004232093234213
 30
0.0
 11
-89.13056725641403
 21
13.01851780751991
 31
0.0
 70
    32
  1
%%c<>
  3
AM_JIS
100
AcDbAlignedDimension
 13
-69.6562500000056
 23
-3.995767906765782
 33
0.0
 14
-69.6562500000056
 24
4.004232093234207
 34
0.0
 50
270.0
100
AcDbRotatedDimension
1001
GENIUS_GENDTOL_13
1000

1000
h7
1000

1040
0.0
  0
VIEWPORT
  5
110
330
101
100
AcDbEntity
 67
     1
  8
0
100
AcDbViewport
 10
420.5
 20
297.0
 30
0.0
 40
948.9782706766916
 41
628.452
 68
     1
 69
     1
1001
ACAD
1000
MVIEW
1002
{
1070
    16
1010
0.0
1020
0.0
1030
0.0
1010
0.0
1020
0.0
1030
1.0
1040
0.0
1040
628.452
1040
420.5
1040
297.0
1040
50.0
1040
0.0
1040
0.0
1070
     0
1070
   100
1070
     1
1070
     1
1070
     0
1070
     0
1070
     0
1070
     0
1040
0.0
1040
0.0
1040
0.0
1040
10.0
1040
10.0
1040
10.0
1040
10.0
1070
     0
1002
{
1002
}
1002
}
  0
ENDSEC
  0
SECTION
  2
OBJECTS
  0
DICTIONARY
  5
C
330
0
100
AcDbDictionary
  3
ACAD_GROUP
350
D
  3
ACAD_LAYOUT
350
1A
  3
ACAD_MLINESTYLE
350
17
  3
ACAD_PLOTSETTINGS
350
19
  3
ACAD_PLOTSTYLENAME
350
E
  3
ACDBVARIABLEDICTIONARY
350
34
  3
ACMDICTIONARY
350
43
  3
AMG
350
2B
  3
AMGSNAPSETTINGS
350
6E
  3
DWGPROPS
350
266F
  3
ACDBHEADERROUNDTRIPXREC
350
267B
  0
DICTIONARY
  5
74
330
1F
100
AcDbDictionary
280
     1
  3
ACAD_INDEX
360
2671
  3
ACAD_LAYOUTSELFREF
360
269E
  0
DICTIONARY
  5
26A3
330
101
100
AcDbDictionary
280
     1
  3
ACAD_LAYOUTSELFREF
360
26A4
  0
DICTIONARY
  5
D
102
{ACAD_REACTORS
330
C
102
}
330
C
100
AcDbDictionary
  0
DICTIONARY
  5
1A
102
{ACAD_REACTORS
330
C
102
}
330
C
100
AcDbDictionary
  0
DICTIONARY
  5
17
102
{ACAD_REACTORS
330
C
102
}
330
C
100
AcDbDictionary
  3
STANDARD
350
18
  0
DICTIONARY
  5
19
102
{ACAD_REACTORS
330
C
102
}
330
C
100
AcDbDictionary
  0
ACDBDICTIONARYWDFLT
  5
E
102
{ACAD_REACTORS
330
C
102
}
330
C
100
AcDbDictionary
281
     1
  3
Normal
350
F
100
AcDbDictionaryWithDefault
340
F
  0
DICTIONARY
  5
34
102
{ACAD_REACTORS
330
C
102
}
330
C
100
AcDbDictionary
  3
INDEXCTL
350
35
  3
SORTENTS
350
B5E
  0
DICTIONARY
  5
43
102
{ACAD_REACTORS
330
C
102
}
330
C
100
AcDbDictionary
  3
ACMSTDDICTIONARY
350
260
  0
DICTIONARY
  5
2B
102
{ACAD_REACTORS
330
C
102
}
330
C
100
AcDbDictionary
  3
ACMGSETTINGS
350
2C
  0
DICTIONARY
  5
6E
102
{ACAD_REACTORS
330
C
102
}
330
C
100
AcDbDictionary
  0
XRECORD
  5
266F
102
{ACAD_REACTORS
330
C
102
}
330
C
100
AcDbXrecord
  1
DWGPROPS COOKIE
  2

  3

  4

  6

  7

  8

  9

300
AmdtFileType=82
301
=
302
=
303
=
304
=
305
=
306
=
307
=
308
=
309
=
 40
0.0646916666666667
 41
2452808.461142939
 42
2452844.412731296
  1

 90
        1
  0
DICTIONARY
  5
267B
102
{ACAD_REACTORS
330
C
102
}
330
C
100
AcDbDictionary
  3
TSTACKALIGN
350
267C
  3
TSTACKSIZE
350
267D
  3
HYPERLINKBASE
350
267E
  3
STYLESHEET
350
267F
  3
LAYOUTDICT
350
2680
  3
PLOTSETDICT
350
2681
  3
PLOTSTYLNAMDICT
350
2682
  3
LWETCUNION
350
2683
  3
INSUNITS
350
2684
  3
CEPSNTYPE
350
2685
  3
FINGERPRINTGUID
350
2686
  3
VERSIONGUID
350
2687
  3
PSVPSCALE
350
2688
  3
DIMSTYLEDATA
350
2689
  3
PUCSORTHOREF
350
268A
  3
PUCSORTHOVIEW
350
268B
  3
PUCSBASE
350
268C
  3
PUCSORGTOP
350
268D
  3
PUCSORGBOTTOM
350
268E
  3
PUCSORGLEFT
350
268F
  3
PUCSORGRIGHT
350
2690
  3
PUCSORGFRONT
350
2691
  3
PUCSORGBACK
350
2692
  3
UCSORTHOREF
350
2693
  3
UCSORTHOVIEW
350
2694
  3
UCSBASE
350
2695
  3
UCSORGTOP
350
2696
  3
UCSORGBOTTOM
350
2697
  3
UCSORGLEFT
350
2698
  3
UCSORGRIGHT
350
2699
  3
UCSORGFRONT
350
269A
  3
UCSORGBACK
350
269B
  0
DICTIONARY
  5
2671
102
{ACAD_REACTORS
330
74
102
}
330
74
100
AcDbDictionary
  3
*A1
350
2672
  0
XRECORD
  5
269E
102
{ACAD_REACTORS
330
74
102
}
330
74
100
AcDbXrecord
340
1F
  0
XRECORD
  5
26A4
102
{ACAD_REACTORS
330
26A3
102
}
330
26A3
100
AcDbXrecord
340
101
  0
MLINESTYLE
  5
18
102
{ACAD_REACTORS
330
17
102
}
330
17
100
AcDbMlineStyle
  2
STANDARD
 70
     0
  3

 62
   256
 51
90.0
 52
90.0
 71
     2
 49
0.5
 62
   256
  6
BYLAYER
 49
-0.5
 62
   256
  6
BYLAYER
  0
ACDBPLACEHOLDER
  5
F
102
{ACAD_REACTORS
330
E
102
}
330
E
100
AcDbPlaceHolder
280
     0
  0
DICTIONARYVAR
  5
35
102
{ACAD_REACTORS
330
34
102
}
330
34
100
DictionaryVariables
280
     0
  1
1
  0
DICTIONARYVAR
  5
B5E
102
{ACAD_REACTORS
330
34
102
}
330
34
100
DictionaryVariables
280
     0
  1
96
  0
DICTIONARY
  5
260
102
{ACAD_REACTORS
330
43
102
}
330
43
100
AcDbDictionary
  0
DICTIONARY
  5
2C
102
{ACAD_REACTORS
330
2B
102
}
330
2B
100
AcDbDictionary
  3
DWGSETTINGS
350
2D
  0
XRECORD
  5
267C
102
{ACAD_REACTORS
330
267B
102
}
330
267B
100
AcDbXrecord
 90
        1
  0
XRECORD
  5
267D
102
{ACAD_REACTORS
330
267B
102
}
330
267B
100
AcDbXrecord
 90
       70
  0
XRECORD
  5
267E
102
{ACAD_REACTORS
330
267B
102
}
330
267B
100
AcDbXrecord
  1

  0
XRECORD
  5
267F
102
{ACAD_REACTORS
330
267B
102
}
330
267B
100
AcDbXrecord
  1
ASAMI.ctb
  0
XRECORD
  5
2680
102
{ACAD_REACTORS
330
267B
102
}
330
267B
100
AcDbXrecord
340
1A
  0
XRECORD
  5
2681
102
{ACAD_REACTORS
330
267B
102
}
330
267B
100
AcDbXrecord
340
19
  0
XRECORD
  5
2682
102
{ACAD_REACTORS
330
267B
102
}
330
267B
100
AcDbXrecord
340
E
  0
XRECORD
  5
2683
102
{ACAD_REACTORS
330
267B
102
}
330
267B
100
AcDbXrecord
 90
    10781
  0
XRECORD
  5
2684
102
{ACAD_REACTORS
330
267B
102
}
330
267B
100
AcDbXrecord
 90
        4
  0
XRECORD
  5
2685
102
{ACAD_REACTORS
330
267B
102
}
330
267B
100
AcDbXrecord
 90
        0
  0
XRECORD
  5
2686
102
{ACAD_REACTORS
330
267B
102
}
330
267B
100
AcDbXrecord
  1
{AFB28963-8C59-40AE-9337-C84526B81ACE}
  0
XRECORD
  5
2687
102
{ACAD_REACTORS
330
267B
102
}
330
267B
100
AcDbXrecord
  1
{AF9DAA1F-7329-4D82-B6C3-08D049B71C64}
  0
XRECORD
  5
2688
102
{ACAD_REACTORS
330
267B
102
}
330
267B
100
AcDbXrecord
 40
0.0
  0
XRECORD
  5
2689
102
{ACAD_REACTORS
330
267B
102
}
330
267B
100
AcDbXrecord
1000
DSTYLE
1002
{
1070
    79
 70
     2
1070
   341
340
59
1070
   342
340
59
1070
   371
 70
    -1
1070
   372
 70
    -1
1002
}
  0
XRECORD
  5
268A
102
{ACAD_REACTORS
330
267B
102
}
330
267B
100
AcDbXrecord
340
0
  0
XRECORD
  5
268B
102
{ACAD_REACTORS
330
267B
102
}
330
267B
100
AcDbXrecord
 70
     0
  0
XRECORD
  5
268C
102
{ACAD_REACTORS
330
267B
102
}
330
267B
100
AcDbXrecord
340
0
  0
XRECORD
  5
268D
102
{ACAD_REACTORS
330
267B
102
}
330
267B
100
AcDbXrecord
 10
0.0
 20
0.0
 30
0.0
  0
XRECORD
  5
268E
102
{ACAD_REACTORS
330
267B
102
}
330
267B
100
AcDbXrecord
 10
0.0
 20
0.0
 30
0.0
  0
XRECORD
  5
268F
102
{ACAD_REACTORS
330
267B
102
}
330
267B
100
AcDbXrecord
 10
0.0
 20
0.0
 30
0.0
  0
XRECORD
  5
2690
102
{ACAD_REACTORS
330
267B
102
}
330
267B
100
AcDbXrecord
 10
0.0
 20
0.0
 30
0.0
  0
XRECORD
  5
2691
102
{ACAD_REACTORS
330
267B
102
}
330
267B
100
AcDbXrecord
 10
0.0
 20
0.0
 30
0.0
  0
XRECORD
  5
2692
102
{ACAD_REACTORS
330
267B
102
}
330
267B
100
AcDbXrecord
 10
0.0
 20
0.0
 30
0.0
  0
XRECORD
  5
2693
102
{ACAD_REACTORS
330
267B
102
}
330
267B
100
AcDbXrecord
340
0
  0
XRECORD
  5
2694
102
{ACAD_REACTORS
330
267B
102
}
330
267B
100
AcDbXrecord
 70
     0
  0
XRECORD
  5
2695
102
{ACAD_REACTORS
330
267B
102
}
330
267B
100
AcDbXrecord
340
0
  0
XRECORD
  5
2696
102
{ACAD_REACTORS
330
267B
102
}
330
267B
100
AcDbXrecord
 10
0.0
 20
0.0
 30
0.0
  0
XRECORD
  5
2697
102
{ACAD_REACTORS
330
267B
102
}
330
267B
100
AcDbXrecord
 10
0.0
 20
0.0
 30
0.0
  0
XRECORD
  5
2698
102
{ACAD_REACTORS
330
267B
102
}
330
267B
100
AcDbXrecord
 10
0.0
 20
0.0
 30
0.0
  0
XRECORD
  5
2699
102
{ACAD_REACTORS
330
267B
102
}
330
267B
100
AcDbXrecord
 10
0.0
 20
0.0
 30
0.0
  0
XRECORD
  5
269A
102
{ACAD_REACTORS
330
267B
102
}
330
267B
100
AcDbXrecord
 10
0.0
 20
0.0
 30
0.0
  0
XRECORD
  5
269B
102
{ACAD_REACTORS
330
267B
102
}
330
267B
100
AcDbXrecord
 10
0.0
 20
0.0
 30
0.0
  0
LAYER_INDEX
  5
2672
102
{ACAD_REACTORS
330
2671
102
}
330
2671
100
AcDbIndex
 40
2452844.458320313
100
AcDbLayerIndex
  8
0
360
2673
 90
        0
  8
AM_0
360
2674
 90
       71
  8
AM_11
360
2675
 90
        5
  8
AM_6
360
2676
 90
        1
  8
AM_7
360
2677
 90
        2
  8
AM_5
360
2678
 90
        4
  8
Defpoints
360
2679
 90
        0
  0
XRECORD
  5
2D
102
{ACAD_REACTORS
330
2C
102
}
330
2C
100
AcDbXrecord
  1
VERSION
140
15.0
  1
PRODUCT
  2
AutoCAD Mechanical 2000
  0
IDBUFFER
  5
2673
330
0
100
AcDbIdBuffer
  0
IDBUFFER
  5
2674
330
0
100
AcDbIdBuffer
330
24D9
330
24DA
330
24DB
330
24DC
330
24DD
330
24DE
330
24DF
330
24E0
330
24E1
330
24E2
330
24E3
330
24E4
330
24E5
330
24E6
330
24E7
330
24E8
330
24E9
330
2527
330
2528
330
253B
330
253D
330
253E
330
253F
330
2399
330
239A
330
239B
330
239C
330
239D
330
239E
330
239F
330
248E
330
248F
330
2490
330
2491
330
2492
330
2493
330
2494
330
2495
330
2496
330
2498
330
2499
330
249B
330
249C
330
249D
330
249F
330
24BF
330
24C0
330
24C1
330
24C2
330
24C3
330
24C4
330
24C5
330
24C6
330
24C7
330
24C8
330
24C9
330
24CA
330
24CB
330
24CC
330
24CD
330
24CE
330
24CF
330
24D0
330
24D1
330
24D2
330
24D3
330
24D4
330
24D5
330
24D6
330
24D7
330
24D8
  0
IDBUFFER
  5
2675
330
0
100
AcDbIdBuffer
330
2497
330
249A
330
249E
330
24AE
330
24AF
  0
IDBUFFER
  5
2676
330
0
100
AcDbIdBuffer
330
F07
  0
IDBUFFER
  5
2677
330
0
100
AcDbIdBuffer
330
2397
330
2398
  0
IDBUFFER
  5
2678
330
0
100
AcDbIdBuffer
330
2396
330
24B0
330
24EA
330
2551
  0
IDBUFFER
  5
2679
330
0
100
AcDbIdBuffer
  0
ENDSEC
  0
EOF
