  0
SECTION
  2
HEADER
  9
$ACADVER
  1
AC1014
  9
$ACADMAINTVER
 70
     9
  9
$DWGCODEPAGE
  3
ANSI_932
  9
$INSBASE
 10
0.0
 20
0.0
 30
0.0
  9
$EXTMIN
 10
-98.70000100000559
 20
-52.12755610347208
 30
-0.00000001
  9
$EXTMAX
 10
18.31579047368419
 20
17.01058503232589
 30
0.00000001
  9
$LIMMIN
 10
-111.3612669287906
 20
-65.96691243166242
  9
$LIMMAX
 10
36.68339470317766
 20
24.03857996407612
  9
$ORTHOMODE
 70
     0
  9
$REGENMODE
 70
     1
  9
$FILLMODE
 70
     1
  9
$QTEXTMODE
 70
     0
  9
$MIRRTEXT
 70
     0
  9
$DRAGMODE
 70
     2
  9
$LTSCALE
 40
1.0
  9
$OSMODE
 70
  2103
  9
$ATTMODE
 70
     1
  9
$TEXTSIZE
 40
2.5
  9
$TRACEWID
 40
1.0
  9
$TEXTSTYLE
  7
ACJISGDT
  9
$CLAYER
  8
AM_0
  9
$CELTYPE
  6
BYLAYER
  9
$CECOLOR
 62
   256
  9
$CELTSCALE
 40
1.0
  9
$DELOBJ
 70
     1
  9
$DISPSILH
 70
     0
  9
$DIMSCALE
 40
1.0
  9
$DIMASZ
 40
2.5
  9
$DIMEXO
 40
1.0
  9
$DIMDLI
 40
12.0
  9
$DIMRND
 40
0.0
  9
$DIMDLE
 40
0.0
  9
$DIMEXE
 40
1.0
  9
$DIMTP
 40
0.1
  9
$DIMTM
 40
0.1
  9
$DIMTXT
 40
3.2
  9
$DIMCEN
 40
0.0
  9
$DIMTSZ
 40
0.0
  9
$DIMTOL
 70
     0
  9
$DIMLIM
 70
     0
  9
$DIMTIH
 70
     0
  9
$DIMTOH
 70
     0
  9
$DIMSE1
 70
     0
  9
$DIMSE2
 70
     0
  9
$DIMTAD
 70
     3
  9
$DIMZIN
 70
     8
  9
$DIMBLK
  1
OPEN30
  9
$DIMASO
 70
     1
  9
$DIMSHO
 70
     1
  9
$DIMPOST
  1

  9
$DIMAPOST
  1
"
  9
$DIMALT
 70
     0
  9
$DIMALTD
 70
     2
  9
$DIMALTF
 40
0.0393701
  9
$DIMLFAC
 40
1.0
  9
$DIMTOFL
 70
     1
  9
$DIMTVP
 40
0.0
  9
$DIMTIX
 70
     0
  9
$DIMSOXD
 70
     0
  9
$DIMSAH
 70
     0
  9
$DIMBLK1
  1

  9
$DIMBLK2
  1

  9
$DIMSTYLE
  2
AM_JIS
  9
$DIMCLRD
 70
   256
  9
$DIMCLRE
 70
   256
  9
$DIMCLRT
 70
     2
  9
$DIMTFAC
 40
0.71
  9
$DIMGAP
 40
1.5
  9
$DIMJUST
 70
     0
  9
$DIMSD1
 70
     0
  9
$DIMSD2
 70
     0
  9
$DIMTOLJ
 70
     0
  9
$DIMTZIN
 70
     0
  9
$DIMALTZ
 70
     0
  9
$DIMALTTZ
 70
     0
  9
$DIMFIT
 70
     3
  9
$DIMUPT
 70
     0
  9
$DIMUNIT
 70
     2
  9
$DIMDEC
 70
     3
  9
$DIMTDEC
 70
     3
  9
$DIMALTU
 70
     2
  9
$DIMALTTD
 70
     2
  9
$DIMTXSTY
  7
ASAMI
  9
$DIMAUNIT
 70
     0
  9
$LUNITS
 70
     2
  9
$LUPREC
 70
     2
  9
$SKETCHINC
 40
1.0
  9
$FILLETRAD
 40
2.5
  9
$AUNITS
 70
     0
  9
$AUPREC
 70
     0
  9
$MENU
  1
.
  9
$ELEVATION
 40
0.0
  9
$PELEVATION
 40
0.0
  9
$THICKNESS
 40
0.0
  9
$LIMCHECK
 70
     0
  9
$BLIPMODE
 70
     0
  9
$CHAMFERA
 40
0.5
  9
$CHAMFERB
 40
0.5
  9
$CHAMFERC
 40
20.0
  9
$CHAMFERD
 40
0.0
  9
$SKPOLY
 70
     0
  9
$TDCREATE
 40
2452808.461142939
  9
$TDUPDATE
 40
2452844.458409097
  9
$TDINDWG
 40
0.0446516898
  9
$TDUSRTIMER
 40
0.0446516898
  9
$USRTIMER
 70
     1
  9
$ANGBASE
 50
0.0
  9
$ANGDIR
 70
     0
  9
$PDMODE
 70
     0
  9
$PDSIZE
 40
0.0
  9
$PLINEWID
 40
0.0
  9
$COORDS
 70
     2
  9
$SPLFRAME
 70
     0
  9
$SPLINETYPE
 70
     6
  9
$SPLINESEGS
 70
     8
  9
$ATTDIA
 70
     1
  9
$ATTREQ
 70
     1
  9
$HANDLING
 70
 12289
  9
$HANDSEED
  5
1F3A
  9
$SURFTAB1
 70
     6
  9
$SURFTAB2
 70
     6
  9
$SURFTYPE
 70
     6
  9
$SURFU
 70
     6
  9
$SURFV
 70
     6
  9
$UCSNAME
  2

  9
$UCSORG
 10
0.0
 20
-0.0000000000000041
 30
0.0
  9
$UCSXDIR
 10
1.0
 20
0.0
 30
0.0
  9
$UCSYDIR
 10
0.0
 20
1.0
 30
0.0
  9
$PUCSNAME
  2

  9
$PUCSORG
 10
0.0
 20
0.0
 30
0.0
  9
$PUCSXDIR
 10
1.0
 20
0.0
 30
0.0
  9
$PUCSYDIR
 10
0.0
 20
1.0
 30
0.0
  9
$USERI1
 70
     0
  9
$USERI2
 70
     0
  9
$USERI3
 70
     0
  9
$USERI4
 70
     0
  9
$USERI5
 70
     0
  9
$USERR1
 40
0.0
  9
$USERR2
 40
0.0
  9
$USERR3
 40
0.0
  9
$USERR4
 40
0.0
  9
$USERR5
 40
0.0
  9
$WORLDVIEW
 70
     1
  9
$SHADEDGE
 70
     3
  9
$SHADEDIF
 70
    70
  9
$TILEMODE
 70
     1
  9
$MAXACTVP
 70
    64
  9
$PINSBASE
 10
0.0
 20
0.0
 30
0.0
  9
$PLIMCHECK
 70
     0
  9
$PEXTMIN
 10
1.000000000000000E+20
 20
1.000000000000000E+20
 30
1.000000000000000E+20
  9
$PEXTMAX
 10
-1.000000000000000E+20
 20
-1.000000000000000E+20
 30
-1.000000000000000E+20
  9
$PLIMMIN
 10
0.0
 20
0.0
  9
$PLIMMAX
 10
841.0
 20
594.0
  9
$UNITMODE
 70
     0
  9
$VISRETAIN
 70
     1
  9
$PLINEGEN
 70
     0
  9
$PSLTSCALE
 70
     0
  9
$TREEDEPTH
 70
  3020
  9
$PICKSTYLE
 70
     0
  9
$CMLSTYLE
  2
STANDARD
  9
$CMLJUST
 70
     0
  9
$CMLSCALE
 40
20.0
  9
$PROXYGRAPHICS
 70
     1
  9
$MEASUREMENT
 70
     1
  0
ENDSEC
  0
SECTION
  2
CLASSES
  0
CLASS
  1
ACDBDICTIONARYWDFLT
  2
AcDbDictionaryWithDefault
  3
AutoCAD 2000
 90
        0
280
     0
281
     0
  0
CLASS
  1
ACDBPLACEHOLDER
  2
AcDbPlaceHolder
  3
AutoCAD 2000
 90
        0
280
     0
281
     0
  0
CLASS
  1
LAYOUT
  2
AcDbLayout
  3
AutoCAD 2000
 90
        0
280
     0
281
     0
  0
CLASS
  1
AMGSETTINGSOBJ
  2
AmgSettingsObj
  3
"AcadM|Product Description: AutoCAD Mechanical 2000|Company: Autodesk"
 90
        0
280
     0
281
     0
  0
CLASS
  1
ACME_DOCUMENT
  2
AcMeDbDoc
  3
AcMeServices
 90
        0
280
     0
281
     0
  0
CLASS
  1
ACMESCOPE
  2
AcMeScope
  3
AcMeServices
 90
        0
280
     0
281
     0
  0
CLASS
  1
ACMECOMMANDHISTORY
  2
AcMeCommandHistory
  3
AcMeServices
 90
        0
280
     0
281
     0
  0
CLASS
  1
DICTIONARYVAR
  2
AcDbDictionaryVar
  3
AutoCAD 2000
 90
        0
280
     0
281
     0
  0
CLASS
  1
ACIMSYSVARMAN
  2
AcImSysVarManager
  3
AcMeServices
 90
        0
280
     0
281
     0
  0
CLASS
  1
ACIMREALSYSVAR
  2
AcImRealSysVar
  3
AcMeServices
 90
        0
280
     0
281
     0
  0
CLASS
  1
ACIMINTSYSVAR
  2
AcImIntSysVar
  3
AcMeServices
 90
        0
280
     0
281
     0
  0
CLASS
  1
ACMEDRAWINGMAN
  2
AcMeDrawingMan
  3
AcMeServices
 90
        0
280
     0
281
     0
  0
CLASS
  1
ACMEVIEW
  2
AcMeView
  3
AcMeServices
 90
        0
280
     0
281
     0
  0
CLASS
  1
ACDBENTITYCACHE
  2
AcMeEntityCache
  3
AcMeServices
 90
        0
280
     0
281
     0
  0
CLASS
  1
GSMANAGER
  2
AcMeGSManager
  3
AcMeServices
 90
        0
280
     0
281
     0
  0
CLASS
  1
AmdtInternalReactor
  2
AmdtInternalReactor
  3
AcMeServices
 90
        0
280
     0
281
     0
  0
CLASS
  1
ACMESTATEMGR
  2
AcMeStateMgr
  3
AcMeServices
 90
        0
280
     0
281
     0
  0
CLASS
  1
ACME_DATABASE
  2
AcMeDbDatabase
  3
AcMeServices
 90
        0
280
     0
281
     0
  0
CLASS
  1
ACRFINSADJUSTERMGR
  2
AcRfInsAdjusterMgr
  3
AcMeServices
 90
        0
280
     0
281
     0
  0
CLASS
  1
ACMDATADICTIONARY
  2
AcmDataDictionary
  3
"AcmSymBB|Product Description: AutoCAD Mechanical 2000|Company: Autodesk"
 90
        0
280
     0
281
     0
  0
CLASS
  1
ACMDATAENTRYBLOCK
  2
AcmDataEntryBlock
  3
"AcmSymBB|Product Description: AutoCAD Mechanical 2000|Company: Autodesk"
 90
        0
280
     0
281
     0
  0
CLASS
  1
AMGOBJPROPCFG
  2
AmgObjPropCfg
  3
"AmgLay|Product Description: AutoCAD Mechanical 2000|Company: Autodesk"
 90
        1
280
     0
281
     0
  0
CLASS
  1
ACAMGFILTERDAT
  2
AcAmgFilterDat
  3
"AcadM|Product Description: AutoCAD Mechanical 2000|Company: Autodesk"
 90
        0
280
     0
281
     0
  0
CLASS
  1
LAYER_INDEX
  2
AcDbLayerIndex
  3
AutoCAD 2000
 90
        0
280
     0
281
     0
  0
CLASS
  1
IDBUFFER
  2
AcDbIdBuffer
  3
AutoCAD 2000
 90
        0
280
     0
281
     0
  0
CLASS
  1
ACIMSTRSYSVAR
  2
AcImStrSysVar
  3
AcMeServices
 90
        0
280
     0
281
     0
  0
CLASS
  1
ACMSTANDARDJIS
  2
AcmStandardJIS
  3
"AcmSymBB|Product Description: AutoCAD Mechanical 2000|Company: Autodesk"
 90
        0
280
     0
281
     0
  0
CLASS
  1
ACMSURFSTANDARDJIS
  2
AcmSurfTextStdJIS
  3
"AcmSymBB|Product Description: AutoCAD Mechanical 2000|Company: Autodesk"
 90
        0
280
     0
281
     0
  0
CLASS
  1
ACMFCFSTANDARDJIS
  2
AcmFCFStdJIS
  3
"AcmSymBB|Product Description: AutoCAD Mechanical 2000|Company: Autodesk"
 90
        0
280
     0
281
     0
  0
CLASS
  1
ACMWELDSTANDARDJIS
  2
AcmWeldingStdJIS
  3
"AcmSymBB|Product Description: AutoCAD Mechanical 2000|Company: Autodesk"
 90
        0
280
     0
281
     0
  0
CLASS
  1
ACMIDSTANDARDJIS
  2
AcmIdStdJIS
  3
"AcmSymBB|Product Description: AutoCAD Mechanical 2000|Company: Autodesk"
 90
        0
280
     0
281
     0
  0
CLASS
  1
ACMDATUMSTANDARDJIS
  2
AcmDatumStdJIS
  3
"AcmSymBB|Product Description: AutoCAD Mechanical 2000|Company: Autodesk"
 90
        0
280
     0
281
     0
  0
CLASS
  1
ACMBOMSTANDARDJIS
  2
AcmBOMStdJIS
  3
"AcmSymBB|Product Description: AutoCAD Mechanical 2000|Company: Autodesk"
 90
        0
280
     0
281
     0
  0
CLASS
  1
ACMSTANDARDANSI
  2
AcmStandardANSI
  3
"AcmSymBB|Product Description: AutoCAD Mechanical 2000|Company: Autodesk"
 90
        0
280
     0
281
     0
  0
CLASS
  1
ACMSURFSTANDARDANSI
  2
AcmSurfTextStdANSI
  3
"AcmSymBB|Product Description: AutoCAD Mechanical 2000|Company: Autodesk"
 90
        0
280
     0
281
     0
  0
CLASS
  1
ACMFCFSTANDARDANSI
  2
AcmFCFStdANSI
  3
"AcmSymBB|Product Description: AutoCAD Mechanical 2000|Company: Autodesk"
 90
        0
280
     0
281
     0
  0
CLASS
  1
ACMWELDSTANDARDANSI
  2
AcmWeldingStdANSI
  3
"AcmSymBB|Product Description: AutoCAD Mechanical 2000|Company: Autodesk"
 90
        0
280
     0
281
     0
  0
CLASS
  1
ACMIDSTANDARDANSI
  2
AcmIdStdANSI
  3
"AcmSymBB|Product Description: AutoCAD Mechanical 2000|Company: Autodesk"
 90
        0
280
     0
281
     0
  0
CLASS
  1
ACMDATUMSTANDARDANSI
  2
AcmDatumStdANSI
  3
"AcmSymBB|Product Description: AutoCAD Mechanical 2000|Company: Autodesk"
 90
        0
280
     0
281
     0
  0
CLASS
  1
ACMBOMSTANDARDANSI
  2
AcmBOMStdANSI
  3
"AcmSymBB|Product Description: AutoCAD Mechanical 2000|Company: Autodesk"
 90
        0
280
     0
281
     0
  0
CLASS
  1
ACMSTANDARDBSI
  2
AcmStandardBSI
  3
"AcmSymBB|Product Description: AutoCAD Mechanical 2000|Company: Autodesk"
 90
        0
280
     0
281
     0
  0
CLASS
  1
ACMSURFSTANDARDBSI
  2
AcmSurfTextStdBSI
  3
"AcmSymBB|Product Description: AutoCAD Mechanical 2000|Company: Autodesk"
 90
        0
280
     0
281
     0
  0
CLASS
  1
ACMFCFSTANDARDBSI
  2
AcmFCFStdBSI
  3
"AcmSymBB|Product Description: AutoCAD Mechanical 2000|Company: Autodesk"
 90
        0
280
     0
281
     0
  0
CLASS
  1
ACMWELDSTANDARDBSI
  2
AcmWeldingStdBSI
  3
"AcmSymBB|Product Description: AutoCAD Mechanical 2000|Company: Autodesk"
 90
        0
280
     0
281
     0
  0
CLASS
  1
ACMIDSTANDARDBSI
  2
AcmIdStdBSI
  3
"AcmSymBB|Product Description: AutoCAD Mechanical 2000|Company: Autodesk"
 90
        0
280
     0
281
     0
  0
CLASS
  1
ACMDATUMSTANDARDBSI
  2
AcmDatumStdBSI
  3
"AcmSymBB|Product Description: AutoCAD Mechanical 2000|Company: Autodesk"
 90
        0
280
     0
281
     0
  0
CLASS
  1
ACMBOMSTANDARDBSI
  2
AcmBOMStdBSI
  3
"AcmSymBB|Product Description: AutoCAD Mechanical 2000|Company: Autodesk"
 90
        0
280
     0
281
     0
  0
CLASS
  1
LONG_TRANSACTION
  2
AcDbLongTransaction
  3
AutoCAD 2000
 90
        0
280
     0
281
     0
  0
CLASS
  1
LWPOLYLINE
  2
AcDbPolyline
  3
AutoCAD 2000
 90
        0
280
     0
281
     1
  0
CLASS
  1
HATCH
  2
AcDbHatch
  3
AutoCAD 2000
 90
        0
280
     0
281
     1
  0
CLASS
  1
XRECORD
  2
AcDbXrecord
  3
AutoCAD 2000
 90
        0
280
     0
281
     0
  0
ENDSEC
  0
SECTION
  2
TABLES
  0
TABLE
  2
VPORT
  5
8
330
0
100
AcDbSymbolTable
 70
     3
  0
VPORT
  5
1F0F
330
8
100
AcDbSymbolTableRecord
100
AcDbViewportTableRecord
  2
*ACTIVE
 70
     0
 10
0.0
 20
0.0
 11
1.0
 21
1.0
 12
-40.18868475065199
 22
-17.55847594978514
 13
0.0
 23
0.0
 14
2.5
 24
2.5
 15
10.0
 25
10.0
 16
0.0
 26
0.0
 36
1.0
 17
0.0
 27
0.0
 37
0.0
 40
75.03737694786295
 41
1.56570841889117
 42
50.0
 43
0.0
 44
0.0
 50
0.0
 51
0.0
 71
     0
 72
   100
 73
     1
 74
     3
 75
     0
 76
     0
 77
     0
 78
     0
  0
ENDTAB
  0
TABLE
  2
LTYPE
  5
5
330
0
100
AcDbSymbolTable
 70
    10
  0
LTYPE
  5
14
330
5
100
AcDbSymbolTableRecord
100
AcDbLinetypeTableRecord
  2
BYBLOCK
 70
     0
  3

 72
    65
 73
     0
 40
0.0
  0
LTYPE
  5
15
330
5
100
AcDbSymbolTableRecord
100
AcDbLinetypeTableRecord
  2
BYLAYER
 70
     0
  3

 72
    65
 73
     0
 40
0.0
  0
LTYPE
  5
16
330
5
100
AcDbSymbolTableRecord
100
AcDbLinetypeTableRecord
  2
CONTINUOUS
 70
     0
  3
Solid line
 72
    65
 73
     0
 40
0.0
  0
LTYPE
  5
4B
330
5
100
AcDbSymbolTableRecord
100
AcDbLinetypeTableRecord
  2
AM_ISO02W050
 70
     0
  3
__ __ __ __ __ __ __ __ __ __ __ __ __ __ __
 72
    65
 73
     2
 40
7.5
 49
6.0
 74
     0
 49
-1.5
 74
     0
  0
LTYPE
  5
4C
330
5
100
AcDbSymbolTableRecord
100
AcDbLinetypeTableRecord
  2
AM_ISO08W050
 70
     0
  3
____ . ____ . ____ . ____ . ____ . ____ . ____
 72
    65
 73
     4
 40
18.0
 49
12.0
 74
     0
 49
-1.5
 74
     0
 49
3.0
 74
     0
 49
-1.5
 74
     0
  0
LTYPE
  5
4D
330
5
100
AcDbSymbolTableRecord
100
AcDbLinetypeTableRecord
  2
AM_ISO09W050
 70
     0
  3
_____ . . _____ . . _____ . . ____ .. ____
 72
    65
 73
     6
 40
22.5
 49
12.0
 74
     0
 49
-1.5
 74
     0
 49
3.0
 74
     0
 49
-1.5
 74
     0
 49
3.0
 74
     0
 49
-1.5
 74
     0
  0
LTYPE
  5
4E
330
5
100
AcDbSymbolTableRecord
100
AcDbLinetypeTableRecord
  2
AMCONSTR
 70
     0
  3
_______________________
 72
    65
 73
     2
 40
9999.0
 49
9999.0
 74
     0
 49
0.0
 74
     0
  0
LTYPE
  5
4F
330
5
100
AcDbSymbolTableRecord
100
AcDbLinetypeTableRecord
  2
AM_ISO02W050X2
 70
     0
  3
 _ _ _ _ _ _ _ _ _ _ _ _
 72
    65
 73
     2
 40
3.75
 49
3.0
 74
     0
 49
-0.75
 74
     0
  0
LTYPE
  5
50
330
5
100
AcDbSymbolTableRecord
100
AcDbLinetypeTableRecord
  2
AM_ISO08W050X2
 70
     0
  3
__ . __ . __ . __ . __ . __
 72
    65
 73
     4
 40
9.0
 49
6.0
 74
     0
 49
-0.75
 74
     0
 49
1.5
 74
     0
 49
-0.75
 74
     0
  0
LTYPE
  5
53
330
5
100
AcDbSymbolTableRecord
100
AcDbLinetypeTableRecord
  2
AMZIGZAG
 70
     0
  3
/\/-/\/-/\/-/\/-/\/-/\/
 72
    65
 73
     2
 40
11.00009999999999
 49
0.0001
 74
     4
 75
   135
340
52
 46
0.04
 50
0.0
 44
0.0
 45
0.0
 49
-11.0
 74
     0
  0
LTYPE
  5
166
330
5
100
AcDbSymbolTableRecord
100
AcDbLinetypeTableRecord
  2
ACJISTGL
 70
     0
  3
_ _ _ _ _
 72
    65
 73
     2
 40
3.0
 49
2.0
 74
     0
 49
-1.0
 74
     0
  0
LTYPE
  5
26A
330
5
100
AcDbSymbolTableRecord
100
AcDbLinetypeTableRecord
  2
ACJISTGB
 70
     0
  3
__ . . __ . .
 72
    65
 73
     6
 40
9.0
 49
4.0
 74
     0
 49
-1.0
 74
     0
 49
1.0
 74
     0
 49
-1.0
 74
     0
 49
1.0
 74
     0
 49
-1.0
 74
     0
  0
ENDTAB
  0
TABLE
  2
LAYER
  5
2
330
0
100
AcDbSymbolTable
 70
     7
  0
LAYER
  5
10
330
2
100
AcDbSymbolTableRecord
100
AcDbLayerTableRecord
  2
0
 70
     0
 62
     7
  6
CONTINUOUS
  0
LAYER
  5
3F9
330
2
100
AcDbSymbolTableRecord
100
AcDbLayerTableRecord
  2
AM_0
 70
     0
 62
     7
  6
CONTINUOUS
  0
LAYER
  5
BA4
330
2
100
AcDbSymbolTableRecord
100
AcDbLayerTableRecord
  2
AM_11
 70
     0
 62
     3
  6
AM_ISO09W050
  0
LAYER
  5
BA6
330
2
100
AcDbSymbolTableRecord
100
AcDbLayerTableRecord
  2
AM_6
 70
     0
 62
     2
  6
CONTINUOUS
  0
LAYER
  5
BA7
330
2
100
AcDbSymbolTableRecord
100
AcDbLayerTableRecord
  2
AM_7
 70
     0
 62
     4
  6
AM_ISO08W050
  0
LAYER
  5
D0E
330
2
100
AcDbSymbolTableRecord
100
AcDbLayerTableRecord
  2
AM_5
 70
     0
 62
     3
  6
CONTINUOUS
  0
LAYER
  5
FE8
330
2
100
AcDbSymbolTableRecord
100
AcDbLayerTableRecord
  2
DEFPOINTS
 70
     0
 62
     7
  6
CONTINUOUS
  0
ENDTAB
  0
TABLE
  2
STYLE
  5
3
330
0
100
AcDbSymbolTable
 70
     5
  0
STYLE
  5
11
330
3
100
AcDbSymbolTableRecord
100
AcDbTextStyleTableRecord
  2
STANDARD
 70
     0
 40
0.0
 41
1.0
 50
0.0
 71
     0
 42
2.5
  3
simplex.shx
  4
EXTFONT.SHX
  0
STYLE
  5
52
330
3
100
AcDbSymbolTableRecord
100
AcDbTextStyleTableRecord
  2

 70
     1
 40
0.0
 41
1.0
 50
0.0
 71
     0
 42
2.5
  3
ltypeshp.shx
  4

  0
STYLE
  5
6B
330
3
100
AcDbSymbolTableRecord
100
AcDbTextStyleTableRecord
  2
ASAMI
 70
     0
 40
0.0
 41
1.0
 50
0.0
 71
     0
 42
2.5
  3
simplex.shx
  4
EXTFONT.SHX
  0
STYLE
  5
262
330
3
100
AcDbSymbolTableRecord
100
AcDbTextStyleTableRecord
  2
ACJISTS
 70
     0
 40
1.0
 41
1.0
 50
0.0
 71
     0
 42
2.5
  3
simplex.shx
  4
bigfont.shx
  0
STYLE
  5
269
330
3
100
AcDbSymbolTableRecord
100
AcDbTextStyleTableRecord
  2
ACJISGDT
 70
     0
 40
0.0
 41
1.0
 50
0.0
 71
     0
 42
2.5
  3
amgdtans.shx
  4

  0
ENDTAB
  0
TABLE
  2
VIEW
  5
6
330
0
100
AcDbSymbolTable
 70
     0
  0
ENDTAB
  0
TABLE
  2
UCS
  5
7
330
0
100
AcDbSymbolTable
 70
     0
  0
ENDTAB
  0
TABLE
  2
APPID
  5
9
330
0
100
AcDbSymbolTable
 70
    12
  0
APPID
  5
12
330
9
100
AcDbSymbolTableRecord
100
AcDbRegAppTableRecord
  2
ACAD
 70
     0
  0
APPID
  5
30
330
9
100
AcDbSymbolTableRecord
100
AcDbRegAppTableRecord
  2
MCAD_NO_VIS
 70
     0
  0
APPID
  5
31
330
9
100
AcDbSymbolTableRecord
100
AcDbRegAppTableRecord
  2
ACAD_TEMP_GRAPHIC
 70
     0
  0
APPID
  5
2C2
330
9
100
AcDbSymbolTableRecord
100
AcDbRegAppTableRecord
  2
GENIUS_GENDTOL_13
 70
     0
  0
APPID
  5
339
330
9
100
AcDbSymbolTableRecord
100
AcDbRegAppTableRecord
  2
GENIUS_GENODEF_13
 70
     0
  0
APPID
  5
33A
330
9
100
AcDbSymbolTableRecord
100
AcDbRegAppTableRecord
  2
GENIUS_GENOBJ-N-RSBK_13
 70
     0
  0
APPID
  5
33B
330
9
100
AcDbSymbolTableRecord
100
AcDbRegAppTableRecord
  2
GENIUS_GENOBJ-N-LIB_13
 70
     0
  0
APPID
  5
33C
330
9
100
AcDbSymbolTableRecord
100
AcDbRegAppTableRecord
  2
GENIUS_GENSCALE_13
 70
     0
  0
APPID
  5
378
330
9
100
AcDbSymbolTableRecord
100
AcDbRegAppTableRecord
  2
GENIUS_GENDIMSH_14
 70
     0
  0
APPID
  5
BA8
330
9
100
AcDbSymbolTableRecord
100
AcDbRegAppTableRecord
  2
GENIUS_GENOBJ-N-CEN_13
 70
     0
  0
APPID
  5
EE8
330
9
100
AcDbSymbolTableRecord
100
AcDbRegAppTableRecord
  2
GENIUS_GENFIL_13
 70
     0
  0
APPID
  5
EE9
330
9
100
AcDbSymbolTableRecord
100
AcDbRegAppTableRecord
  2
GENIUS_GENOBJ-N-CHA_13
 70
     0
  0
ENDTAB
  0
TABLE
  2
DIMSTYLE
  5
A
330
0
100
AcDbSymbolTable
 70
     8
  0
DIMSTYLE
105
58
102
{ACAD_REACTORS
330
1D1F
330
1D58
330
1DC2
330
1E45
102
}
330
A
100
AcDbSymbolTableRecord
100
AcDbDimStyleTableRecord
  2
AM_JIS
 70
     0
  3

  4
"
  5
OPEN30
  6

  7

 40
1.0
 41
2.5
 42
1.0
 43
12.0
 44
1.0
 45
0.0
 46
0.0
 47
0.1
 48
0.1
140
3.2
141
0.0
142
0.0
143
0.0393701
144
1.0
145
0.0
146
0.71
147
1.5
 71
     0
 72
     0
 73
     0
 74
     0
 75
     0
 76
     0
 77
     3
 78
     8
170
     0
171
     2
172
     1
173
     0
174
     0
175
     0
176
   256
177
   256
178
     2
270
     2
271
     3
272
     3
273
     2
274
     2
340
6B
275
     0
280
     0
281
     0
282
     0
283
     0
284
     0
285
     0
286
     0
287
     3
288
     0
  0
DIMSTYLE
105
5F
330
A
100
AcDbSymbolTableRecord
100
AcDbDimStyleTableRecord
  2
AM_JIS$3
 70
     0
  3

  4
"
  5
OPEN30
  6

  7

 40
1.0
 41
2.5
 42
1.0
 43
10.0
 44
1.0
 45
0.0
 46
0.0
 47
0.1
 48
0.1
140
3.2
141
0.0
142
0.0
143
0.0393701
144
1.0
145
0.0
146
0.71
147
1.5
 71
     0
 72
     0
 73
     0
 74
     1
 75
     0
 76
     0
 77
     3
 78
     8
170
     0
171
     2
172
     0
173
     0
174
     0
175
     0
176
   256
177
   256
178
     2
270
     2
271
     2
272
     3
273
     2
274
     2
340
6B
275
     0
280
     0
281
     0
282
     0
283
     0
284
     0
285
     0
286
     0
287
     0
288
     1
  0
DIMSTYLE
105
60
330
A
100
AcDbSymbolTableRecord
100
AcDbDimStyleTableRecord
  2
AM_JIS$4
 70
     0
  3

  4
"
  5
OPEN30
  6

  7

 40
1.0
 41
2.5
 42
1.0
 43
10.0
 44
1.0
 45
0.0
 46
0.0
 47
0.1
 48
0.1
140
3.2
141
0.0
142
0.0
143
0.0393701
144
1.0
145
0.0
146
0.71
147
1.5
 71
     0
 72
     0
 73
     0
 74
     1
 75
     0
 76
     0
 77
     3
 78
     8
170
     0
171
     2
172
     0
173
     0
174
     0
175
     0
176
   256
177
   256
178
     2
270
     2
271
     2
272
     3
273
     2
274
     2
340
6B
275
     0
280
     0
281
     0
282
     0
283
     0
284
     0
285
     0
286
     0
287
     0
288
     1
  0
DIMSTYLE
105
61
330
A
100
AcDbSymbolTableRecord
100
AcDbDimStyleTableRecord
  2
AM_JIS$6
 70
     0
  3

  4
"
  5
OPEN30
  6

  7

 40
1.0
 41
2.5
 42
1.0
 43
10.0
 44
1.0
 45
0.0
 46
0.0
 47
0.1
 48
0.1
140
3.2
141
0.0
142
0.0
143
0.0393701
144
1.0
145
0.0
146
0.71
147
1.5
 71
     0
 72
     0
 73
     0
 74
     0
 75
     0
 76
     0
 77
     0
 78
     8
170
     0
171
     2
172
     1
173
     0
174
     0
175
     0
176
   256
177
   256
178
     2
270
     2
271
     2
272
     2
273
     2
274
     2
340
6B
275
     0
280
     0
281
     0
282
     0
283
     0
284
     0
285
     0
286
     0
287
     3
288
     0
  0
DIMSTYLE
105
62
330
A
100
AcDbSymbolTableRecord
100
AcDbDimStyleTableRecord
  2
AM_JIS$7
 70
     0
  3

  4
"
  5
OPEN30
  6

  7

 40
1.0
 41
2.5
 42
1.0
 43
10.0
 44
1.0
 45
0.0
 46
0.0
 47
0.1
 48
0.1
140
3.2
141
0.0
142
0.0
143
0.0393701
144
1.0
145
0.0
146
0.71
147
1.5
 71
     0
 72
     0
 73
     0
 74
     0
 75
     0
 76
     0
 77
     3
 78
     8
170
     0
171
     2
172
     1
173
     0
174
     0
175
     0
176
   256
177
   256
178
     2
270
     2
271
     2
272
     3
273
     2
274
     2
340
6B
275
     0
280
     0
281
     0
282
     0
283
     0
284
     0
285
     0
286
     0
287
     3
288
     0
  0
DIMSTYLE
105
63
330
A
100
AcDbSymbolTableRecord
100
AcDbDimStyleTableRecord
  2
AM_JIS$SF
 70
     0
  3

  4
"
  5
OPEN30
  6

  7

 40
1.0
 41
2.5
 42
1.0
 43
10.0
 44
1.0
 45
0.0
 46
0.0
 47
0.1
 48
0.1
140
3.2
141
0.0
142
0.0
143
0.0393701
144
1.0
145
0.0
146
0.71
147
1.5
 71
     0
 72
     0
 73
     0
 74
     0
 75
     1
 76
     1
 77
     3
 78
     8
170
     0
171
     2
172
     1
173
     0
174
     0
175
     0
176
   256
177
   256
178
     2
270
     2
271
     2
272
     2
273
     2
274
     2
340
6B
275
     0
280
     0
281
     0
282
     0
283
     0
284
     0
285
     0
286
     0
287
     3
288
     0
  0
DIMSTYLE
105
68
330
A
100
AcDbSymbolTableRecord
100
AcDbDimStyleTableRecord
  2
AM_JIS$SH
 70
     0
  3

  4
"
  5

  6
GENAXEH
  7
OPEN30
 40
1.0
 41
2.5
 42
1.0
 43
10.0
 44
1.0
 45
0.0
 46
0.0
 47
0.1
 48
0.1
140
3.2
141
0.0
142
0.0
143
0.0393701
144
2.0
145
0.0
146
0.71
147
1.5
 71
     0
 72
     0
 73
     0
 74
     0
 75
     1
 76
     1
 77
     3
 78
     8
170
     0
171
     2
172
     1
173
     1
174
     0
175
     0
176
   256
177
   256
178
     2
270
     2
271
     2
272
     2
273
     2
274
     2
340
6B
275
     0
280
     0
281
     0
282
     0
283
     0
284
     0
285
     0
286
     0
287
     3
288
     0
  0
DIMSTYLE
105
B34
330
A
100
AcDbSymbolTableRecord
100
AcDbDimStyleTableRecord
  2
AM_JIS$2
 70
     0
  3

  4
"
  5
OPEN30
  6

  7

 40
1.0
 41
2.5
 42
1.0
 43
12.0
 44
1.0
 45
0.0
 46
0.0
 47
0.1
 48
0.1
140
3.2
141
0.0
142
0.0
143
0.0393701
144
1.0
145
0.0
146
0.71
147
1.5
 71
     0
 72
     0
 73
     0
 74
     0
 75
     0
 76
     0
 77
     3
 78
     8
170
     0
171
     2
172
     1
173
     0
174
     0
175
     0
176
   256
177
   256
178
     2
270
     2
271
     3
272
     3
273
     2
274
     2
340
6B
275
     0
280
     0
281
     0
282
     0
283
     0
284
     0
285
     0
286
     0
287
     3
288
     0
  0
ENDTAB
  0
TABLE
  2
BLOCK_RECORD
  5
1
330
0
100
AcDbSymbolTable
 70
     9
  0
BLOCK_RECORD
  5
1F
102
{ACAD_XDICTIONARY
360
74
102
}
330
1
100
AcDbSymbolTableRecord
100
AcDbBlockTableRecord
  2
*MODEL_SPACE
  0
BLOCK_RECORD
  5
101
102
{ACAD_XDICTIONARY
360
1F38
102
}
330
1
100
AcDbSymbolTableRecord
100
AcDbBlockTableRecord
  2
*PAPER_SPACE
  0
BLOCK_RECORD
  5
59
330
1
100
AcDbSymbolTableRecord
100
AcDbBlockTableRecord
  2
_OPEN30
  0
BLOCK_RECORD
  5
64
330
1
100
AcDbSymbolTableRecord
100
AcDbBlockTableRecord
  2
GENAXEH
  0
BLOCK_RECORD
  5
1D20
330
1
100
AcDbSymbolTableRecord
100
AcDbBlockTableRecord
  2
*D5
  0
BLOCK_RECORD
  5
1D59
330
1
100
AcDbSymbolTableRecord
100
AcDbBlockTableRecord
  2
*D6
  0
BLOCK_RECORD
  5
1DC3
330
1
100
AcDbSymbolTableRecord
100
AcDbBlockTableRecord
  2
*D7
  0
BLOCK_RECORD
  5
1E46
330
1
100
AcDbSymbolTableRecord
100
AcDbBlockTableRecord
  2
*D8
  0
ENDTAB
  0
ENDSEC
  0
SECTION
  2
BLOCKS
  0
BLOCK
  5
20
330
1F
100
AcDbEntity
  8
0
100
AcDbBlockBegin
  2
*MODEL_SPACE
 70
     0
 10
0.0
 20
0.0
 30
0.0
  3
*MODEL_SPACE
  1

  0
ENDBLK
  5
21
330
1F
100
AcDbEntity
  8
0
100
AcDbBlockEnd
  0
BLOCK
  5
103
330
101
100
AcDbEntity
 67
     1
  8
0
100
AcDbBlockBegin
  2
*PAPER_SPACE
 70
     0
 10
0.0
 20
0.0
 30
0.0
  3
*PAPER_SPACE
  1

  0
ENDBLK
  5
104
330
101
100
AcDbEntity
 67
     1
  8
0
100
AcDbBlockEnd
  0
BLOCK
  5
5D
330
59
100
AcDbEntity
  8
0
100
AcDbBlockBegin
  2
_OPEN30
 70
     0
 10
0.0
 20
0.0
 30
0.0
  3
_OPEN30
  1

  0
LINE
  5
5A
330
59
100
AcDbEntity
  8
0
 62
     0
100
AcDbLine
 10
-1.0
 20
0.26794919
 30
0.0
 11
0.0
 21
0.0
 31
0.0
  0
LINE
  5
5B
330
59
100
AcDbEntity
  8
0
 62
     0
100
AcDbLine
 10
0.0
 20
0.0
 30
0.0
 11
-1.0
 21
-0.26794919
 31
0.0
  0
LINE
  5
5C
330
59
100
AcDbEntity
  8
0
 62
     0
100
AcDbLine
 10
0.0
 20
0.0
 30
0.0
 11
-1.0
 21
0.0
 31
0.0
  0
ENDBLK
  5
5E
330
59
100
AcDbEntity
  8
0
100
AcDbBlockEnd
  0
BLOCK
  5
66
330
64
100
AcDbEntity
  8
0
100
AcDbBlockBegin
  2
GENAXEH
 70
     0
 10
0.0
 20
0.0
 30
0.0
  3
GENAXEH
  1

  0
LINE
  5
65
330
64
100
AcDbEntity
  8
0
100
AcDbLine
 10
-1.0
 20
0.0
 30
0.0
 11
1.0
 21
0.0
 31
0.0
  0
ENDBLK
  5
67
330
64
100
AcDbEntity
  8
0
100
AcDbBlockEnd
  0
BLOCK
  5
1D2B
330
1D20
100
AcDbEntity
  8
0
100
AcDbBlockBegin
  2
*D5
 70
     1
 10
0.0
 20
0.0
 30
0.0
  3
*D5
  1

  0
LINE
  5
1D76
330
1D20
100
AcDbEntity
  8
AM_5
100
AcDbLine
 10
0.9999999999951604
 20
-4.005290117662881
 30
0.0
 11
18.31579047368419
 21
-4.005290117662887
 31
0.0
  0
LINE
  5
1D77
330
1D20
100
AcDbEntity
  8
AM_5
100
AcDbLine
 10
0.9999999999999994
 20
3.994709883457147
 30
0.0
 11
18.31579047368419
 21
3.994709883457142
 31
0.0
  0
LINE
  5
1D78
330
1D20
100
AcDbEntity
  8
AM_5
100
AcDbLine
 10
17.31579047368419
 20
-1.505290117662886
 30
0.0
 11
17.31579047368419
 21
1.494709883457143
 31
0.0
  0
LINE
  5
1D79
330
1D20
100
AcDbEntity
  8
AM_5
100
AcDbLine
 10
17.31579047368419
 20
3.994709883457142
 30
0.0
 11
17.3157904736842
 21
16.29134853891932
 31
0.0
  0
INSERT
  5
1D7A
330
1D20
100
AcDbEntity
  8
AM_5
100
AcDbBlockReference
  2
_OPEN30
 10
17.31579047368419
 20
-4.005290117662886
 30
0.0
 41
2.5
 42
2.5
 43
2.5
 50
270.0
  0
INSERT
  5
1D7B
330
1D20
100
AcDbEntity
  8
AM_5
100
AcDbBlockReference
  2
_OPEN30
 10
17.31579047368419
 20
3.994709883457142
 30
0.0
 41
2.5
 42
2.5
 43
2.5
 50
90.0
  0
MTEXT
  5
1D7C
330
1D20
100
AcDbEntity
  8
AM_5
 62
     2
100
AcDbMText
 10
14.21579047368419
 20
12.27706282463361
 30
0.0
 40
3.2
 41
0.0
 71
     5
 72
     1
  1
%%c8
  7
ASAMI
 11
0.0000000000000001
 21
1.0
 31
0.0
1001
ACAD
1000
MTEXTBEGIN
1070
    73
1070
     1
1070
    44
1040
1.0
1070
    74
1070
     0
1000
MTEXTEND
  0
POINT
  5
1D7D
330
1D20
100
AcDbEntity
  8
DEFPOINTS
 62
     0
100
AcDbPoint
 10
-0.0000000000048396
 20
-4.005290117662881
 30
0.0
  0
POINT
  5
1D7E
330
1D20
100
AcDbEntity
  8
DEFPOINTS
 62
     0
100
AcDbPoint
 10
-0.0000000000000006
 20
3.994709883457147
 30
0.0
  0
POINT
  5
1D7F
330
1D20
100
AcDbEntity
  8
DEFPOINTS
 62
     0
100
AcDbPoint
 10
17.31579047368419
 20
3.994709883457142
 30
0.0
  0
ENDBLK
  5
1D2C
330
1D20
100
AcDbEntity
  8
0
100
AcDbBlockEnd
  0
BLOCK
  5
1D63
330
1D59
100
AcDbEntity
  8
0
100
AcDbBlockBegin
  2
*D6
 70
     1
 10
0.0
 20
0.0
 30
0.0
  3
*D6
  1

  0
LINE
  5
1DF6
330
1D59
100
AcDbEntity
  8
AM_5
100
AcDbLine
 10
-0.0000000000048395
 20
-5.005290116542808
 30
0.0
 11
-0.0000000000048404
 21
-19.01798739624543
 31
0.0
  0
LINE
  5
1DF7
330
1D59
100
AcDbEntity
  8
AM_5
100
AcDbLine
 10
-19.00000267313166
 20
-5.005290116542808
 30
0.0
 11
-19.00000267313166
 21
-19.01798739624543
 31
0.0
  0
LINE
  5
1DF8
330
1D59
100
AcDbEntity
  8
AM_5
100
AcDbLine
 10
-2.50000000000484
 20
-18.01798739624543
 30
0.0
 11
-16.50000267313166
 21
-18.01798739624543
 31
0.0
  0
INSERT
  5
1DF9
330
1D59
100
AcDbEntity
  8
AM_5
100
AcDbBlockReference
  2
_OPEN30
 10
-0.0000000000048403
 20
-18.01798739624543
 30
0.0
 41
2.5
 42
2.5
 43
2.5
  0
INSERT
  5
1DFA
330
1D59
100
AcDbEntity
  8
AM_5
100
AcDbBlockReference
  2
_OPEN30
 10
-19.00000267313166
 20
-18.01798739624543
 30
0.0
 41
2.5
 42
2.5
 43
2.5
 50
180.0
  0
MTEXT
  5
1DFB
330
1D59
100
AcDbEntity
  8
AM_5
 62
     2
100
AcDbMText
 10
-9.500001336568253
 20
-14.91798739624543
 30
0.0
 40
3.2
 41
0.0
 71
     5
 72
     1
  1
19
  7
ASAMI
1001
ACAD
1000
MTEXTBEGIN
1070
    73
1070
     1
1070
    44
1040
1.0
1070
    74
1070
     0
1000
MTEXTEND
  0
POINT
  5
1DFC
330
1D59
100
AcDbEntity
  8
DEFPOINTS
 62
     0
100
AcDbPoint
 10
-0.0000000000048395
 20
-4.005290116542808
 30
0.0
  0
POINT
  5
1DFD
330
1D59
100
AcDbEntity
  8
DEFPOINTS
 62
     0
100
AcDbPoint
 10
-19.00000267313166
 20
-4.005290116542808
 30
0.0
  0
POINT
  5
1DFE
330
1D59
100
AcDbEntity
  8
DEFPOINTS
 62
     0
100
AcDbPoint
 10
-19.00000267313166
 20
-18.01798739624543
 30
0.0
  0
ENDBLK
  5
1D64
330
1D59
100
AcDbEntity
  8
0
100
AcDbBlockEnd
  0
BLOCK
  5
1DCD
330
1DC3
100
AcDbEntity
  8
0
100
AcDbBlockBegin
  2
*D7
 70
     1
 10
0.0
 20
0.0
 30
0.0
  3
*D7
  1

  0
LINE
  5
1DFF
330
1DC3
100
AcDbEntity
  8
AM_5
100
AcDbLine
 10
-0.0000000000056036
 20
-4.390639542111339
 30
0.0
 11
-0.0000000000056053
 21
-31.01798739624553
 31
0.0
  0
LINE
  5
1E00
330
1DC3
100
AcDbEntity
  8
AM_5
100
AcDbLine
 10
-80.00000000000559
 20
-3.873883525242916
 30
0.0
 11
-80.00000000000559
 21
-31.01798739624553
 31
0.0
  0
LINE
  5
1E01
330
1DC3
100
AcDbEntity
  8
AM_5
100
AcDbLine
 10
-2.500000000005605
 20
-30.01798739624553
 30
0.0
 11
-77.5000000000056
 21
-30.01798739624553
 31
0.0
  0
INSERT
  5
1E02
330
1DC3
100
AcDbEntity
  8
AM_5
100
AcDbBlockReference
  2
_OPEN30
 10
-0.0000000000056052
 20
-30.01798739624553
 30
0.0
 41
2.5
 42
2.5
 43
2.5
  0
INSERT
  5
1E03
330
1DC3
100
AcDbEntity
  8
AM_5
100
AcDbBlockReference
  2
_OPEN30
 10
-80.00000000000559
 20
-30.01798739624553
 30
0.0
 41
2.5
 42
2.5
 43
2.5
 50
180.0
  0
MTEXT
  5
1E04
330
1DC3
100
AcDbEntity
  8
AM_5
 62
     2
100
AcDbMText
 10
-40.0000000000056
 20
-26.91798739624553
 30
0.0
 40
3.2
 41
0.0
 71
     5
 72
     1
  1
80
  7
ASAMI
1001
ACAD
1000
MTEXTBEGIN
1070
    73
1070
     1
1070
    44
1040
1.0
1070
    74
1070
     0
1000
MTEXTEND
  0
POINT
  5
1E05
330
1DC3
100
AcDbEntity
  8
DEFPOINTS
 62
     0
100
AcDbPoint
 10
-0.0000000000056036
 20
-3.390639542111338
 30
0.0
  0
POINT
  5
1E06
330
1DC3
100
AcDbEntity
  8
DEFPOINTS
 62
     0
100
AcDbPoint
 10
-80.00000000000559
 20
-2.873883525242916
 30
0.0
  0
POINT
  5
1E07
330
1DC3
100
AcDbEntity
  8
DEFPOINTS
 62
     0
100
AcDbPoint
 10
-80.00000000000559
 20
-30.01798739624553
 30
0.0
  0
ENDBLK
  5
1DCE
330
1DC3
100
AcDbEntity
  8
0
100
AcDbBlockEnd
  0
BLOCK
  5
1E52
330
1E46
100
AcDbEntity
  8
0
100
AcDbBlockBegin
  2
*D8
 70
     1
 10
0.0
 20
0.0
 30
0.0
  3
*D8
  1

  0
LINE
  5
1ED9
330
1E46
100
AcDbEntity
  8
AM_5
100
AcDbLine
 10
-80.6562500000056
 20
-4.017986396245531
 30
0.0
 11
-95.0000010000056
 21
-4.017986396245526
 31
0.0
  0
LINE
  5
1EDA
330
1E46
100
AcDbEntity
  8
AM_5
100
AcDbLine
 10
-80.6562500000056
 20
3.982013603754459
 30
0.0
 11
-95.0000010000056
 21
3.982013603754463
 31
0.0
  0
LINE
  5
1EDB
330
1E46
100
AcDbEntity
  8
AM_5
100
AcDbLine
 10
-94.00000100000559
 20
-6.517986396245526
 30
0.0
 11
-94.00000100000559
 21
-9.017986396245525
 31
0.0
  0
LINE
  5
1EDC
330
1E46
100
AcDbEntity
  8
AM_5
100
AcDbLine
 10
-94.00000100000559
 20
6.482013603754463
 30
0.0
 11
-94.00000100000559
 21
17.01058503232589
 31
0.0
  0
LINE
  5
1EDD
330
1E46
100
AcDbEntity
  8
AM_5
100
AcDbLine
 10
-94.00000100000559
 20
-4.017986396245526
 30
0.0
 11
-94.00000100000559
 21
3.982013603754463
 31
0.0
  0
INSERT
  5
1EDE
330
1E46
100
AcDbEntity
  8
AM_5
100
AcDbBlockReference
  2
_OPEN30
 10
-94.00000100000559
 20
-4.017986396245526
 30
0.0
 41
2.5
 42
2.5
 43
2.5
 50
90.0
  0
INSERT
  5
1EDF
330
1E46
100
AcDbEntity
  8
AM_5
100
AcDbBlockReference
  2
_OPEN30
 10
-94.00000100000559
 20
3.982013603754463
 30
0.0
 41
2.5
 42
2.5
 43
2.5
 50
270.0
  0
MTEXT
  5
1EE0
330
1E46
100
AcDbEntity
  8
AM_5
 62
     2
100
AcDbMText
 10
-97.10000100000559
 20
12.99629931804016
 30
0.0
 40
3.2
 41
0.0
 71
     5
 72
     1
  1
%%c8
  7
ASAMI
 11
0.0000000000000001
 21
1.0
 31
0.0
1001
ACAD
1000
MTEXTBEGIN
1070
    73
1070
     1
1070
    44
1040
1.0
1070
    74
1070
     0
1000
MTEXTEND
  0
POINT
  5
1EE1
330
1E46
100
AcDbEntity
  8
DEFPOINTS
 62
     0
100
AcDbPoint
 10
-79.6562500000056
 20
-4.017986396245531
 30
0.0
  0
POINT
  5
1EE2
330
1E46
100
AcDbEntity
  8
DEFPOINTS
 62
     0
100
AcDbPoint
 10
-79.6562500000056
 20
3.982013603754459
 30
0.0
  0
POINT
  5
1EE3
330
1E46
100
AcDbEntity
  8
DEFPOINTS
 62
     0
100
AcDbPoint
 10
-94.00000100000559
 20
3.982013603754463
 30
0.0
  0
ENDBLK
  5
1E53
330
1E46
100
AcDbEntity
  8
0
100
AcDbBlockEnd
  0
ENDSEC
  0
SECTION
  2
ENTITIES
  0
TEXT
  5
F07
330
1F
100
AcDbEntity
  8
AM_6
100
AcDbText
 10
-63.45238095238094
 20
-52.12755610347205
 30
0.0
 40
5.0
  1
SSUP3080ZX
 72
     4
 11
-40.0
 21
-49.62755610347205
 31
0.0
100
AcDbText
  0
LINE
  5
1CFB
330
1F
100
AcDbEntity
  8
AM_0
100
AcDbLine
 10
-2.635279914696117
 20
2.221178309358198
 30
0.0
 11
-2.146445900358937
 21
1.608033121355563
 31
0.0
  0
LINE
  5
1CFC
330
1F
100
AcDbEntity
  8
AM_0
100
AcDbLine
 10
-0.0000000000048391
 20
-0.0899319812336302
 30
0.0
 11
-0.0933075944094477
 21
-0.2069678274213487
 31
0.0
  0
LINE
  5
1CFD
330
1F
100
AcDbEntity
  8
AM_0
100
AcDbLine
 10
-0.1140160022505193
 20
-0.0866158304875256
 30
0.0
 11
-0.0000000000048391
 21
-0.749247823154846
 31
0.0
  0
LINE
  5
1CFE
330
1F
100
AcDbEntity
  8
AM_0
100
AcDbLine
 10
-0.1140160022505193
 20
-1.224554837636068
 30
0.0
 11
-0.1140160022505193
 21
-0.0866158304875256
 31
0.0
  0
LINE
  5
1CFF
330
1F
100
AcDbEntity
  8
AM_0
100
AcDbLine
 10
-0.3606456309098482
 20
-1.728231138737837
 30
0.0
 11
-2.02719456938456
 21
-1.501987091643158
 31
0.0
  0
LINE
  5
1D00
330
1F
100
AcDbEntity
  8
AM_0
100
AcDbLine
 10
-0.1140160022505193
 20
-0.0866158304875256
 30
0.0
 11
-0.5700800112346176
 21
1.729326273454696
 31
0.0
  0
LINE
  5
1D01
330
1F
100
AcDbEntity
  8
AM_0
100
AcDbLine
 10
-0.0000000000048391
 20
-0.0899319812336302
 30
0.0
 11
-0.0000000000048391
 21
3.994709883457177
 31
0.0
  0
LINE
  5
1D02
330
1F
100
AcDbEntity
  8
AM_0
100
AcDbLine
 10
-0.0000000000048391
 20
-2.047461788189147
 30
0.0
 11
-0.1140160022505193
 21
-2.531046593279651
 31
0.0
  0
LINE
  5
1D03
330
1F
100
AcDbEntity
  8
AM_0
100
AcDbLine
 10
-0.2280320044965433
 20
-1.886089941071449
 30
0.0
 11
-0.0000000000048391
 21
-2.047461788189147
 31
0.0
  0
LINE
  5
1D04
330
1F
100
AcDbEntity
  8
AM_0
100
AcDbLine
 10
-0.0000000000048391
 20
-2.047461788189147
 30
0.0
 11
-0.8486436056284954
 21
-2.919647625996011
 31
0.0
  0
LINE
  5
1D05
330
1F
100
AcDbEntity
  8
AM_0
100
AcDbLine
 10
-0.1140160022505193
 20
-2.531046593279651
 30
0.0
 11
-0.5700800112346176
 21
-3.365793748244876
 31
0.0
  0
LINE
  5
1D06
330
1F
100
AcDbEntity
  8
AM_11
100
AcDbLine
 10
-0.0000000000000004
 20
-4.005290116542808
 30
0.0
 11
-0.0000000000048391
 21
-2.047461788189147
 31
0.0
  0
LINE
  5
1D07
330
1F
100
AcDbEntity
  8
AM_0
100
AcDbLine
 10
-0.0000000000048391
 20
-2.047461788189147
 30
0.0
 11
-0.1140160022505193
 21
-1.224554837636068
 31
0.0
  0
LINE
  5
1D08
330
1F
100
AcDbEntity
  8
AM_0
100
AcDbLine
 10
-0.0000000000048391
 20
-0.749247823154846
 30
0.0
 11
-0.0000000000048391
 21
-2.047461788189147
 31
0.0
  0
LINE
  5
1D09
330
1F
100
AcDbEntity
  8
AM_11
100
AcDbLine
 10
0.0000000000000005
 20
-4.005290116542808
 30
0.0
 11
-0.0000000000000004
 21
3.994709883457177
 31
0.0
  0
LINE
  5
1D0A
330
1F
100
AcDbEntity
  8
AM_0
100
AcDbLine
 10
-16.72234699607799
 20
2.164338916636962
 30
0.0
 11
-16.72234699607552
 21
2.789885889378845
 31
0.0
  0
POLYLINE
  5
1D0D
330
1F
100
AcDbEntity
  8
AM_0
100
AcDb2dPolyline
 66
     1
 10
0.0
 20
0.0
 30
0.0
 70
     2
  0
VERTEX
  5
1D0E
330
1D0D
100
AcDbEntity
  8
AM_0
100
AcDbVertex
100
AcDb2dVertex
 10
-16.7223469960735
 20
2.164338916634963
 30
0.0
 42
0.0163510200184555
  0
VERTEX
  5
1D0F
330
1D0D
100
AcDbEntity
  8
AM_0
100
AcDbVertex
100
AcDb2dVertex
 10
-17.62199514329031
 20
2.524845434536407
 30
0.0
 42
0.0236329905934865
 70
     1
  0
VERTEX
  5
1D10
330
1D0D
100
AcDbEntity
  8
AM_0
100
AcDbVertex
100
AcDb2dVertex
 10
-18.2615630263959
 20
2.721205922378864
 30
0.0
 42
0.0136924015569504
  0
VERTEX
  5
1D11
330
1D0D
100
AcDbEntity
  8
AM_0
100
AcDbVertex
100
AcDb2dVertex
 10
-19.81739783237299
 20
3.068845561885201
 30
0.0
 42
0.0437471596433213
 70
     1
  0
VERTEX
  5
1D12
330
1D0D
100
AcDbEntity
  8
AM_0
100
AcDbVertex
100
AcDb2dVertex
 10
-20.3138510668211
 20
3.118302978528346
 30
0.0
 42
0.0737828887826182
  0
VERTEX
  5
1D13
330
1D0D
100
AcDbEntity
  8
AM_0
100
AcDbVertex
100
AcDb2dVertex
 10
-20.75179325885418
 20
3.053176722275294
 30
0.0
 42
0.3022986902902931
 70
     1
  0
VERTEX
  5
1D14
330
1D0D
100
AcDbEntity
  8
AM_0
100
AcDbVertex
100
AcDb2dVertex
 10
-20.82692307692791
 20
2.958533028935359
 30
0.0
 42
0.1640404297379002
  0
VERTEX
  5
1D15
330
1D0D
100
AcDbEntity
  8
AM_0
100
AcDbVertex
100
AcDb2dVertex
 10
-20.79050533593828
 20
2.784109775576395
 30
0.0
 42
0.0324399100382136
 70
     1
  0
VERTEX
  5
1D16
330
1D0D
100
AcDbEntity
  8
AM_0
100
AcDbVertex
100
AcDb2dVertex
 10
-20.3138510668211
 20
2.06072145161145
 30
0.0
 42
0.0076492520245086
  0
VERTEX
  5
1D17
330
1D0D
100
AcDbEntity
  8
AM_0
100
AcDbVertex
100
AcDb2dVertex
 10
-19.6980298069022
 20
1.269802741575474
 30
0.0
 42
0.0033664759505265
 70
     1
  0
VERTEX
  5
1D18
330
1D0D
100
AcDbEntity
  8
AM_0
100
AcDbVertex
100
AcDb2dVertex
 10
-18.2615630263939
 20
-0.494348003162426
 30
0.0
 42
0.0145714002245221
  0
VERTEX
  5
1D19
330
1D0D
100
AcDbEntity
  8
AM_0
100
AcDbVertex
100
AcDb2dVertex
 10
-17.7638431139676
 20
-1.062992840808075
 30
0.0
 42
0.007325916991168
 70
     1
  0
VERTEX
  5
1D1A
330
1D0D
100
AcDbEntity
  8
AM_0
100
AcDbVertex
100
AcDb2dVertex
 10
-16.72793525131891
 20
-2.14716873347738
 30
0.0
  0
SEQEND
  5
1D1B
330
1D0D
100
AcDbEntity
  8
AM_0
  0
LINE
  5
1D1C
330
1F
100
AcDbEntity
  8
AM_11
100
AcDbLine
 10
-19.00000267313166
 20
-4.005290116542808
 30
0.0
 11
-19.00000267313166
 21
3.994709883457177
 31
0.0
  0
LINE
  5
1D1D
330
1F
100
AcDbEntity
  8
AM_11
100
AcDbLine
 10
-19.00000267313166
 20
-4.005290116542808
 30
0.0
 11
-0.0000000000000004
 21
-4.005290116542808
 31
0.0
  0
LINE
  5
1D1E
330
1F
100
AcDbEntity
  8
AM_11
100
AcDbLine
 10
-0.0000000000000004
 20
3.994709883457177
 30
0.0
 11
-19.00000267313166
 21
3.994709883457177
 31
0.0
  0
DIMENSION
  5
1D1F
330
1F
100
AcDbEntity
  8
AM_5
100
AcDbDimension
  2
*D5
 10
17.31579047368419
 20
3.994709883457142
 30
0.0
 11
17.31579047368419
 21
12.27706282463361
 31
0.0
 70
   160
  1
%%c<>
  3
AM_JIS
100
AcDbAlignedDimension
 13
-0.0000000000048396
 23
-4.005290117662881
 33
0.0
 14
-0.0000000000000006
 24
3.994709883457147
 34
0.0
 50
89.9999999949442
100
AcDbRotatedDimension
1001
GENIUS_GENDTOL_13
1000

1000
h7
1000

1040
0.0
  0
ELLIPSE
  5
1D2D
330
1F
100
AcDbEntity
  8
AM_0
100
AcDbEllipse
 10
-0.0915925197450027
 20
-2.715448697491521
 30
0.0
 11
0.0000000000000228
 21
0.8225338902322269
 31
0.0
210
0.0
220
0.0
230
1.0
 40
0.9501333520496366
 41
1.821675747739278
 42
2.482683360922208
  0
ELLIPSE
  5
1D2E
330
1F
100
AcDbEntity
  8
AM_0
100
AcDbEllipse
 10
6.052795739821007
 20
1.346074102569379
 30
0.0
 11
0.0000000000001566
 21
6.980997794474918
 31
0.0
210
0.0
220
0.0
230
1.0
 40
0.9501333520496356
 41
1.515869372210687
 42
1.94790334324102
  0
SPLINE
  5
1D2F
330
1F
100
AcDbEntity
  8
AM_0
100
AcDbSpline
210
0.0
220
0.0
230
1.0
 70
     8
 71
     3
 72
     8
 73
     4
 74
     0
 42
0.0000000001
 43
0.0000000001
 40
0.0
 40
0.0
 40
0.0
 40
0.0
 40
8.272127900364923
 40
8.272127900364923
 40
8.272127900364923
 40
8.272127900364923
 10
-13.35760808585751
 20
3.994709883457177
 30
0.0
 10
-11.26170818970897
 20
3.994709883457177
 30
0.0
 10
-9.805106621780538
 20
1.994709883457201
 30
0.0
 10
-8.348505053852099
 20
-0.0052901165428097
 30
0.0
  0
SPLINE
  5
1D30
330
1F
100
AcDbEntity
  8
AM_0
100
AcDbSpline
210
0.0
220
0.0
230
1.0
 70
     8
 71
     3
 72
     8
 73
     4
 74
     0
 42
0.0000000001
 43
0.0000000001
 40
0.5179125576517913
 40
0.5179125576517913
 40
0.5179125576517913
 40
0.5179125576517913
 40
8.138271981564475
 40
8.138271981564475
 40
8.138271981564475
 40
8.138271981564475
 10
-12.22887897627012
 20
3.792224649946343
 30
0.0
 10
-10.36601315927086
 20
3.571823776457383
 30
0.0
 10
-8.986230144671074
 20
1.78326682995728
 30
0.0
 10
-7.606447130071274
 20
-0.0052901165427187
 30
0.0
  0
SPLINE
  5
1D31
330
1F
100
AcDbEntity
  8
AM_0
100
AcDbSpline
210
0.0
220
0.0
230
1.0
 70
     8
 71
     3
 72
     8
 73
     4
 74
     0
 42
0.0000000001
 43
0.0000000001
 40
0.2299567350972117
 40
0.2299567350972117
 40
0.2299567350972117
 40
0.2299567350972117
 40
7.769701155129346
 40
7.769701155129346
 40
7.769701155129346
 40
7.769701155129346
 10
-10.38465200276732
 20
3.283099861322604
 30
0.0
 10
-8.499687949360325
 20
3.189931604168466
 30
0.0
 10
-7.024430993995673
 20
1.592320743812776
 30
0.0
 10
-5.549174038631367
 20
-0.0052901165428097
 30
0.0
  0
SPLINE
  5
1D32
330
1F
100
AcDbEntity
  8
AM_0
100
AcDbSpline
210
0.0
220
0.0
230
1.0
 70
     8
 71
     3
 72
     8
 73
     4
 74
     0
 42
0.0000000001
 43
0.0000000001
 40
0.6397612841816997
 40
0.6397612841816997
 40
0.6397612841816997
 40
0.6397612841816997
 40
7.939880490758838
 40
7.939880490758838
 40
7.939880490758838
 40
7.939880490758838
 10
-11.20845896892759
 20
3.504112466678522
 30
0.0
 10
-9.431786772180116
 20
3.252211611927647
 30
0.0
 10
-8.053852766535406
 20
1.623460747692458
 30
0.0
 10
-6.675918760890692
 20
-0.0052901165427187
 30
0.0
  0
SPLINE
  5
1D33
330
1F
100
AcDbEntity
  8
AM_0
100
AcDbSpline
210
0.0
220
0.0
230
1.0
 70
     8
 71
     3
 72
     8
 73
     4
 74
     0
 42
0.0000000001
 43
0.0000000001
 40
0.0
 40
0.0
 40
0.0
 40
0.0
 40
3.655156164497277
 40
3.655156164497277
 40
3.655156164497277
 40
3.655156164497277
 10
-6.678804042928759
 20
3.994709883457177
 30
0.0
 10
-7.604906917285994
 20
3.994709883457814
 30
0.0
 10
-8.406190716384237
 20
3.604222157309029
 30
0.0
 10
-9.137808505780103
 20
2.995789203940492
 30
0.0
  0
SPLINE
  5
1D34
330
1F
100
AcDbEntity
  8
AM_0
100
AcDbSpline
210
0.0
220
0.0
230
1.0
 70
     8
 71
     3
 72
     8
 73
     4
 74
     0
 42
0.0000000001
 43
0.0000000001
 40
0.0
 40
0.0
 40
0.0
 40
0.0
 40
8.272127900365292
 40
8.272127900365292
 40
8.272127900365292
 40
8.272127900365292
 10
-3.33940202184633
 20
-4.0052901165429
 30
0.0
 10
-5.435301917994955
 20
-4.0052901165429
 30
0.0
 10
-6.891903485923524
 20
-2.005290116542901
 30
0.0
 10
-8.348505053852099
 20
-0.0052901165429006
 30
0.0
  0
SPLINE
  5
1D35
330
1F
100
AcDbEntity
  8
AM_0
100
AcDbSpline
210
0.0
220
0.0
230
1.0
 70
     8
 71
     3
 72
     8
 73
     4
 74
     0
 42
0.0000000001
 43
0.0000000001
 40
0.0
 40
0.0
 40
0.0
 40
0.0
 40
1.981387939834528
 40
1.981387939834528
 40
1.981387939834528
 40
1.981387939834528
 10
-9.276148140994614
 20
-3.825520128124307
 30
0.0
 10
-8.77412607033181
 20
-3.825520128124215
 30
0.0
 10
-8.306983193605885
 20
-3.712297261315424
 30
0.0
 10
-7.866227632642053
 20
-3.513417382380165
 30
0.0
  0
SPLINE
  5
1D36
330
1F
100
AcDbEntity
  8
AM_0
100
AcDbSpline
210
0.0
220
0.0
230
1.0
 70
     8
 71
     3
 72
     8
 73
     4
 74
     0
 42
0.0000000001
 43
0.0000000001
 40
0.0
 40
0.0
 40
0.0
 40
0.0
 40
1.797818050668038
 40
1.797818050668038
 40
1.797818050668038
 40
1.797818050668038
 10
-8.34561977181403
 20
-3.548269852982328
 30
0.0
 10
-7.890109270184844
 20
-3.547448028224433
 30
0.0
 10
-7.461049545179879
 20
-3.455849459586359
 30
0.0
 10
-7.052451377725937
 20
-3.294028621272272
 30
0.0
  0
SPLINE
  5
1D37
330
1F
100
AcDbEntity
  8
AM_0
100
AcDbSpline
210
0.0
220
0.0
230
1.0
 70
     8
 71
     3
 72
     8
 73
     4
 74
     0
 42
0.0000000001
 43
0.0000000001
 40
0.0
 40
0.0
 40
0.0
 40
0.0
 40
7.769701155129467
 40
7.769701155129467
 40
7.769701155129467
 40
7.769701155129467
 10
-7.218875049554705
 20
-3.297963781759617
 30
0.0
 10
-9.187475637007251
 20
-3.297963781759617
 30
0.0
 10
-10.70772685928385
 20
-1.651626949151259
 30
0.0
 10
-12.22797808156047
 20
-0.0052901165429006
 30
0.0
  0
SPLINE
  5
1D38
330
1F
100
AcDbEntity
  8
AM_0
100
AcDbSpline
210
0.0
220
0.0
230
1.0
 70
     8
 71
     3
 72
     8
 73
     4
 74
     0
 42
0.0000000001
 43
0.0000000001
 40
0.0
 40
0.0
 40
0.0
 40
0.0
 40
7.939880490758586
 40
7.939880490758586
 40
7.939880490758586
 40
7.939880490758586
 10
-8.34561977181403
 20
-3.54826985298242
 30
0.0
 10
-10.35733850929615
 20
-3.54826985298242
 30
0.0
 10
-11.8560306565578
 20
-1.77677998476266
 30
0.0
 10
-13.35472280381945
 20
-0.0052901165429006
 30
0.0
  0
SPLINE
  5
1D39
330
1F
100
AcDbEntity
  8
AM_0
100
AcDbSpline
210
0.0
220
0.0
230
1.0
 70
     8
 71
     3
 72
     8
 73
     4
 74
     0
 42
0.0000000001
 43
0.0000000001
 40
0.0
 40
0.0
 40
0.0
 40
0.0
 40
8.138271981564608
 40
8.138271981564608
 40
8.138271981564608
 40
8.138271981564608
 10
-9.276148140994614
 20
-3.825520128124307
 30
0.0
 10
-11.33813311105743
 20
-3.825520128124307
 30
0.0
 10
-12.8116921420289
 20
-1.915405122333603
 30
0.0
 10
-14.28525117300038
 20
-0.0052901165429006
 30
0.0
  0
SPLINE
  5
1D3A
330
1F
100
AcDbEntity
  8
AM_0
100
AcDbSpline
210
0.0
220
0.0
230
1.0
 70
     8
 71
     3
 72
     8
 73
     4
 74
     0
 42
0.0000000001
 43
0.0000000001
 40
0.0
 40
0.0
 40
0.0
 40
0.0
 40
1.570112951298052
 40
1.570112951298052
 40
1.570112951298052
 40
1.570112951298052
 10
-10.01820606477543
 20
-4.0052901165429
 30
0.0
 10
-9.620388283038403
 20
-4.0052901165429
 30
0.0
 10
-9.245602460328044
 20
-3.933236247450084
 30
0.0
 10
-8.889476955199794
 20
-3.802804883036341
 30
0.0
  0
SPLINE
  5
1D3B
330
1F
100
AcDbEntity
  8
AM_0
100
AcDbSpline
210
0.0
220
0.0
230
1.0
 70
     8
 71
     3
 72
     8
 73
     4
 74
     0
 42
0.0000000001
 43
0.0000000001
 40
0.1383879590723462
 40
0.1383879590723462
 40
0.1383879590723462
 40
0.1383879590723462
 40
7.769701155129346
 40
7.769701155129346
 40
7.769701155129346
 40
7.769701155129346
 10
-0.6448364492497644
 20
-3.296406232453782
 30
0.0
 10
-2.562826692125952
 20
-3.239317203297567
 30
0.0
 10
-4.056000365378484
 20
-1.622303659920189
 30
0.0
 10
-5.549174038631367
 20
-0.0052901165429006
 30
0.0
  0
SPLINE
  5
1D3C
330
1F
100
AcDbEntity
  8
AM_0
100
AcDbSpline
210
0.0
220
0.0
230
1.0
 70
     8
 71
     3
 72
     8
 73
     4
 74
     0
 42
0.0000000001
 43
0.0000000001
 40
0.0
 40
0.0
 40
0.0
 40
0.0
 40
7.939880490758586
 40
7.939880490758586
 40
7.939880490758586
 40
7.939880490758586
 10
-1.666815728884929
 20
-3.54826985298242
 30
0.0
 10
-3.678534466367043
 20
-3.54826985298242
 30
0.0
 10
-5.177226613628695
 20
-1.77677998476266
 30
0.0
 10
-6.675918760890348
 20
-0.0052901165429006
 30
0.0
  0
SPLINE
  5
1D3D
330
1F
100
AcDbEntity
  8
AM_0
100
AcDbSpline
210
0.0
220
0.0
230
1.0
 70
     8
 71
     3
 72
     8
 73
     4
 74
     0
 42
0.0000000001
 43
0.0000000001
 40
0.0
 40
0.0
 40
0.0
 40
0.0
 40
8.138271981564608
 40
8.138271981564608
 40
8.138271981564608
 40
8.138271981564608
 10
-2.597344098065509
 20
-3.825520128124307
 30
0.0
 10
-4.65932906812833
 20
-3.825520128124307
 30
0.0
 10
-6.132888099099802
 20
-1.915405122333603
 30
0.0
 10
-7.606447130071274
 20
-0.0052901165429006
 30
0.0
  0
SPLINE
  5
1D3E
330
1F
100
AcDbEntity
  8
AM_0
100
AcDbSpline
210
0.0
220
0.0
230
1.0
 70
     8
 71
     3
 72
    10
 73
     6
 74
     0
 42
0.0000000001
 43
0.0000000001
 40
0.0
 40
0.0
 40
0.0
 40
0.0
 40
1.624816058741878
 40
2.635428435777873
 40
3.678161543961334
 40
3.678161543961334
 40
3.678161543961334
 40
3.678161543961334
 10
-0.8486436056284954
 20
-2.91964762599583
 30
0.0
 10
-1.24692238957982
 20
-2.810003960996274
 30
0.0
 10
-1.781584444760384
 20
-2.654421681254629
 30
0.0
 10
-2.972086528659795
 20
-2.117414554013859
 30
0.0
 10
-2.289219975213638
 20
-1.466415566026486
 30
0.0
 10
-2.02719456938456
 20
-1.501987091643158
 30
0.0
  0
SPLINE
  5
1D3F
330
1F
100
AcDbEntity
  8
AM_0
100
AcDbSpline
210
0.0
220
0.0
230
1.0
 70
     8
 71
     3
 72
     8
 73
     4
 74
     0
 42
0.0000000001
 43
0.0000000001
 40
0.0
 40
0.0
 40
0.0
 40
0.0
 40
1.973247866266529
 40
1.973247866266529
 40
1.973247866266529
 40
1.973247866266529
 10
-7.218875049554705
 20
-3.297963781759617
 30
0.0
 10
-6.718915420327929
 20
-3.297963781759617
 30
0.0
 10
-6.247873988175149
 20
-3.191776293445135
 30
0.0
 10
-5.798406484695946
 20
-3.006369437025395
 30
0.0
  0
SPLINE
  5
1D40
330
1F
100
AcDbEntity
  8
AM_0
100
AcDbSpline
210
0.0
220
0.0
230
1.0
 70
     8
 71
     3
 72
     8
 73
     4
 74
     0
 42
0.0000000001
 43
0.0000000001
 40
0.0
 40
0.0
 40
0.0
 40
0.0
 40
1.570112951298052
 40
1.570112951298052
 40
1.570112951298052
 40
1.570112951298052
 10
-3.33940202184633
 20
-4.0052901165429
 30
0.0
 10
-2.941584240109294
 20
-4.0052901165429
 30
0.0
 10
-2.566798417398941
 20
-3.933236247450084
 30
0.0
 10
-2.210672912270691
 20
-3.802804883036341
 30
0.0
  0
SPLINE
  5
1D41
330
1F
100
AcDbEntity
  8
AM_0
100
AcDbSpline
210
0.0
220
0.0
230
1.0
 70
     8
 71
     3
 72
     8
 73
     4
 74
     0
 42
0.0000000001
 43
0.0000000001
 40
0.0
 40
0.0
 40
0.0
 40
0.0
 40
1.981387939834528
 40
1.981387939834528
 40
1.981387939834528
 40
1.981387939834528
 10
-2.597344098065509
 20
-3.825520128124307
 30
0.0
 10
-2.095322027402702
 20
-3.825520128124215
 30
0.0
 10
-1.628179150676784
 20
-3.712297261315424
 30
0.0
 10
-1.187423589712951
 20
-3.513417382380165
 30
0.0
  0
SPLINE
  5
1D42
330
1F
100
AcDbEntity
  8
AM_0
100
AcDbSpline
210
0.0
220
0.0
230
1.0
 70
     8
 71
     3
 72
     8
 73
     4
 74
     0
 42
0.0000000001
 43
0.0000000001
 40
0.0
 40
0.0
 40
0.0
 40
0.0
 40
1.512029330426235
 40
1.512029330426235
 40
1.512029330426235
 40
1.512029330426235
 10
-1.666815728884929
 20
-3.548269852982328
 30
0.0
 10
-1.283715092797589
 20
-3.54757866894507
 30
0.0
 10
-0.9193241809360984
 20
-3.482677353452535
 30
0.0
 10
-0.5700800112346176
 20
-3.365793748243966
 30
0.0
  0
SPLINE
  5
1D43
330
1F
100
AcDbEntity
  8
AM_0
100
AcDbSpline
210
0.0
220
0.0
230
1.0
 70
     8
 71
     3
 72
     8
 73
     4
 74
     0
 42
0.0000000001
 43
0.0000000001
 40
0.0
 40
0.0
 40
0.0
 40
0.0
 40
0.0092824582075338
 40
0.0092824582075338
 40
0.0092824582075338
 40
0.0092824582075338
 10
-0.5400710066259452
 20
-3.297963781759617
 30
0.0
 10
-0.5377191204571928
 20
-3.297963781759617
 30
0.0
 10
-0.5353678742209837
 20
-3.297961431931533
 30
0.0
 10
-0.5330172671520325
 20
-3.297956735082888
 30
0.0
  0
SPLINE
  5
1D44
330
1F
100
AcDbEntity
  8
AM_0
100
AcDbSpline
210
0.0
220
0.0
230
1.0
 70
     8
 71
     3
 72
     8
 73
     4
 74
     0
 42
0.0000000001
 43
0.0000000001
 40
0.6397612841816997
 40
0.6397612841816997
 40
0.6397612841816997
 40
0.6397612841816997
 40
6.972227720174165
 40
6.972227720174165
 40
6.972227720174165
 40
6.972227720174165
 10
-4.52965492599884
 20
3.504112466678522
 30
0.0
 10
-2.988485975835802
 20
3.285601828322048
 30
0.0
 10
-1.747353272074654
 20
2.031060737097484
 30
0.0
 10
-0.5459912757350516
 20
0.6391906914055568
 30
0.0
  0
SPLINE
  5
1D45
330
1F
100
AcDbEntity
  8
AM_0
100
AcDbSpline
210
0.0
220
0.0
230
1.0
 70
     8
 71
     3
 72
     8
 73
     4
 74
     0
 42
0.0000000001
 43
0.0000000001
 40
0.5179125576517913
 40
0.5179125576517913
 40
0.5179125576517913
 40
0.5179125576517913
 40
8.138271981564475
 40
8.138271981564475
 40
8.138271981564475
 40
8.138271981564475
 10
-5.550074933341369
 20
3.792224649946343
 30
0.0
 10
-3.687209116341758
 20
3.571823776457383
 30
0.0
 10
-2.307426101741964
 20
1.78326682995728
 30
0.0
 10
-0.9276430871425169
 20
-0.0052901165427187
 30
0.0
  0
SPLINE
  5
1D46
330
1F
100
AcDbEntity
  8
AM_0
100
AcDbSpline
210
0.0
220
0.0
230
1.0
 70
     8
 71
     3
 72
     8
 73
     4
 74
     0
 42
0.0000000001
 43
0.0000000001
 40
0.0
 40
0.0
 40
0.0
 40
0.0
 40
8.272127900365285
 40
8.272127900365285
 40
8.272127900365285
 40
8.272127900365285
 10
-6.678804042928759
 20
3.994709883457177
 30
0.0
 10
-4.58290414678013
 20
3.994709883457177
 30
0.0
 10
-3.126302578851563
 20
1.994709883457178
 30
0.0
 10
-1.669701010922991
 20
-0.0052901165428097
 30
0.0
  0
SPLINE
  5
1D47
330
1F
100
AcDbEntity
  8
AM_0
100
AcDbSpline
210
0.0
220
0.0
230
1.0
 70
     8
 71
     3
 72
     8
 73
     4
 74
     0
 42
0.0000000001
 43
0.0000000001
 40
0.0
 40
0.0
 40
0.0
 40
0.0
 40
3.655156164497277
 40
3.655156164497277
 40
3.655156164497277
 40
3.655156164497277
 10
-0.0000000000000004
 20
3.994709883457177
 30
0.0
 10
-0.9261028743568921
 20
3.994709883457814
 30
0.0
 10
-1.727386673455479
 20
3.604222157309029
 30
0.0
 10
-2.459004462851345
 20
2.995789203940492
 30
0.0
  0
SPLINE
  5
1D48
330
1F
100
AcDbEntity
  8
AM_0
100
AcDbSpline
210
0.0
220
0.0
230
1.0
 70
     8
 71
     3
 72
     8
 73
     4
 74
     0
 42
0.0000000001
 43
0.0000000001
 40
0.2299567350972117
 40
0.2299567350972117
 40
0.2299567350972117
 40
0.2299567350972117
 40
4.912075065647881
 40
4.912075065647881
 40
4.912075065647881
 40
4.912075065647881
 10
-3.705847959838216
 20
3.283099861322604
 30
0.0
 10
-2.535301021478318
 20
3.225243151552947
 30
0.0
 10
-1.52274968936766
 20
2.5872272932216
 30
0.0
 10
-0.5700800112346176
 20
1.729326273454696
 30
0.0
  0
SPLINE
  5
1D49
330
1F
100
AcDbEntity
  8
AM_0
100
AcDbSpline
210
0.0
220
0.0
230
1.0
 70
     8
 71
     3
 72
     8
 73
     4
 74
     0
 42
0.0000000001
 43
0.0000000001
 40
0.0
 40
0.0
 40
0.0
 40
0.0
 40
3.860109074512531
 40
3.860109074512531
 40
3.860109074512531
 40
3.860109074512531
 10
-0.2280320044961971
 20
3.986739701834245
 30
0.0
 10
-0.0382135258407276
 20
2.976950322403697
 30
0.0
 10
-1.657248348232488
 20
2.221178309358198
 30
0.0
 10
-2.6352799146975
 20
2.221178309358198
 30
0.0
  0
SPLINE
  5
1D4A
330
1F
100
AcDbEntity
  8
AM_0
100
AcDbSpline
210
0.0
220
0.0
230
1.0
 70
     8
 71
     3
 72
     8
 73
     4
 74
     0
 42
0.0000000001
 43
0.0000000001
 40
6.850968446318445
 40
6.850968446318445
 40
6.850968446318445
 40
6.850968446318445
 40
8.138271981564475
 40
8.138271981564475
 40
8.138271981564475
 40
8.138271981564475
 10
-0.2260560760166218
 20
-0.9041505066947223
 30
0.0
 10
-0.4614709674935267
 20
-0.6095701910479048
 30
0.0
 10
-0.6945570273180217
 20
-0.3074301537954028
 30
0.0
 10
-0.9276430871425169
 20
-0.0052901165429006
 30
0.0
  0
SPLINE
  5
1D4B
330
1F
100
AcDbEntity
  8
AM_0
100
AcDbSpline
210
0.0
220
0.0
230
1.0
 70
     8
 71
     3
 72
     8
 73
     4
 74
     0
 42
0.0000000001
 43
0.0000000001
 40
5.58452476840911
 40
5.58452476840911
 40
5.58452476840911
 40
5.58452476840911
 40
8.27212790036518
 40
8.27212790036518
 40
8.27212790036518
 40
8.27212790036518
 10
-0.2280320044961971
 20
-1.886089941071085
 30
0.0
 10
-0.7232052644530715
 20
-1.304884689705713
 30
0.0
 10
-1.196453137688032
 20
-0.6550874031243521
 30
0.0
 10
-1.669701010922991
 20
-0.0052901165429006
 30
0.0
  0
SPLINE
  5
1D4C
330
1F
100
AcDbEntity
  8
AM_0
100
AcDbSpline
210
0.0
220
0.0
230
1.0
 70
     8
 71
     3
 72
     8
 73
     4
 74
     0
 42
0.0000000001
 43
0.0000000001
 40
0.0
 40
0.0
 40
0.0
 40
0.0
 40
3.655156164497277
 40
3.655156164497277
 40
3.655156164497277
 40
3.655156164497277
 10
-13.35760808585751
 20
3.994709883457177
 30
0.0
 10
-14.28371096021475
 20
3.994709883457814
 30
0.0
 10
-15.08499475931299
 20
3.604222157309029
 30
0.0
 10
-15.81661254870886
 20
2.995789203940492
 30
0.0
  0
SPLINE
  5
1D4D
330
1F
100
AcDbEntity
  8
AM_0
100
AcDbSpline
210
0.0
220
0.0
230
1.0
 70
     8
 71
     3
 72
     8
 73
     4
 74
     0
 42
0.0000000001
 43
0.0000000001
 40
0.0
 40
0.0
 40
0.0
 40
0.0
 40
8.27212790036493
 40
8.27212790036493
 40
8.27212790036493
 40
8.27212790036493
 10
-10.01820606477543
 20
-4.0052901165429
 30
0.0
 10
-12.11410596092396
 20
-4.0052901165429
 30
0.0
 10
-13.57070752885241
 20
-2.005290116542888
 30
0.0
 10
-15.02730909678085
 20
-0.0052901165429006
 30
0.0
  0
SPLINE
  5
1D4E
330
1F
100
AcDbEntity
  8
AM_0
100
AcDbSpline
210
0.0
220
0.0
230
1.0
 70
     8
 71
     3
 72
     8
 73
     4
 74
     0
 42
0.0000000001
 43
0.0000000001
 40
0.0
 40
0.0
 40
0.0
 40
0.0
 40
1.570112951298052
 40
1.570112951298052
 40
1.570112951298052
 40
1.570112951298052
 10
-16.6975168449825
 20
-4.0052901165429
 30
0.0
 10
-16.29969906324547
 20
-4.0052901165429
 30
0.0
 10
-15.92491324053511
 20
-3.933236247450084
 30
0.0
 10
-15.56878773540686
 20
-3.802804883036341
 30
0.0
  0
SPLINE
  5
1D4F
330
1F
100
AcDbEntity
  8
AM_0
100
AcDbSpline
210
0.0
220
0.0
230
1.0
 70
     8
 71
     3
 72
     8
 73
     4
 74
     0
 42
0.0000000001
 43
0.0000000001
 40
0.1383879590723462
 40
0.1383879590723462
 40
0.1383879590723462
 40
0.1383879590723462
 40
4.12619780763684
 40
4.12619780763684
 40
4.12619780763684
 40
4.12619780763684
 10
-14.00295127238593
 20
-3.296406232453782
 30
0.0
 10
-15.00521394769379
 20
-3.266573858016336
 30
0.0
 10
-15.89147294066657
 20
-2.810776488911332
 30
0.0
 10
-16.7223469960735
 20
-2.151605880612371
 30
0.0
  0
SPLINE
  5
1D50
330
1F
100
AcDbEntity
  8
AM_0
100
AcDbSpline
210
0.0
220
0.0
230
1.0
 70
     8
 71
     3
 72
     8
 73
     4
 74
     0
 42
0.0000000001
 43
0.0000000001
 40
0.0
 40
0.0
 40
0.0
 40
0.0
 40
1.973247866266529
 40
1.973247866266529
 40
1.973247866266529
 40
1.973247866266529
 10
-13.89793246112279
 20
-3.297963781759617
 30
0.0
 10
-13.39797283189601
 20
-3.297963781759617
 30
0.0
 10
-12.92693139974324
 20
-3.191776293445135
 30
0.0
 10
-12.47746389626402
 20
-3.006369437025395
 30
0.0
  0
SPLINE
  5
1D51
330
1F
100
AcDbEntity
  8
AM_0
100
AcDbSpline
210
0.0
220
0.0
230
1.0
 70
     8
 71
     3
 72
     8
 73
     4
 74
     0
 42
0.0000000001
 43
0.0000000001
 40
0.0
 40
0.0
 40
0.0
 40
0.0
 40
1.570112951298052
 40
1.570112951298052
 40
1.570112951298052
 40
1.570112951298052
 10
-16.69726347634352
 20
-4.0052901165429
 30
0.0
 10
-16.29944569460649
 20
-4.0052901165429
 30
0.0
 10
-15.92465987189612
 20
-3.933236247450084
 30
0.0
 10
-15.56853436676788
 20
-3.802804883036341
 30
0.0
  0
SPLINE
  5
1D52
330
1F
100
AcDbEntity
  8
AM_0
100
AcDbSpline
210
0.0
220
0.0
230
1.0
 70
     8
 71
     3
 72
     8
 73
     4
 74
     0
 42
0.0000000001
 43
0.0000000001
 40
0.6432030004477055
 40
0.6432030004477055
 40
0.6432030004477055
 40
0.6432030004477055
 40
1.797818050668038
 40
1.797818050668038
 40
1.797818050668038
 40
1.797818050668038
 10
-14.54565770794857
 20
-3.513471208915709
 30
0.0
 10
-14.26477746155483
 20
-3.472917488840968
 30
0.0
 10
-13.99392332755025
 20
-3.397955031003933
 30
0.0
 10
-13.73150878929402
 20
-3.294028621272272
 30
0.0
  0
SPLINE
  5
1D53
330
1F
100
AcDbEntity
  8
AM_0
100
AcDbSpline
210
0.0
220
0.0
230
1.0
 70
     8
 71
     3
 72
     8
 73
     4
 74
     0
 42
0.0000000001
 43
0.0000000001
 40
0.5179125576349786
 40
0.5179125576349786
 40
0.5179125576349786
 40
0.5179125576349786
 40
1.981387939834528
 40
1.981387939834528
 40
1.981387939834528
 40
1.981387939834528
 10
-15.56853436676818
 20
-3.802804883033442
 30
0.0
 10
-15.21077456675566
 20
-3.760477318857882
 30
0.0
 10
-14.87083205096743
 20
-3.660312294267482
 30
0.0
 10
-14.54528504421014
 20
-3.513417382380165
 30
0.0
  0
SPLINE
  5
1D54
330
1F
100
AcDbEntity
  8
AM_0
100
AcDbSpline
210
0.0
220
0.0
230
1.0
 70
     8
 71
     3
 72
     8
 73
     4
 74
     0
 42
0.0000000001
 43
0.0000000001
 40
5.129729518825886
 40
5.129729518825886
 40
5.129729518825886
 40
5.129729518825886
 40
8.272127900365292
 40
8.272127900365292
 40
8.272127900365292
 40
8.272127900365292
 10
-16.72234699607799
 20
2.164338916636962
 30
0.0
 10
-16.13397051805901
 20
1.514221389753244
 30
0.0
 10
-15.58063980741993
 20
0.7544656366052124
 30
0.0
 10
-15.02730909678085
 20
-0.0052901165428097
 30
0.0
  0
SPLINE
  5
1D55
330
1F
100
AcDbEntity
  8
AM_0
100
AcDbSpline
210
0.0
220
0.0
230
1.0
 70
     8
 71
     3
 72
     8
 73
     4
 74
     0
 42
0.0000000001
 43
0.0000000001
 40
0.2299567350972117
 40
0.2299567350972117
 40
0.2299567350972117
 40
0.2299567350972117
 40
7.769701155129346
 40
7.769701155129346
 40
7.769701155129346
 40
7.769701155129346
 10
-17.06345604569642
 20
3.346528638050655
 30
0.0
 10
-15.17849199228908
 20
3.189931604168466
 30
0.0
 10
-13.70323503692443
 20
1.592320743812776
 30
0.0
 10
-12.22797808156047
 20
-0.0052901165428097
 30
0.0
  0
SPLINE
  5
1D56
330
1F
100
AcDbEntity
  8
AM_0
100
AcDbSpline
210
0.0
220
0.0
230
1.0
 70
     8
 71
     3
 72
     8
 73
     4
 74
     0
 42
0.0000000001
 43
0.0000000001
 40
0.5179125576517913
 40
0.5179125576517913
 40
0.5179125576517913
 40
0.5179125576517913
 40
8.138271981564475
 40
8.138271981564475
 40
8.138271981564475
 40
8.138271981564475
 10
-18.90768301919888
 20
3.994709883457177
 30
0.0
 10
-17.04481720219962
 20
3.571823776457383
 30
0.0
 10
-15.66503418760017
 20
1.78326682995728
 30
0.0
 10
-14.28525117300038
 20
-0.0052901165427187
 30
0.0
  0
SPLINE
  5
1D57
330
1F
100
AcDbEntity
  8
AM_0
100
AcDbSpline
210
0.0
220
0.0
230
1.0
 70
     8
 71
     3
 72
     8
 73
     4
 74
     0
 42
0.0000000001
 43
0.0000000001
 40
0.6397612841816997
 40
0.6397612841816997
 40
0.6397612841816997
 40
0.6397612841816997
 40
7.939880490758838
 40
7.939880490758838
 40
7.939880490758838
 40
7.939880490758838
 10
-17.88726301185635
 20
3.611127961025887
 30
0.0
 10
-16.11059081510922
 20
3.252211611927647
 30
0.0
 10
-14.73265680946416
 20
1.623460747692458
 30
0.0
 10
-13.35472280381979
 20
-0.0052901165427187
 30
0.0
  0
DIMENSION
  5
1D58
330
1F
100
AcDbEntity
  8
AM_5
100
AcDbDimension
  2
*D6
 10
-19.00000267313166
 20
-18.01798739624543
 30
0.0
 11
-9.500001336568253
 21
-14.91798739624543
 31
0.0
 70
    32
  1
<>
  3
AM_JIS
100
AcDbAlignedDimension
 13
-0.0000000000048395
 23
-4.005290116542808
 33
0.0
 14
-19.00000267313166
 24
-4.005290116542808
 34
0.0
 50
0.0000000000001048
100
AcDbRotatedDimension
1001
GENIUS_GENDTOL_13
1000

1000
h7
1000

1040
0.0
  0
LINE
  5
1DAC
330
1F
100
AcDbEntity
  8
AM_0
100
AcDbLine
 10
-79.6562500000056
 20
3.982013603754459
 30
0.0
 11
-79.6562500000056
 21
3.982013603754459
 31
0.0
  0
LINE
  5
1DAD
330
1F
100
AcDbEntity
  8
AM_0
100
AcDbLine
 10
-79.6562500000056
 20
3.982013603754459
 30
0.0
 11
-80.00000000000559
 21
3.732013603754459
 31
0.0
1001
GENIUS_GENFIL_13
1070
     0
1040
0.5
1040
0.5
1040
20.0
1040
0.0
1002
{
1002
}
1001
GENIUS_GENODEF_13
1002
{
1000
HIER
1070
     0
1002
}
1002
{
1000
MANEDIT
1070
     0
1002
}
1002
{
1000
NOSEL
1070
     0
1002
}
1002
{
1000
BEHIND
1070
     0
1002
}
1002
{
1000
REACTOR
1002
}
1001
GENIUS_GENOBJ-N-CHA_13
1002
{
1000
OWNER
1000
GEN
1002
}
  0
LINE
  5
1DAE
330
1F
100
AcDbEntity
  8
AM_0
100
AcDbLine
 10
-79.6562500000056
 20
-4.017986396245531
 30
0.0
 11
-80.00000000000559
 21
-3.767986396245531
 31
0.0
1001
GENIUS_GENFIL_13
1070
     0
1040
0.5
1040
0.5
1040
20.0
1040
0.0
1002
{
1002
}
1001
GENIUS_GENODEF_13
1002
{
1000
HIER
1070
     0
1002
}
1002
{
1000
MANEDIT
1070
     0
1002
}
1002
{
1000
NOSEL
1070
     0
1002
}
1002
{
1000
BEHIND
1070
     0
1002
}
1002
{
1000
REACTOR
1002
}
1001
GENIUS_GENOBJ-N-CHA_13
1002
{
1000
OWNER
1000
GEN
1002
}
  0
LINE
  5
1DAF
330
1F
100
AcDbEntity
  8
AM_0
100
AcDbLine
 10
-80.00000000000559
 20
3.732013603754459
 30
0.0
 11
-80.00000000000559
 21
-3.767986396245531
 31
0.0
  0
LINE
  5
1DB0
330
1F
100
AcDbEntity
  8
AM_0
100
AcDbLine
 10
-79.6562500000056
 20
3.982013603754459
 30
0.0
 11
-79.6562500000056
 21
-4.017986396245531
 31
0.0
  0
LINE
  5
1DC0
330
1F
100
AcDbEntity
  8
AM_0
100
AcDbLine
 10
-79.6562500000056
 20
-4.017986396245531
 30
0.0
 11
-16.6975168449825
 21
-4.0052901165429
 31
0.0
  0
LINE
  5
1DC1
330
1F
100
AcDbEntity
  8
AM_0
100
AcDbLine
 10
-19.00000267313166
 20
3.982013603754468
 30
0.0
 11
-79.6562500000056
 21
3.982013603754459
 31
0.0
  0
DIMENSION
  5
1DC2
330
1F
100
AcDbEntity
  8
AM_5
100
AcDbDimension
  2
*D7
 10
-80.00000000000559
 20
-30.01798739624553
 30
0.0
 11
-40.0000000000056
 21
-26.91798739624553
 31
0.0
 70
    32
  1
<>
  3
AM_JIS
100
AcDbAlignedDimension
 13
-0.0000000000056036
 23
-3.390639542111338
 33
0.0
 14
-80.00000000000559
 24
-2.873883525242916
 34
0.0
 50
0.0000000000000821
100
AcDbRotatedDimension
1001
GENIUS_GENDTOL_13
1000

1000
h7
1000

1040
0.0
  0
LINE
  5
1DCF
330
1F
100
AcDbEntity
  8
AM_7
100
AcDbLine
 10
-82.03056625641405
 20
-0.0222184894797682
 30
0.0
 11
3.31578947368421
 21
-0.0222184894797648
 31
0.0
1001
GENIUS_GENODEF_13
1002
{
1000
HIER
1070
     0
1002
}
1002
{
1000
MANEDIT
1070
     0
1002
}
1002
{
1000
NOSEL
1070
     0
1002
}
1002
{
1000
BEHIND
1070
     0
1002
}
1002
{
1000
REACTOR
1002
}
1001
GENIUS_GENOBJ-N-CEN_13
1002
{
1000
OWNER
1000
GEN
1002
}
  0
LINE
  5
1DD0
330
1F
100
AcDbEntity
  8
AM_7
100
AcDbLine
 10
-82.03056625641405
 20
-0.0222184894797682
 30
0.0
 11
2.999999999994397
 21
-0.0222184894797632
 31
0.0
1001
GENIUS_GENODEF_13
1002
{
1000
HIER
1070
     0
1002
}
1002
{
1000
MANEDIT
1070
     0
1002
}
1002
{
1000
NOSEL
1070
     0
1002
}
1002
{
1000
BEHIND
1070
     0
1002
}
1002
{
1000
REACTOR
1002
}
1001
GENIUS_GENOBJ-N-CEN_13
1002
{
1000
OWNER
1000
GEN
1002
}
  0
DIMENSION
  5
1E45
330
1F
100
AcDbEntity
  8
AM_5
100
AcDbDimension
  2
*D8
 10
-94.00000100000559
 20
3.982013603754463
 30
0.0
 11
-97.10000100000559
 21
12.99629931804016
 31
0.0
 70
    32
  1
%%c<>
  3
AM_JIS
100
AcDbAlignedDimension
 13
-79.6562500000056
 23
-4.017986396245531
 33
0.0
 14
-79.6562500000056
 24
3.982013603754459
 34
0.0
 50
270.0
100
AcDbRotatedDimension
1001
GENIUS_GENDTOL_13
1000

1000
h7
1000

1040
0.0
  0
VIEWPORT
  5
110
330
101
100
AcDbEntity
 67
     1
  8
0
100
AcDbViewport
 10
420.5
 20
297.0
 30
0.0
 40
948.9782706766916
 41
628.452
 68
     1
 69
     1
1001
ACAD
1000
MVIEW
1002
{
1070
    16
1010
0.0
1020
0.0
1030
0.0
1010
0.0
1020
0.0
1030
1.0
1040
0.0
1040
628.452
1040
420.5
1040
297.0
1040
50.0
1040
0.0
1040
0.0
1070
     0
1070
   100
1070
     1
1070
     1
1070
     0
1070
     0
1070
     0
1070
     0
1040
0.0
1040
0.0
1040
0.0
1040
10.0
1040
10.0
1040
10.0
1040
10.0
1070
     0
1002
{
1002
}
1002
}
  0
ENDSEC
  0
SECTION
  2
OBJECTS
  0
DICTIONARY
  5
C
330
0
100
AcDbDictionary
  3
ACAD_GROUP
350
D
  3
ACAD_LAYOUT
350
1A
  3
ACAD_MLINESTYLE
350
17
  3
ACAD_PLOTSETTINGS
350
19
  3
ACAD_PLOTSTYLENAME
350
E
  3
ACDBVARIABLEDICTIONARY
350
34
  3
ACMDICTIONARY
350
43
  3
AMG
350
2B
  3
AMGSNAPSETTINGS
350
6E
  3
DWGPROPS
350
1F04
  3
ACDBHEADERROUNDTRIPXREC
350
1F10
  0
DICTIONARY
  5
74
330
1F
100
AcDbDictionary
280
     1
  3
ACAD_INDEX
360
1F06
  3
ACAD_LAYOUTSELFREF
360
1F33
  0
DICTIONARY
  5
1F38
330
101
100
AcDbDictionary
280
     1
  3
ACAD_LAYOUTSELFREF
360
1F39
  0
DICTIONARY
  5
D
102
{ACAD_REACTORS
330
C
102
}
330
C
100
AcDbDictionary
  0
DICTIONARY
  5
1A
102
{ACAD_REACTORS
330
C
102
}
330
C
100
AcDbDictionary
  0
DICTIONARY
  5
17
102
{ACAD_REACTORS
330
C
102
}
330
C
100
AcDbDictionary
  3
STANDARD
350
18
  0
DICTIONARY
  5
19
102
{ACAD_REACTORS
330
C
102
}
330
C
100
AcDbDictionary
  0
ACDBDICTIONARYWDFLT
  5
E
102
{ACAD_REACTORS
330
C
102
}
330
C
100
AcDbDictionary
281
     1
  3
Normal
350
F
100
AcDbDictionaryWithDefault
340
F
  0
DICTIONARY
  5
34
102
{ACAD_REACTORS
330
C
102
}
330
C
100
AcDbDictionary
  3
INDEXCTL
350
35
  3
SORTENTS
350
B5E
  0
DICTIONARY
  5
43
102
{ACAD_REACTORS
330
C
102
}
330
C
100
AcDbDictionary
  3
ACMSTDDICTIONARY
350
260
  0
DICTIONARY
  5
2B
102
{ACAD_REACTORS
330
C
102
}
330
C
100
AcDbDictionary
  3
ACMGSETTINGS
350
2C
  0
DICTIONARY
  5
6E
102
{ACAD_REACTORS
330
C
102
}
330
C
100
AcDbDictionary
  0
XRECORD
  5
1F04
102
{ACAD_REACTORS
330
C
102
}
330
C
100
AcDbXrecord
  1
DWGPROPS COOKIE
  2

  3

  4

  6

  7

  8

  9

300
AmdtFileType=82
301
=
302
=
303
=
304
=
305
=
306
=
307
=
308
=
309
=
 40
0.0446068402777778
 41
2452808.461142939
 42
2452844.412515
  1

 90
        1
  0
DICTIONARY
  5
1F10
102
{ACAD_REACTORS
330
C
102
}
330
C
100
AcDbDictionary
  3
TSTACKALIGN
350
1F11
  3
TSTACKSIZE
350
1F12
  3
HYPERLINKBASE
350
1F13
  3
STYLESHEET
350
1F14
  3
LAYOUTDICT
350
1F15
  3
PLOTSETDICT
350
1F16
  3
PLOTSTYLNAMDICT
350
1F17
  3
LWETCUNION
350
1F18
  3
INSUNITS
350
1F19
  3
CEPSNTYPE
350
1F1A
  3
FINGERPRINTGUID
350
1F1B
  3
VERSIONGUID
350
1F1C
  3
PSVPSCALE
350
1F1D
  3
DIMSTYLEDATA
350
1F1E
  3
PUCSORTHOREF
350
1F1F
  3
PUCSORTHOVIEW
350
1F20
  3
PUCSBASE
350
1F21
  3
PUCSORGTOP
350
1F22
  3
PUCSORGBOTTOM
350
1F23
  3
PUCSORGLEFT
350
1F24
  3
PUCSORGRIGHT
350
1F25
  3
PUCSORGFRONT
350
1F26
  3
PUCSORGBACK
350
1F27
  3
UCSORTHOREF
350
1F28
  3
UCSORTHOVIEW
350
1F29
  3
UCSBASE
350
1F2A
  3
UCSORGTOP
350
1F2B
  3
UCSORGBOTTOM
350
1F2C
  3
UCSORGLEFT
350
1F2D
  3
UCSORGRIGHT
350
1F2E
  3
UCSORGFRONT
350
1F2F
  3
UCSORGBACK
350
1F30
  0
DICTIONARY
  5
1F06
102
{ACAD_REACTORS
330
74
102
}
330
74
100
AcDbDictionary
  3
*A1
350
1F07
  0
XRECORD
  5
1F33
102
{ACAD_REACTORS
330
74
102
}
330
74
100
AcDbXrecord
340
1F
  0
XRECORD
  5
1F39
102
{ACAD_REACTORS
330
1F38
102
}
330
1F38
100
AcDbXrecord
340
101
  0
MLINESTYLE
  5
18
102
{ACAD_REACTORS
330
17
102
}
330
17
100
AcDbMlineStyle
  2
STANDARD
 70
     0
  3

 62
   256
 51
90.0
 52
90.0
 71
     2
 49
0.5
 62
   256
  6
BYLAYER
 49
-0.5
 62
   256
  6
BYLAYER
  0
ACDBPLACEHOLDER
  5
F
102
{ACAD_REACTORS
330
E
102
}
330
E
100
AcDbPlaceHolder
280
     0
  0
DICTIONARYVAR
  5
35
102
{ACAD_REACTORS
330
34
102
}
330
34
100
DictionaryVariables
280
     0
  1
1
  0
DICTIONARYVAR
  5
B5E
102
{ACAD_REACTORS
330
34
102
}
330
34
100
DictionaryVariables
280
     0
  1
96
  0
DICTIONARY
  5
260
102
{ACAD_REACTORS
330
43
102
}
330
43
100
AcDbDictionary
  0
DICTIONARY
  5
2C
102
{ACAD_REACTORS
330
2B
102
}
330
2B
100
AcDbDictionary
  3
DWGSETTINGS
350
2D
  0
XRECORD
  5
1F11
102
{ACAD_REACTORS
330
1F10
102
}
330
1F10
100
AcDbXrecord
 90
        1
  0
XRECORD
  5
1F12
102
{ACAD_REACTORS
330
1F10
102
}
330
1F10
100
AcDbXrecord
 90
       70
  0
XRECORD
  5
1F13
102
{ACAD_REACTORS
330
1F10
102
}
330
1F10
100
AcDbXrecord
  1

  0
XRECORD
  5
1F14
102
{ACAD_REACTORS
330
1F10
102
}
330
1F10
100
AcDbXrecord
  1
ASAMI.ctb
  0
XRECORD
  5
1F15
102
{ACAD_REACTORS
330
1F10
102
}
330
1F10
100
AcDbXrecord
340
1A
  0
XRECORD
  5
1F16
102
{ACAD_REACTORS
330
1F10
102
}
330
1F10
100
AcDbXrecord
340
19
  0
XRECORD
  5
1F17
102
{ACAD_REACTORS
330
1F10
102
}
330
1F10
100
AcDbXrecord
340
E
  0
XRECORD
  5
1F18
102
{ACAD_REACTORS
330
1F10
102
}
330
1F10
100
AcDbXrecord
 90
    10781
  0
XRECORD
  5
1F19
102
{ACAD_REACTORS
330
1F10
102
}
330
1F10
100
AcDbXrecord
 90
        4
  0
XRECORD
  5
1F1A
102
{ACAD_REACTORS
330
1F10
102
}
330
1F10
100
AcDbXrecord
 90
        0
  0
XRECORD
  5
1F1B
102
{ACAD_REACTORS
330
1F10
102
}
330
1F10
100
AcDbXrecord
  1
{AFB28963-8C59-40AE-9337-C84526B81ACE}
  0
XRECORD
  5
1F1C
102
{ACAD_REACTORS
330
1F10
102
}
330
1F10
100
AcDbXrecord
  1
{92D68833-EE8E-46C7-B48A-176F2F685AE9}
  0
XRECORD
  5
1F1D
102
{ACAD_REACTORS
330
1F10
102
}
330
1F10
100
AcDbXrecord
 40
0.0
  0
XRECORD
  5
1F1E
102
{ACAD_REACTORS
330
1F10
102
}
330
1F10
100
AcDbXrecord
1000
DSTYLE
1002
{
1070
    79
 70
     2
1070
   341
340
59
1070
   342
340
59
1070
   371
 70
    -1
1070
   372
 70
    -1
1002
}
  0
XRECORD
  5
1F1F
102
{ACAD_REACTORS
330
1F10
102
}
330
1F10
100
AcDbXrecord
340
0
  0
XRECORD
  5
1F20
102
{ACAD_REACTORS
330
1F10
102
}
330
1F10
100
AcDbXrecord
 70
     0
  0
XRECORD
  5
1F21
102
{ACAD_REACTORS
330
1F10
102
}
330
1F10
100
AcDbXrecord
340
0
  0
XRECORD
  5
1F22
102
{ACAD_REACTORS
330
1F10
102
}
330
1F10
100
AcDbXrecord
 10
0.0
 20
0.0
 30
0.0
  0
XRECORD
  5
1F23
102
{ACAD_REACTORS
330
1F10
102
}
330
1F10
100
AcDbXrecord
 10
0.0
 20
0.0
 30
0.0
  0
XRECORD
  5
1F24
102
{ACAD_REACTORS
330
1F10
102
}
330
1F10
100
AcDbXrecord
 10
0.0
 20
0.0
 30
0.0
  0
XRECORD
  5
1F25
102
{ACAD_REACTORS
330
1F10
102
}
330
1F10
100
AcDbXrecord
 10
0.0
 20
0.0
 30
0.0
  0
XRECORD
  5
1F26
102
{ACAD_REACTORS
330
1F10
102
}
330
1F10
100
AcDbXrecord
 10
0.0
 20
0.0
 30
0.0
  0
XRECORD
  5
1F27
102
{ACAD_REACTORS
330
1F10
102
}
330
1F10
100
AcDbXrecord
 10
0.0
 20
0.0
 30
0.0
  0
XRECORD
  5
1F28
102
{ACAD_REACTORS
330
1F10
102
}
330
1F10
100
AcDbXrecord
340
0
  0
XRECORD
  5
1F29
102
{ACAD_REACTORS
330
1F10
102
}
330
1F10
100
AcDbXrecord
 70
     0
  0
XRECORD
  5
1F2A
102
{ACAD_REACTORS
330
1F10
102
}
330
1F10
100
AcDbXrecord
340
0
  0
XRECORD
  5
1F2B
102
{ACAD_REACTORS
330
1F10
102
}
330
1F10
100
AcDbXrecord
 10
0.0
 20
0.0
 30
0.0
  0
XRECORD
  5
1F2C
102
{ACAD_REACTORS
330
1F10
102
}
330
1F10
100
AcDbXrecord
 10
0.0
 20
0.0
 30
0.0
  0
XRECORD
  5
1F2D
102
{ACAD_REACTORS
330
1F10
102
}
330
1F10
100
AcDbXrecord
 10
0.0
 20
0.0
 30
0.0
  0
XRECORD
  5
1F2E
102
{ACAD_REACTORS
330
1F10
102
}
330
1F10
100
AcDbXrecord
 10
0.0
 20
0.0
 30
0.0
  0
XRECORD
  5
1F2F
102
{ACAD_REACTORS
330
1F10
102
}
330
1F10
100
AcDbXrecord
 10
0.0
 20
0.0
 30
0.0
  0
XRECORD
  5
1F30
102
{ACAD_REACTORS
330
1F10
102
}
330
1F10
100
AcDbXrecord
 10
0.0
 20
0.0
 30
0.0
  0
LAYER_INDEX
  5
1F07
102
{ACAD_REACTORS
330
1F06
102
}
330
1F06
100
AcDbIndex
 40
2452844.458409097
100
AcDbLayerIndex
  8
0
360
1F08
 90
        0
  8
AM_0
360
1F09
 90
       65
  8
AM_11
360
1F0A
 90
        5
  8
AM_6
360
1F0B
 90
        1
  8
AM_7
360
1F0C
 90
        2
  8
AM_5
360
1F0D
 90
        4
  8
Defpoints
360
1F0E
 90
        0
  0
XRECORD
  5
2D
102
{ACAD_REACTORS
330
2C
102
}
330
2C
100
AcDbXrecord
  1
VERSION
140
15.0
  1
PRODUCT
  2
AutoCAD Mechanical 2000
  0
IDBUFFER
  5
1F08
330
0
100
AcDbIdBuffer
  0
IDBUFFER
  5
1F09
330
0
100
AcDbIdBuffer
330
1D4E
330
1D4F
330
1D50
330
1D51
330
1D52
330
1D53
330
1D54
330
1D55
330
1D56
330
1D57
330
1DAC
330
1DAD
330
1DAE
330
1DAF
330
1DB0
330
1DC0
330
1DC1
330
1CFB
330
1CFC
330
1CFD
330
1CFE
330
1CFF
330
1D00
330
1D01
330
1D02
330
1D03
330
1D04
330
1D05
330
1D07
330
1D08
330
1D0A
330
1D0D
330
1D2D
330
1D2E
330
1D2F
330
1D30
330
1D31
330
1D32
330
1D33
330
1D34
330
1D35
330
1D36
330
1D37
330
1D38
330
1D39
330
1D3A
330
1D3B
330
1D3C
330
1D3D
330
1D3E
330
1D3F
330
1D40
330
1D41
330
1D42
330
1D43
330
1D44
330
1D45
330
1D46
330
1D47
330
1D48
330
1D49
330
1D4A
330
1D4B
330
1D4C
330
1D4D
  0
IDBUFFER
  5
1F0A
330
0
100
AcDbIdBuffer
330
1D06
330
1D09
330
1D1C
330
1D1D
330
1D1E
  0
IDBUFFER
  5
1F0B
330
0
100
AcDbIdBuffer
330
F07
  0
IDBUFFER
  5
1F0C
330
0
100
AcDbIdBuffer
330
1DCF
330
1DD0
  0
IDBUFFER
  5
1F0D
330
0
100
AcDbIdBuffer
330
1D1F
330
1D58
330
1DC2
330
1E45
  0
IDBUFFER
  5
1F0E
330
0
100
AcDbIdBuffer
  0
ENDSEC
  0
EOF
