  0
SECTION
  2
HEADER
  9
$ACADVER
  1
AC1014
  9
$ACADMAINTVER
 70
     9
  9
$DWGCODEPAGE
  3
ANSI_932
  9
$INSBASE
 10
0.0
 20
0.0
 30
0.0
  9
$EXTMIN
 10
-108.7000009999999
 20
-54.07059061579809
 30
-0.00000001
  9
$EXTMAX
 10
18.54545554545453
 20
10.99999999999992
 30
0.00000001
  9
$LIMMIN
 10
-116.4470591005339
 20
-61.822880502488
  9
$LIMMAX
 10
30.22291771483264
 20
18.77674909264811
  9
$ORTHOMODE
 70
     0
  9
$REGENMODE
 70
     1
  9
$FILLMODE
 70
     1
  9
$QTEXTMODE
 70
     0
  9
$MIRRTEXT
 70
     0
  9
$DRAGMODE
 70
     2
  9
$LTSCALE
 40
1.0
  9
$OSMODE
 70
  2103
  9
$ATTMODE
 70
     1
  9
$TEXTSIZE
 40
2.5
  9
$TRACEWID
 40
1.0
  9
$TEXTSTYLE
  7
ACJISGDT
  9
$CLAYER
  8
AM_CL
  9
$CELTYPE
  6
BYLAYER
  9
$CECOLOR
 62
   256
  9
$CELTSCALE
 40
1.0
  9
$DELOBJ
 70
     1
  9
$DISPSILH
 70
     0
  9
$DIMSCALE
 40
1.0
  9
$DIMASZ
 40
2.5
  9
$DIMEXO
 40
1.0
  9
$DIMDLI
 40
12.0
  9
$DIMRND
 40
0.0
  9
$DIMDLE
 40
0.0
  9
$DIMEXE
 40
1.0
  9
$DIMTP
 40
0.1
  9
$DIMTM
 40
0.1
  9
$DIMTXT
 40
3.2
  9
$DIMCEN
 40
0.0
  9
$DIMTSZ
 40
0.0
  9
$DIMTOL
 70
     0
  9
$DIMLIM
 70
     0
  9
$DIMTIH
 70
     0
  9
$DIMTOH
 70
     0
  9
$DIMSE1
 70
     0
  9
$DIMSE2
 70
     0
  9
$DIMTAD
 70
     3
  9
$DIMZIN
 70
     8
  9
$DIMBLK
  1
OPEN30
  9
$DIMASO
 70
     1
  9
$DIMSHO
 70
     1
  9
$DIMPOST
  1

  9
$DIMAPOST
  1
"
  9
$DIMALT
 70
     0
  9
$DIMALTD
 70
     2
  9
$DIMALTF
 40
0.0393701
  9
$DIMLFAC
 40
1.0
  9
$DIMTOFL
 70
     1
  9
$DIMTVP
 40
0.0
  9
$DIMTIX
 70
     0
  9
$DIMSOXD
 70
     0
  9
$DIMSAH
 70
     0
  9
$DIMBLK1
  1

  9
$DIMBLK2
  1

  9
$DIMSTYLE
  2
AM_JIS
  9
$DIMCLRD
 70
   256
  9
$DIMCLRE
 70
   256
  9
$DIMCLRT
 70
     2
  9
$DIMTFAC
 40
0.71
  9
$DIMGAP
 40
1.5
  9
$DIMJUST
 70
     0
  9
$DIMSD1
 70
     0
  9
$DIMSD2
 70
     0
  9
$DIMTOLJ
 70
     0
  9
$DIMTZIN
 70
     0
  9
$DIMALTZ
 70
     0
  9
$DIMALTTZ
 70
     0
  9
$DIMFIT
 70
     3
  9
$DIMUPT
 70
     0
  9
$DIMUNIT
 70
     2
  9
$DIMDEC
 70
     3
  9
$DIMTDEC
 70
     3
  9
$DIMALTU
 70
     2
  9
$DIMALTTD
 70
     2
  9
$DIMTXSTY
  7
ASAMI
  9
$DIMAUNIT
 70
     0
  9
$LUNITS
 70
     2
  9
$LUPREC
 70
     2
  9
$SKETCHINC
 40
1.0
  9
$FILLETRAD
 40
2.5
  9
$AUNITS
 70
     0
  9
$AUPREC
 70
     0
  9
$MENU
  1
.
  9
$ELEVATION
 40
0.0
  9
$PELEVATION
 40
0.0
  9
$THICKNESS
 40
0.0
  9
$LIMCHECK
 70
     0
  9
$BLIPMODE
 70
     0
  9
$CHAMFERA
 40
0.5
  9
$CHAMFERB
 40
0.5
  9
$CHAMFERC
 40
20.0
  9
$CHAMFERD
 40
0.0
  9
$SKPOLY
 70
     0
  9
$TDCREATE
 40
2452808.461142939
  9
$TDUPDATE
 40
2452844.458946574
  9
$TDINDWG
 40
0.1236903125
  9
$TDUSRTIMER
 40
0.1236903125
  9
$USRTIMER
 70
     1
  9
$ANGBASE
 50
0.0
  9
$ANGDIR
 70
     0
  9
$PDMODE
 70
     0
  9
$PDSIZE
 40
0.0
  9
$PLINEWID
 40
0.0
  9
$COORDS
 70
     2
  9
$SPLFRAME
 70
     0
  9
$SPLINETYPE
 70
     6
  9
$SPLINESEGS
 70
     8
  9
$ATTDIA
 70
     1
  9
$ATTREQ
 70
     1
  9
$HANDLING
 70
 12289
  9
$HANDSEED
  5
2912
  9
$SURFTAB1
 70
     6
  9
$SURFTAB2
 70
     6
  9
$SURFTYPE
 70
     6
  9
$SURFU
 70
     6
  9
$SURFV
 70
     6
  9
$UCSNAME
  2

  9
$UCSORG
 10
0.0
 20
0.0
 30
0.0
  9
$UCSXDIR
 10
1.0
 20
0.000000000000002
 30
0.0
  9
$UCSYDIR
 10
-0.000000000000002
 20
1.0
 30
0.0
  9
$PUCSNAME
  2

  9
$PUCSORG
 10
0.0
 20
0.0
 30
0.0
  9
$PUCSXDIR
 10
1.0
 20
0.0
 30
0.0
  9
$PUCSYDIR
 10
0.0
 20
1.0
 30
0.0
  9
$USERI1
 70
     0
  9
$USERI2
 70
     0
  9
$USERI3
 70
     0
  9
$USERI4
 70
     0
  9
$USERI5
 70
     0
  9
$USERR1
 40
0.0
  9
$USERR2
 40
0.0
  9
$USERR3
 40
0.0
  9
$USERR4
 40
0.0
  9
$USERR5
 40
0.0
  9
$WORLDVIEW
 70
     1
  9
$SHADEDGE
 70
     3
  9
$SHADEDIF
 70
    70
  9
$TILEMODE
 70
     1
  9
$MAXACTVP
 70
    64
  9
$PINSBASE
 10
0.0
 20
0.0
 30
0.0
  9
$PLIMCHECK
 70
     0
  9
$PEXTMIN
 10
1.000000000000000E+20
 20
1.000000000000000E+20
 30
1.000000000000000E+20
  9
$PEXTMAX
 10
-1.000000000000000E+20
 20
-1.000000000000000E+20
 30
-1.000000000000000E+20
  9
$PLIMMIN
 10
0.0
 20
0.0
  9
$PLIMMAX
 10
841.0
 20
594.0
  9
$UNITMODE
 70
     0
  9
$VISRETAIN
 70
     1
  9
$PLINEGEN
 70
     0
  9
$PSLTSCALE
 70
     0
  9
$TREEDEPTH
 70
  3020
  9
$PICKSTYLE
 70
     0
  9
$CMLSTYLE
  2
STANDARD
  9
$CMLJUST
 70
     0
  9
$CMLSCALE
 40
20.0
  9
$PROXYGRAPHICS
 70
     1
  9
$MEASUREMENT
 70
     1
  0
ENDSEC
  0
SECTION
  2
CLASSES
  0
CLASS
  1
ACDBDICTIONARYWDFLT
  2
AcDbDictionaryWithDefault
  3
AutoCAD 2000
 90
        0
280
     0
281
     0
  0
CLASS
  1
ACDBPLACEHOLDER
  2
AcDbPlaceHolder
  3
AutoCAD 2000
 90
        0
280
     0
281
     0
  0
CLASS
  1
LAYOUT
  2
AcDbLayout
  3
AutoCAD 2000
 90
        0
280
     0
281
     0
  0
CLASS
  1
AMGSETTINGSOBJ
  2
AmgSettingsObj
  3
"AcadM|Product Description: AutoCAD Mechanical 2000|Company: Autodesk"
 90
        0
280
     0
281
     0
  0
CLASS
  1
ACME_DOCUMENT
  2
AcMeDbDoc
  3
AcMeServices
 90
        0
280
     0
281
     0
  0
CLASS
  1
ACMESCOPE
  2
AcMeScope
  3
AcMeServices
 90
        0
280
     0
281
     0
  0
CLASS
  1
ACMECOMMANDHISTORY
  2
AcMeCommandHistory
  3
AcMeServices
 90
        0
280
     0
281
     0
  0
CLASS
  1
DICTIONARYVAR
  2
AcDbDictionaryVar
  3
AutoCAD 2000
 90
        0
280
     0
281
     0
  0
CLASS
  1
ACIMSYSVARMAN
  2
AcImSysVarManager
  3
AcMeServices
 90
        0
280
     0
281
     0
  0
CLASS
  1
ACIMREALSYSVAR
  2
AcImRealSysVar
  3
AcMeServices
 90
        0
280
     0
281
     0
  0
CLASS
  1
ACIMINTSYSVAR
  2
AcImIntSysVar
  3
AcMeServices
 90
        0
280
     0
281
     0
  0
CLASS
  1
ACMEDRAWINGMAN
  2
AcMeDrawingMan
  3
AcMeServices
 90
        0
280
     0
281
     0
  0
CLASS
  1
ACMEVIEW
  2
AcMeView
  3
AcMeServices
 90
        0
280
     0
281
     0
  0
CLASS
  1
ACDBENTITYCACHE
  2
AcMeEntityCache
  3
AcMeServices
 90
        0
280
     0
281
     0
  0
CLASS
  1
GSMANAGER
  2
AcMeGSManager
  3
AcMeServices
 90
        0
280
     0
281
     0
  0
CLASS
  1
AmdtInternalReactor
  2
AmdtInternalReactor
  3
AcMeServices
 90
        0
280
     0
281
     0
  0
CLASS
  1
ACMESTATEMGR
  2
AcMeStateMgr
  3
AcMeServices
 90
        0
280
     0
281
     0
  0
CLASS
  1
ACME_DATABASE
  2
AcMeDbDatabase
  3
AcMeServices
 90
        0
280
     0
281
     0
  0
CLASS
  1
ACRFINSADJUSTERMGR
  2
AcRfInsAdjusterMgr
  3
AcMeServices
 90
        0
280
     0
281
     0
  0
CLASS
  1
ACMDATADICTIONARY
  2
AcmDataDictionary
  3
"AcmSymBB|Product Description: AutoCAD Mechanical 2000|Company: Autodesk"
 90
        0
280
     0
281
     0
  0
CLASS
  1
ACMDATAENTRYBLOCK
  2
AcmDataEntryBlock
  3
"AcmSymBB|Product Description: AutoCAD Mechanical 2000|Company: Autodesk"
 90
        0
280
     0
281
     0
  0
CLASS
  1
AMGOBJPROPCFG
  2
AmgObjPropCfg
  3
"AmgLay|Product Description: AutoCAD Mechanical 2000|Company: Autodesk"
 90
        1
280
     0
281
     0
  0
CLASS
  1
ACAMGFILTERDAT
  2
AcAmgFilterDat
  3
"AcadM|Product Description: AutoCAD Mechanical 2000|Company: Autodesk"
 90
        0
280
     0
281
     0
  0
CLASS
  1
LAYER_INDEX
  2
AcDbLayerIndex
  3
AutoCAD 2000
 90
        0
280
     0
281
     0
  0
CLASS
  1
IDBUFFER
  2
AcDbIdBuffer
  3
AutoCAD 2000
 90
        0
280
     0
281
     0
  0
CLASS
  1
ACIMSTRSYSVAR
  2
AcImStrSysVar
  3
AcMeServices
 90
        0
280
     0
281
     0
  0
CLASS
  1
ACMSTANDARDJIS
  2
AcmStandardJIS
  3
"AcmSymBB|Product Description: AutoCAD Mechanical 2000|Company: Autodesk"
 90
        0
280
     0
281
     0
  0
CLASS
  1
ACMSURFSTANDARDJIS
  2
AcmSurfTextStdJIS
  3
"AcmSymBB|Product Description: AutoCAD Mechanical 2000|Company: Autodesk"
 90
        0
280
     0
281
     0
  0
CLASS
  1
ACMFCFSTANDARDJIS
  2
AcmFCFStdJIS
  3
"AcmSymBB|Product Description: AutoCAD Mechanical 2000|Company: Autodesk"
 90
        0
280
     0
281
     0
  0
CLASS
  1
ACMWELDSTANDARDJIS
  2
AcmWeldingStdJIS
  3
"AcmSymBB|Product Description: AutoCAD Mechanical 2000|Company: Autodesk"
 90
        0
280
     0
281
     0
  0
CLASS
  1
ACMIDSTANDARDJIS
  2
AcmIdStdJIS
  3
"AcmSymBB|Product Description: AutoCAD Mechanical 2000|Company: Autodesk"
 90
        0
280
     0
281
     0
  0
CLASS
  1
ACMDATUMSTANDARDJIS
  2
AcmDatumStdJIS
  3
"AcmSymBB|Product Description: AutoCAD Mechanical 2000|Company: Autodesk"
 90
        0
280
     0
281
     0
  0
CLASS
  1
ACMBOMSTANDARDJIS
  2
AcmBOMStdJIS
  3
"AcmSymBB|Product Description: AutoCAD Mechanical 2000|Company: Autodesk"
 90
        0
280
     0
281
     0
  0
CLASS
  1
ACMSTANDARDANSI
  2
AcmStandardANSI
  3
"AcmSymBB|Product Description: AutoCAD Mechanical 2000|Company: Autodesk"
 90
        0
280
     0
281
     0
  0
CLASS
  1
ACMSURFSTANDARDANSI
  2
AcmSurfTextStdANSI
  3
"AcmSymBB|Product Description: AutoCAD Mechanical 2000|Company: Autodesk"
 90
        0
280
     0
281
     0
  0
CLASS
  1
ACMFCFSTANDARDANSI
  2
AcmFCFStdANSI
  3
"AcmSymBB|Product Description: AutoCAD Mechanical 2000|Company: Autodesk"
 90
        0
280
     0
281
     0
  0
CLASS
  1
ACMWELDSTANDARDANSI
  2
AcmWeldingStdANSI
  3
"AcmSymBB|Product Description: AutoCAD Mechanical 2000|Company: Autodesk"
 90
        0
280
     0
281
     0
  0
CLASS
  1
ACMIDSTANDARDANSI
  2
AcmIdStdANSI
  3
"AcmSymBB|Product Description: AutoCAD Mechanical 2000|Company: Autodesk"
 90
        0
280
     0
281
     0
  0
CLASS
  1
ACMDATUMSTANDARDANSI
  2
AcmDatumStdANSI
  3
"AcmSymBB|Product Description: AutoCAD Mechanical 2000|Company: Autodesk"
 90
        0
280
     0
281
     0
  0
CLASS
  1
ACMBOMSTANDARDANSI
  2
AcmBOMStdANSI
  3
"AcmSymBB|Product Description: AutoCAD Mechanical 2000|Company: Autodesk"
 90
        0
280
     0
281
     0
  0
CLASS
  1
ACMSTANDARDBSI
  2
AcmStandardBSI
  3
"AcmSymBB|Product Description: AutoCAD Mechanical 2000|Company: Autodesk"
 90
        0
280
     0
281
     0
  0
CLASS
  1
ACMSURFSTANDARDBSI
  2
AcmSurfTextStdBSI
  3
"AcmSymBB|Product Description: AutoCAD Mechanical 2000|Company: Autodesk"
 90
        0
280
     0
281
     0
  0
CLASS
  1
ACMFCFSTANDARDBSI
  2
AcmFCFStdBSI
  3
"AcmSymBB|Product Description: AutoCAD Mechanical 2000|Company: Autodesk"
 90
        0
280
     0
281
     0
  0
CLASS
  1
ACMWELDSTANDARDBSI
  2
AcmWeldingStdBSI
  3
"AcmSymBB|Product Description: AutoCAD Mechanical 2000|Company: Autodesk"
 90
        0
280
     0
281
     0
  0
CLASS
  1
ACMIDSTANDARDBSI
  2
AcmIdStdBSI
  3
"AcmSymBB|Product Description: AutoCAD Mechanical 2000|Company: Autodesk"
 90
        0
280
     0
281
     0
  0
CLASS
  1
ACMDATUMSTANDARDBSI
  2
AcmDatumStdBSI
  3
"AcmSymBB|Product Description: AutoCAD Mechanical 2000|Company: Autodesk"
 90
        0
280
     0
281
     0
  0
CLASS
  1
ACMBOMSTANDARDBSI
  2
AcmBOMStdBSI
  3
"AcmSymBB|Product Description: AutoCAD Mechanical 2000|Company: Autodesk"
 90
        0
280
     0
281
     0
  0
CLASS
  1
LONG_TRANSACTION
  2
AcDbLongTransaction
  3
AutoCAD 2000
 90
        0
280
     0
281
     0
  0
CLASS
  1
LWPOLYLINE
  2
AcDbPolyline
  3
AutoCAD 2000
 90
        0
280
     0
281
     1
  0
CLASS
  1
HATCH
  2
AcDbHatch
  3
AutoCAD 2000
 90
        0
280
     0
281
     1
  0
CLASS
  1
XRECORD
  2
AcDbXrecord
  3
AutoCAD 2000
 90
        0
280
     0
281
     0
  0
ENDSEC
  0
SECTION
  2
TABLES
  0
TABLE
  2
VPORT
  5
8
330
0
100
AcDbSymbolTable
 70
     3
  0
VPORT
  5
28E7
330
8
100
AcDbSymbolTableRecord
100
AcDbViewportTableRecord
  2
*ACTIVE
 70
     0
 10
0.0
 20
0.0
 11
1.0
 21
1.0
 12
-45.07735067901174
 22
-21.53345750240958
 13
0.0
 23
0.0
 14
2.5
 24
2.5
 15
10.0
 25
10.0
 16
0.0
 26
0.0
 36
1.0
 17
0.0
 27
0.0
 37
0.0
 40
81.59546696883806
 41
1.56570841889117
 42
50.0
 43
0.0
 44
0.0
 50
0.0
 51
0.0
 71
     0
 72
   100
 73
     1
 74
     3
 75
     0
 76
     0
 77
     0
 78
     0
  0
ENDTAB
  0
TABLE
  2
LTYPE
  5
5
330
0
100
AcDbSymbolTable
 70
    10
  0
LTYPE
  5
14
330
5
100
AcDbSymbolTableRecord
100
AcDbLinetypeTableRecord
  2
BYBLOCK
 70
     0
  3

 72
    65
 73
     0
 40
0.0
  0
LTYPE
  5
15
330
5
100
AcDbSymbolTableRecord
100
AcDbLinetypeTableRecord
  2
BYLAYER
 70
     0
  3

 72
    65
 73
     0
 40
0.0
  0
LTYPE
  5
16
330
5
100
AcDbSymbolTableRecord
100
AcDbLinetypeTableRecord
  2
CONTINUOUS
 70
     0
  3
Solid line
 72
    65
 73
     0
 40
0.0
  0
LTYPE
  5
4B
330
5
100
AcDbSymbolTableRecord
100
AcDbLinetypeTableRecord
  2
AM_ISO02W050
 70
     0
  3
__ __ __ __ __ __ __ __ __ __ __ __ __ __ __
 72
    65
 73
     2
 40
7.5
 49
6.0
 74
     0
 49
-1.5
 74
     0
  0
LTYPE
  5
4C
330
5
100
AcDbSymbolTableRecord
100
AcDbLinetypeTableRecord
  2
AM_ISO08W050
 70
     0
  3
____ . ____ . ____ . ____ . ____ . ____ . ____
 72
    65
 73
     4
 40
18.0
 49
12.0
 74
     0
 49
-1.5
 74
     0
 49
3.0
 74
     0
 49
-1.5
 74
     0
  0
LTYPE
  5
4D
330
5
100
AcDbSymbolTableRecord
100
AcDbLinetypeTableRecord
  2
AM_ISO09W050
 70
     0
  3
_____ . . _____ . . _____ . . ____ .. ____
 72
    65
 73
     6
 40
22.5
 49
12.0
 74
     0
 49
-1.5
 74
     0
 49
3.0
 74
     0
 49
-1.5
 74
     0
 49
3.0
 74
     0
 49
-1.5
 74
     0
  0
LTYPE
  5
4E
330
5
100
AcDbSymbolTableRecord
100
AcDbLinetypeTableRecord
  2
AMCONSTR
 70
     0
  3
_______________________
 72
    65
 73
     2
 40
9999.0
 49
9999.0
 74
     0
 49
0.0
 74
     0
  0
LTYPE
  5
4F
330
5
100
AcDbSymbolTableRecord
100
AcDbLinetypeTableRecord
  2
AM_ISO02W050X2
 70
     0
  3
 _ _ _ _ _ _ _ _ _ _ _ _
 72
    65
 73
     2
 40
3.75
 49
3.0
 74
     0
 49
-0.75
 74
     0
  0
LTYPE
  5
50
330
5
100
AcDbSymbolTableRecord
100
AcDbLinetypeTableRecord
  2
AM_ISO08W050X2
 70
     0
  3
__ . __ . __ . __ . __ . __
 72
    65
 73
     4
 40
9.0
 49
6.0
 74
     0
 49
-0.75
 74
     0
 49
1.5
 74
     0
 49
-0.75
 74
     0
  0
LTYPE
  5
53
330
5
100
AcDbSymbolTableRecord
100
AcDbLinetypeTableRecord
  2
AMZIGZAG
 70
     0
  3
/\/-/\/-/\/-/\/-/\/-/\/
 72
    65
 73
     2
 40
11.00009999999999
 49
0.0001
 74
     4
 75
   135
340
52
 46
0.04
 50
0.0
 44
0.0
 45
0.0
 49
-11.0
 74
     0
  0
LTYPE
  5
166
330
5
100
AcDbSymbolTableRecord
100
AcDbLinetypeTableRecord
  2
ACJISTGL
 70
     0
  3
_ _ _ _ _
 72
    65
 73
     2
 40
3.0
 49
2.0
 74
     0
 49
-1.0
 74
     0
  0
LTYPE
  5
26A
330
5
100
AcDbSymbolTableRecord
100
AcDbLinetypeTableRecord
  2
ACJISTGB
 70
     0
  3
__ . . __ . .
 72
    65
 73
     6
 40
9.0
 49
4.0
 74
     0
 49
-1.0
 74
     0
 49
1.0
 74
     0
 49
-1.0
 74
     0
 49
1.0
 74
     0
 49
-1.0
 74
     0
  0
ENDTAB
  0
TABLE
  2
LAYER
  5
2
330
0
100
AcDbSymbolTable
 70
     8
  0
LAYER
  5
10
330
2
100
AcDbSymbolTableRecord
100
AcDbLayerTableRecord
  2
0
 70
     0
 62
     7
  6
CONTINUOUS
  0
LAYER
  5
3F9
330
2
100
AcDbSymbolTableRecord
100
AcDbLayerTableRecord
  2
AM_0
 70
     0
 62
     7
  6
CONTINUOUS
  0
LAYER
  5
BA4
330
2
100
AcDbSymbolTableRecord
100
AcDbLayerTableRecord
  2
AM_11
 70
     0
 62
     3
  6
AM_ISO09W050
  0
LAYER
  5
BA6
330
2
100
AcDbSymbolTableRecord
100
AcDbLayerTableRecord
  2
AM_6
 70
     0
 62
     2
  6
CONTINUOUS
  0
LAYER
  5
BA7
330
2
100
AcDbSymbolTableRecord
100
AcDbLayerTableRecord
  2
AM_7
 70
     0
 62
     4
  6
AM_ISO08W050
  0
LAYER
  5
D0E
330
2
100
AcDbSymbolTableRecord
100
AcDbLayerTableRecord
  2
AM_5
 70
     0
 62
     3
  6
CONTINUOUS
  0
LAYER
  5
FE8
330
2
100
AcDbSymbolTableRecord
100
AcDbLayerTableRecord
  2
DEFPOINTS
 70
     0
 62
     7
  6
CONTINUOUS
  0
LAYER
  5
19D5
330
2
100
AcDbSymbolTableRecord
100
AcDbLayerTableRecord
  2
AM_CL
 70
     0
 62
     1
  6
AMCONSTR
  0
ENDTAB
  0
TABLE
  2
STYLE
  5
3
330
0
100
AcDbSymbolTable
 70
     5
  0
STYLE
  5
11
330
3
100
AcDbSymbolTableRecord
100
AcDbTextStyleTableRecord
  2
STANDARD
 70
     0
 40
0.0
 41
1.0
 50
0.0
 71
     0
 42
2.5
  3
simplex.shx
  4
EXTFONT.SHX
  0
STYLE
  5
52
330
3
100
AcDbSymbolTableRecord
100
AcDbTextStyleTableRecord
  2

 70
     1
 40
0.0
 41
1.0
 50
0.0
 71
     0
 42
2.5
  3
ltypeshp.shx
  4

  0
STYLE
  5
6B
330
3
100
AcDbSymbolTableRecord
100
AcDbTextStyleTableRecord
  2
ASAMI
 70
     0
 40
0.0
 41
1.0
 50
0.0
 71
     0
 42
2.5
  3
simplex.shx
  4
EXTFONT.SHX
  0
STYLE
  5
262
330
3
100
AcDbSymbolTableRecord
100
AcDbTextStyleTableRecord
  2
ACJISTS
 70
     0
 40
1.0
 41
1.0
 50
0.0
 71
     0
 42
2.5
  3
simplex.shx
  4
bigfont.shx
  0
STYLE
  5
269
330
3
100
AcDbSymbolTableRecord
100
AcDbTextStyleTableRecord
  2
ACJISGDT
 70
     0
 40
0.0
 41
1.0
 50
0.0
 71
     0
 42
2.5
  3
amgdtans.shx
  4

  0
ENDTAB
  0
TABLE
  2
VIEW
  5
6
330
0
100
AcDbSymbolTable
 70
     0
  0
ENDTAB
  0
TABLE
  2
UCS
  5
7
330
0
100
AcDbSymbolTable
 70
     0
  0
ENDTAB
  0
TABLE
  2
APPID
  5
9
330
0
100
AcDbSymbolTable
 70
    12
  0
APPID
  5
12
330
9
100
AcDbSymbolTableRecord
100
AcDbRegAppTableRecord
  2
ACAD
 70
     0
  0
APPID
  5
30
330
9
100
AcDbSymbolTableRecord
100
AcDbRegAppTableRecord
  2
MCAD_NO_VIS
 70
     0
  0
APPID
  5
31
330
9
100
AcDbSymbolTableRecord
100
AcDbRegAppTableRecord
  2
ACAD_TEMP_GRAPHIC
 70
     0
  0
APPID
  5
2C2
330
9
100
AcDbSymbolTableRecord
100
AcDbRegAppTableRecord
  2
GENIUS_GENDTOL_13
 70
     0
  0
APPID
  5
339
330
9
100
AcDbSymbolTableRecord
100
AcDbRegAppTableRecord
  2
GENIUS_GENODEF_13
 70
     0
  0
APPID
  5
33A
330
9
100
AcDbSymbolTableRecord
100
AcDbRegAppTableRecord
  2
GENIUS_GENOBJ-N-RSBK_13
 70
     0
  0
APPID
  5
33B
330
9
100
AcDbSymbolTableRecord
100
AcDbRegAppTableRecord
  2
GENIUS_GENOBJ-N-LIB_13
 70
     0
  0
APPID
  5
33C
330
9
100
AcDbSymbolTableRecord
100
AcDbRegAppTableRecord
  2
GENIUS_GENSCALE_13
 70
     0
  0
APPID
  5
378
330
9
100
AcDbSymbolTableRecord
100
AcDbRegAppTableRecord
  2
GENIUS_GENDIMSH_14
 70
     0
  0
APPID
  5
BA8
330
9
100
AcDbSymbolTableRecord
100
AcDbRegAppTableRecord
  2
GENIUS_GENOBJ-N-CEN_13
 70
     0
  0
APPID
  5
EE8
330
9
100
AcDbSymbolTableRecord
100
AcDbRegAppTableRecord
  2
GENIUS_GENFIL_13
 70
     0
  0
APPID
  5
EE9
330
9
100
AcDbSymbolTableRecord
100
AcDbRegAppTableRecord
  2
GENIUS_GENOBJ-N-CHA_13
 70
     0
  0
ENDTAB
  0
TABLE
  2
DIMSTYLE
  5
A
330
0
100
AcDbSymbolTable
 70
     8
  0
DIMSTYLE
105
58
102
{ACAD_REACTORS
330
1BE1
330
1C1B
330
1C2C
330
2846
102
}
330
A
100
AcDbSymbolTableRecord
100
AcDbDimStyleTableRecord
  2
AM_JIS
 70
     0
  3

  4
"
  5
OPEN30
  6

  7

 40
1.0
 41
2.5
 42
1.0
 43
12.0
 44
1.0
 45
0.0
 46
0.0
 47
0.1
 48
0.1
140
3.2
141
0.0
142
0.0
143
0.0393701
144
1.0
145
0.0
146
0.71
147
1.5
 71
     0
 72
     0
 73
     0
 74
     0
 75
     0
 76
     0
 77
     3
 78
     8
170
     0
171
     2
172
     1
173
     0
174
     0
175
     0
176
   256
177
   256
178
     2
270
     2
271
     3
272
     3
273
     2
274
     2
340
6B
275
     0
280
     0
281
     0
282
     0
283
     0
284
     0
285
     0
286
     0
287
     3
288
     0
  0
DIMSTYLE
105
5F
330
A
100
AcDbSymbolTableRecord
100
AcDbDimStyleTableRecord
  2
AM_JIS$3
 70
     0
  3

  4
"
  5
OPEN30
  6

  7

 40
1.0
 41
2.5
 42
1.0
 43
10.0
 44
1.0
 45
0.0
 46
0.0
 47
0.1
 48
0.1
140
3.2
141
0.0
142
0.0
143
0.0393701
144
1.0
145
0.0
146
0.71
147
1.5
 71
     0
 72
     0
 73
     0
 74
     1
 75
     0
 76
     0
 77
     3
 78
     8
170
     0
171
     2
172
     0
173
     0
174
     0
175
     0
176
   256
177
   256
178
     2
270
     2
271
     2
272
     3
273
     2
274
     2
340
6B
275
     0
280
     0
281
     0
282
     0
283
     0
284
     0
285
     0
286
     0
287
     0
288
     1
  0
DIMSTYLE
105
60
330
A
100
AcDbSymbolTableRecord
100
AcDbDimStyleTableRecord
  2
AM_JIS$4
 70
     0
  3

  4
"
  5
OPEN30
  6

  7

 40
1.0
 41
2.5
 42
1.0
 43
10.0
 44
1.0
 45
0.0
 46
0.0
 47
0.1
 48
0.1
140
3.2
141
0.0
142
0.0
143
0.0393701
144
1.0
145
0.0
146
0.71
147
1.5
 71
     0
 72
     0
 73
     0
 74
     1
 75
     0
 76
     0
 77
     3
 78
     8
170
     0
171
     2
172
     0
173
     0
174
     0
175
     0
176
   256
177
   256
178
     2
270
     2
271
     2
272
     3
273
     2
274
     2
340
6B
275
     0
280
     0
281
     0
282
     0
283
     0
284
     0
285
     0
286
     0
287
     0
288
     1
  0
DIMSTYLE
105
61
330
A
100
AcDbSymbolTableRecord
100
AcDbDimStyleTableRecord
  2
AM_JIS$6
 70
     0
  3

  4
"
  5
OPEN30
  6

  7

 40
1.0
 41
2.5
 42
1.0
 43
10.0
 44
1.0
 45
0.0
 46
0.0
 47
0.1
 48
0.1
140
3.2
141
0.0
142
0.0
143
0.0393701
144
1.0
145
0.0
146
0.71
147
1.5
 71
     0
 72
     0
 73
     0
 74
     0
 75
     0
 76
     0
 77
     0
 78
     8
170
     0
171
     2
172
     1
173
     0
174
     0
175
     0
176
   256
177
   256
178
     2
270
     2
271
     2
272
     2
273
     2
274
     2
340
6B
275
     0
280
     0
281
     0
282
     0
283
     0
284
     0
285
     0
286
     0
287
     3
288
     0
  0
DIMSTYLE
105
62
330
A
100
AcDbSymbolTableRecord
100
AcDbDimStyleTableRecord
  2
AM_JIS$7
 70
     0
  3

  4
"
  5
OPEN30
  6

  7

 40
1.0
 41
2.5
 42
1.0
 43
10.0
 44
1.0
 45
0.0
 46
0.0
 47
0.1
 48
0.1
140
3.2
141
0.0
142
0.0
143
0.0393701
144
1.0
145
0.0
146
0.71
147
1.5
 71
     0
 72
     0
 73
     0
 74
     0
 75
     0
 76
     0
 77
     3
 78
     8
170
     0
171
     2
172
     1
173
     0
174
     0
175
     0
176
   256
177
   256
178
     2
270
     2
271
     2
272
     3
273
     2
274
     2
340
6B
275
     0
280
     0
281
     0
282
     0
283
     0
284
     0
285
     0
286
     0
287
     3
288
     0
  0
DIMSTYLE
105
63
330
A
100
AcDbSymbolTableRecord
100
AcDbDimStyleTableRecord
  2
AM_JIS$SF
 70
     0
  3

  4
"
  5
OPEN30
  6

  7

 40
1.0
 41
2.5
 42
1.0
 43
10.0
 44
1.0
 45
0.0
 46
0.0
 47
0.1
 48
0.1
140
3.2
141
0.0
142
0.0
143
0.0393701
144
1.0
145
0.0
146
0.71
147
1.5
 71
     0
 72
     0
 73
     0
 74
     0
 75
     1
 76
     1
 77
     3
 78
     8
170
     0
171
     2
172
     1
173
     0
174
     0
175
     0
176
   256
177
   256
178
     2
270
     2
271
     2
272
     2
273
     2
274
     2
340
6B
275
     0
280
     0
281
     0
282
     0
283
     0
284
     0
285
     0
286
     0
287
     3
288
     0
  0
DIMSTYLE
105
68
330
A
100
AcDbSymbolTableRecord
100
AcDbDimStyleTableRecord
  2
AM_JIS$SH
 70
     0
  3

  4
"
  5

  6
GENAXEH
  7
OPEN30
 40
1.0
 41
2.5
 42
1.0
 43
10.0
 44
1.0
 45
0.0
 46
0.0
 47
0.1
 48
0.1
140
3.2
141
0.0
142
0.0
143
0.0393701
144
2.0
145
0.0
146
0.71
147
1.5
 71
     0
 72
     0
 73
     0
 74
     0
 75
     1
 76
     1
 77
     3
 78
     8
170
     0
171
     2
172
     1
173
     1
174
     0
175
     0
176
   256
177
   256
178
     2
270
     2
271
     2
272
     2
273
     2
274
     2
340
6B
275
     0
280
     0
281
     0
282
     0
283
     0
284
     0
285
     0
286
     0
287
     3
288
     0
  0
DIMSTYLE
105
B34
330
A
100
AcDbSymbolTableRecord
100
AcDbDimStyleTableRecord
  2
AM_JIS$2
 70
     0
  3

  4
"
  5
OPEN30
  6

  7

 40
1.0
 41
2.5
 42
1.0
 43
12.0
 44
1.0
 45
0.0
 46
0.0
 47
0.1
 48
0.1
140
3.2
141
0.0
142
0.0
143
0.0393701
144
1.0
145
0.0
146
0.71
147
1.5
 71
     0
 72
     0
 73
     0
 74
     0
 75
     0
 76
     0
 77
     3
 78
     8
170
     0
171
     2
172
     1
173
     0
174
     0
175
     0
176
   256
177
   256
178
     2
270
     2
271
     3
272
     3
273
     2
274
     2
340
6B
275
     0
280
     0
281
     0
282
     0
283
     0
284
     0
285
     0
286
     0
287
     3
288
     0
  0
ENDTAB
  0
TABLE
  2
BLOCK_RECORD
  5
1
330
0
100
AcDbSymbolTable
 70
     9
  0
BLOCK_RECORD
  5
1F
102
{ACAD_XDICTIONARY
360
74
102
}
330
1
100
AcDbSymbolTableRecord
100
AcDbBlockTableRecord
  2
*MODEL_SPACE
  0
BLOCK_RECORD
  5
101
102
{ACAD_XDICTIONARY
360
2910
102
}
330
1
100
AcDbSymbolTableRecord
100
AcDbBlockTableRecord
  2
*PAPER_SPACE
  0
BLOCK_RECORD
  5
59
330
1
100
AcDbSymbolTableRecord
100
AcDbBlockTableRecord
  2
_OPEN30
  0
BLOCK_RECORD
  5
64
330
1
100
AcDbSymbolTableRecord
100
AcDbBlockTableRecord
  2
GENAXEH
  0
BLOCK_RECORD
  5
1BE2
330
1
100
AcDbSymbolTableRecord
100
AcDbBlockTableRecord
  2
*D5
  0
BLOCK_RECORD
  5
1C1C
330
1
100
AcDbSymbolTableRecord
100
AcDbBlockTableRecord
  2
*D6
  0
BLOCK_RECORD
  5
1C2D
330
1
100
AcDbSymbolTableRecord
100
AcDbBlockTableRecord
  2
*D7
  0
BLOCK_RECORD
  5
2847
330
1
100
AcDbSymbolTableRecord
100
AcDbBlockTableRecord
  2
*D8
  0
ENDTAB
  0
ENDSEC
  0
SECTION
  2
BLOCKS
  0
BLOCK
  5
20
330
1F
100
AcDbEntity
  8
0
100
AcDbBlockBegin
  2
*MODEL_SPACE
 70
     0
 10
0.0
 20
0.0
 30
0.0
  3
*MODEL_SPACE
  1

  0
ENDBLK
  5
21
330
1F
100
AcDbEntity
  8
0
100
AcDbBlockEnd
  0
BLOCK
  5
103
330
101
100
AcDbEntity
 67
     1
  8
0
100
AcDbBlockBegin
  2
*PAPER_SPACE
 70
     0
 10
0.0
 20
0.0
 30
0.0
  3
*PAPER_SPACE
  1

  0
ENDBLK
  5
104
330
101
100
AcDbEntity
 67
     1
  8
0
100
AcDbBlockEnd
  0
BLOCK
  5
5D
330
59
100
AcDbEntity
  8
0
100
AcDbBlockBegin
  2
_OPEN30
 70
     0
 10
0.0
 20
0.0
 30
0.0
  3
_OPEN30
  1

  0
LINE
  5
5A
330
59
100
AcDbEntity
  8
0
 62
     0
100
AcDbLine
 10
-1.0
 20
0.26794919
 30
0.0
 11
0.0
 21
0.0
 31
0.0
  0
LINE
  5
5B
330
59
100
AcDbEntity
  8
0
 62
     0
100
AcDbLine
 10
0.0
 20
0.0
 30
0.0
 11
-1.0
 21
-0.26794919
 31
0.0
  0
LINE
  5
5C
330
59
100
AcDbEntity
  8
0
 62
     0
100
AcDbLine
 10
0.0
 20
0.0
 30
0.0
 11
-1.0
 21
0.0
 31
0.0
  0
ENDBLK
  5
5E
330
59
100
AcDbEntity
  8
0
100
AcDbBlockEnd
  0
BLOCK
  5
66
330
64
100
AcDbEntity
  8
0
100
AcDbBlockBegin
  2
GENAXEH
 70
     0
 10
0.0
 20
0.0
 30
0.0
  3
GENAXEH
  1

  0
LINE
  5
65
330
64
100
AcDbEntity
  8
0
100
AcDbLine
 10
-1.0
 20
0.0
 30
0.0
 11
1.0
 21
0.0
 31
0.0
  0
ENDBLK
  5
67
330
64
100
AcDbEntity
  8
0
100
AcDbBlockEnd
  0
BLOCK
  5
1BEE
330
1BE2
100
AcDbEntity
  8
0
100
AcDbBlockBegin
  2
*D5
 70
     1
 10
0.0
 20
0.0
 30
0.0
  3
*D5
  1

  0
LINE
  5
2517
330
1BE2
100
AcDbEntity
  8
AM_5
100
AcDbLine
 10
-4.192419554274945
 20
-6.000000001680117
 30
0.0
 11
18.54545554545453
 21
-6.000000001680124
 31
0.0
  0
LINE
  5
2518
330
1BE2
100
AcDbEntity
  8
AM_5
100
AcDbLine
 10
-4.192419554274944
 20
5.999999999999935
 30
0.0
 11
18.54545554545453
 21
5.999999999999928
 31
0.0
  0
LINE
  5
2519
330
1BE2
100
AcDbEntity
  8
AM_5
100
AcDbLine
 10
17.54545554545452
 20
-8.500000001680124
 30
0.0
 11
17.54545554545452
 21
-11.00000000168012
 31
0.0
  0
LINE
  5
251A
330
1BE2
100
AcDbEntity
  8
AM_5
100
AcDbLine
 10
17.54545554545453
 20
8.499999999999928
 30
0.0
 11
17.54545554545453
 21
10.99999999999992
 31
0.0
  0
LINE
  5
251B
330
1BE2
100
AcDbEntity
  8
AM_5
100
AcDbLine
 10
17.54545554545453
 20
-6.000000001680123
 30
0.0
 11
17.54545554545453
 21
5.999999999999928
 31
0.0
  0
INSERT
  5
251C
330
1BE2
100
AcDbEntity
  8
AM_5
100
AcDbBlockReference
  2
_OPEN30
 10
17.54545554545453
 20
-6.000000001680123
 30
0.0
 41
2.5
 42
2.5
 43
2.5
 50
90.0
  0
INSERT
  5
251D
330
1BE2
100
AcDbEntity
  8
AM_5
100
AcDbBlockReference
  2
_OPEN30
 10
17.54545554545453
 20
5.999999999999928
 30
0.0
 41
2.5
 42
2.5
 43
2.5
 50
270.0
  0
MTEXT
  5
251E
330
1BE2
100
AcDbEntity
  8
AM_5
 62
     2
100
AcDbMText
 10
14.44545554545452
 20
-0.4578720838738459
 30
0.0
 40
3.2
 41
0.0
 71
     5
 72
     1
  1
%%c12
  7
ASAMI
 11
0.0000000000000001
 21
1.0
 31
0.0
1001
ACAD
1000
MTEXTBEGIN
1070
    73
1070
     1
1070
    44
1040
1.0
1070
    74
1070
     0
1000
MTEXTEND
  0
POINT
  5
251F
330
1BE2
100
AcDbEntity
  8
DEFPOINTS
 62
     0
100
AcDbPoint
 10
-5.192419554274945
 20
-6.000000001680117
 30
0.0
  0
POINT
  5
2520
330
1BE2
100
AcDbEntity
  8
DEFPOINTS
 62
     0
100
AcDbPoint
 10
-5.192419554274944
 20
5.999999999999935
 30
0.0
  0
POINT
  5
2521
330
1BE2
100
AcDbEntity
  8
DEFPOINTS
 62
     0
100
AcDbPoint
 10
17.54545554545453
 20
5.999999999999928
 30
0.0
  0
ENDBLK
  5
1BEF
330
1BE2
100
AcDbEntity
  8
0
100
AcDbBlockEnd
  0
BLOCK
  5
1C26
330
1C1C
100
AcDbEntity
  8
0
100
AcDbBlockBegin
  2
*D6
 70
     1
 10
0.0
 20
0.0
 30
0.0
  3
*D6
  1

  0
LINE
  5
2549
330
1C1C
100
AcDbEntity
  8
AM_5
100
AcDbLine
 10
0.0000000000082753
 20
-7.000000001680118
 30
0.0
 11
0.0000000000082744
 21
-21.01076544877811
 31
0.0
  0
LINE
  5
254A
330
1C1C
100
AcDbEntity
  8
AM_5
100
AcDbLine
 10
-25.99999999999248
 20
-7.000000000000005
 30
0.0
 11
-25.99999999999248
 21
-21.01076544877811
 31
0.0
  0
LINE
  5
254B
330
1C1C
100
AcDbEntity
  8
AM_5
100
AcDbLine
 10
-2.499999999991725
 20
-20.01076544877811
 30
0.0
 11
-23.49999999999247
 21
-20.01076544877811
 31
0.0
  0
INSERT
  5
254C
330
1C1C
100
AcDbEntity
  8
AM_5
100
AcDbBlockReference
  2
_OPEN30
 10
0.0000000000082745
 20
-20.01076544877811
 30
0.0
 41
2.5
 42
2.5
 43
2.5
  0
INSERT
  5
254D
330
1C1C
100
AcDbEntity
  8
AM_5
100
AcDbBlockReference
  2
_OPEN30
 10
-25.99999999999248
 20
-20.01076544877811
 30
0.0
 41
2.5
 42
2.5
 43
2.5
 50
180.0
  0
MTEXT
  5
254E
330
1C1C
100
AcDbEntity
  8
AM_5
 62
     2
100
AcDbMText
 10
-12.9999999999921
 20
-16.91076544877811
 30
0.0
 40
3.2
 41
0.0
 71
     5
 72
     1
  1
26
  7
ASAMI
1001
ACAD
1000
MTEXTBEGIN
1070
    73
1070
     1
1070
    44
1040
1.0
1070
    74
1070
     0
1000
MTEXTEND
  0
POINT
  5
254F
330
1C1C
100
AcDbEntity
  8
DEFPOINTS
 62
     0
100
AcDbPoint
 10
0.0000000000082753
 20
-6.000000001680118
 30
0.0
  0
POINT
  5
2550
330
1C1C
100
AcDbEntity
  8
DEFPOINTS
 62
     0
100
AcDbPoint
 10
-25.99999999999248
 20
-6.000000000000005
 30
0.0
  0
POINT
  5
2551
330
1C1C
100
AcDbEntity
  8
DEFPOINTS
 62
     0
100
AcDbPoint
 10
-25.99999999999248
 20
-20.01076544877811
 30
0.0
  0
ENDBLK
  5
1C27
330
1C1C
100
AcDbEntity
  8
0
100
AcDbBlockEnd
  0
BLOCK
  5
1C37
330
1C2D
100
AcDbEntity
  8
0
100
AcDbBlockBegin
  2
*D7
 70
     1
 10
0.0
 20
0.0
 30
0.0
  3
*D7
  1

  0
LINE
  5
2552
330
1C2D
100
AcDbEntity
  8
AM_5
100
AcDbLine
 10
0.0000000000082753
 20
-7.000000000000005
 30
0.0
 11
0.0000000000082737
 21
-33.01076544877823
 31
0.0
  0
LINE
  5
2553
330
1C2D
100
AcDbEntity
  8
AM_5
100
AcDbLine
 10
-89.99999999999998
 20
-7.010765448778242
 30
0.0
 11
-89.99999999999998
 21
-33.01076544877823
 31
0.0
  0
LINE
  5
2554
330
1C2D
100
AcDbEntity
  8
AM_5
100
AcDbLine
 10
-2.499999999991726
 20
-32.01076544877823
 30
0.0
 11
-87.49999999999998
 21
-32.01076544877823
 31
0.0
  0
INSERT
  5
2555
330
1C2D
100
AcDbEntity
  8
AM_5
100
AcDbBlockReference
  2
_OPEN30
 10
0.0000000000082738
 20
-32.01076544877823
 30
0.0
 41
2.5
 42
2.5
 43
2.5
  0
INSERT
  5
2556
330
1C2D
100
AcDbEntity
  8
AM_5
100
AcDbBlockReference
  2
_OPEN30
 10
-89.99999999999998
 20
-32.01076544877823
 30
0.0
 41
2.5
 42
2.5
 43
2.5
 50
180.0
  0
MTEXT
  5
2557
330
1C2D
100
AcDbEntity
  8
AM_5
 62
     2
100
AcDbMText
 10
-44.99999999999586
 20
-28.91076544877823
 30
0.0
 40
3.2
 41
0.0
 71
     5
 72
     1
  1
90
  7
ASAMI
1001
ACAD
1000
MTEXTBEGIN
1070
    73
1070
     1
1070
    44
1040
1.0
1070
    74
1070
     0
1000
MTEXTEND
  0
POINT
  5
2558
330
1C2D
100
AcDbEntity
  8
DEFPOINTS
 62
     0
100
AcDbPoint
 10
0.0000000000082753
 20
-6.000000000000005
 30
0.0
  0
POINT
  5
2559
330
1C2D
100
AcDbEntity
  8
DEFPOINTS
 62
     0
100
AcDbPoint
 10
-89.99999999999998
 20
-6.010765448778242
 30
0.0
  0
POINT
  5
255A
330
1C2D
100
AcDbEntity
  8
DEFPOINTS
 62
     0
100
AcDbPoint
 10
-89.99999999999998
 20
-32.01076544877823
 30
0.0
  0
ENDBLK
  5
1C38
330
1C2D
100
AcDbEntity
  8
0
100
AcDbBlockEnd
  0
BLOCK
  5
2851
330
2847
100
AcDbEntity
  8
0
100
AcDbBlockBegin
  2
*D8
 70
     1
 10
0.0
 20
0.0
 30
0.0
  3
*D8
  1

  0
LINE
  5
28C0
330
2847
100
AcDbEntity
  8
AM_5
100
AcDbLine
 10
-90.59374999999997
 20
-6.042320932345638
 30
0.0
 11
-105.0000009999999
 21
-6.042320932345665
 31
0.0
  0
LINE
  5
28C1
330
2847
100
AcDbEntity
  8
AM_5
100
AcDbLine
 10
-90.59375000000001
 20
5.957679067654347
 30
0.0
 11
-105.0000009999999
 21
5.95767906765432
 31
0.0
  0
LINE
  5
28C2
330
2847
100
AcDbEntity
  8
AM_5
100
AcDbLine
 10
-104.0000009999999
 20
-3.542320932345663
 30
0.0
 11
-104.0000009999999
 21
3.457679067654321
 31
0.0
  0
INSERT
  5
28C3
330
2847
100
AcDbEntity
  8
AM_5
100
AcDbBlockReference
  2
_OPEN30
 10
-104.0000009999999
 20
-6.042320932345663
 30
0.0
 41
2.5
 42
2.5
 43
2.5
 50
270.0000000000001
  0
INSERT
  5
28C4
330
2847
100
AcDbEntity
  8
AM_5
100
AcDbBlockReference
  2
_OPEN30
 10
-104.0000009999999
 20
5.957679067654321
 30
0.0
 41
2.5
 42
2.5
 43
2.5
 50
90.0000000000001
  0
MTEXT
  5
28C5
330
2847
100
AcDbEntity
  8
AM_5
 62
     2
100
AcDbMText
 10
-107.1000009999999
 20
-0.0423209323456729
 30
0.0
 40
3.2
 41
0.0
 71
     5
 72
     1
  1
%%c12
  7
ASAMI
 11
-0.000000000000002
 21
1.0
 31
0.0
1001
ACAD
1000
MTEXTBEGIN
1070
    73
1070
     1
1070
    44
1040
1.0
1070
    74
1070
     0
1000
MTEXTEND
  0
POINT
  5
28C6
330
2847
100
AcDbEntity
  8
DEFPOINTS
 62
     0
100
AcDbPoint
 10
-89.59374999999999
 20
-6.042320932345437
 30
0.0
  0
POINT
  5
28C7
330
2847
100
AcDbEntity
  8
DEFPOINTS
 62
     0
100
AcDbPoint
 10
-89.59374999999999
 20
5.957679067654548
 30
0.0
  0
POINT
  5
28C8
330
2847
100
AcDbEntity
  8
DEFPOINTS
 62
     0
100
AcDbPoint
 10
-104.0000009999999
 20
5.957679067654552
 30
0.0
  0
ENDBLK
  5
2852
330
2847
100
AcDbEntity
  8
0
100
AcDbBlockEnd
  0
ENDSEC
  0
SECTION
  2
ENTITIES
  0
TEXT
  5
F07
330
1F
100
AcDbEntity
  8
AM_6
100
AcDbText
 10
-67.97619047619045
 20
-54.07059061579807
 30
0.0
 40
5.0
  1
SSUP3120ZX
 72
     4
 11
-44.99999999999998
 21
-51.57059061579807
 31
0.0
100
AcDbText
  0
LINE
  5
1BCA
330
1F
100
AcDbEntity
  8
AM_11
100
AcDbLine
 10
0.0000000000082753
 20
-6.000000000000005
 30
0.0
 11
-0.0000000000255399
 21
5.999999999999977
 31
0.0
  0
LINE
  5
1BDE
330
1F
100
AcDbEntity
  8
AM_11
100
AcDbLine
 10
-25.99999999999248
 20
-6.000000000000005
 30
0.0
 11
-25.99999999999248
 21
5.999999999999977
 31
0.0
  0
LINE
  5
1BDF
330
1F
100
AcDbEntity
  8
AM_11
100
AcDbLine
 10
-25.99999999999248
 20
-6.000000000000005
 30
0.0
 11
0.0000000000082753
 21
-6.000000000000005
 31
0.0
  0
LINE
  5
1BE0
330
1F
100
AcDbEntity
  8
AM_11
100
AcDbLine
 10
-0.0000000000255399
 20
5.999999999999977
 30
0.0
 11
-25.99999999999248
 21
5.999999999999977
 31
0.0
  0
DIMENSION
  5
1BE1
330
1F
100
AcDbEntity
  8
AM_5
100
AcDbDimension
  2
*D5
 10
17.54545554545453
 20
5.999999999999928
 30
0.0
 11
17.54545554545453
 21
-0.4578720838738463
 31
0.0
 70
   160
  1
%%c<>
  3
AM_JIS
100
AcDbAlignedDimension
 13
-5.192419554274945
 23
-6.000000001680117
 33
0.0
 14
-5.192419554274944
 24
5.999999999999935
 34
0.0
 50
89.99999999538768
100
AcDbRotatedDimension
1001
GENIUS_GENDTOL_13
1000

1000
h7
1000

1040
0.0
  0
DIMENSION
  5
1C1B
330
1F
100
AcDbEntity
  8
AM_5
100
AcDbDimension
  2
*D6
 10
-25.99999999999248
 20
-20.01076544877811
 30
0.0
 11
-12.9999999999921
 21
-16.91076544877811
 31
0.0
 70
    32
  1
<>
  3
AM_JIS
100
AcDbAlignedDimension
 13
0.0000000000082753
 23
-6.000000001680118
 33
0.0
 14
-25.99999999999248
 24
-6.000000000000005
 34
0.0
 50
0.0000000000001149
100
AcDbRotatedDimension
1001
GENIUS_GENDTOL_13
1000

1000
h7
1000

1040
0.0
  0
DIMENSION
  5
1C2C
330
1F
100
AcDbEntity
  8
AM_5
100
AcDbDimension
  2
*D7
 10
-89.99999999999998
 20
-32.01076544877823
 30
0.0
 11
-44.99999999999586
 21
-28.91076544877823
 31
0.0
 70
    32
  1
<>
  3
AM_JIS
100
AcDbAlignedDimension
 13
0.0000000000082753
 23
-6.000000000000005
 33
0.0
 14
-89.99999999999998
 24
-6.010765448778242
 34
0.0
 50
0.0000000000001149
100
AcDbRotatedDimension
1001
GENIUS_GENDTOL_13
1000

1000
h7
1000

1040
0.0
  0
LINE
  5
27A3
330
1F
100
AcDbEntity
  8
AM_0
100
AcDbLine
 10
-3.606172514832433
 20
3.29738170650607
 30
0.0
 11
-2.937241758371028
 21
2.377663924502117
 31
0.0
  0
LINE
  5
27A4
330
1F
100
AcDbEntity
  8
AM_0
100
AcDbLine
 10
0.0000000000082632
 20
-0.1692837293816732
 30
0.0
 11
-0.1276840765454116
 21
-0.344837498663251
 31
0.0
  0
LINE
  5
27A5
330
1F
100
AcDbEntity
  8
AM_0
100
AcDbLine
 10
-0.156021897801615
 20
-0.1643095032625164
 30
0.0
 11
0.0000000000082632
 21
-1.158257492263497
 31
0.0
  0
LINE
  5
27A6
330
1F
100
AcDbEntity
  8
AM_0
100
AcDbLine
 10
-0.156021897801615
 20
-0.1643095032625164
 30
0.0
 11
-0.7801094890430123
 21
2.559603652650817
 31
0.0
  0
LINE
  5
27A7
330
1F
100
AcDbEntity
  8
AM_0
100
AcDbLine
 10
0.0000000000082632
 20
-0.1692837293816732
 30
0.0
 11
0.0000000000082632
 21
5.957679067654539
 31
0.0
  0
LINE
  5
27A8
330
1F
100
AcDbEntity
  8
AM_0
100
AcDbLine
 10
-0.4935150738617491
 20
-2.626732465637983
 30
0.0
 11
-2.774055726511356
 21
-2.287366394995966
 31
0.0
  0
LINE
  5
27A9
330
1F
100
AcDbEntity
  8
AM_0
100
AcDbLine
 10
0.0000000000082632
 20
-3.105578439814949
 30
0.0
 11
-0.156021897801615
 21
-3.830955647450705
 31
0.0
  0
LINE
  5
27AA
330
1F
100
AcDbEntity
  8
AM_0
100
AcDbLine
 10
-0.3120437956119634
 20
-2.863520669138402
 30
0.0
 11
0.0000000000082632
 21
-3.105578439814949
 31
0.0
  0
LINE
  5
27AB
330
1F
100
AcDbEntity
  8
AM_0
100
AcDbLine
 10
0.0000000000082632
 20
-3.105578439814949
 30
0.0
 11
-0.156021897801615
 21
-1.87121801398533
 31
0.0
  0
LINE
  5
27AC
330
1F
100
AcDbEntity
  8
AM_0
100
AcDbLine
 10
0.0000000000082632
 20
-3.105578439814949
 30
0.0
 11
-1.161301776108319
 21
-4.413857196525245
 31
0.0
  0
LINE
  5
27AD
330
1F
100
AcDbEntity
  8
AM_0
100
AcDbLine
 10
-0.156021897801615
 20
-3.830955647450705
 30
0.0
 11
-0.7801094890430123
 21
-5.083076379898542
 31
0.0
  0
LINE
  5
27AE
330
1F
100
AcDbEntity
  8
AM_0
100
AcDbLine
 10
-0.156021897801615
 20
-1.87121801398533
 30
0.0
 11
-0.156021897801615
 21
-0.1643095032625164
 31
0.0
  0
LINE
  5
27AF
330
1F
100
AcDbEntity
  8
AM_0
100
AcDbLine
 10
0.0000000000082632
 20
-1.158257492263497
 30
0.0
 11
0.0000000000082632
 21
-3.105578439814949
 31
0.0
  0
LINE
  5
27B0
330
1F
100
AcDbEntity
  8
AM_0
100
AcDbLine
 10
-22.88321167882869
 20
3.212122617424217
 30
0.0
 11
-22.88321167882531
 21
4.15044307653704
 31
0.0
  0
LINE
  5
27B1
330
1F
100
AcDbEntity
  8
AM_0
100
AcDbLine
 10
-25.87367149994148
 20
5.957679067654539
 30
0.0
 11
-28.49999999998507
 21
5.957679067654539
 31
0.0
  0
LINE
  5
27B2
330
1F
100
AcDbEntity
  8
AM_0
100
AcDbLine
 10
-22.84888686234758
 20
-6.042320932345441
 30
0.0
 11
-28.49999999998511
 21
-6.042320932345441
 31
0.0
  0
POLYLINE
  5
27B3
330
1F
100
AcDbEntity
  8
AM_0
100
AcDb2dPolyline
 66
     1
 10
0.0
 20
0.0
 30
0.0
 70
     2
  0
VERTEX
  5
27B4
330
27B3
100
AcDbEntity
  8
AM_0
100
AcDbVertex
100
AcDb2dVertex
 10
-22.88321167882255
 20
3.212122617421217
 30
0.0
 42
0.0163510200184555
  0
VERTEX
  5
27B5
330
27B3
100
AcDbEntity
  8
AM_0
100
AcDbVertex
100
AcDb2dVertex
 10
-24.11430914343501
 20
3.752882394273384
 30
0.0
 42
0.0236329905934865
 70
     1
  0
VERTEX
  5
27B6
330
27B3
100
AcDbEntity
  8
AM_0
100
AcDbVertex
100
AcDb2dVertex
 10
-24.98950729926372
 20
4.047423126037069
 30
0.0
 42
0.0136924015569504
  0
VERTEX
  5
27B7
330
27B3
100
AcDbEntity
  8
AM_0
100
AcDbVertex
100
AcDb2dVertex
 10
-27.11854440217974
 20
4.568882585296576
 30
0.0
 42
0.0437471596433213
 70
     1
  0
VERTEX
  5
27B8
330
27B3
100
AcDbEntity
  8
AM_0
100
AcDbVertex
100
AcDb2dVertex
 10
-27.79790145984557
 20
4.643068710261292
 30
0.0
 42
0.0737828887826182
  0
VERTEX
  5
27B9
330
27B3
100
AcDbEntity
  8
AM_0
100
AcDbVertex
100
AcDb2dVertex
 10
-28.39719077525925
 20
4.545379325881715
 30
0.0
 42
0.3022986902902931
 70
     1
  0
VERTEX
  5
27BA
330
27B3
100
AcDbEntity
  8
AM_0
100
AcDbVertex
100
AcDb2dVertex
 10
-28.49999999999173
 20
4.403413785871811
 30
0.0
 42
0.1640404297379002
  0
VERTEX
  5
27BB
330
27B3
100
AcDbEntity
  8
AM_0
100
AcDbVertex
100
AcDb2dVertex
 10
-28.45016519653225
 20
4.141778905833366
 30
0.0
 42
0.0324399100382136
 70
     1
  0
VERTEX
  5
27BC
330
27B3
100
AcDbEntity
  8
AM_0
100
AcDbVertex
100
AcDb2dVertex
 10
-27.79790145984557
 20
3.056696419885948
 30
0.0
 42
0.0076492520245086
  0
VERTEX
  5
27BD
330
27B3
100
AcDbEntity
  8
AM_0
100
AcDbVertex
100
AcDb2dVertex
 10
-26.95519868311444
 20
1.870318354831984
 30
0.0
 42
0.0033664759505265
 70
     1
  0
VERTEX
  5
27BE
330
27B3
100
AcDbEntity
  8
AM_0
100
AcDbVertex
100
AcDb2dVertex
 10
-24.98950729926099
 20
-0.7759077622748672
 30
0.0
 42
0.0145714002245221
  0
VERTEX
  5
27BF
330
27B3
100
AcDbEntity
  8
AM_0
100
AcDbVertex
100
AcDb2dVertex
 10
-24.30841689278289
 20
-1.628875018743341
 30
0.0
 42
0.007325916991168
 70
     1
  0
VERTEX
  5
27C0
330
27B3
100
AcDbEntity
  8
AM_0
100
AcDbVertex
100
AcDb2dVertex
 10
-22.89085876494783
 20
-3.255138857747298
 30
0.0
  0
SEQEND
  5
27C1
330
27B3
100
AcDbEntity
  8
AM_0
  0
ELLIPSE
  5
27C2
330
1F
100
AcDbEntity
  8
AM_0
100
AcDbEllipse
 10
8.282773117664683
 20
1.984725396322842
 30
0.0
 11
0.0000000000000236
 21
10.47149669171241
 31
0.0
210
0.0
220
0.0
230
1.0
 40
0.8667883211680855
 41
1.515869372210668
 42
1.947903343241001
  0
ELLIPSE
  5
27C3
330
1F
100
AcDbEntity
  8
AM_0
100
AcDbEllipse
 10
-0.12533713226775
 20
-4.10755880376851
 30
0.0
 11
0.0000000000000171
 21
1.233800835348338
 31
0.0
210
0.0
220
0.0
230
1.0
 40
0.8667883211680912
 41
1.821675747739265
 42
2.482683360922198
  0
SPLINE
  5
27C4
330
1F
100
AcDbEntity
  8
AM_0
100
AcDbSpline
210
0.0
220
0.0
230
1.0
 70
     8
 71
     3
 72
     8
 73
     4
 74
     0
 42
0.0000000001
 43
0.0000000001
 40
0.2299567350972117
 40
0.2299567350972117
 40
0.2299567350972117
 40
0.2299567350972117
 40
7.769701155129346
 40
7.769701155129346
 40
7.769701155129346
 40
7.769701155129346
 10
-23.34999248356969
 20
4.985407199544756
 30
0.0
 10
-20.77056798943333
 20
4.750511648721472
 30
0.0
 10
-18.75179531367118
 20
2.354095358187938
 30
0.0
 10
-16.73302263790997
 20
-0.0423209323454425
 30
0.0
  0
SPLINE
  5
27C5
330
1F
100
AcDbEntity
  8
AM_0
100
AcDbSpline
210
0.0
220
0.0
230
1.0
 70
     8
 71
     3
 72
     8
 73
     4
 74
     0
 42
0.0000000001
 43
0.0000000001
 40
0.6397612841816997
 40
0.6397612841816997
 40
0.6397612841816997
 40
0.6397612841816997
 40
7.939880490758838
 40
7.939880490758838
 40
7.939880490758838
 40
7.939880490758838
 10
-24.47730727936749
 20
5.382306184007604
 30
0.0
 10
-22.04607164171352
 20
4.843931660360244
 30
0.0
 10
-20.16047773925186
 20
2.40080536400746
 30
0.0
 10
-18.27488383679115
 20
-0.042320932345306
 30
0.0
  0
SPLINE
  5
27C6
330
1F
100
AcDbEntity
  8
AM_0
100
AcDbSpline
210
0.0
220
0.0
230
1.0
 70
     8
 71
     3
 72
     8
 73
     4
 74
     0
 42
0.0000000001
 43
0.0000000001
 40
0.5179125576517913
 40
0.5179125576517913
 40
0.5179125576517913
 40
0.5179125576517913
 40
8.138271981564475
 40
8.138271981564475
 40
8.138271981564475
 40
8.138271981564475
 10
-25.87367149994148
 20
5.957679067654539
 30
0.0
 10
-23.32448669773196
 20
5.323349907154848
 30
0.0
 10
-21.43636257249061
 20
2.640514487404693
 30
0.0
 10
-19.54823844724879
 20
-0.042320932345306
 30
0.0
  0
SPLINE
  5
27C7
330
1F
100
AcDbEntity
  8
AM_0
100
AcDbSpline
210
0.0
220
0.0
230
1.0
 70
     8
 71
     3
 72
     8
 73
     4
 74
     0
 42
0.0000000001
 43
0.0000000001
 40
5.129729518825886
 40
5.129729518825886
 40
5.129729518825886
 40
5.129729518825886
 40
8.272127900365292
 40
8.272127900365292
 40
8.272127900365292
 40
8.272127900365292
 10
-22.88321167882869
 20
3.212122617424217
 30
0.0
 10
-22.0780649194343
 20
2.23694632709864
 30
0.0
 10
-21.32087552592818
 20
1.09731269737659
 30
0.0
 10
-20.56368613242207
 20
-0.0423209323454425
 30
0.0
  0
SPLINE
  5
27C8
330
1F
100
AcDbEntity
  8
AM_0
100
AcDbSpline
210
0.0
220
0.0
230
1.0
 70
     8
 71
     3
 72
     8
 73
     4
 74
     0
 42
0.0000000001
 43
0.0000000001
 40
0.5179125576349786
 40
0.5179125576349786
 40
0.5179125576349786
 40
0.5179125576349786
 40
1.981387939834528
 40
1.981387939834528
 40
1.981387939834528
 40
1.981387939834528
 10
-21.30431018608895
 20
-5.738593082081392
 30
0.0
 10
-20.81474414396655
 20
-5.675101735818052
 30
0.0
 10
-20.34955964867739
 20
-5.524854198932453
 30
0.0
 10
-19.90407427100952
 20
-5.304511831101477
 30
0.0
  0
SPLINE
  5
27C9
330
1F
100
AcDbEntity
  8
AM_0
100
AcDbSpline
210
0.0
220
0.0
230
1.0
 70
     8
 71
     3
 72
     8
 73
     4
 74
     0
 42
0.0000000001
 43
0.0000000001
 40
0.6432030004477055
 40
0.6432030004477055
 40
0.6432030004477055
 40
0.6432030004477055
 40
1.797818050668038
 40
1.797818050668038
 40
1.797818050668038
 40
1.797818050668038
 10
-19.90458423191474
 20
-5.304592570904791
 30
0.0
 10
-19.5202217894812
 20
-5.24376199079268
 30
0.0
 10
-19.14957929031704
 20
-5.131318304037129
 30
0.0
 10
-18.79048571165061
 20
-4.975428689439636
 30
0.0
  0
SPLINE
  5
27CA
330
1F
100
AcDbEntity
  8
AM_0
100
AcDbSpline
210
0.0
220
0.0
230
1.0
 70
     8
 71
     3
 72
     8
 73
     4
 74
     0
 42
0.0000000001
 43
0.0000000001
 40
0.0
 40
0.0
 40
0.0
 40
0.0
 40
1.570112951298052
 40
1.570112951298052
 40
1.570112951298052
 40
1.570112951298052
 10
-22.84888686234994
 20
-6.042320932345577
 30
0.0
 10
-22.30450463470979
 20
-6.042320932345578
 30
0.0
 10
-21.79163982468508
 20
-5.934240128706355
 30
0.0
 10
-21.30431018608853
 20
-5.73859308208574
 30
0.0
  0
SPLINE
  5
27CB
330
1F
100
AcDbEntity
  8
AM_0
100
AcDbSpline
210
0.0
220
0.0
230
1.0
 70
     8
 71
     3
 72
     8
 73
     4
 74
     0
 42
0.0000000001
 43
0.0000000001
 40
0.0
 40
0.0
 40
0.0
 40
0.0
 40
1.973247866266529
 40
1.973247866266529
 40
1.973247866266529
 40
1.973247866266529
 10
-19.01822336783736
 20
-4.981331430170653
 30
0.0
 10
-18.33406808573755
 20
-4.981331430170653
 30
0.0
 10
-17.68948507331796
 20
-4.822050197698931
 30
0.0
 10
-17.07442427908326
 20
-4.543939913069321
 30
0.0
  0
SPLINE
  5
27CC
330
1F
100
AcDbEntity
  8
AM_0
100
AcDbSpline
210
0.0
220
0.0
230
1.0
 70
     8
 71
     3
 72
     8
 73
     4
 74
     0
 42
0.0000000001
 43
0.0000000001
 40
0.1383879590723462
 40
0.1383879590723462
 40
0.1383879590723462
 40
0.1383879590723462
 40
4.12619780763684
 40
4.12619780763684
 40
4.12619780763684
 40
4.12619780763684
 10
-19.16193332009219
 20
-4.9789951062119
 30
0.0
 10
-20.53345066525031
 20
-4.934246544555733
 30
0.0
 10
-21.74622612931832
 20
-4.250550490898226
 30
0.0
 10
-22.88321167882253
 20
-3.261794578449784
 30
0.0
  0
SPLINE
  5
27CD
330
1F
100
AcDbEntity
  8
AM_0
100
AcDbSpline
210
0.0
220
0.0
230
1.0
 70
     8
 71
     3
 72
     8
 73
     4
 74
     0
 42
0.0000000001
 43
0.0000000001
 40
0.0
 40
0.0
 40
0.0
 40
0.0
 40
1.570112951298052
 40
1.570112951298052
 40
1.570112951298052
 40
1.570112951298052
 10
-22.8492335773296
 20
-6.042320932345577
 30
0.0
 10
-22.30485134968944
 20
-6.042320932345578
 30
0.0
 10
-21.79198653966474
 20
-5.934240128706355
 30
0.0
 10
-21.30465690106819
 20
-5.73859308208574
 30
0.0
  0
SPLINE
  5
27CE
330
1F
100
AcDbEntity
  8
AM_0
100
AcDbSpline
210
0.0
220
0.0
230
1.0
 70
     8
 71
     3
 72
     8
 73
     4
 74
     0
 42
0.0000000001
 43
0.0000000001
 40
0.0
 40
0.0
 40
0.0
 40
0.0
 40
8.27212790036493
 40
8.27212790036493
 40
8.27212790036493
 40
8.27212790036493
 10
-13.70912408862518
 20
-6.042320932345578
 30
0.0
 10
-16.57719763072317
 20
-6.042320932345578
 30
0.0
 10
-18.57044188157263
 20
-3.042320932345561
 30
0.0
 10
-20.56368613242207
 20
-0.0423209323455789
 30
0.0
  0
SPLINE
  5
27CF
330
1F
100
AcDbEntity
  8
AM_0
100
AcDbSpline
210
0.0
220
0.0
230
1.0
 70
     8
 71
     3
 72
     8
 73
     4
 74
     0
 42
0.0000000001
 43
0.0000000001
 40
0.0
 40
0.0
 40
0.0
 40
0.0
 40
3.655156164497277
 40
3.655156164497277
 40
3.655156164497277
 40
3.655156164497277
 10
-18.27883211747434
 20
5.957679067654539
 30
0.0
 10
-19.54613078764741
 20
5.957679067655494
 30
0.0
 10
-20.64262440746606
 20
5.371947478432317
 30
0.0
 10
-21.64378559295513
 20
4.45929804837951
 30
0.0
  0
SPLINE
  5
27D0
330
1F
100
AcDbEntity
  8
AM_0
100
AcDbSpline
210
0.0
220
0.0
230
1.0
 70
     8
 71
     3
 72
     8
 73
     4
 74
     0
 42
0.0000000001
 43
0.0000000001
 40
5.58452476840911
 40
5.58452476840911
 40
5.58452476840911
 40
5.58452476840911
 40
8.27212790036518
 40
8.27212790036518
 40
8.27212790036518
 40
8.27212790036518
 10
-0.3120437956114898
 20
-2.863520669137855
 30
0.0
 10
-0.9896493092366862
 20
-1.991712792089797
 30
0.0
 10
-1.637251662084527
 20
-1.017016862217756
 30
0.0
 10
-2.284854014932365
 20
-0.0423209323455789
 30
0.0
  0
SPLINE
  5
27D1
330
1F
100
AcDbEntity
  8
AM_0
100
AcDbSpline
210
0.0
220
0.0
230
1.0
 70
     8
 71
     3
 72
     8
 73
     4
 74
     0
 42
0.0000000001
 43
0.0000000001
 40
6.850968446318445
 40
6.850968446318445
 40
6.850968446318445
 40
6.850968446318445
 40
8.138271981564475
 40
8.138271981564475
 40
8.138271981564475
 40
8.138271981564475
 10
-0.3093398934815446
 20
-1.390611517573311
 30
0.0
 10
-0.6314865870815197
 20
-0.9487410441030855
 30
0.0
 10
-0.9504464584203022
 20
-0.4955309882243322
 30
0.0
 10
-1.269406329759085
 20
-0.0423209323455789
 30
0.0
  0
SPLINE
  5
27D2
330
1F
100
AcDbEntity
  8
AM_0
100
AcDbSpline
210
0.0
220
0.0
230
1.0
 70
     8
 71
     3
 72
     8
 73
     4
 74
     0
 42
0.0000000001
 43
0.0000000001
 40
0.0
 40
0.0
 40
0.0
 40
0.0
 40
3.860109074512531
 40
3.860109074512531
 40
3.860109074512531
 40
3.860109074512531
 10
-0.3120437956114898
 20
5.945723795220141
 30
0.0
 10
-0.0522921932408473
 20
4.431039726074319
 30
0.0
 10
-2.267813529145362
 20
3.29738170650607
 30
0.0
 10
-3.606172514834325
 20
3.29738170650607
 30
0.0
  0
SPLINE
  5
27D3
330
1F
100
AcDbEntity
  8
AM_0
100
AcDbSpline
210
0.0
220
0.0
230
1.0
 70
     8
 71
     3
 72
     8
 73
     4
 74
     0
 42
0.0000000001
 43
0.0000000001
 40
0.2299567350972117
 40
0.2299567350972117
 40
0.2299567350972117
 40
0.2299567350972117
 40
4.912075065647881
 40
4.912075065647881
 40
4.912075065647881
 40
4.912075065647881
 10
-5.071160366079515
 20
4.890264034452679
 30
0.0
 10
-3.469359292534393
 20
4.803478969798193
 30
0.0
 10
-2.083762732804018
 20
3.846455182301173
 30
0.0
 10
-0.7801094890430123
 20
2.559603652650817
 30
0.0
  0
SPLINE
  5
27D4
330
1F
100
AcDbEntity
  8
AM_0
100
AcDbSpline
210
0.0
220
0.0
230
1.0
 70
     8
 71
     3
 72
     8
 73
     4
 74
     0
 42
0.0000000001
 43
0.0000000001
 40
0.0
 40
0.0
 40
0.0
 40
0.0
 40
3.655156164497277
 40
3.655156164497277
 40
3.655156164497277
 40
3.655156164497277
 10
0.0000000000148846
 20
5.957679067654539
 30
0.0
 10
-1.267298670157703
 20
5.957679067655496
 30
0.0
 10
-2.363792289976823
 20
5.371947478432317
 30
0.0
 10
-3.364953475465902
 20
4.45929804837951
 30
0.0
  0
SPLINE
  5
27D5
330
1F
100
AcDbEntity
  8
AM_0
100
AcDbSpline
210
0.0
220
0.0
230
1.0
 70
     8
 71
     3
 72
     8
 73
     4
 74
     0
 42
0.0000000001
 43
0.0000000001
 40
0.0
 40
0.0
 40
0.0
 40
0.0
 40
8.272127900365285
 40
8.272127900365285
 40
8.272127900365285
 40
8.272127900365285
 10
-9.139416058729734
 20
5.957679067654539
 30
0.0
 10
-6.27134251663161
 20
5.957679067654539
 30
0.0
 10
-4.27809826578199
 20
2.95767906765454
 30
0.0
 10
-2.284854014932365
 20
-0.0423209323454425
 30
0.0
  0
SPLINE
  5
27D6
330
1F
100
AcDbEntity
  8
AM_0
100
AcDbSpline
210
0.0
220
0.0
230
1.0
 70
     8
 71
     3
 72
     8
 73
     4
 74
     0
 42
0.0000000001
 43
0.0000000001
 40
0.5179125576517913
 40
0.5179125576517913
 40
0.5179125576517913
 40
0.5179125576517913
 40
8.138271981564475
 40
8.138271981564475
 40
8.138271981564475
 40
8.138271981564475
 10
-7.594839382452252
 20
5.653951217388288
 30
0.0
 10
-5.045654580242259
 20
5.323349907154848
 30
0.0
 10
-3.157530455000435
 20
2.640514487404693
 30
0.0
 10
-1.269406329759085
 20
-0.042320932345306
 30
0.0
  0
SPLINE
  5
27D7
330
1F
100
AcDbEntity
  8
AM_0
100
AcDbSpline
210
0.0
220
0.0
230
1.0
 70
     8
 71
     3
 72
     8
 73
     4
 74
     0
 42
0.0000000001
 43
0.0000000001
 40
0.6397612841816997
 40
0.6397612841816997
 40
0.6397612841816997
 40
0.6397612841816997
 40
6.972227720174165
 40
6.972227720174165
 40
6.972227720174165
 40
6.972227720174165
 10
-6.198475161878263
 20
5.221782942486556
 30
0.0
 10
-4.089507124813055
 20
4.894016984951846
 30
0.0
 10
-2.391115003876747
 20
3.012205348114999
 30
0.0
 10
-0.7471459562541327
 20
0.924400279577107
 30
0.0
  0
SPLINE
  5
27D8
330
1F
100
AcDbEntity
  8
AM_0
100
AcDbSpline
210
0.0
220
0.0
230
1.0
 70
     8
 71
     3
 72
     8
 73
     4
 74
     0
 42
0.0000000001
 43
0.0000000001
 40
0.0
 40
0.0
 40
0.0
 40
0.0
 40
0.0092824582075338
 40
0.0092824582075338
 40
0.0092824582075338
 40
0.0092824582075338
 10
-0.7390445353679869
 20
-4.981331430170653
 30
0.0
 10
-0.7358261648212733
 20
-4.981331430170653
 30
0.0
 10
-0.7326086699717241
 20
-4.981327905428528
 30
0.0
 10
-0.7293920497721065
 20
-4.981320860155561
 30
0.0
  0
SPLINE
  5
27D9
330
1F
100
AcDbEntity
  8
AM_0
100
AcDbSpline
210
0.0
220
0.0
230
1.0
 70
     8
 71
     3
 72
     8
 73
     4
 74
     0
 42
0.0000000001
 43
0.0000000001
 40
0.0
 40
0.0
 40
0.0
 40
0.0
 40
1.512029330426235
 40
1.512029330426235
 40
1.512029330426235
 40
1.512029330426235
 10
-2.280905734248701
 20
-5.356790537004721
 30
0.0
 10
-1.756662758550236
 20
-5.355753760948832
 30
0.0
 10
-1.258022563371354
 20
-5.258401787710031
 30
0.0
 10
-0.7801094890430123
 20
-5.083076379897178
 30
0.0
  0
SPLINE
  5
27DA
330
1F
100
AcDbEntity
  8
AM_0
100
AcDbSpline
210
0.0
220
0.0
230
1.0
 70
     8
 71
     3
 72
     8
 73
     4
 74
     0
 42
0.0000000001
 43
0.0000000001
 40
0.0
 40
0.0
 40
0.0
 40
0.0
 40
1.981387939834528
 40
1.981387939834528
 40
1.981387939834528
 40
1.981387939834528
 10
-3.554260344706337
 20
-5.772665949717689
 30
0.0
 10
-2.867282774325655
 20
-5.772665949717552
 30
0.0
 10
-2.228034627227029
 20
-5.602831649504365
 30
0.0
 10
-1.62489543853968
 20
-5.304511831101477
 30
0.0
  0
SPLINE
  5
27DB
330
1F
100
AcDbEntity
  8
AM_0
100
AcDbSpline
210
0.0
220
0.0
230
1.0
 70
     8
 71
     3
 72
     8
 73
     4
 74
     0
 42
0.0000000001
 43
0.0000000001
 40
0.0
 40
0.0
 40
0.0
 40
0.0
 40
1.570112951298052
 40
1.570112951298052
 40
1.570112951298052
 40
1.570112951298052
 10
-4.569708029880093
 20
-6.042320932345577
 30
0.0
 10
-4.025325802239938
 20
-6.042320932345577
 30
0.0
 10
-3.512460992215245
 20
-5.934240128706355
 30
0.0
 10
-3.025131353618692
 20
-5.73859308208574
 30
0.0
  0
SPLINE
  5
27DC
330
1F
100
AcDbEntity
  8
AM_0
100
AcDbSpline
210
0.0
220
0.0
230
1.0
 70
     8
 71
     3
 72
     8
 73
     4
 74
     0
 42
0.0000000001
 43
0.0000000001
 40
0.0
 40
0.0
 40
0.0
 40
0.0
 40
1.973247866266529
 40
1.973247866266529
 40
1.973247866266529
 40
1.973247866266529
 10
-9.878460594112606
 20
-4.981331430170653
 30
0.0
 10
-9.194305312012808
 20
-4.981331430170653
 30
0.0
 10
-8.549722299593215
 20
-4.822050197698931
 30
0.0
 10
-7.934661505358516
 20
-4.543939913069321
 30
0.0
  0
SPLINE
  5
27DD
330
1F
100
AcDbEntity
  8
AM_0
100
AcDbSpline
210
0.0
220
0.0
230
1.0
 70
     8
 71
     3
 72
    10
 73
     6
 74
     0
 42
0.0000000001
 43
0.0000000001
 40
0.0
 40
0.0
 40
0.0
 40
0.0
 40
1.624816058741878
 40
2.635428435777873
 40
3.678161543961334
 40
3.678161543961334
 40
3.678161543961334
 40
3.678161543961334
 10
-1.161301776108319
 20
-4.413857196524973
 30
0.0
 10
-1.706314848883816
 20
-4.24939169902564
 30
0.0
 10
-2.437957661236167
 20
-4.016018279413172
 30
0.0
 10
-4.067065776045888
 20
-3.210507588552017
 30
0.0
 10
-3.132616808172198
 20
-2.234009106570958
 30
0.0
 10
-2.774055726511356
 20
-2.287366394995966
 30
0.0
  0
SPLINE
  5
27DE
330
1F
100
AcDbEntity
  8
AM_0
100
AcDbSpline
210
0.0
220
0.0
230
1.0
 70
     8
 71
     3
 72
     8
 73
     4
 74
     0
 42
0.0000000001
 43
0.0000000001
 40
0.0
 40
0.0
 40
0.0
 40
0.0
 40
8.138271981564608
 40
8.138271981564608
 40
8.138271981564608
 40
8.138271981564608
 10
-3.554260344706337
 20
-5.772665949717689
 30
0.0
 10
-6.375923987950199
 20
-5.772665949717689
 30
0.0
 10
-8.392373188226951
 20
-2.907493441031633
 30
0.0
 10
-10.4088223885037
 20
-0.0423209323455789
 30
0.0
  0
SPLINE
  5
27DF
330
1F
100
AcDbEntity
  8
AM_0
100
AcDbSpline
210
0.0
220
0.0
230
1.0
 70
     8
 71
     3
 72
     8
 73
     4
 74
     0
 42
0.0000000001
 43
0.0000000001
 40
0.0
 40
0.0
 40
0.0
 40
0.0
 40
7.939880490758586
 40
7.939880490758586
 40
7.939880490758586
 40
7.939880490758586
 10
-2.280905734248701
 20
-5.356790537004858
 30
0.0
 10
-5.033784006592647
 20
-5.356790537004858
 30
0.0
 10
-7.084625892319121
 20
-2.699555734675218
 30
0.0
 10
-9.135467778045592
 20
-0.0423209323455789
 30
0.0
  0
SPLINE
  5
27E0
330
1F
100
AcDbEntity
  8
AM_0
100
AcDbSpline
210
0.0
220
0.0
230
1.0
 70
     8
 71
     3
 72
     8
 73
     4
 74
     0
 42
0.0000000001
 43
0.0000000001
 40
0.1383879590723462
 40
0.1383879590723462
 40
0.1383879590723462
 40
0.1383879590723462
 40
7.769701155129346
 40
7.769701155129346
 40
7.769701155129346
 40
7.769701155129346
 10
-0.8824077726426871
 20
-4.9789951062119
 30
0.0
 10
-3.507025999736417
 20
-4.893361562477579
 30
0.0
 10
-5.55031628945041
 20
-2.467841247411511
 30
0.0
 10
-7.59360657916488
 20
-0.0423209323455789
 30
0.0
  0
SPLINE
  5
27E1
330
1F
100
AcDbEntity
  8
AM_0
100
AcDbSpline
210
0.0
220
0.0
230
1.0
 70
     8
 71
     3
 72
     8
 73
     4
 74
     0
 42
0.0000000001
 43
0.0000000001
 40
0.0
 40
0.0
 40
0.0
 40
0.0
 40
1.570112951298052
 40
1.570112951298052
 40
1.570112951298052
 40
1.570112951298052
 10
-13.70912408862518
 20
-6.042320932345578
 30
0.0
 10
-13.16474186098503
 20
-6.042320932345577
 30
0.0
 10
-12.65187705096033
 20
-5.934240128706355
 30
0.0
 10
-12.16454741236378
 20
-5.73859308208574
 30
0.0
  0
SPLINE
  5
27E2
330
1F
100
AcDbEntity
  8
AM_0
100
AcDbSpline
210
0.0
220
0.0
230
1.0
 70
     8
 71
     3
 72
     8
 73
     4
 74
     0
 42
0.0000000001
 43
0.0000000001
 40
0.0
 40
0.0
 40
0.0
 40
0.0
 40
8.138271981564608
 40
8.138271981564608
 40
8.138271981564608
 40
8.138271981564608
 10
-12.69367640345143
 20
-5.772665949717689
 30
0.0
 10
-15.51534004669528
 20
-5.772665949717689
 30
0.0
 10
-17.53178924697204
 20
-2.907493441031633
 30
0.0
 10
-19.54823844724879
 20
-0.0423209323455789
 30
0.0
  0
SPLINE
  5
27E3
330
1F
100
AcDbEntity
  8
AM_0
100
AcDbSpline
210
0.0
220
0.0
230
1.0
 70
     8
 71
     3
 72
     8
 73
     4
 74
     0
 42
0.0000000001
 43
0.0000000001
 40
0.0
 40
0.0
 40
0.0
 40
0.0
 40
7.939880490758586
 40
7.939880490758586
 40
7.939880490758586
 40
7.939880490758586
 10
-11.42032179299379
 20
-5.356790537004858
 30
0.0
 10
-14.17320006533774
 20
-5.356790537004858
 30
0.0
 10
-16.22404195106421
 20
-2.699555734675218
 30
0.0
 10
-18.27488383679067
 20
-0.0423209323455789
 30
0.0
  0
SPLINE
  5
27E4
330
1F
100
AcDbEntity
  8
AM_0
100
AcDbSpline
210
0.0
220
0.0
230
1.0
 70
     8
 71
     3
 72
     8
 73
     4
 74
     0
 42
0.0000000001
 43
0.0000000001
 40
0.0
 40
0.0
 40
0.0
 40
0.0
 40
7.769701155129467
 40
7.769701155129467
 40
7.769701155129467
 40
7.769701155129467
 10
-9.878460594112606
 20
-4.981331430170653
 30
0.0
 10
-12.57233508220556
 20
-4.981331430170653
 30
0.0
 10
-14.65267886005776
 20
-2.511826181258116
 30
0.0
 10
-16.73302263790997
 20
-0.0423209323455789
 30
0.0
  0
SPLINE
  5
27E5
330
1F
100
AcDbEntity
  8
AM_0
100
AcDbSpline
210
0.0
220
0.0
230
1.0
 70
     8
 71
     3
 72
     8
 73
     4
 74
     0
 42
0.0000000001
 43
0.0000000001
 40
0.0
 40
0.0
 40
0.0
 40
0.0
 40
1.797818050668038
 40
1.797818050668038
 40
1.797818050668038
 40
1.797818050668038
 10
-11.42032179299379
 20
-5.356790537004721
 30
0.0
 10
-10.79699163286963
 20
-5.355557799867879
 30
0.0
 10
-10.20985727233652
 20
-5.218159946910768
 30
0.0
 10
-9.650722937925872
 20
-4.975428689439636
 30
0.0
  0
SPLINE
  5
27E6
330
1F
100
AcDbEntity
  8
AM_0
100
AcDbSpline
210
0.0
220
0.0
230
1.0
 70
     8
 71
     3
 72
     8
 73
     4
 74
     0
 42
0.0000000001
 43
0.0000000001
 40
0.0
 40
0.0
 40
0.0
 40
0.0
 40
1.981387939834528
 40
1.981387939834528
 40
1.981387939834528
 40
1.981387939834528
 10
-12.69367640345143
 20
-5.772665949717689
 30
0.0
 10
-12.00669883307075
 20
-5.772665949717552
 30
0.0
 10
-11.36745068597211
 20
-5.602831649504365
 30
0.0
 10
-10.76431149728476
 20
-5.304511831101477
 30
0.0
  0
SPLINE
  5
27E7
330
1F
100
AcDbEntity
  8
AM_0
100
AcDbSpline
210
0.0
220
0.0
230
1.0
 70
     8
 71
     3
 72
     8
 73
     4
 74
     0
 42
0.0000000001
 43
0.0000000001
 40
0.0
 40
0.0
 40
0.0
 40
0.0
 40
8.272127900365292
 40
8.272127900365292
 40
8.272127900365292
 40
8.272127900365292
 10
-4.569708029880093
 20
-6.042320932345577
 30
0.0
 10
-7.437781571978214
 20
-6.042320932345577
 30
0.0
 10
-9.431025822827834
 20
-3.042320932345579
 30
0.0
 10
-11.42427007367746
 20
-0.0423209323455789
 30
0.0
  0
SPLINE
  5
27E8
330
1F
100
AcDbEntity
  8
AM_0
100
AcDbSpline
210
0.0
220
0.0
230
1.0
 70
     8
 71
     3
 72
     8
 73
     4
 74
     0
 42
0.0000000001
 43
0.0000000001
 40
0.0
 40
0.0
 40
0.0
 40
0.0
 40
3.655156164497277
 40
3.655156164497277
 40
3.655156164497277
 40
3.655156164497277
 10
-9.139416058729734
 20
5.957679067654539
 30
0.0
 10
-10.40671472890279
 20
5.957679067655496
 30
0.0
 10
-11.50320834872144
 20
5.371947478432317
 30
0.0
 10
-12.50436953421051
 20
4.45929804837951
 30
0.0
  0
SPLINE
  5
27E9
330
1F
100
AcDbEntity
  8
AM_0
100
AcDbSpline
210
0.0
220
0.0
230
1.0
 70
     8
 71
     3
 72
     8
 73
     4
 74
     0
 42
0.0000000001
 43
0.0000000001
 40
0.6397612841816997
 40
0.6397612841816997
 40
0.6397612841816997
 40
0.6397612841816997
 40
7.939880490758838
 40
7.939880490758838
 40
7.939880490758838
 40
7.939880490758838
 10
-15.33789122062287
 20
5.221782942486556
 30
0.0
 10
-12.90665558296843
 20
4.843931660360244
 30
0.0
 10
-11.02106168050725
 20
2.40080536400746
 30
0.0
 10
-9.135467778046063
 20
-0.042320932345306
 30
0.0
  0
SPLINE
  5
27EA
330
1F
100
AcDbEntity
  8
AM_0
100
AcDbSpline
210
0.0
220
0.0
230
1.0
 70
     8
 71
     3
 72
     8
 73
     4
 74
     0
 42
0.0000000001
 43
0.0000000001
 40
0.2299567350972117
 40
0.2299567350972117
 40
0.2299567350972117
 40
0.2299567350972117
 40
7.769701155129346
 40
7.769701155129346
 40
7.769701155129346
 40
7.769701155129346
 10
-14.2105764248246
 20
4.890264034452679
 30
0.0
 10
-11.63115193068871
 20
4.750511648721472
 30
0.0
 10
-9.612379254926562
 20
2.354095358187938
 30
0.0
 10
-7.59360657916488
 20
-0.0423209323454425
 30
0.0
  0
SPLINE
  5
27EB
330
1F
100
AcDbEntity
  8
AM_0
100
AcDbSpline
210
0.0
220
0.0
230
1.0
 70
     8
 71
     3
 72
     8
 73
     4
 74
     0
 42
0.0000000001
 43
0.0000000001
 40
0.5179125576517913
 40
0.5179125576517913
 40
0.5179125576517913
 40
0.5179125576517913
 40
8.138271981564475
 40
8.138271981564475
 40
8.138271981564475
 40
8.138271981564475
 10
-16.73425544119687
 20
5.653951217388288
 30
0.0
 10
-14.18507063898734
 20
5.323349907154848
 30
0.0
 10
-12.29694651374553
 20
2.640514487404693
 30
0.0
 10
-10.4088223885037
 20
-0.042320932345306
 30
0.0
  0
SPLINE
  5
27EC
330
1F
100
AcDbEntity
  8
AM_0
100
AcDbSpline
210
0.0
220
0.0
230
1.0
 70
     8
 71
     3
 72
     8
 73
     4
 74
     0
 42
0.0000000001
 43
0.0000000001
 40
0.0
 40
0.0
 40
0.0
 40
0.0
 40
8.272127900364923
 40
8.272127900364923
 40
8.272127900364923
 40
8.272127900364923
 10
-18.27883211747434
 20
5.957679067654539
 30
0.0
 10
-15.41075857537634
 20
5.957679067654539
 30
0.0
 10
-13.4175143245269
 20
2.957679067654574
 30
0.0
 10
-11.42427007367746
 20
-0.0423209323454425
 30
0.0
  0
LINE
  5
27ED
330
1F
100
AcDbEntity
  8
AM_0
100
AcDbLine
 10
-89.59374999999999
 20
5.957679067654549
 30
0.0
 11
-89.99999999999998
 21
5.582679067654549
 31
0.0
1001
GENIUS_GENFIL_13
1070
     0
1040
0.5
1040
0.5
1040
20.0
1040
0.0
1002
{
1002
}
1001
GENIUS_GENODEF_13
1002
{
1000
HIER
1070
     0
1002
}
1002
{
1000
MANEDIT
1070
     0
1002
}
1002
{
1000
NOSEL
1070
     0
1002
}
1002
{
1000
BEHIND
1070
     0
1002
}
1002
{
1000
REACTOR
1002
}
1001
GENIUS_GENOBJ-N-CHA_13
1002
{
1000
OWNER
1000
GEN
1002
}
  0
LINE
  5
27EE
330
1F
100
AcDbEntity
  8
AM_0
100
AcDbLine
 10
-89.59374999999999
 20
5.957679067654549
 30
0.0
 11
-89.59374999999999
 21
5.957679067654549
 31
0.0
  0
LINE
  5
27EF
330
1F
100
AcDbEntity
  8
AM_0
100
AcDbLine
 10
-89.59374999999999
 20
-6.042320932345436
 30
0.0
 11
-89.99999999999998
 21
-5.667320932345436
 31
0.0
1001
GENIUS_GENFIL_13
1070
     0
1040
0.5
1040
0.5
1040
20.0
1040
0.0
1002
{
1002
}
1001
GENIUS_GENODEF_13
1002
{
1000
HIER
1070
     0
1002
}
1002
{
1000
MANEDIT
1070
     0
1002
}
1002
{
1000
NOSEL
1070
     0
1002
}
1002
{
1000
BEHIND
1070
     0
1002
}
1002
{
1000
REACTOR
1002
}
1001
GENIUS_GENOBJ-N-CHA_13
1002
{
1000
OWNER
1000
GEN
1002
}
  0
LINE
  5
27F0
330
1F
100
AcDbEntity
  8
AM_0
100
AcDbLine
 10
-89.99999999999998
 20
5.582679067654549
 30
0.0
 11
-89.99999999999998
 21
-5.667320932345436
 31
0.0
  0
LINE
  5
27F1
330
1F
100
AcDbEntity
  8
AM_0
100
AcDbLine
 10
-89.59374999999999
 20
5.957679067654549
 30
0.0
 11
-89.59374999999999
 21
-6.042320932345436
 31
0.0
  0
LINE
  5
27F2
330
1F
100
AcDbEntity
  8
AM_0
100
AcDbLine
 10
-25.87367149994149
 20
5.957679067654544
 30
0.0
 11
-89.59374999999999
 21
5.957679067654549
 31
0.0
  0
LINE
  5
27F3
330
1F
100
AcDbEntity
  8
AM_0
100
AcDbLine
 10
-89.59374999999999
 20
-6.042320932345436
 30
0.0
 11
-24.6723956405612
 21
-6.042320932345439
 31
0.0
  0
LINE
  5
27FA
330
1F
100
AcDbEntity
  8
AM_7
100
AcDbLine
 10
2.669124952421157
 20
-0.0423209323453961
 30
0.0
 11
-92.59374999999998
 21
-0.042320932345443
 31
0.0
1001
GENIUS_GENODEF_13
1002
{
1000
HIER
1070
     0
1002
}
1002
{
1000
MANEDIT
1070
     0
1002
}
1002
{
1000
NOSEL
1070
     0
1002
}
1002
{
1000
BEHIND
1070
     0
1002
}
1002
{
1000
REACTOR
1002
}
1001
GENIUS_GENOBJ-N-CEN_13
1002
{
1000
OWNER
1000
GEN
1002
}
  0
DIMENSION
  5
2846
330
1F
100
AcDbEntity
  8
AM_5
100
AcDbDimension
  2
*D8
 10
-104.0000009999999
 20
5.957679067654552
 30
0.0
 11
-107.1000009999999
 21
-0.0423209323454565
 31
0.0
 70
    32
  1
%%c<>
 51
359.9999999999998
  3
AM_JIS
100
AcDbAlignedDimension
 13
-89.59374999999999
 23
-6.042320932345437
 33
0.0
 14
-89.59374999999999
 24
5.957679067654548
 34
0.0
 50
270.0
100
AcDbRotatedDimension
1001
GENIUS_GENDTOL_13
1000

1000
h7
1000

1040
0.0
  0
VIEWPORT
  5
110
330
101
100
AcDbEntity
 67
     1
  8
0
100
AcDbViewport
 10
420.5
 20
297.0
 30
0.0
 40
948.9782706766916
 41
628.452
 68
     1
 69
     1
1001
ACAD
1000
MVIEW
1002
{
1070
    16
1010
0.0
1020
0.0
1030
0.0
1010
0.0
1020
0.0
1030
1.0
1040
0.0
1040
628.452
1040
420.5
1040
297.0
1040
50.0
1040
0.0
1040
0.0
1070
     0
1070
   100
1070
     1
1070
     1
1070
     0
1070
     0
1070
     0
1070
     0
1040
0.0
1040
0.0
1040
0.0
1040
10.0
1040
10.0
1040
10.0
1040
10.0
1070
     0
1002
{
1002
}
1002
}
  0
ENDSEC
  0
SECTION
  2
OBJECTS
  0
DICTIONARY
  5
C
330
0
100
AcDbDictionary
  3
ACAD_GROUP
350
D
  3
ACAD_LAYOUT
350
1A
  3
ACAD_MLINESTYLE
350
17
  3
ACAD_PLOTSETTINGS
350
19
  3
ACAD_PLOTSTYLENAME
350
E
  3
ACDBVARIABLEDICTIONARY
350
34
  3
ACMDICTIONARY
350
43
  3
AMG
350
2B
  3
AMGSNAPSETTINGS
350
6E
  3
DWGPROPS
350
28DB
  3
ACDBHEADERROUNDTRIPXREC
350
28E8
  0
DICTIONARY
  5
74
330
1F
100
AcDbDictionary
280
     1
  3
ACAD_INDEX
360
28DD
  3
ACAD_LAYOUTSELFREF
360
290B
  0
DICTIONARY
  5
2910
330
101
100
AcDbDictionary
280
     1
  3
ACAD_LAYOUTSELFREF
360
2911
  0
DICTIONARY
  5
D
102
{ACAD_REACTORS
330
C
102
}
330
C
100
AcDbDictionary
  0
DICTIONARY
  5
1A
102
{ACAD_REACTORS
330
C
102
}
330
C
100
AcDbDictionary
  0
DICTIONARY
  5
17
102
{ACAD_REACTORS
330
C
102
}
330
C
100
AcDbDictionary
  3
STANDARD
350
18
  0
DICTIONARY
  5
19
102
{ACAD_REACTORS
330
C
102
}
330
C
100
AcDbDictionary
  0
ACDBDICTIONARYWDFLT
  5
E
102
{ACAD_REACTORS
330
C
102
}
330
C
100
AcDbDictionary
281
     1
  3
Normal
350
F
100
AcDbDictionaryWithDefault
340
F
  0
DICTIONARY
  5
34
102
{ACAD_REACTORS
330
C
102
}
330
C
100
AcDbDictionary
  3
INDEXCTL
350
35
  3
SORTENTS
350
B5E
  0
DICTIONARY
  5
43
102
{ACAD_REACTORS
330
C
102
}
330
C
100
AcDbDictionary
  3
ACMSTDDICTIONARY
350
260
  0
DICTIONARY
  5
2B
102
{ACAD_REACTORS
330
C
102
}
330
C
100
AcDbDictionary
  3
ACMGSETTINGS
350
2C
  0
DICTIONARY
  5
6E
102
{ACAD_REACTORS
330
C
102
}
330
C
100
AcDbDictionary
  0
XRECORD
  5
28DB
102
{ACAD_REACTORS
330
C
102
}
330
C
100
AcDbXrecord
  1
DWGPROPS COOKIE
  2

  3

  4

  6

  7

  8

  9

300
AmdtFileType=82
301
=
302
=
303
=
304
=
305
=
306
=
307
=
308
=
309
=
 40
0.123644375
 41
2452808.461142939
 42
2452844.410314479
  1

 90
        1
  0
DICTIONARY
  5
28E8
102
{ACAD_REACTORS
330
C
102
}
330
C
100
AcDbDictionary
  3
TSTACKALIGN
350
28E9
  3
TSTACKSIZE
350
28EA
  3
HYPERLINKBASE
350
28EB
  3
STYLESHEET
350
28EC
  3
LAYOUTDICT
350
28ED
  3
PLOTSETDICT
350
28EE
  3
PLOTSTYLNAMDICT
350
28EF
  3
LWETCUNION
350
28F0
  3
INSUNITS
350
28F1
  3
CEPSNTYPE
350
28F2
  3
FINGERPRINTGUID
350
28F3
  3
VERSIONGUID
350
28F4
  3
PSVPSCALE
350
28F5
  3
DIMSTYLEDATA
350
28F6
  3
PUCSORTHOREF
350
28F7
  3
PUCSORTHOVIEW
350
28F8
  3
PUCSBASE
350
28F9
  3
PUCSORGTOP
350
28FA
  3
PUCSORGBOTTOM
350
28FB
  3
PUCSORGLEFT
350
28FC
  3
PUCSORGRIGHT
350
28FD
  3
PUCSORGFRONT
350
28FE
  3
PUCSORGBACK
350
28FF
  3
UCSORTHOREF
350
2900
  3
UCSORTHOVIEW
350
2901
  3
UCSBASE
350
2902
  3
UCSORGTOP
350
2903
  3
UCSORGBOTTOM
350
2904
  3
UCSORGLEFT
350
2905
  3
UCSORGRIGHT
350
2906
  3
UCSORGFRONT
350
2907
  3
UCSORGBACK
350
2908
  0
DICTIONARY
  5
28DD
102
{ACAD_REACTORS
330
74
102
}
330
74
100
AcDbDictionary
  3
*A1
350
28DE
  0
XRECORD
  5
290B
102
{ACAD_REACTORS
330
74
102
}
330
74
100
AcDbXrecord
340
1F
  0
XRECORD
  5
2911
102
{ACAD_REACTORS
330
2910
102
}
330
2910
100
AcDbXrecord
340
101
  0
MLINESTYLE
  5
18
102
{ACAD_REACTORS
330
17
102
}
330
17
100
AcDbMlineStyle
  2
STANDARD
 70
     0
  3

 62
   256
 51
90.0
 52
90.0
 71
     2
 49
0.5
 62
   256
  6
BYLAYER
 49
-0.5
 62
   256
  6
BYLAYER
  0
ACDBPLACEHOLDER
  5
F
102
{ACAD_REACTORS
330
E
102
}
330
E
100
AcDbPlaceHolder
280
     0
  0
DICTIONARYVAR
  5
35
102
{ACAD_REACTORS
330
34
102
}
330
34
100
DictionaryVariables
280
     0
  1
1
  0
DICTIONARYVAR
  5
B5E
102
{ACAD_REACTORS
330
34
102
}
330
34
100
DictionaryVariables
280
     0
  1
96
  0
DICTIONARY
  5
260
102
{ACAD_REACTORS
330
43
102
}
330
43
100
AcDbDictionary
  0
DICTIONARY
  5
2C
102
{ACAD_REACTORS
330
2B
102
}
330
2B
100
AcDbDictionary
  3
DWGSETTINGS
350
2D
  0
XRECORD
  5
28E9
102
{ACAD_REACTORS
330
28E8
102
}
330
28E8
100
AcDbXrecord
 90
        1
  0
XRECORD
  5
28EA
102
{ACAD_REACTORS
330
28E8
102
}
330
28E8
100
AcDbXrecord
 90
       70
  0
XRECORD
  5
28EB
102
{ACAD_REACTORS
330
28E8
102
}
330
28E8
100
AcDbXrecord
  1

  0
XRECORD
  5
28EC
102
{ACAD_REACTORS
330
28E8
102
}
330
28E8
100
AcDbXrecord
  1
ASAMI.ctb
  0
XRECORD
  5
28ED
102
{ACAD_REACTORS
330
28E8
102
}
330
28E8
100
AcDbXrecord
340
1A
  0
XRECORD
  5
28EE
102
{ACAD_REACTORS
330
28E8
102
}
330
28E8
100
AcDbXrecord
340
19
  0
XRECORD
  5
28EF
102
{ACAD_REACTORS
330
28E8
102
}
330
28E8
100
AcDbXrecord
340
E
  0
XRECORD
  5
28F0
102
{ACAD_REACTORS
330
28E8
102
}
330
28E8
100
AcDbXrecord
 90
    10781
  0
XRECORD
  5
28F1
102
{ACAD_REACTORS
330
28E8
102
}
330
28E8
100
AcDbXrecord
 90
        4
  0
XRECORD
  5
28F2
102
{ACAD_REACTORS
330
28E8
102
}
330
28E8
100
AcDbXrecord
 90
        0
  0
XRECORD
  5
28F3
102
{ACAD_REACTORS
330
28E8
102
}
330
28E8
100
AcDbXrecord
  1
{AFB28963-8C59-40AE-9337-C84526B81ACE}
  0
XRECORD
  5
28F4
102
{ACAD_REACTORS
330
28E8
102
}
330
28E8
100
AcDbXrecord
  1
{D565281F-9B7B-471C-8278-E8758D561F8F}
  0
XRECORD
  5
28F5
102
{ACAD_REACTORS
330
28E8
102
}
330
28E8
100
AcDbXrecord
 40
0.0
  0
XRECORD
  5
28F6
102
{ACAD_REACTORS
330
28E8
102
}
330
28E8
100
AcDbXrecord
1000
DSTYLE
1002
{
1070
    79
 70
     2
1070
   341
340
59
1070
   342
340
59
1070
   371
 70
    -1
1070
   372
 70
    -1
1002
}
  0
XRECORD
  5
28F7
102
{ACAD_REACTORS
330
28E8
102
}
330
28E8
100
AcDbXrecord
340
0
  0
XRECORD
  5
28F8
102
{ACAD_REACTORS
330
28E8
102
}
330
28E8
100
AcDbXrecord
 70
     0
  0
XRECORD
  5
28F9
102
{ACAD_REACTORS
330
28E8
102
}
330
28E8
100
AcDbXrecord
340
0
  0
XRECORD
  5
28FA
102
{ACAD_REACTORS
330
28E8
102
}
330
28E8
100
AcDbXrecord
 10
0.0
 20
0.0
 30
0.0
  0
XRECORD
  5
28FB
102
{ACAD_REACTORS
330
28E8
102
}
330
28E8
100
AcDbXrecord
 10
0.0
 20
0.0
 30
0.0
  0
XRECORD
  5
28FC
102
{ACAD_REACTORS
330
28E8
102
}
330
28E8
100
AcDbXrecord
 10
0.0
 20
0.0
 30
0.0
  0
XRECORD
  5
28FD
102
{ACAD_REACTORS
330
28E8
102
}
330
28E8
100
AcDbXrecord
 10
0.0
 20
0.0
 30
0.0
  0
XRECORD
  5
28FE
102
{ACAD_REACTORS
330
28E8
102
}
330
28E8
100
AcDbXrecord
 10
0.0
 20
0.0
 30
0.0
  0
XRECORD
  5
28FF
102
{ACAD_REACTORS
330
28E8
102
}
330
28E8
100
AcDbXrecord
 10
0.0
 20
0.0
 30
0.0
  0
XRECORD
  5
2900
102
{ACAD_REACTORS
330
28E8
102
}
330
28E8
100
AcDbXrecord
340
0
  0
XRECORD
  5
2901
102
{ACAD_REACTORS
330
28E8
102
}
330
28E8
100
AcDbXrecord
 70
     0
  0
XRECORD
  5
2902
102
{ACAD_REACTORS
330
28E8
102
}
330
28E8
100
AcDbXrecord
340
0
  0
XRECORD
  5
2903
102
{ACAD_REACTORS
330
28E8
102
}
330
28E8
100
AcDbXrecord
 10
0.0
 20
0.0
 30
0.0
  0
XRECORD
  5
2904
102
{ACAD_REACTORS
330
28E8
102
}
330
28E8
100
AcDbXrecord
 10
0.0
 20
0.0
 30
0.0
  0
XRECORD
  5
2905
102
{ACAD_REACTORS
330
28E8
102
}
330
28E8
100
AcDbXrecord
 10
0.0
 20
0.0
 30
0.0
  0
XRECORD
  5
2906
102
{ACAD_REACTORS
330
28E8
102
}
330
28E8
100
AcDbXrecord
 10
0.0
 20
0.0
 30
0.0
  0
XRECORD
  5
2907
102
{ACAD_REACTORS
330
28E8
102
}
330
28E8
100
AcDbXrecord
 10
0.0
 20
0.0
 30
0.0
  0
XRECORD
  5
2908
102
{ACAD_REACTORS
330
28E8
102
}
330
28E8
100
AcDbXrecord
 10
0.0
 20
0.0
 30
0.0
  0
LAYER_INDEX
  5
28DE
102
{ACAD_REACTORS
330
28DD
102
}
330
28DD
100
AcDbIndex
 40
2452844.458946574
100
AcDbLayerIndex
  8
0
360
28DF
 90
        0
  8
AM_0
360
28E0
 90
       67
  8
AM_11
360
28E1
 90
        4
  8
AM_6
360
28E2
 90
        1
  8
AM_7
360
28E3
 90
        1
  8
AM_5
360
28E4
 90
        4
  8
Defpoints
360
28E5
 90
        0
  8
AM_CL
360
28E6
 90
        0
  0
XRECORD
  5
2D
102
{ACAD_REACTORS
330
2C
102
}
330
2C
100
AcDbXrecord
  1
VERSION
140
15.0
  1
PRODUCT
  2
AutoCAD Mechanical 2000
  0
IDBUFFER
  5
28DF
330
0
100
AcDbIdBuffer
  0
IDBUFFER
  5
28E0
330
0
100
AcDbIdBuffer
330
27E1
330
27E2
330
27E3
330
27E4
330
27E5
330
27E6
330
27E7
330
27E8
330
27E9
330
27EA
330
27EB
330
27EC
330
27ED
330
27EE
330
27EF
330
27F0
330
27F1
330
27F2
330
27F3
330
27A3
330
27A4
330
27A5
330
27A6
330
27A7
330
27A8
330
27A9
330
27AA
330
27AB
330
27AC
330
27AD
330
27AE
330
27AF
330
27B0
330
27B1
330
27B2
330
27B3
330
27C2
330
27C3
330
27C4
330
27C5
330
27C6
330
27C7
330
27C8
330
27C9
330
27CA
330
27CB
330
27CC
330
27CD
330
27CE
330
27CF
330
27D0
330
27D1
330
27D2
330
27D3
330
27D4
330
27D5
330
27D6
330
27D7
330
27D8
330
27D9
330
27DA
330
27DB
330
27DC
330
27DD
330
27DE
330
27DF
330
27E0
  0
IDBUFFER
  5
28E1
330
0
100
AcDbIdBuffer
330
1BCA
330
1BDE
330
1BDF
330
1BE0
  0
IDBUFFER
  5
28E2
330
0
100
AcDbIdBuffer
330
F07
  0
IDBUFFER
  5
28E3
330
0
100
AcDbIdBuffer
330
27FA
  0
IDBUFFER
  5
28E4
330
0
100
AcDbIdBuffer
330
1BE1
330
1C1B
330
1C2C
330
2846
  0
IDBUFFER
  5
28E5
330
0
100
AcDbIdBuffer
  0
IDBUFFER
  5
28E6
330
0
100
AcDbIdBuffer
  0
ENDSEC
  0
EOF
