  0
SECTION
  2
HEADER
  9
$ACADVER
  1
AC1014
  9
$ACADMAINTVER
 70
     9
  9
$DWGCODEPAGE
  3
ANSI_932
  9
$INSBASE
 10
0.0
 20
0.0
 30
0.0
  9
$EXTMIN
 10
-61.94314255754918
 20
-28.4166666666672
 30
-0.00000001
  9
$EXTMAX
 10
12.03057127860814
 20
8.014285714285898
 30
0.00000001
  9
$LIMMIN
 10
-67.75732190138786
 20
-36.94485813518233
  9
$LIMMAX
 10
21.62217816785977
 20
13.88384564893533
  9
$ORTHOMODE
 70
     0
  9
$REGENMODE
 70
     1
  9
$FILLMODE
 70
     1
  9
$QTEXTMODE
 70
     0
  9
$MIRRTEXT
 70
     0
  9
$DRAGMODE
 70
     2
  9
$LTSCALE
 40
1.0
  9
$OSMODE
 70
  2103
  9
$ATTMODE
 70
     1
  9
$TEXTSIZE
 40
2.5
  9
$TRACEWID
 40
1.0
  9
$TEXTSTYLE
  7
STANDARD
  9
$CLAYER
  8
AM_0
  9
$CELTYPE
  6
BYLAYER
  9
$CECOLOR
 62
   256
  9
$CELTSCALE
 40
1.0
  9
$DELOBJ
 70
     1
  9
$DISPSILH
 70
     0
  9
$DIMSCALE
 40
0.5
  9
$DIMASZ
 40
2.5
  9
$DIMEXO
 40
1.0
  9
$DIMDLI
 40
12.0
  9
$DIMRND
 40
0.0
  9
$DIMDLE
 40
0.0
  9
$DIMEXE
 40
1.0
  9
$DIMTP
 40
0.1
  9
$DIMTM
 40
0.1
  9
$DIMTXT
 40
3.2
  9
$DIMCEN
 40
0.0
  9
$DIMTSZ
 40
0.0
  9
$DIMTOL
 70
     0
  9
$DIMLIM
 70
     0
  9
$DIMTIH
 70
     0
  9
$DIMTOH
 70
     0
  9
$DIMSE1
 70
     0
  9
$DIMSE2
 70
     0
  9
$DIMTAD
 70
     3
  9
$DIMZIN
 70
     8
  9
$DIMBLK
  1
OPEN30
  9
$DIMASO
 70
     1
  9
$DIMSHO
 70
     1
  9
$DIMPOST
  1

  9
$DIMAPOST
  1
"
  9
$DIMALT
 70
     0
  9
$DIMALTD
 70
     2
  9
$DIMALTF
 40
0.0393701
  9
$DIMLFAC
 40
1.0
  9
$DIMTOFL
 70
     1
  9
$DIMTVP
 40
0.0
  9
$DIMTIX
 70
     0
  9
$DIMSOXD
 70
     0
  9
$DIMSAH
 70
     0
  9
$DIMBLK1
  1

  9
$DIMBLK2
  1

  9
$DIMSTYLE
  2
AM_JIS
  9
$DIMCLRD
 70
   256
  9
$DIMCLRE
 70
   256
  9
$DIMCLRT
 70
     2
  9
$DIMTFAC
 40
0.71
  9
$DIMGAP
 40
1.5
  9
$DIMJUST
 70
     0
  9
$DIMSD1
 70
     0
  9
$DIMSD2
 70
     0
  9
$DIMTOLJ
 70
     0
  9
$DIMTZIN
 70
     0
  9
$DIMALTZ
 70
     0
  9
$DIMALTTZ
 70
     0
  9
$DIMFIT
 70
     3
  9
$DIMUPT
 70
     0
  9
$DIMUNIT
 70
     2
  9
$DIMDEC
 70
     3
  9
$DIMTDEC
 70
     3
  9
$DIMALTU
 70
     2
  9
$DIMALTTD
 70
     2
  9
$DIMTXSTY
  7
ASAMI
  9
$DIMAUNIT
 70
     0
  9
$LUNITS
 70
     2
  9
$LUPREC
 70
     2
  9
$SKETCHINC
 40
1.0
  9
$FILLETRAD
 40
0.2
  9
$AUNITS
 70
     0
  9
$AUPREC
 70
     0
  9
$MENU
  1
.
  9
$ELEVATION
 40
0.0
  9
$PELEVATION
 40
0.0
  9
$THICKNESS
 40
0.0
  9
$LIMCHECK
 70
     0
  9
$BLIPMODE
 70
     0
  9
$CHAMFERA
 40
0.5
  9
$CHAMFERB
 40
0.5
  9
$CHAMFERC
 40
20.0
  9
$CHAMFERD
 40
0.0
  9
$SKPOLY
 70
     0
  9
$TDCREATE
 40
2452809.403188831
  9
$TDUPDATE
 40
2452844.463651076
  9
$TDINDWG
 40
0.0679374537
  9
$TDUSRTIMER
 40
0.0679374537
  9
$USRTIMER
 70
     1
  9
$ANGBASE
 50
0.0
  9
$ANGDIR
 70
     0
  9
$PDMODE
 70
     0
  9
$PDSIZE
 40
0.0
  9
$PLINEWID
 40
0.0
  9
$COORDS
 70
     2
  9
$SPLFRAME
 70
     0
  9
$SPLINETYPE
 70
     6
  9
$SPLINESEGS
 70
     8
  9
$ATTDIA
 70
     1
  9
$ATTREQ
 70
     1
  9
$HANDLING
 70
 12289
  9
$HANDSEED
  5
2546
  9
$SURFTAB1
 70
     6
  9
$SURFTAB2
 70
     6
  9
$SURFTYPE
 70
     6
  9
$SURFU
 70
     6
  9
$SURFV
 70
     6
  9
$UCSNAME
  2

  9
$UCSORG
 10
0.0
 20
0.0000000000000011
 30
0.0
  9
$UCSXDIR
 10
1.0
 20
0.0
 30
0.0
  9
$UCSYDIR
 10
0.0
 20
1.0
 30
0.0
  9
$PUCSNAME
  2

  9
$PUCSORG
 10
0.0
 20
0.0
 30
0.0
  9
$PUCSXDIR
 10
1.0
 20
0.0
 30
0.0
  9
$PUCSYDIR
 10
0.0
 20
1.0
 30
0.0
  9
$USERI1
 70
     0
  9
$USERI2
 70
     0
  9
$USERI3
 70
     0
  9
$USERI4
 70
     0
  9
$USERI5
 70
     0
  9
$USERR1
 40
0.0
  9
$USERR2
 40
0.0
  9
$USERR3
 40
0.0
  9
$USERR4
 40
0.0
  9
$USERR5
 40
0.0
  9
$WORLDVIEW
 70
     1
  9
$SHADEDGE
 70
     3
  9
$SHADEDIF
 70
    70
  9
$TILEMODE
 70
     1
  9
$MAXACTVP
 70
    64
  9
$PINSBASE
 10
0.0
 20
0.0
 30
0.0
  9
$PLIMCHECK
 70
     0
  9
$PEXTMIN
 10
1.000000000000000E+20
 20
1.000000000000000E+20
 30
1.000000000000000E+20
  9
$PEXTMAX
 10
-1.000000000000000E+20
 20
-1.000000000000000E+20
 30
-1.000000000000000E+20
  9
$PLIMMIN
 10
0.0
 20
0.0
  9
$PLIMMAX
 10
841.0
 20
594.0
  9
$UNITMODE
 70
     0
  9
$VISRETAIN
 70
     1
  9
$PLINEGEN
 70
     0
  9
$PSLTSCALE
 70
     0
  9
$TREEDEPTH
 70
  3020
  9
$PICKSTYLE
 70
     0
  9
$CMLSTYLE
  2
STANDARD
  9
$CMLJUST
 70
     0
  9
$CMLSCALE
 40
20.0
  9
$PROXYGRAPHICS
 70
     1
  9
$MEASUREMENT
 70
     1
  0
ENDSEC
  0
SECTION
  2
CLASSES
  0
CLASS
  1
ACDBDICTIONARYWDFLT
  2
AcDbDictionaryWithDefault
  3
AutoCAD 2000
 90
        0
280
     0
281
     0
  0
CLASS
  1
ACDBPLACEHOLDER
  2
AcDbPlaceHolder
  3
AutoCAD 2000
 90
        0
280
     0
281
     0
  0
CLASS
  1
LAYOUT
  2
AcDbLayout
  3
AutoCAD 2000
 90
        0
280
     0
281
     0
  0
CLASS
  1
AMGSETTINGSOBJ
  2
AmgSettingsObj
  3
"AcadM|Product Description: AutoCAD Mechanical 2000|Company: Autodesk"
 90
        0
280
     0
281
     0
  0
CLASS
  1
ACME_DOCUMENT
  2
AcMeDbDoc
  3
AcMeServices
 90
        0
280
     0
281
     0
  0
CLASS
  1
ACMESCOPE
  2
AcMeScope
  3
AcMeServices
 90
        0
280
     0
281
     0
  0
CLASS
  1
ACMECOMMANDHISTORY
  2
AcMeCommandHistory
  3
AcMeServices
 90
        0
280
     0
281
     0
  0
CLASS
  1
DICTIONARYVAR
  2
AcDbDictionaryVar
  3
AutoCAD 2000
 90
        0
280
     0
281
     0
  0
CLASS
  1
ACIMSYSVARMAN
  2
AcImSysVarManager
  3
AcMeServices
 90
        0
280
     0
281
     0
  0
CLASS
  1
ACIMREALSYSVAR
  2
AcImRealSysVar
  3
AcMeServices
 90
        0
280
     0
281
     0
  0
CLASS
  1
ACIMINTSYSVAR
  2
AcImIntSysVar
  3
AcMeServices
 90
        0
280
     0
281
     0
  0
CLASS
  1
ACMEDRAWINGMAN
  2
AcMeDrawingMan
  3
AcMeServices
 90
        0
280
     0
281
     0
  0
CLASS
  1
ACMEVIEW
  2
AcMeView
  3
AcMeServices
 90
        0
280
     0
281
     0
  0
CLASS
  1
ACDBENTITYCACHE
  2
AcMeEntityCache
  3
AcMeServices
 90
        0
280
     0
281
     0
  0
CLASS
  1
GSMANAGER
  2
AcMeGSManager
  3
AcMeServices
 90
        0
280
     0
281
     0
  0
CLASS
  1
AmdtInternalReactor
  2
AmdtInternalReactor
  3
AcMeServices
 90
        0
280
     0
281
     0
  0
CLASS
  1
ACMESTATEMGR
  2
AcMeStateMgr
  3
AcMeServices
 90
        0
280
     0
281
     0
  0
CLASS
  1
ACME_DATABASE
  2
AcMeDbDatabase
  3
AcMeServices
 90
        0
280
     0
281
     0
  0
CLASS
  1
ACRFINSADJUSTERMGR
  2
AcRfInsAdjusterMgr
  3
AcMeServices
 90
        0
280
     0
281
     0
  0
CLASS
  1
ACMDATADICTIONARY
  2
AcmDataDictionary
  3
"AcmSymBB|Product Description: AutoCAD Mechanical 2000|Company: Autodesk"
 90
        0
280
     0
281
     0
  0
CLASS
  1
ACMDATAENTRYBLOCK
  2
AcmDataEntryBlock
  3
"AcmSymBB|Product Description: AutoCAD Mechanical 2000|Company: Autodesk"
 90
        0
280
     0
281
     0
  0
CLASS
  1
AMGOBJPROPCFG
  2
AmgObjPropCfg
  3
"AmgLay|Product Description: AutoCAD Mechanical 2000|Company: Autodesk"
 90
        1
280
     0
281
     0
  0
CLASS
  1
ACAMGFILTERDAT
  2
AcAmgFilterDat
  3
"AcadM|Product Description: AutoCAD Mechanical 2000|Company: Autodesk"
 90
        0
280
     0
281
     0
  0
CLASS
  1
LAYER_INDEX
  2
AcDbLayerIndex
  3
AutoCAD 2000
 90
        0
280
     0
281
     0
  0
CLASS
  1
IDBUFFER
  2
AcDbIdBuffer
  3
AutoCAD 2000
 90
        0
280
     0
281
     0
  0
CLASS
  1
ACIMSTRSYSVAR
  2
AcImStrSysVar
  3
AcMeServices
 90
        0
280
     0
281
     0
  0
CLASS
  1
ACMSTANDARDJIS
  2
AcmStandardJIS
  3
"AcmSymBB|Product Description: AutoCAD Mechanical 2000|Company: Autodesk"
 90
        0
280
     0
281
     0
  0
CLASS
  1
ACMSURFSTANDARDJIS
  2
AcmSurfTextStdJIS
  3
"AcmSymBB|Product Description: AutoCAD Mechanical 2000|Company: Autodesk"
 90
        0
280
     0
281
     0
  0
CLASS
  1
ACMFCFSTANDARDJIS
  2
AcmFCFStdJIS
  3
"AcmSymBB|Product Description: AutoCAD Mechanical 2000|Company: Autodesk"
 90
        0
280
     0
281
     0
  0
CLASS
  1
ACMWELDSTANDARDJIS
  2
AcmWeldingStdJIS
  3
"AcmSymBB|Product Description: AutoCAD Mechanical 2000|Company: Autodesk"
 90
        0
280
     0
281
     0
  0
CLASS
  1
ACMIDSTANDARDJIS
  2
AcmIdStdJIS
  3
"AcmSymBB|Product Description: AutoCAD Mechanical 2000|Company: Autodesk"
 90
        0
280
     0
281
     0
  0
CLASS
  1
ACMDATUMSTANDARDJIS
  2
AcmDatumStdJIS
  3
"AcmSymBB|Product Description: AutoCAD Mechanical 2000|Company: Autodesk"
 90
        0
280
     0
281
     0
  0
CLASS
  1
ACMBOMSTANDARDJIS
  2
AcmBOMStdJIS
  3
"AcmSymBB|Product Description: AutoCAD Mechanical 2000|Company: Autodesk"
 90
        0
280
     0
281
     0
  0
CLASS
  1
ACMSTANDARDANSI
  2
AcmStandardANSI
  3
"AcmSymBB|Product Description: AutoCAD Mechanical 2000|Company: Autodesk"
 90
        0
280
     0
281
     0
  0
CLASS
  1
ACMSURFSTANDARDANSI
  2
AcmSurfTextStdANSI
  3
"AcmSymBB|Product Description: AutoCAD Mechanical 2000|Company: Autodesk"
 90
        0
280
     0
281
     0
  0
CLASS
  1
ACMFCFSTANDARDANSI
  2
AcmFCFStdANSI
  3
"AcmSymBB|Product Description: AutoCAD Mechanical 2000|Company: Autodesk"
 90
        0
280
     0
281
     0
  0
CLASS
  1
ACMWELDSTANDARDANSI
  2
AcmWeldingStdANSI
  3
"AcmSymBB|Product Description: AutoCAD Mechanical 2000|Company: Autodesk"
 90
        0
280
     0
281
     0
  0
CLASS
  1
ACMIDSTANDARDANSI
  2
AcmIdStdANSI
  3
"AcmSymBB|Product Description: AutoCAD Mechanical 2000|Company: Autodesk"
 90
        0
280
     0
281
     0
  0
CLASS
  1
ACMDATUMSTANDARDANSI
  2
AcmDatumStdANSI
  3
"AcmSymBB|Product Description: AutoCAD Mechanical 2000|Company: Autodesk"
 90
        0
280
     0
281
     0
  0
CLASS
  1
ACMBOMSTANDARDANSI
  2
AcmBOMStdANSI
  3
"AcmSymBB|Product Description: AutoCAD Mechanical 2000|Company: Autodesk"
 90
        0
280
     0
281
     0
  0
CLASS
  1
ACMSTANDARDBSI
  2
AcmStandardBSI
  3
"AcmSymBB|Product Description: AutoCAD Mechanical 2000|Company: Autodesk"
 90
        0
280
     0
281
     0
  0
CLASS
  1
ACMSURFSTANDARDBSI
  2
AcmSurfTextStdBSI
  3
"AcmSymBB|Product Description: AutoCAD Mechanical 2000|Company: Autodesk"
 90
        0
280
     0
281
     0
  0
CLASS
  1
ACMFCFSTANDARDBSI
  2
AcmFCFStdBSI
  3
"AcmSymBB|Product Description: AutoCAD Mechanical 2000|Company: Autodesk"
 90
        0
280
     0
281
     0
  0
CLASS
  1
ACMWELDSTANDARDBSI
  2
AcmWeldingStdBSI
  3
"AcmSymBB|Product Description: AutoCAD Mechanical 2000|Company: Autodesk"
 90
        0
280
     0
281
     0
  0
CLASS
  1
ACMIDSTANDARDBSI
  2
AcmIdStdBSI
  3
"AcmSymBB|Product Description: AutoCAD Mechanical 2000|Company: Autodesk"
 90
        0
280
     0
281
     0
  0
CLASS
  1
ACMDATUMSTANDARDBSI
  2
AcmDatumStdBSI
  3
"AcmSymBB|Product Description: AutoCAD Mechanical 2000|Company: Autodesk"
 90
        0
280
     0
281
     0
  0
CLASS
  1
ACMBOMSTANDARDBSI
  2
AcmBOMStdBSI
  3
"AcmSymBB|Product Description: AutoCAD Mechanical 2000|Company: Autodesk"
 90
        0
280
     0
281
     0
  0
CLASS
  1
LONG_TRANSACTION
  2
AcDbLongTransaction
  3
AutoCAD 2000
 90
        0
280
     0
281
     0
  0
CLASS
  1
LWPOLYLINE
  2
AcDbPolyline
  3
AutoCAD 2000
 90
        0
280
     0
281
     1
  0
CLASS
  1
HATCH
  2
AcDbHatch
  3
AutoCAD 2000
 90
        0
280
     0
281
     1
  0
CLASS
  1
XRECORD
  2
AcDbXrecord
  3
AutoCAD 2000
 90
        0
280
     0
281
     0
  0
ENDSEC
  0
SECTION
  2
TABLES
  0
TABLE
  2
VPORT
  5
8
330
0
100
AcDbSymbolTable
 70
     3
  0
VPORT
  5
2515
330
8
100
AcDbSymbolTableRecord
100
AcDbViewportTableRecord
  2
*ACTIVE
 70
     0
 10
0.0
 20
0.0
 11
1.0
 21
1.0
 12
-24.95305687273567
 22
-10.20037875827413
 13
0.0
 23
0.0
 14
2.5
 24
2.5
 15
10.0
 25
10.0
 16
0.0
 26
0.0
 36
1.0
 17
0.0
 27
0.0
 37
0.0
 40
47.43625757053776
 41
1.56570841889117
 42
50.0
 43
0.0
 44
0.0
 50
0.0
 51
0.0
 71
     0
 72
   100
 73
     1
 74
     3
 75
     0
 76
     0
 77
     0
 78
     0
  0
ENDTAB
  0
TABLE
  2
LTYPE
  5
5
330
0
100
AcDbSymbolTable
 70
    10
  0
LTYPE
  5
14
330
5
100
AcDbSymbolTableRecord
100
AcDbLinetypeTableRecord
  2
BYBLOCK
 70
     0
  3

 72
    65
 73
     0
 40
0.0
  0
LTYPE
  5
15
330
5
100
AcDbSymbolTableRecord
100
AcDbLinetypeTableRecord
  2
BYLAYER
 70
     0
  3

 72
    65
 73
     0
 40
0.0
  0
LTYPE
  5
16
330
5
100
AcDbSymbolTableRecord
100
AcDbLinetypeTableRecord
  2
CONTINUOUS
 70
     0
  3
Solid line
 72
    65
 73
     0
 40
0.0
  0
LTYPE
  5
4B
330
5
100
AcDbSymbolTableRecord
100
AcDbLinetypeTableRecord
  2
AM_ISO02W050
 70
     0
  3
__ __ __ __ __ __ __ __ __ __ __ __ __ __ __
 72
    65
 73
     2
 40
7.5
 49
6.0
 74
     0
 49
-1.5
 74
     0
  0
LTYPE
  5
4C
330
5
100
AcDbSymbolTableRecord
100
AcDbLinetypeTableRecord
  2
AM_ISO08W050
 70
     0
  3
____ . ____ . ____ . ____ . ____ . ____ . ____
 72
    65
 73
     4
 40
18.0
 49
12.0
 74
     0
 49
-1.5
 74
     0
 49
3.0
 74
     0
 49
-1.5
 74
     0
  0
LTYPE
  5
4D
330
5
100
AcDbSymbolTableRecord
100
AcDbLinetypeTableRecord
  2
AM_ISO09W050
 70
     0
  3
_____ . . _____ . . _____ . . ____ .. ____
 72
    65
 73
     6
 40
22.5
 49
12.0
 74
     0
 49
-1.5
 74
     0
 49
3.0
 74
     0
 49
-1.5
 74
     0
 49
3.0
 74
     0
 49
-1.5
 74
     0
  0
LTYPE
  5
4E
330
5
100
AcDbSymbolTableRecord
100
AcDbLinetypeTableRecord
  2
AMCONSTR
 70
     0
  3
_______________________
 72
    65
 73
     2
 40
9999.0
 49
9999.0
 74
     0
 49
0.0
 74
     0
  0
LTYPE
  5
4F
330
5
100
AcDbSymbolTableRecord
100
AcDbLinetypeTableRecord
  2
AM_ISO02W050X2
 70
     0
  3
 _ _ _ _ _ _ _ _ _ _ _ _
 72
    65
 73
     2
 40
3.75
 49
3.0
 74
     0
 49
-0.75
 74
     0
  0
LTYPE
  5
50
330
5
100
AcDbSymbolTableRecord
100
AcDbLinetypeTableRecord
  2
AM_ISO08W050X2
 70
     0
  3
__ . __ . __ . __ . __ . __
 72
    65
 73
     4
 40
9.0
 49
6.0
 74
     0
 49
-0.75
 74
     0
 49
1.5
 74
     0
 49
-0.75
 74
     0
  0
LTYPE
  5
53
330
5
100
AcDbSymbolTableRecord
100
AcDbLinetypeTableRecord
  2
AMZIGZAG
 70
     0
  3
/\/-/\/-/\/-/\/-/\/-/\/
 72
    65
 73
     2
 40
11.00009999999999
 49
0.0001
 74
     4
 75
   135
340
52
 46
0.04
 50
0.0
 44
0.0
 45
0.0
 49
-11.0
 74
     0
  0
LTYPE
  5
166
330
5
100
AcDbSymbolTableRecord
100
AcDbLinetypeTableRecord
  2
ACJISTGL
 70
     0
  3
_ _ _ _ _
 72
    65
 73
     2
 40
3.0
 49
2.0
 74
     0
 49
-1.0
 74
     0
  0
LTYPE
  5
26A
330
5
100
AcDbSymbolTableRecord
100
AcDbLinetypeTableRecord
  2
ACJISTGB
 70
     0
  3
__ . . __ . .
 72
    65
 73
     6
 40
9.0
 49
4.0
 74
     0
 49
-1.0
 74
     0
 49
1.0
 74
     0
 49
-1.0
 74
     0
 49
1.0
 74
     0
 49
-1.0
 74
     0
  0
ENDTAB
  0
TABLE
  2
LAYER
  5
2
330
0
100
AcDbSymbolTable
 70
     7
  0
LAYER
  5
10
330
2
100
AcDbSymbolTableRecord
100
AcDbLayerTableRecord
  2
0
 70
     0
 62
     7
  6
CONTINUOUS
  0
LAYER
  5
3F9
330
2
100
AcDbSymbolTableRecord
100
AcDbLayerTableRecord
  2
AM_0
 70
     0
 62
     7
  6
CONTINUOUS
  0
LAYER
  5
BA4
330
2
100
AcDbSymbolTableRecord
100
AcDbLayerTableRecord
  2
AM_11
 70
     0
 62
     3
  6
AM_ISO09W050
  0
LAYER
  5
BA5
330
2
100
AcDbSymbolTableRecord
100
AcDbLayerTableRecord
  2
AM_7
 70
     0
 62
     4
  6
AM_ISO08W050
  0
LAYER
  5
D38
330
2
100
AcDbSymbolTableRecord
100
AcDbLayerTableRecord
  2
AM_5
 70
     0
 62
     3
  6
CONTINUOUS
  0
LAYER
  5
D3A
330
2
100
AcDbSymbolTableRecord
100
AcDbLayerTableRecord
  2
DEFPOINTS
 70
     0
 62
     7
  6
CONTINUOUS
  0
LAYER
  5
F16
330
2
100
AcDbSymbolTableRecord
100
AcDbLayerTableRecord
  2
AM_6
 70
     0
 62
     2
  6
CONTINUOUS
  0
ENDTAB
  0
TABLE
  2
STYLE
  5
3
330
0
100
AcDbSymbolTable
 70
     5
  0
STYLE
  5
11
330
3
100
AcDbSymbolTableRecord
100
AcDbTextStyleTableRecord
  2
STANDARD
 70
     0
 40
0.0
 41
1.0
 50
0.0
 71
     0
 42
2.5
  3
simplex.shx
  4
EXTFONT.SHX
  0
STYLE
  5
52
330
3
100
AcDbSymbolTableRecord
100
AcDbTextStyleTableRecord
  2

 70
     1
 40
0.0
 41
1.0
 50
0.0
 71
     0
 42
2.5
  3
ltypeshp.shx
  4

  0
STYLE
  5
6B
330
3
100
AcDbSymbolTableRecord
100
AcDbTextStyleTableRecord
  2
ASAMI
 70
     0
 40
0.0
 41
1.0
 50
0.0
 71
     0
 42
2.5
  3
simplex.shx
  4
EXTFONT.SHX
  0
STYLE
  5
262
330
3
100
AcDbSymbolTableRecord
100
AcDbTextStyleTableRecord
  2
ACJISTS
 70
     0
 40
1.0
 41
1.0
 50
0.0
 71
     0
 42
2.5
  3
simplex.shx
  4
bigfont.shx
  0
STYLE
  5
269
330
3
100
AcDbSymbolTableRecord
100
AcDbTextStyleTableRecord
  2
ACJISGDT
 70
     0
 40
0.0
 41
1.0
 50
0.0
 71
     0
 42
2.5
  3
amgdtans.shx
  4

  0
ENDTAB
  0
TABLE
  2
VIEW
  5
6
330
0
100
AcDbSymbolTable
 70
     0
  0
ENDTAB
  0
TABLE
  2
UCS
  5
7
330
0
100
AcDbSymbolTable
 70
     0
  0
ENDTAB
  0
TABLE
  2
APPID
  5
9
330
0
100
AcDbSymbolTable
 70
    13
  0
APPID
  5
12
330
9
100
AcDbSymbolTableRecord
100
AcDbRegAppTableRecord
  2
ACAD
 70
     0
  0
APPID
  5
30
330
9
100
AcDbSymbolTableRecord
100
AcDbRegAppTableRecord
  2
MCAD_NO_VIS
 70
     0
  0
APPID
  5
31
330
9
100
AcDbSymbolTableRecord
100
AcDbRegAppTableRecord
  2
ACAD_TEMP_GRAPHIC
 70
     0
  0
APPID
  5
2C2
330
9
100
AcDbSymbolTableRecord
100
AcDbRegAppTableRecord
  2
GENIUS_GENDTOL_13
 70
     0
  0
APPID
  5
339
330
9
100
AcDbSymbolTableRecord
100
AcDbRegAppTableRecord
  2
GENIUS_GENODEF_13
 70
     0
  0
APPID
  5
33A
330
9
100
AcDbSymbolTableRecord
100
AcDbRegAppTableRecord
  2
GENIUS_GENOBJ-N-RSBK_13
 70
     0
  0
APPID
  5
33B
330
9
100
AcDbSymbolTableRecord
100
AcDbRegAppTableRecord
  2
GENIUS_GENOBJ-N-LIB_13
 70
     0
  0
APPID
  5
33C
330
9
100
AcDbSymbolTableRecord
100
AcDbRegAppTableRecord
  2
GENIUS_GENSCALE_13
 70
     0
  0
APPID
  5
378
330
9
100
AcDbSymbolTableRecord
100
AcDbRegAppTableRecord
  2
GENIUS_GENDIMSH_14
 70
     0
  0
APPID
  5
BA6
330
9
100
AcDbSymbolTableRecord
100
AcDbRegAppTableRecord
  2
GENIUS_GENOBJ-N-CEN_13
 70
     0
  0
APPID
  5
D2B
330
9
100
AcDbSymbolTableRecord
100
AcDbRegAppTableRecord
  2
GENIUS_GENFIL_13
 70
     0
  0
APPID
  5
D2C
330
9
100
AcDbSymbolTableRecord
100
AcDbRegAppTableRecord
  2
GENIUS_GENOBJ-N-CHA_13
 70
     0
  0
APPID
  5
1FEC
330
9
100
AcDbSymbolTableRecord
100
AcDbRegAppTableRecord
  2
GENIUS_GENOBJ-N-FIL_13
 70
     0
  0
ENDTAB
  0
TABLE
  2
DIMSTYLE
  5
A
330
0
100
AcDbSymbolTable
 70
     8
  0
DIMSTYLE
105
58
102
{ACAD_REACTORS
330
1BA8
330
1BD9
330
208E
330
229E
102
}
330
A
100
AcDbSymbolTableRecord
100
AcDbDimStyleTableRecord
  2
AM_JIS
 70
     0
  3

  4
"
  5
OPEN30
  6

  7

 40
0.5
 41
2.5
 42
1.0
 43
12.0
 44
1.0
 45
0.0
 46
0.0
 47
0.1
 48
0.1
140
3.2
141
0.0
142
0.0
143
0.0393701
144
1.0
145
0.0
146
0.71
147
1.5
 71
     0
 72
     0
 73
     0
 74
     0
 75
     0
 76
     0
 77
     3
 78
     8
170
     0
171
     2
172
     1
173
     0
174
     0
175
     0
176
   256
177
   256
178
     2
270
     2
271
     3
272
     3
273
     2
274
     2
340
6B
275
     0
280
     0
281
     0
282
     0
283
     0
284
     0
285
     0
286
     0
287
     3
288
     0
  0
DIMSTYLE
105
5F
330
A
100
AcDbSymbolTableRecord
100
AcDbDimStyleTableRecord
  2
AM_JIS$3
 70
     0
  3

  4
"
  5
OPEN30
  6

  7

 40
0.5
 41
2.5
 42
1.0
 43
10.0
 44
1.0
 45
0.0
 46
0.0
 47
0.1
 48
0.1
140
3.2
141
0.0
142
0.0
143
0.0393701
144
1.0
145
0.0
146
0.71
147
1.5
 71
     0
 72
     0
 73
     0
 74
     1
 75
     0
 76
     0
 77
     3
 78
     8
170
     0
171
     2
172
     0
173
     0
174
     0
175
     0
176
   256
177
   256
178
     2
270
     2
271
     2
272
     3
273
     2
274
     2
340
6B
275
     0
280
     0
281
     0
282
     0
283
     0
284
     0
285
     0
286
     0
287
     0
288
     1
  0
DIMSTYLE
105
60
102
{ACAD_REACTORS
330
21B3
102
}
330
A
100
AcDbSymbolTableRecord
100
AcDbDimStyleTableRecord
  2
AM_JIS$4
 70
     0
  3

  4
"
  5
OPEN30
  6

  7

 40
0.5
 41
2.5
 42
1.0
 43
10.0
 44
1.0
 45
0.0
 46
0.0
 47
0.1
 48
0.1
140
3.2
141
0.0
142
0.0
143
0.0393701
144
1.0
145
0.0
146
0.71
147
1.5
 71
     0
 72
     0
 73
     0
 74
     1
 75
     0
 76
     0
 77
     3
 78
     8
170
     0
171
     2
172
     0
173
     0
174
     0
175
     0
176
   256
177
   256
178
     2
270
     2
271
     2
272
     3
273
     2
274
     2
340
6B
275
     0
280
     0
281
     0
282
     0
283
     0
284
     0
285
     0
286
     0
287
     0
288
     1
  0
DIMSTYLE
105
61
330
A
100
AcDbSymbolTableRecord
100
AcDbDimStyleTableRecord
  2
AM_JIS$6
 70
     0
  3

  4
"
  5
OPEN30
  6

  7

 40
0.5
 41
2.5
 42
1.0
 43
10.0
 44
1.0
 45
0.0
 46
0.0
 47
0.1
 48
0.1
140
3.2
141
0.0
142
0.0
143
0.0393701
144
1.0
145
0.0
146
0.71
147
1.5
 71
     0
 72
     0
 73
     0
 74
     0
 75
     0
 76
     0
 77
     0
 78
     8
170
     0
171
     2
172
     1
173
     0
174
     0
175
     0
176
   256
177
   256
178
     2
270
     2
271
     2
272
     2
273
     2
274
     2
340
6B
275
     0
280
     0
281
     0
282
     0
283
     0
284
     0
285
     0
286
     0
287
     3
288
     0
  0
DIMSTYLE
105
62
330
A
100
AcDbSymbolTableRecord
100
AcDbDimStyleTableRecord
  2
AM_JIS$7
 70
     0
  3

  4
"
  5
OPEN30
  6

  7

 40
0.5
 41
2.5
 42
1.0
 43
10.0
 44
1.0
 45
0.0
 46
0.0
 47
0.1
 48
0.1
140
3.2
141
0.0
142
0.0
143
0.0393701
144
1.0
145
0.0
146
0.71
147
1.5
 71
     0
 72
     0
 73
     0
 74
     0
 75
     0
 76
     0
 77
     3
 78
     8
170
     0
171
     2
172
     1
173
     0
174
     0
175
     0
176
   256
177
   256
178
     2
270
     2
271
     2
272
     3
273
     2
274
     2
340
6B
275
     0
280
     0
281
     0
282
     0
283
     0
284
     0
285
     0
286
     0
287
     3
288
     0
  0
DIMSTYLE
105
63
330
A
100
AcDbSymbolTableRecord
100
AcDbDimStyleTableRecord
  2
AM_JIS$SF
 70
     0
  3

  4
"
  5
OPEN30
  6

  7

 40
0.5
 41
2.5
 42
1.0
 43
10.0
 44
1.0
 45
0.0
 46
0.0
 47
0.1
 48
0.1
140
3.2
141
0.0
142
0.0
143
0.0393701
144
1.0
145
0.0
146
0.71
147
1.5
 71
     0
 72
     0
 73
     0
 74
     0
 75
     1
 76
     1
 77
     3
 78
     8
170
     0
171
     2
172
     1
173
     0
174
     0
175
     0
176
   256
177
   256
178
     2
270
     2
271
     2
272
     2
273
     2
274
     2
340
6B
275
     0
280
     0
281
     0
282
     0
283
     0
284
     0
285
     0
286
     0
287
     3
288
     0
  0
DIMSTYLE
105
68
330
A
100
AcDbSymbolTableRecord
100
AcDbDimStyleTableRecord
  2
AM_JIS$SH
 70
     0
  3

  4
"
  5

  6
GENAXEH
  7
OPEN30
 40
0.5
 41
2.5
 42
1.0
 43
10.0
 44
1.0
 45
0.0
 46
0.0
 47
0.1
 48
0.1
140
3.2
141
0.0
142
0.0
143
0.0393701
144
2.0
145
0.0
146
0.71
147
1.5
 71
     0
 72
     0
 73
     0
 74
     0
 75
     1
 76
     1
 77
     3
 78
     8
170
     0
171
     2
172
     1
173
     1
174
     0
175
     0
176
   256
177
   256
178
     2
270
     2
271
     2
272
     2
273
     2
274
     2
340
6B
275
     0
280
     0
281
     0
282
     0
283
     0
284
     0
285
     0
286
     0
287
     3
288
     0
  0
DIMSTYLE
105
B34
330
A
100
AcDbSymbolTableRecord
100
AcDbDimStyleTableRecord
  2
AM_JIS$2
 70
     0
  3

  4
"
  5
OPEN30
  6

  7

 40
0.5
 41
2.5
 42
1.0
 43
12.0
 44
1.0
 45
0.0
 46
0.0
 47
0.1
 48
0.1
140
3.2
141
0.0
142
0.0
143
0.0393701
144
1.0
145
0.0
146
0.71
147
1.5
 71
     0
 72
     0
 73
     0
 74
     0
 75
     0
 76
     0
 77
     3
 78
     8
170
     0
171
     2
172
     1
173
     0
174
     0
175
     0
176
   256
177
   256
178
     2
270
     2
271
     3
272
     3
273
     2
274
     2
340
6B
275
     0
280
     0
281
     0
282
     0
283
     0
284
     0
285
     0
286
     0
287
     3
288
     0
  0
ENDTAB
  0
TABLE
  2
BLOCK_RECORD
  5
1
330
0
100
AcDbSymbolTable
 70
    10
  0
BLOCK_RECORD
  5
1F
102
{ACAD_XDICTIONARY
360
74
102
}
330
1
100
AcDbSymbolTableRecord
100
AcDbBlockTableRecord
  2
*MODEL_SPACE
  0
BLOCK_RECORD
  5
101
102
{ACAD_XDICTIONARY
360
253E
102
}
330
1
100
AcDbSymbolTableRecord
100
AcDbBlockTableRecord
  2
*PAPER_SPACE
  0
BLOCK_RECORD
  5
59
330
1
100
AcDbSymbolTableRecord
100
AcDbBlockTableRecord
  2
_OPEN30
  0
BLOCK_RECORD
  5
64
330
1
100
AcDbSymbolTableRecord
100
AcDbBlockTableRecord
  2
GENAXEH
  0
BLOCK_RECORD
  5
1BA9
330
1
100
AcDbSymbolTableRecord
100
AcDbBlockTableRecord
  2
*D5
  0
BLOCK_RECORD
  5
1BDA
330
1
100
AcDbSymbolTableRecord
100
AcDbBlockTableRecord
  2
*D6
  0
BLOCK_RECORD
  5
208F
330
1
100
AcDbSymbolTableRecord
100
AcDbBlockTableRecord
  2
*D7
  0
BLOCK_RECORD
  5
21B4
330
1
100
AcDbSymbolTableRecord
100
AcDbBlockTableRecord
  2
*D8
  0
BLOCK_RECORD
  5
229F
330
1
100
AcDbSymbolTableRecord
100
AcDbBlockTableRecord
  2
*D9
  0
ENDTAB
  0
ENDSEC
  0
SECTION
  2
BLOCKS
  0
BLOCK
  5
20
330
1F
100
AcDbEntity
  8
0
100
AcDbBlockBegin
  2
*MODEL_SPACE
 70
     0
 10
0.0
 20
0.0
 30
0.0
  3
*MODEL_SPACE
  1

  0
ENDBLK
  5
21
330
1F
100
AcDbEntity
  8
0
100
AcDbBlockEnd
  0
BLOCK
  5
103
330
101
100
AcDbEntity
 67
     1
  8
0
100
AcDbBlockBegin
  2
*PAPER_SPACE
 70
     0
 10
0.0
 20
0.0
 30
0.0
  3
*PAPER_SPACE
  1

  0
ENDBLK
  5
104
330
101
100
AcDbEntity
 67
     1
  8
0
100
AcDbBlockEnd
  0
BLOCK
  5
5D
330
59
100
AcDbEntity
  8
0
100
AcDbBlockBegin
  2
_OPEN30
 70
     0
 10
0.0
 20
0.0
 30
0.0
  3
_OPEN30
  1

  0
LINE
  5
5A
330
59
100
AcDbEntity
  8
0
 62
     0
100
AcDbLine
 10
-1.0
 20
0.26794919
 30
0.0
 11
0.0
 21
0.0
 31
0.0
  0
LINE
  5
5B
330
59
100
AcDbEntity
  8
0
 62
     0
100
AcDbLine
 10
0.0
 20
0.0
 30
0.0
 11
-1.0
 21
-0.26794919
 31
0.0
  0
LINE
  5
5C
330
59
100
AcDbEntity
  8
0
 62
     0
100
AcDbLine
 10
0.0
 20
0.0
 30
0.0
 11
-1.0
 21
0.0
 31
0.0
  0
ENDBLK
  5
5E
330
59
100
AcDbEntity
  8
0
100
AcDbBlockEnd
  0
BLOCK
  5
66
330
64
100
AcDbEntity
  8
0
100
AcDbBlockBegin
  2
GENAXEH
 70
     0
 10
0.0
 20
0.0
 30
0.0
  3
GENAXEH
  1

  0
LINE
  5
65
330
64
100
AcDbEntity
  8
0
100
AcDbLine
 10
-1.0
 20
0.0
 30
0.0
 11
1.0
 21
0.0
 31
0.0
  0
ENDBLK
  5
67
330
64
100
AcDbEntity
  8
0
100
AcDbBlockEnd
  0
BLOCK
  5
1BB3
330
1BA9
100
AcDbEntity
  8
0
100
AcDbBlockBegin
  2
*D5
 70
     1
 10
0.0
 20
0.0
 30
0.0
  3
*D5
  1

  0
LINE
  5
245D
330
1BA9
100
AcDbEntity
  8
AM_5
100
AcDbLine
 10
-50.0
 20
-3.200000000000014
 30
0.0
 11
-50.0
 21
-17.66666666666719
 31
0.0
  0
LINE
  5
245E
330
1BA9
100
AcDbEntity
  8
AM_5
100
AcDbLine
 10
0.0
 20
-2.000000000000188
 30
0.0
 11
-0.000000000000001
 21
-17.66666666666719
 31
0.0
  0
LINE
  5
245F
330
1BA9
100
AcDbEntity
  8
AM_5
100
AcDbLine
 10
-48.75
 20
-17.16666666666719
 30
0.0
 11
-1.25
 21
-17.16666666666719
 31
0.0
  0
INSERT
  5
2460
330
1BA9
100
AcDbEntity
  8
AM_5
100
AcDbBlockReference
  2
_OPEN30
 10
-50.0
 20
-17.16666666666719
 30
0.0
 41
1.25
 42
1.25
 43
1.25
 50
180.0
  0
INSERT
  5
2461
330
1BA9
100
AcDbEntity
  8
AM_5
100
AcDbBlockReference
  2
_OPEN30
 10
-0.000000000000001
 20
-17.16666666666719
 30
0.0
 41
1.25
 42
1.25
 43
1.25
  0
MTEXT
  5
2462
330
1BA9
100
AcDbEntity
  8
AM_5
 62
     2
100
AcDbMText
 10
-25.0
 20
-15.61666666666718
 30
0.0
 40
1.6
 41
0.0
 71
     5
 72
     1
  1
50
  7
ASAMI
1001
ACAD
1000
MTEXTBEGIN
1070
    73
1070
     1
1070
    44
1040
1.0
1070
    74
1070
     0
1000
MTEXTEND
  0
POINT
  5
2463
330
1BA9
100
AcDbEntity
  8
DEFPOINTS
 62
     0
100
AcDbPoint
 10
-50.0
 20
-2.700000000000014
 30
0.0
  0
POINT
  5
2464
330
1BA9
100
AcDbEntity
  8
DEFPOINTS
 62
     0
100
AcDbPoint
 10
0.0
 20
-1.500000000000188
 30
0.0
  0
POINT
  5
2465
330
1BA9
100
AcDbEntity
  8
DEFPOINTS
 62
     0
100
AcDbPoint
 10
-0.000000000000001
 20
-17.16666666666719
 30
0.0
  0
ENDBLK
  5
1BB4
330
1BA9
100
AcDbEntity
  8
0
100
AcDbBlockEnd
  0
BLOCK
  5
1BE6
330
1BDA
100
AcDbEntity
  8
0
100
AcDbBlockBegin
  2
*D6
 70
     1
 10
0.0
 20
0.0
 30
0.0
  3
*D6
  1

  0
LINE
  5
2428
330
1BDA
100
AcDbEntity
  8
AM_5
100
AcDbLine
 10
-49.99999999999999
 20
-3.000000000000023
 30
0.0
 11
-60.09314255754917
 21
-3.00000000000002
 31
0.0
  0
LINE
  5
2429
330
1BDA
100
AcDbEntity
  8
AM_5
100
AcDbLine
 10
-49.99999999999999
 20
2.999999999999985
 30
0.0
 11
-60.09314255754917
 21
2.999999999999987
 31
0.0
  0
LINE
  5
242A
330
1BDA
100
AcDbEntity
  8
AM_5
100
AcDbLine
 10
-59.59314255754917
 20
-4.25000000000002
 30
0.0
 11
-59.59314255754917
 21
-5.50000000000002
 31
0.0
  0
LINE
  5
242B
330
1BDA
100
AcDbEntity
  8
AM_5
100
AcDbLine
 10
-59.59314255754917
 20
4.249999999999988
 30
0.0
 11
-59.59314255754917
 21
5.499999999999988
 31
0.0
  0
LINE
  5
242C
330
1BDA
100
AcDbEntity
  8
AM_5
100
AcDbLine
 10
-59.59314255754917
 20
-3.00000000000002
 30
0.0
 11
-59.59314255754917
 21
2.999999999999987
 31
0.0
  0
INSERT
  5
242D
330
1BDA
100
AcDbEntity
  8
AM_5
100
AcDbBlockReference
  2
_OPEN30
 10
-59.59314255754917
 20
-3.00000000000002
 30
0.0
 41
1.25
 42
1.25
 43
1.25
 50
90.0
  0
INSERT
  5
242E
330
1BDA
100
AcDbEntity
  8
AM_5
100
AcDbBlockReference
  2
_OPEN30
 10
-59.59314255754917
 20
2.999999999999987
 30
0.0
 41
1.25
 42
1.25
 43
1.25
 50
270.0
  0
MTEXT
  5
242F
330
1BDA
100
AcDbEntity
  8
AM_5
 62
     2
100
AcDbMText
 10
-61.14314255754917
 20
-0.0000000000000181
 30
0.0
 40
1.6
 41
0.0
 71
     5
 72
     1
  1
%%c6
  7
ASAMI
 11
0.0000000000000001
 21
1.0
 31
0.0
1001
ACAD
1000
MTEXTBEGIN
1070
    73
1070
     1
1070
    44
1040
1.0
1070
    74
1070
     0
1000
MTEXTEND
  0
POINT
  5
2430
330
1BDA
100
AcDbEntity
  8
DEFPOINTS
 62
     0
100
AcDbPoint
 10
-49.49999999999999
 20
-3.000000000000023
 30
0.0
  0
POINT
  5
2431
330
1BDA
100
AcDbEntity
  8
DEFPOINTS
 62
     0
100
AcDbPoint
 10
-49.49999999999999
 20
2.999999999999985
 30
0.0
  0
POINT
  5
2432
330
1BDA
100
AcDbEntity
  8
DEFPOINTS
 62
     0
100
AcDbPoint
 10
-59.59314255754917
 20
2.999999999999987
 30
0.0
  0
ENDBLK
  5
1BE7
330
1BDA
100
AcDbEntity
  8
0
100
AcDbBlockEnd
  0
BLOCK
  5
209B
330
208F
100
AcDbEntity
  8
0
100
AcDbBlockBegin
  2
*D7
 70
     1
 10
0.0
 20
0.0
 30
0.0
  3
*D7
  1

  0
LINE
  5
243C
330
208F
100
AcDbEntity
  8
AM_5
100
AcDbLine
 10
0.5
 20
-1.500000000000188
 30
0.0
 11
12.03057127860814
 21
-1.500000000000191
 31
0.0
  0
LINE
  5
243D
330
208F
100
AcDbEntity
  8
AM_5
100
AcDbLine
 10
0.5
 20
1.500000000000186
 30
0.0
 11
12.03057127860814
 21
1.500000000000183
 31
0.0
  0
LINE
  5
243E
330
208F
100
AcDbEntity
  8
AM_5
100
AcDbLine
 10
11.53057127860814
 20
-2.750000000000191
 30
0.0
 11
11.53057127860813
 21
-4.00000000000019
 31
0.0
  0
LINE
  5
243F
330
208F
100
AcDbEntity
  8
AM_5
100
AcDbLine
 10
11.53057127860814
 20
2.750000000000183
 30
0.0
 11
11.53057127860814
 21
8.014285714285898
 31
0.0
  0
LINE
  5
2440
330
208F
100
AcDbEntity
  8
AM_5
100
AcDbLine
 10
11.53057127860814
 20
-1.500000000000191
 30
0.0
 11
11.53057127860814
 21
1.500000000000183
 31
0.0
  0
INSERT
  5
2441
330
208F
100
AcDbEntity
  8
AM_5
100
AcDbBlockReference
  2
_OPEN30
 10
11.53057127860814
 20
-1.500000000000191
 30
0.0
 41
1.25
 42
1.25
 43
1.25
 50
90.0
  0
INSERT
  5
2442
330
208F
100
AcDbEntity
  8
AM_5
100
AcDbBlockReference
  2
_OPEN30
 10
11.53057127860814
 20
1.500000000000183
 30
0.0
 41
1.25
 42
1.25
 43
1.25
 50
270.0
  0
MTEXT
  5
2443
330
208F
100
AcDbEntity
  8
AM_5
 62
     2
100
AcDbMText
 10
9.98057127860814
 20
6.007142857143042
 30
0.0
 40
1.6
 41
0.0
 71
     5
 72
     1
  1
%%c3
  7
ASAMI
 11
0.0000000000000001
 21
1.0
 31
0.0
1001
ACAD
1000
MTEXTBEGIN
1070
    73
1070
     1
1070
    44
1040
1.0
1070
    74
1070
     0
1000
MTEXTEND
  0
POINT
  5
2444
330
208F
100
AcDbEntity
  8
DEFPOINTS
 62
     0
100
AcDbPoint
 10
0.0
 20
-1.500000000000188
 30
0.0
  0
POINT
  5
2445
330
208F
100
AcDbEntity
  8
DEFPOINTS
 62
     0
100
AcDbPoint
 10
0.0
 20
1.500000000000186
 30
0.0
  0
POINT
  5
2446
330
208F
100
AcDbEntity
  8
DEFPOINTS
 62
     0
100
AcDbPoint
 10
11.53057127860814
 20
1.500000000000183
 30
0.0
  0
ENDBLK
  5
209C
330
208F
100
AcDbEntity
  8
0
100
AcDbBlockEnd
  0
BLOCK
  5
21BB
330
21B4
100
AcDbEntity
  8
0
100
AcDbBlockBegin
  2
*D8
 70
     1
 10
0.0
 20
0.0
 30
0.0
  3
*D8
  1

  0
LINE
  5
2540
330
21B4
100
AcDbEntity
  8
AM_5
100
AcDbLine
 10
6.912735894858558
 20
-7.059779959989538
 30
0.0
 11
0.926861644112607
 21
-2.212514567022337
 31
0.0
  0
MTEXT
  5
2541
330
21B4
100
AcDbEntity
  8
AM_5
 62
     2
100
AcDbMText
 10
5.380961601523437
 20
-3.824896267653782
 30
0.0
 40
1.6
 41
0.0
 71
     5
 72
     1
  1
R0.2
  7
ASAMI
 11
0.7771459614569709
 21
-0.6293203910498378
 31
0.0
  0
LINE
  5
2542
330
21B4
100
AcDbEntity
  8
AM_5
100
AcDbLine
 10
-0.2000000000000001
 20
-1.300000000000073
 30
0.0
 11
-0.0445708077086061
 21
-1.42586407821004
 31
0.0
  0
INSERT
  5
2543
330
21B4
100
AcDbEntity
  8
AM_5
100
AcDbBlockReference
  2
_OPEN30
 10
-0.0445708077086061
 20
-1.42586407821004
 30
0.0
 41
1.25
 42
1.25
 43
1.25
 50
140.9999999999999
  0
POINT
  5
2544
330
21B4
100
AcDbEntity
  8
DEFPOINTS
 62
     0
100
AcDbPoint
 10
-0.0445708077086061
 20
-1.42586407821004
 30
0.0
  0
POINT
  5
2545
330
21B4
100
AcDbEntity
  8
DEFPOINTS
 62
     0
100
AcDbPoint
 10
-0.2000000000000001
 20
-1.300000000000073
 30
0.0
  0
ENDBLK
  5
21BC
330
21B4
100
AcDbEntity
  8
0
100
AcDbBlockEnd
  0
BLOCK
  5
22AB
330
229F
100
AcDbEntity
  8
0
100
AcDbBlockBegin
  2
*D9
 70
     1
 10
0.0
 20
0.0
 30
0.0
  3
*D9
  1

  0
LINE
  5
2433
330
229F
100
AcDbEntity
  8
AM_5
100
AcDbLine
 10
0.0
 20
-2.000000000000188
 30
0.0
 11
-0.0000000000000006
 21
-11.66666666666718
 31
0.0
  0
LINE
  5
2434
330
229F
100
AcDbEntity
  8
AM_5
100
AcDbLine
 10
-8.0
 20
-1.999999999999982
 30
0.0
 11
-8.0
 21
-11.66666666666718
 31
0.0
  0
LINE
  5
2435
330
229F
100
AcDbEntity
  8
AM_5
100
AcDbLine
 10
-1.25
 20
-11.16666666666718
 30
0.0
 11
-6.75
 21
-11.16666666666718
 31
0.0
  0
INSERT
  5
2436
330
229F
100
AcDbEntity
  8
AM_5
100
AcDbBlockReference
  2
_OPEN30
 10
-0.0000000000000006
 20
-11.16666666666718
 30
0.0
 41
1.25
 42
1.25
 43
1.25
  0
INSERT
  5
2437
330
229F
100
AcDbEntity
  8
AM_5
100
AcDbBlockReference
  2
_OPEN30
 10
-8.0
 20
-11.16666666666718
 30
0.0
 41
1.25
 42
1.25
 43
1.25
 50
180.0
  0
MTEXT
  5
2438
330
229F
100
AcDbEntity
  8
AM_5
 62
     2
100
AcDbMText
 10
-4.0
 20
-9.616666666667187
 30
0.0
 40
1.6
 41
0.0
 71
     5
 72
     1
  1
8
  7
ASAMI
1001
ACAD
1000
MTEXTBEGIN
1070
    73
1070
     1
1070
    44
1040
1.0
1070
    74
1070
     0
1000
MTEXTEND
  0
POINT
  5
2439
330
229F
100
AcDbEntity
  8
DEFPOINTS
 62
     0
100
AcDbPoint
 10
0.0
 20
-1.500000000000188
 30
0.0
  0
POINT
  5
243A
330
229F
100
AcDbEntity
  8
DEFPOINTS
 62
     0
100
AcDbPoint
 10
-8.0
 20
-1.499999999999982
 30
0.0
  0
POINT
  5
243B
330
229F
100
AcDbEntity
  8
DEFPOINTS
 62
     0
100
AcDbPoint
 10
-8.0
 20
-11.16666666666718
 30
0.0
  0
ENDBLK
  5
22AC
330
229F
100
AcDbEntity
  8
0
100
AcDbBlockEnd
  0
ENDSEC
  0
SECTION
  2
ENTITIES
  0
TEXT
  5
F17
330
1F
100
AcDbEntity
  8
AM_6
100
AcDbText
 10
-41.90476190476191
 20
-28.41666666666719
 30
0.0
 40
2.5
  1
SSUP4030ZX-R02
 72
     1
 11
-25.0
 21
-27.16666666666719
 31
0.0
100
AcDbText
 73
     2
  0
LINE
  5
1AB8
330
1F
100
AcDbEntity
  8
AM_0
100
AcDbLine
 10
-50.0
 20
2.699999999999975
 30
0.0
 11
-49.5
 21
2.999999999999976
 31
0.0
1001
GENIUS_GENFIL_13
1070
     0
1040
0.5
1040
0.5
1040
20.0
1040
0.0
1002
{
1002
}
1001
GENIUS_GENODEF_13
1002
{
1000
HIER
1070
     0
1002
}
1002
{
1000
MANEDIT
1070
     0
1002
}
1002
{
1000
NOSEL
1070
     0
1002
}
1002
{
1000
BEHIND
1070
     0
1002
}
1002
{
1000
REACTOR
1002
}
1001
GENIUS_GENOBJ-N-CHA_13
1002
{
1000
OWNER
1000
GEN
1002
}
  0
LINE
  5
1AB9
330
1F
100
AcDbEntity
  8
AM_0
100
AcDbLine
 10
-49.99999999999999
 20
-2.700000000000023
 30
0.0
 11
-49.49999999999999
 21
-3.000000000000023
 31
0.0
1001
GENIUS_GENFIL_13
1070
     0
1040
0.5
1040
0.5
1040
20.0
1040
0.0
1002
{
1002
}
1001
GENIUS_GENODEF_13
1002
{
1000
HIER
1070
     0
1002
}
1002
{
1000
MANEDIT
1070
     0
1002
}
1002
{
1000
NOSEL
1070
     0
1002
}
1002
{
1000
BEHIND
1070
     0
1002
}
1002
{
1000
REACTOR
1002
}
1001
GENIUS_GENOBJ-N-CHA_13
1002
{
1000
OWNER
1000
GEN
1002
}
  0
LINE
  5
1ABA
330
1F
100
AcDbEntity
  8
AM_0
100
AcDbLine
 10
-49.5
 20
-2.997055929544407
 30
0.0
 11
-49.49999999999999
 21
2.999999999999939
 31
0.0
  0
LINE
  5
1ABB
330
1F
100
AcDbEntity
  8
AM_0
100
AcDbLine
 10
-50.0
 20
2.699999999999975
 30
0.0
 11
-49.99999999999999
 21
-2.700000000000023
 31
0.0
  0
LINE
  5
1ACB
330
1F
100
AcDbEntity
  8
AM_0
100
AcDbLine
 10
-15.09807621135339
 20
-3.000000000000003
 30
0.0
 11
-49.49999999999999
 21
-3.000000000000023
 31
0.0
1001
GENIUS_GENODEF_13
1002
{
1000
HIER
1070
     0
1002
}
1002
{
1000
MANEDIT
1070
     0
1002
}
1002
{
1000
NOSEL
1070
     0
1002
}
1002
{
1000
BEHIND
1070
     0
1002
}
1002
{
1000
REACTOR
1002
}
1001
GENIUS_GENOBJ-N-CEN_13
1002
{
1000
OWNER
1000
GEN
1002
}
  0
LINE
  5
1ACC
330
1F
100
AcDbEntity
  8
AM_0
100
AcDbLine
 10
-15.0980762113526
 20
2.999999999999997
 30
0.0
 11
-49.5
 21
2.999999999999976
 31
0.0
1001
GENIUS_GENODEF_13
1002
{
1000
HIER
1070
     0
1002
}
1002
{
1000
MANEDIT
1070
     0
1002
}
1002
{
1000
NOSEL
1070
     0
1002
}
1002
{
1000
BEHIND
1070
     0
1002
}
1002
{
1000
REACTOR
1002
}
1001
GENIUS_GENOBJ-N-CEN_13
1002
{
1000
OWNER
1000
GEN
1002
}
  0
LINE
  5
1ACD
330
1F
100
AcDbEntity
  8
AM_7
  6
AM_ISO08W050X2
100
AcDbLine
 10
4.530570278608138
 20
0.0000000000000011
 30
0.0
 11
-52.59314155754916
 21
-0.0000000000000245
 31
0.0
1001
GENIUS_GENODEF_13
1002
{
1000
HIER
1070
     0
1002
}
1002
{
1000
MANEDIT
1070
     0
1002
}
1002
{
1000
NOSEL
1070
     0
1002
}
1002
{
1000
BEHIND
1070
     0
1002
}
1002
{
1000
REACTOR
1002
}
1001
GENIUS_GENOBJ-N-CEN_13
1002
{
1000
OWNER
1000
GEN
1002
}
  0
DIMENSION
  5
1BA8
330
1F
100
AcDbEntity
  8
AM_5
100
AcDbDimension
  2
*D5
 10
-0.000000000000001
 20
-17.16666666666719
 30
0.0
 11
-25.0
 21
-15.61666666666718
 31
0.0
 70
    32
  1
<>
  3
AM_JIS
100
AcDbAlignedDimension
 13
-50.0
 23
-2.700000000000014
 33
0.0
 14
0.0
 24
-1.500000000000188
 34
0.0
100
AcDbRotatedDimension
1001
GENIUS_GENDTOL_13
1000

1000
h7
1000

1040
0.0
  0
DIMENSION
  5
1BD9
330
1F
100
AcDbEntity
  8
AM_5
100
AcDbDimension
  2
*D6
 10
-59.59314255754917
 20
2.999999999999987
 30
0.0
 11
-59.59314255754917
 21
-0.0000000000000183
 31
0.0
 70
   160
  1
%%c<>
  3
AM_JIS
100
AcDbAlignedDimension
 13
-49.49999999999999
 23
-3.000000000000023
 33
0.0
 14
-49.49999999999999
 24
2.999999999999985
 34
0.0
 50
270.0000000000001
100
AcDbRotatedDimension
1001
GENIUS_GENDTOL_13
1000

1000
h7
1000

1040
0.0
  0
LINE
  5
1DFD
330
1F
100
AcDbEntity
  8
AM_11
100
AcDbLine
 10
-8.0
 20
1.500000000000186
 30
0.0
 11
0.0
 21
1.500000000000186
 31
0.0
  0
LINE
  5
1E02
330
1F
100
AcDbEntity
  8
AM_11
100
AcDbLine
 10
0.0
 20
-1.500000000000188
 30
0.0
 11
-8.0
 21
-1.499999999999982
 31
0.0
  0
LINE
  5
1E14
330
1F
100
AcDbEntity
  8
AM_11
100
AcDbLine
 10
-8.0
 20
1.500000000000186
 30
0.0
 11
-8.0
 21
-1.499999999999982
 31
0.0
  0
LINE
  5
1EFF
330
1F
100
AcDbEntity
  8
AM_0
100
AcDbLine
 10
-0.2025136015499811
 20
1.499999999999914
 30
0.0
 11
-0.2000000000002692
 21
1.499999999999917
 31
0.0
  0
LINE
  5
1F00
330
1F
100
AcDbEntity
  8
AM_0
100
AcDbLine
 10
-0.044304369273513
 20
0.2825132321950885
 30
0.0
 11
-0.167423571318792
 21
0.6742864586266759
 31
0.0
  0
LINE
  5
1F01
330
1F
100
AcDbEntity
  8
AM_0
100
AcDbLine
 10
-0.044304369273513
 20
-0.4596044017399385
 30
0.0
 11
-0.004018856893102
 21
-0.3529865643209808
 31
0.0
  0
LINE
  5
1F02
330
1F
100
AcDbEntity
  8
AM_0
100
AcDbLine
 10
-0.004018856893102
 20
-0.0442928184369014
 30
0.0
 11
-0.044304369273513
 21
0.2825132321950885
 31
0.0
  0
LINE
  5
1F03
330
1F
100
AcDbEntity
  8
AM_0
100
AcDbLine
 10
-0.004018856893102
 20
-0.0379865643209262
 30
0.0
 11
-0.5004582425147554
 21
0.0001956914631871
 31
0.0
  0
LINE
  5
1F04
330
1F
100
AcDbEntity
  8
AM_0
100
AcDbLine
 10
-7.74074074074074
 20
0.7545120151909797
 30
0.0
 11
-7.74074074074074
 21
1.126567509740537
 31
0.0
  0
LINE
  5
1F05
330
1F
100
AcDbEntity
  8
AM_0
100
AcDbLine
 10
-0.040285512380251
 20
-1.410384831837774
 30
0.0
 11
-0.0609607263458522
 21
-1.388137750639686
 31
0.0
  0
LINE
  5
1F06
330
1F
100
AcDbEntity
  8
AM_0
100
AcDbLine
 10
-0.037496951356387
 20
-1.416587989010655
 30
0.0
 11
-0.040285512380251
 21
-1.410384831837774
 31
0.0
  0
LINE
  5
1F07
330
1F
100
AcDbEntity
  8
AM_0
100
AcDbLine
 10
-0.2382819156597975
 20
-1.500000000000051
 30
0.0
 11
-0.2000000000001143
 21
-1.500000000000073
 31
0.0
  0
LINE
  5
1F08
330
1F
100
AcDbEntity
  8
AM_0
100
AcDbLine
 10
-0.0609607263458522
 20
-1.388137750639686
 30
0.0
 11
-0.1542002831363081
 21
-1.1128139038391
 31
0.0
  0
LINE
  5
1F09
330
1F
100
AcDbEntity
  8
AM_0
100
AcDbLine
 10
-0.044304369273513
 20
-0.4596044017399385
 30
0.0
 11
-0.1538473242615223
 21
-0.6472624864277981
 31
0.0
  0
POLYLINE
  5
1F0A
330
1F
100
AcDbEntity
  8
AM_0
100
AcDb2dPolyline
 66
     1
 10
0.0
 20
0.0
 30
0.0
 70
     2
  0
VERTEX
  5
1F0B
330
1F0A
100
AcDbEntity
  8
AM_0
100
AcDbVertex
100
AcDb2dVertex
 10
-7.74074074074074
 20
-0.6916215230516008
 30
0.0
 42
-0.0129986936669445
  0
VERTEX
  5
1F0C
330
1F0A
100
AcDbEntity
  8
AM_0
100
AcDbVertex
100
AcDb2dVertex
 10
-8.17685886711537
 20
-0.401526416857397
 30
0.0
 42
-0.0238378164251699
 70
     1
  0
VERTEX
  5
1F0D
330
1F0A
100
AcDbEntity
  8
AM_0
100
AcDbVertex
100
AcDb2dVertex
 10
-8.400462962962961
 20
-0.2287755480738103
 30
0.0
 42
-0.0087697151677761
  0
VERTEX
  5
1F0E
330
1F0A
100
AcDbEntity
  8
AM_0
100
AcDbVertex
100
AcDb2dVertex
 10
-8.9866911150144
 20
0.2873027408643419
 30
0.0
 42
-0.016586017082525
 70
     1
  0
VERTEX
  5
1F0F
330
1F0A
100
AcDbEntity
  8
AM_0
100
AcDbVertex
100
AcDb2dVertex
 10
-9.280092592592591
 20
0.5732762379326996
 30
0.0
 42
-0.0451742545712589
  0
VERTEX
  5
1F10
330
1F0A
100
AcDbEntity
  8
AM_0
100
AcDbVertex
100
AcDb2dVertex
 10
-9.476626710592151
 20
0.8207293831857978
 30
0.0
 42
-0.1465772931919247
 70
     1
  0
VERTEX
  5
1F11
330
1F0A
100
AcDbEntity
  8
AM_0
100
AcDbVertex
100
AcDb2dVertex
 10
-9.5
 20
0.9124820489614188
 30
0.0
 42
-0.2363269648915856
  0
VERTEX
  5
1F12
330
1F0A
100
AcDbEntity
  8
AM_0
100
AcDbVertex
100
AcDb2dVertex
 10
-9.458625441279567
 20
0.9711548978095603
 30
0.0
 42
-0.0944295254831177
 70
     1
  0
VERTEX
  5
1F13
330
1F0A
100
AcDbEntity
  8
AM_0
100
AcDbVertex
100
AcDb2dVertex
 10
-9.280092592592591
 20
1.031428659267207
 30
0.0
 42
-0.0735428200704349
  0
VERTEX
  5
1F14
330
1F0A
100
AcDbEntity
  8
AM_0
100
AcDbVertex
100
AcDb2dVertex
 10
-9.049810484975065
 20
1.03965933093634
 30
0.0
 42
-0.025664050315163
 70
     1
  0
VERTEX
  5
1F15
330
1F0A
100
AcDbEntity
  8
AM_0
100
AcDbVertex
100
AcDb2dVertex
 10
-8.400462962962961
 20
0.9524436423819874
 30
0.0
 42
-0.0327084143688329
  0
VERTEX
  5
1F16
330
1F0A
100
AcDbEntity
  8
AM_0
100
AcDbVertex
100
AcDb2dVertex
 10
-8.103187501659791
 20
0.8814880515832918
 30
0.0
 42
-0.0257576852941419
 70
     1
  0
VERTEX
  5
1F17
330
1F0A
100
AcDbEntity
  8
AM_0
100
AcDbVertex
100
AcDb2dVertex
 10
-7.74074074074074
 20
0.7545120151909797
 30
0.0
  0
SEQEND
  5
1F18
330
1F0A
100
AcDbEntity
  8
AM_0
  0
LINE
  5
1F19
330
1F
100
AcDbEntity
  8
AM_0
100
AcDbLine
 10
-0.040285512380251
 20
-1.410384831837774
 30
0.0
 11
-0.040285512380251
 21
-0.4489682746177954
 31
0.0
  0
LINE
  5
1F1A
330
1F
100
AcDbEntity
  8
AM_0
100
AcDbLine
 10
0.0
 20
1.299999999999917
 30
0.0
 11
0.0
 21
-1.300000000000073
 31
0.0
  0
LINE
  5
1F1B
330
1F
100
AcDbEntity
  8
AM_11
100
AcDbLine
 10
0.0
 20
1.500000000000186
 30
0.0
 11
0.0
 21
-1.500000000000188
 31
0.0
  0
SPLINE
  5
1F1C
330
1F
100
AcDbEntity
  8
AM_0
100
AcDbSpline
210
0.0
220
0.0
230
1.0
 70
     8
 71
     3
 72
     8
 73
     4
 74
     0
 42
0.0000000001
 43
0.0000000001
 40
0.2725981709865456
 40
0.2725981709865456
 40
0.2725981709865456
 40
0.2725981709865456
 40
2.093133798227362
 40
2.093133798227362
 40
2.093133798227362
 40
2.093133798227362
 10
-6.990457796013903
 20
-1.500000000000002
 30
0.0
 10
-6.778854274895358
 20
-1.492002316101178
 30
0.0
 10
-6.573565766537275
 20
-1.463969553604121
 30
0.0
 10
-6.373480314471557
 20
-1.418216680608212
 30
0.0
  0
SPLINE
  5
1F1D
330
1F
100
AcDbEntity
  8
AM_0
100
AcDbSpline
210
0.0
220
0.0
230
1.0
 70
     8
 71
     3
 72
     8
 73
     4
 74
     0
 42
0.0000000001
 43
0.0000000001
 40
0.0
 40
0.0
 40
0.0
 40
0.0
 40
0.6152373134461622
 40
0.6152373134461622
 40
0.6152373134461622
 40
0.6152373134461622
 10
-6.15902896207968
 20
-1.425418234923183
 30
0.0
 10
-6.231186424767811
 20
-1.425418234923183
 30
0.0
 10
-6.302656784926371
 20
-1.422969883192449
 30
0.0
 10
-6.373480314471557
 20
-1.418216680608191
 30
0.0
  0
SPLINE
  5
1F1E
330
1F
100
AcDbEntity
  8
AM_0
100
AcDbSpline
210
0.0
220
0.0
230
1.0
 70
     8
 71
     3
 72
     8
 73
     4
 74
     0
 42
0.0000000001
 43
0.0000000001
 40
0.0
 40
0.0
 40
0.0
 40
0.0
 40
3.983447643433449
 40
3.983447643433449
 40
3.983447643433449
 40
3.983447643433449
 10
-6.6570370370369
 20
1.499999999999914
 30
0.0
 10
-7.124231513735819
 20
1.499999999999914
 30
0.0
 10
-7.560394961721344
 20
1.394317257622858
 30
0.0
 10
-7.977175815940589
 20
1.222622985867237
 30
0.0
  0
SPLINE
  5
1F1F
330
1F
100
AcDbEntity
  8
AM_0
100
AcDbSpline
210
0.0
220
0.0
230
1.0
 70
     8
 71
     3
 72
     8
 73
     4
 74
     0
 42
0.0000000001
 43
0.0000000001
 40
5.215942287204468
 40
5.215942287204468
 40
5.215942287204468
 40
5.215942287204468
 40
10.4969207889486
 40
10.4969207889486
 40
10.4969207889486
 40
10.4969207889486
 10
-7.740740740740728
 20
0.9849324878820549
 30
0.0
 10
-7.196523928955884
 20
0.7171248793787437
 30
0.0
 10
-6.677776445493417
 20
0.3585624396893631
 30
0.0
 10
-6.159028962031039
 20
-0.0000000000000175
 30
0.0
  0
SPLINE
  5
1F20
330
1F
100
AcDbEntity
  8
AM_0
100
AcDbSpline
210
0.0
220
0.0
230
1.0
 70
     8
 71
     3
 72
     8
 73
     4
 74
     0
 42
0.0000000001
 43
0.0000000001
 40
0.6393216442353146
 40
0.6393216442353146
 40
0.6393216442353146
 40
0.6393216442353146
 40
10.49653484266006
 40
10.49653484266006
 40
10.49653484266006
 40
10.49653484266006
 10
-9.093862980193778
 20
1.500000000000186
 30
0.0
 10
-7.676190198168349
 20
1.277040141333582
 30
0.0
 10
-6.682977380167779
 20
0.6578813616341957
 30
0.0
 10
-5.689764562166888
 20
0.0387225819348084
 30
0.0
  0
SPLINE
  5
1F21
330
1F
100
AcDbEntity
  8
AM_0
100
AcDbSpline
210
0.0
220
0.0
230
1.0
 70
     8
 71
     3
 72
     8
 73
     4
 74
     0
 42
0.0000000001
 43
0.0000000001
 40
6.902118198828401
 40
6.902118198828401
 40
6.902118198828401
 40
6.902118198828401
 40
10.61176705360581
 40
10.61176705360581
 40
10.61176705360581
 40
10.61176705360581
 10
-7.740740740740795
 20
0.7545120151909198
 30
0.0
 10
-7.373234297946638
 20
0.5243682088060078
 30
0.0
 10
-7.015135667491848
 20
0.2621841044029931
 30
0.0
 10
-6.657037037037062
 20
-0.0000000000000175
 30
0.0
  0
SPLINE
  5
1F22
330
1F
100
AcDbEntity
  8
AM_0
100
AcDbSpline
210
0.0
220
0.0
230
1.0
 70
     8
 71
     3
 72
     8
 73
     4
 74
     0
 42
0.0000000001
 43
0.0000000001
 40
0.0
 40
0.0
 40
0.0
 40
0.0
 40
3.920967650819811
 40
3.920967650819811
 40
3.920967650819811
 40
3.920967650819811
 10
-2.865695628697663
 20
-1.425418234923183
 30
0.0
 10
-2.405829052367
 20
-1.42541823492325
 30
0.0
 10
-1.973870091598685
 20
-1.325975057343929
 30
0.0
 10
-1.55939427429979
 20
-1.164234212780629
 30
0.0
  0
SPLINE
  5
1F23
330
1F
100
AcDbEntity
  8
AM_0
100
AcDbSpline
210
0.0
220
0.0
230
1.0
 70
     8
 71
     3
 72
     8
 73
     4
 74
     0
 42
0.0000000001
 43
0.0000000001
 40
0.6152373134470183
 40
0.6152373134470183
 40
0.6152373134470183
 40
0.6152373134470183
 40
8.843083020165714
 40
8.843083020165714
 40
8.843083020165714
 40
8.843083020165714
 10
-2.651244276305406
 20
1.418216680608139
 30
0.0
 10
-1.704089315500115
 20
1.354649961520368
 30
0.0
 10
-0.8726194769629913
 20
0.8788625662813325
 30
0.0
 10
-0.0605111596652714
 20
0.3340842824975704
 30
0.0
  0
SPLINE
  5
1F24
330
1F
100
AcDbEntity
  8
AM_0
100
AcDbSpline
210
0.0
220
0.0
230
1.0
 70
     8
 71
     3
 72
     8
 73
     4
 74
     0
 42
0.0000000001
 43
0.0000000001
 40
0.0
 40
0.0
 40
0.0
 40
0.0
 40
10.7633540680078
 40
10.7633540680078
 40
10.7633540680078
 40
10.7633540680078
 10
-3.363703703703524
 20
1.499999999999982
 30
0.0
 10
-2.101335016714954
 20
1.499999999999982
 30
0.0
 10
-1.055452298105772
 20
0.7503680088069408
 30
0.0
 10
-0.0095695794965911
 20
0.0007360176138992
 30
0.0
  0
SPLINE
  5
1F25
330
1F
100
AcDbEntity
  8
AM_0
100
AcDbSpline
210
0.0
220
0.0
230
1.0
 70
     8
 71
     3
 72
     8
 73
     4
 74
     0
 42
0.0000000001
 43
0.0000000001
 40
1.418383274962104
 40
1.418383274962104
 40
1.418383274962104
 40
1.418383274962104
 40
10.4969207889486
 40
10.4969207889486
 40
10.4969207889486
 40
10.4969207889486
 10
-0.0609607263458522
 20
-1.388137750639686
 30
0.0
 10
-1.082136582833316
 20
-1.232810381163898
 30
0.0
 10
-1.973916105765409
 20
-0.6164051905819582
 30
0.0
 10
-2.865695628697663
 20
-0.0000000000000175
 30
0.0
  0
SPLINE
  5
1F26
330
1F
100
AcDbEntity
  8
AM_0
100
AcDbSpline
210
0.0
220
0.0
230
1.0
 70
     8
 71
     3
 72
     8
 73
     4
 74
     0
 42
0.0000000001
 43
0.0000000001
 40
0.0
 40
0.0
 40
0.0
 40
0.0
 40
10.61176705360627
 40
10.61176705360627
 40
10.61176705360627
 40
10.61176705360627
 10
-0.2382819156597975
 20
-1.500000000000051
 30
0.0
 10
-1.314960333447585
 20
-1.500000000000051
 30
0.0
 10
-2.339332018575634
 20
-0.7500000000000347
 30
0.0
 10
-3.363703703703684
 20
-0.0000000000000175
 30
0.0
  0
SPLINE
  5
1F27
330
1F
100
AcDbEntity
  8
AM_0
100
AcDbSpline
210
0.0
220
0.0
230
1.0
 70
     8
 71
     3
 72
     8
 73
     4
 74
     0
 42
0.0000000001
 43
0.0000000001
 40
3.266224444355238
 40
3.266224444355238
 40
3.266224444355238
 40
3.266224444355238
 40
10.49653484266006
 40
10.49653484266006
 40
10.49653484266006
 40
10.49653484266006
 10
-0.1542002831363081
 20
-1.112813903839032
 30
0.0
 10
-0.9393790537082319
 20
-0.869588940388275
 30
0.0
 10
-1.66790514127103
 20
-0.4154331792267334
 30
0.0
 10
-2.396431228833669
 20
0.0387225819348084
 30
0.0
  0
SPLINE
  5
1F28
330
1F
100
AcDbEntity
  8
AM_0
100
AcDbSpline
210
0.0
220
0.0
230
1.0
 70
     8
 71
     3
 72
     8
 73
     4
 74
     0
 42
0.0000000001
 43
0.0000000001
 40
0.6393216439718838
 40
0.6393216439718838
 40
0.6393216439718838
 40
0.6393216439718838
 40
6.996796499348805
 40
6.996796499348805
 40
6.996796499348805
 40
6.996796499348805
 10
-2.226289294405516
 20
1.361718724260077
 30
0.0
 10
-1.493124696247285
 20
1.30710471209632
 30
0.0
 10
-0.819673678003491
 20
1.030163488290195
 30
0.0
 10
-0.167423571318632
 20
0.6742864586266759
 30
0.0
  0
SPLINE
  5
1F29
330
1F
100
AcDbEntity
  8
AM_0
100
AcDbSpline
210
0.0
220
0.0
230
1.0
 70
     8
 71
     3
 72
     8
 73
     4
 74
     0
 42
0.0000000001
 43
0.0000000001
 40
0.0
 40
0.0
 40
0.0
 40
0.0
 40
2.4079390838223
 40
2.4079390838223
 40
2.4079390838223
 40
2.4079390838223
 10
-2.449325996847973
 20
-1.293859029933361
 30
0.0
 10
-2.166938326363657
 20
-1.290659098659472
 30
0.0
 10
-1.89367258303685
 20
-1.253496162108053
 30
0.0
 10
-1.627436167238354
 20
-1.190161443672076
 30
0.0
  0
SPLINE
  5
1F2A
330
1F
100
AcDbEntity
  8
AM_0
100
AcDbSpline
210
0.0
220
0.0
230
1.0
 70
     8
 71
     3
 72
     9
 73
     5
 74
     0
 42
0.0000000001
 43
0.0000000001
 40
0.0
 40
0.0
 40
0.0
 40
0.0
 40
0.6574415203969619
 40
3.123721247380082
 40
3.123721247380082
 40
3.123721247380082
 40
3.123721247380082
 10
-0.5004582425147554
 20
0.0001956914631871
 30
0.0
 10
-0.5772537691869239
 20
0.0061022059892272
 30
0.0
 10
-1.01485258333714
 20
-0.1935788635097918
 30
0.0
 10
-0.3262911123006788
 20
-0.4492543141517795
 30
0.0
 10
-0.1538473242615223
 20
-0.6472624864277981
 30
0.0
  0
SPLINE
  5
1F2B
330
1F
100
AcDbEntity
  8
AM_0
100
AcDbSpline
210
0.0
220
0.0
230
1.0
 70
     8
 71
     3
 72
     8
 73
     4
 74
     0
 42
0.0000000001
 43
0.0000000001
 40
0.209314580816602
 40
0.209314580816602
 40
0.209314580816602
 40
0.209314580816602
 40
2.847661750814433
 40
2.847661750814433
 40
2.847661750814433
 40
2.847661750814433
 10
-0.0587242275343055
 20
1.441566790295299
 30
0.0
 10
-0.0446474695932832
 20
1.204243882535776
 30
0.0
 10
-0.4582051001495234
 20
1.069430482880857
 30
0.0
 10
-0.8567481820179752
 20
1.010699405330938
 30
0.0
  0
SPLINE
  5
1F2C
330
1F
100
AcDbEntity
  8
AM_0
100
AcDbSpline
210
0.0
220
0.0
230
1.0
 70
     8
 71
     3
 72
     8
 73
     4
 74
     0
 42
0.0000000001
 43
0.0000000001
 40
0.0
 40
0.0
 40
0.0
 40
0.0
 40
4.066976460604845
 40
4.066976460604845
 40
4.066976460604845
 40
4.066976460604845
 10
-0.2025136015499811
 20
1.499999999999914
 30
0.0
 10
-0.5473614367376151
 20
1.499999999999914
 30
0.0
 10
-0.9920064523322018
 20
1.389838671406829
 30
0.0
 10
-1.41670209213062
 20
1.211735517154926
 30
0.0
  0
SPLINE
  5
1F2D
330
1F
100
AcDbEntity
  8
AM_0
100
AcDbSpline
210
0.0
220
0.0
230
1.0
 70
     8
 71
     3
 72
     8
 73
     4
 74
     0
 42
0.0000000001
 43
0.0000000001
 40
0.0
 40
0.0
 40
0.0
 40
0.0
 40
1.551838382253894
 40
1.551838382253894
 40
1.551838382253894
 40
1.551838382253894
 10
-0.1538473242581622
 20
-0.6472624864316862
 30
0.0
 10
-0.0938407987886977
 20
-0.793769565287043
 30
0.0
 10
-0.12055106524508
 20
-0.9603052633950106
 30
0.0
 10
-0.1542002831363081
 20
-1.1128139038391
 30
0.0
  0
SPLINE
  5
1F2E
330
1F
100
AcDbEntity
  8
AM_0
100
AcDbSpline
210
0.0
220
0.0
230
1.0
 70
     8
 71
     3
 72
     8
 73
     4
 74
     0
 42
0.0000000001
 43
0.0000000001
 40
0.0
 40
0.0
 40
0.0
 40
0.0
 40
10.49692078894909
 40
10.49692078894909
 40
10.49692078894909
 40
10.49692078894909
 10
-2.865695628697503
 20
-1.425418234923183
 30
0.0
 10
-4.096815968142148
 20
-1.425418234923183
 30
0.0
 10
-5.127922465086594
 20
-0.7127091174616004
 30
0.0
 10
-6.159028962031039
 20
-0.0000000000000175
 30
0.0
  0
SPLINE
  5
1F2F
330
1F
100
AcDbEntity
  8
AM_0
100
AcDbSpline
210
0.0
220
0.0
230
1.0
 70
     8
 71
     3
 72
     8
 73
     4
 74
     0
 42
0.0000000001
 43
0.0000000001
 40
0.0
 40
0.0
 40
0.0
 40
0.0
 40
10.49653484265986
 40
10.49653484265986
 40
10.49653484265986
 40
10.49653484265986
 10
-2.343536460819366
 20
-1.293859029933361
 30
0.0
 10
-3.574502826327173
 20
-1.279910093128347
 30
0.0
 10
-4.632133694247031
 20
-0.6205937555967698
 30
0.0
 10
-5.689764562166888
 20
0.0387225819348084
 30
0.0
  0
SPLINE
  5
1F30
330
1F
100
AcDbEntity
  8
AM_0
100
AcDbSpline
210
0.0
220
0.0
230
1.0
 70
     8
 71
     3
 72
     8
 73
     4
 74
     0
 42
0.0000000001
 43
0.0000000001
 40
0.0
 40
0.0
 40
0.0
 40
0.0
 40
10.61065478016067
 40
10.61065478016067
 40
10.61065478016067
 40
10.61065478016067
 10
-3.363703703703524
 20
-1.499291678672388
 30
0.0
 10
-4.608163214956936
 20
-1.499291678672388
 30
0.0
 10
-5.632600125997
 20
-0.7496458393362029
 30
0.0
 10
-6.657037037037062
 20
-0.0000000000000175
 30
0.0
  0
SPLINE
  5
1F31
330
1F
100
AcDbEntity
  8
AM_0
100
AcDbSpline
210
0.0
220
0.0
230
1.0
 70
     8
 71
     3
 72
     8
 73
     4
 74
     0
 42
0.0000000001
 43
0.0000000001
 40
0.0
 40
0.0
 40
0.0
 40
0.0
 40
4.066976460604825
 40
4.066976460604825
 40
4.066976460604825
 40
4.066976460604825
 10
-3.363703703703524
 20
1.499999999999914
 30
0.0
 10
-3.840694770070832
 20
1.499999999999914
 30
0.0
 10
-4.28533978566558
 20
1.389838671406829
 30
0.0
 10
-4.710035425463838
 20
1.211735517154926
 30
0.0
  0
SPLINE
  5
1F32
330
1F
100
AcDbEntity
  8
AM_0
100
AcDbSpline
210
0.0
220
0.0
230
1.0
 70
     8
 71
     3
 72
     8
 73
     4
 74
     0
 42
0.0000000001
 43
0.0000000001
 40
0.0
 40
0.0
 40
0.0
 40
0.0
 40
10.61176705360661
 40
10.61176705360661
 40
10.61176705360661
 40
10.61176705360661
 10
-6.657037037037062
 20
1.499999999999982
 30
0.0
 10
-5.412447073959743
 20
1.499999999999982
 30
0.0
 10
-4.388075388831634
 20
0.7499999999999824
 30
0.0
 10
-3.363703703703524
 20
-0.0000000000000175
 30
0.0
  0
SPLINE
  5
1F33
330
1F
100
AcDbEntity
  8
AM_0
100
AcDbSpline
210
0.0
220
0.0
230
1.0
 70
     8
 71
     3
 72
     8
 73
     4
 74
     0
 42
0.0000000001
 43
0.0000000001
 40
0.6152373134470183
 40
0.6152373134470183
 40
0.6152373134470183
 40
0.6152373134470183
 40
10.4969207889486
 40
10.4969207889486
 40
10.4969207889486
 40
10.4969207889486
 10
-5.944577609638785
 20
1.418216680608139
 30
0.0
 10
-4.807039807090236
 20
1.341872735912039
 30
0.0
 10
-3.836367717894029
 20
0.670936367956011
 30
0.0
 10
-2.865695628697503
 20
-0.0000000000000175
 30
0.0
  0
SPLINE
  5
1F34
330
1F
100
AcDbEntity
  8
AM_0
100
AcDbSpline
210
0.0
220
0.0
230
1.0
 70
     8
 71
     3
 72
     8
 73
     4
 74
     0
 42
0.0000000001
 43
0.0000000001
 40
0.6393216442358057
 40
0.6393216442358057
 40
0.6393216442358057
 40
0.6393216442358057
 40
10.49653484266006
 40
10.49653484266006
 40
10.49653484266006
 40
10.49653484266006
 10
-5.519622627647373
 20
1.361718724253324
 30
0.0
 10
-4.382856864835132
 20
1.277040141333514
 30
0.0
 10
-3.389644046834401
 20
0.6578813616341957
 30
0.0
 10
-2.396431228833669
 20
0.0387225819348084
 30
0.0
  0
SPLINE
  5
1F35
330
1F
100
AcDbEntity
  8
AM_0
100
AcDbSpline
210
0.0
220
0.0
230
1.0
 70
     8
 71
     3
 72
     8
 73
     4
 74
     0
 42
0.0000000001
 43
0.0000000001
 40
0.0
 40
0.0
 40
0.0
 40
0.0
 40
2.093133798227362
 40
2.093133798227362
 40
2.093133798227362
 40
2.093133798227362
 10
-3.363703703703684
 20
-1.49929167867232
 30
0.0
 10
-3.118212702677063
 20
-1.499999999999983
 30
0.0
 10
-2.881289553083306
 20
-1.470820366798563
 30
0.0
 10
-2.651244276305566
 20
-1.418216680608208
 30
0.0
  0
SPLINE
  5
1F36
330
1F
100
AcDbEntity
  8
AM_0
100
AcDbSpline
210
0.0
220
0.0
230
1.0
 70
     8
 71
     3
 72
     8
 73
     4
 74
     0
 42
0.0000000001
 43
0.0000000001
 40
0.0
 40
0.0
 40
0.0
 40
0.0
 40
3.977355368879245
 40
3.977355368879245
 40
3.977355368879245
 40
3.977355368879245
 10
-6.15902896207968
 20
-1.425418234923183
 30
0.0
 10
-5.692549011408716
 20
-1.425418234923251
 30
0.0
 10
-5.254785130877213
 20
-1.323094291988633
 30
0.0
 10
-4.834856604317312
 20
-1.157217650751972
 30
0.0
  0
SPLINE
  5
1F37
330
1F
100
AcDbEntity
  8
AM_0
100
AcDbSpline
210
0.0
220
0.0
230
1.0
 70
     8
 71
     3
 72
     8
 73
     4
 74
     0
 42
0.0000000001
 43
0.0000000001
 40
0.150648776844293
 40
0.150648776844293
 40
0.150648776844293
 40
0.150648776844293
 40
6.420166228128741
 40
6.420166228128741
 40
6.420166228128741
 40
6.420166228128741
 10
-5.689764562665713
 20
-1.292861531025511
 30
0.0
 10
-6.422062893723632
 20
-1.273544484653283
 30
0.0
 10
-7.093409559037145
 20
-1.027290552076002
 30
0.0
 10
-7.74074074074074
 20
-0.6916215230516008
 30
0.0
  0
SPLINE
  5
1F38
330
1F
100
AcDbEntity
  8
AM_0
100
AcDbSpline
210
0.0
220
0.0
230
1.0
 70
     8
 71
     3
 72
     8
 73
     4
 74
     0
 42
0.0000000001
 43
0.0000000001
 40
0.0
 40
0.0
 40
0.0
 40
0.0
 40
2.4079390838223
 40
2.4079390838223
 40
2.4079390838223
 40
2.4079390838223
 10
-5.689764562665713
 20
-1.292861531025511
 30
0.0
 10
-5.460271659745675
 20
-1.290659098659472
 30
0.0
 10
-5.187005916419028
 20
-1.253496162108053
 30
0.0
 10
-4.920769500620533
 20
-1.190161443672076
 30
0.0
  0
LINE
  5
1F49
330
1F
100
AcDbEntity
  8
AM_0
100
AcDbLine
 10
-6.990457796013903
 20
-1.500000000000002
 30
0.0
 11
-9.5
 21
-1.499999999999981
 31
0.0
  0
LINE
  5
1F4A
330
1F
100
AcDbEntity
  8
AM_0
100
AcDbLine
 10
-9.093862980193778
 20
1.500000000000186
 30
0.0
 11
-9.5
 21
1.500000000000188
 31
0.0
  0
LINE
  5
1F61
330
1F
100
AcDbEntity
  8
AM_0
100
AcDbLine
 10
-15.0980762113526
 20
2.999999999999997
 30
0.0
 11
-15.09807621135339
 21
-3.000000000000003
 31
0.0
  0
LINE
  5
1F62
330
1F
100
AcDbEntity
  8
AM_0
100
AcDbLine
 10
-15.09807621135339
 20
-3.000000000000003
 30
0.0
 11
-9.5
 21
-1.499999999999981
 31
0.0
  0
LINE
  5
1F63
330
1F
100
AcDbEntity
  8
AM_0
100
AcDbLine
 10
-9.5
 20
-1.499999999999981
 30
0.0
 11
-9.5
 21
1.500000000000188
 31
0.0
  0
LINE
  5
1F64
330
1F
100
AcDbEntity
  8
AM_0
100
AcDbLine
 10
-9.5
 20
1.500000000000188
 30
0.0
 11
-15.0980762113526
 21
2.999999999999997
 31
0.0
  0
ARC
  5
1FEB
330
1F
100
AcDbEntity
  8
AM_0
100
AcDbCircle
 10
-0.2
 20
1.299999999999917
 30
0.0
 40
0.2
100
AcDbArc
 50
0.0
 51
90.00000000007714
1001
GENIUS_GENODEF_13
1002
{
1000
HIER
1070
     0
1002
}
1002
{
1000
MANEDIT
1070
     0
1002
}
1002
{
1000
NOSEL
1070
     0
1002
}
1002
{
1000
BEHIND
1070
     0
1002
}
1002
{
1000
REACTOR
1002
}
1001
GENIUS_GENOBJ-N-FIL_13
1002
{
1000
OWNER
1000
GEN
1002
}
  0
ARC
  5
1FF6
330
1F
100
AcDbEntity
  8
AM_0
100
AcDbCircle
 10
-0.2
 20
-1.300000000000073
 30
0.0
 40
0.2
100
AcDbArc
 50
269.9999999999672
 51
0.0
1001
GENIUS_GENODEF_13
1002
{
1000
HIER
1070
     0
1002
}
1002
{
1000
MANEDIT
1070
     0
1002
}
1002
{
1000
NOSEL
1070
     0
1002
}
1002
{
1000
BEHIND
1070
     0
1002
}
1002
{
1000
REACTOR
1002
}
1001
GENIUS_GENOBJ-N-FIL_13
1002
{
1000
OWNER
1000
GEN
1002
}
  0
DIMENSION
  5
208E
330
1F
100
AcDbEntity
  8
AM_5
100
AcDbDimension
  2
*D7
 10
11.53057127860814
 20
1.500000000000183
 30
0.0
 11
9.98057127860814
 21
6.007142857143042
 31
0.0
 70
    32
  1
%%c<>
  3
AM_JIS
100
AcDbAlignedDimension
 13
0.0
 23
-1.500000000000188
 33
0.0
 14
0.0
 24
1.500000000000186
 34
0.0
 50
89.99999999999849
100
AcDbRotatedDimension
1001
GENIUS_GENDTOL_13
1000

1000
h7
1000

1040
0.0
  0
DIMENSION
  5
21B3
330
1F
100
AcDbEntity
  8
AM_5
100
AcDbDimension
  2
*D8
 10
-0.2000000000000001
 20
-1.300000000000073
 30
0.0
 11
5.380961601523437
 21
-3.824896267653782
 31
0.0
 70
    36
  1
<>
  3
AM_JIS$4
100
AcDbRadialDimension
 15
-0.0445708077086061
 25
-1.42586407821004
 35
0.0
 40
0.0
1001
GENIUS_GENDTOL_13
1000

1000
h7
1000

1040
0.0
1001
ACAD
1000
DSTYLE
1002
{
1070
   287
1070
     3
1070
   271
1070
     3
1070
   288
1070
     1
1070
   289
1070
     3
1070
   172
1070
     1
1070
    74
1070
     0
1002
}
  0
DIMENSION
  5
229E
330
1F
100
AcDbEntity
  8
AM_5
100
AcDbDimension
  2
*D9
 10
-8.0
 20
-11.16666666666718
 30
0.0
 11
-4.0
 21
-9.616666666667187
 31
0.0
 70
    32
  1
<>
  3
AM_JIS
100
AcDbAlignedDimension
 13
0.0
 23
-1.500000000000188
 33
0.0
 14
-8.0
 24
-1.499999999999982
 34
0.0
 50
359.9999999999985
100
AcDbRotatedDimension
1001
GENIUS_GENDTOL_13
1000

1000
h7
1000

1040
0.0
  0
VIEWPORT
  5
110
330
101
100
AcDbEntity
 67
     1
  8
0
100
AcDbViewport
 10
420.5
 20
297.0
 30
0.0
 40
948.9782706766916
 41
628.452
 68
     1
 69
     1
1001
ACAD
1000
MVIEW
1002
{
1070
    16
1010
0.0
1020
0.0
1030
0.0
1010
0.0
1020
0.0
1030
1.0
1040
0.0
1040
628.452
1040
420.5
1040
297.0
1040
50.0
1040
0.0
1040
0.0
1070
     0
1070
   100
1070
     1
1070
     1
1070
     0
1070
     0
1070
     0
1070
     0
1040
0.0
1040
0.0
1040
0.0
1040
10.0
1040
10.0
1040
10.0
1040
10.0
1070
     0
1002
{
1002
}
1002
}
  0
ENDSEC
  0
SECTION
  2
OBJECTS
  0
DICTIONARY
  5
C
330
0
100
AcDbDictionary
  3
ACAD_GROUP
350
D
  3
ACAD_LAYOUT
350
1A
  3
ACAD_MLINESTYLE
350
17
  3
ACAD_PLOTSETTINGS
350
19
  3
ACAD_PLOTSTYLENAME
350
E
  3
ACDBVARIABLEDICTIONARY
350
34
  3
ACMDICTIONARY
350
43
  3
AMG
350
2B
  3
AMGSNAPSETTINGS
350
6E
  3
DWGPROPS
350
250A
  3
ACDBHEADERROUNDTRIPXREC
350
2516
  0
DICTIONARY
  5
74
330
1F
100
AcDbDictionary
280
     1
  3
ACAD_INDEX
360
250C
  3
ACAD_LAYOUTSELFREF
360
2539
  0
DICTIONARY
  5
253E
330
101
100
AcDbDictionary
280
     1
  3
ACAD_LAYOUTSELFREF
360
253F
  0
DICTIONARY
  5
D
102
{ACAD_REACTORS
330
C
102
}
330
C
100
AcDbDictionary
  0
DICTIONARY
  5
1A
102
{ACAD_REACTORS
330
C
102
}
330
C
100
AcDbDictionary
  0
DICTIONARY
  5
17
102
{ACAD_REACTORS
330
C
102
}
330
C
100
AcDbDictionary
  3
STANDARD
350
18
  0
DICTIONARY
  5
19
102
{ACAD_REACTORS
330
C
102
}
330
C
100
AcDbDictionary
  0
ACDBDICTIONARYWDFLT
  5
E
102
{ACAD_REACTORS
330
C
102
}
330
C
100
AcDbDictionary
281
     1
  3
Normal
350
F
100
AcDbDictionaryWithDefault
340
F
  0
DICTIONARY
  5
34
102
{ACAD_REACTORS
330
C
102
}
330
C
100
AcDbDictionary
  3
INDEXCTL
350
35
  3
SORTENTS
350
B5E
  0
DICTIONARY
  5
43
102
{ACAD_REACTORS
330
C
102
}
330
C
100
AcDbDictionary
  3
ACMSTDDICTIONARY
350
260
  0
DICTIONARY
  5
2B
102
{ACAD_REACTORS
330
C
102
}
330
C
100
AcDbDictionary
  3
ACMGSETTINGS
350
2C
  0
DICTIONARY
  5
6E
102
{ACAD_REACTORS
330
C
102
}
330
C
100
AcDbDictionary
  0
XRECORD
  5
250A
102
{ACAD_REACTORS
330
C
102
}
330
C
100
AcDbXrecord
  1
DWGPROPS COOKIE
  2

  3

  4

  6

  7

  8

  9

300
AmdtFileType=82
301
=
302
=
303
=
304
=
305
=
306
=
307
=
308
=
309
=
 40
0.0678840972222222
 41
2452809.403188831
 42
2452844.446300092
  1

 90
        1
  0
DICTIONARY
  5
2516
102
{ACAD_REACTORS
330
C
102
}
330
C
100
AcDbDictionary
  3
TSTACKALIGN
350
2517
  3
TSTACKSIZE
350
2518
  3
HYPERLINKBASE
350
2519
  3
STYLESHEET
350
251A
  3
LAYOUTDICT
350
251B
  3
PLOTSETDICT
350
251C
  3
PLOTSTYLNAMDICT
350
251D
  3
LWETCUNION
350
251E
  3
INSUNITS
350
251F
  3
CEPSNTYPE
350
2520
  3
FINGERPRINTGUID
350
2521
  3
VERSIONGUID
350
2522
  3
PSVPSCALE
350
2523
  3
DIMSTYLEDATA
350
2524
  3
PUCSORTHOREF
350
2525
  3
PUCSORTHOVIEW
350
2526
  3
PUCSBASE
350
2527
  3
PUCSORGTOP
350
2528
  3
PUCSORGBOTTOM
350
2529
  3
PUCSORGLEFT
350
252A
  3
PUCSORGRIGHT
350
252B
  3
PUCSORGFRONT
350
252C
  3
PUCSORGBACK
350
252D
  3
UCSORTHOREF
350
252E
  3
UCSORTHOVIEW
350
252F
  3
UCSBASE
350
2530
  3
UCSORGTOP
350
2531
  3
UCSORGBOTTOM
350
2532
  3
UCSORGLEFT
350
2533
  3
UCSORGRIGHT
350
2534
  3
UCSORGFRONT
350
2535
  3
UCSORGBACK
350
2536
  0
DICTIONARY
  5
250C
102
{ACAD_REACTORS
330
74
102
}
330
74
100
AcDbDictionary
  3
*A1
350
250D
  0
XRECORD
  5
2539
102
{ACAD_REACTORS
330
74
102
}
330
74
100
AcDbXrecord
340
1F
  0
XRECORD
  5
253F
102
{ACAD_REACTORS
330
253E
102
}
330
253E
100
AcDbXrecord
340
101
  0
MLINESTYLE
  5
18
102
{ACAD_REACTORS
330
17
102
}
330
17
100
AcDbMlineStyle
  2
STANDARD
 70
     0
  3

 62
   256
 51
90.0
 52
90.0
 71
     2
 49
0.5
 62
   256
  6
BYLAYER
 49
-0.5
 62
   256
  6
BYLAYER
  0
ACDBPLACEHOLDER
  5
F
102
{ACAD_REACTORS
330
E
102
}
330
E
100
AcDbPlaceHolder
280
     0
  0
DICTIONARYVAR
  5
35
102
{ACAD_REACTORS
330
34
102
}
330
34
100
DictionaryVariables
280
     0
  1
1
  0
DICTIONARYVAR
  5
B5E
102
{ACAD_REACTORS
330
34
102
}
330
34
100
DictionaryVariables
280
     0
  1
96
  0
DICTIONARY
  5
260
102
{ACAD_REACTORS
330
43
102
}
330
43
100
AcDbDictionary
  0
DICTIONARY
  5
2C
102
{ACAD_REACTORS
330
2B
102
}
330
2B
100
AcDbDictionary
  3
DWGSETTINGS
350
2D
  0
XRECORD
  5
2517
102
{ACAD_REACTORS
330
2516
102
}
330
2516
100
AcDbXrecord
 90
        1
  0
XRECORD
  5
2518
102
{ACAD_REACTORS
330
2516
102
}
330
2516
100
AcDbXrecord
 90
       70
  0
XRECORD
  5
2519
102
{ACAD_REACTORS
330
2516
102
}
330
2516
100
AcDbXrecord
  1

  0
XRECORD
  5
251A
102
{ACAD_REACTORS
330
2516
102
}
330
2516
100
AcDbXrecord
  1
ASAMI.ctb
  0
XRECORD
  5
251B
102
{ACAD_REACTORS
330
2516
102
}
330
2516
100
AcDbXrecord
340
1A
  0
XRECORD
  5
251C
102
{ACAD_REACTORS
330
2516
102
}
330
2516
100
AcDbXrecord
340
19
  0
XRECORD
  5
251D
102
{ACAD_REACTORS
330
2516
102
}
330
2516
100
AcDbXrecord
340
E
  0
XRECORD
  5
251E
102
{ACAD_REACTORS
330
2516
102
}
330
2516
100
AcDbXrecord
 90
    10781
  0
XRECORD
  5
251F
102
{ACAD_REACTORS
330
2516
102
}
330
2516
100
AcDbXrecord
 90
        4
  0
XRECORD
  5
2520
102
{ACAD_REACTORS
330
2516
102
}
330
2516
100
AcDbXrecord
 90
        0
  0
XRECORD
  5
2521
102
{ACAD_REACTORS
330
2516
102
}
330
2516
100
AcDbXrecord
  1
{AFB28963-8C59-40AE-9337-C84526B81ACE}
  0
XRECORD
  5
2522
102
{ACAD_REACTORS
330
2516
102
}
330
2516
100
AcDbXrecord
  1
{A752D6F2-3FDE-47E4-B0C6-F124B658E414}
  0
XRECORD
  5
2523
102
{ACAD_REACTORS
330
2516
102
}
330
2516
100
AcDbXrecord
 40
0.0
  0
XRECORD
  5
2524
102
{ACAD_REACTORS
330
2516
102
}
330
2516
100
AcDbXrecord
1000
DSTYLE
1002
{
1070
    79
 70
     2
1070
   341
340
59
1070
   342
340
59
1070
   371
 70
    -1
1070
   372
 70
    -1
1002
}
  0
XRECORD
  5
2525
102
{ACAD_REACTORS
330
2516
102
}
330
2516
100
AcDbXrecord
340
0
  0
XRECORD
  5
2526
102
{ACAD_REACTORS
330
2516
102
}
330
2516
100
AcDbXrecord
 70
     0
  0
XRECORD
  5
2527
102
{ACAD_REACTORS
330
2516
102
}
330
2516
100
AcDbXrecord
340
0
  0
XRECORD
  5
2528
102
{ACAD_REACTORS
330
2516
102
}
330
2516
100
AcDbXrecord
 10
0.0
 20
0.0
 30
0.0
  0
XRECORD
  5
2529
102
{ACAD_REACTORS
330
2516
102
}
330
2516
100
AcDbXrecord
 10
0.0
 20
0.0
 30
0.0
  0
XRECORD
  5
252A
102
{ACAD_REACTORS
330
2516
102
}
330
2516
100
AcDbXrecord
 10
0.0
 20
0.0
 30
0.0
  0
XRECORD
  5
252B
102
{ACAD_REACTORS
330
2516
102
}
330
2516
100
AcDbXrecord
 10
0.0
 20
0.0
 30
0.0
  0
XRECORD
  5
252C
102
{ACAD_REACTORS
330
2516
102
}
330
2516
100
AcDbXrecord
 10
0.0
 20
0.0
 30
0.0
  0
XRECORD
  5
252D
102
{ACAD_REACTORS
330
2516
102
}
330
2516
100
AcDbXrecord
 10
0.0
 20
0.0
 30
0.0
  0
XRECORD
  5
252E
102
{ACAD_REACTORS
330
2516
102
}
330
2516
100
AcDbXrecord
340
0
  0
XRECORD
  5
252F
102
{ACAD_REACTORS
330
2516
102
}
330
2516
100
AcDbXrecord
 70
     0
  0
XRECORD
  5
2530
102
{ACAD_REACTORS
330
2516
102
}
330
2516
100
AcDbXrecord
340
0
  0
XRECORD
  5
2531
102
{ACAD_REACTORS
330
2516
102
}
330
2516
100
AcDbXrecord
 10
0.0
 20
0.0
 30
0.0
  0
XRECORD
  5
2532
102
{ACAD_REACTORS
330
2516
102
}
330
2516
100
AcDbXrecord
 10
0.0
 20
0.0
 30
0.0
  0
XRECORD
  5
2533
102
{ACAD_REACTORS
330
2516
102
}
330
2516
100
AcDbXrecord
 10
0.0
 20
0.0
 30
0.0
  0
XRECORD
  5
2534
102
{ACAD_REACTORS
330
2516
102
}
330
2516
100
AcDbXrecord
 10
0.0
 20
0.0
 30
0.0
  0
XRECORD
  5
2535
102
{ACAD_REACTORS
330
2516
102
}
330
2516
100
AcDbXrecord
 10
0.0
 20
0.0
 30
0.0
  0
XRECORD
  5
2536
102
{ACAD_REACTORS
330
2516
102
}
330
2516
100
AcDbXrecord
 10
0.0
 20
0.0
 30
0.0
  0
LAYER_INDEX
  5
250D
102
{ACAD_REACTORS
330
250C
102
}
330
250C
100
AcDbIndex
 40
2452844.463651076
100
AcDbLayerIndex
  8
0
360
250E
 90
        0
  8
AM_0
360
250F
 90
       57
  8
AM_11
360
2510
 90
        4
  8
AM_7
360
2511
 90
        1
  8
AM_5
360
2512
 90
        5
  8
Defpoints
360
2513
 90
        0
  8
AM_6
360
2514
 90
        1
  0
XRECORD
  5
2D
102
{ACAD_REACTORS
330
2C
102
}
330
2C
100
AcDbXrecord
  1
VERSION
140
15.0
  1
PRODUCT
  2
AutoCAD Mechanical 2000
  0
IDBUFFER
  5
250E
330
0
100
AcDbIdBuffer
  0
IDBUFFER
  5
250F
330
0
100
AcDbIdBuffer
330
1F38
330
1F49
330
1F4A
330
1F61
330
1F62
330
1F63
330
1F64
330
1FEB
330
1FF6
330
1AB8
330
1AB9
330
1ABA
330
1ABB
330
1ACB
330
1ACC
330
1EFF
330
1F00
330
1F01
330
1F02
330
1F03
330
1F04
330
1F05
330
1F06
330
1F07
330
1F08
330
1F09
330
1F0A
330
1F19
330
1F1A
330
1F1C
330
1F1D
330
1F1E
330
1F1F
330
1F20
330
1F21
330
1F22
330
1F23
330
1F24
330
1F25
330
1F26
330
1F27
330
1F28
330
1F29
330
1F2A
330
1F2B
330
1F2C
330
1F2D
330
1F2E
330
1F2F
330
1F30
330
1F31
330
1F32
330
1F33
330
1F34
330
1F35
330
1F36
330
1F37
  0
IDBUFFER
  5
2510
330
0
100
AcDbIdBuffer
330
1DFD
330
1E02
330
1E14
330
1F1B
  0
IDBUFFER
  5
2511
330
0
100
AcDbIdBuffer
330
1ACD
  0
IDBUFFER
  5
2512
330
0
100
AcDbIdBuffer
330
1BA8
330
1BD9
330
208E
330
21B3
330
229E
  0
IDBUFFER
  5
2513
330
0
100
AcDbIdBuffer
  0
IDBUFFER
  5
2514
330
0
100
AcDbIdBuffer
330
F17
  0
ENDSEC
  0
EOF
