  0
SECTION
  2
HEADER
  9
$ACADVER
  1
AC1014
  9
$ACADMAINTVER
 70
     9
  9
$DWGCODEPAGE
  3
ANSI_932
  9
$INSBASE
 10
0.0
 20
0.0
 30
0.0
  9
$EXTMIN
 10
-71.94314255754915
 20
-28.4166666666672
 30
-0.00000001
  9
$EXTMAX
 10
12.03130026890157
 20
5.499999999999987
 30
0.00000001
  9
$LIMMIN
 10
-83.71121918929555
 20
-42.73498789854116
  9
$LIMMAX
 10
26.94237884778909
 20
18.932654917304
  9
$ORTHOMODE
 70
     0
  9
$REGENMODE
 70
     1
  9
$FILLMODE
 70
     1
  9
$QTEXTMODE
 70
     0
  9
$MIRRTEXT
 70
     0
  9
$DRAGMODE
 70
     2
  9
$LTSCALE
 40
1.0
  9
$OSMODE
 70
  2103
  9
$ATTMODE
 70
     1
  9
$TEXTSIZE
 40
2.5
  9
$TRACEWID
 40
1.0
  9
$TEXTSTYLE
  7
STANDARD
  9
$CLAYER
  8
AM_0
  9
$CELTYPE
  6
BYLAYER
  9
$CECOLOR
 62
   256
  9
$CELTSCALE
 40
1.0
  9
$DELOBJ
 70
     1
  9
$DISPSILH
 70
     0
  9
$DIMSCALE
 40
1.0
  9
$DIMASZ
 40
2.5
  9
$DIMEXO
 40
1.0
  9
$DIMDLI
 40
12.0
  9
$DIMRND
 40
0.0
  9
$DIMDLE
 40
0.0
  9
$DIMEXE
 40
1.0
  9
$DIMTP
 40
0.1
  9
$DIMTM
 40
0.1
  9
$DIMTXT
 40
3.2
  9
$DIMCEN
 40
0.0
  9
$DIMTSZ
 40
0.0
  9
$DIMTOL
 70
     0
  9
$DIMLIM
 70
     0
  9
$DIMTIH
 70
     0
  9
$DIMTOH
 70
     0
  9
$DIMSE1
 70
     0
  9
$DIMSE2
 70
     0
  9
$DIMTAD
 70
     3
  9
$DIMZIN
 70
     8
  9
$DIMBLK
  1
OPEN30
  9
$DIMASO
 70
     1
  9
$DIMSHO
 70
     1
  9
$DIMPOST
  1

  9
$DIMAPOST
  1
"
  9
$DIMALT
 70
     0
  9
$DIMALTD
 70
     2
  9
$DIMALTF
 40
0.0393701
  9
$DIMLFAC
 40
1.0
  9
$DIMTOFL
 70
     1
  9
$DIMTVP
 40
0.0
  9
$DIMTIX
 70
     0
  9
$DIMSOXD
 70
     0
  9
$DIMSAH
 70
     0
  9
$DIMBLK1
  1

  9
$DIMBLK2
  1

  9
$DIMSTYLE
  2
AM_JIS
  9
$DIMCLRD
 70
   256
  9
$DIMCLRE
 70
   256
  9
$DIMCLRT
 70
     2
  9
$DIMTFAC
 40
0.71
  9
$DIMGAP
 40
1.5
  9
$DIMJUST
 70
     0
  9
$DIMSD1
 70
     0
  9
$DIMSD2
 70
     0
  9
$DIMTOLJ
 70
     0
  9
$DIMTZIN
 70
     0
  9
$DIMALTZ
 70
     0
  9
$DIMALTTZ
 70
     0
  9
$DIMFIT
 70
     3
  9
$DIMUPT
 70
     0
  9
$DIMUNIT
 70
     2
  9
$DIMDEC
 70
     3
  9
$DIMTDEC
 70
     3
  9
$DIMALTU
 70
     2
  9
$DIMALTTD
 70
     2
  9
$DIMTXSTY
  7
ASAMI
  9
$DIMAUNIT
 70
     0
  9
$LUNITS
 70
     2
  9
$LUPREC
 70
     2
  9
$SKETCHINC
 40
1.0
  9
$FILLETRAD
 40
1.0
  9
$AUNITS
 70
     0
  9
$AUPREC
 70
     0
  9
$MENU
  1
.
  9
$ELEVATION
 40
0.0
  9
$PELEVATION
 40
0.0
  9
$THICKNESS
 40
0.0
  9
$LIMCHECK
 70
     0
  9
$BLIPMODE
 70
     0
  9
$CHAMFERA
 40
0.5
  9
$CHAMFERB
 40
0.5
  9
$CHAMFERC
 40
20.0
  9
$CHAMFERD
 40
0.0
  9
$SKPOLY
 70
     0
  9
$TDCREATE
 40
2452809.403188831
  9
$TDUPDATE
 40
2452844.461435903
  9
$TDINDWG
 40
0.0638883565
  9
$TDUSRTIMER
 40
0.0638883565
  9
$USRTIMER
 70
     1
  9
$ANGBASE
 50
0.0
  9
$ANGDIR
 70
     0
  9
$PDMODE
 70
     0
  9
$PDSIZE
 40
0.0
  9
$PLINEWID
 40
0.0
  9
$COORDS
 70
     2
  9
$SPLFRAME
 70
     0
  9
$SPLINETYPE
 70
     6
  9
$SPLINESEGS
 70
     8
  9
$ATTDIA
 70
     1
  9
$ATTREQ
 70
     1
  9
$HANDLING
 70
 12289
  9
$HANDSEED
  5
2232
  9
$SURFTAB1
 70
     6
  9
$SURFTAB2
 70
     6
  9
$SURFTYPE
 70
     6
  9
$SURFU
 70
     6
  9
$SURFV
 70
     6
  9
$UCSNAME
  2

  9
$UCSORG
 10
0.0
 20
-0.0000000000000002
 30
0.0
  9
$UCSXDIR
 10
1.0
 20
0.0
 30
0.0
  9
$UCSYDIR
 10
0.0
 20
1.0
 30
0.0
  9
$PUCSNAME
  2

  9
$PUCSORG
 10
0.0
 20
0.0
 30
0.0
  9
$PUCSXDIR
 10
1.0
 20
0.0
 30
0.0
  9
$PUCSYDIR
 10
0.0
 20
1.0
 30
0.0
  9
$USERI1
 70
     0
  9
$USERI2
 70
     0
  9
$USERI3
 70
     0
  9
$USERI4
 70
     0
  9
$USERI5
 70
     0
  9
$USERR1
 40
0.0
  9
$USERR2
 40
0.0
  9
$USERR3
 40
0.0
  9
$USERR4
 40
0.0
  9
$USERR5
 40
0.0
  9
$WORLDVIEW
 70
     1
  9
$SHADEDGE
 70
     3
  9
$SHADEDIF
 70
    70
  9
$TILEMODE
 70
     1
  9
$MAXACTVP
 70
    64
  9
$PINSBASE
 10
0.0
 20
0.0
 30
0.0
  9
$PLIMCHECK
 70
     0
  9
$PEXTMIN
 10
1.000000000000000E+20
 20
1.000000000000000E+20
 30
1.000000000000000E+20
  9
$PEXTMAX
 10
-1.000000000000000E+20
 20
-1.000000000000000E+20
 30
-1.000000000000000E+20
  9
$PLIMMIN
 10
0.0
 20
0.0
  9
$PLIMMAX
 10
841.0
 20
594.0
  9
$UNITMODE
 70
     0
  9
$VISRETAIN
 70
     1
  9
$PLINEGEN
 70
     0
  9
$PSLTSCALE
 70
     0
  9
$TREEDEPTH
 70
  3020
  9
$PICKSTYLE
 70
     0
  9
$CMLSTYLE
  2
STANDARD
  9
$CMLJUST
 70
     0
  9
$CMLSCALE
 40
20.0
  9
$PROXYGRAPHICS
 70
     1
  9
$MEASUREMENT
 70
     1
  0
ENDSEC
  0
SECTION
  2
CLASSES
  0
CLASS
  1
ACDBDICTIONARYWDFLT
  2
AcDbDictionaryWithDefault
  3
AutoCAD 2000
 90
        0
280
     0
281
     0
  0
CLASS
  1
ACDBPLACEHOLDER
  2
AcDbPlaceHolder
  3
AutoCAD 2000
 90
        0
280
     0
281
     0
  0
CLASS
  1
LAYOUT
  2
AcDbLayout
  3
AutoCAD 2000
 90
        0
280
     0
281
     0
  0
CLASS
  1
AMGSETTINGSOBJ
  2
AmgSettingsObj
  3
"AcadM|Product Description: AutoCAD Mechanical 2000|Company: Autodesk"
 90
        0
280
     0
281
     0
  0
CLASS
  1
ACME_DOCUMENT
  2
AcMeDbDoc
  3
AcMeServices
 90
        0
280
     0
281
     0
  0
CLASS
  1
ACMESCOPE
  2
AcMeScope
  3
AcMeServices
 90
        0
280
     0
281
     0
  0
CLASS
  1
ACMECOMMANDHISTORY
  2
AcMeCommandHistory
  3
AcMeServices
 90
        0
280
     0
281
     0
  0
CLASS
  1
DICTIONARYVAR
  2
AcDbDictionaryVar
  3
AutoCAD 2000
 90
        0
280
     0
281
     0
  0
CLASS
  1
ACIMSYSVARMAN
  2
AcImSysVarManager
  3
AcMeServices
 90
        0
280
     0
281
     0
  0
CLASS
  1
ACIMREALSYSVAR
  2
AcImRealSysVar
  3
AcMeServices
 90
        0
280
     0
281
     0
  0
CLASS
  1
ACIMINTSYSVAR
  2
AcImIntSysVar
  3
AcMeServices
 90
        0
280
     0
281
     0
  0
CLASS
  1
ACMEDRAWINGMAN
  2
AcMeDrawingMan
  3
AcMeServices
 90
        0
280
     0
281
     0
  0
CLASS
  1
ACMEVIEW
  2
AcMeView
  3
AcMeServices
 90
        0
280
     0
281
     0
  0
CLASS
  1
ACDBENTITYCACHE
  2
AcMeEntityCache
  3
AcMeServices
 90
        0
280
     0
281
     0
  0
CLASS
  1
GSMANAGER
  2
AcMeGSManager
  3
AcMeServices
 90
        0
280
     0
281
     0
  0
CLASS
  1
AmdtInternalReactor
  2
AmdtInternalReactor
  3
AcMeServices
 90
        0
280
     0
281
     0
  0
CLASS
  1
ACMESTATEMGR
  2
AcMeStateMgr
  3
AcMeServices
 90
        0
280
     0
281
     0
  0
CLASS
  1
ACME_DATABASE
  2
AcMeDbDatabase
  3
AcMeServices
 90
        0
280
     0
281
     0
  0
CLASS
  1
ACRFINSADJUSTERMGR
  2
AcRfInsAdjusterMgr
  3
AcMeServices
 90
        0
280
     0
281
     0
  0
CLASS
  1
ACMDATADICTIONARY
  2
AcmDataDictionary
  3
"AcmSymBB|Product Description: AutoCAD Mechanical 2000|Company: Autodesk"
 90
        0
280
     0
281
     0
  0
CLASS
  1
ACMDATAENTRYBLOCK
  2
AcmDataEntryBlock
  3
"AcmSymBB|Product Description: AutoCAD Mechanical 2000|Company: Autodesk"
 90
        0
280
     0
281
     0
  0
CLASS
  1
AMGOBJPROPCFG
  2
AmgObjPropCfg
  3
"AmgLay|Product Description: AutoCAD Mechanical 2000|Company: Autodesk"
 90
        1
280
     0
281
     0
  0
CLASS
  1
ACAMGFILTERDAT
  2
AcAmgFilterDat
  3
"AcadM|Product Description: AutoCAD Mechanical 2000|Company: Autodesk"
 90
        0
280
     0
281
     0
  0
CLASS
  1
LAYER_INDEX
  2
AcDbLayerIndex
  3
AutoCAD 2000
 90
        0
280
     0
281
     0
  0
CLASS
  1
IDBUFFER
  2
AcDbIdBuffer
  3
AutoCAD 2000
 90
        0
280
     0
281
     0
  0
CLASS
  1
ACIMSTRSYSVAR
  2
AcImStrSysVar
  3
AcMeServices
 90
        0
280
     0
281
     0
  0
CLASS
  1
ACMSTANDARDJIS
  2
AcmStandardJIS
  3
"AcmSymBB|Product Description: AutoCAD Mechanical 2000|Company: Autodesk"
 90
        0
280
     0
281
     0
  0
CLASS
  1
ACMSURFSTANDARDJIS
  2
AcmSurfTextStdJIS
  3
"AcmSymBB|Product Description: AutoCAD Mechanical 2000|Company: Autodesk"
 90
        0
280
     0
281
     0
  0
CLASS
  1
ACMFCFSTANDARDJIS
  2
AcmFCFStdJIS
  3
"AcmSymBB|Product Description: AutoCAD Mechanical 2000|Company: Autodesk"
 90
        0
280
     0
281
     0
  0
CLASS
  1
ACMWELDSTANDARDJIS
  2
AcmWeldingStdJIS
  3
"AcmSymBB|Product Description: AutoCAD Mechanical 2000|Company: Autodesk"
 90
        0
280
     0
281
     0
  0
CLASS
  1
ACMIDSTANDARDJIS
  2
AcmIdStdJIS
  3
"AcmSymBB|Product Description: AutoCAD Mechanical 2000|Company: Autodesk"
 90
        0
280
     0
281
     0
  0
CLASS
  1
ACMDATUMSTANDARDJIS
  2
AcmDatumStdJIS
  3
"AcmSymBB|Product Description: AutoCAD Mechanical 2000|Company: Autodesk"
 90
        0
280
     0
281
     0
  0
CLASS
  1
ACMBOMSTANDARDJIS
  2
AcmBOMStdJIS
  3
"AcmSymBB|Product Description: AutoCAD Mechanical 2000|Company: Autodesk"
 90
        0
280
     0
281
     0
  0
CLASS
  1
ACMSTANDARDANSI
  2
AcmStandardANSI
  3
"AcmSymBB|Product Description: AutoCAD Mechanical 2000|Company: Autodesk"
 90
        0
280
     0
281
     0
  0
CLASS
  1
ACMSURFSTANDARDANSI
  2
AcmSurfTextStdANSI
  3
"AcmSymBB|Product Description: AutoCAD Mechanical 2000|Company: Autodesk"
 90
        0
280
     0
281
     0
  0
CLASS
  1
ACMFCFSTANDARDANSI
  2
AcmFCFStdANSI
  3
"AcmSymBB|Product Description: AutoCAD Mechanical 2000|Company: Autodesk"
 90
        0
280
     0
281
     0
  0
CLASS
  1
ACMWELDSTANDARDANSI
  2
AcmWeldingStdANSI
  3
"AcmSymBB|Product Description: AutoCAD Mechanical 2000|Company: Autodesk"
 90
        0
280
     0
281
     0
  0
CLASS
  1
ACMIDSTANDARDANSI
  2
AcmIdStdANSI
  3
"AcmSymBB|Product Description: AutoCAD Mechanical 2000|Company: Autodesk"
 90
        0
280
     0
281
     0
  0
CLASS
  1
ACMDATUMSTANDARDANSI
  2
AcmDatumStdANSI
  3
"AcmSymBB|Product Description: AutoCAD Mechanical 2000|Company: Autodesk"
 90
        0
280
     0
281
     0
  0
CLASS
  1
ACMBOMSTANDARDANSI
  2
AcmBOMStdANSI
  3
"AcmSymBB|Product Description: AutoCAD Mechanical 2000|Company: Autodesk"
 90
        0
280
     0
281
     0
  0
CLASS
  1
ACMSTANDARDBSI
  2
AcmStandardBSI
  3
"AcmSymBB|Product Description: AutoCAD Mechanical 2000|Company: Autodesk"
 90
        0
280
     0
281
     0
  0
CLASS
  1
ACMSURFSTANDARDBSI
  2
AcmSurfTextStdBSI
  3
"AcmSymBB|Product Description: AutoCAD Mechanical 2000|Company: Autodesk"
 90
        0
280
     0
281
     0
  0
CLASS
  1
ACMFCFSTANDARDBSI
  2
AcmFCFStdBSI
  3
"AcmSymBB|Product Description: AutoCAD Mechanical 2000|Company: Autodesk"
 90
        0
280
     0
281
     0
  0
CLASS
  1
ACMWELDSTANDARDBSI
  2
AcmWeldingStdBSI
  3
"AcmSymBB|Product Description: AutoCAD Mechanical 2000|Company: Autodesk"
 90
        0
280
     0
281
     0
  0
CLASS
  1
ACMIDSTANDARDBSI
  2
AcmIdStdBSI
  3
"AcmSymBB|Product Description: AutoCAD Mechanical 2000|Company: Autodesk"
 90
        0
280
     0
281
     0
  0
CLASS
  1
ACMDATUMSTANDARDBSI
  2
AcmDatumStdBSI
  3
"AcmSymBB|Product Description: AutoCAD Mechanical 2000|Company: Autodesk"
 90
        0
280
     0
281
     0
  0
CLASS
  1
ACMBOMSTANDARDBSI
  2
AcmBOMStdBSI
  3
"AcmSymBB|Product Description: AutoCAD Mechanical 2000|Company: Autodesk"
 90
        0
280
     0
281
     0
  0
CLASS
  1
LONG_TRANSACTION
  2
AcDbLongTransaction
  3
AutoCAD 2000
 90
        0
280
     0
281
     0
  0
CLASS
  1
LWPOLYLINE
  2
AcDbPolyline
  3
AutoCAD 2000
 90
        0
280
     0
281
     1
  0
CLASS
  1
HATCH
  2
AcDbHatch
  3
AutoCAD 2000
 90
        0
280
     0
281
     1
  0
CLASS
  1
XRECORD
  2
AcDbXrecord
  3
AutoCAD 2000
 90
        0
280
     0
281
     0
  0
ENDSEC
  0
SECTION
  2
TABLES
  0
TABLE
  2
VPORT
  5
8
330
0
100
AcDbSymbolTable
 70
     3
  0
VPORT
  5
2201
330
8
100
AcDbSymbolTableRecord
100
AcDbViewportTableRecord
  2
*ACTIVE
 70
     0
 10
0.0
 20
0.0
 11
1.0
 21
1.0
 12
-29.95551645698546
 22
-11.46029367905224
 13
0.0
 23
0.0
 14
2.5
 24
2.5
 15
10.0
 25
10.0
 16
0.0
 26
0.0
 36
1.0
 17
0.0
 27
0.0
 37
0.0
 40
53.8450139344006
 41
1.56570841889117
 42
50.0
 43
0.0
 44
0.0
 50
0.0
 51
0.0
 71
     0
 72
   100
 73
     1
 74
     3
 75
     0
 76
     0
 77
     0
 78
     0
  0
ENDTAB
  0
TABLE
  2
LTYPE
  5
5
330
0
100
AcDbSymbolTable
 70
    10
  0
LTYPE
  5
14
330
5
100
AcDbSymbolTableRecord
100
AcDbLinetypeTableRecord
  2
BYBLOCK
 70
     0
  3

 72
    65
 73
     0
 40
0.0
  0
LTYPE
  5
15
330
5
100
AcDbSymbolTableRecord
100
AcDbLinetypeTableRecord
  2
BYLAYER
 70
     0
  3

 72
    65
 73
     0
 40
0.0
  0
LTYPE
  5
16
330
5
100
AcDbSymbolTableRecord
100
AcDbLinetypeTableRecord
  2
CONTINUOUS
 70
     0
  3
Solid line
 72
    65
 73
     0
 40
0.0
  0
LTYPE
  5
4B
330
5
100
AcDbSymbolTableRecord
100
AcDbLinetypeTableRecord
  2
AM_ISO02W050
 70
     0
  3
__ __ __ __ __ __ __ __ __ __ __ __ __ __ __
 72
    65
 73
     2
 40
7.5
 49
6.0
 74
     0
 49
-1.5
 74
     0
  0
LTYPE
  5
4C
330
5
100
AcDbSymbolTableRecord
100
AcDbLinetypeTableRecord
  2
AM_ISO08W050
 70
     0
  3
____ . ____ . ____ . ____ . ____ . ____ . ____
 72
    65
 73
     4
 40
18.0
 49
12.0
 74
     0
 49
-1.5
 74
     0
 49
3.0
 74
     0
 49
-1.5
 74
     0
  0
LTYPE
  5
4D
330
5
100
AcDbSymbolTableRecord
100
AcDbLinetypeTableRecord
  2
AM_ISO09W050
 70
     0
  3
_____ . . _____ . . _____ . . ____ .. ____
 72
    65
 73
     6
 40
22.5
 49
12.0
 74
     0
 49
-1.5
 74
     0
 49
3.0
 74
     0
 49
-1.5
 74
     0
 49
3.0
 74
     0
 49
-1.5
 74
     0
  0
LTYPE
  5
4E
330
5
100
AcDbSymbolTableRecord
100
AcDbLinetypeTableRecord
  2
AMCONSTR
 70
     0
  3
_______________________
 72
    65
 73
     2
 40
9999.0
 49
9999.0
 74
     0
 49
0.0
 74
     0
  0
LTYPE
  5
4F
330
5
100
AcDbSymbolTableRecord
100
AcDbLinetypeTableRecord
  2
AM_ISO02W050X2
 70
     0
  3
 _ _ _ _ _ _ _ _ _ _ _ _
 72
    65
 73
     2
 40
3.75
 49
3.0
 74
     0
 49
-0.75
 74
     0
  0
LTYPE
  5
50
330
5
100
AcDbSymbolTableRecord
100
AcDbLinetypeTableRecord
  2
AM_ISO08W050X2
 70
     0
  3
__ . __ . __ . __ . __ . __
 72
    65
 73
     4
 40
9.0
 49
6.0
 74
     0
 49
-0.75
 74
     0
 49
1.5
 74
     0
 49
-0.75
 74
     0
  0
LTYPE
  5
53
330
5
100
AcDbSymbolTableRecord
100
AcDbLinetypeTableRecord
  2
AMZIGZAG
 70
     0
  3
/\/-/\/-/\/-/\/-/\/-/\/
 72
    65
 73
     2
 40
11.00009999999999
 49
0.0001
 74
     4
 75
   135
340
52
 46
0.04
 50
0.0
 44
0.0
 45
0.0
 49
-11.0
 74
     0
  0
LTYPE
  5
166
330
5
100
AcDbSymbolTableRecord
100
AcDbLinetypeTableRecord
  2
ACJISTGL
 70
     0
  3
_ _ _ _ _
 72
    65
 73
     2
 40
3.0
 49
2.0
 74
     0
 49
-1.0
 74
     0
  0
LTYPE
  5
26A
330
5
100
AcDbSymbolTableRecord
100
AcDbLinetypeTableRecord
  2
ACJISTGB
 70
     0
  3
__ . . __ . .
 72
    65
 73
     6
 40
9.0
 49
4.0
 74
     0
 49
-1.0
 74
     0
 49
1.0
 74
     0
 49
-1.0
 74
     0
 49
1.0
 74
     0
 49
-1.0
 74
     0
  0
ENDTAB
  0
TABLE
  2
LAYER
  5
2
330
0
100
AcDbSymbolTable
 70
     7
  0
LAYER
  5
10
330
2
100
AcDbSymbolTableRecord
100
AcDbLayerTableRecord
  2
0
 70
     0
 62
     7
  6
CONTINUOUS
  0
LAYER
  5
3F9
330
2
100
AcDbSymbolTableRecord
100
AcDbLayerTableRecord
  2
AM_0
 70
     0
 62
     7
  6
CONTINUOUS
  0
LAYER
  5
BA4
330
2
100
AcDbSymbolTableRecord
100
AcDbLayerTableRecord
  2
AM_11
 70
     0
 62
     3
  6
AM_ISO09W050
  0
LAYER
  5
BA5
330
2
100
AcDbSymbolTableRecord
100
AcDbLayerTableRecord
  2
AM_7
 70
     0
 62
     4
  6
AM_ISO08W050
  0
LAYER
  5
D38
330
2
100
AcDbSymbolTableRecord
100
AcDbLayerTableRecord
  2
AM_5
 70
     0
 62
     3
  6
CONTINUOUS
  0
LAYER
  5
D3A
330
2
100
AcDbSymbolTableRecord
100
AcDbLayerTableRecord
  2
DEFPOINTS
 70
     0
 62
     7
  6
CONTINUOUS
  0
LAYER
  5
F16
330
2
100
AcDbSymbolTableRecord
100
AcDbLayerTableRecord
  2
AM_6
 70
     0
 62
     2
  6
CONTINUOUS
  0
ENDTAB
  0
TABLE
  2
STYLE
  5
3
330
0
100
AcDbSymbolTable
 70
     5
  0
STYLE
  5
11
330
3
100
AcDbSymbolTableRecord
100
AcDbTextStyleTableRecord
  2
STANDARD
 70
     0
 40
0.0
 41
1.0
 50
0.0
 71
     0
 42
2.5
  3
simplex.shx
  4
EXTFONT.SHX
  0
STYLE
  5
52
330
3
100
AcDbSymbolTableRecord
100
AcDbTextStyleTableRecord
  2

 70
     1
 40
0.0
 41
1.0
 50
0.0
 71
     0
 42
2.5
  3
ltypeshp.shx
  4

  0
STYLE
  5
6B
330
3
100
AcDbSymbolTableRecord
100
AcDbTextStyleTableRecord
  2
ASAMI
 70
     0
 40
0.0
 41
1.0
 50
0.0
 71
     0
 42
2.5
  3
simplex.shx
  4
EXTFONT.SHX
  0
STYLE
  5
262
330
3
100
AcDbSymbolTableRecord
100
AcDbTextStyleTableRecord
  2
ACJISTS
 70
     0
 40
1.0
 41
1.0
 50
0.0
 71
     0
 42
2.5
  3
simplex.shx
  4
bigfont.shx
  0
STYLE
  5
269
330
3
100
AcDbSymbolTableRecord
100
AcDbTextStyleTableRecord
  2
ACJISGDT
 70
     0
 40
0.0
 41
1.0
 50
0.0
 71
     0
 42
2.5
  3
amgdtans.shx
  4

  0
ENDTAB
  0
TABLE
  2
VIEW
  5
6
330
0
100
AcDbSymbolTable
 70
     0
  0
ENDTAB
  0
TABLE
  2
UCS
  5
7
330
0
100
AcDbSymbolTable
 70
     0
  0
ENDTAB
  0
TABLE
  2
APPID
  5
9
330
0
100
AcDbSymbolTable
 70
    13
  0
APPID
  5
12
330
9
100
AcDbSymbolTableRecord
100
AcDbRegAppTableRecord
  2
ACAD
 70
     0
  0
APPID
  5
30
330
9
100
AcDbSymbolTableRecord
100
AcDbRegAppTableRecord
  2
MCAD_NO_VIS
 70
     0
  0
APPID
  5
31
330
9
100
AcDbSymbolTableRecord
100
AcDbRegAppTableRecord
  2
ACAD_TEMP_GRAPHIC
 70
     0
  0
APPID
  5
2C2
330
9
100
AcDbSymbolTableRecord
100
AcDbRegAppTableRecord
  2
GENIUS_GENDTOL_13
 70
     0
  0
APPID
  5
339
330
9
100
AcDbSymbolTableRecord
100
AcDbRegAppTableRecord
  2
GENIUS_GENODEF_13
 70
     0
  0
APPID
  5
33A
330
9
100
AcDbSymbolTableRecord
100
AcDbRegAppTableRecord
  2
GENIUS_GENOBJ-N-RSBK_13
 70
     0
  0
APPID
  5
33B
330
9
100
AcDbSymbolTableRecord
100
AcDbRegAppTableRecord
  2
GENIUS_GENOBJ-N-LIB_13
 70
     0
  0
APPID
  5
33C
330
9
100
AcDbSymbolTableRecord
100
AcDbRegAppTableRecord
  2
GENIUS_GENSCALE_13
 70
     0
  0
APPID
  5
378
330
9
100
AcDbSymbolTableRecord
100
AcDbRegAppTableRecord
  2
GENIUS_GENDIMSH_14
 70
     0
  0
APPID
  5
BA6
330
9
100
AcDbSymbolTableRecord
100
AcDbRegAppTableRecord
  2
GENIUS_GENOBJ-N-CEN_13
 70
     0
  0
APPID
  5
D2B
330
9
100
AcDbSymbolTableRecord
100
AcDbRegAppTableRecord
  2
GENIUS_GENFIL_13
 70
     0
  0
APPID
  5
D2C
330
9
100
AcDbSymbolTableRecord
100
AcDbRegAppTableRecord
  2
GENIUS_GENOBJ-N-CHA_13
 70
     0
  0
APPID
  5
1EB3
330
9
100
AcDbSymbolTableRecord
100
AcDbRegAppTableRecord
  2
GENIUS_GENOBJ-N-FIL_13
 70
     0
  0
ENDTAB
  0
TABLE
  2
DIMSTYLE
  5
A
330
0
100
AcDbSymbolTable
 70
     8
  0
DIMSTYLE
105
58
102
{ACAD_REACTORS
330
1B5C
330
1B7C
330
1BA8
330
1BD9
102
}
330
A
100
AcDbSymbolTableRecord
100
AcDbDimStyleTableRecord
  2
AM_JIS
 70
     0
  3

  4
"
  5
OPEN30
  6

  7

 40
0.5
 41
2.5
 42
1.0
 43
12.0
 44
1.0
 45
0.0
 46
0.0
 47
0.1
 48
0.1
140
3.2
141
0.0
142
0.0
143
0.0393701
144
1.0
145
0.0
146
0.71
147
1.5
 71
     0
 72
     0
 73
     0
 74
     0
 75
     0
 76
     0
 77
     3
 78
     8
170
     0
171
     2
172
     1
173
     0
174
     0
175
     0
176
   256
177
   256
178
     2
270
     2
271
     3
272
     3
273
     2
274
     2
340
6B
275
     0
280
     0
281
     0
282
     0
283
     0
284
     0
285
     0
286
     0
287
     3
288
     0
  0
DIMSTYLE
105
5F
330
A
100
AcDbSymbolTableRecord
100
AcDbDimStyleTableRecord
  2
AM_JIS$3
 70
     0
  3

  4
"
  5
OPEN30
  6

  7

 40
0.5
 41
2.5
 42
1.0
 43
10.0
 44
1.0
 45
0.0
 46
0.0
 47
0.1
 48
0.1
140
3.2
141
0.0
142
0.0
143
0.0393701
144
1.0
145
0.0
146
0.71
147
1.5
 71
     0
 72
     0
 73
     0
 74
     1
 75
     0
 76
     0
 77
     3
 78
     8
170
     0
171
     2
172
     0
173
     0
174
     0
175
     0
176
   256
177
   256
178
     2
270
     2
271
     2
272
     3
273
     2
274
     2
340
6B
275
     0
280
     0
281
     0
282
     0
283
     0
284
     0
285
     0
286
     0
287
     0
288
     1
  0
DIMSTYLE
105
60
102
{ACAD_REACTORS
330
2010
102
}
330
A
100
AcDbSymbolTableRecord
100
AcDbDimStyleTableRecord
  2
AM_JIS$4
 70
     0
  3

  4
"
  5
OPEN30
  6

  7

 40
0.5
 41
2.5
 42
1.0
 43
10.0
 44
1.0
 45
0.0
 46
0.0
 47
0.1
 48
0.1
140
3.2
141
0.0
142
0.0
143
0.0393701
144
1.0
145
0.0
146
0.71
147
1.5
 71
     0
 72
     0
 73
     0
 74
     1
 75
     0
 76
     0
 77
     3
 78
     8
170
     0
171
     2
172
     0
173
     0
174
     0
175
     0
176
   256
177
   256
178
     2
270
     2
271
     2
272
     3
273
     2
274
     2
340
6B
275
     0
280
     0
281
     0
282
     0
283
     0
284
     0
285
     0
286
     0
287
     0
288
     1
  0
DIMSTYLE
105
61
330
A
100
AcDbSymbolTableRecord
100
AcDbDimStyleTableRecord
  2
AM_JIS$6
 70
     0
  3

  4
"
  5
OPEN30
  6

  7

 40
0.5
 41
2.5
 42
1.0
 43
10.0
 44
1.0
 45
0.0
 46
0.0
 47
0.1
 48
0.1
140
3.2
141
0.0
142
0.0
143
0.0393701
144
1.0
145
0.0
146
0.71
147
1.5
 71
     0
 72
     0
 73
     0
 74
     0
 75
     0
 76
     0
 77
     0
 78
     8
170
     0
171
     2
172
     1
173
     0
174
     0
175
     0
176
   256
177
   256
178
     2
270
     2
271
     2
272
     2
273
     2
274
     2
340
6B
275
     0
280
     0
281
     0
282
     0
283
     0
284
     0
285
     0
286
     0
287
     3
288
     0
  0
DIMSTYLE
105
62
330
A
100
AcDbSymbolTableRecord
100
AcDbDimStyleTableRecord
  2
AM_JIS$7
 70
     0
  3

  4
"
  5
OPEN30
  6

  7

 40
0.5
 41
2.5
 42
1.0
 43
10.0
 44
1.0
 45
0.0
 46
0.0
 47
0.1
 48
0.1
140
3.2
141
0.0
142
0.0
143
0.0393701
144
1.0
145
0.0
146
0.71
147
1.5
 71
     0
 72
     0
 73
     0
 74
     0
 75
     0
 76
     0
 77
     3
 78
     8
170
     0
171
     2
172
     1
173
     0
174
     0
175
     0
176
   256
177
   256
178
     2
270
     2
271
     2
272
     3
273
     2
274
     2
340
6B
275
     0
280
     0
281
     0
282
     0
283
     0
284
     0
285
     0
286
     0
287
     3
288
     0
  0
DIMSTYLE
105
63
330
A
100
AcDbSymbolTableRecord
100
AcDbDimStyleTableRecord
  2
AM_JIS$SF
 70
     0
  3

  4
"
  5
OPEN30
  6

  7

 40
0.5
 41
2.5
 42
1.0
 43
10.0
 44
1.0
 45
0.0
 46
0.0
 47
0.1
 48
0.1
140
3.2
141
0.0
142
0.0
143
0.0393701
144
1.0
145
0.0
146
0.71
147
1.5
 71
     0
 72
     0
 73
     0
 74
     0
 75
     1
 76
     1
 77
     3
 78
     8
170
     0
171
     2
172
     1
173
     0
174
     0
175
     0
176
   256
177
   256
178
     2
270
     2
271
     2
272
     2
273
     2
274
     2
340
6B
275
     0
280
     0
281
     0
282
     0
283
     0
284
     0
285
     0
286
     0
287
     3
288
     0
  0
DIMSTYLE
105
68
330
A
100
AcDbSymbolTableRecord
100
AcDbDimStyleTableRecord
  2
AM_JIS$SH
 70
     0
  3

  4
"
  5

  6
GENAXEH
  7
OPEN30
 40
0.5
 41
2.5
 42
1.0
 43
10.0
 44
1.0
 45
0.0
 46
0.0
 47
0.1
 48
0.1
140
3.2
141
0.0
142
0.0
143
0.0393701
144
2.0
145
0.0
146
0.71
147
1.5
 71
     0
 72
     0
 73
     0
 74
     0
 75
     1
 76
     1
 77
     3
 78
     8
170
     0
171
     2
172
     1
173
     1
174
     0
175
     0
176
   256
177
   256
178
     2
270
     2
271
     2
272
     2
273
     2
274
     2
340
6B
275
     0
280
     0
281
     0
282
     0
283
     0
284
     0
285
     0
286
     0
287
     3
288
     0
  0
DIMSTYLE
105
B34
330
A
100
AcDbSymbolTableRecord
100
AcDbDimStyleTableRecord
  2
AM_JIS$2
 70
     0
  3

  4
"
  5
OPEN30
  6

  7

 40
0.5
 41
2.5
 42
1.0
 43
12.0
 44
1.0
 45
0.0
 46
0.0
 47
0.1
 48
0.1
140
3.2
141
0.0
142
0.0
143
0.0393701
144
1.0
145
0.0
146
0.71
147
1.5
 71
     0
 72
     0
 73
     0
 74
     0
 75
     0
 76
     0
 77
     3
 78
     8
170
     0
171
     2
172
     1
173
     0
174
     0
175
     0
176
   256
177
   256
178
     2
270
     2
271
     3
272
     3
273
     2
274
     2
340
6B
275
     0
280
     0
281
     0
282
     0
283
     0
284
     0
285
     0
286
     0
287
     3
288
     0
  0
ENDTAB
  0
TABLE
  2
BLOCK_RECORD
  5
1
330
0
100
AcDbSymbolTable
 70
    10
  0
BLOCK_RECORD
  5
1F
102
{ACAD_XDICTIONARY
360
74
102
}
330
1
100
AcDbSymbolTableRecord
100
AcDbBlockTableRecord
  2
*MODEL_SPACE
  0
BLOCK_RECORD
  5
101
102
{ACAD_XDICTIONARY
360
222A
102
}
330
1
100
AcDbSymbolTableRecord
100
AcDbBlockTableRecord
  2
*PAPER_SPACE
  0
BLOCK_RECORD
  5
59
330
1
100
AcDbSymbolTableRecord
100
AcDbBlockTableRecord
  2
_OPEN30
  0
BLOCK_RECORD
  5
64
330
1
100
AcDbSymbolTableRecord
100
AcDbBlockTableRecord
  2
GENAXEH
  0
BLOCK_RECORD
  5
1B5D
330
1
100
AcDbSymbolTableRecord
100
AcDbBlockTableRecord
  2
*D5
  0
BLOCK_RECORD
  5
1B7D
330
1
100
AcDbSymbolTableRecord
100
AcDbBlockTableRecord
  2
*D6
  0
BLOCK_RECORD
  5
1BA9
330
1
100
AcDbSymbolTableRecord
100
AcDbBlockTableRecord
  2
*D7
  0
BLOCK_RECORD
  5
1BDA
330
1
100
AcDbSymbolTableRecord
100
AcDbBlockTableRecord
  2
*D8
  0
BLOCK_RECORD
  5
2011
330
1
100
AcDbSymbolTableRecord
100
AcDbBlockTableRecord
  2
*D9
  0
ENDTAB
  0
ENDSEC
  0
SECTION
  2
BLOCKS
  0
BLOCK
  5
20
330
1F
100
AcDbEntity
  8
0
100
AcDbBlockBegin
  2
*MODEL_SPACE
 70
     0
 10
0.0
 20
0.0
 30
0.0
  3
*MODEL_SPACE
  1

  0
ENDBLK
  5
21
330
1F
100
AcDbEntity
  8
0
100
AcDbBlockEnd
  0
BLOCK
  5
103
330
101
100
AcDbEntity
 67
     1
  8
0
100
AcDbBlockBegin
  2
*PAPER_SPACE
 70
     0
 10
0.0
 20
0.0
 30
0.0
  3
*PAPER_SPACE
  1

  0
ENDBLK
  5
104
330
101
100
AcDbEntity
 67
     1
  8
0
100
AcDbBlockEnd
  0
BLOCK
  5
5D
330
59
100
AcDbEntity
  8
0
100
AcDbBlockBegin
  2
_OPEN30
 70
     0
 10
0.0
 20
0.0
 30
0.0
  3
_OPEN30
  1

  0
LINE
  5
5A
330
59
100
AcDbEntity
  8
0
 62
     0
100
AcDbLine
 10
-1.0
 20
0.26794919
 30
0.0
 11
0.0
 21
0.0
 31
0.0
  0
LINE
  5
5B
330
59
100
AcDbEntity
  8
0
 62
     0
100
AcDbLine
 10
0.0
 20
0.0
 30
0.0
 11
-1.0
 21
-0.26794919
 31
0.0
  0
LINE
  5
5C
330
59
100
AcDbEntity
  8
0
 62
     0
100
AcDbLine
 10
0.0
 20
0.0
 30
0.0
 11
-1.0
 21
0.0
 31
0.0
  0
ENDBLK
  5
5E
330
59
100
AcDbEntity
  8
0
100
AcDbBlockEnd
  0
BLOCK
  5
66
330
64
100
AcDbEntity
  8
0
100
AcDbBlockBegin
  2
GENAXEH
 70
     0
 10
0.0
 20
0.0
 30
0.0
  3
GENAXEH
  1

  0
LINE
  5
65
330
64
100
AcDbEntity
  8
0
100
AcDbLine
 10
-1.0
 20
0.0
 30
0.0
 11
1.0
 21
0.0
 31
0.0
  0
ENDBLK
  5
67
330
64
100
AcDbEntity
  8
0
100
AcDbBlockEnd
  0
BLOCK
  5
1B67
330
1B5D
100
AcDbEntity
  8
0
100
AcDbBlockBegin
  2
*D5
 70
     1
 10
0.0
 20
0.0
 30
0.0
  3
*D5
  1

  0
LINE
  5
21D3
330
1B5D
100
AcDbEntity
  8
AM_5
100
AcDbLine
 10
0.0
 20
-3.000000000000312
 30
0.0
 11
-0.0000000000000006
 21
-11.66666666666718
 31
0.0
  0
LINE
  5
21D4
330
1B5D
100
AcDbEntity
  8
AM_5
100
AcDbLine
 10
-13.0
 20
-3.000000000000178
 30
0.0
 11
-13.0
 21
-11.66666666666718
 31
0.0
  0
LINE
  5
21D5
330
1B5D
100
AcDbEntity
  8
AM_5
100
AcDbLine
 10
-1.25
 20
-11.16666666666718
 30
0.0
 11
-11.75
 21
-11.16666666666718
 31
0.0
  0
INSERT
  5
21D6
330
1B5D
100
AcDbEntity
  8
AM_5
100
AcDbBlockReference
  2
_OPEN30
 10
-0.0000000000000005
 20
-11.16666666666718
 30
0.0
 41
1.25
 42
1.25
 43
1.25
  0
INSERT
  5
21D7
330
1B5D
100
AcDbEntity
  8
AM_5
100
AcDbBlockReference
  2
_OPEN30
 10
-13.0
 20
-11.16666666666718
 30
0.0
 41
1.25
 42
1.25
 43
1.25
 50
180.0
  0
MTEXT
  5
21D8
330
1B5D
100
AcDbEntity
  8
AM_5
 62
     2
100
AcDbMText
 10
-6.5
 20
-9.616666666667187
 30
0.0
 40
1.6
 41
0.0
 71
     5
 72
     1
  1
13
  7
ASAMI
1001
ACAD
1000
MTEXTBEGIN
1070
    73
1070
     1
1070
    44
1040
1.0
1070
    74
1070
     0
1000
MTEXTEND
  0
POINT
  5
21D9
330
1B5D
100
AcDbEntity
  8
DEFPOINTS
 62
     0
100
AcDbPoint
 10
0.0
 20
-2.500000000000312
 30
0.0
  0
POINT
  5
21DA
330
1B5D
100
AcDbEntity
  8
DEFPOINTS
 62
     0
100
AcDbPoint
 10
-13.0
 20
-2.500000000000178
 30
0.0
  0
POINT
  5
21DB
330
1B5D
100
AcDbEntity
  8
DEFPOINTS
 62
     0
100
AcDbPoint
 10
-13.0
 20
-11.16666666666718
 30
0.0
  0
ENDBLK
  5
1B68
330
1B5D
100
AcDbEntity
  8
0
100
AcDbBlockEnd
  0
BLOCK
  5
1B89
330
1B7D
100
AcDbEntity
  8
0
100
AcDbBlockBegin
  2
*D6
 70
     1
 10
0.0
 20
0.0
 30
0.0
  3
*D6
  1

  0
LINE
  5
21DC
330
1B7D
100
AcDbEntity
  8
AM_5
100
AcDbLine
 10
0.4999999787017461
 20
-2.500145939154463
 30
0.0
 11
12.02984087742223
 21
-2.50351124975432
 31
0.0
  0
LINE
  5
21DD
330
1B7D
100
AcDbEntity
  8
AM_5
100
AcDbLine
 10
0.4999999787017629
 20
2.499854060846161
 30
0.0
 11
12.03130026890157
 21
2.496488324281569
 31
0.0
  0
LINE
  5
21DE
330
1B7D
100
AcDbEntity
  8
AM_5
100
AcDbLine
 10
11.52947605083509
 20
-3.753365257354576
 30
0.0
 11
11.52911120294971
 21
-5.003365204108983
 31
0.0
  0
LINE
  5
21DF
330
1B7D
100
AcDbEntity
  8
AM_5
100
AcDbLine
 10
11.53166513808519
 20
3.746634210190127
 30
0.0
 11
11.53202998597057
 21
4.996634156944534
 31
0.0
  0
LINE
  5
21E0
330
1B7D
100
AcDbEntity
  8
AM_5
100
AcDbLine
 10
11.52984089872047
 20
-2.503365310600169
 30
0.0
 11
11.53130029019981
 21
2.49663426343572
 31
0.0
  0
INSERT
  5
21E1
330
1B7D
100
AcDbEntity
  8
AM_5
100
AcDbBlockReference
  2
_OPEN30
 10
11.52984089872047
 20
-2.503365310600169
 30
0.0
 41
1.25
 42
1.25
 43
1.25
 50
89.98327660456546
  0
INSERT
  5
21E2
330
1B7D
100
AcDbEntity
  8
AM_5
100
AcDbBlockReference
  2
_OPEN30
 10
11.53130029019981
 20
2.49663426343572
 30
0.0
 41
1.25
 42
1.25
 43
1.25
 50
269.9832766045654
  0
MTEXT
  5
21E3
330
1B7D
100
AcDbEntity
  8
AM_5
 62
     2
100
AcDbMText
 10
9.980570660770991
 20
-0.002912131268477
 30
0.0
 40
1.6
 41
0.0
 71
     5
 72
     1
  1
%%c5
  7
ASAMI
 11
0.0002918783083017
 21
0.9999999574035259
 31
0.0
1001
ACAD
1000
MTEXTBEGIN
1070
    73
1070
     1
1070
    44
1040
1.0
1070
    74
1070
     0
1000
MTEXTEND
  0
POINT
  5
21E4
330
1B7D
100
AcDbEntity
  8
DEFPOINTS
 62
     0
100
AcDbPoint
 10
-0.0000000000000168
 20
-2.500000000000312
 30
0.0
  0
POINT
  5
21E5
330
1B7D
100
AcDbEntity
  8
DEFPOINTS
 62
     0
100
AcDbPoint
 10
0.0
 20
2.500000000000312
 30
0.0
  0
POINT
  5
21E6
330
1B7D
100
AcDbEntity
  8
DEFPOINTS
 62
     0
100
AcDbPoint
 10
11.53130029019981
 20
2.49663426343572
 30
0.0
  0
ENDBLK
  5
1B8A
330
1B7D
100
AcDbEntity
  8
0
100
AcDbBlockEnd
  0
BLOCK
  5
1BB3
330
1BA9
100
AcDbEntity
  8
0
100
AcDbBlockBegin
  2
*D7
 70
     1
 10
0.0
 20
0.0
 30
0.0
  3
*D7
  1

  0
LINE
  5
21BF
330
1BA9
100
AcDbEntity
  8
AM_5
100
AcDbLine
 10
-60.0
 20
-4.245911013256121
 30
0.0
 11
-60.0
 21
-17.66666666666719
 31
0.0
  0
LINE
  5
21C0
330
1BA9
100
AcDbEntity
  8
AM_5
100
AcDbLine
 10
0.0
 20
-4.666666666667188
 30
0.0
 11
-0.0000000000000008
 21
-17.66666666666719
 31
0.0
  0
LINE
  5
21C1
330
1BA9
100
AcDbEntity
  8
AM_5
100
AcDbLine
 10
-58.75
 20
-17.16666666666719
 30
0.0
 11
-1.25
 21
-17.16666666666719
 31
0.0
  0
INSERT
  5
21C2
330
1BA9
100
AcDbEntity
  8
AM_5
100
AcDbBlockReference
  2
_OPEN30
 10
-60.0
 20
-17.16666666666719
 30
0.0
 41
1.25
 42
1.25
 43
1.25
 50
180.0
  0
INSERT
  5
21C3
330
1BA9
100
AcDbEntity
  8
AM_5
100
AcDbBlockReference
  2
_OPEN30
 10
-0.0000000000000008
 20
-17.16666666666719
 30
0.0
 41
1.25
 42
1.25
 43
1.25
  0
MTEXT
  5
21C4
330
1BA9
100
AcDbEntity
  8
AM_5
 62
     2
100
AcDbMText
 10
-30.0
 20
-15.61666666666718
 30
0.0
 40
1.6
 41
0.0
 71
     5
 72
     1
  1
60
  7
ASAMI
1001
ACAD
1000
MTEXTBEGIN
1070
    73
1070
     1
1070
    44
1040
1.0
1070
    74
1070
     0
1000
MTEXTEND
  0
POINT
  5
21C5
330
1BA9
100
AcDbEntity
  8
DEFPOINTS
 62
     0
100
AcDbPoint
 10
-60.0
 20
-3.745911013256121
 30
0.0
  0
POINT
  5
21C6
330
1BA9
100
AcDbEntity
  8
DEFPOINTS
 62
     0
100
AcDbPoint
 10
0.0
 20
-4.166666666667188
 30
0.0
  0
POINT
  5
21C7
330
1BA9
100
AcDbEntity
  8
DEFPOINTS
 62
     0
100
AcDbPoint
 10
-0.0000000000000008
 20
-17.16666666666719
 30
0.0
  0
ENDBLK
  5
1BB4
330
1BA9
100
AcDbEntity
  8
0
100
AcDbBlockEnd
  0
BLOCK
  5
1BE6
330
1BDA
100
AcDbEntity
  8
0
100
AcDbBlockBegin
  2
*D8
 70
     1
 10
0.0
 20
0.0
 30
0.0
  3
*D8
  1

  0
LINE
  5
21C8
330
1BDA
100
AcDbEntity
  8
AM_5
100
AcDbLine
 10
-59.99999999999999
 20
-3.000000000000023
 30
0.0
 11
-70.09314255754915
 21
-3.00000000000002
 31
0.0
  0
LINE
  5
21C9
330
1BDA
100
AcDbEntity
  8
AM_5
100
AcDbLine
 10
-59.99999999999999
 20
2.999999999999985
 30
0.0
 11
-70.09314255754915
 21
2.999999999999987
 31
0.0
  0
LINE
  5
21CA
330
1BDA
100
AcDbEntity
  8
AM_5
100
AcDbLine
 10
-69.59314255754915
 20
-4.250000000000021
 30
0.0
 11
-69.59314255754915
 21
-5.500000000000021
 31
0.0
  0
LINE
  5
21CB
330
1BDA
100
AcDbEntity
  8
AM_5
100
AcDbLine
 10
-69.59314255754915
 20
4.249999999999987
 30
0.0
 11
-69.59314255754915
 21
5.499999999999987
 31
0.0
  0
LINE
  5
21CC
330
1BDA
100
AcDbEntity
  8
AM_5
100
AcDbLine
 10
-69.59314255754915
 20
-3.00000000000002
 30
0.0
 11
-69.59314255754915
 21
2.999999999999987
 31
0.0
  0
INSERT
  5
21CD
330
1BDA
100
AcDbEntity
  8
AM_5
100
AcDbBlockReference
  2
_OPEN30
 10
-69.59314255754915
 20
-3.00000000000002
 30
0.0
 41
1.25
 42
1.25
 43
1.25
 50
90.0
  0
INSERT
  5
21CE
330
1BDA
100
AcDbEntity
  8
AM_5
100
AcDbBlockReference
  2
_OPEN30
 10
-69.59314255754915
 20
2.999999999999987
 30
0.0
 41
1.25
 42
1.25
 43
1.25
 50
270.0
  0
MTEXT
  5
21CF
330
1BDA
100
AcDbEntity
  8
AM_5
 62
     2
100
AcDbMText
 10
-71.14314255754916
 20
-0.0000000000000206
 30
0.0
 40
1.6
 41
0.0
 71
     5
 72
     1
  1
%%c6
  7
ASAMI
 11
0.0000000000000001
 21
1.0
 31
0.0
1001
ACAD
1000
MTEXTBEGIN
1070
    73
1070
     1
1070
    44
1040
1.0
1070
    74
1070
     0
1000
MTEXTEND
  0
POINT
  5
21D0
330
1BDA
100
AcDbEntity
  8
DEFPOINTS
 62
     0
100
AcDbPoint
 10
-59.49999999999999
 20
-3.000000000000023
 30
0.0
  0
POINT
  5
21D1
330
1BDA
100
AcDbEntity
  8
DEFPOINTS
 62
     0
100
AcDbPoint
 10
-59.49999999999999
 20
2.999999999999985
 30
0.0
  0
POINT
  5
21D2
330
1BDA
100
AcDbEntity
  8
DEFPOINTS
 62
     0
100
AcDbPoint
 10
-69.59314255754915
 20
2.999999999999987
 30
0.0
  0
ENDBLK
  5
1BE7
330
1BDA
100
AcDbEntity
  8
0
100
AcDbBlockEnd
  0
BLOCK
  5
2018
330
2011
100
AcDbEntity
  8
0
100
AcDbBlockBegin
  2
*D9
 70
     1
 10
0.0
 20
0.0
 30
0.0
  3
*D9
  1

  0
LINE
  5
222C
330
2011
100
AcDbEntity
  8
AM_5
100
AcDbLine
 10
5.777822992421149
 20
-6.988572839084773
 30
0.0
 11
0.7485784132781836
 21
-2.915970879862248
 31
0.0
  0
MTEXT
  5
222D
330
2011
100
AcDbEntity
  8
AM_5
 62
     2
100
AcDbMText
 10
5.400665556107814
 20
-4.688679442023062
 30
0.0
 40
1.6
 41
0.0
 71
     5
 72
     1
  1
R1
  7
ASAMI
 11
0.7771459614569701
 21
-0.6293203910498385
 31
0.0
  0
LINE
  5
222E
330
2011
100
AcDbEntity
  8
AM_5
100
AcDbLine
 10
-0.9999999999999998
 20
-1.500000000000112
 30
0.0
 11
-0.2228540385430292
 21
-2.12932039104995
 31
0.0
  0
INSERT
  5
222F
330
2011
100
AcDbEntity
  8
AM_5
100
AcDbBlockReference
  2
_OPEN30
 10
-0.2228540385430292
 20
-2.12932039104995
 30
0.0
 41
1.25
 42
1.25
 43
1.25
 50
140.9999999999999
  0
POINT
  5
2230
330
2011
100
AcDbEntity
  8
DEFPOINTS
 62
     0
100
AcDbPoint
 10
-0.2228540385430292
 20
-2.12932039104995
 30
0.0
  0
POINT
  5
2231
330
2011
100
AcDbEntity
  8
DEFPOINTS
 62
     0
100
AcDbPoint
 10
-0.9999999999999998
 20
-1.500000000000112
 30
0.0
  0
ENDBLK
  5
2019
330
2011
100
AcDbEntity
  8
0
100
AcDbBlockEnd
  0
ENDSEC
  0
SECTION
  2
ENTITIES
  0
TEXT
  5
F17
330
1F
100
AcDbEntity
  8
AM_6
100
AcDbText
 10
-46.66666666666666
 20
-28.41666666666719
 30
0.0
 40
2.5
  1
SSUP4050ZX-R10
 72
     1
 11
-30.0
 21
-27.16666666666719
 31
0.0
100
AcDbText
 73
     2
  0
LINE
  5
1AB8
330
1F
100
AcDbEntity
  8
AM_0
100
AcDbLine
 10
-60.0
 20
2.699999999999975
 30
0.0
 11
-59.5
 21
2.999999999999976
 31
0.0
1001
GENIUS_GENFIL_13
1070
     0
1040
0.5
1040
0.5
1040
20.0
1040
0.0
1002
{
1002
}
1001
GENIUS_GENODEF_13
1002
{
1000
HIER
1070
     0
1002
}
1002
{
1000
MANEDIT
1070
     0
1002
}
1002
{
1000
NOSEL
1070
     0
1002
}
1002
{
1000
BEHIND
1070
     0
1002
}
1002
{
1000
REACTOR
1002
}
1001
GENIUS_GENOBJ-N-CHA_13
1002
{
1000
OWNER
1000
GEN
1002
}
  0
LINE
  5
1AB9
330
1F
100
AcDbEntity
  8
AM_0
100
AcDbLine
 10
-59.99999999999999
 20
-2.700000000000023
 30
0.0
 11
-59.49999999999999
 21
-3.000000000000023
 31
0.0
1001
GENIUS_GENFIL_13
1070
     0
1040
0.5
1040
0.5
1040
20.0
1040
0.0
1002
{
1002
}
1001
GENIUS_GENODEF_13
1002
{
1000
HIER
1070
     0
1002
}
1002
{
1000
MANEDIT
1070
     0
1002
}
1002
{
1000
NOSEL
1070
     0
1002
}
1002
{
1000
BEHIND
1070
     0
1002
}
1002
{
1000
REACTOR
1002
}
1001
GENIUS_GENOBJ-N-CHA_13
1002
{
1000
OWNER
1000
GEN
1002
}
  0
LINE
  5
1ABA
330
1F
100
AcDbEntity
  8
AM_0
100
AcDbLine
 10
-59.5
 20
-2.997055929544407
 30
0.0
 11
-59.49999999999999
 21
2.999999999999939
 31
0.0
  0
LINE
  5
1ABB
330
1F
100
AcDbEntity
  8
AM_0
100
AcDbLine
 10
-60.0
 20
2.699999999999975
 30
0.0
 11
-59.99999999999999
 21
-2.700000000000023
 31
0.0
  0
LINE
  5
1ACB
330
1F
100
AcDbEntity
  8
AM_0
100
AcDbLine
 10
-16.36602540378456
 20
-3.000000000000004
 30
0.0
 11
-59.49999999999999
 21
-3.000000000000023
 31
0.0
1001
GENIUS_GENODEF_13
1002
{
1000
HIER
1070
     0
1002
}
1002
{
1000
MANEDIT
1070
     0
1002
}
1002
{
1000
NOSEL
1070
     0
1002
}
1002
{
1000
BEHIND
1070
     0
1002
}
1002
{
1000
REACTOR
1002
}
1001
GENIUS_GENOBJ-N-CEN_13
1002
{
1000
OWNER
1000
GEN
1002
}
  0
LINE
  5
1ACC
330
1F
100
AcDbEntity
  8
AM_0
100
AcDbLine
 10
-16.36602540378325
 20
2.999999999999995
 30
0.0
 11
-59.5
 21
2.999999999999976
 31
0.0
1001
GENIUS_GENODEF_13
1002
{
1000
HIER
1070
     0
1002
}
1002
{
1000
MANEDIT
1070
     0
1002
}
1002
{
1000
NOSEL
1070
     0
1002
}
1002
{
1000
BEHIND
1070
     0
1002
}
1002
{
1000
REACTOR
1002
}
1001
GENIUS_GENOBJ-N-CEN_13
1002
{
1000
OWNER
1000
GEN
1002
}
  0
LINE
  5
1ACD
330
1F
100
AcDbEntity
  8
AM_7
  6
AM_ISO08W050X2
100
AcDbLine
 10
4.530570278608138
 20
0.0000000000000011
 30
0.0
 11
-62.59314155754916
 21
-0.0000000000000245
 31
0.0
1001
GENIUS_GENODEF_13
1002
{
1000
HIER
1070
     0
1002
}
1002
{
1000
MANEDIT
1070
     0
1002
}
1002
{
1000
NOSEL
1070
     0
1002
}
1002
{
1000
BEHIND
1070
     0
1002
}
1002
{
1000
REACTOR
1002
}
1001
GENIUS_GENOBJ-N-CEN_13
1002
{
1000
OWNER
1000
GEN
1002
}
  0
LINE
  5
1B56
330
1F
100
AcDbEntity
  8
AM_11
100
AcDbLine
 10
-13.0
 20
2.500000000000312
 30
0.0
 11
0.0
 21
2.500000000000312
 31
0.0
  0
LINE
  5
1B5B
330
1F
100
AcDbEntity
  8
AM_11
100
AcDbLine
 10
0.0
 20
-2.500000000000312
 30
0.0
 11
-13.0
 21
-2.499999999999971
 31
0.0
  0
DIMENSION
  5
1B5C
330
1F
100
AcDbEntity
  8
AM_5
100
AcDbDimension
  2
*D5
 10
-13.0
 20
-11.16666666666718
 30
0.0
 11
-6.5
 21
-9.616666666667187
 31
0.0
 70
    32
  1
<>
  3
AM_JIS
100
AcDbAlignedDimension
 13
0.0
 23
-2.500000000000312
 33
0.0
 14
-13.0
 24
-2.500000000000178
 34
0.0
100
AcDbRotatedDimension
1001
GENIUS_GENDTOL_13
1000

1000
h7
1000

1040
0.0
  0
LINE
  5
1B6C
330
1F
100
AcDbEntity
  8
AM_11
100
AcDbLine
 10
-13.0
 20
2.500000000000312
 30
0.0
 11
-13.0
 21
-2.499999999999971
 31
0.0
  0
DIMENSION
  5
1B7C
330
1F
100
AcDbEntity
  8
AM_5
100
AcDbDimension
  2
*D6
 10
11.53130029019981
 20
2.49663426343572
 30
0.0
 11
11.53057059474645
 21
-0.0033645426463447
 31
0.0
 70
   160
  1
%%c<>
  3
AM_JIS
100
AcDbAlignedDimension
 13
-0.0000000000000168
 23
-2.500000000000312
 33
0.0
 14
0.0
 24
2.500000000000312
 34
0.0
 50
89.98327660456544
100
AcDbRotatedDimension
1001
GENIUS_GENDTOL_13
1000

1000
h7
1000

1040
0.0
  0
DIMENSION
  5
1BA8
330
1F
100
AcDbEntity
  8
AM_5
100
AcDbDimension
  2
*D7
 10
-0.0000000000000008
 20
-17.16666666666719
 30
0.0
 11
-30.0
 21
-15.61666666666718
 31
0.0
 70
    32
  1
<>
  3
AM_JIS
100
AcDbAlignedDimension
 13
-60.0
 23
-3.745911013256121
 33
0.0
 14
0.0
 24
-4.166666666667188
 34
0.0
100
AcDbRotatedDimension
1001
GENIUS_GENDTOL_13
1000

1000
h7
1000

1040
0.0
  0
DIMENSION
  5
1BD9
330
1F
100
AcDbEntity
  8
AM_5
100
AcDbDimension
  2
*D8
 10
-69.59314255754915
 20
2.999999999999987
 30
0.0
 11
-69.59314255754915
 21
-0.0000000000000208
 31
0.0
 70
   160
  1
%%c<>
  3
AM_JIS
100
AcDbAlignedDimension
 13
-59.49999999999999
 23
-3.000000000000023
 33
0.0
 14
-59.49999999999999
 24
2.999999999999985
 34
0.0
 50
270.0000000000001
100
AcDbRotatedDimension
1001
GENIUS_GENDTOL_13
1000

1000
h7
1000

1040
0.0
  0
LINE
  5
1D1C
330
1F
100
AcDbEntity
  8
AM_0
100
AcDbLine
 10
-1.080526701823757
 20
2.499999999999857
 30
0.0
 11
-1.00000000000029
 21
2.49999999999988
 31
0.0
  0
LINE
  5
1D1D
330
1F
100
AcDbEntity
  8
AM_0
100
AcDbLine
 10
-0.0061340447315767
 20
-0.0738213640615017
 30
0.0
 11
-0.0676224583648356
 21
0.4708553869918147
 31
0.0
  0
LINE
  5
1D1E
330
1F
100
AcDbEntity
  8
AM_0
100
AcDbLine
 10
-0.0676224583648356
 20
-0.7660073362332299
 30
0.0
 11
-0.0061340447315767
 21
-0.5883109405349673
 31
0.0
  0
LINE
  5
1D1F
330
1F
100
AcDbEntity
  8
AM_0
100
AcDbLine
 10
-0.0676224583648356
 20
-0.7660073362332299
 30
0.0
 11
-0.2348196001886393
 21
-1.078770810712996
 31
0.0
  0
LINE
  5
1D20
330
1F
100
AcDbEntity
  8
AM_0
100
AcDbLine
 10
-0.0676224583648356
 20
0.4708553869918147
 30
0.0
 11
-0.2555412404339457
 21
1.123810764377793
 31
0.0
  0
LINE
  5
1D21
330
1F
100
AcDbEntity
  8
AM_0
100
AcDbLine
 10
-0.0061340447315767
 20
-0.0633109405348764
 30
0.0
 11
-0.7638573175225213
 21
0.0003261524386458
 31
0.0
  0
LINE
  5
1D22
330
1F
100
AcDbEntity
  8
AM_0
100
AcDbLine
 10
-11.81481481481481
 20
1.257520025318299
 30
0.0
 11
-11.81481481481481
 21
1.877612516234229
 31
0.0
  0
POLYLINE
  5
1D23
330
1F
100
AcDbEntity
  8
AM_0
100
AcDb2dPolyline
 66
     1
 10
0.0
 20
0.0
 30
0.0
 70
     2
  0
VERTEX
  5
1D24
330
1D23
100
AcDbEntity
  8
AM_0
100
AcDbVertex
100
AcDb2dVertex
 10
-11.81481481481481
 20
-1.152702538419333
 30
0.0
 42
-0.0129986936669445
  0
VERTEX
  5
1D25
330
1D23
100
AcDbEntity
  8
AM_0
100
AcDbVertex
100
AcDb2dVertex
 10
-12.48046879717609
 20
-0.6692106947623275
 30
0.0
 42
-0.0238378164251699
 70
     1
  0
VERTEX
  5
1D26
330
1D23
100
AcDbEntity
  8
AM_0
100
AcDbVertex
100
AcDb2dVertex
 10
-12.82175925925925
 20
-0.3812925801230165
 30
0.0
 42
-0.0087697151677761
  0
VERTEX
  5
1D27
330
1D23
100
AcDbEntity
  8
AM_0
100
AcDbVertex
100
AcDb2dVertex
 10
-13.71652854396934
 20
0.4788379014405705
 30
0.0
 42
-0.016586017082525
 70
     1
  0
VERTEX
  5
1D28
330
1D23
100
AcDbEntity
  8
AM_0
100
AcDbVertex
100
AcDb2dVertex
 10
-14.16435185185185
 20
0.9554603965544997
 30
0.0
 42
-0.0451742545712589
  0
VERTEX
  5
1D29
330
1D23
100
AcDbEntity
  8
AM_0
100
AcDbVertex
100
AcDb2dVertex
 10
-14.46432497932486
 20
1.367882305309663
 30
0.0
 42
-0.1465772931919247
 70
     1
  0
VERTEX
  5
1D2A
330
1D23
100
AcDbEntity
  8
AM_0
100
AcDbVertex
100
AcDb2dVertex
 10
-14.5
 20
1.520803414935698
 30
0.0
 42
-0.2363269648915856
  0
VERTEX
  5
1D2B
330
1D23
100
AcDbEntity
  8
AM_0
100
AcDbVertex
100
AcDb2dVertex
 10
-14.43684935774249
 20
1.618591496349267
 30
0.0
 42
-0.0944295254831177
 70
     1
  0
VERTEX
  5
1D2C
330
1D23
100
AcDbEntity
  8
AM_0
100
AcDbVertex
100
AcDb2dVertex
 10
-14.16435185185185
 20
1.719047765445345
 30
0.0
 42
-0.0735428200704349
  0
VERTEX
  5
1D2D
330
1D23
100
AcDbEntity
  8
AM_0
100
AcDbVertex
100
AcDb2dVertex
 10
-13.81286863496194
 20
1.732765551560567
 30
0.0
 42
-0.025664050315163
 70
     1
  0
VERTEX
  5
1D2E
330
1D23
100
AcDbEntity
  8
AM_0
100
AcDbVertex
100
AcDb2dVertex
 10
-12.82175925925925
 20
1.587406070636646
 30
0.0
 42
-0.0327084143688329
  0
VERTEX
  5
1D2F
330
1D23
100
AcDbEntity
  8
AM_0
100
AcDbVertex
100
AcDb2dVertex
 10
-12.36802302884915
 20
1.46914675263882
 30
0.0
 42
-0.0257576852941419
 70
     1
  0
VERTEX
  5
1D30
330
1D23
100
AcDbEntity
  8
AM_0
100
AcDbVertex
100
AcDb2dVertex
 10
-11.81481481481481
 20
1.257520025318299
 30
0.0
  0
SEQEND
  5
1D31
330
1D23
100
AcDbEntity
  8
AM_0
  0
LINE
  5
1D34
330
1F
100
AcDbEntity
  8
AM_0
100
AcDbLine
 10
-1.243179025140292
 20
-2.500000000000085
 30
0.0
 11
-1.000000000000113
 21
-2.500000000000112
 31
0.0
  0
LINE
  5
1D35
330
1F
100
AcDbEntity
  8
AM_0
100
AcDbLine
 10
-0.1716286536386522
 20
-2.060179357462959
 30
0.0
 11
-0.2353583268922597
 21
-1.854689839731832
 31
0.0
  0
LINE
  5
1D36
330
1F
100
AcDbEntity
  8
AM_0
100
AcDbLine
 10
-0.0614884136330147
 20
-1.845247740405354
 30
0.0
 11
-0.0614884136330147
 21
-0.7482804576963248
 31
0.0
  0
LINE
  5
1D37
330
1F
100
AcDbEntity
  8
AM_0
100
AcDbLine
 10
0.0
 20
1.499999999999881
 30
0.0
 11
0.0
 21
-1.500000000000112
 31
0.0
  0
SPLINE
  5
1D38
330
1F
100
AcDbEntity
  8
AM_0
100
AcDbSpline
210
0.0
220
0.0
230
1.0
 70
     8
 71
     3
 72
     8
 73
     4
 74
     0
 42
0.0000000001
 43
0.0000000001
 40
0.2725981709865456
 40
0.2725981709865456
 40
0.2725981709865456
 40
0.2725981709865456
 40
2.093133798227362
 40
2.093133798227362
 40
2.093133798227362
 40
2.093133798227362
 10
-10.66964610970543
 20
-2.500000000000003
 30
0.0
 10
-10.34667231431396
 20
-2.486670526835297
 30
0.0
 10
-10.03333722260952
 20
-2.439949256006868
 30
0.0
 10
-9.72794363787764
 20
-2.363694467680353
 30
0.0
  0
SPLINE
  5
1D39
330
1F
100
AcDbEntity
  8
AM_0
100
AcDbSpline
210
0.0
220
0.0
230
1.0
 70
     8
 71
     3
 72
     8
 73
     4
 74
     0
 42
0.0000000001
 43
0.0000000001
 40
0.0
 40
0.0
 40
0.0
 40
0.0
 40
0.6152373134461622
 40
0.6152373134461622
 40
0.6152373134461622
 40
0.6152373134461622
 10
-9.400623152647934
 20
-2.375697058205304
 30
0.0
 10
-9.510758227277186
 20
-2.375697058205304
 30
0.0
 10
-9.619844566466566
 20
-2.371616471987414
 30
0.0
 10
-9.72794363787764
 20
-2.363694467680318
 30
0.0
  0
SPLINE
  5
1D3A
330
1F
100
AcDbEntity
  8
AM_0
100
AcDbSpline
210
0.0
220
0.0
230
1.0
 70
     8
 71
     3
 72
     8
 73
     4
 74
     0
 42
0.0000000001
 43
0.0000000001
 40
0.0
 40
0.0
 40
0.0
 40
0.0
 40
3.983447643433449
 40
3.983447643433449
 40
3.983447643433449
 40
3.983447643433449
 10
-10.16074074074053
 20
2.499999999999857
 30
0.0
 10
-10.87382704728098
 20
2.499999999999857
 30
0.0
 10
-11.53955020473257
 20
2.323862096038098
 30
0.0
 10
-12.17568940327774
 20
2.037704976445397
 30
0.0
  0
SPLINE
  5
1D3B
330
1F
100
AcDbEntity
  8
AM_0
100
AcDbSpline
210
0.0
220
0.0
230
1.0
 70
     8
 71
     3
 72
     8
 73
     4
 74
     0
 42
0.0000000001
 43
0.0000000001
 40
5.215942287204468
 40
5.215942287204468
 40
5.215942287204468
 40
5.215942287204468
 40
10.4969207889486
 40
10.4969207889486
 40
10.4969207889486
 40
10.4969207889486
 10
-11.8148148148148
 20
1.641554146470092
 30
0.0
 10
-10.98416810209056
 20
1.195208132297906
 30
0.0
 10
-10.19239562733205
 20
0.5976040661489392
 30
0.0
 10
-9.400623152573691
 20
-0.0000000000000286
 30
0.0
  0
SPLINE
  5
1D3C
330
1F
100
AcDbEntity
  8
AM_0
100
AcDbSpline
210
0.0
220
0.0
230
1.0
 70
     8
 71
     3
 72
     8
 73
     4
 74
     0
 42
0.0000000001
 43
0.0000000001
 40
0.6393216442353146
 40
0.6393216442353146
 40
0.6393216442353146
 40
0.6393216442353146
 40
10.49653484266006
 40
10.49653484266006
 40
10.49653484266006
 40
10.49653484266006
 10
-13.88010665397997
 20
2.500000000000312
 30
0.0
 10
-11.71629030246748
 20
2.128400235555972
 30
0.0
 10
-10.20033389604555
 20
1.096468936056993
 30
0.0
 10
-8.684377489623143
 20
0.0645376365580147
 30
0.0
  0
SPLINE
  5
1D3D
330
1F
100
AcDbEntity
  8
AM_0
100
AcDbSpline
210
0.0
220
0.0
230
1.0
 70
     8
 71
     3
 72
     8
 73
     4
 74
     0
 42
0.0000000001
 43
0.0000000001
 40
6.902118198828401
 40
6.902118198828401
 40
6.902118198828401
 40
6.902118198828401
 40
10.61176705360581
 40
10.61176705360581
 40
10.61176705360581
 40
10.61176705360581
 10
-11.81481481481489
 20
1.2575200253182
 30
0.0
 10
-11.25388392844486
 20
0.8739470146766802
 30
0.0
 10
-10.70731233459282
 20
0.4369735073383224
 30
0.0
 10
-10.16074074074077
 20
-0.0000000000000286
 30
0.0
  0
SPLINE
  5
1D3E
330
1F
100
AcDbEntity
  8
AM_0
100
AcDbSpline
210
0.0
220
0.0
230
1.0
 70
     8
 71
     3
 72
     8
 73
     4
 74
     0
 42
0.0000000001
 43
0.0000000001
 40
0.0
 40
0.0
 40
0.0
 40
0.0
 40
3.703486049493093
 40
3.703486049493093
 40
3.703486049493093
 40
3.703486049493093
 10
-4.373956485906958
 20
-2.375697058205304
 30
0.0
 10
-3.710986760997781
 20
-2.375697058205409
 30
0.0
 10
-3.086018649567161
 20
-2.227834352012777
 30
0.0
 10
-2.485644558264742
 20
-1.984277330781108
 30
0.0
  0
SPLINE
  5
1D3F
330
1F
100
AcDbEntity
  8
AM_0
100
AcDbSpline
210
0.0
220
0.0
230
1.0
 70
     8
 71
     3
 72
     8
 73
     4
 74
     0
 42
0.0000000001
 43
0.0000000001
 40
0.6152373134470183
 40
0.6152373134470183
 40
0.6152373134470183
 40
0.6152373134470183
 40
8.843083020165714
 40
8.843083020165714
 40
8.843083020165714
 40
8.843083020165714
 10
-4.046636000676673
 20
2.363694467680232
 30
0.0
 10
-2.600978428921229
 20
2.257749935867281
 30
0.0
 10
-1.331892885890881
 20
1.464770943802221
 30
0.0
 10
-0.0923591384364668
 20
0.5568071374959514
 30
0.0
  0
SPLINE
  5
1D40
330
1F
100
AcDbEntity
  8
AM_0
100
AcDbSpline
210
0.0
220
0.0
230
1.0
 70
     8
 71
     3
 72
     8
 73
     4
 74
     0
 42
0.0000000001
 43
0.0000000001
 40
0.0
 40
0.0
 40
0.0
 40
0.0
 40
10.7633540680078
 40
10.7633540680078
 40
10.7633540680078
 40
10.7633540680078
 10
-5.1340740740738
 20
2.499999999999971
 30
0.0
 10
-3.207300814985983
 20
2.49999999999997
 30
0.0
 10
-1.610953507635126
 20
1.250613348011568
 30
0.0
 10
-0.0146062002842706
 20
0.0012266960231659
 30
0.0
  0
SPLINE
  5
1D41
330
1F
100
AcDbEntity
  8
AM_0
100
AcDbSpline
210
0.0
220
0.0
230
1.0
 70
     8
 71
     3
 72
     8
 73
     4
 74
     0
 42
0.0000000001
 43
0.0000000001
 40
1.927562104437105
 40
1.927562104437105
 40
1.927562104437105
 40
1.927562104437105
 40
10.4969207889486
 40
10.4969207889486
 40
10.4969207889486
 40
10.4969207889486
 10
-0.3534694784771065
 20
-2.262888120722506
 30
0.0
 10
-1.80436362333855
 20
-1.939444969322273
 30
0.0
 10
-3.089160054622645
 20
-0.969722484661151
 30
0.0
 10
-4.373956485906958
 20
-0.0000000000000286
 30
0.0
  0
SPLINE
  5
1D42
330
1F
100
AcDbEntity
  8
AM_0
100
AcDbSpline
210
0.0
220
0.0
230
1.0
 70
     8
 71
     3
 72
     8
 73
     4
 74
     0
 42
0.0000000001
 43
0.0000000001
 40
0.0
 40
0.0
 40
0.0
 40
0.0
 40
10.61176705360627
 40
10.61176705360627
 40
10.61176705360627
 40
10.61176705360627
 10
-1.243179025140292
 20
-2.500000000000085
 30
0.0
 10
-2.007044719472629
 20
-2.500000000000085
 30
0.0
 10
-3.570559396773338
 20
-1.250000000000057
 30
0.0
 10
-5.134074074074043
 20
-0.0000000000000286
 30
0.0
  0
SPLINE
  5
1D43
330
1F
100
AcDbEntity
  8
AM_0
100
AcDbSpline
210
0.0
220
0.0
230
1.0
 70
     8
 71
     3
 72
     8
 73
     4
 74
     0
 42
0.0000000001
 43
0.0000000001
 40
3.266224444355238
 40
3.266224444355238
 40
3.266224444355238
 40
3.266224444355238
 40
10.49653484266006
 40
10.49653484266006
 40
10.49653484266006
 40
10.49653484266006
 10
-0.2353583268922597
 20
-1.854689839731719
 30
0.0
 10
-1.433789081975722
 20
-1.449314900647124
 30
0.0
 10
-2.54574995246631
 20
-0.6923886320445548
 30
0.0
 10
-3.657710822956652
 20
0.0645376365580147
 30
0.0
  0
SPLINE
  5
1D44
330
1F
100
AcDbEntity
  8
AM_0
100
AcDbSpline
210
0.0
220
0.0
230
1.0
 70
     8
 71
     3
 72
     8
 73
     4
 74
     0
 42
0.0000000001
 43
0.0000000001
 40
0.6393216439718838
 40
0.6393216439718838
 40
0.6393216439718838
 40
0.6393216439718838
 40
6.996796499348805
 40
6.996796499348805
 40
6.996796499348805
 40
6.996796499348805
 10
-3.398020501987367
 20
2.269531207100129
 30
0.0
 10
-2.27897979953533
 20
2.178507853493869
 30
0.0
 10
-1.251080876952696
 20
1.716939147150326
 30
0.0
 10
-0.2555412404337015
 20
1.123810764377793
 30
0.0
  0
SPLINE
  5
1D45
330
1F
100
AcDbEntity
  8
AM_0
100
AcDbSpline
210
0.0
220
0.0
230
1.0
 70
     8
 71
     3
 72
     8
 73
     4
 74
     0
 42
0.0000000001
 43
0.0000000001
 40
0.0
 40
0.0
 40
0.0
 40
0.0
 40
2.4079390838223
 40
2.4079390838223
 40
2.4079390838223
 40
2.4079390838223
 10
-3.738444942557432
 20
-2.156431716555601
 30
0.0
 10
-3.307432182344529
 20
-2.151098497765786
 30
0.0
 10
-2.89034236358256
 20
-2.089160270180087
 30
0.0
 10
-2.483981518416435
 20
-1.983602406120127
 30
0.0
  0
SPLINE
  5
1D46
330
1F
100
AcDbEntity
  8
AM_0
100
AcDbSpline
210
0.0
220
0.0
230
1.0
 70
     8
 71
     3
 72
     9
 73
     5
 74
     0
 42
0.0000000001
 43
0.0000000001
 40
0.0
 40
0.0
 40
0.0
 40
0.0
 40
0.6574415203969619
 40
3.123721247380082
 40
3.123721247380082
 40
3.123721247380082
 40
3.123721247380082
 10
-0.7638573175225213
 20
0.0003261524386458
 30
0.0
 10
-0.8810715424431997
 20
0.0101703433153794
 30
0.0
 10
-1.548985521935635
 20
-0.3226314391829856
 30
0.0
 10
-0.4980232766694571
 20
-0.748757190252965
 30
0.0
 10
-0.2348196001886393
 20
-1.078770810712996
 30
0.0
  0
SPLINE
  5
1D47
330
1F
100
AcDbEntity
  8
AM_0
100
AcDbSpline
210
0.0
220
0.0
230
1.0
 70
     8
 71
     3
 72
     8
 73
     4
 74
     0
 42
0.0000000001
 43
0.0000000001
 40
0.9430245391366341
 40
0.9430245391366341
 40
0.9430245391366341
 40
0.9430245391366341
 40
2.847661750814433
 40
2.847661750814433
 40
2.847661750814433
 40
2.847661750814433
 10
-0.2086100650639265
 20
2.111311680635771
 30
0.0
 10
-0.4174512434227013
 20
1.891910144211228
 30
0.0
 10
-0.8685313141497974
 20
1.755162817559984
 30
0.0
 10
-1.307668277816909
 20
1.684499008884898
 30
0.0
  0
SPLINE
  5
1D48
330
1F
100
AcDbEntity
  8
AM_0
100
AcDbSpline
210
0.0
220
0.0
230
1.0
 70
     8
 71
     3
 72
     8
 73
     4
 74
     0
 42
0.0000000001
 43
0.0000000001
 40
1.252055495756391
 40
1.252055495756391
 40
1.252055495756391
 40
1.252055495756391
 40
4.066976460604845
 40
4.066976460604845
 40
4.066976460604845
 40
4.066976460604845
 10
-1.080526701823757
 20
2.499999999999857
 30
0.0
 10
-1.250429131053621
 20
2.376220568861207
 30
0.0
 10
-1.71367539820669
 20
2.225013340233664
 30
0.0
 10
-2.162334772199368
 20
2.01955919525821
 30
0.0
  0
SPLINE
  5
1D49
330
1F
100
AcDbEntity
  8
AM_0
100
AcDbSpline
210
0.0
220
0.0
230
1.0
 70
     8
 71
     3
 72
     8
 73
     4
 74
     0
 42
0.0000000001
 43
0.0000000001
 40
0.0
 40
0.0
 40
0.0
 40
0.0
 40
1.551838382253894
 40
1.551838382253894
 40
1.551838382253894
 40
1.551838382253894
 10
-0.2348196001835108
 20
-1.078770810719476
 30
0.0
 10
-0.1432306928880123
 20
-1.322949275478404
 30
0.0
 10
-0.1839989943214379
 20
-1.600508772325017
 30
0.0
 10
-0.2353583268922597
 20
-1.854689839731832
 30
0.0
  0
SPLINE
  5
1D4A
330
1F
100
AcDbEntity
  8
AM_0
100
AcDbSpline
210
0.0
220
0.0
230
1.0
 70
     8
 71
     3
 72
     8
 73
     4
 74
     0
 42
0.0000000001
 43
0.0000000001
 40
0.0
 40
0.0
 40
0.0
 40
0.0
 40
10.49692078894909
 40
10.49692078894909
 40
10.49692078894909
 40
10.49692078894909
 10
-4.373956485906715
 20
-2.375697058205304
 30
0.0
 10
-6.25303489874328
 20
-2.375697058205304
 30
0.0
 10
-7.826829025658486
 20
-1.187848529102666
 30
0.0
 10
-9.400623152573691
 20
-0.0000000000000286
 30
0.0
  0
SPLINE
  5
1D4B
330
1F
100
AcDbEntity
  8
AM_0
100
AcDbSpline
210
0.0
220
0.0
230
1.0
 70
     8
 71
     3
 72
     8
 73
     4
 74
     0
 42
0.0000000001
 43
0.0000000001
 40
0.0
 40
0.0
 40
0.0
 40
0.0
 40
10.49653484265986
 40
10.49653484265986
 40
10.49653484265986
 40
10.49653484265986
 10
-3.576976703355874
 20
-2.156431716555601
 30
0.0
 10
-5.455820103341475
 20
-2.133183488547245
 30
0.0
 10
-7.07009879648231
 20
-1.034322925994615
 30
0.0
 10
-8.684377489623143
 20
0.0645376365580147
 30
0.0
  0
SPLINE
  5
1D4C
330
1F
100
AcDbEntity
  8
AM_0
100
AcDbSpline
210
0.0
220
0.0
230
1.0
 70
     8
 71
     3
 72
     8
 73
     4
 74
     0
 42
0.0000000001
 43
0.0000000001
 40
0.0
 40
0.0
 40
0.0
 40
0.0
 40
10.61065478016067
 40
10.61065478016067
 40
10.61065478016067
 40
10.61065478016067
 10
-5.1340740740738
 20
-2.49881946445398
 30
0.0
 10
-7.033512275460587
 20
-2.49881946445398
 30
0.0
 10
-8.597126508100684
 20
-1.249409732227004
 30
0.0
 10
-10.16074074074077
 20
-0.0000000000000286
 30
0.0
  0
SPLINE
  5
1D4D
330
1F
100
AcDbEntity
  8
AM_0
100
AcDbSpline
210
0.0
220
0.0
230
1.0
 70
     8
 71
     3
 72
     8
 73
     4
 74
     0
 42
0.0000000001
 43
0.0000000001
 40
0.0
 40
0.0
 40
0.0
 40
0.0
 40
4.066976460604825
 40
4.066976460604825
 40
4.066976460604825
 40
4.066976460604825
 10
-5.1340740740738
 20
2.499999999999857
 30
0.0
 10
-5.862113070108112
 20
2.499999999999857
 30
0.0
 10
-6.540781778121147
 20
2.316397785678049
 30
0.0
 10
-7.189001438865858
 20
2.01955919525821
 30
0.0
  0
SPLINE
  5
1D4E
330
1F
100
AcDbEntity
  8
AM_0
100
AcDbSpline
210
0.0
220
0.0
230
1.0
 70
     8
 71
     3
 72
     8
 73
     4
 74
     0
 42
0.0000000001
 43
0.0000000001
 40
0.0
 40
0.0
 40
0.0
 40
0.0
 40
10.61176705360661
 40
10.61176705360661
 40
10.61176705360661
 40
10.61176705360661
 10
-10.16074074074077
 20
2.499999999999971
 30
0.0
 10
-8.261103428675397
 20
2.49999999999997
 30
0.0
 10
-6.697588751374598
 20
1.249999999999971
 30
0.0
 10
-5.1340740740738
 20
-0.0000000000000286
 30
0.0
  0
SPLINE
  5
1D4F
330
1F
100
AcDbEntity
  8
AM_0
100
AcDbSpline
210
0.0
220
0.0
230
1.0
 70
     8
 71
     3
 72
     8
 73
     4
 74
     0
 42
0.0000000001
 43
0.0000000001
 40
0.6152373134470183
 40
0.6152373134470183
 40
0.6152373134470183
 40
0.6152373134470183
 40
10.4969207889486
 40
10.4969207889486
 40
10.4969207889486
 40
10.4969207889486
 10
-9.073302667343408
 20
2.363694467680232
 30
0.0
 10
-7.337060758190359
 20
2.236454559853399
 30
0.0
 10
-5.855508622048781
 20
1.118227279926685
 30
0.0
 10
-4.373956485906715
 20
-0.0000000000000286
 30
0.0
  0
SPLINE
  5
1D50
330
1F
100
AcDbEntity
  8
AM_0
100
AcDbSpline
210
0.0
220
0.0
230
1.0
 70
     8
 71
     3
 72
     8
 73
     4
 74
     0
 42
0.0000000001
 43
0.0000000001
 40
0.6393216442358057
 40
0.6393216442358057
 40
0.6393216442358057
 40
0.6393216442358057
 40
10.49653484266006
 40
10.49653484266006
 40
10.49653484266006
 40
10.49653484266006
 10
-8.42468716851441
 20
2.269531207088874
 30
0.0
 10
-6.689623635800991
 20
2.128400235555858
 30
0.0
 10
-5.173667229378823
 20
1.096468936056993
 30
0.0
 10
-3.657710822956652
 20
0.0645376365580147
 30
0.0
  0
SPLINE
  5
1D51
330
1F
100
AcDbEntity
  8
AM_0
100
AcDbSpline
210
0.0
220
0.0
230
1.0
 70
     8
 71
     3
 72
     8
 73
     4
 74
     0
 42
0.0000000001
 43
0.0000000001
 40
0.0
 40
0.0
 40
0.0
 40
0.0
 40
2.093133798227362
 40
2.093133798227362
 40
2.093133798227362
 40
2.093133798227362
 10
-5.134074074074043
 20
-2.498819464453865
 30
0.0
 10
-4.759377283033413
 20
-2.499999999999971
 30
0.0
 10
-4.397757738916626
 20
-2.451367277997604
 30
0.0
 10
-4.046636000676917
 20
-2.363694467680346
 30
0.0
  0
SPLINE
  5
1D52
330
1F
100
AcDbEntity
  8
AM_0
100
AcDbSpline
210
0.0
220
0.0
230
1.0
 70
     8
 71
     3
 72
     8
 73
     4
 74
     0
 42
0.0000000001
 43
0.0000000001
 40
0.0
 40
0.0
 40
0.0
 40
0.0
 40
3.977355368879245
 40
3.977355368879245
 40
3.977355368879245
 40
3.977355368879245
 10
-9.400623152647934
 20
-2.375697058205304
 30
0.0
 10
-8.688627438465934
 20
-2.375697058205417
 30
0.0
 10
-8.020461515549429
 20
-2.205157153314388
 30
0.0
 10
-7.379517975010633
 20
-1.928696084586619
 30
0.0
  0
SPLINE
  5
1D53
330
1F
100
AcDbEntity
  8
AM_0
100
AcDbSpline
210
0.0
220
0.0
230
1.0
 70
     8
 71
     3
 72
     8
 73
     4
 74
     0
 42
0.0000000001
 43
0.0000000001
 40
0.150648776844293
 40
0.150648776844293
 40
0.150648776844293
 40
0.150648776844293
 40
6.420166228128741
 40
6.420166228128741
 40
6.420166228128741
 40
6.420166228128741
 10
-8.684377490384509
 20
-2.154769218375851
 30
0.0
 10
-9.802095995683439
 20
-2.122574141088803
 30
0.0
 10
-10.82678301116196
 20
-1.71215092012667
 30
0.0
 10
-11.81481481481481
 20
-1.152702538419333
 30
0.0
  0
SPLINE
  5
1D54
330
1F
100
AcDbEntity
  8
AM_0
100
AcDbSpline
210
0.0
220
0.0
230
1.0
 70
     8
 71
     3
 72
     8
 73
     4
 74
     0
 42
0.0000000001
 43
0.0000000001
 40
0.0
 40
0.0
 40
0.0
 40
0.0
 40
2.4079390838223
 40
2.4079390838223
 40
2.4079390838223
 40
2.4079390838223
 10
-8.684377490384509
 20
-2.154769218375851
 30
0.0
 10
-8.334098849085503
 20
-2.151098497765786
 30
0.0
 10
-7.917009030323781
 20
-2.089160270180087
 30
0.0
 10
-7.510648185157656
 20
-1.983602406120127
 30
0.0
  0
LINE
  5
1DB5
330
1F
100
AcDbEntity
  8
AM_11
100
AcDbLine
 10
0.0
 20
2.500000000000312
 30
0.0
 11
0.0
 21
-2.500000000000312
 31
0.0
  0
LINE
  5
1DD7
330
1F
100
AcDbEntity
  8
AM_0
100
AcDbLine
 10
-16.36602540378325
 20
2.999999999999995
 30
0.0
 11
-16.36602540378456
 21
-3.000000000000004
 31
0.0
  0
LINE
  5
1DD8
330
1F
100
AcDbEntity
  8
AM_0
100
AcDbLine
 10
-16.36602540378456
 20
-3.000000000000004
 30
0.0
 11
-14.5
 21
-2.49999999999997
 31
0.0
  0
LINE
  5
1DD9
330
1F
100
AcDbEntity
  8
AM_0
100
AcDbLine
 10
-14.5
 20
-2.49999999999997
 30
0.0
 11
-14.5
 21
2.500000000000312
 31
0.0
  0
LINE
  5
1DDA
330
1F
100
AcDbEntity
  8
AM_0
100
AcDbLine
 10
-14.5
 20
2.500000000000312
 30
0.0
 11
-16.36602540378325
 21
2.999999999999995
 31
0.0
  0
LINE
  5
1DDB
330
1F
100
AcDbEntity
  8
AM_0
100
AcDbLine
 10
-14.5
 20
-2.500000000000311
 30
0.0
 11
-10.66964610763928
 21
-2.49999999999997
 31
0.0
  0
LINE
  5
1DDC
330
1F
100
AcDbEntity
  8
AM_0
100
AcDbLine
 10
-14.5
 20
2.500000000000312
 30
0.0
 11
-13.88010665397997
 21
2.500000000000312
 31
0.0
  0
ARC
  5
2001
330
1F
100
AcDbEntity
  8
AM_0
100
AcDbCircle
 10
-1.0
 20
1.499999999999881
 30
0.0
 40
1.0
100
AcDbArc
 50
0.0
 51
90.00000000001669
1001
GENIUS_GENODEF_13
1002
{
1000
HIER
1070
     0
1002
}
1002
{
1000
MANEDIT
1070
     0
1002
}
1002
{
1000
NOSEL
1070
     0
1002
}
1002
{
1000
BEHIND
1070
     0
1002
}
1002
{
1000
REACTOR
1002
}
1001
GENIUS_GENOBJ-N-FIL_13
1002
{
1000
OWNER
1000
GEN
1002
}
  0
ARC
  5
2005
330
1F
100
AcDbEntity
  8
AM_0
100
AcDbCircle
 10
-1.0
 20
-1.500000000000112
 30
0.0
 40
1.0
100
AcDbArc
 50
269.9999999999934
 51
0.0
1001
GENIUS_GENODEF_13
1002
{
1000
HIER
1070
     0
1002
}
1002
{
1000
MANEDIT
1070
     0
1002
}
1002
{
1000
NOSEL
1070
     0
1002
}
1002
{
1000
BEHIND
1070
     0
1002
}
1002
{
1000
REACTOR
1002
}
1001
GENIUS_GENOBJ-N-FIL_13
1002
{
1000
OWNER
1000
GEN
1002
}
  0
DIMENSION
  5
2010
330
1F
100
AcDbEntity
  8
AM_5
100
AcDbDimension
  2
*D9
 10
-0.9999999999999998
 20
-1.500000000000112
 30
0.0
 11
4.425218949980564
 21
-5.893255682281365
 31
0.0
 70
   164
  1
<>
  3
AM_JIS$4
100
AcDbRadialDimension
 15
-0.2228540385430292
 25
-2.12932039104995
 35
0.0
 40
0.0
1001
GENIUS_GENDTOL_13
1000

1000
h7
1000

1040
0.0
1001
ACAD
1000
DSTYLE
1002
{
1070
   287
1070
     3
1070
   271
1070
     3
1070
   288
1070
     1
1070
   289
1070
     3
1070
   172
1070
     1
1070
    74
1070
     0
1002
}
  0
VIEWPORT
  5
110
330
101
100
AcDbEntity
 67
     1
  8
0
100
AcDbViewport
 10
420.5
 20
297.0
 30
0.0
 40
948.9782706766916
 41
628.452
 68
     1
 69
     1
1001
ACAD
1000
MVIEW
1002
{
1070
    16
1010
0.0
1020
0.0
1030
0.0
1010
0.0
1020
0.0
1030
1.0
1040
0.0
1040
628.452
1040
420.5
1040
297.0
1040
50.0
1040
0.0
1040
0.0
1070
     0
1070
   100
1070
     1
1070
     1
1070
     0
1070
     0
1070
     0
1070
     0
1040
0.0
1040
0.0
1040
0.0
1040
10.0
1040
10.0
1040
10.0
1040
10.0
1070
     0
1002
{
1002
}
1002
}
  0
ENDSEC
  0
SECTION
  2
OBJECTS
  0
DICTIONARY
  5
C
330
0
100
AcDbDictionary
  3
ACAD_GROUP
350
D
  3
ACAD_LAYOUT
350
1A
  3
ACAD_MLINESTYLE
350
17
  3
ACAD_PLOTSETTINGS
350
19
  3
ACAD_PLOTSTYLENAME
350
E
  3
ACDBVARIABLEDICTIONARY
350
34
  3
ACMDICTIONARY
350
43
  3
AMG
350
2B
  3
AMGSNAPSETTINGS
350
6E
  3
DWGPROPS
350
21F6
  3
ACDBHEADERROUNDTRIPXREC
350
2202
  0
DICTIONARY
  5
74
330
1F
100
AcDbDictionary
280
     1
  3
ACAD_INDEX
360
21F8
  3
ACAD_LAYOUTSELFREF
360
2225
  0
DICTIONARY
  5
222A
330
101
100
AcDbDictionary
280
     1
  3
ACAD_LAYOUTSELFREF
360
222B
  0
DICTIONARY
  5
D
102
{ACAD_REACTORS
330
C
102
}
330
C
100
AcDbDictionary
  0
DICTIONARY
  5
1A
102
{ACAD_REACTORS
330
C
102
}
330
C
100
AcDbDictionary
  0
DICTIONARY
  5
17
102
{ACAD_REACTORS
330
C
102
}
330
C
100
AcDbDictionary
  3
STANDARD
350
18
  0
DICTIONARY
  5
19
102
{ACAD_REACTORS
330
C
102
}
330
C
100
AcDbDictionary
  0
ACDBDICTIONARYWDFLT
  5
E
102
{ACAD_REACTORS
330
C
102
}
330
C
100
AcDbDictionary
281
     1
  3
Normal
350
F
100
AcDbDictionaryWithDefault
340
F
  0
DICTIONARY
  5
34
102
{ACAD_REACTORS
330
C
102
}
330
C
100
AcDbDictionary
  3
INDEXCTL
350
35
  3
SORTENTS
350
B5E
  0
DICTIONARY
  5
43
102
{ACAD_REACTORS
330
C
102
}
330
C
100
AcDbDictionary
  3
ACMSTDDICTIONARY
350
260
  0
DICTIONARY
  5
2B
102
{ACAD_REACTORS
330
C
102
}
330
C
100
AcDbDictionary
  3
ACMGSETTINGS
350
2C
  0
DICTIONARY
  5
6E
102
{ACAD_REACTORS
330
C
102
}
330
C
100
AcDbDictionary
  0
XRECORD
  5
21F6
102
{ACAD_REACTORS
330
C
102
}
330
C
100
AcDbXrecord
  1
DWGPROPS COOKIE
  2

  3

  4

  6

  7

  8

  9

300
AmdtFileType=82
301
=
302
=
303
=
304
=
305
=
306
=
307
=
308
=
309
=
 40
0.0638386226851852
 41
2452809.403188831
 42
2452844.452862407
  1

 90
        1
  0
DICTIONARY
  5
2202
102
{ACAD_REACTORS
330
C
102
}
330
C
100
AcDbDictionary
  3
TSTACKALIGN
350
2203
  3
TSTACKSIZE
350
2204
  3
HYPERLINKBASE
350
2205
  3
STYLESHEET
350
2206
  3
LAYOUTDICT
350
2207
  3
PLOTSETDICT
350
2208
  3
PLOTSTYLNAMDICT
350
2209
  3
LWETCUNION
350
220A
  3
INSUNITS
350
220B
  3
CEPSNTYPE
350
220C
  3
FINGERPRINTGUID
350
220D
  3
VERSIONGUID
350
220E
  3
PSVPSCALE
350
220F
  3
DIMSTYLEDATA
350
2210
  3
PUCSORTHOREF
350
2211
  3
PUCSORTHOVIEW
350
2212
  3
PUCSBASE
350
2213
  3
PUCSORGTOP
350
2214
  3
PUCSORGBOTTOM
350
2215
  3
PUCSORGLEFT
350
2216
  3
PUCSORGRIGHT
350
2217
  3
PUCSORGFRONT
350
2218
  3
PUCSORGBACK
350
2219
  3
UCSORTHOREF
350
221A
  3
UCSORTHOVIEW
350
221B
  3
UCSBASE
350
221C
  3
UCSORGTOP
350
221D
  3
UCSORGBOTTOM
350
221E
  3
UCSORGLEFT
350
221F
  3
UCSORGRIGHT
350
2220
  3
UCSORGFRONT
350
2221
  3
UCSORGBACK
350
2222
  0
DICTIONARY
  5
21F8
102
{ACAD_REACTORS
330
74
102
}
330
74
100
AcDbDictionary
  3
*A1
350
21F9
  0
XRECORD
  5
2225
102
{ACAD_REACTORS
330
74
102
}
330
74
100
AcDbXrecord
340
1F
  0
XRECORD
  5
222B
102
{ACAD_REACTORS
330
222A
102
}
330
222A
100
AcDbXrecord
340
101
  0
MLINESTYLE
  5
18
102
{ACAD_REACTORS
330
17
102
}
330
17
100
AcDbMlineStyle
  2
STANDARD
 70
     0
  3

 62
   256
 51
90.0
 52
90.0
 71
     2
 49
0.5
 62
   256
  6
BYLAYER
 49
-0.5
 62
   256
  6
BYLAYER
  0
ACDBPLACEHOLDER
  5
F
102
{ACAD_REACTORS
330
E
102
}
330
E
100
AcDbPlaceHolder
280
     0
  0
DICTIONARYVAR
  5
35
102
{ACAD_REACTORS
330
34
102
}
330
34
100
DictionaryVariables
280
     0
  1
1
  0
DICTIONARYVAR
  5
B5E
102
{ACAD_REACTORS
330
34
102
}
330
34
100
DictionaryVariables
280
     0
  1
96
  0
DICTIONARY
  5
260
102
{ACAD_REACTORS
330
43
102
}
330
43
100
AcDbDictionary
  0
DICTIONARY
  5
2C
102
{ACAD_REACTORS
330
2B
102
}
330
2B
100
AcDbDictionary
  3
DWGSETTINGS
350
2D
  0
XRECORD
  5
2203
102
{ACAD_REACTORS
330
2202
102
}
330
2202
100
AcDbXrecord
 90
        1
  0
XRECORD
  5
2204
102
{ACAD_REACTORS
330
2202
102
}
330
2202
100
AcDbXrecord
 90
       70
  0
XRECORD
  5
2205
102
{ACAD_REACTORS
330
2202
102
}
330
2202
100
AcDbXrecord
  1

  0
XRECORD
  5
2206
102
{ACAD_REACTORS
330
2202
102
}
330
2202
100
AcDbXrecord
  1
ASAMI.ctb
  0
XRECORD
  5
2207
102
{ACAD_REACTORS
330
2202
102
}
330
2202
100
AcDbXrecord
340
1A
  0
XRECORD
  5
2208
102
{ACAD_REACTORS
330
2202
102
}
330
2202
100
AcDbXrecord
340
19
  0
XRECORD
  5
2209
102
{ACAD_REACTORS
330
2202
102
}
330
2202
100
AcDbXrecord
340
E
  0
XRECORD
  5
220A
102
{ACAD_REACTORS
330
2202
102
}
330
2202
100
AcDbXrecord
 90
    10781
  0
XRECORD
  5
220B
102
{ACAD_REACTORS
330
2202
102
}
330
2202
100
AcDbXrecord
 90
        4
  0
XRECORD
  5
220C
102
{ACAD_REACTORS
330
2202
102
}
330
2202
100
AcDbXrecord
 90
        0
  0
XRECORD
  5
220D
102
{ACAD_REACTORS
330
2202
102
}
330
2202
100
AcDbXrecord
  1
{AFB28963-8C59-40AE-9337-C84526B81ACE}
  0
XRECORD
  5
220E
102
{ACAD_REACTORS
330
2202
102
}
330
2202
100
AcDbXrecord
  1
{C4CC7DC4-374E-4AB5-AF15-7220DC008861}
  0
XRECORD
  5
220F
102
{ACAD_REACTORS
330
2202
102
}
330
2202
100
AcDbXrecord
 40
0.0
  0
XRECORD
  5
2210
102
{ACAD_REACTORS
330
2202
102
}
330
2202
100
AcDbXrecord
1000
DSTYLE
1002
{
1070
    79
 70
     2
1070
   341
340
59
1070
   342
340
59
1070
   371
 70
    -1
1070
   372
 70
    -1
1002
}
  0
XRECORD
  5
2211
102
{ACAD_REACTORS
330
2202
102
}
330
2202
100
AcDbXrecord
340
0
  0
XRECORD
  5
2212
102
{ACAD_REACTORS
330
2202
102
}
330
2202
100
AcDbXrecord
 70
     0
  0
XRECORD
  5
2213
102
{ACAD_REACTORS
330
2202
102
}
330
2202
100
AcDbXrecord
340
0
  0
XRECORD
  5
2214
102
{ACAD_REACTORS
330
2202
102
}
330
2202
100
AcDbXrecord
 10
0.0
 20
0.0
 30
0.0
  0
XRECORD
  5
2215
102
{ACAD_REACTORS
330
2202
102
}
330
2202
100
AcDbXrecord
 10
0.0
 20
0.0
 30
0.0
  0
XRECORD
  5
2216
102
{ACAD_REACTORS
330
2202
102
}
330
2202
100
AcDbXrecord
 10
0.0
 20
0.0
 30
0.0
  0
XRECORD
  5
2217
102
{ACAD_REACTORS
330
2202
102
}
330
2202
100
AcDbXrecord
 10
0.0
 20
0.0
 30
0.0
  0
XRECORD
  5
2218
102
{ACAD_REACTORS
330
2202
102
}
330
2202
100
AcDbXrecord
 10
0.0
 20
0.0
 30
0.0
  0
XRECORD
  5
2219
102
{ACAD_REACTORS
330
2202
102
}
330
2202
100
AcDbXrecord
 10
0.0
 20
0.0
 30
0.0
  0
XRECORD
  5
221A
102
{ACAD_REACTORS
330
2202
102
}
330
2202
100
AcDbXrecord
340
0
  0
XRECORD
  5
221B
102
{ACAD_REACTORS
330
2202
102
}
330
2202
100
AcDbXrecord
 70
     0
  0
XRECORD
  5
221C
102
{ACAD_REACTORS
330
2202
102
}
330
2202
100
AcDbXrecord
340
0
  0
XRECORD
  5
221D
102
{ACAD_REACTORS
330
2202
102
}
330
2202
100
AcDbXrecord
 10
0.0
 20
0.0
 30
0.0
  0
XRECORD
  5
221E
102
{ACAD_REACTORS
330
2202
102
}
330
2202
100
AcDbXrecord
 10
0.0
 20
0.0
 30
0.0
  0
XRECORD
  5
221F
102
{ACAD_REACTORS
330
2202
102
}
330
2202
100
AcDbXrecord
 10
0.0
 20
0.0
 30
0.0
  0
XRECORD
  5
2220
102
{ACAD_REACTORS
330
2202
102
}
330
2202
100
AcDbXrecord
 10
0.0
 20
0.0
 30
0.0
  0
XRECORD
  5
2221
102
{ACAD_REACTORS
330
2202
102
}
330
2202
100
AcDbXrecord
 10
0.0
 20
0.0
 30
0.0
  0
XRECORD
  5
2222
102
{ACAD_REACTORS
330
2202
102
}
330
2202
100
AcDbXrecord
 10
0.0
 20
0.0
 30
0.0
  0
LAYER_INDEX
  5
21F9
102
{ACAD_REACTORS
330
21F8
102
}
330
21F8
100
AcDbIndex
 40
2452844.461435903
100
AcDbLayerIndex
  8
0
360
21FA
 90
        0
  8
AM_0
360
21FB
 90
       55
  8
AM_11
360
21FC
 90
        4
  8
AM_7
360
21FD
 90
        1
  8
AM_5
360
21FE
 90
        5
  8
Defpoints
360
21FF
 90
        0
  8
AM_6
360
2200
 90
        1
  0
XRECORD
  5
2D
102
{ACAD_REACTORS
330
2C
102
}
330
2C
100
AcDbXrecord
  1
VERSION
140
15.0
  1
PRODUCT
  2
AutoCAD Mechanical 2000
  0
IDBUFFER
  5
21FA
330
0
100
AcDbIdBuffer
  0
IDBUFFER
  5
21FB
330
0
100
AcDbIdBuffer
330
1DD8
330
1DD9
330
1DDA
330
1DDB
330
1DDC
330
2001
330
2005
330
1AB8
330
1AB9
330
1ABA
330
1ABB
330
1ACB
330
1ACC
330
1D1C
330
1D1D
330
1D1E
330
1D1F
330
1D20
330
1D21
330
1D22
330
1D23
330
1D34
330
1D35
330
1D36
330
1D37
330
1D38
330
1D39
330
1D3A
330
1D3B
330
1D3C
330
1D3D
330
1D3E
330
1D3F
330
1D40
330
1D41
330
1D42
330
1D43
330
1D44
330
1D45
330
1D46
330
1D47
330
1D48
330
1D49
330
1D4A
330
1D4B
330
1D4C
330
1D4D
330
1D4E
330
1D4F
330
1D50
330
1D51
330
1D52
330
1D53
330
1D54
330
1DD7
  0
IDBUFFER
  5
21FC
330
0
100
AcDbIdBuffer
330
1B56
330
1B5B
330
1B6C
330
1DB5
  0
IDBUFFER
  5
21FD
330
0
100
AcDbIdBuffer
330
1ACD
  0
IDBUFFER
  5
21FE
330
0
100
AcDbIdBuffer
330
1B5C
330
1B7C
330
1BA8
330
1BD9
330
2010
  0
IDBUFFER
  5
21FF
330
0
100
AcDbIdBuffer
  0
IDBUFFER
  5
2200
330
0
100
AcDbIdBuffer
330
F17
  0
ENDSEC
  0
EOF
