  0
SECTION
  2
HEADER
  9
$ACADVER
  1
AC1014
  9
$ACADMAINTVER
 70
     9
  9
$DWGCODEPAGE
  3
ANSI_932
  9
$INSBASE
 10
0.0
 20
0.0
 30
0.0
  9
$EXTMIN
 10
-141.2931425575491
 20
-58.50000100000009
 30
-0.00000001
  9
$EXTMAX
 10
19.53057127860815
 20
10.70316633239728
 30
0.00000001
  9
$LIMMIN
 10
-158.380279694318
 20
-84.61970721441685
  9
$LIMMAX
 10
40.18084695117273
 20
24.68439285664209
  9
$ORTHOMODE
 70
     0
  9
$REGENMODE
 70
     1
  9
$FILLMODE
 70
     1
  9
$QTEXTMODE
 70
     0
  9
$MIRRTEXT
 70
     0
  9
$DRAGMODE
 70
     2
  9
$LTSCALE
 40
1.0
  9
$OSMODE
 70
  2103
  9
$ATTMODE
 70
     1
  9
$TEXTSIZE
 40
2.5
  9
$TRACEWID
 40
1.0
  9
$TEXTSTYLE
  7
STANDARD
  9
$CLAYER
  8
AM_0
  9
$CELTYPE
  6
BYLAYER
  9
$CECOLOR
 62
   256
  9
$CELTSCALE
 40
1.0
  9
$DELOBJ
 70
     1
  9
$DISPSILH
 70
     0
  9
$DIMSCALE
 40
1.0
  9
$DIMASZ
 40
2.5
  9
$DIMEXO
 40
1.0
  9
$DIMDLI
 40
12.0
  9
$DIMRND
 40
0.0
  9
$DIMDLE
 40
0.0
  9
$DIMEXE
 40
1.0
  9
$DIMTP
 40
0.1
  9
$DIMTM
 40
0.1
  9
$DIMTXT
 40
3.2
  9
$DIMCEN
 40
0.0
  9
$DIMTSZ
 40
0.0
  9
$DIMTOL
 70
     0
  9
$DIMLIM
 70
     0
  9
$DIMTIH
 70
     0
  9
$DIMTOH
 70
     0
  9
$DIMSE1
 70
     0
  9
$DIMSE2
 70
     0
  9
$DIMTAD
 70
     3
  9
$DIMZIN
 70
     8
  9
$DIMBLK
  1
OPEN30
  9
$DIMASO
 70
     1
  9
$DIMSHO
 70
     1
  9
$DIMPOST
  1

  9
$DIMAPOST
  1
"
  9
$DIMALT
 70
     0
  9
$DIMALTD
 70
     2
  9
$DIMALTF
 40
0.0393701
  9
$DIMLFAC
 40
1.0
  9
$DIMTOFL
 70
     1
  9
$DIMTVP
 40
0.0
  9
$DIMTIX
 70
     0
  9
$DIMSOXD
 70
     0
  9
$DIMSAH
 70
     0
  9
$DIMBLK1
  1

  9
$DIMBLK2
  1

  9
$DIMSTYLE
  2
AM_JIS
  9
$DIMCLRD
 70
   256
  9
$DIMCLRE
 70
   256
  9
$DIMCLRT
 70
     2
  9
$DIMTFAC
 40
0.71
  9
$DIMGAP
 40
1.5
  9
$DIMJUST
 70
     0
  9
$DIMSD1
 70
     0
  9
$DIMSD2
 70
     0
  9
$DIMTOLJ
 70
     0
  9
$DIMTZIN
 70
     0
  9
$DIMALTZ
 70
     0
  9
$DIMALTTZ
 70
     0
  9
$DIMFIT
 70
     3
  9
$DIMUPT
 70
     0
  9
$DIMUNIT
 70
     2
  9
$DIMDEC
 70
     3
  9
$DIMTDEC
 70
     3
  9
$DIMALTU
 70
     2
  9
$DIMALTTD
 70
     2
  9
$DIMTXSTY
  7
ASAMI
  9
$DIMAUNIT
 70
     0
  9
$LUNITS
 70
     2
  9
$LUPREC
 70
     2
  9
$SKETCHINC
 40
1.0
  9
$FILLETRAD
 40
2.5
  9
$AUNITS
 70
     0
  9
$AUPREC
 70
     0
  9
$MENU
  1
.
  9
$ELEVATION
 40
0.0
  9
$PELEVATION
 40
0.0
  9
$THICKNESS
 40
0.0
  9
$LIMCHECK
 70
     0
  9
$BLIPMODE
 70
     0
  9
$CHAMFERA
 40
0.5
  9
$CHAMFERB
 40
0.5
  9
$CHAMFERC
 40
20.0
  9
$CHAMFERD
 40
0.0
  9
$SKPOLY
 70
     0
  9
$TDCREATE
 40
2452809.403188831
  9
$TDUPDATE
 40
2452844.459395254
  9
$TDINDWG
 40
0.0732716782
  9
$TDUSRTIMER
 40
0.0732716782
  9
$USRTIMER
 70
     1
  9
$ANGBASE
 50
0.0
  9
$ANGDIR
 70
     0
  9
$PDMODE
 70
     0
  9
$PDSIZE
 40
0.0
  9
$PLINEWID
 40
0.0
  9
$COORDS
 70
     2
  9
$SPLFRAME
 70
     0
  9
$SPLINETYPE
 70
     6
  9
$SPLINESEGS
 70
     8
  9
$ATTDIA
 70
     1
  9
$ATTREQ
 70
     1
  9
$HANDLING
 70
 12289
  9
$HANDSEED
  5
274E
  9
$SURFTAB1
 70
     6
  9
$SURFTAB2
 70
     6
  9
$SURFTYPE
 70
     6
  9
$SURFU
 70
     6
  9
$SURFV
 70
     6
  9
$UCSNAME
  2

  9
$UCSORG
 10
-0.0000000000021743
 20
-0.0000000000000011
 30
0.0
  9
$UCSXDIR
 10
1.0
 20
0.0
 30
0.0
  9
$UCSYDIR
 10
0.0
 20
1.0
 30
0.0
  9
$PUCSNAME
  2

  9
$PUCSORG
 10
0.0
 20
0.0
 30
0.0
  9
$PUCSXDIR
 10
1.0
 20
0.0
 30
0.0
  9
$PUCSYDIR
 10
0.0
 20
1.0
 30
0.0
  9
$USERI1
 70
     0
  9
$USERI2
 70
     0
  9
$USERI3
 70
     0
  9
$USERI4
 70
     0
  9
$USERI5
 70
     0
  9
$USERR1
 40
0.0
  9
$USERR2
 40
0.0
  9
$USERR3
 40
0.0
  9
$USERR4
 40
0.0
  9
$USERR5
 40
0.0
  9
$WORLDVIEW
 70
     1
  9
$SHADEDGE
 70
     3
  9
$SHADEDIF
 70
    70
  9
$TILEMODE
 70
     1
  9
$MAXACTVP
 70
    64
  9
$PINSBASE
 10
0.0
 20
0.0
 30
0.0
  9
$PLIMCHECK
 70
     0
  9
$PEXTMIN
 10
1.000000000000000E+20
 20
1.000000000000000E+20
 30
1.000000000000000E+20
  9
$PEXTMAX
 10
-1.000000000000000E+20
 20
-1.000000000000000E+20
 30
-1.000000000000000E+20
  9
$PLIMMIN
 10
0.0
 20
0.0
  9
$PLIMMAX
 10
841.0
 20
594.0
  9
$UNITMODE
 70
     0
  9
$VISRETAIN
 70
     1
  9
$PLINEGEN
 70
     0
  9
$PSLTSCALE
 70
     0
  9
$TREEDEPTH
 70
  3020
  9
$PICKSTYLE
 70
     0
  9
$CMLSTYLE
  2
STANDARD
  9
$CMLJUST
 70
     0
  9
$CMLSCALE
 40
20.0
  9
$PROXYGRAPHICS
 70
     1
  9
$MEASUREMENT
 70
     1
  0
ENDSEC
  0
SECTION
  2
CLASSES
  0
CLASS
  1
ACDBDICTIONARYWDFLT
  2
AcDbDictionaryWithDefault
  3
AutoCAD 2000
 90
        0
280
     0
281
     0
  0
CLASS
  1
ACDBPLACEHOLDER
  2
AcDbPlaceHolder
  3
AutoCAD 2000
 90
        0
280
     0
281
     0
  0
CLASS
  1
LAYOUT
  2
AcDbLayout
  3
AutoCAD 2000
 90
        0
280
     0
281
     0
  0
CLASS
  1
AMGSETTINGSOBJ
  2
AmgSettingsObj
  3
"AcadM|Product Description: AutoCAD Mechanical 2000|Company: Autodesk"
 90
        0
280
     0
281
     0
  0
CLASS
  1
ACME_DOCUMENT
  2
AcMeDbDoc
  3
AcMeServices
 90
        0
280
     0
281
     0
  0
CLASS
  1
ACMESCOPE
  2
AcMeScope
  3
AcMeServices
 90
        0
280
     0
281
     0
  0
CLASS
  1
ACMECOMMANDHISTORY
  2
AcMeCommandHistory
  3
AcMeServices
 90
        0
280
     0
281
     0
  0
CLASS
  1
DICTIONARYVAR
  2
AcDbDictionaryVar
  3
AutoCAD 2000
 90
        0
280
     0
281
     0
  0
CLASS
  1
ACIMSYSVARMAN
  2
AcImSysVarManager
  3
AcMeServices
 90
        0
280
     0
281
     0
  0
CLASS
  1
ACIMREALSYSVAR
  2
AcImRealSysVar
  3
AcMeServices
 90
        0
280
     0
281
     0
  0
CLASS
  1
ACIMINTSYSVAR
  2
AcImIntSysVar
  3
AcMeServices
 90
        0
280
     0
281
     0
  0
CLASS
  1
ACMEDRAWINGMAN
  2
AcMeDrawingMan
  3
AcMeServices
 90
        0
280
     0
281
     0
  0
CLASS
  1
ACMEVIEW
  2
AcMeView
  3
AcMeServices
 90
        0
280
     0
281
     0
  0
CLASS
  1
ACDBENTITYCACHE
  2
AcMeEntityCache
  3
AcMeServices
 90
        0
280
     0
281
     0
  0
CLASS
  1
GSMANAGER
  2
AcMeGSManager
  3
AcMeServices
 90
        0
280
     0
281
     0
  0
CLASS
  1
AmdtInternalReactor
  2
AmdtInternalReactor
  3
AcMeServices
 90
        0
280
     0
281
     0
  0
CLASS
  1
ACMESTATEMGR
  2
AcMeStateMgr
  3
AcMeServices
 90
        0
280
     0
281
     0
  0
CLASS
  1
ACME_DATABASE
  2
AcMeDbDatabase
  3
AcMeServices
 90
        0
280
     0
281
     0
  0
CLASS
  1
ACRFINSADJUSTERMGR
  2
AcRfInsAdjusterMgr
  3
AcMeServices
 90
        0
280
     0
281
     0
  0
CLASS
  1
ACMDATADICTIONARY
  2
AcmDataDictionary
  3
"AcmSymBB|Product Description: AutoCAD Mechanical 2000|Company: Autodesk"
 90
        0
280
     0
281
     0
  0
CLASS
  1
ACMDATAENTRYBLOCK
  2
AcmDataEntryBlock
  3
"AcmSymBB|Product Description: AutoCAD Mechanical 2000|Company: Autodesk"
 90
        0
280
     0
281
     0
  0
CLASS
  1
AMGOBJPROPCFG
  2
AmgObjPropCfg
  3
"AmgLay|Product Description: AutoCAD Mechanical 2000|Company: Autodesk"
 90
        1
280
     0
281
     0
  0
CLASS
  1
ACAMGFILTERDAT
  2
AcAmgFilterDat
  3
"AcadM|Product Description: AutoCAD Mechanical 2000|Company: Autodesk"
 90
        0
280
     0
281
     0
  0
CLASS
  1
LAYER_INDEX
  2
AcDbLayerIndex
  3
AutoCAD 2000
 90
        0
280
     0
281
     0
  0
CLASS
  1
IDBUFFER
  2
AcDbIdBuffer
  3
AutoCAD 2000
 90
        0
280
     0
281
     0
  0
CLASS
  1
ACIMSTRSYSVAR
  2
AcImStrSysVar
  3
AcMeServices
 90
        0
280
     0
281
     0
  0
CLASS
  1
ACMSTANDARDJIS
  2
AcmStandardJIS
  3
"AcmSymBB|Product Description: AutoCAD Mechanical 2000|Company: Autodesk"
 90
        0
280
     0
281
     0
  0
CLASS
  1
ACMSURFSTANDARDJIS
  2
AcmSurfTextStdJIS
  3
"AcmSymBB|Product Description: AutoCAD Mechanical 2000|Company: Autodesk"
 90
        0
280
     0
281
     0
  0
CLASS
  1
ACMFCFSTANDARDJIS
  2
AcmFCFStdJIS
  3
"AcmSymBB|Product Description: AutoCAD Mechanical 2000|Company: Autodesk"
 90
        0
280
     0
281
     0
  0
CLASS
  1
ACMWELDSTANDARDJIS
  2
AcmWeldingStdJIS
  3
"AcmSymBB|Product Description: AutoCAD Mechanical 2000|Company: Autodesk"
 90
        0
280
     0
281
     0
  0
CLASS
  1
ACMIDSTANDARDJIS
  2
AcmIdStdJIS
  3
"AcmSymBB|Product Description: AutoCAD Mechanical 2000|Company: Autodesk"
 90
        0
280
     0
281
     0
  0
CLASS
  1
ACMDATUMSTANDARDJIS
  2
AcmDatumStdJIS
  3
"AcmSymBB|Product Description: AutoCAD Mechanical 2000|Company: Autodesk"
 90
        0
280
     0
281
     0
  0
CLASS
  1
ACMBOMSTANDARDJIS
  2
AcmBOMStdJIS
  3
"AcmSymBB|Product Description: AutoCAD Mechanical 2000|Company: Autodesk"
 90
        0
280
     0
281
     0
  0
CLASS
  1
ACMSTANDARDANSI
  2
AcmStandardANSI
  3
"AcmSymBB|Product Description: AutoCAD Mechanical 2000|Company: Autodesk"
 90
        0
280
     0
281
     0
  0
CLASS
  1
ACMSURFSTANDARDANSI
  2
AcmSurfTextStdANSI
  3
"AcmSymBB|Product Description: AutoCAD Mechanical 2000|Company: Autodesk"
 90
        0
280
     0
281
     0
  0
CLASS
  1
ACMFCFSTANDARDANSI
  2
AcmFCFStdANSI
  3
"AcmSymBB|Product Description: AutoCAD Mechanical 2000|Company: Autodesk"
 90
        0
280
     0
281
     0
  0
CLASS
  1
ACMWELDSTANDARDANSI
  2
AcmWeldingStdANSI
  3
"AcmSymBB|Product Description: AutoCAD Mechanical 2000|Company: Autodesk"
 90
        0
280
     0
281
     0
  0
CLASS
  1
ACMIDSTANDARDANSI
  2
AcmIdStdANSI
  3
"AcmSymBB|Product Description: AutoCAD Mechanical 2000|Company: Autodesk"
 90
        0
280
     0
281
     0
  0
CLASS
  1
ACMDATUMSTANDARDANSI
  2
AcmDatumStdANSI
  3
"AcmSymBB|Product Description: AutoCAD Mechanical 2000|Company: Autodesk"
 90
        0
280
     0
281
     0
  0
CLASS
  1
ACMBOMSTANDARDANSI
  2
AcmBOMStdANSI
  3
"AcmSymBB|Product Description: AutoCAD Mechanical 2000|Company: Autodesk"
 90
        0
280
     0
281
     0
  0
CLASS
  1
ACMSTANDARDBSI
  2
AcmStandardBSI
  3
"AcmSymBB|Product Description: AutoCAD Mechanical 2000|Company: Autodesk"
 90
        0
280
     0
281
     0
  0
CLASS
  1
ACMSURFSTANDARDBSI
  2
AcmSurfTextStdBSI
  3
"AcmSymBB|Product Description: AutoCAD Mechanical 2000|Company: Autodesk"
 90
        0
280
     0
281
     0
  0
CLASS
  1
ACMFCFSTANDARDBSI
  2
AcmFCFStdBSI
  3
"AcmSymBB|Product Description: AutoCAD Mechanical 2000|Company: Autodesk"
 90
        0
280
     0
281
     0
  0
CLASS
  1
ACMWELDSTANDARDBSI
  2
AcmWeldingStdBSI
  3
"AcmSymBB|Product Description: AutoCAD Mechanical 2000|Company: Autodesk"
 90
        0
280
     0
281
     0
  0
CLASS
  1
ACMIDSTANDARDBSI
  2
AcmIdStdBSI
  3
"AcmSymBB|Product Description: AutoCAD Mechanical 2000|Company: Autodesk"
 90
        0
280
     0
281
     0
  0
CLASS
  1
ACMDATUMSTANDARDBSI
  2
AcmDatumStdBSI
  3
"AcmSymBB|Product Description: AutoCAD Mechanical 2000|Company: Autodesk"
 90
        0
280
     0
281
     0
  0
CLASS
  1
ACMBOMSTANDARDBSI
  2
AcmBOMStdBSI
  3
"AcmSymBB|Product Description: AutoCAD Mechanical 2000|Company: Autodesk"
 90
        0
280
     0
281
     0
  0
CLASS
  1
LONG_TRANSACTION
  2
AcDbLongTransaction
  3
AutoCAD 2000
 90
        0
280
     0
281
     0
  0
CLASS
  1
LWPOLYLINE
  2
AcDbPolyline
  3
AutoCAD 2000
 90
        0
280
     0
281
     1
  0
CLASS
  1
HATCH
  2
AcDbHatch
  3
AutoCAD 2000
 90
        0
280
     0
281
     1
  0
CLASS
  1
XRECORD
  2
AcDbXrecord
  3
AutoCAD 2000
 90
        0
280
     0
281
     0
  0
ENDSEC
  0
SECTION
  2
TABLES
  0
TABLE
  2
VPORT
  5
8
330
0
100
AcDbSymbolTable
 70
     3
  0
VPORT
  5
2723
330
8
100
AcDbSymbolTableRecord
100
AcDbViewportTableRecord
  2
*ACTIVE
 70
     0
 10
0.0
 20
0.0
 11
1.0
 21
1.0
 12
-60.87897133161075
 22
-23.89602658157011
 13
0.0
 23
0.0
 14
2.5
 24
2.5
 15
10.0
 25
10.0
 16
0.0
 26
0.0
 36
1.0
 17
0.0
 27
0.0
 37
0.0
 40
103.1264570249597
 41
1.56570841889117
 42
50.0
 43
0.0
 44
0.0
 50
0.0
 51
0.0
 71
     0
 72
   100
 73
     1
 74
     3
 75
     0
 76
     0
 77
     0
 78
     0
  0
ENDTAB
  0
TABLE
  2
LTYPE
  5
5
330
0
100
AcDbSymbolTable
 70
    10
  0
LTYPE
  5
14
330
5
100
AcDbSymbolTableRecord
100
AcDbLinetypeTableRecord
  2
BYBLOCK
 70
     0
  3

 72
    65
 73
     0
 40
0.0
  0
LTYPE
  5
15
330
5
100
AcDbSymbolTableRecord
100
AcDbLinetypeTableRecord
  2
BYLAYER
 70
     0
  3

 72
    65
 73
     0
 40
0.0
  0
LTYPE
  5
16
330
5
100
AcDbSymbolTableRecord
100
AcDbLinetypeTableRecord
  2
CONTINUOUS
 70
     0
  3
Solid line
 72
    65
 73
     0
 40
0.0
  0
LTYPE
  5
4B
330
5
100
AcDbSymbolTableRecord
100
AcDbLinetypeTableRecord
  2
AM_ISO02W050
 70
     0
  3
__ __ __ __ __ __ __ __ __ __ __ __ __ __ __
 72
    65
 73
     2
 40
7.5
 49
6.0
 74
     0
 49
-1.5
 74
     0
  0
LTYPE
  5
4C
330
5
100
AcDbSymbolTableRecord
100
AcDbLinetypeTableRecord
  2
AM_ISO08W050
 70
     0
  3
____ . ____ . ____ . ____ . ____ . ____ . ____
 72
    65
 73
     4
 40
18.0
 49
12.0
 74
     0
 49
-1.5
 74
     0
 49
3.0
 74
     0
 49
-1.5
 74
     0
  0
LTYPE
  5
4D
330
5
100
AcDbSymbolTableRecord
100
AcDbLinetypeTableRecord
  2
AM_ISO09W050
 70
     0
  3
_____ . . _____ . . _____ . . ____ .. ____
 72
    65
 73
     6
 40
22.5
 49
12.0
 74
     0
 49
-1.5
 74
     0
 49
3.0
 74
     0
 49
-1.5
 74
     0
 49
3.0
 74
     0
 49
-1.5
 74
     0
  0
LTYPE
  5
4E
330
5
100
AcDbSymbolTableRecord
100
AcDbLinetypeTableRecord
  2
AMCONSTR
 70
     0
  3
_______________________
 72
    65
 73
     2
 40
9999.0
 49
9999.0
 74
     0
 49
0.0
 74
     0
  0
LTYPE
  5
4F
330
5
100
AcDbSymbolTableRecord
100
AcDbLinetypeTableRecord
  2
AM_ISO02W050X2
 70
     0
  3
 _ _ _ _ _ _ _ _ _ _ _ _
 72
    65
 73
     2
 40
3.75
 49
3.0
 74
     0
 49
-0.75
 74
     0
  0
LTYPE
  5
50
330
5
100
AcDbSymbolTableRecord
100
AcDbLinetypeTableRecord
  2
AM_ISO08W050X2
 70
     0
  3
__ . __ . __ . __ . __ . __
 72
    65
 73
     4
 40
9.0
 49
6.0
 74
     0
 49
-0.75
 74
     0
 49
1.5
 74
     0
 49
-0.75
 74
     0
  0
LTYPE
  5
53
330
5
100
AcDbSymbolTableRecord
100
AcDbLinetypeTableRecord
  2
AMZIGZAG
 70
     0
  3
/\/-/\/-/\/-/\/-/\/-/\/
 72
    65
 73
     2
 40
11.00009999999999
 49
0.0001
 74
     4
 75
   135
340
52
 46
0.04
 50
0.0
 44
0.0
 45
0.0
 49
-11.0
 74
     0
  0
LTYPE
  5
166
330
5
100
AcDbSymbolTableRecord
100
AcDbLinetypeTableRecord
  2
ACJISTGL
 70
     0
  3
_ _ _ _ _
 72
    65
 73
     2
 40
3.0
 49
2.0
 74
     0
 49
-1.0
 74
     0
  0
LTYPE
  5
26A
330
5
100
AcDbSymbolTableRecord
100
AcDbLinetypeTableRecord
  2
ACJISTGB
 70
     0
  3
__ . . __ . .
 72
    65
 73
     6
 40
9.0
 49
4.0
 74
     0
 49
-1.0
 74
     0
 49
1.0
 74
     0
 49
-1.0
 74
     0
 49
1.0
 74
     0
 49
-1.0
 74
     0
  0
ENDTAB
  0
TABLE
  2
LAYER
  5
2
330
0
100
AcDbSymbolTable
 70
     7
  0
LAYER
  5
10
330
2
100
AcDbSymbolTableRecord
100
AcDbLayerTableRecord
  2
0
 70
     0
 62
     7
  6
CONTINUOUS
  0
LAYER
  5
3F9
330
2
100
AcDbSymbolTableRecord
100
AcDbLayerTableRecord
  2
AM_0
 70
     0
 62
     7
  6
CONTINUOUS
  0
LAYER
  5
BA4
330
2
100
AcDbSymbolTableRecord
100
AcDbLayerTableRecord
  2
AM_11
 70
     0
 62
     3
  6
AM_ISO09W050
  0
LAYER
  5
BA5
330
2
100
AcDbSymbolTableRecord
100
AcDbLayerTableRecord
  2
AM_7
 70
     0
 62
     4
  6
AM_ISO08W050
  0
LAYER
  5
D38
330
2
100
AcDbSymbolTableRecord
100
AcDbLayerTableRecord
  2
AM_5
 70
     0
 62
     3
  6
CONTINUOUS
  0
LAYER
  5
D3A
330
2
100
AcDbSymbolTableRecord
100
AcDbLayerTableRecord
  2
DEFPOINTS
 70
     0
 62
     7
  6
CONTINUOUS
  0
LAYER
  5
F16
330
2
100
AcDbSymbolTableRecord
100
AcDbLayerTableRecord
  2
AM_6
 70
     0
 62
     2
  6
CONTINUOUS
  0
ENDTAB
  0
TABLE
  2
STYLE
  5
3
330
0
100
AcDbSymbolTable
 70
     5
  0
STYLE
  5
11
330
3
100
AcDbSymbolTableRecord
100
AcDbTextStyleTableRecord
  2
STANDARD
 70
     0
 40
0.0
 41
1.0
 50
0.0
 71
     0
 42
2.5
  3
simplex.shx
  4
EXTFONT.SHX
  0
STYLE
  5
52
330
3
100
AcDbSymbolTableRecord
100
AcDbTextStyleTableRecord
  2

 70
     1
 40
0.0
 41
1.0
 50
0.0
 71
     0
 42
2.5
  3
ltypeshp.shx
  4

  0
STYLE
  5
6B
330
3
100
AcDbSymbolTableRecord
100
AcDbTextStyleTableRecord
  2
ASAMI
 70
     0
 40
0.0
 41
1.0
 50
0.0
 71
     0
 42
2.5
  3
simplex.shx
  4
EXTFONT.SHX
  0
STYLE
  5
262
330
3
100
AcDbSymbolTableRecord
100
AcDbTextStyleTableRecord
  2
ACJISTS
 70
     0
 40
1.0
 41
1.0
 50
0.0
 71
     0
 42
2.5
  3
simplex.shx
  4
bigfont.shx
  0
STYLE
  5
269
330
3
100
AcDbSymbolTableRecord
100
AcDbTextStyleTableRecord
  2
ACJISGDT
 70
     0
 40
0.0
 41
1.0
 50
0.0
 71
     0
 42
2.5
  3
amgdtans.shx
  4

  0
ENDTAB
  0
TABLE
  2
VIEW
  5
6
330
0
100
AcDbSymbolTable
 70
     0
  0
ENDTAB
  0
TABLE
  2
UCS
  5
7
330
0
100
AcDbSymbolTable
 70
     0
  0
ENDTAB
  0
TABLE
  2
APPID
  5
9
330
0
100
AcDbSymbolTable
 70
    12
  0
APPID
  5
12
330
9
100
AcDbSymbolTableRecord
100
AcDbRegAppTableRecord
  2
ACAD
 70
     0
  0
APPID
  5
30
330
9
100
AcDbSymbolTableRecord
100
AcDbRegAppTableRecord
  2
MCAD_NO_VIS
 70
     0
  0
APPID
  5
31
330
9
100
AcDbSymbolTableRecord
100
AcDbRegAppTableRecord
  2
ACAD_TEMP_GRAPHIC
 70
     0
  0
APPID
  5
2C2
330
9
100
AcDbSymbolTableRecord
100
AcDbRegAppTableRecord
  2
GENIUS_GENDTOL_13
 70
     0
  0
APPID
  5
339
330
9
100
AcDbSymbolTableRecord
100
AcDbRegAppTableRecord
  2
GENIUS_GENODEF_13
 70
     0
  0
APPID
  5
33A
330
9
100
AcDbSymbolTableRecord
100
AcDbRegAppTableRecord
  2
GENIUS_GENOBJ-N-RSBK_13
 70
     0
  0
APPID
  5
33B
330
9
100
AcDbSymbolTableRecord
100
AcDbRegAppTableRecord
  2
GENIUS_GENOBJ-N-LIB_13
 70
     0
  0
APPID
  5
33C
330
9
100
AcDbSymbolTableRecord
100
AcDbRegAppTableRecord
  2
GENIUS_GENSCALE_13
 70
     0
  0
APPID
  5
378
330
9
100
AcDbSymbolTableRecord
100
AcDbRegAppTableRecord
  2
GENIUS_GENDIMSH_14
 70
     0
  0
APPID
  5
BA6
330
9
100
AcDbSymbolTableRecord
100
AcDbRegAppTableRecord
  2
GENIUS_GENOBJ-N-CEN_13
 70
     0
  0
APPID
  5
D2B
330
9
100
AcDbSymbolTableRecord
100
AcDbRegAppTableRecord
  2
GENIUS_GENFIL_13
 70
     0
  0
APPID
  5
D2C
330
9
100
AcDbSymbolTableRecord
100
AcDbRegAppTableRecord
  2
GENIUS_GENOBJ-N-CHA_13
 70
     0
  0
ENDTAB
  0
TABLE
  2
DIMSTYLE
  5
A
330
0
100
AcDbSymbolTable
 70
     8
  0
DIMSTYLE
105
58
102
{ACAD_REACTORS
330
1D0A
330
241A
330
2434
330
259C
102
}
330
A
100
AcDbSymbolTableRecord
100
AcDbDimStyleTableRecord
  2
AM_JIS
 70
     0
  3

  4
"
  5
OPEN30
  6

  7

 40
1.0
 41
2.5
 42
1.0
 43
12.0
 44
1.0
 45
0.0
 46
0.0
 47
0.1
 48
0.1
140
3.2
141
0.0
142
0.0
143
0.0393701
144
1.0
145
0.0
146
0.71
147
1.5
 71
     0
 72
     0
 73
     0
 74
     0
 75
     0
 76
     0
 77
     3
 78
     8
170
     0
171
     2
172
     1
173
     0
174
     0
175
     0
176
   256
177
   256
178
     2
270
     2
271
     3
272
     3
273
     2
274
     2
340
6B
275
     0
280
     0
281
     0
282
     0
283
     0
284
     0
285
     0
286
     0
287
     3
288
     0
  0
DIMSTYLE
105
5F
330
A
100
AcDbSymbolTableRecord
100
AcDbDimStyleTableRecord
  2
AM_JIS$3
 70
     0
  3

  4
"
  5
OPEN30
  6

  7

 40
1.0
 41
2.5
 42
1.0
 43
10.0
 44
1.0
 45
0.0
 46
0.0
 47
0.1
 48
0.1
140
3.2
141
0.0
142
0.0
143
0.0393701
144
1.0
145
0.0
146
0.71
147
1.5
 71
     0
 72
     0
 73
     0
 74
     1
 75
     0
 76
     0
 77
     3
 78
     8
170
     0
171
     2
172
     0
173
     0
174
     0
175
     0
176
   256
177
   256
178
     2
270
     2
271
     2
272
     3
273
     2
274
     2
340
6B
275
     0
280
     0
281
     0
282
     0
283
     0
284
     0
285
     0
286
     0
287
     0
288
     1
  0
DIMSTYLE
105
60
330
A
100
AcDbSymbolTableRecord
100
AcDbDimStyleTableRecord
  2
AM_JIS$4
 70
     0
  3

  4
"
  5
OPEN30
  6

  7

 40
1.0
 41
2.5
 42
1.0
 43
10.0
 44
1.0
 45
0.0
 46
0.0
 47
0.1
 48
0.1
140
3.2
141
0.0
142
0.0
143
0.0393701
144
1.0
145
0.0
146
0.71
147
1.5
 71
     0
 72
     0
 73
     0
 74
     1
 75
     0
 76
     0
 77
     3
 78
     8
170
     0
171
     2
172
     0
173
     0
174
     0
175
     0
176
   256
177
   256
178
     2
270
     2
271
     2
272
     3
273
     2
274
     2
340
6B
275
     0
280
     0
281
     0
282
     0
283
     0
284
     0
285
     0
286
     0
287
     0
288
     1
  0
DIMSTYLE
105
61
330
A
100
AcDbSymbolTableRecord
100
AcDbDimStyleTableRecord
  2
AM_JIS$6
 70
     0
  3

  4
"
  5
OPEN30
  6

  7

 40
1.0
 41
2.5
 42
1.0
 43
10.0
 44
1.0
 45
0.0
 46
0.0
 47
0.1
 48
0.1
140
3.2
141
0.0
142
0.0
143
0.0393701
144
1.0
145
0.0
146
0.71
147
1.5
 71
     0
 72
     0
 73
     0
 74
     0
 75
     0
 76
     0
 77
     0
 78
     8
170
     0
171
     2
172
     1
173
     0
174
     0
175
     0
176
   256
177
   256
178
     2
270
     2
271
     2
272
     2
273
     2
274
     2
340
6B
275
     0
280
     0
281
     0
282
     0
283
     0
284
     0
285
     0
286
     0
287
     3
288
     0
  0
DIMSTYLE
105
62
330
A
100
AcDbSymbolTableRecord
100
AcDbDimStyleTableRecord
  2
AM_JIS$7
 70
     0
  3

  4
"
  5
OPEN30
  6

  7

 40
1.0
 41
2.5
 42
1.0
 43
10.0
 44
1.0
 45
0.0
 46
0.0
 47
0.1
 48
0.1
140
3.2
141
0.0
142
0.0
143
0.0393701
144
1.0
145
0.0
146
0.71
147
1.5
 71
     0
 72
     0
 73
     0
 74
     0
 75
     0
 76
     0
 77
     3
 78
     8
170
     0
171
     2
172
     1
173
     0
174
     0
175
     0
176
   256
177
   256
178
     2
270
     2
271
     2
272
     3
273
     2
274
     2
340
6B
275
     0
280
     0
281
     0
282
     0
283
     0
284
     0
285
     0
286
     0
287
     3
288
     0
  0
DIMSTYLE
105
63
330
A
100
AcDbSymbolTableRecord
100
AcDbDimStyleTableRecord
  2
AM_JIS$SF
 70
     0
  3

  4
"
  5
OPEN30
  6

  7

 40
1.0
 41
2.5
 42
1.0
 43
10.0
 44
1.0
 45
0.0
 46
0.0
 47
0.1
 48
0.1
140
3.2
141
0.0
142
0.0
143
0.0393701
144
1.0
145
0.0
146
0.71
147
1.5
 71
     0
 72
     0
 73
     0
 74
     0
 75
     1
 76
     1
 77
     3
 78
     8
170
     0
171
     2
172
     1
173
     0
174
     0
175
     0
176
   256
177
   256
178
     2
270
     2
271
     2
272
     2
273
     2
274
     2
340
6B
275
     0
280
     0
281
     0
282
     0
283
     0
284
     0
285
     0
286
     0
287
     3
288
     0
  0
DIMSTYLE
105
68
330
A
100
AcDbSymbolTableRecord
100
AcDbDimStyleTableRecord
  2
AM_JIS$SH
 70
     0
  3

  4
"
  5

  6
GENAXEH
  7
OPEN30
 40
1.0
 41
2.5
 42
1.0
 43
10.0
 44
1.0
 45
0.0
 46
0.0
 47
0.1
 48
0.1
140
3.2
141
0.0
142
0.0
143
0.0393701
144
2.0
145
0.0
146
0.71
147
1.5
 71
     0
 72
     0
 73
     0
 74
     0
 75
     1
 76
     1
 77
     3
 78
     8
170
     0
171
     2
172
     1
173
     1
174
     0
175
     0
176
   256
177
   256
178
     2
270
     2
271
     2
272
     2
273
     2
274
     2
340
6B
275
     0
280
     0
281
     0
282
     0
283
     0
284
     0
285
     0
286
     0
287
     3
288
     0
  0
DIMSTYLE
105
B34
330
A
100
AcDbSymbolTableRecord
100
AcDbDimStyleTableRecord
  2
AM_JIS$2
 70
     0
  3

  4
"
  5
OPEN30
  6

  7

 40
1.0
 41
2.5
 42
1.0
 43
12.0
 44
1.0
 45
0.0
 46
0.0
 47
0.1
 48
0.1
140
3.2
141
0.0
142
0.0
143
0.0393701
144
1.0
145
0.0
146
0.71
147
1.5
 71
     0
 72
     0
 73
     0
 74
     0
 75
     0
 76
     0
 77
     3
 78
     8
170
     0
171
     2
172
     1
173
     0
174
     0
175
     0
176
   256
177
   256
178
     2
270
     2
271
     3
272
     3
273
     2
274
     2
340
6B
275
     0
280
     0
281
     0
282
     0
283
     0
284
     0
285
     0
286
     0
287
     3
288
     0
  0
ENDTAB
  0
TABLE
  2
BLOCK_RECORD
  5
1
330
0
100
AcDbSymbolTable
 70
     9
  0
BLOCK_RECORD
  5
1F
102
{ACAD_XDICTIONARY
360
74
102
}
330
1
100
AcDbSymbolTableRecord
100
AcDbBlockTableRecord
  2
*MODEL_SPACE
  0
BLOCK_RECORD
  5
101
102
{ACAD_XDICTIONARY
360
274C
102
}
330
1
100
AcDbSymbolTableRecord
100
AcDbBlockTableRecord
  2
*PAPER_SPACE
  0
BLOCK_RECORD
  5
59
330
1
100
AcDbSymbolTableRecord
100
AcDbBlockTableRecord
  2
_OPEN30
  0
BLOCK_RECORD
  5
64
330
1
100
AcDbSymbolTableRecord
100
AcDbBlockTableRecord
  2
GENAXEH
  0
BLOCK_RECORD
  5
1D0B
330
1
100
AcDbSymbolTableRecord
100
AcDbBlockTableRecord
  2
*D5
  0
BLOCK_RECORD
  5
241B
330
1
100
AcDbSymbolTableRecord
100
AcDbBlockTableRecord
  2
*D6
  0
BLOCK_RECORD
  5
2435
330
1
100
AcDbSymbolTableRecord
100
AcDbBlockTableRecord
  2
*D7
  0
BLOCK_RECORD
  5
259D
330
1
100
AcDbSymbolTableRecord
100
AcDbBlockTableRecord
  2
*D8
  0
ENDTAB
  0
ENDSEC
  0
SECTION
  2
BLOCKS
  0
BLOCK
  5
20
330
1F
100
AcDbEntity
  8
0
100
AcDbBlockBegin
  2
*MODEL_SPACE
 70
     0
 10
0.0
 20
0.0
 30
0.0
  3
*MODEL_SPACE
  1

  0
ENDBLK
  5
21
330
1F
100
AcDbEntity
  8
0
100
AcDbBlockEnd
  0
BLOCK
  5
103
330
101
100
AcDbEntity
 67
     1
  8
0
100
AcDbBlockBegin
  2
*PAPER_SPACE
 70
     0
 10
0.0
 20
0.0
 30
0.0
  3
*PAPER_SPACE
  1

  0
ENDBLK
  5
104
330
101
100
AcDbEntity
 67
     1
  8
0
100
AcDbBlockEnd
  0
BLOCK
  5
5D
330
59
100
AcDbEntity
  8
0
100
AcDbBlockBegin
  2
_OPEN30
 70
     0
 10
0.0
 20
0.0
 30
0.0
  3
_OPEN30
  1

  0
LINE
  5
5A
330
59
100
AcDbEntity
  8
0
 62
     0
100
AcDbLine
 10
-1.0
 20
0.26794919
 30
0.0
 11
0.0
 21
0.0
 31
0.0
  0
LINE
  5
5B
330
59
100
AcDbEntity
  8
0
 62
     0
100
AcDbLine
 10
0.0
 20
0.0
 30
0.0
 11
-1.0
 21
-0.26794919
 31
0.0
  0
LINE
  5
5C
330
59
100
AcDbEntity
  8
0
 62
     0
100
AcDbLine
 10
0.0
 20
0.0
 30
0.0
 11
-1.0
 21
0.0
 31
0.0
  0
ENDBLK
  5
5E
330
59
100
AcDbEntity
  8
0
100
AcDbBlockEnd
  0
BLOCK
  5
66
330
64
100
AcDbEntity
  8
0
100
AcDbBlockBegin
  2
GENAXEH
 70
     0
 10
0.0
 20
0.0
 30
0.0
  3
GENAXEH
  1

  0
LINE
  5
65
330
64
100
AcDbEntity
  8
0
100
AcDbLine
 10
-1.0
 20
0.0
 30
0.0
 11
1.0
 21
0.0
 31
0.0
  0
ENDBLK
  5
67
330
64
100
AcDbEntity
  8
0
100
AcDbBlockEnd
  0
BLOCK
  5
1D15
330
1D0B
100
AcDbEntity
  8
0
100
AcDbBlockBegin
  2
*D5
 70
     1
 10
0.0
 20
0.0
 30
0.0
  3
*D5
  1

  0
LINE
  5
253C
330
1D0B
100
AcDbEntity
  8
AM_5
100
AcDbLine
 10
-120.4999999999999
 20
9.99999999999995
 30
0.0
 11
-137.5931425575491
 21
9.999999999999955
 31
0.0
  0
LINE
  5
253D
330
1D0B
100
AcDbEntity
  8
AM_5
100
AcDbLine
 10
-120.5
 20
-10.00000000000007
 30
0.0
 11
-137.5931425575491
 21
-10.00000000000006
 31
0.0
  0
LINE
  5
253E
330
1D0B
100
AcDbEntity
  8
AM_5
100
AcDbLine
 10
-136.5931425575491
 20
7.499999999999955
 30
0.0
 11
-136.5931425575491
 21
-7.500000000000069
 31
0.0
  0
INSERT
  5
253F
330
1D0B
100
AcDbEntity
  8
AM_5
100
AcDbBlockReference
  2
_OPEN30
 10
-136.5931425575491
 20
9.999999999999955
 30
0.0
 41
2.5
 42
2.5
 43
2.5
 50
90.0
  0
INSERT
  5
2540
330
1D0B
100
AcDbEntity
  8
AM_5
100
AcDbBlockReference
  2
_OPEN30
 10
-136.5931425575491
 20
-10.00000000000006
 30
0.0
 41
2.5
 42
2.5
 43
2.5
 50
270.0
  0
MTEXT
  5
2541
330
1D0B
100
AcDbEntity
  8
AM_5
 62
     2
100
AcDbMText
 10
-139.6931425575491
 20
-0.0000000000000783
 30
0.0
 40
3.2
 41
0.0
 71
     5
 72
     1
  1
%%c20
  7
ASAMI
 11
0.0000000000000001
 21
1.0
 31
0.0
1001
ACAD
1000
MTEXTBEGIN
1070
    73
1070
     1
1070
    44
1040
1.0
1070
    74
1070
     0
1000
MTEXTEND
  0
POINT
  5
2542
330
1D0B
100
AcDbEntity
  8
DEFPOINTS
 62
     0
100
AcDbPoint
 10
-119.4999999999999
 20
9.99999999999995
 30
0.0
  0
POINT
  5
2543
330
1D0B
100
AcDbEntity
  8
DEFPOINTS
 62
     0
100
AcDbPoint
 10
-119.5
 20
-10.00000000000007
 30
0.0
  0
POINT
  5
2544
330
1D0B
100
AcDbEntity
  8
DEFPOINTS
 62
     0
100
AcDbPoint
 10
-136.5931425575491
 20
-10.00000000000006
 30
0.0
  0
ENDBLK
  5
1D16
330
1D0B
100
AcDbEntity
  8
0
100
AcDbBlockEnd
  0
BLOCK
  5
2425
330
241B
100
AcDbEntity
  8
0
100
AcDbBlockBegin
  2
*D6
 70
     1
 10
0.0
 20
0.0
 30
0.0
  3
*D6
  1

  0
LINE
  5
2545
330
241B
100
AcDbEntity
  8
AM_5
100
AcDbLine
 10
-0.0000000000021743
 20
-10.82299938801948
 30
0.0
 11
-0.0000000000021751
 21
-25.00000100000007
 31
0.0
  0
LINE
  5
2546
330
241B
100
AcDbEntity
  8
AM_5
100
AcDbLine
 10
-32.00000000001377
 20
-9.99511274532924
 30
0.0
 11
-32.00000000001377
 21
-25.00000100000007
 31
0.0
  0
LINE
  5
2547
330
241B
100
AcDbEntity
  8
AM_5
100
AcDbLine
 10
-2.500000000002175
 20
-24.00000100000007
 30
0.0
 11
-29.50000000001377
 21
-24.00000100000007
 31
0.0
  0
INSERT
  5
2548
330
241B
100
AcDbEntity
  8
AM_5
100
AcDbBlockReference
  2
_OPEN30
 10
-0.0000000000021751
 20
-24.00000100000007
 30
0.0
 41
2.5
 42
2.5
 43
2.5
  0
INSERT
  5
2549
330
241B
100
AcDbEntity
  8
AM_5
100
AcDbBlockReference
  2
_OPEN30
 10
-32.00000000001377
 20
-24.00000100000007
 30
0.0
 41
2.5
 42
2.5
 43
2.5
 50
180.0
  0
MTEXT
  5
254A
330
241B
100
AcDbEntity
  8
AM_5
 62
     2
100
AcDbMText
 10
-16.00000000000797
 20
-20.90000100000007
 30
0.0
 40
3.2
 41
0.0
 71
     5
 72
     1
  1
32
  7
ASAMI
1001
ACAD
1000
MTEXTBEGIN
1070
    73
1070
     1
1070
    44
1040
1.0
1070
    74
1070
     0
1000
MTEXTEND
  0
POINT
  5
254B
330
241B
100
AcDbEntity
  8
DEFPOINTS
 62
     0
100
AcDbPoint
 10
-0.0000000000021742
 20
-9.822999388019482
 30
0.0
  0
POINT
  5
254C
330
241B
100
AcDbEntity
  8
DEFPOINTS
 62
     0
100
AcDbPoint
 10
-32.00000000001377
 20
-8.99511274532924
 30
0.0
  0
POINT
  5
254D
330
241B
100
AcDbEntity
  8
DEFPOINTS
 62
     0
100
AcDbPoint
 10
-32.00000000001377
 20
-24.00000100000007
 30
0.0
  0
ENDBLK
  5
2426
330
241B
100
AcDbEntity
  8
0
100
AcDbBlockEnd
  0
BLOCK
  5
243F
330
2435
100
AcDbEntity
  8
0
100
AcDbBlockBegin
  2
*D7
 70
     1
 10
0.0
 20
0.0
 30
0.0
  3
*D7
  1

  0
LINE
  5
2567
330
2435
100
AcDbEntity
  8
AM_5
100
AcDbLine
 10
-120.0
 20
-10.00000000000007
 30
0.0
 11
-120.0
 21
-37.00000100000007
 31
0.0
  0
LINE
  5
2568
330
2435
100
AcDbEntity
  8
AM_5
100
AcDbLine
 10
-0.0000000000000135
 20
-10.0
 30
0.0
 11
-0.0000000000000152
 21
-37.00000100000007
 31
0.0
  0
LINE
  5
2569
330
2435
100
AcDbEntity
  8
AM_5
100
AcDbLine
 10
-117.5
 20
-36.00000100000007
 30
0.0
 11
-2.500000000000015
 21
-36.00000100000007
 31
0.0
  0
INSERT
  5
256A
330
2435
100
AcDbEntity
  8
AM_5
100
AcDbBlockReference
  2
_OPEN30
 10
-120.0
 20
-36.00000100000007
 30
0.0
 41
2.5
 42
2.5
 43
2.5
 50
180.0
  0
INSERT
  5
256B
330
2435
100
AcDbEntity
  8
AM_5
100
AcDbBlockReference
  2
_OPEN30
 10
-0.0000000000000151
 20
-36.00000100000007
 30
0.0
 41
2.5
 42
2.5
 43
2.5
  0
MTEXT
  5
256C
330
2435
100
AcDbEntity
  8
AM_5
 62
     2
100
AcDbMText
 10
-60.0
 20
-32.90000100000007
 30
0.0
 40
3.2
 41
0.0
 71
     5
 72
     1
  1
120
  7
ASAMI
1001
ACAD
1000
MTEXTBEGIN
1070
    73
1070
     1
1070
    44
1040
1.0
1070
    74
1070
     0
1000
MTEXTEND
  0
POINT
  5
256D
330
2435
100
AcDbEntity
  8
DEFPOINTS
 62
     0
100
AcDbPoint
 10
-120.0
 20
-9.000000000000076
 30
0.0
  0
POINT
  5
256E
330
2435
100
AcDbEntity
  8
DEFPOINTS
 62
     0
100
AcDbPoint
 10
-0.0000000000000134
 20
-9.0
 30
0.0
  0
POINT
  5
256F
330
2435
100
AcDbEntity
  8
DEFPOINTS
 62
     0
100
AcDbPoint
 10
-0.0000000000000151
 20
-36.00000100000007
 30
0.0
  0
ENDBLK
  5
2440
330
2435
100
AcDbEntity
  8
0
100
AcDbBlockEnd
  0
BLOCK
  5
25A7
330
259D
100
AcDbEntity
  8
0
100
AcDbBlockBegin
  2
*D8
 70
     1
 10
0.0
 20
0.0
 30
0.0
  3
*D8
  1

  0
LINE
  5
2626
330
259D
100
AcDbEntity
  8
AM_5
100
AcDbLine
 10
0.710856362301926
 20
8.999999999999927
 30
0.0
 11
19.53057127860815
 21
8.999999999999921
 31
0.0
  0
LINE
  5
2627
330
259D
100
AcDbEntity
  8
AM_5
100
AcDbLine
 10
1.000000000009355
 20
-8.999999999999998
 30
0.0
 11
19.53057127860814
 21
-9.000000000000003
 31
0.0
  0
LINE
  5
2628
330
259D
100
AcDbEntity
  8
AM_5
100
AcDbLine
 10
18.53057127860815
 20
6.49999999999992
 30
0.0
 11
18.53057127860815
 21
-6.500000000000004
 31
0.0
  0
INSERT
  5
2629
330
259D
100
AcDbEntity
  8
AM_5
100
AcDbBlockReference
  2
_OPEN30
 10
18.53057127860815
 20
8.999999999999921
 30
0.0
 41
2.5
 42
2.5
 43
2.5
 50
90.0
  0
INSERT
  5
262A
330
259D
100
AcDbEntity
  8
AM_5
100
AcDbBlockReference
  2
_OPEN30
 10
18.53057127860814
 20
-9.000000000000003
 30
0.0
 41
2.5
 42
2.5
 43
2.5
 50
270.0
  0
MTEXT
  5
262B
330
259D
100
AcDbEntity
  8
AM_5
 62
     2
100
AcDbMText
 10
15.43057127860814
 20
-0.0000000000000381
 30
0.0
 40
3.2
 41
0.0
 71
     5
 72
     1
  1
%%c18
  7
ASAMI
 11
0.0000000000000001
 21
1.0
 31
0.0
1001
ACAD
1000
MTEXTBEGIN
1070
    73
1070
     1
1070
    44
1040
1.0
1070
    74
1070
     0
1000
MTEXTEND
  0
POINT
  5
262C
330
259D
100
AcDbEntity
  8
DEFPOINTS
 62
     0
100
AcDbPoint
 10
-0.289143637698074
 20
8.999999999999927
 30
0.0
  0
POINT
  5
262D
330
259D
100
AcDbEntity
  8
DEFPOINTS
 62
     0
100
AcDbPoint
 10
0.0000000000093559
 20
-8.999999999999998
 30
0.0
  0
POINT
  5
262E
330
259D
100
AcDbEntity
  8
DEFPOINTS
 62
     0
100
AcDbPoint
 10
18.53057127860814
 20
-9.000000000000003
 30
0.0
  0
ENDBLK
  5
25A8
330
259D
100
AcDbEntity
  8
0
100
AcDbBlockEnd
  0
ENDSEC
  0
SECTION
  2
ENTITIES
  0
TEXT
  5
F17
330
1F
100
AcDbEntity
  8
AM_6
100
AcDbText
 10
-82.97619047619049
 20
-58.50000100000007
 30
0.0
 40
5.0
  1
SSUP4180ZX
 72
     1
 11
-60.00000000000001
 21
-56.00000100000007
 31
0.0
100
AcDbText
 73
     2
  0
LINE
  5
1CA0
330
1F
100
AcDbEntity
  8
AM_0
100
AcDbLine
 10
-119.9999999999999
 20
8.999999999999952
 30
0.0
 11
-119.4999999999999
 21
9.99999999999995
 31
0.0
1001
GENIUS_GENFIL_13
1070
     0
1040
0.5
1040
0.5
1040
20.0
1040
0.0
1002
{
1002
}
1001
GENIUS_GENODEF_13
1002
{
1000
HIER
1070
     0
1002
}
1002
{
1000
MANEDIT
1070
     0
1002
}
1002
{
1000
NOSEL
1070
     0
1002
}
1002
{
1000
BEHIND
1070
     0
1002
}
1002
{
1000
REACTOR
1002
}
1001
GENIUS_GENOBJ-N-CHA_13
1002
{
1000
OWNER
1000
GEN
1002
}
  0
LINE
  5
1CA1
330
1F
100
AcDbEntity
  8
AM_0
100
AcDbLine
 10
-120.0
 20
-9.000000000000074
 30
0.0
 11
-119.5
 21
-10.00000000000007
 31
0.0
1001
GENIUS_GENFIL_13
1070
     0
1040
0.5
1040
0.5
1040
20.0
1040
0.0
1002
{
1002
}
1001
GENIUS_GENODEF_13
1002
{
1000
HIER
1070
     0
1002
}
1002
{
1000
MANEDIT
1070
     0
1002
}
1002
{
1000
NOSEL
1070
     0
1002
}
1002
{
1000
BEHIND
1070
     0
1002
}
1002
{
1000
REACTOR
1002
}
1001
GENIUS_GENOBJ-N-CHA_13
1002
{
1000
OWNER
1000
GEN
1002
}
  0
LINE
  5
1CA2
330
1F
100
AcDbEntity
  8
AM_0
100
AcDbLine
 10
-119.9999999999999
 20
8.990186431814416
 30
0.0
 11
-120.0
 21
-9.000000000000074
 31
0.0
  0
LINE
  5
1CA3
330
1F
100
AcDbEntity
  8
AM_0
100
AcDbLine
 10
-119.4999999999999
 20
-10.00000000000007
 30
0.0
 11
-119.4999999999999
 21
9.995093215907138
 31
0.0
  0
LINE
  5
1CA4
330
1F
100
AcDbEntity
  8
AM_0
100
AcDbLine
 10
-119.4999999999999
 20
9.99999999999995
 30
0.0
 11
-38.23205080758254
 21
9.99999999999992
 31
0.0
  0
LINE
  5
1CA5
330
1F
100
AcDbEntity
  8
AM_0
100
AcDbLine
 10
-119.5
 20
-10.00000000000007
 30
0.0
 11
-38.25029029032286
 21
-9.99999999999987
 31
0.0
  0
LINE
  5
1CA6
330
1F
100
AcDbEntity
  8
AM_7
  6
AM_ISO08W050X2
100
AcDbLine
 10
4.530570278608138
 20
0.0000000000000018
 30
0.0
 11
-122.5931415575491
 21
-0.000000000000079
 31
0.0
1001
GENIUS_GENODEF_13
1002
{
1000
HIER
1070
     0
1002
}
1002
{
1000
MANEDIT
1070
     0
1002
}
1002
{
1000
NOSEL
1070
     0
1002
}
1002
{
1000
BEHIND
1070
     0
1002
}
1002
{
1000
REACTOR
1002
}
1001
GENIUS_GENOBJ-N-CEN_13
1002
{
1000
OWNER
1000
GEN
1002
}
  0
DIMENSION
  5
1D0A
330
1F
100
AcDbEntity
  8
AM_5
100
AcDbDimension
  2
*D5
 10
-136.5931425575491
 20
-10.00000000000006
 30
0.0
 11
-139.6931425575491
 21
-0.0000000000000783
 31
0.0
 70
    32
  1
%%c<>
  3
AM_JIS
100
AcDbAlignedDimension
 13
-119.4999999999999
 23
9.99999999999995
 33
0.0
 14
-119.5
 24
-10.00000000000007
 34
0.0
 50
270.0
100
AcDbRotatedDimension
1001
GENIUS_GENDTOL_13
1000

1000
h7
1000

1040
0.0
  0
LINE
  5
21FA
330
1F
100
AcDbEntity
  8
AM_11
100
AcDbLine
 10
-0.0000000000137737
 20
8.999999999999927
 30
0.0
 11
-0.000000000013768
 21
-8.999999999999998
 31
0.0
  0
LINE
  5
221A
330
1F
100
AcDbEntity
  8
AM_11
100
AcDbLine
 10
-32.00000000001377
 20
8.999999999999927
 30
0.0
 11
-32.00000000001377
 21
-8.99511274532924
 31
0.0
  0
LINE
  5
222C
330
1F
100
AcDbEntity
  8
AM_11
100
AcDbLine
 10
-32.00000000001377
 20
8.999999999999927
 30
0.0
 11
-0.0000000000137737
 21
8.999999999999927
 31
0.0
  0
LINE
  5
222D
330
1F
100
AcDbEntity
  8
AM_11
100
AcDbLine
 10
-0.000000000013768
 20
-8.999999999999998
 30
0.0
 11
-32.00000000001377
 21
-8.99511274532924
 31
0.0
  0
LINE
  5
22DA
330
1F
100
AcDbEntity
  8
AM_0
100
AcDbLine
 10
-38.25029029032286
 20
-9.99999999999987
 30
0.0
 11
-34.5000000000137
 21
-8.99511274532924
 31
0.0
  0
LINE
  5
22DB
330
1F
100
AcDbEntity
  8
AM_0
100
AcDbLine
 10
-34.5000000000137
 20
8.999999999999925
 30
0.0
 11
-38.23205080758254
 21
9.99999999999992
 31
0.0
  0
LINE
  5
22DE
330
1F
100
AcDbEntity
  8
AM_0
100
AcDbLine
 10
-38.23205080758254
 20
9.999999999999923
 30
0.0
 11
-38.25029029032286
 21
-9.99999999999987
 31
0.0
  0
LINE
  5
23D1
330
1F
100
AcDbEntity
  8
AM_0
100
AcDbLine
 10
-0.289143637698074
 20
8.999999999999927
 30
0.0
 11
-0.0000000000136976
 21
8.999999999999927
 31
0.0
  0
LINE
  5
23D2
330
1F
100
AcDbEntity
  8
AM_0
100
AcDbLine
 10
-0.0165130138754002
 20
-0.2323354916089551
 30
0.0
 11
-2.056324501150837
 21
-0.0032419569042753
 31
0.0
  0
LINE
  5
23D3
330
1F
100
AcDbEntity
  8
AM_0
100
AcDbLine
 10
-0.0165130138754002
 20
-0.2701730163048063
 30
0.0
 11
-0.1820414818099858
 21
1.690663287487132
 31
0.0
  0
LINE
  5
23D4
330
1F
100
AcDbEntity
  8
AM_0
100
AcDbLine
 10
-0.1820414818099858
 20
1.690663287487132
 30
0.0
 11
-0.6879239115887237
 21
4.041302646076656
 31
0.0
  0
LINE
  5
23D5
330
1F
100
AcDbEntity
  8
AM_0
100
AcDbLine
 10
-0.1820414818099858
 20
-2.762042516123028
 30
0.0
 11
-0.6321406971549407
 21
-3.887991024250186
 31
0.0
  0
LINE
  5
23D6
330
1F
100
AcDbEntity
  8
AM_0
100
AcDbLine
 10
-0.1820414818099858
 20
-2.762042516123028
 30
0.0
 11
-0.0165130138754002
 21
-2.122335491609282
 31
0.0
  0
LINE
  5
23D7
330
1F
100
AcDbEntity
  8
AM_0
100
AcDbLine
 10
-0.1655284679476259
 20
-8.466725096710046
 30
0.0
 11
-0.2504805087614303
 21
-8.333242609521516
 31
0.0
  0
LINE
  5
23D8
330
1F
100
AcDbEntity
  8
AM_0
100
AcDbLine
 10
-0.2891436376914997
 20
-8.999999999999181
 30
0.0
 11
-0.0000000000136976
 21
-8.999999999999998
 31
0.0
  0
LINE
  5
23D9
330
1F
100
AcDbEntity
  8
AM_0
100
AcDbLine
 10
-0.0000000000136976
 20
-9.000000000000001
 30
0.0
 11
-0.1655284679476259
 21
-8.466725096710046
 31
0.0
  0
LINE
  5
23DA
330
1F
100
AcDbEntity
  8
AM_0
100
AcDbLine
 10
-0.2504805087614303
 20
-8.333242609521516
 30
0.0
 11
-0.6335909639713464
 21
-6.681299528717999
 31
0.0
  0
LINE
  5
23DB
330
1F
100
AcDbEntity
  8
AM_0
100
AcDbLine
 10
-0.1655284679476259
 20
-8.466725096710046
 30
0.0
 11
-0.1655284679476259
 21
-2.698225753390169
 31
0.0
  0
LINE
  5
23DC
330
1F
100
AcDbEntity
  8
AM_0
100
AcDbLine
 10
-0.0000000000137033
 20
8.999999999999927
 30
0.0
 11
0.0000000000093559
 21
-9.000000000000001
 31
0.0
  0
LINE
  5
23EA
330
1F
100
AcDbEntity
  8
AM_0
100
AcDbLine
 10
-31.8058001446008
 20
5.905178821608931
 30
0.0
 11
-31.80580014460085
 21
7.29549016437436
 31
0.0
  0
LINE
  5
23EB
330
1F
100
AcDbEntity
  8
AM_0
100
AcDbLine
 10
-31.80580014460085
 20
5.905178821608959
 30
0.0
 11
-31.80580014460085
 21
6.754988952759825
 31
0.0
  0
LINE
  5
23EC
330
1F
100
AcDbEntity
  8
AM_0
100
AcDbLine
 10
-34.5000000000137
 20
8.999999999999925
 30
0.0
 11
-34.5000000000137
 21
-8.99511274532924
 31
0.0
  0
POLYLINE
  5
23ED
330
1F
100
AcDbEntity
  8
AM_0
100
AcDb2dPolyline
 66
     1
 10
0.0
 20
0.0
 30
0.0
 70
     2
  0
VERTEX
  5
23EE
330
23ED
100
AcDbEntity
  8
AM_0
100
AcDbVertex
100
AcDb2dVertex
 10
-27.77184996941643
 20
-6.647395947621348
 30
0.0
 42
-0.0151163192947916
  0
VERTEX
  5
23EF
330
23ED
100
AcDbEntity
  8
AM_0
100
AcDbVertex
100
AcDb2dVertex
 10
-29.45116742460424
 20
-5.136507534981348
 30
0.0
 42
-0.0277842371413835
 70
     1
  0
VERTEX
  5
23F0
330
23ED
100
AcDbEntity
  8
AM_0
100
AcDbVertex
100
AcDb2dVertex
 10
-30.29490623088609
 20
-4.234750136840819
 30
0.0
 42
-0.0111607608234995
  0
VERTEX
  5
23F1
330
23ED
100
AcDbEntity
  8
AM_0
100
AcDbVertex
100
AcDb2dVertex
 10
-32.4667378161645
 20
-1.520043413055751
 30
0.0
 42
-0.0188483842134176
 70
     1
  0
VERTEX
  5
23F2
330
23ED
100
AcDbEntity
  8
AM_0
100
AcDbVertex
100
AcDb2dVertex
 10
-33.65898124617895
 20
0.165987007921316
 30
0.0
 42
-0.0458031151351523
  0
VERTEX
  5
23F3
330
23ED
100
AcDbEntity
  8
AM_0
100
AcDbVertex
100
AcDb2dVertex
 10
-34.40514117099355
 20
1.568311841059346
 30
0.0
 42
-0.125542105027817
 70
     1
  0
VERTEX
  5
23F4
330
23ED
100
AcDbEntity
  8
AM_0
100
AcDbVertex
100
AcDb2dVertex
 10
-34.50000000000217
 20
2.15407834190292
 30
0.0
 42
-0.2126498099904329
  0
VERTEX
  5
23F5
330
23ED
100
AcDbEntity
  8
AM_0
100
AcDbVertex
100
AcDb2dVertex
 10
-34.30948483177395
 20
2.52039064583219
 30
0.0
 42
-0.1147736539220553
 70
     1
  0
VERTEX
  5
23F6
330
23ED
100
AcDbEntity
  8
AM_0
100
AcDbVertex
100
AcDb2dVertex
 10
-33.65898124617895
 20
2.828125945486812
 30
0.0
 42
-0.1083653050181237
  0
VERTEX
  5
23F7
330
23ED
100
AcDbEntity
  8
AM_0
100
AcDbVertex
100
AcDb2dVertex
 10
-32.81435311648467
 20
2.809043887374108
 30
0.0
 42
-0.0342880160649103
 70
     1
  0
VERTEX
  5
23F8
330
23ED
100
AcDbEntity
  8
AM_0
100
AcDbVertex
100
AcDb2dVertex
 10
-30.29490623088609
 20
1.972688168658097
 30
0.0
 42
-0.0371893647168365
  0
VERTEX
  5
23F9
330
23ED
100
AcDbEntity
  8
AM_0
100
AcDbVertex
100
AcDb2dVertex
 10
-29.06511226586749
 20
1.350195267373996
 30
0.0
 42
-0.0326399429479685
 70
     1
  0
VERTEX
  5
23FA
330
23ED
100
AcDbEntity
  8
AM_0
100
AcDbVertex
100
AcDb2dVertex
 10
-27.77184996941643
 20
0.4432027882454902
 30
0.0
  0
SEQEND
  5
23FB
330
23ED
100
AcDbEntity
  8
AM_0
  0
LINE
  5
23FC
330
1F
100
AcDbEntity
  8
AM_0
100
AcDbLine
 10
-34.5000000000137
 20
-8.99511274532924
 30
0.0
 11
-28.6491749666059
 21
-8.99511274532924
 31
0.0
  0
SPLINE
  5
23FD
330
1F
100
AcDbEntity
  8
AM_0
100
AcDbSpline
210
0.0
220
0.0
230
1.0
 70
     8
 71
     3
 72
     8
 73
     4
 74
     0
 42
0.0000000001
 43
0.0000000001
 40
0.0
 40
0.0
 40
0.0
 40
0.0
 40
0.6152373134461622
 40
0.6152373134461622
 40
0.6152373134461622
 40
0.6152373134461622
 10
-25.30673107571236
 20
-8.556925515222495
 30
0.0
 10
-25.60321766712087
 20
-8.556925515222495
 30
0.0
 10
-25.89688103443929
 20
-8.542235404838098
 30
0.0
 10
-26.18788665027043
 20
-8.513716189332546
 30
0.0
  0
SPLINE
  5
23FE
330
1F
100
AcDbEntity
  8
AM_0
100
AcDbSpline
210
0.0
220
0.0
230
1.0
 70
     8
 71
     3
 72
     8
 73
     4
 74
     0
 42
0.0000000001
 43
0.0000000001
 40
5.215942287204468
 40
5.215942287204468
 40
5.215942287204468
 40
5.215942287204468
 40
10.4969207889486
 40
10.4969207889486
 40
10.4969207889486
 40
10.4969207889486
 10
-31.8058001446008
 20
5.905178821608931
 30
0.0
 10
-29.56967679017144
 20
4.298333170589064
 30
0.0
 10
-27.43820393284179
 20
2.14695853245278
 30
0.0
 10
-25.3067310755125
 20
-0.0044161056835032
 30
0.0
  0
SPLINE
  5
23FF
330
1F
100
AcDbEntity
  8
AM_0
100
AcDbSpline
210
0.0
220
0.0
230
1.0
 70
     8
 71
     3
 72
     8
 73
     4
 74
     0
 42
0.0000000001
 43
0.0000000001
 40
0.0
 40
0.0
 40
0.0
 40
0.0
 40
3.977355368879245
 40
3.977355368879245
 40
3.977355368879245
 40
3.977355368879245
 10
-11.77480883217887
 20
-8.556925515222495
 30
0.0
 10
-9.858097166018898
 20
-8.556925515222905
 30
0.0
 10
-8.059376480099551
 20
-7.942981857615198
 30
0.0
 10
-6.333939181770404
 20
-6.947722010195229
 30
0.0
  0
SPLINE
  5
2400
330
1F
100
AcDbEntity
  8
AM_0
100
AcDbSpline
210
0.0
220
0.0
230
1.0
 70
     8
 71
     3
 72
     8
 73
     4
 74
     0
 42
0.0000000001
 43
0.0000000001
 40
0.6152373134470183
 40
0.6152373134470183
 40
0.6152373134470183
 40
0.6152373134470183
 40
8.843083020165714
 40
8.843083020165714
 40
8.843083020165714
 40
8.843083020165714
 10
-10.89365325761924
 20
8.504883977965437
 30
0.0
 10
-7.001904082921454
 20
8.123483663438809
 30
0.0
 10
-3.58549157196152
 20
5.268759292004597
 30
0.0
 10
-0.2486332917478232
 20
2.000089589302024
 30
0.0
  0
SPLINE
  5
2401
330
1F
100
AcDbEntity
  8
AM_0
100
AcDbSpline
210
0.0
220
0.0
230
1.0
 70
     8
 71
     3
 72
     8
 73
     4
 74
     0
 42
0.0000000001
 43
0.0000000001
 40
1.418383274962104
 40
1.418383274962104
 40
1.418383274962104
 40
1.418383274962104
 40
10.4969207889486
 40
10.4969207889486
 40
10.4969207889486
 40
10.4969207889486
 10
-0.2504805087614303
 20
-8.333242609521516
 30
0.0
 10
-4.446372903525945
 20
-7.401278392666789
 30
0.0
 10
-8.11059086785208
 20
-3.702847249175146
 30
0.0
 10
-11.77480883217887
 20
-0.0044161056835032
 30
0.0
  0
SPLINE
  5
2402
330
1F
100
AcDbEntity
  8
AM_0
100
AcDbSpline
210
0.0
220
0.0
230
1.0
 70
     8
 71
     3
 72
     8
 73
     4
 74
     0
 42
0.0000000001
 43
0.0000000001
 40
3.266224444355238
 40
3.266224444355238
 40
3.266224444355238
 40
3.266224444355238
 40
10.49653484266006
 40
10.49653484266006
 40
10.49653484266006
 40
10.49653484266006
 10
-0.6335909639713464
 20
-6.68129952871759
 30
0.0
 10
-3.85979888011368
 20
-5.221949748013047
 30
0.0
 10
-6.853227534710763
 20
-2.497015181043797
 30
0.0
 10
-9.846656189307189
 20
0.2279193859254525
 30
0.0
  0
SPLINE
  5
2403
330
1F
100
AcDbEntity
  8
AM_0
100
AcDbSpline
210
0.0
220
0.0
230
1.0
 70
     8
 71
     3
 72
     8
 73
     4
 74
     0
 42
0.0000000001
 43
0.0000000001
 40
0.6393216439718838
 40
0.6393216439718838
 40
0.6393216439718838
 40
0.6393216439718838
 40
6.996796499348805
 40
6.996796499348805
 40
6.996796499348805
 40
6.996796499348805
 10
-9.147562841024161
 20
8.165896239877065
 30
0.0
 10
-6.13507508783327
 20
7.838212166894527
 30
0.0
 10
-3.367943464280005
 20
6.176564824057778
 30
0.0
 10
-0.6879239115880662
 20
4.041302646076656
 30
0.0
  0
SPLINE
  5
2404
330
1F
100
AcDbEntity
  8
AM_0
100
AcDbSpline
210
0.0
220
0.0
230
1.0
 70
     8
 71
     3
 72
     8
 73
     4
 74
     0
 42
0.0000000001
 43
0.0000000001
 40
0.0
 40
0.0
 40
0.0
 40
0.0
 40
2.4079390838223
 40
2.4079390838223
 40
2.4079390838223
 40
2.4079390838223
 10
-10.06399461679162
 20
-7.767570285283567
 30
0.0
 10
-8.903696641244094
 20
-7.748370697640233
 30
0.0
 10
-7.780879599604906
 20
-7.525393078331716
 30
0.0
 10
-6.686945244262082
 20
-7.145384767715857
 30
0.0
  0
SPLINE
  5
2405
330
1F
100
AcDbEntity
  8
AM_0
100
AcDbSpline
210
0.0
220
0.0
230
1.0
 70
     8
 71
     3
 72
     9
 73
     5
 74
     0
 42
0.0000000001
 43
0.0000000001
 40
0.0
 40
0.0
 40
0.0
 40
0.0
 40
0.6574415203969619
 40
3.123721247380082
 40
3.123721247380082
 40
3.123721247380082
 40
3.123721247380082
 10
-2.056324501150837
 20
-0.0032419569042753
 30
0.0
 10
-2.371868356079063
 20
0.0321971302519654
 30
0.0
 10
-4.169910803504869
 20
-1.165889286742148
 30
0.0
 10
-1.340692093235428
 20
-2.699941990594073
 30
0.0
 10
-0.6321406971549407
 20
-3.887991024250186
 30
0.0
  0
SPLINE
  5
2406
330
1F
100
AcDbEntity
  8
AM_0
100
AcDbSpline
210
0.0
220
0.0
230
1.0
 70
     8
 71
     3
 72
     8
 73
     4
 74
     0
 42
0.0000000001
 43
0.0000000001
 40
0.0
 40
0.0
 40
0.0
 40
0.0
 40
1.551838382253894
 40
1.551838382253894
 40
1.551838382253894
 40
1.551838382253894
 10
-0.6321406971411346
 20
-3.887991024273514
 30
0.0
 10
-0.3855808884127735
 20
-4.767033497405656
 30
0.0
 10
-0.4953302554532035
 20
-5.766247686053461
 30
0.0
 10
-0.6335909639713464
 20
-6.681299528717999
 30
0.0
  0
SPLINE
  5
2407
330
1F
100
AcDbEntity
  8
AM_0
100
AcDbSpline
210
0.0
220
0.0
230
1.0
 70
     8
 71
     3
 72
     8
 73
     4
 74
     0
 42
0.0000000001
 43
0.0000000001
 40
0.0
 40
0.0
 40
0.0
 40
0.0
 40
10.49692078894909
 40
10.49692078894909
 40
10.49692078894909
 40
10.49692078894909
 10
-11.77480883217821
 20
-8.556925515222495
 30
0.0
 10
-16.83333860107029
 20
-8.556925515222495
 30
0.0
 10
-21.0700348382914
 20
-4.280670810452999
 30
0.0
 10
-25.3067310755125
 20
-0.0044161056835032
 30
0.0
  0
SPLINE
  5
2408
330
1F
100
AcDbEntity
  8
AM_0
100
AcDbSpline
210
0.0
220
0.0
230
1.0
 70
     8
 71
     3
 72
     8
 73
     4
 74
     0
 42
0.0000000001
 43
0.0000000001
 40
0.0
 40
0.0
 40
0.0
 40
0.0
 40
10.49653484265986
 40
10.49653484265986
 40
10.49653484265986
 40
10.49653484265986
 10
-9.629317761822759
 20
-7.767570285283567
 30
0.0
 10
-14.68721486978139
 20
-7.683876664453483
 30
0.0
 10
-19.03289665121078
 20
-3.727978639264016
 30
0.0
 10
-23.37857843264016
 20
0.2279193859254525
 30
0.0
  0
SPLINE
  5
2409
330
1F
100
AcDbEntity
  8
AM_0
100
AcDbSpline
210
0.0
220
0.0
230
1.0
 70
     8
 71
     3
 72
     8
 73
     4
 74
     0
 42
0.0000000001
 43
0.0000000001
 40
0.0
 40
0.0
 40
0.0
 40
0.0
 40
10.61065478016067
 40
10.61065478016067
 40
10.61065478016067
 40
10.61065478016067
 10
-13.82106588102447
 20
-9.000166177717728
 30
0.0
 10
-18.93440474982748
 20
-9.000166177717728
 30
0.0
 10
-23.14369643709312
 20
-4.502291141700617
 30
0.0
 10
-27.35298812435875
 20
-0.0044161056835032
 30
0.0
  0
SPLINE
  5
240A
330
1F
100
AcDbEntity
  8
AM_0
100
AcDbSpline
210
0.0
220
0.0
230
1.0
 70
     8
 71
     3
 72
     8
 73
     4
 74
     0
 42
0.0000000001
 43
0.0000000001
 40
0.6152373134470183
 40
0.6152373134470183
 40
0.6152373134470183
 40
0.6152373134470183
 40
10.4969207889486
 40
10.4969207889486
 40
10.4969207889486
 40
10.4969207889486
 10
-24.42557550095287
 20
8.504883977965437
 30
0.0
 10
-19.75156545248951
 20
8.046820309788836
 30
0.0
 10
-15.76318714233452
 20
4.021202102052666
 30
0.0
 10
-11.77480883217821
 20
-0.0044161056835032
 30
0.0
  0
SPLINE
  5
240B
330
1F
100
AcDbEntity
  8
AM_0
100
AcDbSpline
210
0.0
220
0.0
230
1.0
 70
     8
 71
     3
 72
     8
 73
     4
 74
     0
 42
0.0000000001
 43
0.0000000001
 40
0.6393216442358057
 40
0.6393216442358057
 40
0.6393216442358057
 40
0.6393216442358057
 40
10.49653484266006
 40
10.49653484266006
 40
10.49653484266006
 40
10.49653484266006
 10
-22.67948508398173
 20
8.165896239836547
 30
0.0
 10
-18.00864725667641
 20
7.657824742317689
 30
0.0
 10
-13.9276517229918
 20
3.942872064121775
 30
0.0
 10
-9.846656189307189
 20
0.2279193859254525
 30
0.0
  0
SPLINE
  5
240C
330
1F
100
AcDbEntity
  8
AM_0
100
AcDbSpline
210
0.0
220
0.0
230
1.0
 70
     8
 71
     3
 72
     8
 73
     4
 74
     0
 42
0.0000000001
 43
0.0000000001
 40
0.0
 40
0.0
 40
0.0
 40
0.0
 40
2.093133798227362
 40
2.093133798227362
 40
2.093133798227362
 40
2.093133798227362
 10
-13.82106588102512
 20
-9.000166177717321
 30
0.0
 10
-12.8123720134147
 20
-9.004416105683299
 30
0.0
 10
-11.83888244723605
 20
-8.829338306474777
 30
0.0
 10
-10.8936532576199
 20
-8.513716189332647
 30
0.0
  0
SPLINE
  5
240D
330
1F
100
AcDbEntity
  8
AM_0
100
AcDbSpline
210
0.0
220
0.0
230
1.0
 70
     8
 71
     3
 72
     8
 73
     4
 74
     0
 42
0.0000000001
 43
0.0000000001
 40
0.0
 40
0.0
 40
0.0
 40
0.0
 40
3.977355368879245
 40
3.977355368879245
 40
3.977355368879245
 40
3.977355368879245
 10
-25.30673107571236
 20
-8.556925515222495
 30
0.0
 10
-23.39001940955238
 20
-8.556925515222905
 30
0.0
 10
-21.5912987236337
 20
-7.942981857615198
 30
0.0
 10
-19.86586142530389
 20
-6.947722010195229
 30
0.0
  0
SPLINE
  5
240E
330
1F
100
AcDbEntity
  8
AM_0
100
AcDbSpline
210
0.0
220
0.0
230
1.0
 70
     8
 71
     3
 72
     8
 73
     4
 74
     0
 42
0.0000000001
 43
0.0000000001
 40
0.0
 40
0.0
 40
0.0
 40
0.0
 40
2.4079390838223
 40
2.4079390838223
 40
2.4079390838223
 40
2.4079390838223
 10
-23.59591686032576
 20
-7.767570285283567
 30
0.0
 10
-22.43561888477758
 20
-7.748370697640233
 30
0.0
 10
-21.31280184313905
 20
-7.525393078331716
 30
0.0
 10
-20.21886748779623
 20
-7.145384767715857
 30
0.0
  0
SPLINE
  5
240F
330
1F
100
AcDbEntity
  8
AM_0
100
AcDbSpline
210
0.0
220
0.0
230
1.0
 70
     8
 71
     3
 72
     8
 73
     4
 74
     0
 42
0.0000000001
 43
0.0000000001
 40
0.2725981709865456
 40
0.2725981709865456
 40
0.2725981709865456
 40
0.2725981709865456
 40
2.093133798227362
 40
2.093133798227362
 40
2.093133798227362
 40
2.093133798227362
 10
-28.73960623834577
 20
-8.999999999999852
 30
0.0
 10
-27.85352093526851
 20
-8.956430002290471
 30
0.0
 10
-27.01001441728728
 20
-8.788233427308131
 30
0.0
 10
-26.18788665027043
 20
-8.513716189332674
 30
0.0
  0
SPLINE
  5
2410
330
1F
100
AcDbEntity
  8
AM_0
100
AcDbSpline
210
0.0
220
0.0
230
1.0
 70
     8
 71
     3
 72
     8
 73
     4
 74
     0
 42
0.0000000001
 43
0.0000000001
 40
0.1925119343883644
 40
0.1925119343883644
 40
0.1925119343883644
 40
0.1925119343883644
 40
10.61176705360627
 40
10.61176705360627
 40
10.61176705360627
 40
10.61176705360627
 10
-0.5665736608130342
 20
-8.99999999993809
 30
0.0
 10
-5.555733383627715
 20
-8.841143824946399
 30
0.0
 10
-9.688399632326422
 20
-4.422779965314951
 30
0.0
 10
-13.82106588102512
 20
-0.0044161056835032
 30
0.0
  0
SPLINE
  5
2411
330
1F
100
AcDbEntity
  8
AM_0
100
AcDbSpline
210
0.0
220
0.0
230
1.0
 70
     8
 71
     3
 72
     8
 73
     4
 74
     0
 42
0.0000000001
 43
0.0000000001
 40
0.0
 40
0.0
 40
0.0
 40
0.0
 40
10.61176705360661
 40
10.61176705360661
 40
10.61176705360661
 40
10.61176705360661
 10
-27.35298812435809
 20
8.999999999999927
 30
0.0
 10
-22.23911324423865
 20
8.995583894316496
 30
0.0
 10
-18.03008956263156
 20
4.495583894316495
 30
0.0
 10
-13.82106588102447
 20
-0.0044161056835032
 30
0.0
  0
SPLINE
  5
2412
330
1F
100
AcDbEntity
  8
AM_0
100
AcDbSpline
210
0.0
220
0.0
230
1.0
 70
     8
 71
     3
 72
     8
 73
     4
 74
     0
 42
0.0000000001
 43
0.0000000001
 40
0.0
 40
0.0
 40
0.0
 40
0.0
 40
10.7633540680078
 40
10.7633540680078
 40
10.7633540680078
 40
10.7633540680078
 10
-13.82106588102447
 20
8.999999999999952
 30
0.0
 10
-8.634140299623174
 20
8.995583894316496
 30
0.0
 10
-4.336730292376523
 20
4.497791947158246
 30
0.0
 10
-0.0393202851298724
 20
-0.0000000000000031
 30
0.0
  0
SPLINE
  5
2413
330
1F
100
AcDbEntity
  8
AM_0
100
AcDbSpline
210
0.0
220
0.0
230
1.0
 70
     8
 71
     3
 72
     8
 73
     4
 74
     0
 42
0.0000000001
 43
0.0000000001
 40
0.0
 40
0.0
 40
0.0
 40
0.0
 40
4.066976460604825
 40
4.066976460604825
 40
4.066976460604825
 40
4.066976460604825
 10
-13.82106588102447
 20
8.999999999999952
 30
0.0
 10
-15.78096649464201
 20
8.995583894316087
 30
0.0
 10
-17.60796096131628
 20
8.334615922757576
 30
0.0
 10
-19.35298577148818
 20
7.265996997246157
 30
0.0
  0
SPLINE
  5
2414
330
1F
100
AcDbEntity
  8
AM_0
100
AcDbSpline
210
0.0
220
0.0
230
1.0
 70
     8
 71
     3
 72
     8
 73
     4
 74
     0
 42
0.0000000001
 43
0.0000000001
 40
0.0
 40
0.0
 40
0.0
 40
0.0
 40
4.066976460604845
 40
4.066976460604845
 40
4.066976460604845
 40
4.066976460604845
 10
-0.289143637698074
 20
8.999999999999927
 30
0.0
 10
-2.249044251309047
 20
8.995583894316087
 30
0.0
 10
-4.076038717982649
 20
8.334615922757576
 30
0.0
 10
-5.821063528155207
 20
7.265996997246157
 30
0.0
  0
SPLINE
  5
2415
330
1F
100
AcDbEntity
  8
AM_0
100
AcDbSpline
210
0.0
220
0.0
230
1.0
 70
     8
 71
     3
 72
     8
 73
     4
 74
     0
 42
0.0000000001
 43
0.0000000001
 40
0.0
 40
0.0
 40
0.0
 40
0.0
 40
2.847661750814433
 40
2.847661750814433
 40
2.847661750814433
 40
2.847661750814433
 10
-0.289143637698074
 20
8.999999999999927
 30
0.0
 10
0.0865603363873298
 20
7.35226627235088
 30
0.0
 10
-1.752794081251875
 20
6.440123546538462
 30
0.0
 10
-3.520278273652724
 20
6.059780326302234
 30
0.0
  0
SPLINE
  5
2416
330
1F
100
AcDbEntity
  8
AM_0
100
AcDbSpline
210
0.0
220
0.0
230
1.0
 70
     8
 71
     3
 72
     8
 73
     4
 74
     0
 42
0.0000000001
 43
0.0000000001
 40
10.25978408704718
 40
10.25978408704718
 40
10.25978408704718
 40
10.25978408704718
 40
10.61176705360581
 40
10.61176705360581
 40
10.61176705360581
 40
10.61176705360581
 10
-27.77184996941643
 20
0.4432027882454958
 30
0.0
 10
-27.6322073409668
 20
0.2941059673157593
 30
0.0
 10
-27.49259773266278
 20
0.144844930816128
 30
0.0
 10
-27.35298812435875
 20
-0.0044161056835032
 30
0.0
  0
SPLINE
  5
2417
330
1F
100
AcDbEntity
  8
AM_0
100
AcDbSpline
210
0.0
220
0.0
230
1.0
 70
     8
 71
     3
 72
     8
 73
     4
 74
     0
 42
0.0000000001
 43
0.0000000001
 40
0.0
 40
0.0
 40
0.0
 40
0.0
 40
3.321845793301682
 40
3.321845793301682
 40
3.321845793301682
 40
3.321845793301682
 10
-23.1612400053569
 20
-7.767570285283567
 30
0.0
 10
-24.7619162745139
 20
-7.741083706003064
 30
0.0
 10
-26.29126153795136
 20
-7.326781498181473
 30
0.0
 10
-27.77184996941645
 20
-6.64739594762134
 30
0.0
  0
SPLINE
  5
2418
330
1F
100
AcDbEntity
  8
AM_0
100
AcDbSpline
210
0.0
220
0.0
230
1.0
 70
     8
 71
     3
 72
     8
 73
     4
 74
     0
 42
0.0000000001
 43
0.0000000001
 40
0.6393216442353146
 40
0.6393216442353146
 40
0.6393216442353146
 40
0.6393216442353146
 40
10.49653484266006
 40
10.49653484266006
 40
10.49653484266006
 40
10.49653484266006
 10
-34.5000000000137
 20
8.999999999999925
 30
0.0
 10
-31.54056950000938
 20
7.6578247423181
 30
0.0
 10
-27.45957396632543
 20
3.942872064121775
 30
0.0
 10
-23.37857843264016
 20
0.2279193859254525
 30
0.0
  0
SPLINE
  5
2419
330
1F
100
AcDbEntity
  8
AM_0
100
AcDbSpline
210
0.0
220
0.0
230
1.0
 70
     8
 71
     3
 72
     8
 73
     4
 74
     0
 42
0.0000000001
 43
0.0000000001
 40
0.0
 40
0.0
 40
0.0
 40
0.0
 40
3.604191264077629
 40
3.604191264077629
 40
3.604191264077629
 40
3.604191264077629
 10
-27.35298812435809
 20
8.999999999999927
 30
0.0
 10
-29.08986974599602
 20
8.996004343234318
 30
0.0
 10
-30.72237133951721
 20
8.47652185849399
 30
0.0
 10
-31.72162594371782
 20
7.384786586670212
 30
0.0
  0
DIMENSION
  5
241A
330
1F
100
AcDbEntity
  8
AM_5
100
AcDbDimension
  2
*D6
 10
-32.00000000001377
 20
-24.00000100000007
 30
0.0
 11
-16.00000000000797
 21
-20.90000100000007
 31
0.0
 70
    32
  1
<>
  3
AM_JIS
100
AcDbAlignedDimension
 13
-0.0000000000021742
 23
-9.822999388019482
 33
0.0
 14
-32.00000000001377
 24
-8.99511274532924
 34
0.0
100
AcDbRotatedDimension
1001
GENIUS_GENDTOL_13
1000

1000
h7
1000

1040
0.0
  0
DIMENSION
  5
2434
330
1F
100
AcDbEntity
  8
AM_5
100
AcDbDimension
  2
*D7
 10
-0.0000000000000151
 20
-36.00000100000007
 30
0.0
 11
-60.0
 21
-32.90000100000007
 31
0.0
 70
    32
  1
<>
  3
AM_JIS
100
AcDbAlignedDimension
 13
-120.0
 23
-9.000000000000076
 33
0.0
 14
-0.0000000000000134
 24
-9.0
 34
0.0
100
AcDbRotatedDimension
1001
GENIUS_GENDTOL_13
1000

1000
h7
1000

1040
0.0
  0
DIMENSION
  5
259C
330
1F
100
AcDbEntity
  8
AM_5
100
AcDbDimension
  2
*D8
 10
18.53057127860814
 20
-9.000000000000003
 30
0.0
 11
15.43057127860814
 21
-0.0000000000000381
 31
0.0
 70
    32
  1
%%c<>
  3
AM_JIS
100
AcDbAlignedDimension
 13
-0.289143637698074
 23
8.999999999999927
 33
0.0
 14
0.0000000000093559
 24
-8.999999999999998
 34
0.0
 50
90.00000000000003
100
AcDbRotatedDimension
1001
GENIUS_GENDTOL_13
1000

1000
h7
1000

1040
0.0
  0
VIEWPORT
  5
110
330
101
100
AcDbEntity
 67
     1
  8
0
100
AcDbViewport
 10
420.5
 20
297.0
 30
0.0
 40
948.9782706766916
 41
628.452
 68
     1
 69
     1
1001
ACAD
1000
MVIEW
1002
{
1070
    16
1010
0.0
1020
0.0
1030
0.0
1010
0.0
1020
0.0
1030
1.0
1040
0.0
1040
628.452
1040
420.5
1040
297.0
1040
50.0
1040
0.0
1040
0.0
1070
     0
1070
   100
1070
     1
1070
     1
1070
     0
1070
     0
1070
     0
1070
     0
1040
0.0
1040
0.0
1040
0.0
1040
10.0
1040
10.0
1040
10.0
1040
10.0
1070
     0
1002
{
1002
}
1002
}
  0
ENDSEC
  0
SECTION
  2
OBJECTS
  0
DICTIONARY
  5
C
330
0
100
AcDbDictionary
  3
ACAD_GROUP
350
D
  3
ACAD_LAYOUT
350
1A
  3
ACAD_MLINESTYLE
350
17
  3
ACAD_PLOTSETTINGS
350
19
  3
ACAD_PLOTSTYLENAME
350
E
  3
ACDBVARIABLEDICTIONARY
350
34
  3
ACMDICTIONARY
350
43
  3
AMG
350
2B
  3
AMGSNAPSETTINGS
350
6E
  3
DWGPROPS
350
2718
  3
ACDBHEADERROUNDTRIPXREC
350
2724
  0
DICTIONARY
  5
74
330
1F
100
AcDbDictionary
280
     1
  3
ACAD_INDEX
360
271A
  3
ACAD_LAYOUTSELFREF
360
2747
  0
DICTIONARY
  5
274C
330
101
100
AcDbDictionary
280
     1
  3
ACAD_LAYOUTSELFREF
360
274D
  0
DICTIONARY
  5
D
102
{ACAD_REACTORS
330
C
102
}
330
C
100
AcDbDictionary
  0
DICTIONARY
  5
1A
102
{ACAD_REACTORS
330
C
102
}
330
C
100
AcDbDictionary
  0
DICTIONARY
  5
17
102
{ACAD_REACTORS
330
C
102
}
330
C
100
AcDbDictionary
  3
STANDARD
350
18
  0
DICTIONARY
  5
19
102
{ACAD_REACTORS
330
C
102
}
330
C
100
AcDbDictionary
  0
ACDBDICTIONARYWDFLT
  5
E
102
{ACAD_REACTORS
330
C
102
}
330
C
100
AcDbDictionary
281
     1
  3
Normal
350
F
100
AcDbDictionaryWithDefault
340
F
  0
DICTIONARY
  5
34
102
{ACAD_REACTORS
330
C
102
}
330
C
100
AcDbDictionary
  3
INDEXCTL
350
35
  3
SORTENTS
350
B5E
  0
DICTIONARY
  5
43
102
{ACAD_REACTORS
330
C
102
}
330
C
100
AcDbDictionary
  3
ACMSTDDICTIONARY
350
260
  0
DICTIONARY
  5
2B
102
{ACAD_REACTORS
330
C
102
}
330
C
100
AcDbDictionary
  3
ACMGSETTINGS
350
2C
  0
DICTIONARY
  5
6E
102
{ACAD_REACTORS
330
C
102
}
330
C
100
AcDbDictionary
  0
XRECORD
  5
2718
102
{ACAD_REACTORS
330
C
102
}
330
C
100
AcDbXrecord
  1
DWGPROPS COOKIE
  2

  3

  4

  6

  7

  8

  9

300
AmdtFileType=82
301
=
302
=
303
=
304
=
305
=
306
=
307
=
308
=
309
=
 40
0.0732237615740741
 41
2452809.403188831
 42
2452844.422603981
  1

 90
        1
  0
DICTIONARY
  5
2724
102
{ACAD_REACTORS
330
C
102
}
330
C
100
AcDbDictionary
  3
TSTACKALIGN
350
2725
  3
TSTACKSIZE
350
2726
  3
HYPERLINKBASE
350
2727
  3
STYLESHEET
350
2728
  3
LAYOUTDICT
350
2729
  3
PLOTSETDICT
350
272A
  3
PLOTSTYLNAMDICT
350
272B
  3
LWETCUNION
350
272C
  3
INSUNITS
350
272D
  3
CEPSNTYPE
350
272E
  3
FINGERPRINTGUID
350
272F
  3
VERSIONGUID
350
2730
  3
PSVPSCALE
350
2731
  3
DIMSTYLEDATA
350
2732
  3
PUCSORTHOREF
350
2733
  3
PUCSORTHOVIEW
350
2734
  3
PUCSBASE
350
2735
  3
PUCSORGTOP
350
2736
  3
PUCSORGBOTTOM
350
2737
  3
PUCSORGLEFT
350
2738
  3
PUCSORGRIGHT
350
2739
  3
PUCSORGFRONT
350
273A
  3
PUCSORGBACK
350
273B
  3
UCSORTHOREF
350
273C
  3
UCSORTHOVIEW
350
273D
  3
UCSBASE
350
273E
  3
UCSORGTOP
350
273F
  3
UCSORGBOTTOM
350
2740
  3
UCSORGLEFT
350
2741
  3
UCSORGRIGHT
350
2742
  3
UCSORGFRONT
350
2743
  3
UCSORGBACK
350
2744
  0
DICTIONARY
  5
271A
102
{ACAD_REACTORS
330
74
102
}
330
74
100
AcDbDictionary
  3
*A1
350
271B
  0
XRECORD
  5
2747
102
{ACAD_REACTORS
330
74
102
}
330
74
100
AcDbXrecord
340
1F
  0
XRECORD
  5
274D
102
{ACAD_REACTORS
330
274C
102
}
330
274C
100
AcDbXrecord
340
101
  0
MLINESTYLE
  5
18
102
{ACAD_REACTORS
330
17
102
}
330
17
100
AcDbMlineStyle
  2
STANDARD
 70
     0
  3

 62
   256
 51
90.0
 52
90.0
 71
     2
 49
0.5
 62
   256
  6
BYLAYER
 49
-0.5
 62
   256
  6
BYLAYER
  0
ACDBPLACEHOLDER
  5
F
102
{ACAD_REACTORS
330
E
102
}
330
E
100
AcDbPlaceHolder
280
     0
  0
DICTIONARYVAR
  5
35
102
{ACAD_REACTORS
330
34
102
}
330
34
100
DictionaryVariables
280
     0
  1
1
  0
DICTIONARYVAR
  5
B5E
102
{ACAD_REACTORS
330
34
102
}
330
34
100
DictionaryVariables
280
     0
  1
96
  0
DICTIONARY
  5
260
102
{ACAD_REACTORS
330
43
102
}
330
43
100
AcDbDictionary
  0
DICTIONARY
  5
2C
102
{ACAD_REACTORS
330
2B
102
}
330
2B
100
AcDbDictionary
  3
DWGSETTINGS
350
2D
  0
XRECORD
  5
2725
102
{ACAD_REACTORS
330
2724
102
}
330
2724
100
AcDbXrecord
 90
        1
  0
XRECORD
  5
2726
102
{ACAD_REACTORS
330
2724
102
}
330
2724
100
AcDbXrecord
 90
       70
  0
XRECORD
  5
2727
102
{ACAD_REACTORS
330
2724
102
}
330
2724
100
AcDbXrecord
  1

  0
XRECORD
  5
2728
102
{ACAD_REACTORS
330
2724
102
}
330
2724
100
AcDbXrecord
  1
ASAMI.ctb
  0
XRECORD
  5
2729
102
{ACAD_REACTORS
330
2724
102
}
330
2724
100
AcDbXrecord
340
1A
  0
XRECORD
  5
272A
102
{ACAD_REACTORS
330
2724
102
}
330
2724
100
AcDbXrecord
340
19
  0
XRECORD
  5
272B
102
{ACAD_REACTORS
330
2724
102
}
330
2724
100
AcDbXrecord
340
E
  0
XRECORD
  5
272C
102
{ACAD_REACTORS
330
2724
102
}
330
2724
100
AcDbXrecord
 90
    10781
  0
XRECORD
  5
272D
102
{ACAD_REACTORS
330
2724
102
}
330
2724
100
AcDbXrecord
 90
        4
  0
XRECORD
  5
272E
102
{ACAD_REACTORS
330
2724
102
}
330
2724
100
AcDbXrecord
 90
        0
  0
XRECORD
  5
272F
102
{ACAD_REACTORS
330
2724
102
}
330
2724
100
AcDbXrecord
  1
{AFB28963-8C59-40AE-9337-C84526B81ACE}
  0
XRECORD
  5
2730
102
{ACAD_REACTORS
330
2724
102
}
330
2724
100
AcDbXrecord
  1
{D5E7BE8C-91E2-455C-ACA5-9A68E4550FA4}
  0
XRECORD
  5
2731
102
{ACAD_REACTORS
330
2724
102
}
330
2724
100
AcDbXrecord
 40
0.0
  0
XRECORD
  5
2732
102
{ACAD_REACTORS
330
2724
102
}
330
2724
100
AcDbXrecord
1000
DSTYLE
1002
{
1070
    79
 70
     2
1070
   341
340
59
1070
   342
340
59
1070
   371
 70
    -1
1070
   372
 70
    -1
1002
}
  0
XRECORD
  5
2733
102
{ACAD_REACTORS
330
2724
102
}
330
2724
100
AcDbXrecord
340
0
  0
XRECORD
  5
2734
102
{ACAD_REACTORS
330
2724
102
}
330
2724
100
AcDbXrecord
 70
     0
  0
XRECORD
  5
2735
102
{ACAD_REACTORS
330
2724
102
}
330
2724
100
AcDbXrecord
340
0
  0
XRECORD
  5
2736
102
{ACAD_REACTORS
330
2724
102
}
330
2724
100
AcDbXrecord
 10
0.0
 20
0.0
 30
0.0
  0
XRECORD
  5
2737
102
{ACAD_REACTORS
330
2724
102
}
330
2724
100
AcDbXrecord
 10
0.0
 20
0.0
 30
0.0
  0
XRECORD
  5
2738
102
{ACAD_REACTORS
330
2724
102
}
330
2724
100
AcDbXrecord
 10
0.0
 20
0.0
 30
0.0
  0
XRECORD
  5
2739
102
{ACAD_REACTORS
330
2724
102
}
330
2724
100
AcDbXrecord
 10
0.0
 20
0.0
 30
0.0
  0
XRECORD
  5
273A
102
{ACAD_REACTORS
330
2724
102
}
330
2724
100
AcDbXrecord
 10
0.0
 20
0.0
 30
0.0
  0
XRECORD
  5
273B
102
{ACAD_REACTORS
330
2724
102
}
330
2724
100
AcDbXrecord
 10
0.0
 20
0.0
 30
0.0
  0
XRECORD
  5
273C
102
{ACAD_REACTORS
330
2724
102
}
330
2724
100
AcDbXrecord
340
0
  0
XRECORD
  5
273D
102
{ACAD_REACTORS
330
2724
102
}
330
2724
100
AcDbXrecord
 70
     0
  0
XRECORD
  5
273E
102
{ACAD_REACTORS
330
2724
102
}
330
2724
100
AcDbXrecord
340
0
  0
XRECORD
  5
273F
102
{ACAD_REACTORS
330
2724
102
}
330
2724
100
AcDbXrecord
 10
0.0
 20
0.0
 30
0.0
  0
XRECORD
  5
2740
102
{ACAD_REACTORS
330
2724
102
}
330
2724
100
AcDbXrecord
 10
0.0
 20
0.0
 30
0.0
  0
XRECORD
  5
2741
102
{ACAD_REACTORS
330
2724
102
}
330
2724
100
AcDbXrecord
 10
0.0
 20
0.0
 30
0.0
  0
XRECORD
  5
2742
102
{ACAD_REACTORS
330
2724
102
}
330
2724
100
AcDbXrecord
 10
0.0
 20
0.0
 30
0.0
  0
XRECORD
  5
2743
102
{ACAD_REACTORS
330
2724
102
}
330
2724
100
AcDbXrecord
 10
0.0
 20
0.0
 30
0.0
  0
XRECORD
  5
2744
102
{ACAD_REACTORS
330
2724
102
}
330
2724
100
AcDbXrecord
 10
0.0
 20
0.0
 30
0.0
  0
LAYER_INDEX
  5
271B
102
{ACAD_REACTORS
330
271A
102
}
330
271A
100
AcDbIndex
 40
2452844.459395254
100
AcDbLayerIndex
  8
0
360
271C
 90
        0
  8
AM_0
360
271D
 90
       55
  8
AM_11
360
271E
 90
        4
  8
AM_7
360
271F
 90
        1
  8
AM_5
360
2720
 90
        4
  8
Defpoints
360
2721
 90
        0
  8
AM_6
360
2722
 90
        1
  0
XRECORD
  5
2D
102
{ACAD_REACTORS
330
2C
102
}
330
2C
100
AcDbXrecord
  1
VERSION
140
15.0
  1
PRODUCT
  2
AutoCAD Mechanical 2000
  0
IDBUFFER
  5
271C
330
0
100
AcDbIdBuffer
  0
IDBUFFER
  5
271D
330
0
100
AcDbIdBuffer
330
2413
330
2414
330
2415
330
2416
330
2417
330
2418
330
2419
330
1CA0
330
1CA1
330
1CA2
330
1CA3
330
1CA4
330
1CA5
330
22DA
330
22DB
330
22DE
330
23D1
330
23D2
330
23D3
330
23D4
330
23D5
330
23D6
330
23D7
330
23D8
330
23D9
330
23DA
330
23DB
330
23DC
330
23EA
330
23EB
330
23EC
330
23ED
330
23FC
330
23FD
330
23FE
330
23FF
330
2400
330
2401
330
2402
330
2403
330
2404
330
2405
330
2406
330
2407
330
2408
330
2409
330
240A
330
240B
330
240C
330
240D
330
240E
330
240F
330
2410
330
2411
330
2412
  0
IDBUFFER
  5
271E
330
0
100
AcDbIdBuffer
330
21FA
330
221A
330
222C
330
222D
  0
IDBUFFER
  5
271F
330
0
100
AcDbIdBuffer
330
1CA6
  0
IDBUFFER
  5
2720
330
0
100
AcDbIdBuffer
330
1D0A
330
241A
330
2434
330
259C
  0
IDBUFFER
  5
2721
330
0
100
AcDbIdBuffer
  0
IDBUFFER
  5
2722
330
0
100
AcDbIdBuffer
330
F17
  0
ENDSEC
  0
EOF
