  0
SECTION
  2
HEADER
  9
$ACADVER
  1
AC1014
  9
$ACADMAINTVER
 70
     9
  9
$DWGCODEPAGE
  3
ANSI_932
  9
$INSBASE
 10
0.0
 20
0.0
 30
0.0
  9
$EXTMIN
 10
-143.2
 20
-58.5
 30
-0.00000001
  9
$EXTMAX
 10
14.51362766131874
 20
11.9713383635079
 30
0.00000001
  9
$LIMMIN
 10
-153.6178212475457
 20
-67.97019895918186
  9
$LIMMAX
 10
27.67481298644702
 20
23.91498908848888
  9
$ORTHOMODE
 70
     0
  9
$REGENMODE
 70
     1
  9
$FILLMODE
 70
     1
  9
$QTEXTMODE
 70
     0
  9
$MIRRTEXT
 70
     0
  9
$DRAGMODE
 70
     2
  9
$LTSCALE
 40
1.0
  9
$OSMODE
 70
  2103
  9
$ATTMODE
 70
     1
  9
$TEXTSIZE
 40
2.5
  9
$TRACEWID
 40
1.0
  9
$TEXTSTYLE
  7
STANDARD
  9
$CLAYER
  8
AM_11
  9
$CELTYPE
  6
BYLAYER
  9
$CECOLOR
 62
   256
  9
$CELTSCALE
 40
1.0
  9
$DELOBJ
 70
     1
  9
$DISPSILH
 70
     0
  9
$DIMSCALE
 40
1.0
  9
$DIMASZ
 40
2.5
  9
$DIMEXO
 40
1.0
  9
$DIMDLI
 40
12.0
  9
$DIMRND
 40
0.0
  9
$DIMDLE
 40
0.0
  9
$DIMEXE
 40
1.0
  9
$DIMTP
 40
0.1
  9
$DIMTM
 40
0.1
  9
$DIMTXT
 40
3.2
  9
$DIMCEN
 40
0.0
  9
$DIMTSZ
 40
0.0
  9
$DIMTOL
 70
     0
  9
$DIMLIM
 70
     0
  9
$DIMTIH
 70
     0
  9
$DIMTOH
 70
     0
  9
$DIMSE1
 70
     0
  9
$DIMSE2
 70
     0
  9
$DIMTAD
 70
     3
  9
$DIMZIN
 70
     8
  9
$DIMBLK
  1
OPEN30
  9
$DIMASO
 70
     1
  9
$DIMSHO
 70
     1
  9
$DIMPOST
  1

  9
$DIMAPOST
  1
"
  9
$DIMALT
 70
     0
  9
$DIMALTD
 70
     2
  9
$DIMALTF
 40
0.0393701
  9
$DIMLFAC
 40
1.0
  9
$DIMTOFL
 70
     1
  9
$DIMTVP
 40
0.0
  9
$DIMTIX
 70
     0
  9
$DIMSOXD
 70
     0
  9
$DIMSAH
 70
     0
  9
$DIMBLK1
  1

  9
$DIMBLK2
  1

  9
$DIMSTYLE
  2
AM_JIS
  9
$DIMCLRD
 70
   256
  9
$DIMCLRE
 70
   256
  9
$DIMCLRT
 70
     2
  9
$DIMTFAC
 40
0.71
  9
$DIMGAP
 40
1.5
  9
$DIMJUST
 70
     0
  9
$DIMSD1
 70
     0
  9
$DIMSD2
 70
     0
  9
$DIMTOLJ
 70
     0
  9
$DIMTZIN
 70
     0
  9
$DIMALTZ
 70
     0
  9
$DIMALTTZ
 70
     0
  9
$DIMFIT
 70
     3
  9
$DIMUPT
 70
     0
  9
$DIMUNIT
 70
     2
  9
$DIMDEC
 70
     3
  9
$DIMTDEC
 70
     3
  9
$DIMALTU
 70
     2
  9
$DIMALTTD
 70
     2
  9
$DIMTXSTY
  7
ASAMI
  9
$DIMAUNIT
 70
     0
  9
$LUNITS
 70
     2
  9
$LUPREC
 70
     2
  9
$SKETCHINC
 40
1.0
  9
$FILLETRAD
 40
3.0
  9
$AUNITS
 70
     0
  9
$AUPREC
 70
     0
  9
$MENU
  1
.
  9
$ELEVATION
 40
0.0
  9
$PELEVATION
 40
0.0
  9
$THICKNESS
 40
0.0
  9
$LIMCHECK
 70
     0
  9
$BLIPMODE
 70
     0
  9
$CHAMFERA
 40
0.5
  9
$CHAMFERB
 40
0.5
  9
$CHAMFERC
 40
20.0
  9
$CHAMFERD
 40
0.0
  9
$SKPOLY
 70
     0
  9
$TDCREATE
 40
2452809.403188831
  9
$TDUPDATE
 40
2452844.463843125
  9
$TDINDWG
 40
0.0728087153
  9
$TDUSRTIMER
 40
0.0728087153
  9
$USRTIMER
 70
     1
  9
$ANGBASE
 50
0.0
  9
$ANGDIR
 70
     0
  9
$PDMODE
 70
     0
  9
$PDSIZE
 40
0.0
  9
$PLINEWID
 40
0.0
  9
$COORDS
 70
     2
  9
$SPLFRAME
 70
     0
  9
$SPLINETYPE
 70
     6
  9
$SPLINESEGS
 70
     8
  9
$ATTDIA
 70
     1
  9
$ATTREQ
 70
     1
  9
$HANDLING
 70
 12289
  9
$HANDSEED
  5
22D2
  9
$SURFTAB1
 70
     6
  9
$SURFTAB2
 70
     6
  9
$SURFTYPE
 70
     6
  9
$SURFU
 70
     6
  9
$SURFV
 70
     6
  9
$UCSNAME
  2

  9
$UCSORG
 10
0.00000000000942
 20
-0.0000000000000011
 30
0.0
  9
$UCSXDIR
 10
1.0
 20
0.0
 30
0.0
  9
$UCSYDIR
 10
0.0
 20
1.0
 30
0.0
  9
$PUCSNAME
  2

  9
$PUCSORG
 10
0.0
 20
0.0
 30
0.0
  9
$PUCSXDIR
 10
1.0
 20
0.0
 30
0.0
  9
$PUCSYDIR
 10
0.0
 20
1.0
 30
0.0
  9
$USERI1
 70
     0
  9
$USERI2
 70
     0
  9
$USERI3
 70
     0
  9
$USERI4
 70
     0
  9
$USERI5
 70
     0
  9
$USERR1
 40
0.0
  9
$USERR2
 40
0.0
  9
$USERR3
 40
0.0
  9
$USERR4
 40
0.0
  9
$USERR5
 40
0.0
  9
$WORLDVIEW
 70
     1
  9
$SHADEDGE
 70
     3
  9
$SHADEDIF
 70
    70
  9
$TILEMODE
 70
     1
  9
$MAXACTVP
 70
    64
  9
$PINSBASE
 10
0.0
 20
0.0
 30
0.0
  9
$PLIMCHECK
 70
     0
  9
$PEXTMIN
 10
1.000000000000000E+20
 20
1.000000000000000E+20
 30
1.000000000000000E+20
  9
$PEXTMAX
 10
-1.000000000000000E+20
 20
-1.000000000000000E+20
 30
-1.000000000000000E+20
  9
$PLIMMIN
 10
0.0
 20
0.0
  9
$PLIMMAX
 10
841.0
 20
594.0
  9
$UNITMODE
 70
     0
  9
$VISRETAIN
 70
     1
  9
$PLINEGEN
 70
     0
  9
$PSLTSCALE
 70
     0
  9
$TREEDEPTH
 70
  3020
  9
$PICKSTYLE
 70
     0
  9
$CMLSTYLE
  2
STANDARD
  9
$CMLJUST
 70
     0
  9
$CMLSCALE
 40
20.0
  9
$PROXYGRAPHICS
 70
     1
  9
$MEASUREMENT
 70
     1
  0
ENDSEC
  0
SECTION
  2
CLASSES
  0
CLASS
  1
ACDBDICTIONARYWDFLT
  2
AcDbDictionaryWithDefault
  3
AutoCAD 2000
 90
        0
280
     0
281
     0
  0
CLASS
  1
ACDBPLACEHOLDER
  2
AcDbPlaceHolder
  3
AutoCAD 2000
 90
        0
280
     0
281
     0
  0
CLASS
  1
LAYOUT
  2
AcDbLayout
  3
AutoCAD 2000
 90
        0
280
     0
281
     0
  0
CLASS
  1
AMGSETTINGSOBJ
  2
AmgSettingsObj
  3
"AcadM|Product Description: AutoCAD Mechanical 2000|Company: Autodesk"
 90
        0
280
     0
281
     0
  0
CLASS
  1
ACME_DOCUMENT
  2
AcMeDbDoc
  3
AcMeServices
 90
        0
280
     0
281
     0
  0
CLASS
  1
ACMESCOPE
  2
AcMeScope
  3
AcMeServices
 90
        0
280
     0
281
     0
  0
CLASS
  1
ACMECOMMANDHISTORY
  2
AcMeCommandHistory
  3
AcMeServices
 90
        0
280
     0
281
     0
  0
CLASS
  1
DICTIONARYVAR
  2
AcDbDictionaryVar
  3
AutoCAD 2000
 90
        0
280
     0
281
     0
  0
CLASS
  1
ACIMSYSVARMAN
  2
AcImSysVarManager
  3
AcMeServices
 90
        0
280
     0
281
     0
  0
CLASS
  1
ACIMREALSYSVAR
  2
AcImRealSysVar
  3
AcMeServices
 90
        0
280
     0
281
     0
  0
CLASS
  1
ACIMINTSYSVAR
  2
AcImIntSysVar
  3
AcMeServices
 90
        0
280
     0
281
     0
  0
CLASS
  1
ACMEDRAWINGMAN
  2
AcMeDrawingMan
  3
AcMeServices
 90
        0
280
     0
281
     0
  0
CLASS
  1
ACMEVIEW
  2
AcMeView
  3
AcMeServices
 90
        0
280
     0
281
     0
  0
CLASS
  1
ACDBENTITYCACHE
  2
AcMeEntityCache
  3
AcMeServices
 90
        0
280
     0
281
     0
  0
CLASS
  1
GSMANAGER
  2
AcMeGSManager
  3
AcMeServices
 90
        0
280
     0
281
     0
  0
CLASS
  1
AmdtInternalReactor
  2
AmdtInternalReactor
  3
AcMeServices
 90
        0
280
     0
281
     0
  0
CLASS
  1
ACMESTATEMGR
  2
AcMeStateMgr
  3
AcMeServices
 90
        0
280
     0
281
     0
  0
CLASS
  1
ACME_DATABASE
  2
AcMeDbDatabase
  3
AcMeServices
 90
        0
280
     0
281
     0
  0
CLASS
  1
ACRFINSADJUSTERMGR
  2
AcRfInsAdjusterMgr
  3
AcMeServices
 90
        0
280
     0
281
     0
  0
CLASS
  1
ACMDATADICTIONARY
  2
AcmDataDictionary
  3
"AcmSymBB|Product Description: AutoCAD Mechanical 2000|Company: Autodesk"
 90
        0
280
     0
281
     0
  0
CLASS
  1
ACMDATAENTRYBLOCK
  2
AcmDataEntryBlock
  3
"AcmSymBB|Product Description: AutoCAD Mechanical 2000|Company: Autodesk"
 90
        0
280
     0
281
     0
  0
CLASS
  1
AMGOBJPROPCFG
  2
AmgObjPropCfg
  3
"AmgLay|Product Description: AutoCAD Mechanical 2000|Company: Autodesk"
 90
        1
280
     0
281
     0
  0
CLASS
  1
ACAMGFILTERDAT
  2
AcAmgFilterDat
  3
"AcadM|Product Description: AutoCAD Mechanical 2000|Company: Autodesk"
 90
        0
280
     0
281
     0
  0
CLASS
  1
LAYER_INDEX
  2
AcDbLayerIndex
  3
AutoCAD 2000
 90
        0
280
     0
281
     0
  0
CLASS
  1
IDBUFFER
  2
AcDbIdBuffer
  3
AutoCAD 2000
 90
        0
280
     0
281
     0
  0
CLASS
  1
ACIMSTRSYSVAR
  2
AcImStrSysVar
  3
AcMeServices
 90
        0
280
     0
281
     0
  0
CLASS
  1
ACMSTANDARDJIS
  2
AcmStandardJIS
  3
"AcmSymBB|Product Description: AutoCAD Mechanical 2000|Company: Autodesk"
 90
        0
280
     0
281
     0
  0
CLASS
  1
ACMSURFSTANDARDJIS
  2
AcmSurfTextStdJIS
  3
"AcmSymBB|Product Description: AutoCAD Mechanical 2000|Company: Autodesk"
 90
        0
280
     0
281
     0
  0
CLASS
  1
ACMFCFSTANDARDJIS
  2
AcmFCFStdJIS
  3
"AcmSymBB|Product Description: AutoCAD Mechanical 2000|Company: Autodesk"
 90
        0
280
     0
281
     0
  0
CLASS
  1
ACMWELDSTANDARDJIS
  2
AcmWeldingStdJIS
  3
"AcmSymBB|Product Description: AutoCAD Mechanical 2000|Company: Autodesk"
 90
        0
280
     0
281
     0
  0
CLASS
  1
ACMIDSTANDARDJIS
  2
AcmIdStdJIS
  3
"AcmSymBB|Product Description: AutoCAD Mechanical 2000|Company: Autodesk"
 90
        0
280
     0
281
     0
  0
CLASS
  1
ACMDATUMSTANDARDJIS
  2
AcmDatumStdJIS
  3
"AcmSymBB|Product Description: AutoCAD Mechanical 2000|Company: Autodesk"
 90
        0
280
     0
281
     0
  0
CLASS
  1
ACMBOMSTANDARDJIS
  2
AcmBOMStdJIS
  3
"AcmSymBB|Product Description: AutoCAD Mechanical 2000|Company: Autodesk"
 90
        0
280
     0
281
     0
  0
CLASS
  1
ACMSTANDARDANSI
  2
AcmStandardANSI
  3
"AcmSymBB|Product Description: AutoCAD Mechanical 2000|Company: Autodesk"
 90
        0
280
     0
281
     0
  0
CLASS
  1
ACMSURFSTANDARDANSI
  2
AcmSurfTextStdANSI
  3
"AcmSymBB|Product Description: AutoCAD Mechanical 2000|Company: Autodesk"
 90
        0
280
     0
281
     0
  0
CLASS
  1
ACMFCFSTANDARDANSI
  2
AcmFCFStdANSI
  3
"AcmSymBB|Product Description: AutoCAD Mechanical 2000|Company: Autodesk"
 90
        0
280
     0
281
     0
  0
CLASS
  1
ACMWELDSTANDARDANSI
  2
AcmWeldingStdANSI
  3
"AcmSymBB|Product Description: AutoCAD Mechanical 2000|Company: Autodesk"
 90
        0
280
     0
281
     0
  0
CLASS
  1
ACMIDSTANDARDANSI
  2
AcmIdStdANSI
  3
"AcmSymBB|Product Description: AutoCAD Mechanical 2000|Company: Autodesk"
 90
        0
280
     0
281
     0
  0
CLASS
  1
ACMDATUMSTANDARDANSI
  2
AcmDatumStdANSI
  3
"AcmSymBB|Product Description: AutoCAD Mechanical 2000|Company: Autodesk"
 90
        0
280
     0
281
     0
  0
CLASS
  1
ACMBOMSTANDARDANSI
  2
AcmBOMStdANSI
  3
"AcmSymBB|Product Description: AutoCAD Mechanical 2000|Company: Autodesk"
 90
        0
280
     0
281
     0
  0
CLASS
  1
ACMSTANDARDBSI
  2
AcmStandardBSI
  3
"AcmSymBB|Product Description: AutoCAD Mechanical 2000|Company: Autodesk"
 90
        0
280
     0
281
     0
  0
CLASS
  1
ACMSURFSTANDARDBSI
  2
AcmSurfTextStdBSI
  3
"AcmSymBB|Product Description: AutoCAD Mechanical 2000|Company: Autodesk"
 90
        0
280
     0
281
     0
  0
CLASS
  1
ACMFCFSTANDARDBSI
  2
AcmFCFStdBSI
  3
"AcmSymBB|Product Description: AutoCAD Mechanical 2000|Company: Autodesk"
 90
        0
280
     0
281
     0
  0
CLASS
  1
ACMWELDSTANDARDBSI
  2
AcmWeldingStdBSI
  3
"AcmSymBB|Product Description: AutoCAD Mechanical 2000|Company: Autodesk"
 90
        0
280
     0
281
     0
  0
CLASS
  1
ACMIDSTANDARDBSI
  2
AcmIdStdBSI
  3
"AcmSymBB|Product Description: AutoCAD Mechanical 2000|Company: Autodesk"
 90
        0
280
     0
281
     0
  0
CLASS
  1
ACMDATUMSTANDARDBSI
  2
AcmDatumStdBSI
  3
"AcmSymBB|Product Description: AutoCAD Mechanical 2000|Company: Autodesk"
 90
        0
280
     0
281
     0
  0
CLASS
  1
ACMBOMSTANDARDBSI
  2
AcmBOMStdBSI
  3
"AcmSymBB|Product Description: AutoCAD Mechanical 2000|Company: Autodesk"
 90
        0
280
     0
281
     0
  0
CLASS
  1
SORTENTSTABLE
  2
AcDbSortentsTable
  3
AutoCAD 2000
 90
        0
280
     0
281
     0
  0
CLASS
  1
LONG_TRANSACTION
  2
AcDbLongTransaction
  3
AutoCAD 2000
 90
        0
280
     0
281
     0
  0
CLASS
  1
LWPOLYLINE
  2
AcDbPolyline
  3
AutoCAD 2000
 90
        0
280
     0
281
     1
  0
CLASS
  1
HATCH
  2
AcDbHatch
  3
AutoCAD 2000
 90
        0
280
     0
281
     1
  0
CLASS
  1
XRECORD
  2
AcDbXrecord
  3
AutoCAD 2000
 90
        0
280
     0
281
     0
  0
ENDSEC
  0
SECTION
  2
TABLES
  0
TABLE
  2
VPORT
  5
8
330
0
100
AcDbSymbolTable
 70
     3
  0
VPORT
  5
22A1
330
8
100
AcDbSymbolTableRecord
100
AcDbViewportTableRecord
  2
*ACTIVE
 70
     0
 10
0.0
 20
0.0
 11
1.0
 21
1.0
 12
-64.34411756754477
 22
-23.26315257311603
 13
0.0
 23
0.0
 14
2.5
 24
2.5
 15
10.0
 25
10.0
 16
0.0
 26
0.0
 36
1.0
 17
0.0
 27
0.0
 37
0.0
 40
101.1285164771287
 41
1.56570841889117
 42
50.0
 43
0.0
 44
0.0
 50
0.0
 51
0.0
 71
     0
 72
   100
 73
     1
 74
     3
 75
     0
 76
     0
 77
     0
 78
     0
  0
ENDTAB
  0
TABLE
  2
LTYPE
  5
5
330
0
100
AcDbSymbolTable
 70
    10
  0
LTYPE
  5
14
330
5
100
AcDbSymbolTableRecord
100
AcDbLinetypeTableRecord
  2
BYBLOCK
 70
     0
  3

 72
    65
 73
     0
 40
0.0
  0
LTYPE
  5
15
330
5
100
AcDbSymbolTableRecord
100
AcDbLinetypeTableRecord
  2
BYLAYER
 70
     0
  3

 72
    65
 73
     0
 40
0.0
  0
LTYPE
  5
16
330
5
100
AcDbSymbolTableRecord
100
AcDbLinetypeTableRecord
  2
CONTINUOUS
 70
     0
  3
Solid line
 72
    65
 73
     0
 40
0.0
  0
LTYPE
  5
4B
330
5
100
AcDbSymbolTableRecord
100
AcDbLinetypeTableRecord
  2
AM_ISO02W050
 70
     0
  3
__ __ __ __ __ __ __ __ __ __ __ __ __ __ __
 72
    65
 73
     2
 40
7.5
 49
6.0
 74
     0
 49
-1.5
 74
     0
  0
LTYPE
  5
4C
330
5
100
AcDbSymbolTableRecord
100
AcDbLinetypeTableRecord
  2
AM_ISO08W050
 70
     0
  3
____ . ____ . ____ . ____ . ____ . ____ . ____
 72
    65
 73
     4
 40
18.0
 49
12.0
 74
     0
 49
-1.5
 74
     0
 49
3.0
 74
     0
 49
-1.5
 74
     0
  0
LTYPE
  5
4D
330
5
100
AcDbSymbolTableRecord
100
AcDbLinetypeTableRecord
  2
AM_ISO09W050
 70
     0
  3
_____ . . _____ . . _____ . . ____ .. ____
 72
    65
 73
     6
 40
22.5
 49
12.0
 74
     0
 49
-1.5
 74
     0
 49
3.0
 74
     0
 49
-1.5
 74
     0
 49
3.0
 74
     0
 49
-1.5
 74
     0
  0
LTYPE
  5
4E
330
5
100
AcDbSymbolTableRecord
100
AcDbLinetypeTableRecord
  2
AMCONSTR
 70
     0
  3
_______________________
 72
    65
 73
     2
 40
9999.0
 49
9999.0
 74
     0
 49
0.0
 74
     0
  0
LTYPE
  5
4F
330
5
100
AcDbSymbolTableRecord
100
AcDbLinetypeTableRecord
  2
AM_ISO02W050X2
 70
     0
  3
 _ _ _ _ _ _ _ _ _ _ _ _
 72
    65
 73
     2
 40
3.75
 49
3.0
 74
     0
 49
-0.75
 74
     0
  0
LTYPE
  5
50
330
5
100
AcDbSymbolTableRecord
100
AcDbLinetypeTableRecord
  2
AM_ISO08W050X2
 70
     0
  3
__ . __ . __ . __ . __ . __
 72
    65
 73
     4
 40
9.0
 49
6.0
 74
     0
 49
-0.75
 74
     0
 49
1.5
 74
     0
 49
-0.75
 74
     0
  0
LTYPE
  5
53
330
5
100
AcDbSymbolTableRecord
100
AcDbLinetypeTableRecord
  2
AMZIGZAG
 70
     0
  3
/\/-/\/-/\/-/\/-/\/-/\/
 72
    65
 73
     2
 40
11.00009999999999
 49
0.0001
 74
     4
 75
   135
340
52
 46
0.04
 50
0.0
 44
0.0
 45
0.0
 49
-11.0
 74
     0
  0
LTYPE
  5
166
330
5
100
AcDbSymbolTableRecord
100
AcDbLinetypeTableRecord
  2
ACJISTGL
 70
     0
  3
_ _ _ _ _
 72
    65
 73
     2
 40
3.0
 49
2.0
 74
     0
 49
-1.0
 74
     0
  0
LTYPE
  5
26A
330
5
100
AcDbSymbolTableRecord
100
AcDbLinetypeTableRecord
  2
ACJISTGB
 70
     0
  3
__ . . __ . .
 72
    65
 73
     6
 40
9.0
 49
4.0
 74
     0
 49
-1.0
 74
     0
 49
1.0
 74
     0
 49
-1.0
 74
     0
 49
1.0
 74
     0
 49
-1.0
 74
     0
  0
ENDTAB
  0
TABLE
  2
LAYER
  5
2
330
0
100
AcDbSymbolTable
 70
     7
  0
LAYER
  5
10
330
2
100
AcDbSymbolTableRecord
100
AcDbLayerTableRecord
  2
0
 70
     0
 62
     7
  6
CONTINUOUS
  0
LAYER
  5
3F9
330
2
100
AcDbSymbolTableRecord
100
AcDbLayerTableRecord
  2
AM_0
 70
     0
 62
     7
  6
CONTINUOUS
  0
LAYER
  5
BA4
330
2
100
AcDbSymbolTableRecord
100
AcDbLayerTableRecord
  2
AM_11
 70
     0
 62
     3
  6
AM_ISO09W050
  0
LAYER
  5
BA5
330
2
100
AcDbSymbolTableRecord
100
AcDbLayerTableRecord
  2
AM_7
 70
     0
 62
     4
  6
AM_ISO08W050
  0
LAYER
  5
D38
330
2
100
AcDbSymbolTableRecord
100
AcDbLayerTableRecord
  2
AM_5
 70
     0
 62
     3
  6
CONTINUOUS
  0
LAYER
  5
D3A
330
2
100
AcDbSymbolTableRecord
100
AcDbLayerTableRecord
  2
DEFPOINTS
 70
     0
 62
     7
  6
CONTINUOUS
  0
LAYER
  5
F16
330
2
100
AcDbSymbolTableRecord
100
AcDbLayerTableRecord
  2
AM_6
 70
     0
 62
     2
  6
CONTINUOUS
  0
ENDTAB
  0
TABLE
  2
STYLE
  5
3
330
0
100
AcDbSymbolTable
 70
     5
  0
STYLE
  5
11
330
3
100
AcDbSymbolTableRecord
100
AcDbTextStyleTableRecord
  2
STANDARD
 70
     0
 40
0.0
 41
1.0
 50
0.0
 71
     0
 42
2.5
  3
simplex.shx
  4
EXTFONT.SHX
  0
STYLE
  5
52
330
3
100
AcDbSymbolTableRecord
100
AcDbTextStyleTableRecord
  2

 70
     1
 40
0.0
 41
1.0
 50
0.0
 71
     0
 42
2.5
  3
ltypeshp.shx
  4

  0
STYLE
  5
6B
330
3
100
AcDbSymbolTableRecord
100
AcDbTextStyleTableRecord
  2
ASAMI
 70
     0
 40
0.0
 41
1.0
 50
0.0
 71
     0
 42
2.5
  3
simplex.shx
  4
EXTFONT.SHX
  0
STYLE
  5
262
330
3
100
AcDbSymbolTableRecord
100
AcDbTextStyleTableRecord
  2
ACJISTS
 70
     0
 40
1.0
 41
1.0
 50
0.0
 71
     0
 42
2.5
  3
simplex.shx
  4
bigfont.shx
  0
STYLE
  5
269
330
3
100
AcDbSymbolTableRecord
100
AcDbTextStyleTableRecord
  2
ACJISGDT
 70
     0
 40
0.0
 41
1.0
 50
0.0
 71
     0
 42
2.5
  3
amgdtans.shx
  4

  0
ENDTAB
  0
TABLE
  2
VIEW
  5
6
330
0
100
AcDbSymbolTable
 70
     0
  0
ENDTAB
  0
TABLE
  2
UCS
  5
7
330
0
100
AcDbSymbolTable
 70
     0
  0
ENDTAB
  0
TABLE
  2
APPID
  5
9
330
0
100
AcDbSymbolTable
 70
    13
  0
APPID
  5
12
330
9
100
AcDbSymbolTableRecord
100
AcDbRegAppTableRecord
  2
ACAD
 70
     0
  0
APPID
  5
30
330
9
100
AcDbSymbolTableRecord
100
AcDbRegAppTableRecord
  2
MCAD_NO_VIS
 70
     0
  0
APPID
  5
31
330
9
100
AcDbSymbolTableRecord
100
AcDbRegAppTableRecord
  2
ACAD_TEMP_GRAPHIC
 70
     0
  0
APPID
  5
2C2
330
9
100
AcDbSymbolTableRecord
100
AcDbRegAppTableRecord
  2
GENIUS_GENDTOL_13
 70
     0
  0
APPID
  5
339
330
9
100
AcDbSymbolTableRecord
100
AcDbRegAppTableRecord
  2
GENIUS_GENODEF_13
 70
     0
  0
APPID
  5
33A
330
9
100
AcDbSymbolTableRecord
100
AcDbRegAppTableRecord
  2
GENIUS_GENOBJ-N-RSBK_13
 70
     0
  0
APPID
  5
33B
330
9
100
AcDbSymbolTableRecord
100
AcDbRegAppTableRecord
  2
GENIUS_GENOBJ-N-LIB_13
 70
     0
  0
APPID
  5
33C
330
9
100
AcDbSymbolTableRecord
100
AcDbRegAppTableRecord
  2
GENIUS_GENSCALE_13
 70
     0
  0
APPID
  5
378
330
9
100
AcDbSymbolTableRecord
100
AcDbRegAppTableRecord
  2
GENIUS_GENDIMSH_14
 70
     0
  0
APPID
  5
BA6
330
9
100
AcDbSymbolTableRecord
100
AcDbRegAppTableRecord
  2
GENIUS_GENOBJ-N-CEN_13
 70
     0
  0
APPID
  5
D2B
330
9
100
AcDbSymbolTableRecord
100
AcDbRegAppTableRecord
  2
GENIUS_GENFIL_13
 70
     0
  0
APPID
  5
D2C
330
9
100
AcDbSymbolTableRecord
100
AcDbRegAppTableRecord
  2
GENIUS_GENOBJ-N-CHA_13
 70
     0
  0
APPID
  5
1F84
330
9
100
AcDbSymbolTableRecord
100
AcDbRegAppTableRecord
  2
GENIUS_GENOBJ-N-FIL_13
 70
     0
  0
ENDTAB
  0
TABLE
  2
DIMSTYLE
  5
A
330
0
100
AcDbSymbolTable
 70
     8
  0
DIMSTYLE
105
58
102
{ACAD_REACTORS
330
1E31
330
1E5B
330
1E77
330
21F8
102
}
330
A
100
AcDbSymbolTableRecord
100
AcDbDimStyleTableRecord
  2
AM_JIS
 70
     0
  3

  4
"
  5
OPEN30
  6

  7

 40
1.0
 41
2.5
 42
1.0
 43
12.0
 44
1.0
 45
0.0
 46
0.0
 47
0.1
 48
0.1
140
3.2
141
0.0
142
0.0
143
0.0393701
144
1.0
145
0.0
146
0.71
147
1.5
 71
     0
 72
     0
 73
     0
 74
     0
 75
     0
 76
     0
 77
     3
 78
     8
170
     0
171
     2
172
     1
173
     0
174
     0
175
     0
176
   256
177
   256
178
     2
270
     2
271
     3
272
     3
273
     2
274
     2
340
6B
275
     0
280
     0
281
     0
282
     0
283
     0
284
     0
285
     0
286
     0
287
     3
288
     0
  0
DIMSTYLE
105
5F
330
A
100
AcDbSymbolTableRecord
100
AcDbDimStyleTableRecord
  2
AM_JIS$3
 70
     0
  3

  4
"
  5
OPEN30
  6

  7

 40
1.0
 41
2.5
 42
1.0
 43
10.0
 44
1.0
 45
0.0
 46
0.0
 47
0.1
 48
0.1
140
3.2
141
0.0
142
0.0
143
0.0393701
144
1.0
145
0.0
146
0.71
147
1.5
 71
     0
 72
     0
 73
     0
 74
     1
 75
     0
 76
     0
 77
     3
 78
     8
170
     0
171
     2
172
     0
173
     0
174
     0
175
     0
176
   256
177
   256
178
     2
270
     2
271
     2
272
     3
273
     2
274
     2
340
6B
275
     0
280
     0
281
     0
282
     0
283
     0
284
     0
285
     0
286
     0
287
     0
288
     1
  0
DIMSTYLE
105
60
102
{ACAD_REACTORS
330
210E
102
}
330
A
100
AcDbSymbolTableRecord
100
AcDbDimStyleTableRecord
  2
AM_JIS$4
 70
     0
  3

  4
"
  5
OPEN30
  6

  7

 40
1.0
 41
2.5
 42
1.0
 43
10.0
 44
1.0
 45
0.0
 46
0.0
 47
0.1
 48
0.1
140
3.2
141
0.0
142
0.0
143
0.0393701
144
1.0
145
0.0
146
0.71
147
1.5
 71
     0
 72
     0
 73
     0
 74
     1
 75
     0
 76
     0
 77
     3
 78
     8
170
     0
171
     2
172
     0
173
     0
174
     0
175
     0
176
   256
177
   256
178
     2
270
     2
271
     2
272
     3
273
     2
274
     2
340
6B
275
     0
280
     0
281
     0
282
     0
283
     0
284
     0
285
     0
286
     0
287
     0
288
     1
  0
DIMSTYLE
105
61
330
A
100
AcDbSymbolTableRecord
100
AcDbDimStyleTableRecord
  2
AM_JIS$6
 70
     0
  3

  4
"
  5
OPEN30
  6

  7

 40
1.0
 41
2.5
 42
1.0
 43
10.0
 44
1.0
 45
0.0
 46
0.0
 47
0.1
 48
0.1
140
3.2
141
0.0
142
0.0
143
0.0393701
144
1.0
145
0.0
146
0.71
147
1.5
 71
     0
 72
     0
 73
     0
 74
     0
 75
     0
 76
     0
 77
     0
 78
     8
170
     0
171
     2
172
     1
173
     0
174
     0
175
     0
176
   256
177
   256
178
     2
270
     2
271
     2
272
     2
273
     2
274
     2
340
6B
275
     0
280
     0
281
     0
282
     0
283
     0
284
     0
285
     0
286
     0
287
     3
288
     0
  0
DIMSTYLE
105
62
330
A
100
AcDbSymbolTableRecord
100
AcDbDimStyleTableRecord
  2
AM_JIS$7
 70
     0
  3

  4
"
  5
OPEN30
  6

  7

 40
1.0
 41
2.5
 42
1.0
 43
10.0
 44
1.0
 45
0.0
 46
0.0
 47
0.1
 48
0.1
140
3.2
141
0.0
142
0.0
143
0.0393701
144
1.0
145
0.0
146
0.71
147
1.5
 71
     0
 72
     0
 73
     0
 74
     0
 75
     0
 76
     0
 77
     3
 78
     8
170
     0
171
     2
172
     1
173
     0
174
     0
175
     0
176
   256
177
   256
178
     2
270
     2
271
     2
272
     3
273
     2
274
     2
340
6B
275
     0
280
     0
281
     0
282
     0
283
     0
284
     0
285
     0
286
     0
287
     3
288
     0
  0
DIMSTYLE
105
63
330
A
100
AcDbSymbolTableRecord
100
AcDbDimStyleTableRecord
  2
AM_JIS$SF
 70
     0
  3

  4
"
  5
OPEN30
  6

  7

 40
1.0
 41
2.5
 42
1.0
 43
10.0
 44
1.0
 45
0.0
 46
0.0
 47
0.1
 48
0.1
140
3.2
141
0.0
142
0.0
143
0.0393701
144
1.0
145
0.0
146
0.71
147
1.5
 71
     0
 72
     0
 73
     0
 74
     0
 75
     1
 76
     1
 77
     3
 78
     8
170
     0
171
     2
172
     1
173
     0
174
     0
175
     0
176
   256
177
   256
178
     2
270
     2
271
     2
272
     2
273
     2
274
     2
340
6B
275
     0
280
     0
281
     0
282
     0
283
     0
284
     0
285
     0
286
     0
287
     3
288
     0
  0
DIMSTYLE
105
68
330
A
100
AcDbSymbolTableRecord
100
AcDbDimStyleTableRecord
  2
AM_JIS$SH
 70
     0
  3

  4
"
  5

  6
GENAXEH
  7
OPEN30
 40
1.0
 41
2.5
 42
1.0
 43
10.0
 44
1.0
 45
0.0
 46
0.0
 47
0.1
 48
0.1
140
3.2
141
0.0
142
0.0
143
0.0393701
144
2.0
145
0.0
146
0.71
147
1.5
 71
     0
 72
     0
 73
     0
 74
     0
 75
     1
 76
     1
 77
     3
 78
     8
170
     0
171
     2
172
     1
173
     1
174
     0
175
     0
176
   256
177
   256
178
     2
270
     2
271
     2
272
     2
273
     2
274
     2
340
6B
275
     0
280
     0
281
     0
282
     0
283
     0
284
     0
285
     0
286
     0
287
     3
288
     0
  0
DIMSTYLE
105
B34
330
A
100
AcDbSymbolTableRecord
100
AcDbDimStyleTableRecord
  2
AM_JIS$2
 70
     0
  3

  4
"
  5
OPEN30
  6

  7

 40
1.0
 41
2.5
 42
1.0
 43
12.0
 44
1.0
 45
0.0
 46
0.0
 47
0.1
 48
0.1
140
3.2
141
0.0
142
0.0
143
0.0393701
144
1.0
145
0.0
146
0.71
147
1.5
 71
     0
 72
     0
 73
     0
 74
     0
 75
     0
 76
     0
 77
     3
 78
     8
170
     0
171
     2
172
     1
173
     0
174
     0
175
     0
176
   256
177
   256
178
     2
270
     2
271
     3
272
     3
273
     2
274
     2
340
6B
275
     0
280
     0
281
     0
282
     0
283
     0
284
     0
285
     0
286
     0
287
     3
288
     0
  0
ENDTAB
  0
TABLE
  2
BLOCK_RECORD
  5
1
330
0
100
AcDbSymbolTable
 70
    10
  0
BLOCK_RECORD
  5
1F
102
{ACAD_XDICTIONARY
360
74
102
}
330
1
100
AcDbSymbolTableRecord
100
AcDbBlockTableRecord
  2
*MODEL_SPACE
  0
BLOCK_RECORD
  5
101
102
{ACAD_XDICTIONARY
360
22CA
102
}
330
1
100
AcDbSymbolTableRecord
100
AcDbBlockTableRecord
  2
*PAPER_SPACE
  0
BLOCK_RECORD
  5
59
330
1
100
AcDbSymbolTableRecord
100
AcDbBlockTableRecord
  2
_OPEN30
  0
BLOCK_RECORD
  5
64
330
1
100
AcDbSymbolTableRecord
100
AcDbBlockTableRecord
  2
GENAXEH
  0
BLOCK_RECORD
  5
1E32
330
1
100
AcDbSymbolTableRecord
100
AcDbBlockTableRecord
  2
*D5
  0
BLOCK_RECORD
  5
1E5C
330
1
100
AcDbSymbolTableRecord
100
AcDbBlockTableRecord
  2
*D6
  0
BLOCK_RECORD
  5
1E78
330
1
100
AcDbSymbolTableRecord
100
AcDbBlockTableRecord
  2
*D7
  0
BLOCK_RECORD
  5
210F
330
1
100
AcDbSymbolTableRecord
100
AcDbBlockTableRecord
  2
*D8
  0
BLOCK_RECORD
  5
21F9
330
1
100
AcDbSymbolTableRecord
100
AcDbBlockTableRecord
  2
*D9
  0
ENDTAB
  0
ENDSEC
  0
SECTION
  2
BLOCKS
  0
BLOCK
  5
20
330
1F
100
AcDbEntity
  8
0
100
AcDbBlockBegin
  2
*MODEL_SPACE
 70
     0
 10
0.0
 20
0.0
 30
0.0
  3
*MODEL_SPACE
  1

  0
ENDBLK
  5
21
330
1F
100
AcDbEntity
  8
0
100
AcDbBlockEnd
  0
BLOCK
  5
103
330
101
100
AcDbEntity
 67
     1
  8
0
100
AcDbBlockBegin
  2
*PAPER_SPACE
 70
     0
 10
0.0
 20
0.0
 30
0.0
  3
*PAPER_SPACE
  1

  0
ENDBLK
  5
104
330
101
100
AcDbEntity
 67
     1
  8
0
100
AcDbBlockEnd
  0
BLOCK
  5
5D
330
59
100
AcDbEntity
  8
0
100
AcDbBlockBegin
  2
_OPEN30
 70
     0
 10
0.0
 20
0.0
 30
0.0
  3
_OPEN30
  1

  0
LINE
  5
5A
330
59
100
AcDbEntity
  8
0
 62
     0
100
AcDbLine
 10
-1.0
 20
0.26794919
 30
0.0
 11
0.0
 21
0.0
 31
0.0
  0
LINE
  5
5B
330
59
100
AcDbEntity
  8
0
 62
     0
100
AcDbLine
 10
0.0
 20
0.0
 30
0.0
 11
-1.0
 21
-0.26794919
 31
0.0
  0
LINE
  5
5C
330
59
100
AcDbEntity
  8
0
 62
     0
100
AcDbLine
 10
0.0
 20
0.0
 30
0.0
 11
-1.0
 21
0.0
 31
0.0
  0
ENDBLK
  5
5E
330
59
100
AcDbEntity
  8
0
100
AcDbBlockEnd
  0
BLOCK
  5
66
330
64
100
AcDbEntity
  8
0
100
AcDbBlockBegin
  2
GENAXEH
 70
     0
 10
0.0
 20
0.0
 30
0.0
  3
GENAXEH
  1

  0
LINE
  5
65
330
64
100
AcDbEntity
  8
0
100
AcDbLine
 10
-1.0
 20
0.0
 30
0.0
 11
1.0
 21
0.0
 31
0.0
  0
ENDBLK
  5
67
330
64
100
AcDbEntity
  8
0
100
AcDbBlockEnd
  0
BLOCK
  5
1E3C
330
1E32
100
AcDbEntity
  8
0
100
AcDbBlockBegin
  2
*D5
 70
     1
 10
0.0
 20
0.0
 30
0.0
  3
*D5
  1

  0
LINE
  5
1EEE
330
1E32
100
AcDbEntity
  8
AM_5
100
AcDbLine
 10
1.000000000023195
 20
-10.00000000008252
 30
0.0
 11
14.51362766131874
 21
-10.00000000008253
 31
0.0
  0
LINE
  5
1EEF
330
1E32
100
AcDbEntity
  8
AM_5
100
AcDbLine
 10
1.000000000023196
 20
9.999999999999921
 30
0.0
 11
14.51362766131874
 21
9.999999999999916
 31
0.0
  0
LINE
  5
1EF0
330
1E32
100
AcDbEntity
  8
AM_5
100
AcDbLine
 10
13.51362766131874
 20
-7.500000000082528
 30
0.0
 11
13.51362766131874
 21
7.499999999999919
 31
0.0
  0
INSERT
  5
1EF1
330
1E32
100
AcDbEntity
  8
AM_5
100
AcDbBlockReference
  2
_OPEN30
 10
13.51362766131874
 20
-10.00000000008252
 30
0.0
 41
2.5
 42
2.5
 43
2.5
 50
270.0
  0
INSERT
  5
1EF2
330
1E32
100
AcDbEntity
  8
AM_5
100
AcDbBlockReference
  2
_OPEN30
 10
13.51362766131874
 20
9.999999999999918
 30
0.0
 41
2.5
 42
2.5
 43
2.5
 50
90.0
  0
MTEXT
  5
1EF3
330
1E32
100
AcDbEntity
  8
AM_5
 62
     2
100
AcDbMText
 10
10.41362766131874
 20
-0.0000000000413025
 30
0.0
 40
3.2
 41
0.0
 71
     5
 72
     1
  1
%%c20
  7
ASAMI
 11
0.0000000000000001
 21
1.0
 31
0.0
1001
ACAD
1000
MTEXTBEGIN
1070
    73
1070
     1
1070
    44
1040
1.0
1070
    74
1070
     0
1000
MTEXTEND
  0
POINT
  5
1EF4
330
1E32
100
AcDbEntity
  8
DEFPOINTS
 62
     0
100
AcDbPoint
 10
0.0000000000231953
 20
-10.00000000008252
 30
0.0
  0
POINT
  5
1EF5
330
1E32
100
AcDbEntity
  8
DEFPOINTS
 62
     0
100
AcDbPoint
 10
0.0000000000231964
 20
9.999999999999921
 30
0.0
  0
POINT
  5
1EF6
330
1E32
100
AcDbEntity
  8
DEFPOINTS
 62
     0
100
AcDbPoint
 10
13.51362766131874
 20
9.999999999999918
 30
0.0
  0
ENDBLK
  5
1E3D
330
1E32
100
AcDbEntity
  8
0
100
AcDbBlockEnd
  0
BLOCK
  5
1E66
330
1E5C
100
AcDbEntity
  8
0
100
AcDbBlockBegin
  2
*D6
 70
     1
 10
0.0
 20
0.0
 30
0.0
  3
*D6
  1

  0
LINE
  5
1F34
330
1E5C
100
AcDbEntity
  8
AM_5
100
AcDbLine
 10
-0.000000000004348
 20
-11.0
 30
0.0
 11
-0.0000000000043489
 21
-24.99999999999996
 31
0.0
  0
LINE
  5
1F35
330
1E5C
100
AcDbEntity
  8
AM_5
100
AcDbLine
 10
-38.00000000000435
 20
-10.99456971703249
 30
0.0
 11
-38.00000000000435
 21
-24.99999999999996
 31
0.0
  0
LINE
  5
1F36
330
1E5C
100
AcDbEntity
  8
AM_5
100
AcDbLine
 10
-2.500000000004348
 20
-23.99999999999996
 30
0.0
 11
-35.50000000000435
 21
-23.99999999999996
 31
0.0
  0
INSERT
  5
1F37
330
1E5C
100
AcDbEntity
  8
AM_5
100
AcDbBlockReference
  2
_OPEN30
 10
-0.0000000000043488
 20
-23.99999999999996
 30
0.0
 41
2.5
 42
2.5
 43
2.5
  0
INSERT
  5
1F38
330
1E5C
100
AcDbEntity
  8
AM_5
100
AcDbBlockReference
  2
_OPEN30
 10
-38.00000000000435
 20
-23.99999999999996
 30
0.0
 41
2.5
 42
2.5
 43
2.5
 50
180.0
  0
MTEXT
  5
1F39
330
1E5C
100
AcDbEntity
  8
AM_5
 62
     2
100
AcDbMText
 10
-19.00000000000434
 20
-20.89999999999996
 30
0.0
 40
3.2
 41
0.0
 71
     5
 72
     1
  1
38
  7
ASAMI
1001
ACAD
1000
MTEXTBEGIN
1070
    73
1070
     1
1070
    44
1040
1.0
1070
    74
1070
     0
1000
MTEXTEND
  0
POINT
  5
1F3A
330
1E5C
100
AcDbEntity
  8
DEFPOINTS
 62
     0
100
AcDbPoint
 10
-0.0000000000043479
 20
-10.0
 30
0.0
  0
POINT
  5
1F3B
330
1E5C
100
AcDbEntity
  8
DEFPOINTS
 62
     0
100
AcDbPoint
 10
-38.00000000000435
 20
-9.99456971703249
 30
0.0
  0
POINT
  5
1F3C
330
1E5C
100
AcDbEntity
  8
DEFPOINTS
 62
     0
100
AcDbPoint
 10
-38.00000000000435
 20
-23.99999999999996
 30
0.0
  0
ENDBLK
  5
1E67
330
1E5C
100
AcDbEntity
  8
0
100
AcDbBlockEnd
  0
BLOCK
  5
1E82
330
1E78
100
AcDbEntity
  8
0
100
AcDbBlockBegin
  2
*D7
 70
     1
 10
0.0
 20
0.0
 30
0.0
  3
*D7
  1

  0
LINE
  5
1F21
330
1E78
100
AcDbEntity
  8
AM_5
100
AcDbLine
 10
-125.0
 20
-10.00000000000007
 30
0.0
 11
-125.0
 21
-36.99999999999997
 31
0.0
  0
LINE
  5
1F22
330
1E78
100
AcDbEntity
  8
AM_5
100
AcDbLine
 10
-0.000000000004348
 20
-11.0
 30
0.0
 11
-0.0000000000043496
 21
-36.99999999999997
 31
0.0
  0
LINE
  5
1F23
330
1E78
100
AcDbEntity
  8
AM_5
100
AcDbLine
 10
-122.5
 20
-35.99999999999997
 30
0.0
 11
-2.500000000004349
 21
-35.99999999999997
 31
0.0
  0
INSERT
  5
1F24
330
1E78
100
AcDbEntity
  8
AM_5
100
AcDbBlockReference
  2
_OPEN30
 10
-125.0
 20
-35.99999999999997
 30
0.0
 41
2.5
 42
2.5
 43
2.5
 50
180.0
  0
INSERT
  5
1F25
330
1E78
100
AcDbEntity
  8
AM_5
100
AcDbBlockReference
  2
_OPEN30
 10
-0.0000000000043495
 20
-35.99999999999997
 30
0.0
 41
2.5
 42
2.5
 43
2.5
  0
MTEXT
  5
1F26
330
1E78
100
AcDbEntity
  8
AM_5
 62
     2
100
AcDbMText
 10
-62.50000000000217
 20
-32.89999999999997
 30
0.0
 40
3.2
 41
0.0
 71
     5
 72
     1
  1
125
  7
ASAMI
1001
ACAD
1000
MTEXTBEGIN
1070
    73
1070
     1
1070
    44
1040
1.0
1070
    74
1070
     0
1000
MTEXTEND
  0
POINT
  5
1F27
330
1E78
100
AcDbEntity
  8
DEFPOINTS
 62
     0
100
AcDbPoint
 10
-125.0
 20
-9.000000000000074
 30
0.0
  0
POINT
  5
1F28
330
1E78
100
AcDbEntity
  8
DEFPOINTS
 62
     0
100
AcDbPoint
 10
-0.0000000000043479
 20
-10.0
 30
0.0
  0
POINT
  5
1F29
330
1E78
100
AcDbEntity
  8
DEFPOINTS
 62
     0
100
AcDbPoint
 10
-0.0000000000043495
 20
-35.99999999999997
 30
0.0
  0
ENDBLK
  5
1E83
330
1E78
100
AcDbEntity
  8
0
100
AcDbBlockEnd
  0
BLOCK
  5
2115
330
210F
100
AcDbEntity
  8
0
100
AcDbBlockBegin
  2
*D8
 70
     1
 10
0.0
 20
0.0
 30
0.0
  3
*D8
  1

  0
LINE
  5
22CC
330
210F
100
AcDbEntity
  8
AM_5
100
AcDbLine
 10
7.8738171283124
 20
-19.38908277853233
 30
0.0
 11
0.6280519291823854
 21
-11.13351948420947
 31
0.0
  0
MTEXT
  5
22CD
330
210F
100
AcDbEntity
  8
AM_5
 62
     2
100
AcDbMText
 10
7.455180452924119
 20
-14.21261154369185
 30
0.0
 40
3.2
 41
0.0
 71
     5
 72
     1
  1
R3
  7
ASAMI
 11
0.6596458053024224
 21
-0.7515766172167138
 31
0.0
  0
LINE
  5
22CE
330
210F
100
AcDbEntity
  8
AM_5
100
AcDbLine
 10
-2.999999999980937
 20
-6.999848089517548
 30
0.0
 11
-1.02106258407367
 21
-9.254577941167688
 31
0.0
  0
INSERT
  5
22CF
330
210F
100
AcDbEntity
  8
AM_5
100
AcDbBlockReference
  2
_OPEN30
 10
-1.02106258407367
 20
-9.254577941167688
 30
0.0
 41
2.5
 42
2.5
 43
2.5
 50
131.2728654842127
  0
POINT
  5
22D0
330
210F
100
AcDbEntity
  8
DEFPOINTS
 62
     0
100
AcDbPoint
 10
-1.02106258407367
 20
-9.254577941167688
 30
0.0
  0
POINT
  5
22D1
330
210F
100
AcDbEntity
  8
DEFPOINTS
 62
     0
100
AcDbPoint
 10
-2.999999999980937
 20
-6.999848089517548
 30
0.0
  0
ENDBLK
  5
2116
330
210F
100
AcDbEntity
  8
0
100
AcDbBlockEnd
  0
BLOCK
  5
2203
330
21F9
100
AcDbEntity
  8
0
100
AcDbBlockBegin
  2
*D9
 70
     1
 10
0.0
 20
0.0
 30
0.0
  3
*D9
  1

  0
LINE
  5
2272
330
21F9
100
AcDbEntity
  8
AM_5
100
AcDbLine
 10
-125.5
 20
-10.00000000000007
 30
0.0
 11
-139.5
 21
-10.00000000000007
 31
0.0
  0
LINE
  5
2273
330
21F9
100
AcDbEntity
  8
AM_5
100
AcDbLine
 10
-125.4999999999999
 20
9.99999999999995
 30
0.0
 11
-139.5
 21
9.999999999999953
 31
0.0
  0
LINE
  5
2274
330
21F9
100
AcDbEntity
  8
AM_5
100
AcDbLine
 10
-138.5
 20
-7.500000000000071
 30
0.0
 11
-138.5
 21
7.499999999999952
 31
0.0
  0
INSERT
  5
2275
330
21F9
100
AcDbEntity
  8
AM_5
100
AcDbBlockReference
  2
_OPEN30
 10
-138.5
 20
-10.00000000000007
 30
0.0
 41
2.5
 42
2.5
 43
2.5
 50
270.0
  0
INSERT
  5
2276
330
21F9
100
AcDbEntity
  8
AM_5
100
AcDbBlockReference
  2
_OPEN30
 10
-138.5
 20
9.999999999999952
 30
0.0
 41
2.5
 42
2.5
 43
2.5
 50
90.0
  0
MTEXT
  5
2277
330
21F9
100
AcDbEntity
  8
AM_5
 62
     2
100
AcDbMText
 10
-141.6
 20
-0.0000000000000817
 30
0.0
 40
3.2
 41
0.0
 71
     5
 72
     1
  1
%%c20
  7
ASAMI
 11
0.0000000000000001
 21
1.0
 31
0.0
1001
ACAD
1000
MTEXTBEGIN
1070
    73
1070
     1
1070
    44
1040
1.0
1070
    74
1070
     0
1000
MTEXTEND
  0
POINT
  5
2278
330
21F9
100
AcDbEntity
  8
DEFPOINTS
 62
     0
100
AcDbPoint
 10
-124.5
 20
-10.00000000000007
 30
0.0
  0
POINT
  5
2279
330
21F9
100
AcDbEntity
  8
DEFPOINTS
 62
     0
100
AcDbPoint
 10
-124.4999999999999
 20
9.99999999999995
 30
0.0
  0
POINT
  5
227A
330
21F9
100
AcDbEntity
  8
DEFPOINTS
 62
     0
100
AcDbPoint
 10
-138.5
 20
9.999999999999952
 30
0.0
  0
ENDBLK
  5
2204
330
21F9
100
AcDbEntity
  8
0
100
AcDbBlockEnd
  0
ENDSEC
  0
SECTION
  2
ENTITIES
  0
TEXT
  5
F17
330
1F
100
AcDbEntity
  8
AM_6
100
AcDbText
 10
-96.3095238095247
 20
-58.49999999999997
 30
0.0
 40
5.0
  1
SSUP4200ZX-R30
 72
     1
 11
-62.50000000000088
 21
-55.99999999999997
 31
0.0
100
AcDbText
 73
     2
  0
LINE
  5
1CA0
330
1F
100
AcDbEntity
  8
AM_0
100
AcDbLine
 10
-124.9999999999999
 20
8.999999999999952
 30
0.0
 11
-124.4999999999999
 21
9.99999999999995
 31
0.0
1001
GENIUS_GENFIL_13
1070
     0
1040
0.5
1040
0.5
1040
20.0
1040
0.0
1002
{
1002
}
1001
GENIUS_GENODEF_13
1002
{
1000
HIER
1070
     0
1002
}
1002
{
1000
MANEDIT
1070
     0
1002
}
1002
{
1000
NOSEL
1070
     0
1002
}
1002
{
1000
BEHIND
1070
     0
1002
}
1002
{
1000
REACTOR
1002
}
1001
GENIUS_GENOBJ-N-CHA_13
1002
{
1000
OWNER
1000
GEN
1002
}
  0
LINE
  5
1CA1
330
1F
100
AcDbEntity
  8
AM_0
100
AcDbLine
 10
-125.0
 20
-9.000000000000074
 30
0.0
 11
-124.5
 21
-10.00000000000007
 31
0.0
1001
GENIUS_GENFIL_13
1070
     0
1040
0.5
1040
0.5
1040
20.0
1040
0.0
1002
{
1002
}
1001
GENIUS_GENODEF_13
1002
{
1000
HIER
1070
     0
1002
}
1002
{
1000
MANEDIT
1070
     0
1002
}
1002
{
1000
NOSEL
1070
     0
1002
}
1002
{
1000
BEHIND
1070
     0
1002
}
1002
{
1000
REACTOR
1002
}
1001
GENIUS_GENOBJ-N-CHA_13
1002
{
1000
OWNER
1000
GEN
1002
}
  0
LINE
  5
1CA2
330
1F
100
AcDbEntity
  8
AM_0
100
AcDbLine
 10
-124.9999999999999
 20
8.990186431814416
 30
0.0
 11
-125.0
 21
-9.000000000000074
 31
0.0
  0
LINE
  5
1CA3
330
1F
100
AcDbEntity
  8
AM_0
100
AcDbLine
 10
-124.4999999999999
 20
-10.00000000000007
 30
0.0
 11
-124.4999999999999
 21
9.995093215907138
 31
0.0
  0
LINE
  5
1CA4
330
1F
100
AcDbEntity
  8
AM_0
100
AcDbLine
 10
-124.4999999999999
 20
9.99999999999995
 30
0.0
 11
-44.65583119923921
 21
9.999999999999923
 31
0.0
  0
LINE
  5
1CA5
330
1F
100
AcDbEntity
  8
AM_0
100
AcDbLine
 10
-124.5
 20
-10.00000000000007
 30
0.0
 11
-34.33666287570612
 21
-9.999999999999863
 31
0.0
  0
LINE
  5
1CA6
330
1F
100
AcDbEntity
  8
AM_7
  6
AM_ISO08W050X2
100
AcDbLine
 10
4.530570278608138
 20
0.0000000000000018
 30
0.0
 11
-127.5931415575491
 21
-0.000000000000079
 31
0.0
1001
GENIUS_GENODEF_13
1002
{
1000
HIER
1070
     0
1002
}
1002
{
1000
MANEDIT
1070
     0
1002
}
1002
{
1000
NOSEL
1070
     0
1002
}
1002
{
1000
BEHIND
1070
     0
1002
}
1002
{
1000
REACTOR
1002
}
1001
GENIUS_GENOBJ-N-CEN_13
1002
{
1000
OWNER
1000
GEN
1002
}
  0
LINE
  5
1E21
330
1F
100
AcDbEntity
  8
AM_0
100
AcDbLine
 10
-5.723664283320038
 20
9.999999999999921
 30
0.0
 11
-3.000000000000223
 21
9.999999999999921
 31
0.0
  0
LINE
  5
1E22
330
1F
100
AcDbEntity
  8
AM_0
100
AcDbLine
 10
-0.0197289338432121
 20
-0.2581505462321713
 30
0.0
 11
-2.456795008713147
 21
-0.0036021743380826
 31
0.0
  0
LINE
  5
1E23
330
1F
100
AcDbEntity
  8
AM_0
100
AcDbLine
 10
-0.2174941764379572
 20
-3.068936129025586
 30
0.0
 11
-0.0197289338432121
 21
-2.358150546232534
 31
0.0
  0
LINE
  5
1E24
330
1F
100
AcDbEntity
  8
AM_0
100
AcDbLine
 10
-0.0197289338432121
 20
-0.3001922403386726
 30
0.0
 11
-0.2174941764379572
 21
1.878514763874593
 31
0.0
  0
LINE
  5
1E25
330
1F
100
AcDbEntity
  8
AM_0
100
AcDbLine
 10
-0.2174941764379572
 20
1.878514763874593
 30
0.0
 11
-0.8218975319329635
 21
4.490336273418509
 31
0.0
  0
LINE
  5
1E27
330
1F
100
AcDbEntity
  8
AM_0
100
AcDbLine
 10
-6.646665208640229
 20
-9.999999999931214
 30
0.0
 11
-2.999875030068487
 21
-9.999848086914635
 31
0.0
  0
LINE
  5
1E29
330
1F
100
AcDbEntity
  8
AM_0
100
AcDbLine
 10
-0.4632815784779139
 20
-8.601428449664116
 30
0.0
 11
-0.7569832081280424
 21
-7.423666143019999
 31
0.0
  0
LINE
  5
1E2A
330
1F
100
AcDbEntity
  8
AM_0
100
AcDbLine
 10
-0.2174941764379572
 20
-3.068936129025586
 30
0.0
 11
-0.7552505009245485
 21
-4.319990026944649
 31
0.0
  0
LINE
  5
1E2B
330
1F
100
AcDbEntity
  8
AM_0
100
AcDbLine
 10
-0.1977652425983072
 20
-8.071053188701039
 30
0.0
 11
-0.1977652425983075
 21
-2.998028614877964
 31
0.0
  0
LINE
  5
1E2C
330
1F
100
AcDbEntity
  8
AM_0
100
AcDbLine
 10
-0.0000000000002225
 20
7.000000000004054
 30
0.0
 11
0.0000000000190625
 21
-6.999848089513416
 31
0.0
  0
LINE
  5
1E2D
330
1F
100
AcDbEntity
  8
AM_0
100
AcDbLine
 10
-38.00000000000435
 20
5.025173317180532
 30
0.0
 11
-38.00000000000435
 21
7.505543280844252
 31
0.0
  0
LINE
  5
1E2E
330
1F
100
AcDbEntity
  8
AM_11
100
AcDbLine
 10
-38.00000000000434
 20
9.999999999999923
 30
0.0
 11
-38.00000000000435
 21
-9.99456971703249
 31
0.0
  0
LINE
  5
1E2F
330
1F
100
AcDbEntity
  8
AM_11
100
AcDbLine
 10
-38.00000000000434
 20
9.999999999999923
 30
0.0
 11
-0.0000000000043547
 21
9.999999999999921
 31
0.0
  0
LINE
  5
1E30
330
1F
100
AcDbEntity
  8
AM_11
100
AcDbLine
 10
-0.000000000004348
 20
-9.999999999999998
 30
0.0
 11
-38.00000000000435
 21
-9.99456971703249
 31
0.0
  0
DIMENSION
  5
1E31
330
1F
100
AcDbEntity
  8
AM_5
100
AcDbDimension
  2
*D5
 10
13.51362766131874
 20
9.999999999999918
 30
0.0
 11
10.41362766131874
 21
-0.0000000000413025
 31
0.0
 70
    32
  1
%%c<>
  3
AM_JIS
100
AcDbAlignedDimension
 13
0.0000000000231953
 23
-10.00000000008252
 33
0.0
 14
0.0000000000231964
 24
9.999999999999921
 34
0.0
 50
90.0
100
AcDbRotatedDimension
1001
GENIUS_GENDTOL_13
1000

1000
h7
1000

1040
0.0
  0
SPLINE
  5
1E3E
330
1F
100
AcDbEntity
  8
AM_0
100
AcDbSpline
210
0.0
220
0.0
230
1.0
 70
     8
 71
     3
 72
     8
 73
     4
 74
     0
 42
0.0000000001
 43
0.0000000001
 40
0.6393216442353146
 40
0.6393216442353146
 40
0.6393216442353146
 40
0.6393216442353146
 40
10.49653484266006
 40
10.49653484266006
 40
10.49653484266006
 40
10.49653484266006
 10
-44.65583119925148
 20
9.999999999999921
 30
0.0
 10
-37.68311551828535
 20
8.508694158131222
 30
0.0
 10
-32.80734350264617
 20
4.380968960135307
 30
0.0
 10
-27.93157148700543
 20
0.2532437621393927
 30
0.0
  0
SPLINE
  5
1E3F
330
1F
100
AcDbEntity
  8
AM_0
100
AcDbSpline
210
0.0
220
0.0
230
1.0
 70
     8
 71
     3
 72
     8
 73
     4
 74
     0
 42
0.0000000001
 43
0.0000000001
 40
0.0
 40
0.0
 40
0.0
 40
0.0
 40
0.6152373134461622
 40
0.6152373134461622
 40
0.6152373134461622
 40
0.6152373134461622
 10
-30.23523308657733
 20
-9.507695016913885
 30
0.0
 10
-30.5894606306827
 20
-9.507695016913885
 30
0.0
 10
-30.94031512600654
 20
-9.491372672042333
 30
0.0
 10
-31.28799427104654
 20
-9.459684654813941
 30
0.0
  0
SPLINE
  5
1E40
330
1F
100
AcDbEntity
  8
AM_0
100
AcDbSpline
210
0.0
220
0.0
230
1.0
 70
     8
 71
     3
 72
     8
 73
     4
 74
     0
 42
0.0000000001
 43
0.0000000001
 40
0.0
 40
0.0
 40
0.0
 40
0.0
 40
6.420166228128741
 40
6.420166228128741
 40
6.420166228128741
 40
6.420166228128741
 10
-27.6719062624483
 20
-8.630633650315076
 30
0.0
 10
-31.36803919443721
 20
-8.573754883918182
 30
0.0
 10
-34.74583358045612
 20
-6.907281884850816
 30
0.0
 10
-38.00000000000435
 20
-4.615716937770001
 30
0.0
  0
SPLINE
  5
1E41
330
1F
100
AcDbEntity
  8
AM_0
100
AcDbSpline
210
0.0
220
0.0
230
1.0
 70
     8
 71
     3
 72
     8
 73
     4
 74
     0
 42
0.0000000001
 43
0.0000000001
 40
5.215942287204468
 40
5.215942287204468
 40
5.215942287204468
 40
5.215942287204468
 40
10.4969207889486
 40
10.4969207889486
 40
10.4969207889486
 40
10.4969207889486
 10
-38.0000000000043
 20
6.561309801787702
 30
0.0
 10
-35.32839019669687
 20
4.775925745098962
 30
0.0
 10
-32.78181164151748
 20
2.38550948050309
 30
0.0
 10
-30.23523308633855
 20
-0.0049067840927802
 30
0.0
  0
SPLINE
  5
1E42
330
1F
100
AcDbEntity
  8
AM_0
100
AcDbSpline
210
0.0
220
0.0
230
1.0
 70
     8
 71
     3
 72
     8
 73
     4
 74
     0
 42
0.0000000001
 43
0.0000000001
 40
6.902118198828401
 40
6.902118198828401
 40
6.902118198828401
 40
6.902118198828401
 40
10.61176705360581
 40
10.61176705360581
 40
10.61176705360581
 40
10.61176705360581
 10
-38.00000000000462
 20
5.025173317180134
 30
0.0
 10
-36.19587746265147
 20
3.490881274614056
 30
0.0
 10
-34.43793873132797
 20
1.742987245260623
 30
0.0
 10
-32.68000000000447
 20
-0.0049067840927802
 30
0.0
  0
SPLINE
  5
1E43
330
1F
100
AcDbEntity
  8
AM_0
100
AcDbSpline
210
0.0
220
0.0
230
1.0
 70
     8
 71
     3
 72
     8
 73
     4
 74
     0
 42
0.0000000001
 43
0.0000000001
 40
0.0
 40
0.0
 40
0.0
 40
0.0
 40
3.454506690841202
 40
3.454506690841202
 40
3.454506690841202
 40
3.454506690841202
 10
-14.0679603590656
 20
-9.507695016913885
 30
0.0
 10
-12.07900196130879
 20
-9.507695016914279
 30
0.0
 10
-10.1963866753188
 20
-8.993095597394328
 30
0.0
 10
-8.385117286341776
 20
-8.13324995950562
 30
0.0
  0
SPLINE
  5
1E44
330
1F
100
AcDbEntity
  8
AM_0
100
AcDbSpline
210
0.0
220
0.0
230
1.0
 70
     8
 71
     3
 72
     8
 73
     4
 74
     0
 42
0.0000000001
 43
0.0000000001
 40
0.6152373134470183
 40
0.6152373134470183
 40
0.6152373134470183
 40
0.6152373134470183
 40
8.843083020165714
 40
8.843083020165714
 40
8.843083020165714
 40
8.843083020165714
 10
-13.01519917459452
 20
9.449871086628263
 30
0.0
 10
-8.365529367004919
 20
9.026092959376455
 30
0.0
 10
-4.283768341459033
 20
5.85417699111622
 30
0.0
 10
-0.29705478381568
 20
2.222321765891139
 30
0.0
  0
SPLINE
  5
1E45
330
1F
100
AcDbEntity
  8
AM_0
100
AcDbSpline
210
0.0
220
0.0
230
1.0
 70
     8
 71
     3
 72
     8
 73
     4
 74
     0
 42
0.0000000001
 43
0.0000000001
 40
1.771838785102727
 40
1.771838785102727
 40
1.771838785102727
 40
1.771838785102727
 40
10.4969207889486
 40
10.4969207889486
 40
10.4969207889486
 40
10.4969207889486
 10
-0.8819306667733258
 20
-9.124414468741214
 30
0.0
 10
-5.653191499151121
 20
-7.903661882239346
 30
0.0
 10
-9.860575929107998
 20
-3.954284333166063
 30
0.0
 10
-14.0679603590656
 20
-0.0049067840927802
 30
0.0
  0
SPLINE
  5
1E46
330
1F
100
AcDbEntity
  8
AM_0
100
AcDbSpline
210
0.0
220
0.0
230
1.0
 70
     8
 71
     3
 72
     8
 73
     4
 74
     0
 42
0.0000000001
 43
0.0000000001
 40
3.266224444355238
 40
3.266224444355238
 40
3.266224444355238
 40
3.266224444355238
 40
10.49653484266006
 40
10.49653484266006
 40
10.49653484266006
 40
10.49653484266006
 10
-0.7569832081280424
 20
-7.423666143019545
 30
0.0
 10
-4.611497172753851
 20
-5.802166386681163
 30
0.0
 10
-8.187897966243953
 20
-2.774461312270885
 30
0.0
 10
-11.76429875973327
 20
0.2532437621393927
 30
0.0
  0
SPLINE
  5
1E47
330
1F
100
AcDbEntity
  8
AM_0
100
AcDbSpline
210
0.0
220
0.0
230
1.0
 70
     8
 71
     3
 72
     8
 73
     4
 74
     0
 42
0.0000000001
 43
0.0000000001
 40
0.6393216439718838
 40
0.6393216439718838
 40
0.6393216439718838
 40
0.6393216439718838
 40
6.996796499348805
 40
6.996796499348805
 40
6.996796499348805
 40
6.996796499348805
 10
-10.92905653617688
 20
9.073218044307852
 30
0.0
 10
-7.329884872491021
 20
8.709124629882809
 30
0.0
 10
-4.023852601112395
 20
6.862849804508643
 30
0.0
 10
-0.821897531932178
 20
4.490336273418509
 30
0.0
  0
SPLINE
  5
1E48
330
1F
100
AcDbEntity
  8
AM_0
100
AcDbSpline
210
0.0
220
0.0
230
1.0
 70
     8
 71
     3
 72
     8
 73
     4
 74
     0
 42
0.0000000001
 43
0.0000000001
 40
0.0
 40
0.0
 40
0.0
 40
0.0
 40
2.132060951928508
 40
2.132060951928508
 40
2.132060951928508
 40
2.132060951928508
 10
-12.02396398453076
 20
-8.630633650315076
 30
0.0
 10
-10.79652213685677
 20
-8.611744887544871
 30
0.0
 10
-9.604187466698606
 20
-8.415346014324034
 30
0.0
 10
-8.439828988123615
 20
-8.077492965371487
 30
0.0
  0
SPLINE
  5
1E49
330
1F
100
AcDbEntity
  8
AM_0
100
AcDbSpline
210
0.0
220
0.0
230
1.0
 70
     8
 71
     3
 72
     9
 73
     5
 74
     0
 42
0.0000000001
 43
0.0000000001
 40
0.0
 40
0.0
 40
0.0
 40
0.0
 40
0.6574415203969619
 40
3.123721247380082
 40
3.123721247380082
 40
3.123721247380082
 40
3.123721247380082
 10
-2.456795008713147
 20
-0.0036021743380826
 30
0.0
 10
-2.833791230558338
 20
0.0357745891688515
 30
0.0
 10
-4.982003590932128
 20
-1.295432540824608
 30
0.0
 10
-1.601792733116771
 20
-2.999935545104525
 30
0.0
 10
-0.7552505009245485
 20
-4.319990026944649
 30
0.0
  0
SPLINE
  5
1E4A
330
1F
100
AcDbEntity
  8
AM_0
100
AcDbSpline
210
0.0
220
0.0
230
1.0
 70
     8
 71
     3
 72
     8
 73
     4
 74
     0
 42
0.0000000001
 43
0.0000000001
 40
0.0
 40
0.0
 40
0.0
 40
0.0
 40
1.551838382253894
 40
1.551838382253894
 40
1.551838382253894
 40
1.551838382253894
 10
-0.7552505009080538
 20
-4.319990026970571
 30
0.0
 10
-0.4606730122397731
 20
-5.296703886006284
 30
0.0
 10
-0.5917961384801953
 20
-6.406941873392735
 30
0.0
 10
-0.7569832081280424
 20
-7.423666143019999
 30
0.0
  0
SPLINE
  5
1E4B
330
1F
100
AcDbEntity
  8
AM_0
100
AcDbSpline
210
0.0
220
0.0
230
1.0
 70
     8
 71
     3
 72
     8
 73
     4
 74
     0
 42
0.0000000001
 43
0.0000000001
 40
0.0
 40
0.0
 40
0.0
 40
0.0
 40
10.49692078894909
 40
10.49692078894909
 40
10.49692078894909
 40
10.49692078894909
 10
-14.06796035906481
 20
-9.507695016913885
 30
0.0
 10
-20.11164202542944
 20
-9.507695016913885
 30
0.0
 10
-25.17343755588401
 20
-4.756300900503331
 30
0.0
 10
-30.23523308633855
 20
-0.0049067840927802
 30
0.0
  0
SPLINE
  5
1E4C
330
1F
100
AcDbEntity
  8
AM_0
100
AcDbSpline
210
0.0
220
0.0
230
1.0
 70
     8
 71
     3
 72
     8
 73
     4
 74
     0
 42
0.0000000001
 43
0.0000000001
 40
0.0
 40
0.0
 40
0.0
 40
0.0
 40
10.49653484265986
 40
10.49653484265986
 40
10.49653484265986
 40
10.49653484265986
 10
-11.50463353493578
 20
-8.630633650315076
 30
0.0
 10
-17.54755932924683
 20
-8.53764073828165
 30
0.0
 10
-22.73956540812613
 20
-4.142198488071128
 30
0.0
 10
-27.93157148700543
 20
0.2532437621393927
 30
0.0
  0
SPLINE
  5
1E4D
330
1F
100
AcDbEntity
  8
AM_0
100
AcDbSpline
210
0.0
220
0.0
230
1.0
 70
     8
 71
     3
 72
     8
 73
     4
 74
     0
 42
0.0000000001
 43
0.0000000001
 40
0.0
 40
0.0
 40
0.0
 40
0.0
 40
10.61065478016067
 40
10.61065478016067
 40
10.61065478016067
 40
10.61065478016067
 10
-16.51272727273074
 20
-10.00018464190858
 30
0.0
 10
-22.62189214615659
 20
-10.00018464190858
 30
0.0
 10
-27.65094607308052
 20
-5.002545713000684
 30
0.0
 10
-32.68000000000447
 20
-0.0049067840927802
 30
0.0
  0
SPLINE
  5
1E4E
330
1F
100
AcDbEntity
  8
AM_0
100
AcDbSpline
210
0.0
220
0.0
230
1.0
 70
     8
 71
     3
 72
     8
 73
     4
 74
     0
 42
0.0000000001
 43
0.0000000001
 40
0.6152373134470183
 40
0.6152373134470183
 40
0.6152373134470183
 40
0.6152373134470183
 40
10.4969207889486
 40
10.4969207889486
 40
10.4969207889486
 40
10.4969207889486
 10
-29.18247190186748
 20
9.449871086628263
 30
0.0
 10
-23.59819541662914
 20
8.940911455320931
 30
0.0
 10
-18.83307788784777
 20
4.468002335614076
 30
0.0
 10
-14.06796035906481
 20
-0.0049067840927802
 30
0.0
  0
SPLINE
  5
1E4F
330
1F
100
AcDbEntity
  8
AM_0
100
AcDbSpline
210
0.0
220
0.0
230
1.0
 70
     8
 71
     3
 72
     8
 73
     4
 74
     0
 42
0.0000000001
 43
0.0000000001
 40
0.6393216442358057
 40
0.6393216442358057
 40
0.6393216442358057
 40
0.6393216442358057
 40
10.49653484266006
 40
10.49653484266006
 40
10.49653484266006
 40
10.49653484266006
 10
-27.09632926300054
 20
9.07321804426283
 30
0.0
 10
-21.51584279101318
 20
8.508694158130765
 30
0.0
 10
-16.64007077537323
 20
4.380968960135307
 30
0.0
 10
-11.76429875973327
 20
0.2532437621393927
 30
0.0
  0
SPLINE
  5
1E50
330
1F
100
AcDbEntity
  8
AM_0
100
AcDbSpline
210
0.0
220
0.0
230
1.0
 70
     8
 71
     3
 72
     8
 73
     4
 74
     0
 42
0.0000000001
 43
0.0000000001
 40
0.0
 40
0.0
 40
0.0
 40
0.0
 40
2.093133798227362
 40
2.093133798227362
 40
2.093133798227362
 40
2.093133798227362
 10
-16.51272727273153
 20
-10.00018464190813
 30
0.0
 10
-15.30758963132812
 20
-10.00490678409255
 30
0.0
 10
-14.14451235150422
 20
-9.810375896083087
 30
0.0
 10
-13.01519917459531
 20
-9.459684654814054
 30
0.0
  0
SPLINE
  5
1E51
330
1F
100
AcDbEntity
  8
AM_0
100
AcDbSpline
210
0.0
220
0.0
230
1.0
 70
     8
 71
     3
 72
     8
 73
     4
 74
     0
 42
0.0000000001
 43
0.0000000001
 40
0.0
 40
0.0
 40
0.0
 40
0.0
 40
3.977355368879245
 40
3.977355368879245
 40
3.977355368879245
 40
3.977355368879245
 10
-30.23523308657733
 20
-9.507695016913885
 30
0.0
 10
-27.94524060146533
 20
-9.50769501691434
 30
0.0
 10
-25.79621791521976
 20
-8.82553539735022
 30
0.0
 10
-23.73475060301661
 20
-7.719691122439142
 30
0.0
  0
SPLINE
  5
1E52
330
1F
100
AcDbEntity
  8
AM_0
100
AcDbSpline
210
0.0
220
0.0
230
1.0
 70
     8
 71
     3
 72
     8
 73
     4
 74
     0
 42
0.0000000001
 43
0.0000000001
 40
0.0
 40
0.0
 40
0.0
 40
0.0
 40
2.4079390838223
 40
2.4079390838223
 40
2.4079390838223
 40
2.4079390838223
 10
-28.19123671204327
 20
-8.630633650315076
 30
0.0
 10
-26.80496996602858
 20
-8.609300775155816
 30
0.0
 10
-25.46348358969776
 20
-8.361547864813019
 30
0.0
 10
-24.15650482123242
 20
-7.939316408573175
 30
0.0
  0
SPLINE
  5
1E53
330
1F
100
AcDbEntity
  8
AM_0
100
AcDbSpline
210
0.0
220
0.0
230
1.0
 70
     8
 71
     3
 72
     8
 73
     4
 74
     0
 42
0.0000000001
 43
0.0000000001
 40
0.2725981709865456
 40
0.2725981709865456
 40
0.2725981709865456
 40
0.2725981709865456
 40
2.093133798227362
 40
2.093133798227362
 40
2.093133798227362
 40
2.093133798227362
 10
-34.33666287570558
 20
-9.999999999999838
 30
0.0
 10
-33.2780118949452
 20
-9.951588891433857
 30
0.0
 10
-32.2702319448237
 20
-9.764703808120147
 30
0.0
 10
-31.28799427104654
 20
-9.459684654814083
 30
0.0
  0
SPLINE
  5
1E54
330
1F
100
AcDbEntity
  8
AM_0
100
AcDbSpline
210
0.0
220
0.0
230
1.0
 70
     8
 71
     3
 72
     8
 73
     4
 74
     0
 42
0.0000000001
 43
0.0000000001
 40
0.1925119343883644
 40
0.1925119343883644
 40
0.1925119343883644
 40
0.1925119343883644
 40
10.61176705360627
 40
10.61176705360627
 40
10.61176705360627
 40
10.61176705360627
 10
-6.646665208640229
 20
-9.999999999931214
 30
0.0
 10
-6.637716002041845
 20
-9.823493138829332
 30
0.0
 10
-11.57522163738668
 20
-4.914199961461055
 30
0.0
 10
-16.51272727273153
 20
-0.0049067840927802
 30
0.0
  0
SPLINE
  5
1E55
330
1F
100
AcDbEntity
  8
AM_0
100
AcDbSpline
210
0.0
220
0.0
230
1.0
 70
     8
 71
     3
 72
     8
 73
     4
 74
     0
 42
0.0000000001
 43
0.0000000001
 40
0.0
 40
0.0
 40
0.0
 40
0.0
 40
3.983447643433449
 40
3.983447643433449
 40
3.983447643433449
 40
3.983447643433449
 10
-32.68000000000368
 20
9.999999999999921
 30
0.0
 10
-34.97350015834382
 20
9.995093215906763
 30
0.0
 10
-37.11466617572731
 20
9.290541600059725
 30
0.0
 10
-39.16068127825815
 20
8.145913121688922
 30
0.0
  0
SPLINE
  5
1E56
330
1F
100
AcDbEntity
  8
AM_0
100
AcDbSpline
210
0.0
220
0.0
230
1.0
 70
     8
 71
     3
 72
     8
 73
     4
 74
     0
 42
0.0000000001
 43
0.0000000001
 40
0.0
 40
0.0
 40
0.0
 40
0.0
 40
10.61176705360661
 40
10.61176705360661
 40
10.61176705360661
 40
10.61176705360661
 10
-32.68000000000368
 20
9.999999999999921
 30
0.0
 10
-26.57019472671581
 20
9.995093215907218
 30
0.0
 10
-21.54146099972328
 20
4.995093215907218
 30
0.0
 10
-16.51272727273074
 20
-0.0049067840927802
 30
0.0
  0
SPLINE
  5
1E57
330
1F
100
AcDbEntity
  8
AM_0
100
AcDbSpline
210
0.0
220
0.0
230
1.0
 70
     8
 71
     3
 72
     8
 73
     4
 74
     0
 42
0.0000000001
 43
0.0000000001
 40
0.0
 40
0.0
 40
0.0
 40
0.0
 40
10.7633540680078
 40
10.7633540680078
 40
10.7633540680078
 40
10.7633540680078
 10
-16.51272727273074
 20
9.999999999999946
 30
0.0
 10
-10.31564462751412
 20
9.995093215907218
 30
0.0
 10
-5.181311281614505
 20
4.997546607953609
 30
0.0
 10
-0.0469779357148861
 20
-0.0000000000000023
 30
0.0
  0
SPLINE
  5
1E58
330
1F
100
AcDbEntity
  8
AM_0
100
AcDbSpline
210
0.0
220
0.0
230
1.0
 70
     8
 71
     3
 72
     8
 73
     4
 74
     0
 42
0.0000000001
 43
0.0000000001
 40
0.0
 40
0.0
 40
0.0
 40
0.0
 40
4.066976460604825
 40
4.066976460604825
 40
4.066976460604825
 40
4.066976460604825
 10
-16.51272727273074
 20
9.999999999999946
 30
0.0
 10
-18.85431978035207
 20
9.995093215906763
 30
0.0
 10
-21.03712258418083
 20
9.260684358619529
 30
0.0
 10
-23.12199208864501
 20
8.073329996940175
 30
0.0
  0
SPLINE
  5
1E59
330
1F
100
AcDbEntity
  8
AM_0
100
AcDbSpline
210
0.0
220
0.0
230
1.0
 70
     8
 71
     3
 72
     8
 73
     4
 74
     0
 42
0.0000000001
 43
0.0000000001
 40
0.0
 40
0.0
 40
0.0
 40
0.0
 40
4.066976460604845
 40
4.066976460604845
 40
4.066976460604845
 40
4.066976460604845
 10
-5.723664283320038
 20
9.999999999999921
 30
0.0
 10
-8.065256790933517
 20
9.995093215906763
 30
0.0
 10
-10.24805959476148
 20
9.260684358619529
 30
0.0
 10
-10.42725841633853
 20
9.012685137398282
 30
0.0
  0
SPLINE
  5
1E5A
330
1F
100
AcDbEntity
  8
AM_0
100
AcDbSpline
210
0.0
220
0.0
230
1.0
 70
     8
 71
     3
 72
     8
 73
     4
 74
     0
 42
0.0000000001
 43
0.0000000001
 40
0.7772464068581479
 40
0.7772464068581479
 40
0.7772464068581479
 40
0.7772464068581479
 40
2.847661750814433
 40
2.847661750814433
 40
2.847661750814433
 40
2.847661750814433
 10
-0.5138073931809184
 20
8.678942024549021
 30
0.0
 10
-1.089803215124676
 20
7.659955383831269
 30
0.0
 10
-2.670524185281065
 20
7.040346576561164
 30
0.0
 10
-4.205854711728955
 20
6.733089251446928
 30
0.0
  0
DIMENSION
  5
1E5B
330
1F
100
AcDbEntity
  8
AM_5
100
AcDbDimension
  2
*D6
 10
-38.00000000000435
 20
-23.99999999999996
 30
0.0
 11
-19.00000000000434
 21
-20.89999999999996
 31
0.0
 70
    32
  1
<>
  3
AM_JIS
100
AcDbAlignedDimension
 13
-0.0000000000043479
 23
-10.0
 33
0.0
 14
-38.00000000000435
 24
-9.99456971703249
 34
0.0
100
AcDbRotatedDimension
1001
GENIUS_GENDTOL_13
1000

1000
h7
1000

1040
0.0
  0
POLYLINE
  5
1E68
330
1F
100
AcDbEntity
  8
AM_0
100
AcDb2dPolyline
 66
     1
 10
0.0
 20
0.0
 30
0.0
 70
     2
  0
VERTEX
  5
1E69
330
1E68
100
AcDbEntity
  8
AM_0
100
AcDbVertex
100
AcDb2dVertex
 10
-38.00000000000435
 20
-4.615716937770001
 30
0.0
 42
-0.0129986936669445
  0
VERTEX
  5
1E6A
330
1E68
100
AcDbEntity
  8
AM_0
100
AcDbVertex
100
AcDb2dVertex
 10
-40.14094352947981
 20
-2.681749563141976
 30
0.0
 42
-0.0238378164251699
 70
     1
  0
VERTEX
  5
1E6B
330
1E68
100
AcDbEntity
  8
AM_0
100
AcDbVertex
100
AcDb2dVertex
 10
-41.23863636364072
 20
-1.530077104584732
 30
0.0
 42
-0.0087697151677761
  0
VERTEX
  5
1E6C
330
1E68
100
AcDbEntity
  8
AM_0
100
AcDbVertex
100
AcDb2dVertex
 10
-44.11648365552959
 20
1.910444821669615
 30
0.0
 42
-0.016586017082525
 70
     1
  0
VERTEX
  5
1E6D
330
1E68
100
AcDbEntity
  8
AM_0
100
AcDbVertex
100
AcDb2dVertex
 10
-45.55681818182253
 20
3.816934802125333
 30
0.0
 42
-0.0451742545712589
  0
VERTEX
  5
1E6E
330
1E68
100
AcDbEntity
  8
AM_0
100
AcDbVertex
100
AcDb2dVertex
 10
-46.52162203382038
 20
5.466622437145986
 30
0.0
 42
-0.1465772931919247
 70
     1
  0
VERTEX
  5
1E6F
330
1E68
100
AcDbEntity
  8
AM_0
100
AcDbVertex
100
AcDb2dVertex
 10
-46.63636363636799
 20
6.078306875650129
 30
0.0
 42
-0.2363269648915856
  0
VERTEX
  5
1E70
330
1E68
100
AcDbEntity
  8
AM_0
100
AcDbVertex
100
AcDb2dVertex
 10
-46.43325216628586
 20
6.469459201304404
 30
0.0
 42
-0.0944295254831177
 70
     1
  0
VERTEX
  5
1E71
330
1E68
100
AcDbEntity
  8
AM_0
100
AcDbVertex
100
AcDb2dVertex
 10
-45.55681818182253
 20
6.871284277688718
 30
0.0
 42
-0.0735428200704349
  0
VERTEX
  5
1E72
330
1E68
100
AcDbEntity
  8
AM_0
100
AcDbVertex
100
AcDb2dVertex
 10
-44.42634238079103
 20
6.926155422149607
 30
0.0
 42
-0.025664050315163
 70
     1
  0
VERTEX
  5
1E73
330
1E68
100
AcDbEntity
  8
AM_0
100
AcDbVertex
100
AcDb2dVertex
 10
-41.23863636364072
 20
6.34471749845392
 30
0.0
 42
-0.0327084143688329
  0
VERTEX
  5
1E74
330
1E68
100
AcDbEntity
  8
AM_0
100
AcDbVertex
100
AcDb2dVertex
 10
-39.7792840990615
 20
5.871680226462618
 30
0.0
 42
-0.0257576852941419
 70
     1
  0
VERTEX
  5
1E75
330
1E68
100
AcDbEntity
  8
AM_0
100
AcDbVertex
100
AcDb2dVertex
 10
-38.00000000000435
 20
5.025173317180532
 30
0.0
  0
SEQEND
  5
1E76
330
1E68
100
AcDbEntity
  8
AM_0
  0
DIMENSION
  5
1E77
330
1F
100
AcDbEntity
  8
AM_5
100
AcDbDimension
  2
*D7
 10
-0.0000000000043495
 20
-35.99999999999997
 30
0.0
 11
-62.50000000000217
 21
-32.89999999999997
 31
0.0
 70
    32
  1
<>
  3
AM_JIS
100
AcDbAlignedDimension
 13
-125.0
 23
-9.000000000000074
 33
0.0
 14
-0.0000000000043479
 24
-10.0
 34
0.0
100
AcDbRotatedDimension
1001
GENIUS_GENDTOL_13
1000

1000
h7
1000

1040
0.0
  0
LINE
  5
1F2A
330
1F
100
AcDbEntity
  8
AM_11
100
AcDbLine
 10
-0.0000000000043547
 20
9.999999999999921
 30
0.0
 11
-0.000000000004348
 21
-9.999999999999998
 31
0.0
  0
ARC
  5
2102
330
1F
100
AcDbEntity
  8
AM_0
100
AcDbCircle
 10
-2.999999999980937
 20
-6.999848089517548
 30
0.0
 40
3.0
100
AcDbArc
 50
270.0023867495171
 51
0.0000000000789159
1001
GENIUS_GENODEF_13
1002
{
1000
HIER
1070
     0
1002
}
1002
{
1000
MANEDIT
1070
     0
1002
}
1002
{
1000
NOSEL
1070
     0
1002
}
1002
{
1000
BEHIND
1070
     0
1002
}
1002
{
1000
REACTOR
1002
}
1001
GENIUS_GENOBJ-N-FIL_13
1002
{
1000
OWNER
1000
GEN
1002
}
  0
ARC
  5
2104
330
1F
100
AcDbEntity
  8
AM_0
100
AcDbCircle
 10
-3.000000000000222
 20
6.999999999999921
 30
0.0
 40
3.0
100
AcDbArc
 50
0.0000000000789159
 51
90.0
1001
GENIUS_GENODEF_13
1002
{
1000
HIER
1070
     0
1002
}
1002
{
1000
MANEDIT
1070
     0
1002
}
1002
{
1000
NOSEL
1070
     0
1002
}
1002
{
1000
BEHIND
1070
     0
1002
}
1002
{
1000
REACTOR
1002
}
1001
GENIUS_GENOBJ-N-FIL_13
1002
{
1000
OWNER
1000
GEN
1002
}
  0
DIMENSION
  5
210E
330
1F
100
AcDbEntity
  8
AM_5
100
AcDbDimension
  2
*D8
 10
-2.999999999980937
 20
-6.999848089517548
 30
0.0
 11
5.125292939552307
 21
-16.25751354012936
 31
0.0
 70
   164
  1
<>
  3
AM_JIS$4
100
AcDbRadialDimension
 15
-1.02106258407367
 25
-9.254577941167688
 35
0.0
 40
0.0
1001
GENIUS_GENDTOL_13
1000

1000
h7
1000

1040
0.0
1001
ACAD
1000
DSTYLE
1002
{
1070
   287
1070
     3
1070
   271
1070
     3
1070
   288
1070
     1
1070
   289
1070
     3
1070
   172
1070
     1
1070
    74
1070
     0
1002
}
  0
DIMENSION
  5
21F8
330
1F
100
AcDbEntity
  8
AM_5
100
AcDbDimension
  2
*D9
 10
-138.5
 20
9.999999999999952
 30
0.0
 11
-141.6
 21
-0.0000000000000817
 31
0.0
 70
    32
  1
%%c<>
  3
AM_JIS
100
AcDbAlignedDimension
 13
-124.5
 23
-10.00000000000007
 33
0.0
 14
-124.4999999999999
 24
9.99999999999995
 34
0.0
 50
270.0000000000002
100
AcDbRotatedDimension
1001
GENIUS_GENDTOL_13
1000

1000
h7
1000

1040
0.0
  0
VIEWPORT
  5
110
330
101
100
AcDbEntity
 67
     1
  8
0
100
AcDbViewport
 10
420.5
 20
297.0
 30
0.0
 40
948.9782706766916
 41
628.452
 68
     1
 69
     1
1001
ACAD
1000
MVIEW
1002
{
1070
    16
1010
0.0
1020
0.0
1030
0.0
1010
0.0
1020
0.0
1030
1.0
1040
0.0
1040
628.452
1040
420.5
1040
297.0
1040
50.0
1040
0.0
1040
0.0
1070
     0
1070
   100
1070
     1
1070
     1
1070
     0
1070
     0
1070
     0
1070
     0
1040
0.0
1040
0.0
1040
0.0
1040
10.0
1040
10.0
1040
10.0
1040
10.0
1070
     0
1002
{
1002
}
1002
}
  0
ENDSEC
  0
SECTION
  2
OBJECTS
  0
DICTIONARY
  5
C
330
0
100
AcDbDictionary
  3
ACAD_GROUP
350
D
  3
ACAD_LAYOUT
350
1A
  3
ACAD_MLINESTYLE
350
17
  3
ACAD_PLOTSETTINGS
350
19
  3
ACAD_PLOTSTYLENAME
350
E
  3
ACDBVARIABLEDICTIONARY
350
34
  3
ACMDICTIONARY
350
43
  3
AMG
350
2B
  3
AMGSNAPSETTINGS
350
6E
  3
DWGPROPS
350
2296
  3
ACDBHEADERROUNDTRIPXREC
350
22A2
  0
DICTIONARY
  5
74
330
1F
100
AcDbDictionary
280
     1
  3
ACAD_SORTENTS
360
1F82
  3
ACAD_INDEX
360
2298
  3
ACAD_LAYOUTSELFREF
360
22C5
  0
DICTIONARY
  5
22CA
330
101
100
AcDbDictionary
280
     1
  3
ACAD_LAYOUTSELFREF
360
22CB
  0
DICTIONARY
  5
D
102
{ACAD_REACTORS
330
C
102
}
330
C
100
AcDbDictionary
  0
DICTIONARY
  5
1A
102
{ACAD_REACTORS
330
C
102
}
330
C
100
AcDbDictionary
  0
DICTIONARY
  5
17
102
{ACAD_REACTORS
330
C
102
}
330
C
100
AcDbDictionary
  3
STANDARD
350
18
  0
DICTIONARY
  5
19
102
{ACAD_REACTORS
330
C
102
}
330
C
100
AcDbDictionary
  0
ACDBDICTIONARYWDFLT
  5
E
102
{ACAD_REACTORS
330
C
102
}
330
C
100
AcDbDictionary
281
     1
  3
Normal
350
F
100
AcDbDictionaryWithDefault
340
F
  0
DICTIONARY
  5
34
102
{ACAD_REACTORS
330
C
102
}
330
C
100
AcDbDictionary
  3
INDEXCTL
350
35
  3
SORTENTS
350
B5E
  0
DICTIONARY
  5
43
102
{ACAD_REACTORS
330
C
102
}
330
C
100
AcDbDictionary
  3
ACMSTDDICTIONARY
350
260
  0
DICTIONARY
  5
2B
102
{ACAD_REACTORS
330
C
102
}
330
C
100
AcDbDictionary
  3
ACMGSETTINGS
350
2C
  0
DICTIONARY
  5
6E
102
{ACAD_REACTORS
330
C
102
}
330
C
100
AcDbDictionary
  0
XRECORD
  5
2296
102
{ACAD_REACTORS
330
C
102
}
330
C
100
AcDbXrecord
  1
DWGPROPS COOKIE
  2

  3

  4

  6

  7

  8

  9

300
AmdtFileType=82
301
=
302
=
303
=
304
=
305
=
306
=
307
=
308
=
309
=
 40
0.0727548263888889
 41
2452809.403188831
 42
2452844.439949895
  1

 90
        1
  0
DICTIONARY
  5
22A2
102
{ACAD_REACTORS
330
C
102
}
330
C
100
AcDbDictionary
  3
TSTACKALIGN
350
22A3
  3
TSTACKSIZE
350
22A4
  3
HYPERLINKBASE
350
22A5
  3
STYLESHEET
350
22A6
  3
LAYOUTDICT
350
22A7
  3
PLOTSETDICT
350
22A8
  3
PLOTSTYLNAMDICT
350
22A9
  3
LWETCUNION
350
22AA
  3
INSUNITS
350
22AB
  3
CEPSNTYPE
350
22AC
  3
FINGERPRINTGUID
350
22AD
  3
VERSIONGUID
350
22AE
  3
PSVPSCALE
350
22AF
  3
DIMSTYLEDATA
350
22B0
  3
PUCSORTHOREF
350
22B1
  3
PUCSORTHOVIEW
350
22B2
  3
PUCSBASE
350
22B3
  3
PUCSORGTOP
350
22B4
  3
PUCSORGBOTTOM
350
22B5
  3
PUCSORGLEFT
350
22B6
  3
PUCSORGRIGHT
350
22B7
  3
PUCSORGFRONT
350
22B8
  3
PUCSORGBACK
350
22B9
  3
UCSORTHOREF
350
22BA
  3
UCSORTHOVIEW
350
22BB
  3
UCSBASE
350
22BC
  3
UCSORGTOP
350
22BD
  3
UCSORGBOTTOM
350
22BE
  3
UCSORGLEFT
350
22BF
  3
UCSORGRIGHT
350
22C0
  3
UCSORGFRONT
350
22C1
  3
UCSORGBACK
350
22C2
  0
SORTENTSTABLE
  5
1F82
102
{ACAD_REACTORS
330
74
102
}
330
74
100
AcDbSortentsTable
330
1F
331
1E51
  5
1E4E
331
1E58
  5
1E55
331
1E42
  5
1E3F
331
1E24
  5
1E23
331
1F2A
  5
1E5B
331
1E49
  5
1E46
331
1CA5
  5
1CA5
331
1E2B
  5
1E29
331
1E52
  5
1E4F
331
1E77
  5
1E5A
331
1E59
  5
1E56
331
1E43
  5
1E40
331
1E25
  5
1E24
331
1E2C
  5
1E68
331
1E4A
  5
1E47
331
1CA6
  5
1CA6
331
1E53
  5
1E50
331
1CA0
  5
1CA0
331
1E5A
  5
1E57
331
1E4B
  5
1E48
331
1E68
  5
1E59
331
1E2D
  5
1E2A
331
1E44
  5
1E41
331
1CA1
  5
1CA1
331
1E54
  5
1E51
331
1E5B
  5
1E58
331
1E45
  5
1E42
331
1E27
  5
2014
331
1E2E
  5
1E2B
331
1E4C
  5
1E49
331
1E3E
  5
1E2F
331
F17
  5
F17
331
1CA2
  5
1CA2
331
1E3F
  5
1E30
331
1E21
  5
1E77
331
1E46
  5
1E43
331
1E2F
  5
1E2C
331
1E4D
  5
1E4A
331
1E55
  5
1E52
331
1E56
  5
1E53
331
1E40
  5
1E31
331
1E47
  5
1E44
331
1E29
  5
1E27
331
1E4E
  5
1E4B
331
1E30
  5
1E2D
331
1E22
  5
1E21
331
1CA3
  5
1CA3
331
1E50
  5
1E4D
331
1CA4
  5
1CA4
331
1E57
  5
1E54
331
1E41
  5
1E3E
331
1E23
  5
1E22
331
1E2A
  5
1E28
331
1E4F
  5
1E4C
331
1E31
  5
1E2E
331
1E48
  5
1E45
  0
DICTIONARY
  5
2298
102
{ACAD_REACTORS
330
74
102
}
330
74
100
AcDbDictionary
  3
*A1
350
2299
  0
XRECORD
  5
22C5
102
{ACAD_REACTORS
330
74
102
}
330
74
100
AcDbXrecord
340
1F
  0
XRECORD
  5
22CB
102
{ACAD_REACTORS
330
22CA
102
}
330
22CA
100
AcDbXrecord
340
101
  0
MLINESTYLE
  5
18
102
{ACAD_REACTORS
330
17
102
}
330
17
100
AcDbMlineStyle
  2
STANDARD
 70
     0
  3

 62
   256
 51
90.0
 52
90.0
 71
     2
 49
0.5
 62
   256
  6
BYLAYER
 49
-0.5
 62
   256
  6
BYLAYER
  0
ACDBPLACEHOLDER
  5
F
102
{ACAD_REACTORS
330
E
102
}
330
E
100
AcDbPlaceHolder
280
     0
  0
DICTIONARYVAR
  5
35
102
{ACAD_REACTORS
330
34
102
}
330
34
100
DictionaryVariables
280
     0
  1
1
  0
DICTIONARYVAR
  5
B5E
102
{ACAD_REACTORS
330
34
102
}
330
34
100
DictionaryVariables
280
     0
  1
127
  0
DICTIONARY
  5
260
102
{ACAD_REACTORS
330
43
102
}
330
43
100
AcDbDictionary
  0
DICTIONARY
  5
2C
102
{ACAD_REACTORS
330
2B
102
}
330
2B
100
AcDbDictionary
  3
DWGSETTINGS
350
2D
  0
XRECORD
  5
22A3
102
{ACAD_REACTORS
330
22A2
102
}
330
22A2
100
AcDbXrecord
 90
        1
  0
XRECORD
  5
22A4
102
{ACAD_REACTORS
330
22A2
102
}
330
22A2
100
AcDbXrecord
 90
       70
  0
XRECORD
  5
22A5
102
{ACAD_REACTORS
330
22A2
102
}
330
22A2
100
AcDbXrecord
  1

  0
XRECORD
  5
22A6
102
{ACAD_REACTORS
330
22A2
102
}
330
22A2
100
AcDbXrecord
  1
ASAMI.ctb
  0
XRECORD
  5
22A7
102
{ACAD_REACTORS
330
22A2
102
}
330
22A2
100
AcDbXrecord
340
1A
  0
XRECORD
  5
22A8
102
{ACAD_REACTORS
330
22A2
102
}
330
22A2
100
AcDbXrecord
340
19
  0
XRECORD
  5
22A9
102
{ACAD_REACTORS
330
22A2
102
}
330
22A2
100
AcDbXrecord
340
E
  0
XRECORD
  5
22AA
102
{ACAD_REACTORS
330
22A2
102
}
330
22A2
100
AcDbXrecord
 90
    10781
  0
XRECORD
  5
22AB
102
{ACAD_REACTORS
330
22A2
102
}
330
22A2
100
AcDbXrecord
 90
        4
  0
XRECORD
  5
22AC
102
{ACAD_REACTORS
330
22A2
102
}
330
22A2
100
AcDbXrecord
 90
        0
  0
XRECORD
  5
22AD
102
{ACAD_REACTORS
330
22A2
102
}
330
22A2
100
AcDbXrecord
  1
{AFB28963-8C59-40AE-9337-C84526B81ACE}
  0
XRECORD
  5
22AE
102
{ACAD_REACTORS
330
22A2
102
}
330
22A2
100
AcDbXrecord
  1
{4AAF286C-22A5-4C1D-9CB0-2BE4056DC115}
  0
XRECORD
  5
22AF
102
{ACAD_REACTORS
330
22A2
102
}
330
22A2
100
AcDbXrecord
 40
0.0
  0
XRECORD
  5
22B0
102
{ACAD_REACTORS
330
22A2
102
}
330
22A2
100
AcDbXrecord
1000
DSTYLE
1002
{
1070
    79
 70
     2
1070
   341
340
59
1070
   342
340
59
1070
   371
 70
    -1
1070
   372
 70
    -1
1002
}
  0
XRECORD
  5
22B1
102
{ACAD_REACTORS
330
22A2
102
}
330
22A2
100
AcDbXrecord
340
0
  0
XRECORD
  5
22B2
102
{ACAD_REACTORS
330
22A2
102
}
330
22A2
100
AcDbXrecord
 70
     0
  0
XRECORD
  5
22B3
102
{ACAD_REACTORS
330
22A2
102
}
330
22A2
100
AcDbXrecord
340
0
  0
XRECORD
  5
22B4
102
{ACAD_REACTORS
330
22A2
102
}
330
22A2
100
AcDbXrecord
 10
0.0
 20
0.0
 30
0.0
  0
XRECORD
  5
22B5
102
{ACAD_REACTORS
330
22A2
102
}
330
22A2
100
AcDbXrecord
 10
0.0
 20
0.0
 30
0.0
  0
XRECORD
  5
22B6
102
{ACAD_REACTORS
330
22A2
102
}
330
22A2
100
AcDbXrecord
 10
0.0
 20
0.0
 30
0.0
  0
XRECORD
  5
22B7
102
{ACAD_REACTORS
330
22A2
102
}
330
22A2
100
AcDbXrecord
 10
0.0
 20
0.0
 30
0.0
  0
XRECORD
  5
22B8
102
{ACAD_REACTORS
330
22A2
102
}
330
22A2
100
AcDbXrecord
 10
0.0
 20
0.0
 30
0.0
  0
XRECORD
  5
22B9
102
{ACAD_REACTORS
330
22A2
102
}
330
22A2
100
AcDbXrecord
 10
0.0
 20
0.0
 30
0.0
  0
XRECORD
  5
22BA
102
{ACAD_REACTORS
330
22A2
102
}
330
22A2
100
AcDbXrecord
340
0
  0
XRECORD
  5
22BB
102
{ACAD_REACTORS
330
22A2
102
}
330
22A2
100
AcDbXrecord
 70
     0
  0
XRECORD
  5
22BC
102
{ACAD_REACTORS
330
22A2
102
}
330
22A2
100
AcDbXrecord
340
0
  0
XRECORD
  5
22BD
102
{ACAD_REACTORS
330
22A2
102
}
330
22A2
100
AcDbXrecord
 10
0.0
 20
0.0
 30
0.0
  0
XRECORD
  5
22BE
102
{ACAD_REACTORS
330
22A2
102
}
330
22A2
100
AcDbXrecord
 10
0.0
 20
0.0
 30
0.0
  0
XRECORD
  5
22BF
102
{ACAD_REACTORS
330
22A2
102
}
330
22A2
100
AcDbXrecord
 10
0.0
 20
0.0
 30
0.0
  0
XRECORD
  5
22C0
102
{ACAD_REACTORS
330
22A2
102
}
330
22A2
100
AcDbXrecord
 10
0.0
 20
0.0
 30
0.0
  0
XRECORD
  5
22C1
102
{ACAD_REACTORS
330
22A2
102
}
330
22A2
100
AcDbXrecord
 10
0.0
 20
0.0
 30
0.0
  0
XRECORD
  5
22C2
102
{ACAD_REACTORS
330
22A2
102
}
330
22A2
100
AcDbXrecord
 10
0.0
 20
0.0
 30
0.0
  0
LAYER_INDEX
  5
2299
102
{ACAD_REACTORS
330
2298
102
}
330
2298
100
AcDbIndex
 40
2452844.463843125
100
AcDbLayerIndex
  8
0
360
229A
 90
        0
  8
AM_0
360
229B
 90
       49
  8
AM_11
360
229C
 90
        4
  8
AM_7
360
229D
 90
        1
  8
AM_5
360
229E
 90
        5
  8
Defpoints
360
229F
 90
        0
  8
AM_6
360
22A0
 90
        1
  0
XRECORD
  5
2D
102
{ACAD_REACTORS
330
2C
102
}
330
2C
100
AcDbXrecord
  1
VERSION
140
15.0
  1
PRODUCT
  2
AutoCAD Mechanical 2000
  0
IDBUFFER
  5
229A
330
0
100
AcDbIdBuffer
  0
IDBUFFER
  5
229B
330
0
100
AcDbIdBuffer
330
2104
330
1CA0
330
1CA1
330
1CA2
330
1CA3
330
1CA4
330
1CA5
330
1E21
330
1E22
330
1E23
330
1E24
330
1E25
330
1E27
330
1E29
330
1E2A
330
1E2B
330
1E2C
330
1E2D
330
1E3E
330
1E3F
330
1E40
330
1E41
330
1E42
330
1E43
330
1E44
330
1E45
330
1E46
330
1E47
330
1E48
330
1E49
330
1E4A
330
1E4B
330
1E4C
330
1E4D
330
1E4E
330
1E4F
330
1E50
330
1E51
330
1E52
330
1E53
330
1E54
330
1E55
330
1E56
330
1E57
330
1E58
330
1E59
330
1E5A
330
1E68
330
2102
  0
IDBUFFER
  5
229C
330
0
100
AcDbIdBuffer
330
1E2E
330
1E2F
330
1E30
330
1F2A
  0
IDBUFFER
  5
229D
330
0
100
AcDbIdBuffer
330
1CA6
  0
IDBUFFER
  5
229E
330
0
100
AcDbIdBuffer
330
1E31
330
1E5B
330
1E77
330
210E
330
21F8
  0
IDBUFFER
  5
229F
330
0
100
AcDbIdBuffer
  0
IDBUFFER
  5
22A0
330
0
100
AcDbIdBuffer
330
F17
  0
ENDSEC
  0
EOF
