  0
SECTION
  2
HEADER
  9
$ACADVER
  1
AC1014
  9
$ACADMAINTVER
 70
     9
  9
$DWGCODEPAGE
  3
ANSI_932
  9
$INSBASE
 10
0.0
 20
0.0
 30
0.0
  9
$EXTMIN
 10
-178.6999999999999
 20
-68.50000000000004
 30
-0.00000001
  9
$EXTMAX
 10
15.00000000000016
 20
9.564961938192894
 30
0.00000001
  9
$LIMMIN
 10
-192.2790911742253
 20
-95.48418063795452
  9
$LIMMAX
 10
39.51859525356201
 20
29.81918975356029
  9
$ORTHOMODE
 70
     0
  9
$REGENMODE
 70
     1
  9
$FILLMODE
 70
     1
  9
$QTEXTMODE
 70
     0
  9
$MIRRTEXT
 70
     0
  9
$DRAGMODE
 70
     2
  9
$LTSCALE
 40
1.0
  9
$OSMODE
 70
  2103
  9
$ATTMODE
 70
     1
  9
$TEXTSIZE
 40
2.5
  9
$TRACEWID
 40
1.0
  9
$TEXTSTYLE
  7
STANDARD
  9
$CLAYER
  8
AM_0
  9
$CELTYPE
  6
BYLAYER
  9
$CECOLOR
 62
   256
  9
$CELTSCALE
 40
1.0
  9
$DELOBJ
 70
     1
  9
$DISPSILH
 70
     0
  9
$DIMSCALE
 40
1.0
  9
$DIMASZ
 40
2.5
  9
$DIMEXO
 40
1.0
  9
$DIMDLI
 40
12.0
  9
$DIMRND
 40
0.0
  9
$DIMDLE
 40
0.0
  9
$DIMEXE
 40
1.0
  9
$DIMTP
 40
0.1
  9
$DIMTM
 40
0.1
  9
$DIMTXT
 40
3.2
  9
$DIMCEN
 40
0.0
  9
$DIMTSZ
 40
0.0
  9
$DIMTOL
 70
     0
  9
$DIMLIM
 70
     0
  9
$DIMTIH
 70
     0
  9
$DIMTOH
 70
     0
  9
$DIMSE1
 70
     0
  9
$DIMSE2
 70
     0
  9
$DIMTAD
 70
     3
  9
$DIMZIN
 70
     8
  9
$DIMBLK
  1
OPEN30
  9
$DIMASO
 70
     1
  9
$DIMSHO
 70
     1
  9
$DIMPOST
  1

  9
$DIMAPOST
  1
"
  9
$DIMALT
 70
     0
  9
$DIMALTD
 70
     2
  9
$DIMALTF
 40
0.0393701
  9
$DIMLFAC
 40
1.0
  9
$DIMTOFL
 70
     1
  9
$DIMTVP
 40
0.0
  9
$DIMTIX
 70
     0
  9
$DIMSOXD
 70
     0
  9
$DIMSAH
 70
     0
  9
$DIMBLK1
  1

  9
$DIMBLK2
  1

  9
$DIMSTYLE
  2
AM_JIS
  9
$DIMCLRD
 70
   256
  9
$DIMCLRE
 70
   256
  9
$DIMCLRT
 70
     2
  9
$DIMTFAC
 40
0.71
  9
$DIMGAP
 40
1.5
  9
$DIMJUST
 70
     0
  9
$DIMSD1
 70
     0
  9
$DIMSD2
 70
     0
  9
$DIMTOLJ
 70
     0
  9
$DIMTZIN
 70
     0
  9
$DIMALTZ
 70
     0
  9
$DIMALTTZ
 70
     0
  9
$DIMFIT
 70
     3
  9
$DIMUPT
 70
     0
  9
$DIMUNIT
 70
     2
  9
$DIMDEC
 70
     3
  9
$DIMTDEC
 70
     3
  9
$DIMALTU
 70
     2
  9
$DIMALTTD
 70
     2
  9
$DIMTXSTY
  7
ASAMI
  9
$DIMAUNIT
 70
     0
  9
$LUNITS
 70
     2
  9
$LUPREC
 70
     2
  9
$SKETCHINC
 40
1.0
  9
$FILLETRAD
 40
2.5
  9
$AUNITS
 70
     0
  9
$AUPREC
 70
     0
  9
$MENU
  1
.
  9
$ELEVATION
 40
0.0
  9
$PELEVATION
 40
0.0
  9
$THICKNESS
 40
0.0
  9
$LIMCHECK
 70
     0
  9
$BLIPMODE
 70
     0
  9
$CHAMFERA
 40
0.5
  9
$CHAMFERB
 40
0.5
  9
$CHAMFERC
 40
20.0
  9
$CHAMFERD
 40
0.0
  9
$SKPOLY
 70
     0
  9
$TDCREATE
 40
2452809.475734583
  9
$TDUPDATE
 40
2452844.576401365
  9
$TDINDWG
 40
0.0295597917
  9
$TDUSRTIMER
 40
0.0295596181
  9
$USRTIMER
 70
     1
  9
$ANGBASE
 50
0.0
  9
$ANGDIR
 70
     0
  9
$PDMODE
 70
     0
  9
$PDSIZE
 40
0.0
  9
$PLINEWID
 40
0.0
  9
$COORDS
 70
     2
  9
$SPLFRAME
 70
     0
  9
$SPLINETYPE
 70
     6
  9
$SPLINESEGS
 70
     8
  9
$ATTDIA
 70
     1
  9
$ATTREQ
 70
     1
  9
$HANDLING
 70
 12289
  9
$HANDSEED
  5
18CA
  9
$SURFTAB1
 70
     6
  9
$SURFTAB2
 70
     6
  9
$SURFTYPE
 70
     6
  9
$SURFU
 70
     6
  9
$SURFV
 70
     6
  9
$UCSNAME
  2

  9
$UCSORG
 10
0.0
 20
0.0
 30
0.0
  9
$UCSXDIR
 10
1.0
 20
0.000000000000002
 30
0.0
  9
$UCSYDIR
 10
-0.000000000000002
 20
1.0
 30
0.0
  9
$PUCSNAME
  2

  9
$PUCSORG
 10
0.0
 20
0.0
 30
0.0
  9
$PUCSXDIR
 10
1.0
 20
0.0
 30
0.0
  9
$PUCSYDIR
 10
0.0
 20
1.0
 30
0.0
  9
$USERI1
 70
     0
  9
$USERI2
 70
     0
  9
$USERI3
 70
     0
  9
$USERI4
 70
     0
  9
$USERI5
 70
     0
  9
$USERR1
 40
0.0
  9
$USERR2
 40
0.0
  9
$USERR3
 40
0.0
  9
$USERR4
 40
0.0
  9
$USERR5
 40
0.0
  9
$WORLDVIEW
 70
     1
  9
$SHADEDGE
 70
     3
  9
$SHADEDIF
 70
    70
  9
$TILEMODE
 70
     1
  9
$MAXACTVP
 70
    64
  9
$PINSBASE
 10
0.0
 20
0.0
 30
0.0
  9
$PLIMCHECK
 70
     0
  9
$PEXTMIN
 10
1.000000000000000E+20
 20
1.000000000000000E+20
 30
1.000000000000000E+20
  9
$PEXTMAX
 10
-1.000000000000000E+20
 20
-1.000000000000000E+20
 30
-1.000000000000000E+20
  9
$PLIMMIN
 10
0.0
 20
0.0
  9
$PLIMMAX
 10
841.0
 20
594.0
  9
$UNITMODE
 70
     0
  9
$VISRETAIN
 70
     1
  9
$PLINEGEN
 70
     0
  9
$PSLTSCALE
 70
     0
  9
$TREEDEPTH
 70
  3020
  9
$PICKSTYLE
 70
     0
  9
$CMLSTYLE
  2
STANDARD
  9
$CMLJUST
 70
     0
  9
$CMLSCALE
 40
20.0
  9
$PROXYGRAPHICS
 70
     1
  9
$MEASUREMENT
 70
     1
  0
ENDSEC
  0
SECTION
  2
CLASSES
  0
CLASS
  1
ACDBDICTIONARYWDFLT
  2
AcDbDictionaryWithDefault
  3
AutoCAD 2000
 90
        0
280
     0
281
     0
  0
CLASS
  1
ACDBPLACEHOLDER
  2
AcDbPlaceHolder
  3
AutoCAD 2000
 90
        0
280
     0
281
     0
  0
CLASS
  1
LAYOUT
  2
AcDbLayout
  3
AutoCAD 2000
 90
        0
280
     0
281
     0
  0
CLASS
  1
AMGSETTINGSOBJ
  2
AmgSettingsObj
  3
"AcadM|Product Description: AutoCAD Mechanical 2000|Company: Autodesk"
 90
        0
280
     0
281
     0
  0
CLASS
  1
ACME_DOCUMENT
  2
AcMeDbDoc
  3
AcMeServices
 90
        0
280
     0
281
     0
  0
CLASS
  1
ACMESCOPE
  2
AcMeScope
  3
AcMeServices
 90
        0
280
     0
281
     0
  0
CLASS
  1
ACMECOMMANDHISTORY
  2
AcMeCommandHistory
  3
AcMeServices
 90
        0
280
     0
281
     0
  0
CLASS
  1
DICTIONARYVAR
  2
AcDbDictionaryVar
  3
AutoCAD 2000
 90
        0
280
     0
281
     0
  0
CLASS
  1
ACIMSYSVARMAN
  2
AcImSysVarManager
  3
AcMeServices
 90
        0
280
     0
281
     0
  0
CLASS
  1
ACIMREALSYSVAR
  2
AcImRealSysVar
  3
AcMeServices
 90
        0
280
     0
281
     0
  0
CLASS
  1
ACIMINTSYSVAR
  2
AcImIntSysVar
  3
AcMeServices
 90
        0
280
     0
281
     0
  0
CLASS
  1
ACMEDRAWINGMAN
  2
AcMeDrawingMan
  3
AcMeServices
 90
        0
280
     0
281
     0
  0
CLASS
  1
ACMEVIEW
  2
AcMeView
  3
AcMeServices
 90
        0
280
     0
281
     0
  0
CLASS
  1
ACDBENTITYCACHE
  2
AcMeEntityCache
  3
AcMeServices
 90
        0
280
     0
281
     0
  0
CLASS
  1
GSMANAGER
  2
AcMeGSManager
  3
AcMeServices
 90
        0
280
     0
281
     0
  0
CLASS
  1
AmdtInternalReactor
  2
AmdtInternalReactor
  3
AcMeServices
 90
        0
280
     0
281
     0
  0
CLASS
  1
ACMESTATEMGR
  2
AcMeStateMgr
  3
AcMeServices
 90
        0
280
     0
281
     0
  0
CLASS
  1
ACME_DATABASE
  2
AcMeDbDatabase
  3
AcMeServices
 90
        0
280
     0
281
     0
  0
CLASS
  1
ACRFINSADJUSTERMGR
  2
AcRfInsAdjusterMgr
  3
AcMeServices
 90
        0
280
     0
281
     0
  0
CLASS
  1
ACMDATADICTIONARY
  2
AcmDataDictionary
  3
"AcmSymBB|Product Description: AutoCAD Mechanical 2000|Company: Autodesk"
 90
        0
280
     0
281
     0
  0
CLASS
  1
ACMDATAENTRYBLOCK
  2
AcmDataEntryBlock
  3
"AcmSymBB|Product Description: AutoCAD Mechanical 2000|Company: Autodesk"
 90
        0
280
     0
281
     0
  0
CLASS
  1
AMGOBJPROPCFG
  2
AmgObjPropCfg
  3
"AmgLay|Product Description: AutoCAD Mechanical 2000|Company: Autodesk"
 90
        1
280
     0
281
     0
  0
CLASS
  1
ACAMGFILTERDAT
  2
AcAmgFilterDat
  3
"AcadM|Product Description: AutoCAD Mechanical 2000|Company: Autodesk"
 90
        0
280
     0
281
     0
  0
CLASS
  1
LAYER_INDEX
  2
AcDbLayerIndex
  3
AutoCAD 2000
 90
        0
280
     0
281
     0
  0
CLASS
  1
IDBUFFER
  2
AcDbIdBuffer
  3
AutoCAD 2000
 90
        0
280
     0
281
     0
  0
CLASS
  1
ACIMSTRSYSVAR
  2
AcImStrSysVar
  3
AcMeServices
 90
        0
280
     0
281
     0
  0
CLASS
  1
ACMSTANDARDJIS
  2
AcmStandardJIS
  3
"AcmSymBB|Product Description: AutoCAD Mechanical 2000|Company: Autodesk"
 90
        0
280
     0
281
     0
  0
CLASS
  1
ACMSURFSTANDARDJIS
  2
AcmSurfTextStdJIS
  3
"AcmSymBB|Product Description: AutoCAD Mechanical 2000|Company: Autodesk"
 90
        0
280
     0
281
     0
  0
CLASS
  1
ACMFCFSTANDARDJIS
  2
AcmFCFStdJIS
  3
"AcmSymBB|Product Description: AutoCAD Mechanical 2000|Company: Autodesk"
 90
        0
280
     0
281
     0
  0
CLASS
  1
ACMWELDSTANDARDJIS
  2
AcmWeldingStdJIS
  3
"AcmSymBB|Product Description: AutoCAD Mechanical 2000|Company: Autodesk"
 90
        0
280
     0
281
     0
  0
CLASS
  1
ACMIDSTANDARDJIS
  2
AcmIdStdJIS
  3
"AcmSymBB|Product Description: AutoCAD Mechanical 2000|Company: Autodesk"
 90
        0
280
     0
281
     0
  0
CLASS
  1
ACMDATUMSTANDARDJIS
  2
AcmDatumStdJIS
  3
"AcmSymBB|Product Description: AutoCAD Mechanical 2000|Company: Autodesk"
 90
        0
280
     0
281
     0
  0
CLASS
  1
ACMBOMSTANDARDJIS
  2
AcmBOMStdJIS
  3
"AcmSymBB|Product Description: AutoCAD Mechanical 2000|Company: Autodesk"
 90
        0
280
     0
281
     0
  0
CLASS
  1
ACMSTANDARDANSI
  2
AcmStandardANSI
  3
"AcmSymBB|Product Description: AutoCAD Mechanical 2000|Company: Autodesk"
 90
        0
280
     0
281
     0
  0
CLASS
  1
ACMSURFSTANDARDANSI
  2
AcmSurfTextStdANSI
  3
"AcmSymBB|Product Description: AutoCAD Mechanical 2000|Company: Autodesk"
 90
        0
280
     0
281
     0
  0
CLASS
  1
ACMFCFSTANDARDANSI
  2
AcmFCFStdANSI
  3
"AcmSymBB|Product Description: AutoCAD Mechanical 2000|Company: Autodesk"
 90
        0
280
     0
281
     0
  0
CLASS
  1
ACMWELDSTANDARDANSI
  2
AcmWeldingStdANSI
  3
"AcmSymBB|Product Description: AutoCAD Mechanical 2000|Company: Autodesk"
 90
        0
280
     0
281
     0
  0
CLASS
  1
ACMIDSTANDARDANSI
  2
AcmIdStdANSI
  3
"AcmSymBB|Product Description: AutoCAD Mechanical 2000|Company: Autodesk"
 90
        0
280
     0
281
     0
  0
CLASS
  1
ACMDATUMSTANDARDANSI
  2
AcmDatumStdANSI
  3
"AcmSymBB|Product Description: AutoCAD Mechanical 2000|Company: Autodesk"
 90
        0
280
     0
281
     0
  0
CLASS
  1
ACMBOMSTANDARDANSI
  2
AcmBOMStdANSI
  3
"AcmSymBB|Product Description: AutoCAD Mechanical 2000|Company: Autodesk"
 90
        0
280
     0
281
     0
  0
CLASS
  1
ACMSTANDARDBSI
  2
AcmStandardBSI
  3
"AcmSymBB|Product Description: AutoCAD Mechanical 2000|Company: Autodesk"
 90
        0
280
     0
281
     0
  0
CLASS
  1
ACMSURFSTANDARDBSI
  2
AcmSurfTextStdBSI
  3
"AcmSymBB|Product Description: AutoCAD Mechanical 2000|Company: Autodesk"
 90
        0
280
     0
281
     0
  0
CLASS
  1
ACMFCFSTANDARDBSI
  2
AcmFCFStdBSI
  3
"AcmSymBB|Product Description: AutoCAD Mechanical 2000|Company: Autodesk"
 90
        0
280
     0
281
     0
  0
CLASS
  1
ACMWELDSTANDARDBSI
  2
AcmWeldingStdBSI
  3
"AcmSymBB|Product Description: AutoCAD Mechanical 2000|Company: Autodesk"
 90
        0
280
     0
281
     0
  0
CLASS
  1
ACMIDSTANDARDBSI
  2
AcmIdStdBSI
  3
"AcmSymBB|Product Description: AutoCAD Mechanical 2000|Company: Autodesk"
 90
        0
280
     0
281
     0
  0
CLASS
  1
ACMDATUMSTANDARDBSI
  2
AcmDatumStdBSI
  3
"AcmSymBB|Product Description: AutoCAD Mechanical 2000|Company: Autodesk"
 90
        0
280
     0
281
     0
  0
CLASS
  1
ACMBOMSTANDARDBSI
  2
AcmBOMStdBSI
  3
"AcmSymBB|Product Description: AutoCAD Mechanical 2000|Company: Autodesk"
 90
        0
280
     0
281
     0
  0
CLASS
  1
LONG_TRANSACTION
  2
AcDbLongTransaction
  3
AutoCAD 2000
 90
        0
280
     0
281
     0
  0
CLASS
  1
LWPOLYLINE
  2
AcDbPolyline
  3
AutoCAD 2000
 90
        0
280
     0
281
     1
  0
CLASS
  1
HATCH
  2
AcDbHatch
  3
AutoCAD 2000
 90
        0
280
     0
281
     1
  0
CLASS
  1
XRECORD
  2
AcDbXrecord
  3
AutoCAD 2000
 90
        0
280
     0
281
     0
  0
ENDSEC
  0
SECTION
  2
TABLES
  0
TABLE
  2
VPORT
  5
8
330
0
100
AcDbSymbolTable
 70
     3
  0
VPORT
  5
189F
330
8
100
AcDbSymbolTableRecord
100
AcDbViewportTableRecord
  2
*ACTIVE
 70
     0
 10
0.0
 20
0.0
 11
1.0
 21
1.0
 12
-81.85204832308729
 22
-29.47025715050006
 13
0.0
 23
0.0
 14
2.5
 24
2.5
 15
10.0
 25
10.0
 16
0.0
 26
0.0
 36
1.0
 17
0.0
 27
0.0
 37
0.0
 40
124.2158157728556
 41
1.56570841889117
 42
50.0
 43
0.0
 44
0.0
 50
0.0
 51
0.0
 71
     0
 72
   100
 73
     1
 74
     3
 75
     0
 76
     0
 77
     0
 78
     0
  0
ENDTAB
  0
TABLE
  2
LTYPE
  5
5
330
0
100
AcDbSymbolTable
 70
    10
  0
LTYPE
  5
14
330
5
100
AcDbSymbolTableRecord
100
AcDbLinetypeTableRecord
  2
BYBLOCK
 70
     0
  3

 72
    65
 73
     0
 40
0.0
  0
LTYPE
  5
15
330
5
100
AcDbSymbolTableRecord
100
AcDbLinetypeTableRecord
  2
BYLAYER
 70
     0
  3

 72
    65
 73
     0
 40
0.0
  0
LTYPE
  5
16
330
5
100
AcDbSymbolTableRecord
100
AcDbLinetypeTableRecord
  2
CONTINUOUS
 70
     0
  3
Solid line
 72
    65
 73
     0
 40
0.0
  0
LTYPE
  5
4B
330
5
100
AcDbSymbolTableRecord
100
AcDbLinetypeTableRecord
  2
AM_ISO02W050
 70
     0
  3
__ __ __ __ __ __ __ __ __ __ __ __ __ __ __
 72
    65
 73
     2
 40
7.5
 49
6.0
 74
     0
 49
-1.5
 74
     0
  0
LTYPE
  5
4C
330
5
100
AcDbSymbolTableRecord
100
AcDbLinetypeTableRecord
  2
AM_ISO08W050
 70
     0
  3
____ . ____ . ____ . ____ . ____ . ____ . ____
 72
    65
 73
     4
 40
18.0
 49
12.0
 74
     0
 49
-1.5
 74
     0
 49
3.0
 74
     0
 49
-1.5
 74
     0
  0
LTYPE
  5
4D
330
5
100
AcDbSymbolTableRecord
100
AcDbLinetypeTableRecord
  2
AM_ISO09W050
 70
     0
  3
_____ . . _____ . . _____ . . ____ .. ____
 72
    65
 73
     6
 40
22.5
 49
12.0
 74
     0
 49
-1.5
 74
     0
 49
3.0
 74
     0
 49
-1.5
 74
     0
 49
3.0
 74
     0
 49
-1.5
 74
     0
  0
LTYPE
  5
4E
330
5
100
AcDbSymbolTableRecord
100
AcDbLinetypeTableRecord
  2
AMCONSTR
 70
     0
  3
_______________________
 72
    65
 73
     2
 40
9999.0
 49
9999.0
 74
     0
 49
0.0
 74
     0
  0
LTYPE
  5
4F
330
5
100
AcDbSymbolTableRecord
100
AcDbLinetypeTableRecord
  2
AM_ISO02W050X2
 70
     0
  3
 _ _ _ _ _ _ _ _ _ _ _ _
 72
    65
 73
     2
 40
3.75
 49
3.0
 74
     0
 49
-0.75
 74
     0
  0
LTYPE
  5
50
330
5
100
AcDbSymbolTableRecord
100
AcDbLinetypeTableRecord
  2
AM_ISO08W050X2
 70
     0
  3
__ . __ . __ . __ . __ . __
 72
    65
 73
     4
 40
9.0
 49
6.0
 74
     0
 49
-0.75
 74
     0
 49
1.5
 74
     0
 49
-0.75
 74
     0
  0
LTYPE
  5
53
330
5
100
AcDbSymbolTableRecord
100
AcDbLinetypeTableRecord
  2
AMZIGZAG
 70
     0
  3
/\/-/\/-/\/-/\/-/\/-/\/
 72
    65
 73
     2
 40
11.00009999999999
 49
0.0001
 74
     4
 75
   135
340
52
 46
0.04
 50
0.0
 44
0.0
 45
0.0
 49
-11.0
 74
     0
  0
LTYPE
  5
166
330
5
100
AcDbSymbolTableRecord
100
AcDbLinetypeTableRecord
  2
ACJISTGL
 70
     0
  3
_ _ _ _ _
 72
    65
 73
     2
 40
3.0
 49
2.0
 74
     0
 49
-1.0
 74
     0
  0
LTYPE
  5
26A
330
5
100
AcDbSymbolTableRecord
100
AcDbLinetypeTableRecord
  2
ACJISTGB
 70
     0
  3
__ . . __ . .
 72
    65
 73
     6
 40
9.0
 49
4.0
 74
     0
 49
-1.0
 74
     0
 49
1.0
 74
     0
 49
-1.0
 74
     0
 49
1.0
 74
     0
 49
-1.0
 74
     0
  0
ENDTAB
  0
TABLE
  2
LAYER
  5
2
330
0
100
AcDbSymbolTable
 70
     7
  0
LAYER
  5
10
330
2
100
AcDbSymbolTableRecord
100
AcDbLayerTableRecord
  2
0
 70
     0
 62
     7
  6
CONTINUOUS
  0
LAYER
  5
3F9
330
2
100
AcDbSymbolTableRecord
100
AcDbLayerTableRecord
  2
AM_0
 70
     0
 62
     7
  6
CONTINUOUS
  0
LAYER
  5
BA4
330
2
100
AcDbSymbolTableRecord
100
AcDbLayerTableRecord
  2
AM_11
 70
     0
 62
     3
  6
AM_ISO09W050
  0
LAYER
  5
BA5
330
2
100
AcDbSymbolTableRecord
100
AcDbLayerTableRecord
  2
AM_7
 70
     0
 62
     4
  6
AM_ISO08W050
  0
LAYER
  5
CA1
330
2
100
AcDbSymbolTableRecord
100
AcDbLayerTableRecord
  2
AM_5
 70
     0
 62
     3
  6
CONTINUOUS
  0
LAYER
  5
D14
330
2
100
AcDbSymbolTableRecord
100
AcDbLayerTableRecord
  2
DEFPOINTS
 70
     0
 62
     7
  6
CONTINUOUS
  0
LAYER
  5
F74
330
2
100
AcDbSymbolTableRecord
100
AcDbLayerTableRecord
  2
AM_6
 70
     0
 62
     2
  6
CONTINUOUS
  0
ENDTAB
  0
TABLE
  2
STYLE
  5
3
330
0
100
AcDbSymbolTable
 70
     5
  0
STYLE
  5
11
330
3
100
AcDbSymbolTableRecord
100
AcDbTextStyleTableRecord
  2
STANDARD
 70
     0
 40
0.0
 41
1.0
 50
0.0
 71
     0
 42
2.5
  3
simplex.shx
  4
EXTFONT.SHX
  0
STYLE
  5
52
330
3
100
AcDbSymbolTableRecord
100
AcDbTextStyleTableRecord
  2

 70
     1
 40
0.0
 41
1.0
 50
0.0
 71
     0
 42
2.5
  3
ltypeshp.shx
  4

  0
STYLE
  5
6B
330
3
100
AcDbSymbolTableRecord
100
AcDbTextStyleTableRecord
  2
ASAMI
 70
     0
 40
0.0
 41
1.0
 50
0.0
 71
     0
 42
2.5
  3
simplex.shx
  4
EXTFONT.SHX
  0
STYLE
  5
262
330
3
100
AcDbSymbolTableRecord
100
AcDbTextStyleTableRecord
  2
ACJISTS
 70
     0
 40
1.0
 41
1.0
 50
0.0
 71
     0
 42
2.5
  3
simplex.shx
  4
bigfont.shx
  0
STYLE
  5
269
330
3
100
AcDbSymbolTableRecord
100
AcDbTextStyleTableRecord
  2
ACJISGDT
 70
     0
 40
0.0
 41
1.0
 50
0.0
 71
     0
 42
2.5
  3
amgdtans.shx
  4

  0
ENDTAB
  0
TABLE
  2
VIEW
  5
6
330
0
100
AcDbSymbolTable
 70
     0
  0
ENDTAB
  0
TABLE
  2
UCS
  5
7
330
0
100
AcDbSymbolTable
 70
     0
  0
ENDTAB
  0
TABLE
  2
APPID
  5
9
330
0
100
AcDbSymbolTable
 70
    12
  0
APPID
  5
12
330
9
100
AcDbSymbolTableRecord
100
AcDbRegAppTableRecord
  2
ACAD
 70
     0
  0
APPID
  5
30
330
9
100
AcDbSymbolTableRecord
100
AcDbRegAppTableRecord
  2
MCAD_NO_VIS
 70
     0
  0
APPID
  5
31
330
9
100
AcDbSymbolTableRecord
100
AcDbRegAppTableRecord
  2
ACAD_TEMP_GRAPHIC
 70
     0
  0
APPID
  5
2C2
330
9
100
AcDbSymbolTableRecord
100
AcDbRegAppTableRecord
  2
GENIUS_GENDTOL_13
 70
     0
  0
APPID
  5
339
330
9
100
AcDbSymbolTableRecord
100
AcDbRegAppTableRecord
  2
GENIUS_GENODEF_13
 70
     0
  0
APPID
  5
33A
330
9
100
AcDbSymbolTableRecord
100
AcDbRegAppTableRecord
  2
GENIUS_GENOBJ-N-RSBK_13
 70
     0
  0
APPID
  5
33B
330
9
100
AcDbSymbolTableRecord
100
AcDbRegAppTableRecord
  2
GENIUS_GENOBJ-N-LIB_13
 70
     0
  0
APPID
  5
33C
330
9
100
AcDbSymbolTableRecord
100
AcDbRegAppTableRecord
  2
GENIUS_GENSCALE_13
 70
     0
  0
APPID
  5
378
330
9
100
AcDbSymbolTableRecord
100
AcDbRegAppTableRecord
  2
GENIUS_GENDIMSH_14
 70
     0
  0
APPID
  5
BA6
330
9
100
AcDbSymbolTableRecord
100
AcDbRegAppTableRecord
  2
GENIUS_GENOBJ-N-CEN_13
 70
     0
  0
APPID
  5
D02
330
9
100
AcDbSymbolTableRecord
100
AcDbRegAppTableRecord
  2
GENIUS_GENFIL_13
 70
     0
  0
APPID
  5
D03
330
9
100
AcDbSymbolTableRecord
100
AcDbRegAppTableRecord
  2
GENIUS_GENOBJ-N-CHA_13
 70
     0
  0
ENDTAB
  0
TABLE
  2
DIMSTYLE
  5
A
330
0
100
AcDbSymbolTable
 70
     8
  0
DIMSTYLE
105
58
102
{ACAD_REACTORS
330
1363
330
1368
330
136D
330
136E
330
13B2
102
}
330
A
100
AcDbSymbolTableRecord
100
AcDbDimStyleTableRecord
  2
AM_JIS
 70
     0
  3

  4
"
  5
OPEN30
  6

  7

 40
1.0
 41
2.5
 42
1.0
 43
12.0
 44
1.0
 45
0.0
 46
0.0
 47
0.1
 48
0.1
140
3.2
141
0.0
142
0.0
143
0.0393701
144
1.0
145
0.0
146
0.71
147
1.5
 71
     0
 72
     0
 73
     0
 74
     0
 75
     0
 76
     0
 77
     3
 78
     8
170
     0
171
     2
172
     1
173
     0
174
     0
175
     0
176
   256
177
   256
178
     2
270
     2
271
     3
272
     3
273
     2
274
     2
340
6B
275
     0
280
     0
281
     0
282
     0
283
     0
284
     0
285
     0
286
     0
287
     3
288
     0
  0
DIMSTYLE
105
5F
330
A
100
AcDbSymbolTableRecord
100
AcDbDimStyleTableRecord
  2
AM_JIS$3
 70
     0
  3

  4
"
  5
OPEN30
  6

  7

 40
1.0
 41
2.5
 42
1.0
 43
10.0
 44
1.0
 45
0.0
 46
0.0
 47
0.1
 48
0.1
140
3.2
141
0.0
142
0.0
143
0.0393701
144
1.0
145
0.0
146
0.71
147
1.5
 71
     0
 72
     0
 73
     0
 74
     1
 75
     0
 76
     0
 77
     3
 78
     8
170
     0
171
     2
172
     0
173
     0
174
     0
175
     0
176
   256
177
   256
178
     2
270
     2
271
     2
272
     3
273
     2
274
     2
340
6B
275
     0
280
     0
281
     0
282
     0
283
     0
284
     0
285
     0
286
     0
287
     0
288
     1
  0
DIMSTYLE
105
60
330
A
100
AcDbSymbolTableRecord
100
AcDbDimStyleTableRecord
  2
AM_JIS$4
 70
     0
  3

  4
"
  5
OPEN30
  6

  7

 40
1.0
 41
2.5
 42
1.0
 43
10.0
 44
1.0
 45
0.0
 46
0.0
 47
0.1
 48
0.1
140
3.2
141
0.0
142
0.0
143
0.0393701
144
1.0
145
0.0
146
0.71
147
1.5
 71
     0
 72
     0
 73
     0
 74
     1
 75
     0
 76
     0
 77
     3
 78
     8
170
     0
171
     2
172
     0
173
     0
174
     0
175
     0
176
   256
177
   256
178
     2
270
     2
271
     2
272
     3
273
     2
274
     2
340
6B
275
     0
280
     0
281
     0
282
     0
283
     0
284
     0
285
     0
286
     0
287
     0
288
     1
  0
DIMSTYLE
105
61
330
A
100
AcDbSymbolTableRecord
100
AcDbDimStyleTableRecord
  2
AM_JIS$6
 70
     0
  3

  4
"
  5
OPEN30
  6

  7

 40
1.0
 41
2.5
 42
1.0
 43
10.0
 44
1.0
 45
0.0
 46
0.0
 47
0.1
 48
0.1
140
3.2
141
0.0
142
0.0
143
0.0393701
144
1.0
145
0.0
146
0.71
147
1.5
 71
     0
 72
     0
 73
     0
 74
     0
 75
     0
 76
     0
 77
     0
 78
     8
170
     0
171
     2
172
     1
173
     0
174
     0
175
     0
176
   256
177
   256
178
     2
270
     2
271
     2
272
     2
273
     2
274
     2
340
6B
275
     0
280
     0
281
     0
282
     0
283
     0
284
     0
285
     0
286
     0
287
     3
288
     0
  0
DIMSTYLE
105
62
330
A
100
AcDbSymbolTableRecord
100
AcDbDimStyleTableRecord
  2
AM_JIS$7
 70
     0
  3

  4
"
  5
OPEN30
  6

  7

 40
1.0
 41
2.5
 42
1.0
 43
10.0
 44
1.0
 45
0.0
 46
0.0
 47
0.1
 48
0.1
140
3.2
141
0.0
142
0.0
143
0.0393701
144
1.0
145
0.0
146
0.71
147
1.5
 71
     0
 72
     0
 73
     0
 74
     0
 75
     0
 76
     0
 77
     3
 78
     8
170
     0
171
     2
172
     1
173
     0
174
     0
175
     0
176
   256
177
   256
178
     2
270
     2
271
     2
272
     3
273
     2
274
     2
340
6B
275
     0
280
     0
281
     0
282
     0
283
     0
284
     0
285
     0
286
     0
287
     3
288
     0
  0
DIMSTYLE
105
63
330
A
100
AcDbSymbolTableRecord
100
AcDbDimStyleTableRecord
  2
AM_JIS$SF
 70
     0
  3

  4
"
  5
OPEN30
  6

  7

 40
1.0
 41
2.5
 42
1.0
 43
10.0
 44
1.0
 45
0.0
 46
0.0
 47
0.1
 48
0.1
140
3.2
141
0.0
142
0.0
143
0.0393701
144
1.0
145
0.0
146
0.71
147
1.5
 71
     0
 72
     0
 73
     0
 74
     0
 75
     1
 76
     1
 77
     3
 78
     8
170
     0
171
     2
172
     1
173
     0
174
     0
175
     0
176
   256
177
   256
178
     2
270
     2
271
     2
272
     2
273
     2
274
     2
340
6B
275
     0
280
     0
281
     0
282
     0
283
     0
284
     0
285
     0
286
     0
287
     3
288
     0
  0
DIMSTYLE
105
68
330
A
100
AcDbSymbolTableRecord
100
AcDbDimStyleTableRecord
  2
AM_JIS$SH
 70
     0
  3

  4
"
  5

  6
GENAXEH
  7
OPEN30
 40
1.0
 41
2.5
 42
1.0
 43
10.0
 44
1.0
 45
0.0
 46
0.0
 47
0.1
 48
0.1
140
3.2
141
0.0
142
0.0
143
0.0393701
144
2.0
145
0.0
146
0.71
147
1.5
 71
     0
 72
     0
 73
     0
 74
     0
 75
     1
 76
     1
 77
     3
 78
     8
170
     0
171
     2
172
     1
173
     1
174
     0
175
     0
176
   256
177
   256
178
     2
270
     2
271
     2
272
     2
273
     2
274
     2
340
6B
275
     0
280
     0
281
     0
282
     0
283
     0
284
     0
285
     0
286
     0
287
     3
288
     0
  0
DIMSTYLE
105
B34
330
A
100
AcDbSymbolTableRecord
100
AcDbDimStyleTableRecord
  2
AM_JIS$2
 70
     0
  3

  4
"
  5
OPEN30
  6

  7

 40
1.0
 41
2.5
 42
1.0
 43
12.0
 44
1.0
 45
0.0
 46
0.0
 47
0.1
 48
0.1
140
3.2
141
0.0
142
0.0
143
0.0393701
144
1.0
145
0.0
146
0.71
147
1.5
 71
     0
 72
     0
 73
     0
 74
     0
 75
     0
 76
     0
 77
     3
 78
     8
170
     0
171
     2
172
     1
173
     0
174
     0
175
     0
176
   256
177
   256
178
     2
270
     2
271
     3
272
     3
273
     2
274
     2
340
6B
275
     0
280
     0
281
     0
282
     0
283
     0
284
     0
285
     0
286
     0
287
     3
288
     0
  0
ENDTAB
  0
TABLE
  2
BLOCK_RECORD
  5
1
330
0
100
AcDbSymbolTable
 70
    10
  0
BLOCK_RECORD
  5
1F
102
{ACAD_XDICTIONARY
360
74
102
}
330
1
100
AcDbSymbolTableRecord
100
AcDbBlockTableRecord
  2
*MODEL_SPACE
  0
BLOCK_RECORD
  5
101
102
{ACAD_XDICTIONARY
360
18C8
102
}
330
1
100
AcDbSymbolTableRecord
100
AcDbBlockTableRecord
  2
*PAPER_SPACE
  0
BLOCK_RECORD
  5
59
330
1
100
AcDbSymbolTableRecord
100
AcDbBlockTableRecord
  2
_OPEN30
  0
BLOCK_RECORD
  5
64
330
1
100
AcDbSymbolTableRecord
100
AcDbBlockTableRecord
  2
GENAXEH
  0
BLOCK_RECORD
  5
13BF
330
1
100
AcDbSymbolTableRecord
100
AcDbBlockTableRecord
  2
*D5
  0
BLOCK_RECORD
  5
13CB
330
1
100
AcDbSymbolTableRecord
100
AcDbBlockTableRecord
  2
*D6
  0
BLOCK_RECORD
  5
13D7
330
1
100
AcDbSymbolTableRecord
100
AcDbBlockTableRecord
  2
*D7
  0
BLOCK_RECORD
  5
13E3
330
1
100
AcDbSymbolTableRecord
100
AcDbBlockTableRecord
  2
*D8
  0
BLOCK_RECORD
  5
13EF
330
1
100
AcDbSymbolTableRecord
100
AcDbBlockTableRecord
  2
*D9
  0
ENDTAB
  0
ENDSEC
  0
SECTION
  2
BLOCKS
  0
BLOCK
  5
20
330
1F
100
AcDbEntity
  8
0
100
AcDbBlockBegin
  2
*MODEL_SPACE
 70
     0
 10
0.0
 20
0.0
 30
0.0
  3
*MODEL_SPACE
  1

  0
ENDBLK
  5
21
330
1F
100
AcDbEntity
  8
0
100
AcDbBlockEnd
  0
BLOCK
  5
103
330
101
100
AcDbEntity
 67
     1
  8
0
100
AcDbBlockBegin
  2
*PAPER_SPACE
 70
     0
 10
0.0
 20
0.0
 30
0.0
  3
*PAPER_SPACE
  1

  0
ENDBLK
  5
104
330
101
100
AcDbEntity
 67
     1
  8
0
100
AcDbBlockEnd
  0
BLOCK
  5
5D
330
59
100
AcDbEntity
  8
0
100
AcDbBlockBegin
  2
_OPEN30
 70
     0
 10
0.0
 20
0.0
 30
0.0
  3
_OPEN30
  1

  0
LINE
  5
5A
330
59
100
AcDbEntity
  8
0
 62
     0
100
AcDbLine
 10
-1.0
 20
0.26794919
 30
0.0
 11
0.0
 21
0.0
 31
0.0
  0
LINE
  5
5B
330
59
100
AcDbEntity
  8
0
 62
     0
100
AcDbLine
 10
0.0
 20
0.0
 30
0.0
 11
-1.0
 21
-0.26794919
 31
0.0
  0
LINE
  5
5C
330
59
100
AcDbEntity
  8
0
 62
     0
100
AcDbLine
 10
0.0
 20
0.0
 30
0.0
 11
-1.0
 21
0.0
 31
0.0
  0
ENDBLK
  5
5E
330
59
100
AcDbEntity
  8
0
100
AcDbBlockEnd
  0
BLOCK
  5
66
330
64
100
AcDbEntity
  8
0
100
AcDbBlockBegin
  2
GENAXEH
 70
     0
 10
0.0
 20
0.0
 30
0.0
  3
GENAXEH
  1

  0
LINE
  5
65
330
64
100
AcDbEntity
  8
0
100
AcDbLine
 10
-1.0
 20
0.0
 30
0.0
 11
1.0
 21
0.0
 31
0.0
  0
ENDBLK
  5
67
330
64
100
AcDbEntity
  8
0
100
AcDbBlockEnd
  0
BLOCK
  5
13C9
330
13BF
100
AcDbEntity
  8
0
100
AcDbBlockBegin
  2
*D5
 70
     1
 10
0.0
 20
0.0
 30
0.0
  3
*D5
  1

  0
LINE
  5
17EF
330
13BF
100
AcDbEntity
  8
AM_5
100
AcDbLine
 10
-160.0
 20
-8.500000000000094
 30
0.0
 11
-160.0
 21
-46.99999999999997
 31
0.0
  0
LINE
  5
17F0
330
13BF
100
AcDbEntity
  8
AM_5
100
AcDbLine
 10
0.0000000000000007
 20
-7.000000000000001
 30
0.0
 11
-0.0000000000000018
 21
-46.99999999999997
 31
0.0
  0
LINE
  5
17F1
330
13BF
100
AcDbEntity
  8
AM_5
100
AcDbLine
 10
-157.5
 20
-45.99999999999996
 30
0.0
 11
-2.500000000000001
 21
-45.99999999999996
 31
0.0
  0
INSERT
  5
17F2
330
13BF
100
AcDbEntity
  8
AM_5
100
AcDbBlockReference
  2
_OPEN30
 10
-160.0
 20
-45.99999999999996
 30
0.0
 41
2.5
 42
2.5
 43
2.5
 50
180.0
  0
INSERT
  5
17F3
330
13BF
100
AcDbEntity
  8
AM_5
100
AcDbBlockReference
  2
_OPEN30
 10
-0.0000000000000017
 20
-45.99999999999996
 30
0.0
 41
2.5
 42
2.5
 43
2.5
  0
MTEXT
  5
17F4
330
13BF
100
AcDbEntity
  8
AM_5
 62
     2
100
AcDbMText
 10
-80.0
 20
-42.89999999999997
 30
0.0
 40
3.2
 41
0.0
 71
     5
 72
     1
  1
160
  7
ASAMI
1001
ACAD
1000
MTEXTBEGIN
1070
    73
1070
     1
1070
    44
1040
1.0
1070
    74
1070
     0
1000
MTEXTEND
  0
POINT
  5
17F5
330
13BF
100
AcDbEntity
  8
DEFPOINTS
 62
     0
100
AcDbPoint
 10
-160.0
 20
-7.500000000000094
 30
0.0
  0
POINT
  5
17F6
330
13BF
100
AcDbEntity
  8
DEFPOINTS
 62
     0
100
AcDbPoint
 10
0.0000000000000007
 20
-6.000000000000001
 30
0.0
  0
POINT
  5
17F7
330
13BF
100
AcDbEntity
  8
DEFPOINTS
 62
     0
100
AcDbPoint
 10
-0.0000000000000017
 20
-45.99999999999996
 30
0.0
  0
ENDBLK
  5
13CA
330
13BF
100
AcDbEntity
  8
0
100
AcDbBlockEnd
  0
BLOCK
  5
13D5
330
13CB
100
AcDbEntity
  8
0
100
AcDbBlockBegin
  2
*D6
 70
     1
 10
0.0
 20
0.0
 30
0.0
  3
*D6
  1

  0
LINE
  5
17B6
330
13CB
100
AcDbEntity
  8
AM_5
100
AcDbLine
 10
-160.4999999999999
 20
-8.000000000000094
 30
0.0
 11
-175.0
 21
-8.000000000000088
 31
0.0
  0
LINE
  5
17B7
330
13CB
100
AcDbEntity
  8
AM_5
100
AcDbLine
 10
-160.4999999999999
 20
7.999999999999792
 30
0.0
 11
-175.0
 21
7.999999999999796
 31
0.0
  0
LINE
  5
17B8
330
13CB
100
AcDbEntity
  8
AM_5
100
AcDbLine
 10
-174.0
 20
-5.50000000000009
 30
0.0
 11
-174.0
 21
5.499999999999795
 31
0.0
  0
INSERT
  5
17B9
330
13CB
100
AcDbEntity
  8
AM_5
100
AcDbBlockReference
  2
_OPEN30
 10
-174.0
 20
-8.00000000000009
 30
0.0
 41
2.5
 42
2.5
 43
2.5
 50
270.0
  0
INSERT
  5
17BA
330
13CB
100
AcDbEntity
  8
AM_5
100
AcDbBlockReference
  2
_OPEN30
 10
-174.0
 20
7.999999999999795
 30
0.0
 41
2.5
 42
2.5
 43
2.5
 50
90.0
  0
MTEXT
  5
17BB
330
13CB
100
AcDbEntity
  8
AM_5
 62
     2
100
AcDbMText
 10
-177.0999999999999
 20
-0.0000000000001682
 30
0.0
 40
3.2
 41
0.0
 71
     5
 72
     1
  1
%%c16
  7
ASAMI
 11
0.0000000000000001
 21
1.0
 31
0.0
1001
ACAD
1000
MTEXTBEGIN
1070
    73
1070
     1
1070
    44
1040
1.0
1070
    74
1070
     0
1000
MTEXTEND
  0
POINT
  5
17BC
330
13CB
100
AcDbEntity
  8
DEFPOINTS
 62
     0
100
AcDbPoint
 10
-159.4999999999999
 20
-8.000000000000094
 30
0.0
  0
POINT
  5
17BD
330
13CB
100
AcDbEntity
  8
DEFPOINTS
 62
     0
100
AcDbPoint
 10
-159.4999999999999
 20
7.999999999999792
 30
0.0
  0
POINT
  5
17BE
330
13CB
100
AcDbEntity
  8
DEFPOINTS
 62
     0
100
AcDbPoint
 10
-174.0
 20
7.999999999999795
 30
0.0
  0
ENDBLK
  5
13D6
330
13CB
100
AcDbEntity
  8
0
100
AcDbBlockEnd
  0
BLOCK
  5
13E1
330
13D7
100
AcDbEntity
  8
0
100
AcDbBlockBegin
  2
*D7
 70
     1
 10
0.0
 20
0.0
 30
0.0
  3
*D7
  1

  0
LINE
  5
17F8
330
13D7
100
AcDbEntity
  8
AM_5
100
AcDbLine
 10
-23.99999999999999
 20
-9.000000000000014
 30
0.0
 11
-23.99999999999999
 21
-22.99999999999996
 31
0.0
  0
LINE
  5
17F9
330
13D7
100
AcDbEntity
  8
AM_5
100
AcDbLine
 10
0.0000000000000007
 20
-7.000000000000001
 30
0.0
 11
-0.0000000000000003
 21
-22.99999999999996
 31
0.0
  0
LINE
  5
17FA
330
13D7
100
AcDbEntity
  8
AM_5
100
AcDbLine
 10
-21.49999999999999
 20
-21.99999999999997
 30
0.0
 11
-2.5
 21
-21.99999999999997
 31
0.0
  0
INSERT
  5
17FB
330
13D7
100
AcDbEntity
  8
AM_5
100
AcDbBlockReference
  2
_OPEN30
 10
-23.99999999999999
 20
-21.99999999999997
 30
0.0
 41
2.5
 42
2.5
 43
2.5
 50
180.0
  0
INSERT
  5
17FC
330
13D7
100
AcDbEntity
  8
AM_5
100
AcDbBlockReference
  2
_OPEN30
 10
-0.0000000000000003
 20
-21.99999999999997
 30
0.0
 41
2.5
 42
2.5
 43
2.5
  0
MTEXT
  5
17FD
330
13D7
100
AcDbEntity
  8
AM_5
 62
     2
100
AcDbMText
 10
-11.99999999999999
 20
-18.89999999999996
 30
0.0
 40
3.2
 41
0.0
 71
     5
 72
     1
  1
24
  7
ASAMI
1001
ACAD
1000
MTEXTBEGIN
1070
    73
1070
     1
1070
    44
1040
1.0
1070
    74
1070
     0
1000
MTEXTEND
  0
POINT
  5
17FE
330
13D7
100
AcDbEntity
  8
DEFPOINTS
 62
     0
100
AcDbPoint
 10
-23.99999999999999
 20
-8.000000000000014
 30
0.0
  0
POINT
  5
17FF
330
13D7
100
AcDbEntity
  8
DEFPOINTS
 62
     0
100
AcDbPoint
 10
0.0000000000000007
 20
-6.000000000000001
 30
0.0
  0
POINT
  5
1800
330
13D7
100
AcDbEntity
  8
DEFPOINTS
 62
     0
100
AcDbPoint
 10
-0.0000000000000003
 20
-21.99999999999997
 30
0.0
  0
ENDBLK
  5
13E2
330
13D7
100
AcDbEntity
  8
0
100
AcDbBlockEnd
  0
BLOCK
  5
13ED
330
13E3
100
AcDbEntity
  8
0
100
AcDbBlockBegin
  2
*D8
 70
     1
 10
0.0
 20
0.0
 30
0.0
  3
*D8
  1

  0
LINE
  5
17E6
330
13E3
100
AcDbEntity
  8
AM_5
100
AcDbLine
 10
0.0000000000000006
 20
-7.0
 30
0.0
 11
-0.0000000000000011
 21
-35.0000000000001
 31
0.0
  0
LINE
  5
17E7
330
13E3
100
AcDbEntity
  8
AM_5
100
AcDbLine
 10
-66.0
 20
-8.750000000000063
 30
0.0
 11
-66.0
 21
-35.0000000000001
 31
0.0
  0
LINE
  5
17E8
330
13E3
100
AcDbEntity
  8
AM_5
100
AcDbLine
 10
-2.5
 20
-34.0000000000001
 30
0.0
 11
-63.5
 21
-34.0000000000001
 31
0.0
  0
INSERT
  5
17E9
330
13E3
100
AcDbEntity
  8
AM_5
100
AcDbBlockReference
  2
_OPEN30
 10
-0.000000000000001
 20
-34.0000000000001
 30
0.0
 41
2.5
 42
2.5
 43
2.5
  0
INSERT
  5
17EA
330
13E3
100
AcDbEntity
  8
AM_5
100
AcDbBlockReference
  2
_OPEN30
 10
-66.0
 20
-34.0000000000001
 30
0.0
 41
2.5
 42
2.5
 43
2.5
 50
180.0
  0
MTEXT
  5
17EB
330
13E3
100
AcDbEntity
  8
AM_5
 62
     2
100
AcDbMText
 10
-33.0
 20
-30.9000000000001
 30
0.0
 40
3.2
 41
0.0
 71
     5
 72
     1
  1
66
  7
ASAMI
1001
ACAD
1000
MTEXTBEGIN
1070
    73
1070
     1
1070
    44
1040
1.0
1070
    74
1070
     0
1000
MTEXTEND
  0
POINT
  5
17EC
330
13E3
100
AcDbEntity
  8
DEFPOINTS
 62
     0
100
AcDbPoint
 10
0.0000000000000007
 20
-6.0
 30
0.0
  0
POINT
  5
17ED
330
13E3
100
AcDbEntity
  8
DEFPOINTS
 62
     0
100
AcDbPoint
 10
-66.0
 20
-7.750000000000063
 30
0.0
  0
POINT
  5
17EE
330
13E3
100
AcDbEntity
  8
DEFPOINTS
 62
     0
100
AcDbPoint
 10
-66.0
 20
-34.0000000000001
 30
0.0
  0
ENDBLK
  5
13EE
330
13E3
100
AcDbEntity
  8
0
100
AcDbBlockEnd
  0
BLOCK
  5
13F9
330
13EF
100
AcDbEntity
  8
0
100
AcDbBlockBegin
  2
*D9
 70
     1
 10
0.0
 20
0.0
 30
0.0
  3
*D9
  1

  0
LINE
  5
1802
330
13EF
100
AcDbEntity
  8
AM_5
100
AcDbLine
 10
1.0
 20
-8.0
 30
0.0
 11
15.00000000000016
 21
-8.000000000000005
 31
0.0
  0
LINE
  5
1803
330
13EF
100
AcDbEntity
  8
AM_5
100
AcDbLine
 10
0.9999999999999996
 20
8.0
 30
0.0
 11
15.00000000000016
 21
7.999999999999995
 31
0.0
  0
LINE
  5
1804
330
13EF
100
AcDbEntity
  8
AM_5
100
AcDbLine
 10
14.00000000000016
 20
-5.500000000000003
 30
0.0
 11
14.00000000000017
 21
5.499999999999995
 31
0.0
  0
INSERT
  5
1805
330
13EF
100
AcDbEntity
  8
AM_5
100
AcDbBlockReference
  2
_OPEN30
 10
14.00000000000016
 20
-8.000000000000003
 30
0.0
 41
2.5
 42
2.5
 43
2.5
 50
270.0
  0
INSERT
  5
1806
330
13EF
100
AcDbEntity
  8
AM_5
100
AcDbBlockReference
  2
_OPEN30
 10
14.00000000000017
 20
7.999999999999995
 30
0.0
 41
2.5
 42
2.5
 43
2.5
 50
90.0
  0
MTEXT
  5
1807
330
13EF
100
AcDbEntity
  8
AM_5
 62
     2
100
AcDbMText
 10
10.90000000000016
 20
0.0000000000000916
 30
0.0
 40
3.2
 41
0.0
 71
     5
 72
     1
  1
%%c16
  7
ASAMI
 11
0.0000000000000001
 21
1.0
 31
0.0
1001
ACAD
1000
MTEXTBEGIN
1070
    73
1070
     1
1070
    44
1040
1.0
1070
    74
1070
     0
1000
MTEXTEND
  0
POINT
  5
1808
330
13EF
100
AcDbEntity
  8
DEFPOINTS
 62
     0
100
AcDbPoint
 10
0.0000000000000009
 20
-8.0
 30
0.0
  0
POINT
  5
1809
330
13EF
100
AcDbEntity
  8
DEFPOINTS
 62
     0
100
AcDbPoint
 10
-0.0000000000000004
 20
8.0
 30
0.0
  0
POINT
  5
180A
330
13EF
100
AcDbEntity
  8
DEFPOINTS
 62
     0
100
AcDbPoint
 10
14.00000000000017
 20
7.999999999999995
 30
0.0
  0
ENDBLK
  5
13FA
330
13EF
100
AcDbEntity
  8
0
100
AcDbBlockEnd
  0
ENDSEC
  0
SECTION
  2
ENTITIES
  0
DIMENSION
  5
1363
330
1F
100
AcDbEntity
  8
AM_5
100
AcDbDimension
  2
*D5
 10
-0.0000000000000017
 20
-45.99999999999996
 30
0.0
 11
-80.0
 21
-42.89999999999997
 31
0.0
 70
    32
  1
<>
  3
AM_JIS
100
AcDbAlignedDimension
 13
-160.0
 23
-7.500000000000094
 33
0.0
 14
0.0000000000000007
 24
-6.000000000000001
 34
0.0
 50
0.0000000000001132
100
AcDbRotatedDimension
1001
GENIUS_GENDTOL_13
1000

1000
h7
1000

1040
0.0
  0
TEXT
  5
1364
330
1F
100
AcDbEntity
  8
AM_6
100
AcDbText
 10
-105.4761904761904
 20
-68.49999999999997
 30
0.0
 40
5.0
  1
SSUPR4160ZX
 72
     4
 11
-79.99999999999994
 21
-65.99999999999997
 31
0.0
100
AcDbText
  0
LINE
  5
1365
330
1F
100
AcDbEntity
  8
AM_0
100
AcDbLine
 10
-66.43301270189223
 20
7.999999999999932
 30
0.0
 11
-159.4999999999999
 21
7.9999999999998
 31
0.0
  0
LINE
  5
1366
330
1F
100
AcDbEntity
  8
AM_0
100
AcDbLine
 10
-159.4999999999999
 20
-8.000000000000149
 30
0.0
 11
-66.43301270189226
 21
-8.000000000000067
 31
0.0
  0
LINE
  5
1367
330
1F
100
AcDbEntity
  8
AM_7
100
AcDbLine
 10
-163.0
 20
-0.0000000000001745
 30
0.0
 11
3.0
 21
-0.000000000000036
 31
0.0
1001
GENIUS_GENODEF_13
1002
{
1000
HIER
1070
     0
1002
}
1002
{
1000
MANEDIT
1070
     0
1002
}
1002
{
1000
NOSEL
1070
     0
1002
}
1002
{
1000
BEHIND
1070
     0
1002
}
1002
{
1000
REACTOR
1002
}
1001
GENIUS_GENOBJ-N-CEN_13
1002
{
1000
OWNER
1000
GEN
1002
}
  0
DIMENSION
  5
1368
330
1F
100
AcDbEntity
  8
AM_5
100
AcDbDimension
  2
*D6
 10
-174.0
 20
7.999999999999795
 30
0.0
 11
-174.0
 21
-0.0000000000001686
 31
0.0
 70
   160
  1
%%c<>
  3
AM_JIS
100
AcDbAlignedDimension
 13
-159.4999999999999
 23
-8.000000000000094
 33
0.0
 14
-159.4999999999999
 24
7.999999999999792
 34
0.0
 50
270.0
100
AcDbRotatedDimension
1001
GENIUS_GENDTOL_13
1000

1000
h7
1000

1040
0.0
  0
LINE
  5
1369
330
1F
100
AcDbEntity
  8
AM_0
100
AcDbLine
 10
-160.0
 20
7.499999999999799
 30
0.0
 11
-160.0
 21
-7.500000000000148
 31
0.0
  0
LINE
  5
136A
330
1F
100
AcDbEntity
  8
AM_0
100
AcDbLine
 10
-159.4999999999999
 20
-8.000000000000149
 30
0.0
 11
-159.4999999999999
 21
7.999999999999828
 31
0.0
  0
LINE
  5
136B
330
1F
100
AcDbEntity
  8
AM_0
100
AcDbLine
 10
-160.0
 20
-7.500000000000148
 30
0.0
 11
-159.4999999999999
 21
-8.000000000000149
 31
0.0
1001
GENIUS_GENFIL_13
1070
     0
1040
0.5
1040
0.5
1040
20.0
1040
0.0
1002
{
1002
}
1001
GENIUS_GENODEF_13
1002
{
1000
HIER
1070
     0
1002
}
1002
{
1000
MANEDIT
1070
     0
1002
}
1002
{
1000
NOSEL
1070
     0
1002
}
1002
{
1000
BEHIND
1070
     0
1002
}
1002
{
1000
REACTOR
1002
}
1001
GENIUS_GENOBJ-N-CHA_13
1002
{
1000
OWNER
1000
GEN
1002
}
  0
LINE
  5
136C
330
1F
100
AcDbEntity
  8
AM_0
100
AcDbLine
 10
-160.0
 20
7.499999999999799
 30
0.0
 11
-159.4999999999999
 21
7.9999999999998
 31
0.0
1001
GENIUS_GENFIL_13
1070
     0
1040
0.5
1040
0.5
1040
20.0
1040
0.0
1002
{
1002
}
1001
GENIUS_GENODEF_13
1002
{
1000
HIER
1070
     0
1002
}
1002
{
1000
MANEDIT
1070
     0
1002
}
1002
{
1000
NOSEL
1070
     0
1002
}
1002
{
1000
BEHIND
1070
     0
1002
}
1002
{
1000
REACTOR
1002
}
1001
GENIUS_GENOBJ-N-CHA_13
1002
{
1000
OWNER
1000
GEN
1002
}
  0
DIMENSION
  5
136D
330
1F
100
AcDbEntity
  8
AM_5
100
AcDbDimension
  2
*D7
 10
-0.0000000000000003
 20
-21.99999999999997
 30
0.0
 11
-11.99999999999999
 21
-18.89999999999996
 31
0.0
 70
    32
  1
<>
  3
AM_JIS
100
AcDbAlignedDimension
 13
-23.99999999999999
 23
-8.000000000000014
 33
0.0
 14
0.0000000000000007
 24
-6.000000000000001
 34
0.0
 50
0.0000000000001132
100
AcDbRotatedDimension
1001
GENIUS_GENDTOL_13
1000

1000
h7
1000

1040
0.0
  0
DIMENSION
  5
136E
330
1F
100
AcDbEntity
  8
AM_5
100
AcDbDimension
  2
*D8
 10
-66.0
 20
-34.0000000000001
 30
0.0
 11
-33.0
 21
-30.9000000000001
 31
0.0
 70
    32
  1
<>
  3
AM_JIS
100
AcDbAlignedDimension
 13
0.0000000000000007
 23
-6.0
 33
0.0
 14
-66.0
 24
-7.750000000000063
 34
0.0
 50
0.0000000000001132
100
AcDbRotatedDimension
1001
GENIUS_GENDTOL_13
1000

1000
h7
1000

1040
0.0
  0
SPLINE
  5
136F
330
1F
100
AcDbEntity
  8
AM_0
100
AcDbSpline
210
0.0
220
0.0
230
1.0
 70
     8
 71
     3
 72
     8
 73
     4
 74
     0
 42
0.0000000001
 43
0.0000000001
 40
0.5179176998437139
 40
0.5179176998437139
 40
0.5179176998437139
 40
0.5179176998437139
 40
8.999068685365031
 40
8.999068685365031
 40
8.999068685365031
 40
8.999068685365031
 10
-20.53565905761897
 20
6.989205616728945
 30
0.0
 10
-16.10922988915081
 20
6.61833650304807
 30
0.0
 10
-12.45229901406892
 20
3.300857672542683
 30
0.0
 10
-8.795368138986304
 20
-0.0166211579628865
 30
0.0
  0
SPLINE
  5
1370
330
1F
100
AcDbEntity
  8
AM_0
100
AcDbSpline
210
0.0
220
0.0
230
1.0
 70
     8
 71
     3
 72
     8
 73
     4
 74
     0
 42
0.0000000001
 43
0.0000000001
 40
0.5179176998614976
 40
0.5179176998614976
 40
0.5179176998614976
 40
0.5179176998614976
 40
5.514523215700526
 40
5.514523215700526
 40
5.514523215700526
 40
5.514523215700526
 10
-7.975659057591109
 20
7.00582677468938
 30
0.0
 10
-5.367862021979089
 20
6.787332060670363
 30
0.0
 10
-3.02714918663878
 20
5.546102265239555
 30
0.0
 10
-0.7961699289309764
 20
3.884673973084413
 30
0.0
  0
SPLINE
  5
1371
330
1F
100
AcDbEntity
  8
AM_0
100
AcDbSpline
210
0.0
220
0.0
230
1.0
 70
     8
 71
     3
 72
     8
 73
     4
 74
     2
 42
0.0000000001
 43
0.0000000001
 44
0.0000000001
 12
0.9999878186055967
 22
0.0049358525525493
 32
0.0
 40
0.0
 40
0.0
 40
0.0
 40
0.0
 40
14.86445603795016
 40
14.86445603795016
 40
14.86445603795016
 40
14.86445603795016
 10
-12.8800000000072
 20
7.949745486753366
 30
0.0
 10
-7.925241677291009
 20
7.97420174117909
 30
0.0
 10
-4.122620838649178
 20
3.987100870589501
 30
0.0
 10
-0.3200000000073487
 20
-0.0000000000000867
 30
0.0
 11
-12.8800000000072
 21
7.949745486753366
 31
0.0
 11
-0.3200000000073487
 21
-0.0000000000000867
 31
0.0
  0
SPLINE
  5
1372
330
1F
100
AcDbEntity
  8
AM_0
100
AcDbSpline
210
0.0
220
0.0
230
1.0
 70
     8
 71
     3
 72
     8
 73
     4
 74
     0
 42
0.0000000001
 43
0.0000000001
 40
0.8291973398015029
 40
0.8291973398015029
 40
0.8291973398015029
 40
0.8291973398015029
 40
7.918446762666186
 40
7.918446762666186
 40
7.918446762666186
 40
7.918446762666186
 10
-9.860269208747556
 20
7.458364161576541
 30
0.0
 10
-6.219424628463093
 20
6.953311368792405
 30
0.0
 10
-3.149030935020709
 20
4.39164489137784
 30
0.0
 10
-0.1635695012617361
 20
1.523777036139749
 30
0.0
  0
SPLINE
  5
1373
330
1F
100
AcDbEntity
  8
AM_0
100
AcDbSpline
210
0.0
220
0.0
230
1.0
 70
     8
 71
     3
 72
     8
 73
     4
 74
     0
 42
0.0000000001
 43
0.0000000001
 40
0.829197339801526
 40
0.829197339801526
 40
0.829197339801526
 40
0.829197339801526
 40
9.158576263912857
 40
9.158576263912857
 40
9.158576263912857
 40
9.158576263912857
 10
-22.42026920874741
 20
7.441743003613468
 30
0.0
 10
-18.14252803981981
 20
6.848340819989974
 30
0.0
 10
-14.65227313261966
 20
3.415859831013499
 30
0.0
 10
-11.16201822542025
 20
-0.0166211579628865
 30
0.0
  0
SPLINE
  5
1374
330
1F
100
AcDbEntity
  8
AM_0
100
AcDbSpline
210
0.0
220
0.0
230
1.0
 70
     8
 71
     3
 72
     8
 73
     4
 74
     0
 42
0.0000000001
 43
0.0000000001
 40
0.0
 40
0.0
 40
0.0
 40
0.0
 40
2.57750390504933
 40
2.57750390504933
 40
2.57750390504933
 40
2.57750390504933
 10
-0.3200000000073487
 20
8.0
 30
0.0
 10
0.0563509847361274
 20
6.711485819362591
 30
0.0
 10
-1.575666419273693
 20
5.921802723950172
 30
0.0
 10
-3.339236040925243
 20
5.533166987377811
 30
0.0
  0
SPLINE
  5
1375
330
1F
100
AcDbEntity
  8
AM_0
100
AcDbSpline
210
0.0
220
0.0
230
1.0
 70
     8
 71
     3
 72
     8
 73
     4
 74
     0
 42
0.0000000001
 43
0.0000000001
 40
0.0
 40
0.0
 40
0.0
 40
0.0
 40
3.514580779201212
 40
3.514580779201212
 40
3.514580779201212
 40
3.514580779201212
 10
-0.3106010013594972
 20
7.966366644716348
 30
0.0
 10
-2.19442024891723
 20
7.975618619388392
 30
0.0
 10
-3.903950888490726
 20
7.410751535944932
 30
0.0
 10
-5.510970828543577
 20
6.488958709927377
 30
0.0
  0
SPLINE
  5
1376
330
1F
100
AcDbEntity
  8
AM_0
100
AcDbSpline
210
0.0
220
0.0
230
1.0
 70
     8
 71
     3
 72
     8
 73
     4
 74
     0
 42
0.0000000001
 43
0.0000000001
 40
0.0
 40
0.0
 40
0.0
 40
0.0
 40
3.514580779201212
 40
3.514580779201212
 40
3.514580779201212
 40
3.514580779201212
 10
-12.89585212337697
 20
7.966366644716257
 30
0.0
 10
-14.77027237228721
 20
7.975618619388392
 30
0.0
 10
-16.47980301186034
 20
7.410751535944932
 30
0.0
 10
-18.08682295191356
 20
6.488958709927377
 30
0.0
  0
SPLINE
  5
1377
330
1F
100
AcDbEntity
  8
AM_0
100
AcDbSpline
210
0.0
220
0.0
230
1.0
 70
     8
 71
     3
 72
     8
 73
     4
 74
     0
 42
0.0000000001
 43
0.0000000001
 40
0.0
 40
0.0
 40
0.0
 40
0.0
 40
0.0001935953510688
 40
0.0001935953510688
 40
0.0001935953510688
 40
0.0001935953510688
 10
-8.795368138986304
 20
7.040134035799932
 30
0.0
 10
-8.795264888132441
 20
7.040134035799932
 30
0.0
 10
-8.795161637703857
 20
7.040134034170845
 30
0.0
 10
-8.795058387700919
 20
7.040134030912762
 30
0.0
  0
SPLINE
  5
1378
330
1F
100
AcDbEntity
  8
AM_0
100
AcDbSpline
210
0.0
220
0.0
230
1.0
 70
     8
 71
     3
 72
     8
 73
     4
 74
     0
 42
0.0000000001
 43
0.0000000001
 40
0.0
 40
0.0
 40
0.0
 40
0.0
 40
0.0001935953510984
 40
0.0001935953510984
 40
0.0001935953510984
 40
0.0001935953510984
 10
-21.35536813898615
 20
7.023512877837042
 30
0.0
 10
-21.35526488813229
 20
7.023512877837042
 30
0.0
 10
-21.35516163770371
 20
7.023512876207954
 30
0.0
 10
-21.35505838770077
 20
7.023512872949872
 30
0.0
  0
SPLINE
  5
1379
330
1F
100
AcDbEntity
  8
AM_0
100
AcDbSpline
210
0.0
220
0.0
230
1.0
 70
     8
 71
     3
 72
     8
 73
     4
 74
     0
 42
0.0000000001
 43
0.0000000001
 40
0.0
 40
0.0
 40
0.0
 40
0.0
 40
2.142709433955016
 40
2.142709433955016
 40
2.142709433955016
 40
2.142709433955016
 10
-21.37122026235592
 20
-7.040134035800015
 30
0.0
 10
-20.22844189757997
 20
-7.040134035800015
 30
0.0
 10
-19.13777909254749
 20
-6.840569961314299
 30
0.0
 10
-18.08682295191356
 20
-6.488958709927368
 30
0.0
  0
SPLINE
  5
137A
330
1F
100
AcDbEntity
  8
AM_0
100
AcDbSpline
210
0.0
220
0.0
230
1.0
 70
     8
 71
     3
 72
     8
 73
     4
 74
     2
 42
0.0000000001
 43
0.0000000001
 44
0.0000000001
 12
-1.0
 22
0.0000000000000001
 32
0.0
 40
0.0
 40
0.0
 40
0.0
 40
0.0
 40
14.39850989658418
 40
14.39850989658418
 40
14.39850989658418
 40
14.39850989658418
 10
-8.811220262356073
 20
-7.056755193762723
 30
0.0
 10
-13.61072356121747
 20
-7.056755193762723
 30
0.0
 10
-17.49097191178687
 20
-3.536688175862804
 30
0.0
 10
-21.37122026235628
 20
-0.0166211579628865
 30
0.0
 11
-8.811220262356073
 21
-7.056755193762723
 31
0.0
 11
-21.37122026235628
 21
-0.0166211579628865
 31
0.0
  0
SPLINE
  5
137B
330
1F
100
AcDbEntity
  8
AM_0
100
AcDbSpline
210
0.0
220
0.0
230
1.0
 70
     8
 71
     3
 72
     8
 73
     4
 74
     2
 42
0.0000000001
 43
0.0000000001
 44
0.0000000001
 12
-1.0
 22
0.0000000000000001
 32
0.0
 40
0.0
 40
0.0
 40
0.0
 40
0.0
 40
14.65372202226036
 40
14.65372202226036
 40
14.65372202226036
 40
14.65372202226036
 10
-11.17787034878965
 20
-7.56499642060598
 30
0.0
 10
-16.06244435620977
 20
-7.564996420605979
 30
0.0
 10
-19.90015735249964
 20
-3.790808789284432
 30
0.0
 10
-23.7378703487895
 20
-0.0166211579628865
 30
0.0
 11
-11.17787034878965
 21
-7.56499642060598
 31
0.0
 11
-23.7378703487895
 21
-0.0166211579628865
 31
0.0
  0
SPLINE
  5
137C
330
1F
100
AcDbEntity
  8
AM_0
100
AcDbSpline
210
0.0
220
0.0
230
1.0
 70
     8
 71
     3
 72
     8
 73
     4
 74
     0
 42
0.0000000001
 43
0.0000000001
 40
0.0
 40
0.0
 40
0.0
 40
0.0
 40
8.399619336653909
 40
8.399619336653909
 40
8.399619336653909
 40
8.399619336653909
 10
-12.89585212337697
 20
-7.966366644716339
 30
0.0
 10
-17.37559453275207
 20
-7.988478262072744
 30
0.0
 10
-20.91352229745498
 20
-4.73134300090905
 30
0.0
 10
-24.36115767764676
 20
-1.159824201817896
 30
0.0
  0
SPLINE
  5
137D
330
1F
100
AcDbEntity
  8
AM_0
100
AcDbSpline
210
0.0
220
0.0
230
1.0
 70
     8
 71
     3
 72
     8
 73
     4
 74
     0
 42
0.0000000001
 43
0.0000000001
 40
0.0
 40
0.0
 40
0.0
 40
0.0
 40
2.142709433955016
 40
2.142709433955016
 40
2.142709433955016
 40
2.142709433955016
 10
-8.795368138986304
 20
-7.040134035799924
 30
0.0
 10
-7.652589774210355
 20
-7.040134035799924
 30
0.0
 10
-6.561926969177511
 20
-6.840569961314209
 30
0.0
 10
-5.510970828543577
 20
-6.488958709927368
 30
0.0
  0
SPLINE
  5
137E
330
1F
100
AcDbEntity
  8
AM_0
100
AcDbSpline
210
0.0
220
0.0
230
1.0
 70
     8
 71
     3
 72
     8
 73
     4
 74
     0
 42
0.0000000001
 43
0.0000000001
 40
2.924396646875711
 40
2.924396646875711
 40
2.924396646875711
 40
2.924396646875711
 40
8.999068685365031
 40
8.999068685365031
 40
8.999068685365031
 40
8.999068685365031
 10
-0.6547203188118146
 20
-6.062363325338532
 30
0.0
 10
-3.5567735728775
 20
-4.768946856292036
 30
0.0
 10
-6.176070855931902
 20
-2.392784007127461
 30
0.0
 10
-8.795368138986304
 20
-0.0166211579627955
 30
0.0
  0
SPLINE
  5
137F
330
1F
100
AcDbEntity
  8
AM_0
100
AcDbSpline
210
0.0
220
0.0
230
1.0
 70
     8
 71
     3
 72
     8
 73
     4
 74
     0
 42
0.0000000001
 43
0.0000000001
 40
1.045144398564957
 40
1.045144398564957
 40
1.045144398564957
 40
1.045144398564957
 40
9.158576263912857
 40
9.158576263912857
 40
9.158576263912857
 40
9.158576263912857
 10
-0.2349065335911291
 20
-7.423156346702393
 30
0.0
 10
-4.362484757134733
 20
-6.703602477193266
 30
0.0
 10
-7.762251491277492
 20
-3.36011181757794
 30
0.0
 10
-11.16201822542025
 20
-0.0166211579627955
 30
0.0
  0
SPLINE
  5
1380
330
1F
100
AcDbEntity
  8
AM_0
100
AcDbSpline
210
0.0
220
0.0
230
1.0
 70
     8
 71
     3
 72
     8
 73
     4
 74
     2
 42
0.0000000001
 43
0.0000000001
 44
0.0000000001
 12
-0.9999878186055967
 22
-0.0049358525525494
 32
0.0
 40
0.0
 40
0.0
 40
0.0
 40
0.0
 40
14.8824708209189
 40
14.8824708209189
 40
14.8824708209189
 40
14.8824708209189
 10
-0.3200000000073487
 20
-8.000000000001271
 30
0.0
 10
-5.280763177231394
 20
-8.024485893864497
 30
0.0
 10
-9.080381588619298
 20
-4.020553525913691
 30
0.0
 10
-12.8800000000072
 20
-0.0166211579628865
 30
0.0
 11
-0.3200000000073487
 21
-8.000000000001271
 31
0.0
 11
-12.8800000000072
 21
-0.0166211579628865
 31
0.0
  0
SPLINE
  5
1381
330
1F
100
AcDbEntity
  8
AM_0
100
AcDbSpline
210
0.0
220
0.0
230
1.0
 70
     8
 71
     3
 72
     8
 73
     4
 74
     2
 42
0.0000000001
 43
0.0000000001
 44
0.0000000001
 12
0.2968072260726871
 22
-0.9549374170860815
 32
0.0
 13
-0.1104733016500219
 23
-0.9938790920542315
 33
0.0
 40
0.0
 40
0.0
 40
0.0
 40
0.0
 40
2.606371660580923
 40
2.606371660580923
 40
2.606371660580923
 40
2.606371660580923
 10
-0.656084060394278
 20
-3.455992021535434
 30
0.0
 10
-0.3982207461637822
 20
-4.28563262870927
 30
0.0
 10
-0.5587421579213397
 20
-5.198890558813849
 30
0.0
 10
-0.6547203188118146
 20
-6.062363325338532
 30
0.0
 11
-0.656084060394278
 21
-3.455992021535434
 31
0.0
 11
-0.6547203188118146
 21
-6.062363325338532
 31
0.0
  0
SPLINE
  5
1382
330
1F
100
AcDbEntity
  8
AM_0
100
AcDbSpline
210
0.0
220
0.0
230
1.0
 70
     8
 71
     3
 72
     8
 73
     4
 74
     0
 42
0.0000000001
 43
0.0000000001
 40
9.141233629465322
 40
9.141233629465322
 40
9.141233629465322
 40
9.141233629465322
 40
9.290285023718936
 40
9.290285023718936
 40
9.290285023718936
 40
9.290285023718936
 10
-0.1369698763483029
 20
-0.1918880764335838
 30
0.0
 10
-0.1979830895743362
 20
-0.1279364287045567
 30
0.0
 10
-0.2589915447908424
 20
-0.0639682143522762
 30
0.0
 10
-0.3200000000073487
 20
0.0000000000000043
 30
0.0
  0
SPLINE
  5
1383
330
1F
100
AcDbEntity
  8
AM_0
100
AcDbSpline
210
0.0
220
0.0
230
1.0
 70
     8
 71
     3
 72
     9
 73
     5
 74
     3
 42
0.0000000001
 43
0.0000000001
 44
0.0000000001
 12
-0.9959561288896109
 22
0.0898409112109892
 32
0.0
 13
0.5961652186767444
 23
-0.8028617764223863
 33
0.0
 40
0.0
 40
0.0
 40
0.0
 40
0.0
 40
1.051906432634695
 40
4.997953995807454
 40
4.997953995807454
 40
4.997953995807454
 40
4.997953995807454
 10
-2.232251604461271
 20
-0.002881739470736
 30
0.0
 10
-2.581469157328248
 20
0.028619671334798
 30
0.0
 10
-4.571392185884689
 20
-1.036346032659547
 30
0.0
 10
-1.440249496540371
 20
-2.39994843608368
 30
0.0
 10
-0.6560840604044643
 20
-3.455992021555716
 30
0.0
 11
-2.232251604461271
 21
-0.002881739470736
 31
0.0
 11
-3.192251604461489
 21
-0.4328900452252086
 31
0.0
 11
-0.6560840604044643
 21
-3.455992021555716
 31
0.0
  0
SPLINE
  5
1384
330
1F
100
AcDbEntity
  8
AM_0
100
AcDbSpline
210
0.0
220
0.0
230
1.0
 70
     8
 71
     3
 72
     8
 73
     4
 74
     0
 42
0.0000000001
 43
0.0000000001
 40
0.0
 40
0.0
 40
0.0
 40
0.0
 40
2.085529961854907
 40
2.085529961854907
 40
2.085529961854907
 40
2.085529961854907
 10
-11.16201822541988
 20
-7.54837526264318
 30
0.0
 10
-10.04973557909724
 20
-7.54837526264318
 30
0.0
 10
-8.991736197611679
 20
-7.352670938423848
 30
0.0
 10
-7.975659057591473
 20
-7.005826774689371
 30
0.0
  0
SPLINE
  5
1385
330
1F
100
AcDbEntity
  8
AM_0
100
AcDbSpline
210
0.0
220
0.0
230
1.0
 70
     8
 71
     3
 72
     8
 73
     4
 74
     0
 42
0.0000000001
 43
0.0000000001
 40
0.0
 40
0.0
 40
0.0
 40
0.0
 40
1.978364719412732
 40
1.978364719412732
 40
1.978364719412732
 40
1.978364719412732
 10
-12.8800000000072
 20
-7.949745486753358
 30
0.0
 10
-11.82488500258223
 20
-7.954953442246819
 30
0.0
 10
-10.82201671504408
 20
-7.778246770187065
 30
0.0
 10
-9.86026920882541
 20
-7.458364161602362
 30
0.0
  0
SPLINE
  5
1386
330
1F
100
AcDbEntity
  8
AM_0
100
AcDbSpline
210
0.0
220
0.0
230
1.0
 70
     8
 71
     3
 72
     8
 73
     4
 74
     0
 42
0.0000000001
 43
0.0000000001
 40
0.0
 40
0.0
 40
0.0
 40
0.0
 40
1.690066516727341
 40
1.690066516727341
 40
1.690066516727341
 40
1.690066516727341
 10
-21.38707238572569
 20
-7.056755193762723
 30
0.0
 10
-22.28844119464738
 20
-7.056755193762723
 30
0.0
 10
-23.15738735876621
 20
-6.932600428196014
 30
0.0
 10
-24.0
 20
-6.707607733450181
 30
0.0
  0
SPLINE
  5
1387
330
1F
100
AcDbEntity
  8
AM_0
100
AcDbSpline
210
0.0
220
0.0
230
1.0
 70
     8
 71
     3
 72
     8
 73
     4
 74
     0
 42
0.0000000001
 43
0.0000000001
 40
8.950064817795073
 40
8.950064817795073
 40
8.950064817795073
 40
8.950064817795073
 40
9.158576263912857
 40
9.158576263912857
 40
9.158576263912857
 40
9.158576263912857
 10
-24.00000000000036
 20
0.2411127945016275
 30
0.0
 10
-23.91261521383893
 20
0.1552311689162749
 30
0.0
 10
-23.82524278131422
 20
0.0693050054766943
 30
0.0
 10
-23.7378703487895
 20
-0.0166211579628865
 30
0.0
  0
SPLINE
  5
1388
330
1F
100
AcDbEntity
  8
AM_0
100
AcDbSpline
210
0.0
220
0.0
230
1.0
 70
     8
 71
     3
 72
     8
 73
     4
 74
     0
 42
0.0000000001
 43
0.0000000001
 40
6.974934265298577
 40
6.974934265298577
 40
6.974934265298577
 40
6.974934265298577
 40
8.999068685365031
 40
8.999068685365031
 40
8.999068685365031
 40
8.999068685365031
 10
-24.00000000000327
 20
2.318597435277574
 30
0.0
 10
-23.11676627814922
 20
1.566895772730099
 30
0.0
 10
-22.24399327025275
 20
0.7751373073836519
 30
0.0
 10
-21.37122026235628
 20
-0.0166211579628865
 30
0.0
  0
SPLINE
  5
1389
330
1F
100
AcDbEntity
  8
AM_0
100
AcDbSpline
210
0.0
220
0.0
230
1.0
 70
     8
 71
     3
 72
     8
 73
     4
 74
     0
 42
0.0000000001
 43
0.0000000001
 40
0.9308799986946773
 40
0.9308799986946773
 40
0.9308799986946773
 40
0.9308799986946773
 40
9.304213052490601
 40
9.304213052490601
 40
9.304213052490601
 40
9.304213052490601
 10
-24.0
 20
7.857027395466964
 30
0.0
 10
-19.73192369800573
 20
7.191379661922355
 30
0.0
 10
-16.30596184901298
 20
3.595689830961128
 30
0.0
 10
-12.88000000002023
 20
-0.0000000000000981
 30
0.0
  0
SPLINE
  5
138A
330
1F
100
AcDbEntity
  8
AM_0
100
AcDbSpline
210
0.0
220
0.0
230
1.0
 70
     8
 71
     3
 72
     8
 73
     4
 74
     0
 42
0.0000000001
 43
0.0000000001
 40
1.015969964738205
 40
1.015969964738205
 40
1.015969964738205
 40
1.015969964738205
 40
2.085529961854907
 40
2.085529961854907
 40
2.085529961854907
 40
2.085529961854907
 10
-23.99999999999999
 20
-7.749999999999976
 30
0.0
 10
-23.22189976424901
 20
-7.659778031945318
 30
0.0
 10
-22.84484551301706
 20
-7.245557915245127
 30
0.0
 10
-22.38560510563224
 20
-7.005826774689382
 30
0.0
  0
LINE
  5
138B
330
1F
100
AcDbEntity
  8
AM_11
100
AcDbLine
 10
-23.99999999999999
 20
7.999999999999984
 30
0.0
 11
0.0000000000000001
 21
8.0
 31
0.0
  0
LINE
  5
138C
330
1F
100
AcDbEntity
  8
AM_11
100
AcDbLine
 10
0.0
 20
-8.0
 30
0.0
 11
-23.99999999999999
 21
-8.000000000000014
 31
0.0
  0
LINE
  5
138F
330
1F
100
AcDbEntity
  8
AM_0
100
AcDbLine
 10
-66.0
 20
7.74999999999994
 30
0.0
 11
-66.0
 21
-7.750000000000059
 31
0.0
  0
LINE
  5
1390
330
1F
100
AcDbEntity
  8
AM_0
100
AcDbLine
 10
-66.43301270189225
 20
-8.000000000000067
 30
0.0
 11
-66.4330127018923
 21
7.999999999999932
 31
0.0
  0
LINE
  5
1391
330
1F
100
AcDbEntity
  8
AM_0
100
AcDbLine
 10
-66.0
 20
-7.750000000000033
 30
0.0
 11
-66.43301270189226
 21
-8.000000000000067
 31
0.0
  0
LINE
  5
1392
330
1F
100
AcDbEntity
  8
AM_0
100
AcDbLine
 10
-66.0
 20
7.74999999999994
 30
0.0
 11
-66.43301270189221
 21
7.999999999999932
 31
0.0
  0
LINE
  5
1393
330
1F
100
AcDbEntity
  8
AM_11
100
AcDbLine
 10
-23.99999999999999
 20
7.999999999999984
 30
0.0
 11
-23.99999999999999
 21
-8.000000000000014
 31
0.0
  0
POLYLINE
  5
1394
330
1F
100
AcDbEntity
  8
AM_0
100
AcDb2dPolyline
 66
     1
 10
0.0
 20
0.0
 30
0.0
  0
VERTEX
  5
1395
330
1394
100
AcDbEntity
  8
AM_0
100
AcDbVertex
100
AcDb2dVertex
 10
-24.10702739546693
 20
7.750000000000023
 30
0.0
 42
0.036368570863523
  0
VERTEX
  5
1396
330
1394
100
AcDbEntity
  8
AM_0
100
AcDbVertex
100
AcDb2dVertex
 10
-27.83888663736324
 20
7.064514975024284
 30
0.0
 42
0.0139461738785528
  0
VERTEX
  5
1397
330
1394
100
AcDbEntity
  8
AM_0
100
AcDbVertex
100
AcDb2dVertex
 10
-28.5136528959676
 20
6.877051387995633
 30
0.0
 42
0.0436287246585526
  0
VERTEX
  5
1398
330
1394
100
AcDbEntity
  8
AM_0
100
AcDbVertex
100
AcDb2dVertex
 10
-29.10065872634186
 20
6.638446148264192
 30
0.0
 42
0.2738540026404822
  0
VERTEX
  5
1399
330
1394
100
AcDbEntity
  8
AM_0
100
AcDbVertex
100
AcDb2dVertex
 10
-29.1584604525342
 20
6.546845248240495
 30
0.0
 42
0.1958299863149157
  0
VERTEX
  5
139A
330
1394
100
AcDbEntity
  8
AM_0
100
AcDbVertex
100
AcDb2dVertex
 10
-29.11357325832868
 20
6.427029927204493
 30
0.0
 42
0.028966137260715
  0
VERTEX
  5
139B
330
1394
100
AcDbEntity
  8
AM_0
100
AcDbVertex
100
AcDb2dVertex
 10
-28.5136528959676
 20
5.848020485472788
 30
0.0
 42
0.0057813111855378
  0
VERTEX
  5
139C
330
1394
100
AcDbEntity
  8
AM_0
100
AcDbVertex
100
AcDb2dVertex
 10
-27.80480668521231
 20
5.253164420428292
 30
0.0
 42
0.0022201051474406
  0
VERTEX
  5
139D
330
1394
100
AcDbEntity
  8
AM_0
100
AcDbVertex
100
AcDb2dVertex
 10
-25.93442266970196
 20
3.733896578991315
 30
0.0
 42
0.0115243051902067
  0
VERTEX
  5
139E
330
1394
100
AcDbEntity
  8
AM_0
100
AcDbVertex
100
AcDb2dVertex
 10
-25.30163913561373
 20
3.248148335127624
 30
0.0
 42
0.0057470741765196
  0
VERTEX
  5
139F
330
1394
100
AcDbEntity
  8
AM_0
100
AcDbVertex
100
AcDb2dVertex
 10
-23.99999999992942
 20
2.318597435223527
 30
0.0
  0
SEQEND
  5
13A0
330
1394
100
AcDbEntity
  8
AM_0
  0
POLYLINE
  5
13A1
330
1F
100
AcDbEntity
  8
AM_0
100
AcDb2dPolyline
 66
     1
 10
0.0
 20
0.0
 30
0.0
 70
     2
  0
VERTEX
  5
13A2
330
13A1
100
AcDbEntity
  8
AM_0
100
AcDbVertex
100
AcDb2dVertex
 10
-24.0
 20
-6.707607733450295
 30
0.0
 42
-0.0230041772467715
  0
VERTEX
  5
13A3
330
13A1
100
AcDbEntity
  8
AM_0
100
AcDbVertex
100
AcDb2dVertex
 10
-25.28225482352826
 20
-5.820370780520733
 30
0.0
 42
-0.0405369427811071
 70
     1
  0
VERTEX
  5
13A4
330
13A1
100
AcDbEntity
  8
AM_0
100
AcDbVertex
100
AcDb2dVertex
 10
-25.94099999999998
 20
-5.228087297699239
 30
0.0
 42
-0.0218730450044702
  0
VERTEX
  5
13A5
330
13A1
100
AcDbEntity
  8
AM_0
100
AcDbVertex
100
AcDb2dVertex
 10
-27.54669181707722
 20
-3.373922489318574
 30
0.0
 42
-0.0311955358087158
 70
     1
  0
VERTEX
  5
13A6
330
13A1
100
AcDbEntity
  8
AM_0
100
AcDbVertex
100
AcDb2dVertex
 10
-28.52900000000008
 20
-1.961231714364675
 30
0.0
 42
-0.0495171753539275
  0
VERTEX
  5
13A7
330
13A1
100
AcDbEntity
  8
AM_0
100
AcDbVertex
100
AcDb2dVertex
 10
-29.07819195382944
 20
-0.8134090232207384
 30
0.0
 42
-0.0980887089957094
 70
     1
  0
VERTEX
  5
13A8
330
13A1
100
AcDbEntity
  8
AM_0
100
AcDbVertex
100
AcDb2dVertex
 10
-29.17599999999984
 20
-0.1738965667812593
 30
0.0
 42
-0.1602936925217278
  0
VERTEX
  5
13A9
330
13A1
100
AcDbEntity
  8
AM_0
100
AcDbVertex
100
AcDb2dVertex
 10
-29.00382904205689
 20
0.281208780481829
 30
0.0
 42
-0.1317128335817564
 70
     1
  0
VERTEX
  5
13AA
330
13A1
100
AcDbEntity
  8
AM_0
100
AcDbVertex
100
AcDb2dVertex
 10
-28.52900000000008
 20
0.62692339151843
 30
0.0
 42
-0.1572941928372058
  0
VERTEX
  5
13AB
330
13A1
100
AcDbEntity
  8
AM_0
100
AcDbVertex
100
AcDb2dVertex
 10
-27.86978052873127
 20
0.6634655545698294
 30
0.0
 42
-0.0493803804385245
 70
     1
  0
VERTEX
  5
13AC
330
13A1
100
AcDbEntity
  8
AM_0
100
AcDbVertex
100
AcDb2dVertex
 10
-25.94099999999998
 20
-0.0522817822820983
 30
0.0
 42
-0.0494001655057179
  0
VERTEX
  5
13AD
330
13A1
100
AcDbEntity
  8
AM_0
100
AcDbVertex
100
AcDb2dVertex
 10
-24.92230462791085
 20
-0.6806922917360865
 30
0.0
 42
-0.0470909004785133
 70
     1
  0
VERTEX
  5
13AE
330
13A1
100
AcDbEntity
  8
AM_0
100
AcDbVertex
100
AcDb2dVertex
 10
-24.0
 20
-1.532306914382315
 30
0.0
  0
SEQEND
  5
13AF
330
13A1
100
AcDbEntity
  8
AM_0
  0
LINE
  5
13B0
330
1F
100
AcDbEntity
  8
AM_0
100
AcDbLine
 10
-24.0
 20
-1.532306914224404
 30
0.0
 11
-24.0
 21
0.2411127945022642
 31
0.0
  0
LINE
  5
13B1
330
1F
100
AcDbEntity
  8
AM_0
100
AcDbLine
 10
-23.99999999999999
 20
7.857027395466962
 30
0.0
 11
-24.10702739546693
 21
7.750000000000023
 31
0.0
  0
DIMENSION
  5
13B2
330
1F
100
AcDbEntity
  8
AM_5
100
AcDbDimension
  2
*D9
 10
14.00000000000017
 20
7.999999999999995
 30
0.0
 11
14.00000000000016
 21
0.0000000000000912
 31
0.0
 70
   160
  1
%%c<>
  3
AM_JIS
100
AcDbAlignedDimension
 13
0.0000000000000009
 23
-8.0
 33
0.0
 14
-0.0000000000000004
 24
8.0
 34
0.0
 50
89.99999999999884
100
AcDbRotatedDimension
1001
GENIUS_GENDTOL_13
1000

1000
h7
1000

1040
0.0
  0
LINE
  5
13B3
330
1F
100
AcDbEntity
  8
AM_0
100
AcDbLine
 10
0.0
 20
8.0
 30
0.0
 11
0.0
 21
-8.0
 31
0.0
  0
LINE
  5
13B4
330
1F
100
AcDbEntity
  8
AM_0
100
AcDbLine
 10
-0.1579518861432006
 20
1.502811811099586
 30
0.0
 11
-0.796169928929521
 21
3.884673973085868
 31
0.0
  0
LINE
  5
13B5
330
1F
100
AcDbEntity
  8
AM_0
100
AcDbLine
 10
-0.1831930668242421
 20
-7.488419081182833
 30
0.0
 11
-0.1831930668242421
 21
-2.50586327841765
 31
0.0
  0
LINE
  5
13B6
330
1F
100
AcDbEntity
  8
AM_0
100
AcDbLine
 10
-0.1579518861432006
 20
-2.455148903220647
 30
0.0
 11
-0.6560840604044643
 21
-3.455992021555716
 31
0.0
  0
LINE
  5
13B7
330
1F
100
AcDbEntity
  8
AM_0
100
AcDbLine
 10
-0.1831930668242421
 20
-7.488419081182833
 30
0.0
 11
-0.277210881909923
 21
-7.369767981459785
 31
0.0
  0
LINE
  5
13B8
330
1F
100
AcDbEntity
  8
AM_0
100
AcDbLine
 10
0.0
 20
-8.0
 30
0.0
 11
-0.1831930668242421
 21
-7.488419081182833
 31
0.0
  0
LINE
  5
13B9
330
1F
100
AcDbEntity
  8
AM_0
100
AcDbLine
 10
-0.3200000000000727
 20
-8.0
 30
0.0
 11
0.0
 21
-8.0
 31
0.0
  0
LINE
  5
13BA
330
1F
100
AcDbEntity
  8
AM_0
100
AcDbLine
 10
-0.277210881909923
 20
-7.369767981459785
 30
0.0
 11
-0.6547203188118146
 21
-6.062363325338532
 31
0.0
  0
LINE
  5
13BB
330
1F
100
AcDbEntity
  8
AM_0
100
AcDbLine
 10
0.0
 20
-0.2042435388309016
 30
0.0
 11
-0.1579518861432006
 21
1.502811811099586
 31
0.0
  0
LINE
  5
13BC
330
1F
100
AcDbEntity
  8
AM_0
100
AcDbLine
 10
0.0
 20
-0.2042435388309016
 30
0.0
 11
-2.232251604461271
 21
-0.002881739470736
 31
0.0
  0
LINE
  5
13BD
330
1F
100
AcDbEntity
  8
AM_0
100
AcDbLine
 10
-0.1579518861432006
 20
-2.455148903220647
 30
0.0
 11
0.0
 21
-1.964868674205986
 31
0.0
  0
LINE
  5
13BE
330
1F
100
AcDbEntity
  8
AM_0
100
AcDbLine
 10
-0.3200000000073487
 20
8.0
 30
0.0
 11
0.0
 21
8.0
 31
0.0
  0
LINE
  5
17DF
330
1F
100
AcDbEntity
  8
AM_0
100
AcDbLine
 10
-66.0
 20
-7.750000000000033
 30
0.0
 11
-23.99999999999999
 21
-7.749999999999952
 31
0.0
  0
LINE
  5
17E0
330
1F
100
AcDbEntity
  8
AM_0
100
AcDbLine
 10
-66.0
 20
7.74999999999994
 30
0.0
 11
-24.10702739546693
 21
7.750000000000023
 31
0.0
  0
VIEWPORT
  5
110
330
101
100
AcDbEntity
 67
     1
  8
0
100
AcDbViewport
 10
420.5
 20
297.0
 30
0.0
 40
948.9782706766916
 41
628.452
 68
     1
 69
     1
1001
ACAD
1000
MVIEW
1002
{
1070
    16
1010
0.0
1020
0.0
1030
0.0
1010
0.0
1020
0.0
1030
1.0
1040
0.0
1040
628.452
1040
420.5
1040
297.0
1040
50.0
1040
0.0
1040
0.0
1070
     0
1070
   100
1070
     1
1070
     1
1070
     0
1070
     0
1070
     0
1070
     0
1040
0.0
1040
0.0
1040
0.0
1040
10.0
1040
10.0
1040
10.0
1040
10.0
1070
     0
1002
{
1002
}
1002
}
  0
ENDSEC
  0
SECTION
  2
OBJECTS
  0
DICTIONARY
  5
C
330
0
100
AcDbDictionary
  3
ACAD_GROUP
350
D
  3
ACAD_LAYOUT
350
1A
  3
ACAD_MLINESTYLE
350
17
  3
ACAD_PLOTSETTINGS
350
19
  3
ACAD_PLOTSTYLENAME
350
E
  3
ACDBVARIABLEDICTIONARY
350
34
  3
ACMDICTIONARY
350
43
  3
AMG
350
2B
  3
AMGSNAPSETTINGS
350
6E
  3
DWGPROPS
350
1894
  3
ACDBHEADERROUNDTRIPXREC
350
18A0
  0
DICTIONARY
  5
74
330
1F
100
AcDbDictionary
280
     1
  3
ACAD_INDEX
360
1896
  3
ACAD_LAYOUTSELFREF
360
18C3
  0
DICTIONARY
  5
18C8
330
101
100
AcDbDictionary
280
     1
  3
ACAD_LAYOUTSELFREF
360
18C9
  0
DICTIONARY
  5
D
102
{ACAD_REACTORS
330
C
102
}
330
C
100
AcDbDictionary
  0
DICTIONARY
  5
1A
102
{ACAD_REACTORS
330
C
102
}
330
C
100
AcDbDictionary
  0
DICTIONARY
  5
17
102
{ACAD_REACTORS
330
C
102
}
330
C
100
AcDbDictionary
  3
STANDARD
350
18
  0
DICTIONARY
  5
19
102
{ACAD_REACTORS
330
C
102
}
330
C
100
AcDbDictionary
  0
ACDBDICTIONARYWDFLT
  5
E
102
{ACAD_REACTORS
330
C
102
}
330
C
100
AcDbDictionary
281
     1
  3
Normal
350
F
100
AcDbDictionaryWithDefault
340
F
  0
DICTIONARY
  5
34
102
{ACAD_REACTORS
330
C
102
}
330
C
100
AcDbDictionary
  3
INDEXCTL
350
35
  3
SORTENTS
350
B5E
  0
DICTIONARY
  5
43
102
{ACAD_REACTORS
330
C
102
}
330
C
100
AcDbDictionary
  3
ACMSTDDICTIONARY
350
260
  0
DICTIONARY
  5
2B
102
{ACAD_REACTORS
330
C
102
}
330
C
100
AcDbDictionary
  3
ACMGSETTINGS
350
2C
  0
DICTIONARY
  5
6E
102
{ACAD_REACTORS
330
C
102
}
330
C
100
AcDbDictionary
  0
XRECORD
  5
1894
102
{ACAD_REACTORS
330
C
102
}
330
C
100
AcDbXrecord
  1
DWGPROPS COOKIE
  2

  3

  4

  6

  7

  8

  9

300
AmdtFileType=82
301
=
302
=
303
=
304
=
305
=
306
=
307
=
308
=
309
=
 40
0.0295078819444445
 41
2452809.475734583
 42
2452844.500091678
  1

 90
        1
  0
DICTIONARY
  5
18A0
102
{ACAD_REACTORS
330
C
102
}
330
C
100
AcDbDictionary
  3
TSTACKALIGN
350
18A1
  3
TSTACKSIZE
350
18A2
  3
HYPERLINKBASE
350
18A3
  3
STYLESHEET
350
18A4
  3
LAYOUTDICT
350
18A5
  3
PLOTSETDICT
350
18A6
  3
PLOTSTYLNAMDICT
350
18A7
  3
LWETCUNION
350
18A8
  3
INSUNITS
350
18A9
  3
CEPSNTYPE
350
18AA
  3
FINGERPRINTGUID
350
18AB
  3
VERSIONGUID
350
18AC
  3
PSVPSCALE
350
18AD
  3
DIMSTYLEDATA
350
18AE
  3
PUCSORTHOREF
350
18AF
  3
PUCSORTHOVIEW
350
18B0
  3
PUCSBASE
350
18B1
  3
PUCSORGTOP
350
18B2
  3
PUCSORGBOTTOM
350
18B3
  3
PUCSORGLEFT
350
18B4
  3
PUCSORGRIGHT
350
18B5
  3
PUCSORGFRONT
350
18B6
  3
PUCSORGBACK
350
18B7
  3
UCSORTHOREF
350
18B8
  3
UCSORTHOVIEW
350
18B9
  3
UCSBASE
350
18BA
  3
UCSORGTOP
350
18BB
  3
UCSORGBOTTOM
350
18BC
  3
UCSORGLEFT
350
18BD
  3
UCSORGRIGHT
350
18BE
  3
UCSORGFRONT
350
18BF
  3
UCSORGBACK
350
18C0
  0
DICTIONARY
  5
1896
102
{ACAD_REACTORS
330
74
102
}
330
74
100
AcDbDictionary
  3
*A1
350
1897
  0
XRECORD
  5
18C3
102
{ACAD_REACTORS
330
74
102
}
330
74
100
AcDbXrecord
340
1F
  0
XRECORD
  5
18C9
102
{ACAD_REACTORS
330
18C8
102
}
330
18C8
100
AcDbXrecord
340
101
  0
MLINESTYLE
  5
18
102
{ACAD_REACTORS
330
17
102
}
330
17
100
AcDbMlineStyle
  2
STANDARD
 70
     0
  3

 62
   256
 51
90.0
 52
90.0
 71
     2
 49
0.5
 62
   256
  6
BYLAYER
 49
-0.5
 62
   256
  6
BYLAYER
  0
ACDBPLACEHOLDER
  5
F
102
{ACAD_REACTORS
330
E
102
}
330
E
100
AcDbPlaceHolder
280
     0
  0
DICTIONARYVAR
  5
35
102
{ACAD_REACTORS
330
34
102
}
330
34
100
DictionaryVariables
280
     0
  1
1
  0
DICTIONARYVAR
  5
B5E
102
{ACAD_REACTORS
330
34
102
}
330
34
100
DictionaryVariables
280
     0
  1
96
  0
DICTIONARY
  5
260
102
{ACAD_REACTORS
330
43
102
}
330
43
100
AcDbDictionary
  0
DICTIONARY
  5
2C
102
{ACAD_REACTORS
330
2B
102
}
330
2B
100
AcDbDictionary
  3
DWGSETTINGS
350
2D
  0
XRECORD
  5
18A1
102
{ACAD_REACTORS
330
18A0
102
}
330
18A0
100
AcDbXrecord
 90
        1
  0
XRECORD
  5
18A2
102
{ACAD_REACTORS
330
18A0
102
}
330
18A0
100
AcDbXrecord
 90
       70
  0
XRECORD
  5
18A3
102
{ACAD_REACTORS
330
18A0
102
}
330
18A0
100
AcDbXrecord
  1

  0
XRECORD
  5
18A4
102
{ACAD_REACTORS
330
18A0
102
}
330
18A0
100
AcDbXrecord
  1
ASAMI.ctb
  0
XRECORD
  5
18A5
102
{ACAD_REACTORS
330
18A0
102
}
330
18A0
100
AcDbXrecord
340
1A
  0
XRECORD
  5
18A6
102
{ACAD_REACTORS
330
18A0
102
}
330
18A0
100
AcDbXrecord
340
19
  0
XRECORD
  5
18A7
102
{ACAD_REACTORS
330
18A0
102
}
330
18A0
100
AcDbXrecord
340
E
  0
XRECORD
  5
18A8
102
{ACAD_REACTORS
330
18A0
102
}
330
18A0
100
AcDbXrecord
 90
    10781
  0
XRECORD
  5
18A9
102
{ACAD_REACTORS
330
18A0
102
}
330
18A0
100
AcDbXrecord
 90
        4
  0
XRECORD
  5
18AA
102
{ACAD_REACTORS
330
18A0
102
}
330
18A0
100
AcDbXrecord
 90
        0
  0
XRECORD
  5
18AB
102
{ACAD_REACTORS
330
18A0
102
}
330
18A0
100
AcDbXrecord
  1
{AFB28963-8C59-40AE-9337-C84526B81ACE}
  0
XRECORD
  5
18AC
102
{ACAD_REACTORS
330
18A0
102
}
330
18A0
100
AcDbXrecord
  1
{D5BCD45C-1162-4088-93F5-851BBCFE2B06}
  0
XRECORD
  5
18AD
102
{ACAD_REACTORS
330
18A0
102
}
330
18A0
100
AcDbXrecord
 40
0.0
  0
XRECORD
  5
18AE
102
{ACAD_REACTORS
330
18A0
102
}
330
18A0
100
AcDbXrecord
1000
DSTYLE
1002
{
1070
    79
 70
     2
1070
   341
340
59
1070
   342
340
59
1070
   371
 70
    -1
1070
   372
 70
    -1
1002
}
  0
XRECORD
  5
18AF
102
{ACAD_REACTORS
330
18A0
102
}
330
18A0
100
AcDbXrecord
340
0
  0
XRECORD
  5
18B0
102
{ACAD_REACTORS
330
18A0
102
}
330
18A0
100
AcDbXrecord
 70
     0
  0
XRECORD
  5
18B1
102
{ACAD_REACTORS
330
18A0
102
}
330
18A0
100
AcDbXrecord
340
0
  0
XRECORD
  5
18B2
102
{ACAD_REACTORS
330
18A0
102
}
330
18A0
100
AcDbXrecord
 10
0.0
 20
0.0
 30
0.0
  0
XRECORD
  5
18B3
102
{ACAD_REACTORS
330
18A0
102
}
330
18A0
100
AcDbXrecord
 10
0.0
 20
0.0
 30
0.0
  0
XRECORD
  5
18B4
102
{ACAD_REACTORS
330
18A0
102
}
330
18A0
100
AcDbXrecord
 10
0.0
 20
0.0
 30
0.0
  0
XRECORD
  5
18B5
102
{ACAD_REACTORS
330
18A0
102
}
330
18A0
100
AcDbXrecord
 10
0.0
 20
0.0
 30
0.0
  0
XRECORD
  5
18B6
102
{ACAD_REACTORS
330
18A0
102
}
330
18A0
100
AcDbXrecord
 10
0.0
 20
0.0
 30
0.0
  0
XRECORD
  5
18B7
102
{ACAD_REACTORS
330
18A0
102
}
330
18A0
100
AcDbXrecord
 10
0.0
 20
0.0
 30
0.0
  0
XRECORD
  5
18B8
102
{ACAD_REACTORS
330
18A0
102
}
330
18A0
100
AcDbXrecord
340
0
  0
XRECORD
  5
18B9
102
{ACAD_REACTORS
330
18A0
102
}
330
18A0
100
AcDbXrecord
 70
     0
  0
XRECORD
  5
18BA
102
{ACAD_REACTORS
330
18A0
102
}
330
18A0
100
AcDbXrecord
340
0
  0
XRECORD
  5
18BB
102
{ACAD_REACTORS
330
18A0
102
}
330
18A0
100
AcDbXrecord
 10
0.0
 20
0.0
 30
0.0
  0
XRECORD
  5
18BC
102
{ACAD_REACTORS
330
18A0
102
}
330
18A0
100
AcDbXrecord
 10
0.0
 20
0.0
 30
0.0
  0
XRECORD
  5
18BD
102
{ACAD_REACTORS
330
18A0
102
}
330
18A0
100
AcDbXrecord
 10
0.0
 20
0.0
 30
0.0
  0
XRECORD
  5
18BE
102
{ACAD_REACTORS
330
18A0
102
}
330
18A0
100
AcDbXrecord
 10
0.0
 20
0.0
 30
0.0
  0
XRECORD
  5
18BF
102
{ACAD_REACTORS
330
18A0
102
}
330
18A0
100
AcDbXrecord
 10
0.0
 20
0.0
 30
0.0
  0
XRECORD
  5
18C0
102
{ACAD_REACTORS
330
18A0
102
}
330
18A0
100
AcDbXrecord
 10
0.0
 20
0.0
 30
0.0
  0
LAYER_INDEX
  5
1897
102
{ACAD_REACTORS
330
1896
102
}
330
1896
100
AcDbIndex
 40
2452844.576401365
100
AcDbLayerIndex
  8
0
360
1898
 90
        0
  8
AM_0
360
1899
 90
       56
  8
AM_11
360
189A
 90
        3
  8
AM_7
360
189B
 90
        1
  8
AM_5
360
189C
 90
        5
  8
Defpoints
360
189D
 90
        0
  8
AM_6
360
189E
 90
        1
  0
XRECORD
  5
2D
102
{ACAD_REACTORS
330
2C
102
}
330
2C
100
AcDbXrecord
  1
VERSION
140
15.0
  1
PRODUCT
  2
AutoCAD Mechanical 2000
  0
IDBUFFER
  5
1898
330
0
100
AcDbIdBuffer
  0
IDBUFFER
  5
1899
330
0
100
AcDbIdBuffer
330
13B9
330
13BA
330
13BB
330
13BC
330
13BD
330
13BE
330
17DF
330
17E0
330
1365
330
1366
330
1369
330
136A
330
136B
330
136C
330
136F
330
1370
330
1371
330
1372
330
1373
330
1374
330
1375
330
1376
330
1377
330
1378
330
1379
330
137A
330
137B
330
137C
330
137D
330
137E
330
137F
330
1380
330
1381
330
1382
330
1383
330
1384
330
1385
330
1386
330
1387
330
1388
330
1389
330
138A
330
138F
330
1390
330
1391
330
1392
330
1394
330
13A1
330
13B0
330
13B1
330
13B3
330
13B4
330
13B5
330
13B6
330
13B7
330
13B8
  0
IDBUFFER
  5
189A
330
0
100
AcDbIdBuffer
330
138B
330
138C
330
1393
  0
IDBUFFER
  5
189B
330
0
100
AcDbIdBuffer
330
1367
  0
IDBUFFER
  5
189C
330
0
100
AcDbIdBuffer
330
1363
330
1368
330
136D
330
136E
330
13B2
  0
IDBUFFER
  5
189D
330
0
100
AcDbIdBuffer
  0
IDBUFFER
  5
189E
330
0
100
AcDbIdBuffer
330
1364
  0
ENDSEC
  0
EOF
