  0
SECTION
  2
HEADER
  9
$ACADVER
  1
AC1014
  9
$ACADMAINTVER
 70
     9
  9
$DWGCODEPAGE
  3
ANSI_932
  9
$INSBASE
 10
0.0
 20
0.0
 30
0.0
  9
$EXTMIN
 10
-57.66099700121461
 20
-27.25000100000011
 30
-0.00000001
  9
$EXTMAX
 10
12.05776903085517
 20
4.499999999999996
 30
0.00000001
  9
$LIMMIN
 10
-60.71435931714626
 20
-34.92577645780858
  9
$LIMMAX
 10
13.94654442377532
 20
13.17020708335411
  9
$ORTHOMODE
 70
     0
  9
$REGENMODE
 70
     1
  9
$FILLMODE
 70
     1
  9
$QTEXTMODE
 70
     0
  9
$MIRRTEXT
 70
     0
  9
$DRAGMODE
 70
     2
  9
$LTSCALE
 40
1.0
  9
$OSMODE
 70
    55
  9
$ATTMODE
 70
     1
  9
$TEXTSIZE
 40
2.5
  9
$TRACEWID
 40
1.0
  9
$TEXTSTYLE
  7
STANDARD
  9
$CLAYER
  8
AM_0
  9
$CELTYPE
  6
BYLAYER
  9
$CECOLOR
 62
   256
  9
$CELTSCALE
 40
1.0
  9
$DELOBJ
 70
     1
  9
$DISPSILH
 70
     0
  9
$DIMSCALE
 40
0.5
  9
$DIMASZ
 40
2.5
  9
$DIMEXO
 40
1.0
  9
$DIMDLI
 40
12.0
  9
$DIMRND
 40
0.0
  9
$DIMDLE
 40
0.0
  9
$DIMEXE
 40
1.0
  9
$DIMTP
 40
0.1
  9
$DIMTM
 40
0.1
  9
$DIMTXT
 40
3.2
  9
$DIMCEN
 40
0.0
  9
$DIMTSZ
 40
0.0
  9
$DIMTOL
 70
     0
  9
$DIMLIM
 70
     0
  9
$DIMTIH
 70
     0
  9
$DIMTOH
 70
     0
  9
$DIMSE1
 70
     0
  9
$DIMSE2
 70
     0
  9
$DIMTAD
 70
     3
  9
$DIMZIN
 70
     8
  9
$DIMBLK
  1
OPEN30
  9
$DIMASO
 70
     1
  9
$DIMSHO
 70
     1
  9
$DIMPOST
  1

  9
$DIMAPOST
  1
"
  9
$DIMALT
 70
     0
  9
$DIMALTD
 70
     2
  9
$DIMALTF
 40
0.0393701
  9
$DIMLFAC
 40
1.0
  9
$DIMTOFL
 70
     1
  9
$DIMTVP
 40
0.0
  9
$DIMTIX
 70
     0
  9
$DIMSOXD
 70
     0
  9
$DIMSAH
 70
     0
  9
$DIMBLK1
  1

  9
$DIMBLK2
  1

  9
$DIMSTYLE
  2
AM_JIS
  9
$DIMCLRD
 70
   256
  9
$DIMCLRE
 70
   256
  9
$DIMCLRT
 70
     2
  9
$DIMTFAC
 40
0.71
  9
$DIMGAP
 40
1.5
  9
$DIMJUST
 70
     0
  9
$DIMSD1
 70
     0
  9
$DIMSD2
 70
     0
  9
$DIMTOLJ
 70
     0
  9
$DIMTZIN
 70
     0
  9
$DIMALTZ
 70
     0
  9
$DIMALTTZ
 70
     0
  9
$DIMFIT
 70
     3
  9
$DIMUPT
 70
     0
  9
$DIMUNIT
 70
     2
  9
$DIMDEC
 70
     3
  9
$DIMTDEC
 70
     3
  9
$DIMALTU
 70
     2
  9
$DIMALTTD
 70
     2
  9
$DIMTXSTY
  7
ASAMI
  9
$DIMAUNIT
 70
     0
  9
$LUNITS
 70
     2
  9
$LUPREC
 70
     2
  9
$SKETCHINC
 40
1.0
  9
$FILLETRAD
 40
2.5
  9
$AUNITS
 70
     0
  9
$AUPREC
 70
     0
  9
$MENU
  1
.
  9
$ELEVATION
 40
0.0
  9
$PELEVATION
 40
0.0
  9
$THICKNESS
 40
0.0
  9
$LIMCHECK
 70
     0
  9
$BLIPMODE
 70
     0
  9
$CHAMFERA
 40
0.5
  9
$CHAMFERB
 40
0.5
  9
$CHAMFERC
 40
20.0
  9
$CHAMFERD
 40
0.0
  9
$SKPOLY
 70
     0
  9
$TDCREATE
 40
2452838.430434386
  9
$TDUPDATE
 40
2453151.731578402
  9
$TDINDWG
 40
0.5349878241
  9
$TDUSRTIMER
 40
0.5349878241
  9
$USRTIMER
 70
     1
  9
$ANGBASE
 50
0.0
  9
$ANGDIR
 70
     0
  9
$PDMODE
 70
     0
  9
$PDSIZE
 40
0.0
  9
$PLINEWID
 40
0.0
  9
$COORDS
 70
     1
  9
$SPLFRAME
 70
     0
  9
$SPLINETYPE
 70
     6
  9
$SPLINESEGS
 70
     8
  9
$ATTDIA
 70
     1
  9
$ATTREQ
 70
     1
  9
$HANDLING
 70
 12289
  9
$HANDSEED
  5
A97B
  9
$SURFTAB1
 70
     6
  9
$SURFTAB2
 70
     6
  9
$SURFTYPE
 70
     6
  9
$SURFU
 70
     6
  9
$SURFV
 70
     6
  9
$UCSNAME
  2

  9
$UCSORG
 10
0.0
 20
0.0
 30
0.0
  9
$UCSXDIR
 10
1.0
 20
0.0
 30
0.0
  9
$UCSYDIR
 10
0.0
 20
1.0
 30
0.0
  9
$PUCSNAME
  2

  9
$PUCSORG
 10
0.0
 20
0.0
 30
0.0
  9
$PUCSXDIR
 10
1.0
 20
0.0
 30
0.0
  9
$PUCSYDIR
 10
0.0
 20
1.0
 30
0.0
  9
$USERI1
 70
     0
  9
$USERI2
 70
     0
  9
$USERI3
 70
     0
  9
$USERI4
 70
     0
  9
$USERI5
 70
     0
  9
$USERR1
 40
0.0
  9
$USERR2
 40
0.0
  9
$USERR3
 40
0.0
  9
$USERR4
 40
0.0
  9
$USERR5
 40
0.0
  9
$WORLDVIEW
 70
     1
  9
$SHADEDGE
 70
     3
  9
$SHADEDIF
 70
    70
  9
$TILEMODE
 70
     1
  9
$MAXACTVP
 70
    64
  9
$PINSBASE
 10
0.0
 20
0.0
 30
0.0
  9
$PLIMCHECK
 70
     0
  9
$PEXTMIN
 10
1.000000000000000E+20
 20
1.000000000000000E+20
 30
1.000000000000000E+20
  9
$PEXTMAX
 10
-1.000000000000000E+20
 20
-1.000000000000000E+20
 30
-1.000000000000000E+20
  9
$PLIMMIN
 10
0.0
 20
0.0
  9
$PLIMMAX
 10
841.0
 20
594.0
  9
$UNITMODE
 70
     0
  9
$VISRETAIN
 70
     1
  9
$PLINEGEN
 70
     0
  9
$PSLTSCALE
 70
     0
  9
$TREEDEPTH
 70
  3020
  9
$PICKSTYLE
 70
     0
  9
$CMLSTYLE
  2
STANDARD
  9
$CMLJUST
 70
     0
  9
$CMLSCALE
 40
20.0
  9
$PROXYGRAPHICS
 70
     1
  9
$MEASUREMENT
 70
     1
  0
ENDSEC
  0
SECTION
  2
CLASSES
  0
CLASS
  1
ACDBDICTIONARYWDFLT
  2
AcDbDictionaryWithDefault
  3
AutoCAD 2000
 90
        0
280
     0
281
     0
  0
CLASS
  1
ACDBPLACEHOLDER
  2
AcDbPlaceHolder
  3
AutoCAD 2000
 90
        0
280
     0
281
     0
  0
CLASS
  1
LAYOUT
  2
AcDbLayout
  3
AutoCAD 2000
 90
        0
280
     0
281
     0
  0
CLASS
  1
AMGSETTINGSOBJ
  2
AmgSettingsObj
  3
"AcadM|Product Description: AutoCAD Mechanical 2000|Company: Autodesk"
 90
        0
280
     0
281
     0
  0
CLASS
  1
ACME_DOCUMENT
  2
AcMeDbDoc
  3
AcMeServices
 90
        0
280
     0
281
     0
  0
CLASS
  1
ACMESCOPE
  2
AcMeScope
  3
AcMeServices
 90
        0
280
     0
281
     0
  0
CLASS
  1
ACMECOMMANDHISTORY
  2
AcMeCommandHistory
  3
AcMeServices
 90
        0
280
     0
281
     0
  0
CLASS
  1
DICTIONARYVAR
  2
AcDbDictionaryVar
  3
AutoCAD 2000
 90
        0
280
     0
281
     0
  0
CLASS
  1
ACIMSYSVARMAN
  2
AcImSysVarManager
  3
AcMeServices
 90
        0
280
     0
281
     0
  0
CLASS
  1
ACIMREALSYSVAR
  2
AcImRealSysVar
  3
AcMeServices
 90
        0
280
     0
281
     0
  0
CLASS
  1
ACIMINTSYSVAR
  2
AcImIntSysVar
  3
AcMeServices
 90
        0
280
     0
281
     0
  0
CLASS
  1
ACMEDRAWINGMAN
  2
AcMeDrawingMan
  3
AcMeServices
 90
        0
280
     0
281
     0
  0
CLASS
  1
ACMEVIEW
  2
AcMeView
  3
AcMeServices
 90
        0
280
     0
281
     0
  0
CLASS
  1
ACDBENTITYCACHE
  2
AcMeEntityCache
  3
AcMeServices
 90
        0
280
     0
281
     0
  0
CLASS
  1
GSMANAGER
  2
AcMeGSManager
  3
AcMeServices
 90
        0
280
     0
281
     0
  0
CLASS
  1
AmdtInternalReactor
  2
AmdtInternalReactor
  3
AcMeServices
 90
        0
280
     0
281
     0
  0
CLASS
  1
ACMESTATEMGR
  2
AcMeStateMgr
  3
AcMeServices
 90
        0
280
     0
281
     0
  0
CLASS
  1
ACME_DATABASE
  2
AcMeDbDatabase
  3
AcMeServices
 90
        0
280
     0
281
     0
  0
CLASS
  1
ACRFINSADJUSTERMGR
  2
AcRfInsAdjusterMgr
  3
AcMeServices
 90
        0
280
     0
281
     0
  0
CLASS
  1
ACMDATADICTIONARY
  2
AcmDataDictionary
  3
"AcmSymBB|Product Description: AutoCAD Mechanical 2000|Company: Autodesk"
 90
        0
280
     0
281
     0
  0
CLASS
  1
ACMDATAENTRYBLOCK
  2
AcmDataEntryBlock
  3
"AcmSymBB|Product Description: AutoCAD Mechanical 2000|Company: Autodesk"
 90
        0
280
     0
281
     0
  0
CLASS
  1
AMGOBJPROPCFG
  2
AmgObjPropCfg
  3
"AmgLay|Product Description: AutoCAD Mechanical 2000|Company: Autodesk"
 90
        1
280
     0
281
     0
  0
CLASS
  1
ACAMGFILTERDAT
  2
AcAmgFilterDat
  3
"AcadM|Product Description: AutoCAD Mechanical 2000|Company: Autodesk"
 90
        0
280
     0
281
     0
  0
CLASS
  1
LAYER_INDEX
  2
AcDbLayerIndex
  3
AutoCAD 2000
 90
        0
280
     0
281
     0
  0
CLASS
  1
IDBUFFER
  2
AcDbIdBuffer
  3
AutoCAD 2000
 90
        0
280
     0
281
     0
  0
CLASS
  1
ACIMSTRSYSVAR
  2
AcImStrSysVar
  3
AcMeServices
 90
        0
280
     0
281
     0
  0
CLASS
  1
ACMSTANDARDJIS
  2
AcmStandardJIS
  3
"AcmSymBB|Product Description: AutoCAD Mechanical 2000|Company: Autodesk"
 90
        0
280
     0
281
     0
  0
CLASS
  1
ACMSURFSTANDARDJIS
  2
AcmSurfTextStdJIS
  3
"AcmSymBB|Product Description: AutoCAD Mechanical 2000|Company: Autodesk"
 90
        0
280
     0
281
     0
  0
CLASS
  1
ACMFCFSTANDARDJIS
  2
AcmFCFStdJIS
  3
"AcmSymBB|Product Description: AutoCAD Mechanical 2000|Company: Autodesk"
 90
        0
280
     0
281
     0
  0
CLASS
  1
ACMWELDSTANDARDJIS
  2
AcmWeldingStdJIS
  3
"AcmSymBB|Product Description: AutoCAD Mechanical 2000|Company: Autodesk"
 90
        0
280
     0
281
     0
  0
CLASS
  1
ACMIDSTANDARDJIS
  2
AcmIdStdJIS
  3
"AcmSymBB|Product Description: AutoCAD Mechanical 2000|Company: Autodesk"
 90
        0
280
     0
281
     0
  0
CLASS
  1
ACMDATUMSTANDARDJIS
  2
AcmDatumStdJIS
  3
"AcmSymBB|Product Description: AutoCAD Mechanical 2000|Company: Autodesk"
 90
        0
280
     0
281
     0
  0
CLASS
  1
ACMBOMSTANDARDJIS
  2
AcmBOMStdJIS
  3
"AcmSymBB|Product Description: AutoCAD Mechanical 2000|Company: Autodesk"
 90
        0
280
     0
281
     0
  0
CLASS
  1
ACMSTANDARDANSI
  2
AcmStandardANSI
  3
"AcmSymBB|Product Description: AutoCAD Mechanical 2000|Company: Autodesk"
 90
        0
280
     0
281
     0
  0
CLASS
  1
ACMSURFSTANDARDANSI
  2
AcmSurfTextStdANSI
  3
"AcmSymBB|Product Description: AutoCAD Mechanical 2000|Company: Autodesk"
 90
        0
280
     0
281
     0
  0
CLASS
  1
ACMFCFSTANDARDANSI
  2
AcmFCFStdANSI
  3
"AcmSymBB|Product Description: AutoCAD Mechanical 2000|Company: Autodesk"
 90
        0
280
     0
281
     0
  0
CLASS
  1
ACMWELDSTANDARDANSI
  2
AcmWeldingStdANSI
  3
"AcmSymBB|Product Description: AutoCAD Mechanical 2000|Company: Autodesk"
 90
        0
280
     0
281
     0
  0
CLASS
  1
ACMIDSTANDARDANSI
  2
AcmIdStdANSI
  3
"AcmSymBB|Product Description: AutoCAD Mechanical 2000|Company: Autodesk"
 90
        0
280
     0
281
     0
  0
CLASS
  1
ACMDATUMSTANDARDANSI
  2
AcmDatumStdANSI
  3
"AcmSymBB|Product Description: AutoCAD Mechanical 2000|Company: Autodesk"
 90
        0
280
     0
281
     0
  0
CLASS
  1
ACMBOMSTANDARDANSI
  2
AcmBOMStdANSI
  3
"AcmSymBB|Product Description: AutoCAD Mechanical 2000|Company: Autodesk"
 90
        0
280
     0
281
     0
  0
CLASS
  1
ACMSTANDARDBSI
  2
AcmStandardBSI
  3
"AcmSymBB|Product Description: AutoCAD Mechanical 2000|Company: Autodesk"
 90
        0
280
     0
281
     0
  0
CLASS
  1
ACMSURFSTANDARDBSI
  2
AcmSurfTextStdBSI
  3
"AcmSymBB|Product Description: AutoCAD Mechanical 2000|Company: Autodesk"
 90
        0
280
     0
281
     0
  0
CLASS
  1
ACMFCFSTANDARDBSI
  2
AcmFCFStdBSI
  3
"AcmSymBB|Product Description: AutoCAD Mechanical 2000|Company: Autodesk"
 90
        0
280
     0
281
     0
  0
CLASS
  1
ACMWELDSTANDARDBSI
  2
AcmWeldingStdBSI
  3
"AcmSymBB|Product Description: AutoCAD Mechanical 2000|Company: Autodesk"
 90
        0
280
     0
281
     0
  0
CLASS
  1
ACMIDSTANDARDBSI
  2
AcmIdStdBSI
  3
"AcmSymBB|Product Description: AutoCAD Mechanical 2000|Company: Autodesk"
 90
        0
280
     0
281
     0
  0
CLASS
  1
ACMDATUMSTANDARDBSI
  2
AcmDatumStdBSI
  3
"AcmSymBB|Product Description: AutoCAD Mechanical 2000|Company: Autodesk"
 90
        0
280
     0
281
     0
  0
CLASS
  1
ACMBOMSTANDARDBSI
  2
AcmBOMStdBSI
  3
"AcmSymBB|Product Description: AutoCAD Mechanical 2000|Company: Autodesk"
 90
        0
280
     0
281
     0
  0
CLASS
  1
LONG_TRANSACTION
  2
AcDbLongTransaction
  3
AutoCAD 2000
 90
        0
280
     0
281
     0
  0
CLASS
  1
LWPOLYLINE
  2
AcDbPolyline
  3
AutoCAD 2000
 90
        0
280
     0
281
     1
  0
CLASS
  1
HATCH
  2
AcDbHatch
  3
AutoCAD 2000
 90
        0
280
     0
281
     1
  0
CLASS
  1
XRECORD
  2
AcDbXrecord
  3
AutoCAD 2000
 90
        0
280
     0
281
     0
  0
ENDSEC
  0
SECTION
  2
TABLES
  0
TABLE
  2
VPORT
  5
8
330
0
100
AcDbSymbolTable
 70
     3
  0
VPORT
  5
A945
330
8
100
AcDbSymbolTableRecord
100
AcDbViewportTableRecord
  2
*ACTIVE
 70
     0
 10
0.0
 20
0.0
 11
1.0
 21
1.0
 12
-21.31560138350209
 22
-9.30555442979708
 13
0.0
 23
0.0
 14
2.5
 24
2.5
 15
10.0
 25
10.0
 16
0.0
 26
0.0
 36
1.0
 17
0.0
 27
0.0
 37
0.0
 40
46.50636399615403
 41
1.56570841889117
 42
50.0
 43
0.0
 44
0.0
 50
0.0
 51
0.0
 71
     0
 72
   100
 73
     1
 74
     3
 75
     0
 76
     0
 77
     0
 78
     0
  0
ENDTAB
  0
TABLE
  2
LTYPE
  5
5
330
0
100
AcDbSymbolTable
 70
    10
  0
LTYPE
  5
14
330
5
100
AcDbSymbolTableRecord
100
AcDbLinetypeTableRecord
  2
BYBLOCK
 70
     0
  3

 72
    65
 73
     0
 40
0.0
  0
LTYPE
  5
15
330
5
100
AcDbSymbolTableRecord
100
AcDbLinetypeTableRecord
  2
BYLAYER
 70
     0
  3

 72
    65
 73
     0
 40
0.0
  0
LTYPE
  5
16
330
5
100
AcDbSymbolTableRecord
100
AcDbLinetypeTableRecord
  2
CONTINUOUS
 70
     0
  3
Solid line
 72
    65
 73
     0
 40
0.0
  0
LTYPE
  5
4B
330
5
100
AcDbSymbolTableRecord
100
AcDbLinetypeTableRecord
  2
AM_ISO02W050
 70
     0
  3
__ __ __ __ __ __ __ __ __ __ __ __ __ __ __
 72
    65
 73
     2
 40
7.5
 49
6.0
 74
     0
 49
-1.5
 74
     0
  0
LTYPE
  5
4C
330
5
100
AcDbSymbolTableRecord
100
AcDbLinetypeTableRecord
  2
AM_ISO08W050
 70
     0
  3
____ . ____ . ____ . ____ . ____ . ____ . ____
 72
    65
 73
     4
 40
18.0
 49
12.0
 74
     0
 49
-1.5
 74
     0
 49
3.0
 74
     0
 49
-1.5
 74
     0
  0
LTYPE
  5
4D
330
5
100
AcDbSymbolTableRecord
100
AcDbLinetypeTableRecord
  2
AM_ISO09W050
 70
     0
  3
_____ . . _____ . . _____ . . ____ .. ____
 72
    65
 73
     6
 40
22.5
 49
12.0
 74
     0
 49
-1.5
 74
     0
 49
3.0
 74
     0
 49
-1.5
 74
     0
 49
3.0
 74
     0
 49
-1.5
 74
     0
  0
LTYPE
  5
4E
330
5
100
AcDbSymbolTableRecord
100
AcDbLinetypeTableRecord
  2
AMCONSTR
 70
     0
  3
_______________________
 72
    65
 73
     2
 40
9999.0
 49
9999.0
 74
     0
 49
0.0
 74
     0
  0
LTYPE
  5
4F
330
5
100
AcDbSymbolTableRecord
100
AcDbLinetypeTableRecord
  2
AM_ISO02W050X2
 70
     0
  3
 _ _ _ _ _ _ _ _ _ _ _ _
 72
    65
 73
     2
 40
3.75
 49
3.0
 74
     0
 49
-0.75
 74
     0
  0
LTYPE
  5
50
330
5
100
AcDbSymbolTableRecord
100
AcDbLinetypeTableRecord
  2
AM_ISO08W050X2
 70
     0
  3
__ . __ . __ . __ . __ . __
 72
    65
 73
     4
 40
9.0
 49
6.0
 74
     0
 49
-0.75
 74
     0
 49
1.5
 74
     0
 49
-0.75
 74
     0
  0
LTYPE
  5
53
330
5
100
AcDbSymbolTableRecord
100
AcDbLinetypeTableRecord
  2
AMZIGZAG
 70
     0
  3
/\/-/\/-/\/-/\/-/\/-/\/
 72
    65
 73
     2
 40
11.00009999999999
 49
0.0001
 74
     4
 75
   135
340
52
 46
0.04
 50
0.0
 44
0.0
 45
0.0
 49
-11.0
 74
     0
  0
LTYPE
  5
166
330
5
100
AcDbSymbolTableRecord
100
AcDbLinetypeTableRecord
  2
ACJISTGL
 70
     0
  3
_ _ _ _ _
 72
    65
 73
     2
 40
3.0
 49
2.0
 74
     0
 49
-1.0
 74
     0
  0
LTYPE
  5
26A
330
5
100
AcDbSymbolTableRecord
100
AcDbLinetypeTableRecord
  2
ACJISTGB
 70
     0
  3
__ . . __ . .
 72
    65
 73
     6
 40
9.0
 49
4.0
 74
     0
 49
-1.0
 74
     0
 49
1.0
 74
     0
 49
-1.0
 74
     0
 49
1.0
 74
     0
 49
-1.0
 74
     0
  0
ENDTAB
  0
TABLE
  2
LAYER
  5
2
330
0
100
AcDbSymbolTable
 70
     7
  0
LAYER
  5
10
330
2
100
AcDbSymbolTableRecord
100
AcDbLayerTableRecord
  2
0
 70
     0
 62
     7
  6
CONTINUOUS
  0
LAYER
  5
3F9
330
2
100
AcDbSymbolTableRecord
100
AcDbLayerTableRecord
  2
AM_0
 70
     0
 62
     7
  6
CONTINUOUS
  0
LAYER
  5
BDD
330
2
100
AcDbSymbolTableRecord
100
AcDbLayerTableRecord
  2
AM_11
 70
     0
 62
     3
  6
AM_ISO09W050
  0
LAYER
  5
BDE
330
2
100
AcDbSymbolTableRecord
100
AcDbLayerTableRecord
  2
AM_7
 70
     0
 62
     4
  6
AM_ISO08W050
  0
LAYER
  5
BDF
330
2
100
AcDbSymbolTableRecord
100
AcDbLayerTableRecord
  2
AM_5
 70
     0
 62
     3
  6
CONTINUOUS
  0
LAYER
  5
BE0
330
2
100
AcDbSymbolTableRecord
100
AcDbLayerTableRecord
  2
DEFPOINTS
 70
     0
 62
     7
  6
CONTINUOUS
  0
LAYER
  5
14FF
330
2
100
AcDbSymbolTableRecord
100
AcDbLayerTableRecord
  2
AM_6
 70
     0
 62
     2
  6
CONTINUOUS
  0
ENDTAB
  0
TABLE
  2
STYLE
  5
3
330
0
100
AcDbSymbolTable
 70
     5
  0
STYLE
  5
11
330
3
100
AcDbSymbolTableRecord
100
AcDbTextStyleTableRecord
  2
STANDARD
 70
     0
 40
0.0
 41
1.0
 50
0.0
 71
     0
 42
2.5
  3
simplex.shx
  4
EXTFONT.SHX
  0
STYLE
  5
52
330
3
100
AcDbSymbolTableRecord
100
AcDbTextStyleTableRecord
  2

 70
     1
 40
0.0
 41
1.0
 50
0.0
 71
     0
 42
2.5
  3
ltypeshp.shx
  4

  0
STYLE
  5
6B
330
3
100
AcDbSymbolTableRecord
100
AcDbTextStyleTableRecord
  2
ASAMI
 70
     0
 40
0.0
 41
1.0
 50
0.0
 71
     0
 42
2.5
  3
simplex.shx
  4
EXTFONT.SHX
  0
STYLE
  5
262
330
3
100
AcDbSymbolTableRecord
100
AcDbTextStyleTableRecord
  2
ACJISTS
 70
     0
 40
1.0
 41
1.0
 50
0.0
 71
     0
 42
2.5
  3
simplex.shx
  4
bigfont.shx
  0
STYLE
  5
269
330
3
100
AcDbSymbolTableRecord
100
AcDbTextStyleTableRecord
  2
ACJISGDT
 70
     0
 40
0.0
 41
1.0
 50
0.0
 71
     0
 42
2.5
  3
amgdtans.shx
  4

  0
ENDTAB
  0
TABLE
  2
VIEW
  5
6
330
0
100
AcDbSymbolTable
 70
     0
  0
ENDTAB
  0
TABLE
  2
UCS
  5
7
330
0
100
AcDbSymbolTable
 70
     0
  0
ENDTAB
  0
TABLE
  2
APPID
  5
9
330
0
100
AcDbSymbolTable
 70
    13
  0
APPID
  5
12
330
9
100
AcDbSymbolTableRecord
100
AcDbRegAppTableRecord
  2
ACAD
 70
     0
  0
APPID
  5
30
330
9
100
AcDbSymbolTableRecord
100
AcDbRegAppTableRecord
  2
MCAD_NO_VIS
 70
     0
  0
APPID
  5
31
330
9
100
AcDbSymbolTableRecord
100
AcDbRegAppTableRecord
  2
ACAD_TEMP_GRAPHIC
 70
     0
  0
APPID
  5
2C2
330
9
100
AcDbSymbolTableRecord
100
AcDbRegAppTableRecord
  2
GENIUS_GENDTOL_13
 70
     0
  0
APPID
  5
339
330
9
100
AcDbSymbolTableRecord
100
AcDbRegAppTableRecord
  2
GENIUS_GENODEF_13
 70
     0
  0
APPID
  5
33A
330
9
100
AcDbSymbolTableRecord
100
AcDbRegAppTableRecord
  2
GENIUS_GENOBJ-N-RSBK_13
 70
     0
  0
APPID
  5
33B
330
9
100
AcDbSymbolTableRecord
100
AcDbRegAppTableRecord
  2
GENIUS_GENOBJ-N-LIB_13
 70
     0
  0
APPID
  5
33C
330
9
100
AcDbSymbolTableRecord
100
AcDbRegAppTableRecord
  2
GENIUS_GENSCALE_13
 70
     0
  0
APPID
  5
378
330
9
100
AcDbSymbolTableRecord
100
AcDbRegAppTableRecord
  2
GENIUS_GENDIMSH_14
 70
     0
  0
APPID
  5
BE1
330
9
100
AcDbSymbolTableRecord
100
AcDbRegAppTableRecord
  2
GENIUS_GENFIL_13
 70
     0
  0
APPID
  5
BE2
330
9
100
AcDbSymbolTableRecord
100
AcDbRegAppTableRecord
  2
GENIUS_GENOBJ-N-CHA_13
 70
     0
  0
APPID
  5
151B
330
9
100
AcDbSymbolTableRecord
100
AcDbRegAppTableRecord
  2
DCO15
 70
     0
  0
APPID
  5
1860
330
9
100
AcDbSymbolTableRecord
100
AcDbRegAppTableRecord
  2
GENIUS_GENOBJ-N-CEN_13
 70
     0
  0
ENDTAB
  0
TABLE
  2
DIMSTYLE
  5
A
330
0
100
AcDbSymbolTable
 70
     8
  0
DIMSTYLE
105
58
102
{ACAD_REACTORS
330
A215
330
A2A1
330
A4B6
330
A391
102
}
330
A
100
AcDbSymbolTableRecord
100
AcDbDimStyleTableRecord
  2
AM_JIS
 70
     0
  3

  4
"
  5
OPEN30
  6

  7

 40
0.5
 41
2.5
 42
1.0
 43
12.0
 44
1.0
 45
0.0
 46
0.0
 47
0.1
 48
0.1
140
3.2
141
0.0
142
0.0
143
0.0393701
144
1.0
145
0.0
146
0.71
147
1.5
 71
     0
 72
     0
 73
     0
 74
     0
 75
     0
 76
     0
 77
     3
 78
     8
170
     0
171
     2
172
     1
173
     0
174
     0
175
     0
176
   256
177
   256
178
     2
270
     2
271
     3
272
     3
273
     2
274
     2
340
6B
275
     0
280
     0
281
     0
282
     0
283
     0
284
     0
285
     0
286
     0
287
     3
288
     0
  0
DIMSTYLE
105
5F
330
A
100
AcDbSymbolTableRecord
100
AcDbDimStyleTableRecord
  2
AM_JIS$3
 70
     0
  3

  4
"
  5
OPEN30
  6

  7

 40
0.5
 41
2.5
 42
1.0
 43
10.0
 44
1.0
 45
0.0
 46
0.0
 47
0.1
 48
0.1
140
3.2
141
0.0
142
0.0
143
0.0393701
144
1.0
145
0.0
146
0.71
147
1.5
 71
     0
 72
     0
 73
     0
 74
     1
 75
     0
 76
     0
 77
     3
 78
     8
170
     0
171
     2
172
     0
173
     0
174
     0
175
     0
176
   256
177
   256
178
     2
270
     2
271
     2
272
     3
273
     2
274
     2
340
6B
275
     0
280
     0
281
     0
282
     0
283
     0
284
     0
285
     0
286
     0
287
     0
288
     1
  0
DIMSTYLE
105
60
330
A
100
AcDbSymbolTableRecord
100
AcDbDimStyleTableRecord
  2
AM_JIS$4
 70
     0
  3

  4
"
  5
OPEN30
  6

  7

 40
0.5
 41
2.5
 42
1.0
 43
10.0
 44
1.0
 45
0.0
 46
0.0
 47
0.1
 48
0.1
140
3.2
141
0.0
142
0.0
143
0.0393701
144
1.0
145
0.0
146
0.71
147
1.5
 71
     0
 72
     0
 73
     0
 74
     1
 75
     0
 76
     0
 77
     3
 78
     8
170
     0
171
     2
172
     0
173
     0
174
     0
175
     0
176
   256
177
   256
178
     2
270
     2
271
     2
272
     3
273
     2
274
     2
340
6B
275
     0
280
     0
281
     0
282
     0
283
     0
284
     0
285
     0
286
     0
287
     0
288
     1
  0
DIMSTYLE
105
61
330
A
100
AcDbSymbolTableRecord
100
AcDbDimStyleTableRecord
  2
AM_JIS$6
 70
     0
  3

  4
"
  5
OPEN30
  6

  7

 40
0.5
 41
2.5
 42
1.0
 43
10.0
 44
1.0
 45
0.0
 46
0.0
 47
0.1
 48
0.1
140
3.2
141
0.0
142
0.0
143
0.0393701
144
1.0
145
0.0
146
0.71
147
1.5
 71
     0
 72
     0
 73
     0
 74
     0
 75
     0
 76
     0
 77
     0
 78
     8
170
     0
171
     2
172
     1
173
     0
174
     0
175
     0
176
   256
177
   256
178
     2
270
     2
271
     2
272
     2
273
     2
274
     2
340
6B
275
     0
280
     0
281
     0
282
     0
283
     0
284
     0
285
     0
286
     0
287
     3
288
     0
  0
DIMSTYLE
105
62
330
A
100
AcDbSymbolTableRecord
100
AcDbDimStyleTableRecord
  2
AM_JIS$7
 70
     0
  3

  4
"
  5
OPEN30
  6

  7

 40
0.5
 41
2.5
 42
1.0
 43
10.0
 44
1.0
 45
0.0
 46
0.0
 47
0.1
 48
0.1
140
3.2
141
0.0
142
0.0
143
0.0393701
144
1.0
145
0.0
146
0.71
147
1.5
 71
     0
 72
     0
 73
     0
 74
     0
 75
     0
 76
     0
 77
     3
 78
     8
170
     0
171
     2
172
     1
173
     0
174
     0
175
     0
176
   256
177
   256
178
     2
270
     2
271
     2
272
     3
273
     2
274
     2
340
6B
275
     0
280
     0
281
     0
282
     0
283
     0
284
     0
285
     0
286
     0
287
     3
288
     0
  0
DIMSTYLE
105
63
330
A
100
AcDbSymbolTableRecord
100
AcDbDimStyleTableRecord
  2
AM_JIS$SF
 70
     0
  3

  4
"
  5
OPEN30
  6

  7

 40
0.5
 41
2.5
 42
1.0
 43
10.0
 44
1.0
 45
0.0
 46
0.0
 47
0.1
 48
0.1
140
3.2
141
0.0
142
0.0
143
0.0393701
144
1.0
145
0.0
146
0.71
147
1.5
 71
     0
 72
     0
 73
     0
 74
     0
 75
     1
 76
     1
 77
     3
 78
     8
170
     0
171
     2
172
     1
173
     0
174
     0
175
     0
176
   256
177
   256
178
     2
270
     2
271
     2
272
     2
273
     2
274
     2
340
6B
275
     0
280
     0
281
     0
282
     0
283
     0
284
     0
285
     0
286
     0
287
     3
288
     0
  0
DIMSTYLE
105
68
330
A
100
AcDbSymbolTableRecord
100
AcDbDimStyleTableRecord
  2
AM_JIS$SH
 70
     0
  3

  4
"
  5

  6
GENAXEH
  7
OPEN30
 40
0.5
 41
2.5
 42
1.0
 43
10.0
 44
1.0
 45
0.0
 46
0.0
 47
0.1
 48
0.1
140
3.2
141
0.0
142
0.0
143
0.0393701
144
2.0
145
0.0
146
0.71
147
1.5
 71
     0
 72
     0
 73
     0
 74
     0
 75
     1
 76
     1
 77
     3
 78
     8
170
     0
171
     2
172
     1
173
     1
174
     0
175
     0
176
   256
177
   256
178
     2
270
     2
271
     2
272
     2
273
     2
274
     2
340
6B
275
     0
280
     0
281
     0
282
     0
283
     0
284
     0
285
     0
286
     0
287
     3
288
     0
  0
DIMSTYLE
105
B34
330
A
100
AcDbSymbolTableRecord
100
AcDbDimStyleTableRecord
  2
AM_JIS$2
 70
     0
  3

  4
"
  5
OPEN30
  6

  7

 40
0.5
 41
2.5
 42
1.0
 43
12.0
 44
1.0
 45
0.0
 46
0.0
 47
0.1
 48
0.1
140
3.2
141
0.0
142
0.0
143
0.0393701
144
1.0
145
0.0
146
0.71
147
1.5
 71
     0
 72
     0
 73
     0
 74
     0
 75
     0
 76
     0
 77
     3
 78
     8
170
     0
171
     2
172
     1
173
     0
174
     0
175
     0
176
   256
177
   256
178
     2
270
     2
271
     3
272
     3
273
     2
274
     2
340
6B
275
     0
280
     0
281
     0
282
     0
283
     0
284
     0
285
     0
286
     0
287
     3
288
     0
  0
ENDTAB
  0
TABLE
  2
BLOCK_RECORD
  5
1
330
0
100
AcDbSymbolTable
 70
     9
  0
BLOCK_RECORD
  5
1F
102
{ACAD_XDICTIONARY
360
74
102
}
330
1
100
AcDbSymbolTableRecord
100
AcDbBlockTableRecord
  2
*MODEL_SPACE
  0
BLOCK_RECORD
  5
101
102
{ACAD_XDICTIONARY
360
A96E
102
}
330
1
100
AcDbSymbolTableRecord
100
AcDbBlockTableRecord
  2
*PAPER_SPACE
  0
BLOCK_RECORD
  5
59
330
1
100
AcDbSymbolTableRecord
100
AcDbBlockTableRecord
  2
_OPEN30
  0
BLOCK_RECORD
  5
64
330
1
100
AcDbSymbolTableRecord
100
AcDbBlockTableRecord
  2
GENAXEH
  0
BLOCK_RECORD
  5
A216
330
1
100
AcDbSymbolTableRecord
100
AcDbBlockTableRecord
  2
*D5
  0
BLOCK_RECORD
  5
A2A2
330
1
100
AcDbSymbolTableRecord
100
AcDbBlockTableRecord
  2
*D6
  0
BLOCK_RECORD
  5
A392
330
1
100
AcDbSymbolTableRecord
100
AcDbBlockTableRecord
  2
*D7
  0
BLOCK_RECORD
  5
A4B7
330
1
100
AcDbSymbolTableRecord
100
AcDbBlockTableRecord
  2
*D8
  0
ENDTAB
  0
ENDSEC
  0
SECTION
  2
BLOCKS
  0
BLOCK
  5
20
330
1F
100
AcDbEntity
  8
0
100
AcDbBlockBegin
  2
*MODEL_SPACE
 70
     0
 10
0.0
 20
0.0
 30
0.0
  3
*MODEL_SPACE
  1

  0
ENDBLK
  5
21
330
1F
100
AcDbEntity
  8
0
100
AcDbBlockEnd
  0
BLOCK
  5
103
330
101
100
AcDbEntity
 67
     1
  8
0
100
AcDbBlockBegin
  2
*PAPER_SPACE
 70
     0
 10
0.0
 20
0.0
 30
0.0
  3
*PAPER_SPACE
  1

  0
ENDBLK
  5
104
330
101
100
AcDbEntity
 67
     1
  8
0
100
AcDbBlockEnd
  0
BLOCK
  5
5D
330
59
100
AcDbEntity
  8
0
100
AcDbBlockBegin
  2
_OPEN30
 70
     0
 10
0.0
 20
0.0
 30
0.0
  3
_OPEN30
  1

  0
LINE
  5
5A
330
59
100
AcDbEntity
  8
0
 62
     0
100
AcDbLine
 10
-1.0
 20
0.26794919
 30
0.0
 11
0.0
 21
0.0
 31
0.0
  0
LINE
  5
5B
330
59
100
AcDbEntity
  8
0
 62
     0
100
AcDbLine
 10
0.0
 20
0.0
 30
0.0
 11
-1.0
 21
-0.26794919
 31
0.0
  0
LINE
  5
5C
330
59
100
AcDbEntity
  8
0
 62
     0
100
AcDbLine
 10
0.0
 20
0.0
 30
0.0
 11
-1.0
 21
0.0
 31
0.0
  0
ENDBLK
  5
5E
330
59
100
AcDbEntity
  8
0
100
AcDbBlockEnd
  0
BLOCK
  5
66
330
64
100
AcDbEntity
  8
0
100
AcDbBlockBegin
  2
GENAXEH
 70
     0
 10
0.0
 20
0.0
 30
0.0
  3
GENAXEH
  1

  0
LINE
  5
65
330
64
100
AcDbEntity
  8
0
100
AcDbLine
 10
-1.0
 20
0.0
 30
0.0
 11
1.0
 21
0.0
 31
0.0
  0
ENDBLK
  5
67
330
64
100
AcDbEntity
  8
0
100
AcDbBlockEnd
  0
BLOCK
  5
A220
330
A216
100
AcDbEntity
  8
0
100
AcDbBlockBegin
  2
*D5
 70
     1
 10
0.0
 20
0.0
 30
0.0
  3
*D5
  1

  0
LINE
  5
A656
330
A216
100
AcDbEntity
  8
AM_5
100
AcDbLine
 10
0.0000000000000061
 20
-3.000000000000015
 30
0.0
 11
0.0000000000000053
 21
-16.50000100000011
 31
0.0
  0
LINE
  5
A657
330
A216
100
AcDbEntity
  8
AM_5
100
AcDbLine
 10
-45.0
 20
-3.000000000000064
 30
0.0
 11
-45.0
 21
-16.50000100000011
 31
0.0
  0
LINE
  5
A658
330
A216
100
AcDbEntity
  8
AM_5
100
AcDbLine
 10
-1.249999999999994
 20
-16.00000100000011
 30
0.0
 11
-43.75
 21
-16.00000100000011
 31
0.0
  0
INSERT
  5
A659
330
A216
100
AcDbEntity
  8
AM_5
100
AcDbBlockReference
  2
_OPEN30
 10
0.0000000000000053
 20
-16.00000100000011
 30
0.0
 41
1.25
 42
1.25
 43
1.25
  0
INSERT
  5
A65A
330
A216
100
AcDbEntity
  8
AM_5
100
AcDbBlockReference
  2
_OPEN30
 10
-45.0
 20
-16.00000100000011
 30
0.0
 41
1.25
 42
1.25
 43
1.25
 50
180.0
  0
MTEXT
  5
A65B
330
A216
100
AcDbEntity
  8
AM_5
 62
     2
100
AcDbMText
 10
-22.49999999999999
 20
-14.45000100000011
 30
0.0
 40
1.6
 41
0.0
 71
     5
 72
     1
  1
45
  7
ASAMI
1001
ACAD
1000
MTEXTBEGIN
1070
    73
1070
     1
1070
    44
1040
1.0
1070
    74
1070
     0
1000
MTEXTEND
  0
POINT
  5
A65C
330
A216
100
AcDbEntity
  8
DEFPOINTS
 62
     0
100
AcDbPoint
 10
0.0000000000000061
 20
-2.500000000000015
 30
0.0
  0
POINT
  5
A65D
330
A216
100
AcDbEntity
  8
DEFPOINTS
 62
     0
100
AcDbPoint
 10
-45.0
 20
-2.500000000000064
 30
0.0
  0
POINT
  5
A65E
330
A216
100
AcDbEntity
  8
DEFPOINTS
 62
     0
100
AcDbPoint
 10
-45.0
 20
-16.00000100000011
 30
0.0
  0
ENDBLK
  5
A221
330
A216
100
AcDbEntity
  8
0
100
AcDbBlockEnd
  0
BLOCK
  5
A2AC
330
A2A2
100
AcDbEntity
  8
0
100
AcDbBlockBegin
  2
*D6
 70
     1
 10
0.0
 20
0.0
 30
0.0
  3
*D6
  1

  0
LINE
  5
A649
330
A2A2
100
AcDbEntity
  8
AM_5
100
AcDbLine
 10
0.0000000000000061
 20
-3.000000000000015
 30
0.0
 11
0.0000000000000057
 21
-10.50000100000001
 31
0.0
  0
LINE
  5
A64A
330
A2A2
100
AcDbEntity
  8
AM_5
100
AcDbLine
 10
-12.00002564678757
 20
-2.5
 30
0.0
 11
-12.00002564678757
 21
-10.50000100000001
 31
0.0
  0
LINE
  5
A64B
330
A2A2
100
AcDbEntity
  8
AM_5
100
AcDbLine
 10
-1.249999999999994
 20
-10.00000100000001
 30
0.0
 11
-10.75002564678757
 21
-10.00000100000001
 31
0.0
  0
INSERT
  5
A64C
330
A2A2
100
AcDbEntity
  8
AM_5
100
AcDbBlockReference
  2
_OPEN30
 10
0.0000000000000057
 20
-10.00000100000001
 30
0.0
 41
1.25
 42
1.25
 43
1.25
  0
INSERT
  5
A64D
330
A2A2
100
AcDbEntity
  8
AM_5
100
AcDbBlockReference
  2
_OPEN30
 10
-12.00002564678757
 20
-10.00000100000001
 30
0.0
 41
1.25
 42
1.25
 43
1.25
 50
180.0
  0
MTEXT
  5
A64E
330
A2A2
100
AcDbEntity
  8
AM_5
 62
     2
100
AcDbMText
 10
-6.000012823393785
 20
-8.450001000000014
 30
0.0
 40
1.6
 41
0.0
 71
     5
 72
     1
  1
12
  7
ASAMI
1001
ACAD
1000
MTEXTBEGIN
1070
    73
1070
     1
1070
    44
1040
1.0
1070
    74
1070
     0
1000
MTEXTEND
  0
POINT
  5
A64F
330
A2A2
100
AcDbEntity
  8
DEFPOINTS
 62
     0
100
AcDbPoint
 10
0.0000000000000061
 20
-2.500000000000015
 30
0.0
  0
POINT
  5
A650
330
A2A2
100
AcDbEntity
  8
DEFPOINTS
 62
     0
100
AcDbPoint
 10
-12.00002564678757
 20
-2.0
 30
0.0
  0
POINT
  5
A651
330
A2A2
100
AcDbEntity
  8
DEFPOINTS
 62
     0
100
AcDbPoint
 10
-12.00002564678757
 20
-10.00000100000001
 30
0.0
  0
ENDBLK
  5
A2AD
330
A2A2
100
AcDbEntity
  8
0
100
AcDbBlockEnd
  0
BLOCK
  5
A39C
330
A392
100
AcDbEntity
  8
0
100
AcDbBlockBegin
  2
*D7
 70
     1
 10
0.0
 20
0.0
 30
0.0
  3
*D7
  1

  0
LINE
  5
A970
330
A392
100
AcDbEntity
  8
AM_5
100
AcDbLine
 10
0.4999999999994719
 20
2.0
 30
0.0
 11
12.05776903085517
 21
1.999999999999996
 31
0.0
  0
LINE
  5
A971
330
A392
100
AcDbEntity
  8
AM_5
100
AcDbLine
 10
0.5000000000000049
 20
-2.000000000000012
 30
0.0
 11
12.05776903085517
 21
-2.000000000000015
 31
0.0
  0
LINE
  5
A972
330
A392
100
AcDbEntity
  8
AM_5
100
AcDbLine
 10
11.55776903085517
 20
3.249999999999996
 30
0.0
 11
11.55776903085518
 21
4.499999999999996
 31
0.0
  0
LINE
  5
A973
330
A392
100
AcDbEntity
  8
AM_5
100
AcDbLine
 10
11.55776903085517
 20
-3.250000000000015
 30
0.0
 11
11.55776903085517
 21
-4.500000000000015
 31
0.0
  0
MTEXT
  5
A974
330
A392
100
AcDbEntity
  8
AM_5
 62
     2
100
AcDbMText
 10
10.48628772180484
 20
-0.1277765534199204
 30
0.0
 40
1.6
 41
0.0
 71
     5
 72
     1
  1
%%c4
  7
ASAMI
 11
0.0000000000000001
 21
1.0
 31
0.0
  0
LINE
  5
A975
330
A392
100
AcDbEntity
  8
AM_5
100
AcDbLine
 10
11.55776903085517
 20
1.999999999999996
 30
0.0
 11
11.55776903085517
 21
-2.000000000000015
 31
0.0
  0
INSERT
  5
A976
330
A392
100
AcDbEntity
  8
AM_5
100
AcDbBlockReference
  2
_OPEN30
 10
11.55776903085517
 20
1.999999999999996
 30
0.0
 41
1.25
 42
1.25
 43
1.25
 50
270.0
  0
INSERT
  5
A977
330
A392
100
AcDbEntity
  8
AM_5
100
AcDbBlockReference
  2
_OPEN30
 10
11.55776903085517
 20
-2.000000000000015
 30
0.0
 41
1.25
 42
1.25
 43
1.25
 50
90.0
  0
POINT
  5
A978
330
A392
100
AcDbEntity
  8
DEFPOINTS
 62
     0
100
AcDbPoint
 10
-0.0000000000005282
 20
2.0
 30
0.0
  0
POINT
  5
A979
330
A392
100
AcDbEntity
  8
DEFPOINTS
 62
     0
100
AcDbPoint
 10
0.0000000000000049
 20
-2.000000000000012
 30
0.0
  0
POINT
  5
A97A
330
A392
100
AcDbEntity
  8
DEFPOINTS
 62
     0
100
AcDbPoint
 10
11.55776903085517
 20
-2.000000000000015
 30
0.0
  0
ENDBLK
  5
A39D
330
A392
100
AcDbEntity
  8
0
100
AcDbBlockEnd
  0
BLOCK
  5
A4C1
330
A4B7
100
AcDbEntity
  8
0
100
AcDbBlockBegin
  2
*D8
 70
     1
 10
0.0
 20
0.0
 30
0.0
  3
*D8
  1

  0
LINE
  5
A65F
330
A4B7
100
AcDbEntity
  8
AM_5
100
AcDbLine
 10
-45.0
 20
2.99999999999993
 30
0.0
 11
-55.81099700121462
 21
2.999999999999934
 31
0.0
  0
LINE
  5
A660
330
A4B7
100
AcDbEntity
  8
AM_5
100
AcDbLine
 10
-45.0
 20
-3.000000000000064
 30
0.0
 11
-55.81099700121462
 21
-3.000000000000061
 31
0.0
  0
LINE
  5
A661
330
A4B7
100
AcDbEntity
  8
AM_5
100
AcDbLine
 10
-55.31099700121462
 20
1.749999999999933
 30
0.0
 11
-55.31099700121462
 21
-1.750000000000061
 31
0.0
  0
INSERT
  5
A662
330
A4B7
100
AcDbEntity
  8
AM_5
100
AcDbBlockReference
  2
_OPEN30
 10
-55.31099700121462
 20
2.999999999999933
 30
0.0
 41
1.25
 42
1.25
 43
1.25
 50
90.0
  0
INSERT
  5
A663
330
A4B7
100
AcDbEntity
  8
AM_5
100
AcDbBlockReference
  2
_OPEN30
 10
-55.31099700121462
 20
-3.000000000000061
 30
0.0
 41
1.25
 42
1.25
 43
1.25
 50
270.0
  0
MTEXT
  5
A664
330
A4B7
100
AcDbEntity
  8
AM_5
 62
     2
100
AcDbMText
 10
-56.86099700121461
 20
-0.0000000000000728
 30
0.0
 40
1.6
 41
0.0
 71
     5
 72
     1
  1
%%c6
  7
ASAMI
 11
0.0000000000000001
 21
1.0
 31
0.0
1001
ACAD
1000
MTEXTBEGIN
1070
    73
1070
     1
1070
    44
1040
1.0
1070
    74
1070
     0
1000
MTEXTEND
  0
POINT
  5
A665
330
A4B7
100
AcDbEntity
  8
DEFPOINTS
 62
     0
100
AcDbPoint
 10
-44.5
 20
2.99999999999993
 30
0.0
  0
POINT
  5
A666
330
A4B7
100
AcDbEntity
  8
DEFPOINTS
 62
     0
100
AcDbPoint
 10
-44.5
 20
-3.000000000000064
 30
0.0
  0
POINT
  5
A667
330
A4B7
100
AcDbEntity
  8
DEFPOINTS
 62
     0
100
AcDbPoint
 10
-55.31099700121462
 20
-3.000000000000061
 30
0.0
  0
ENDBLK
  5
A4C2
330
A4B7
100
AcDbEntity
  8
0
100
AcDbBlockEnd
  0
ENDSEC
  0
SECTION
  2
ENTITIES
  0
TEXT
  5
1500
330
1F
100
AcDbEntity
  8
AM_6
100
AcDbText
 10
-33.2142857142857
 20
-27.25000100000011
 30
0.0
 40
2.5
  1
USM2040ZX
 72
     4
 11
-22.49999999999999
 21
-26.00000100000011
 31
0.0
100
AcDbText
  0
LINE
  5
9FF0
330
1F
100
AcDbEntity
  8
AM_7
  6
AM_ISO08W050X2
100
AcDbLine
 10
4.557768030855186
 20
0.0
 30
0.0
 11
-48.31099600121461
 21
-0.0000000000000622
 31
0.0
1001
GENIUS_GENODEF_13
1002
{
1000
HIER
1070
     0
1002
}
1002
{
1000
MANEDIT
1070
     0
1002
}
1002
{
1000
NOSEL
1070
     0
1002
}
1002
{
1000
BEHIND
1070
     0
1002
}
1002
{
1000
REACTOR
1002
}
1001
GENIUS_GENOBJ-N-CEN_13
1002
{
1000
OWNER
1000
GEN
1002
}
  0
DIMENSION
  5
A215
330
1F
100
AcDbEntity
  8
AM_5
100
AcDbDimension
  2
*D5
 10
-45.0
 20
-16.00000100000011
 30
0.0
 11
-22.49999999999999
 21
-14.45000100000011
 31
0.0
 70
    32
  1
<>
  3
AM_JIS
100
AcDbAlignedDimension
 13
0.0000000000000061
 23
-2.500000000000015
 33
0.0
 14
-45.0
 24
-2.500000000000064
 34
0.0
 50
0.0000000000001641
100
AcDbRotatedDimension
1001
GENIUS_GENDTOL_13
1000

1000
h7
1000

1040
0.0
  0
DIMENSION
  5
A2A1
330
1F
100
AcDbEntity
  8
AM_5
100
AcDbDimension
  2
*D6
 10
-12.00002564678757
 20
-10.00000100000001
 30
0.0
 11
-6.000012823393785
 21
-8.450001000000014
 31
0.0
 70
    32
  1
<>
  3
AM_JIS
100
AcDbAlignedDimension
 13
0.0000000000000061
 23
-2.500000000000015
 33
0.0
 14
-12.00002564678757
 24
-2.0
 34
0.0
 50
0.0000000000001641
100
AcDbRotatedDimension
1001
GENIUS_GENDTOL_13
1000

1000
h7
1000

1040
0.0
  0
DIMENSION
  5
A391
330
1F
100
AcDbEntity
  8
AM_5
100
AcDbDimension
  2
*D7
 10
11.55776903085517
 20
-2.000000000000015
 30
0.0
 11
10.48628772180484
 21
-0.1277765534199204
 31
0.0
 70
   160
  1
%%c<>
  3
AM_JIS
100
AcDbAlignedDimension
 13
-0.0000000000005282
 23
2.0
 33
0.0
 14
0.0000000000000049
 24
-2.000000000000012
 34
0.0
 50
90.00000000000003
100
AcDbRotatedDimension
1001
GENIUS_GENDTOL_13
1000

1000
h7
1000

1040
0.0
1001
ACAD
1000
DSTYLE
1002
{
1070
   287
1070
     5
1070
   279
1070
     2
1002
}
  0
LINE
  5
A4B1
330
1F
100
AcDbEntity
  8
AM_0
100
AcDbLine
 10
-20.5
 20
-3.000000000000037
 30
0.0
 11
-44.5
 21
-3.000000000000064
 31
0.0
  0
LINE
  5
A4B3
330
1F
100
AcDbEntity
  8
AM_0
100
AcDbLine
 10
-45.0
 20
2.49999999999993
 30
0.0
 11
-45.0
 21
-2.500000000000064
 31
0.0
  0
LINE
  5
A4B5
330
1F
100
AcDbEntity
  8
AM_0
100
AcDbLine
 10
-44.5
 20
2.99999999999993
 30
0.0
 11
-44.5
 21
-3.000000000000064
 31
0.0
  0
DIMENSION
  5
A4B6
330
1F
100
AcDbEntity
  8
AM_5
100
AcDbDimension
  2
*D8
 10
-55.31099700121462
 20
-3.000000000000061
 30
0.0
 11
-56.86099700121461
 21
-0.0000000000000728
 31
0.0
 70
    32
  1
%%c<>
  3
AM_JIS
100
AcDbAlignedDimension
 13
-44.5
 23
2.99999999999993
 33
0.0
 14
-44.5
 24
-3.000000000000064
 34
0.0
 50
270.0
100
AcDbRotatedDimension
1001
GENIUS_GENDTOL_13
1000

1000
h7
1000

1040
0.0
  0
LINE
  5
A4C3
330
1F
100
AcDbEntity
  8
AM_0
100
AcDbLine
 10
-20.5
 20
2.999999999999959
 30
0.0
 11
-44.50000000000001
 21
2.99999999999993
 31
0.0
  0
LINE
  5
A4CF
330
1F
100
AcDbEntity
  8
AM_0
100
AcDbLine
 10
-44.50000000000001
 20
2.99999999999993
 30
0.0
 11
-45.0
 21
2.49999999999993
 31
0.0
1001
GENIUS_GENFIL_13
1070
     0
1040
0.5
1040
0.5
1040
20.0
1040
0.0
1002
{
1002
}
1001
GENIUS_GENODEF_13
1002
{
1000
HIER
1070
     0
1002
}
1002
{
1000
MANEDIT
1070
     0
1002
}
1002
{
1000
NOSEL
1070
     0
1002
}
1002
{
1000
BEHIND
1070
     0
1002
}
1002
{
1000
REACTOR
1002
}
1001
GENIUS_GENOBJ-N-CHA_13
1002
{
1000
OWNER
1000
GEN
1002
}
  0
LINE
  5
A4D2
330
1F
100
AcDbEntity
  8
AM_0
100
AcDbLine
 10
-45.0
 20
-2.500000000000064
 30
0.0
 11
-44.5
 21
-3.000000000000064
 31
0.0
1001
GENIUS_GENFIL_13
1070
     0
1040
0.5
1040
0.5
1040
20.0
1040
0.0
1002
{
1002
}
1001
GENIUS_GENODEF_13
1002
{
1000
HIER
1070
     0
1002
}
1002
{
1000
MANEDIT
1070
     0
1002
}
1002
{
1000
NOSEL
1070
     0
1002
}
1002
{
1000
BEHIND
1070
     0
1002
}
1002
{
1000
REACTOR
1002
}
1001
GENIUS_GENOBJ-N-CHA_13
1002
{
1000
OWNER
1000
GEN
1002
}
  0
LINE
  5
A524
330
1F
100
AcDbEntity
  8
AM_11
100
AcDbLine
 10
-12.00002564678757
 20
-2.0
 30
0.0
 11
0.0
 21
-2.0
 31
0.0
  0
LINE
  5
A525
330
1F
100
AcDbEntity
  8
AM_11
100
AcDbLine
 10
-0.0000000000003638
 20
2.0
 30
0.0
 11
-12.00002564678757
 21
2.0
 31
0.0
  0
LINE
  5
A527
330
1F
100
AcDbEntity
  8
AM_7
  6
AM_ISO08W050X2
100
AcDbLine
 10
2.278884015427593
 20
0.0
 30
0.0
 11
-20.40000000000009
 21
0.0
 31
0.0
1001
GENIUS_GENODEF_13
1002
{
1000
HIER
1070
     0
1002
}
1002
{
1000
MANEDIT
1070
     0
1002
}
1002
{
1000
NOSEL
1070
     0
1002
}
1002
{
1000
BEHIND
1070
     0
1002
}
1002
{
1000
REACTOR
1002
}
1001
GENIUS_GENOBJ-N-CEN_13
1002
{
1000
OWNER
1000
GEN
1002
}
  0
LINE
  5
A5BC
330
1F
100
AcDbEntity
  8
AM_0
100
AcDbLine
 10
-0.0389562206282531
 20
-0.1866304342323019
 30
0.0
 11
-0.3331470394527041
 21
-0.3583844484119254
 31
0.0
  0
LINE
  5
A5BD
330
1F
100
AcDbEntity
  8
AM_0
100
AcDbLine
 10
0.0
 20
-0.1100000000000364
 30
0.0
 11
-0.0389562206282531
 21
-0.1866304342323019
 31
0.0
  0
LINE
  5
A5BE
330
1F
100
AcDbEntity
  8
AM_0
100
AcDbLine
 10
-0.1391293593865941
 20
-1.631288073805353
 30
0.0
 11
-0.1391293593865941
 21
-1.609742172453024
 31
0.0
  0
ELLIPSE
  5
A5BF
330
1F
100
AcDbEntity
  8
AM_0
100
AcDbEllipse
 10
5.270876246246395
 20
0.008414924683342
 30
0.0
 11
0.0000000000000458
 21
6.053008155964715
 31
0.0
210
0.0
220
0.0
230
1.0
 40
0.9275290625772971
 41
1.631431340463002
 42
1.841418545974729
  0
LINE
  5
A5C0
330
1F
100
AcDbEntity
  8
AM_0
100
AcDbLine
 10
0.0
 20
-2.0
 30
0.0
 11
-0.0389562206282531
 21
-1.893376463048753
 31
0.0
  0
LINE
  5
A5C1
330
1F
100
AcDbEntity
  8
AM_0
100
AcDbLine
 10
-0.0389562206282531
 20
-1.893376463048753
 30
0.0
 11
-0.0389562206282531
 21
-0.1866304342323019
 31
0.0
  0
LINE
  5
A5C2
330
1F
100
AcDbEntity
  8
AM_0
100
AcDbLine
 10
-0.0389562206282531
 20
-1.893376463048753
 30
0.0
 11
-0.1391293593865941
 21
-1.631288073805353
 31
0.0
  0
LINE
  5
A5C3
330
1F
100
AcDbEntity
  8
AM_0
100
AcDbLine
 10
0.0
 20
-2.0
 30
0.0
 11
0.0
 21
2.0
 31
0.0
  0
LINE
  5
A5C4
330
1F
100
AcDbEntity
  8
AM_0
100
AcDbLine
 10
-2.112392021943251
 20
1.484680832219692
 30
0.0
 11
0.0
 21
-0.1100000000000364
 31
0.0
  0
ELLIPSE
  5
A5C5
330
1F
100
AcDbEntity
  8
AM_0
100
AcDbEllipse
 10
-12.35922276038713
 20
2.546354637879721
 30
0.0
 11
0.0000000000000006
 21
0.9765228734896888
 31
0.0
210
0.0
220
0.0
230
1.0
 40
0.9275290625772926
 41
2.797690175084262
 42
3.515370053468952
  0
LINE
  5
A5C6
330
1F
100
AcDbEntity
  8
AM_0
100
AcDbLine
 10
-12.00002564678757
 20
-1.351534764214084
 30
0.0
 11
-12.00002564678757
 21
-1.635264375082879
 31
0.0
  0
LINE
  5
A5C7
330
1F
100
AcDbEntity
  8
AM_0
100
AcDbLine
 10
-12.00002564678757
 20
-1.351534764214084
 30
0.0
 11
-12.00002564678757
 21
-1.526481398265878
 31
0.0
  0
ELLIPSE
  5
A5C8
330
1F
100
AcDbEntity
  8
AM_0
100
AcDbEllipse
 10
-12.35922276038713
 20
-2.54635473843964
 30
0.0
 11
0.0217474582961751
 21
0.9762703911442565
 31
0.0
210
0.0
220
0.0
230
1.0
 40
0.9355664845079449
 41
-0.3802558337705939
 42
0.3646243961076452
  0
LINE
  5
A5C9
330
1F
100
AcDbEntity
  8
AM_0
100
AcDbLine
 10
-12.66460984008471
 20
-1.627011122916246
 30
0.0
 11
-13.61512182661199
 21
-2.000000050559993
 31
0.0
  0
LINE
  5
A5CD
330
1F
100
AcDbEntity
  8
AM_0
100
AcDbLine
 10
-12.66460984008707
 20
1.627011022357237
 30
0.0
 11
-13.61512182661165
 21
1.999999949999983
 31
0.0
  0
LINE
  5
A5CE
330
1F
100
AcDbEntity
  8
AM_0
100
AcDbLine
 10
-3.760874115393841
 20
-1.547929270472468
 30
0.0
 11
-7.453717832044502
 21
-1.686962050577403
 31
0.0
  0
LINE
  5
A5CF
330
1F
100
AcDbEntity
  8
AM_0
100
AcDbLine
 10
-2.112392021943251
 20
1.484680832219692
 30
0.0
 11
-7.432080469344548
 21
1.697934641264601
 31
0.0
  0
SPLINE
  5
A5D0
330
1F
100
AcDbEntity
  8
AM_0
100
AcDbSpline
210
0.0
220
0.0
230
1.0
 70
     8
 71
     3
 72
     8
 73
     4
 74
     0
 42
0.0000000001
 43
0.0000000001
 40
0.0
 40
0.0
 40
0.0
 40
0.0
 40
3.325240547704682
 40
3.325240547704682
 40
3.325240547704682
 40
3.325240547704682
 10
-0.3331470394527041
 20
-0.3583844484119254
 30
0.0
 10
-1.10306311034591
 20
-0.0465003186665723
 30
0.0
 10
-2.917220118711357
 20
1.30201331597547
 30
0.0
 10
-2.112392021943083
 20
1.484680832219692
 30
0.0
  0
SPLINE
  5
A5D1
330
1F
100
AcDbEntity
  8
AM_0
100
AcDbSpline
210
0.0
220
0.0
230
1.0
 70
     8
 71
     3
 72
     8
 73
     4
 74
     0
 42
0.0000000001
 43
0.0000000001
 40
0.0
 40
0.0
 40
0.0
 40
0.0
 40
2.821318814363394
 40
2.821318814363394
 40
2.821318814363394
 40
2.821318814363394
 10
-0.0742023250061161
 20
2.0
 30
0.0
 10
0.1250153642346745
 20
1.278958239982805
 30
0.0
 10
-1.415791595644838
 20
1.529287890869089
 30
0.0
 10
-2.112392021943251
 20
1.484680832219692
 30
0.0
  0
SPLINE
  5
A5D2
330
1F
100
AcDbEntity
  8
AM_0
100
AcDbSpline
210
0.0
220
0.0
230
1.0
 70
     8
 71
     3
 72
     8
 73
     4
 74
     0
 42
0.0000000001
 43
0.0000000001
 40
0.0
 40
0.0
 40
0.0
 40
0.0
 40
7.24499827467194
 40
7.24499827467194
 40
7.24499827467194
 40
7.24499827467194
 10
0.0
 20
-2.0
 30
0.0
 10
-1.79198572215482
 20
-1.999999999999999
 30
0.0
 10
-3.418871911287633
 20
-0.9999999999999998
 30
0.0
 10
-5.045758100420446
 20
0.0
 30
0.0
  0
SPLINE
  5
A5D3
330
1F
100
AcDbEntity
  8
AM_0
100
AcDbSpline
210
0.0
220
0.0
230
1.0
 70
     8
 71
     3
 72
     8
 73
     4
 74
     0
 42
0.0000000001
 43
0.0000000001
 40
0.0
 40
0.0
 40
0.0
 40
0.0
 40
7.24499827467194
 40
7.24499827467194
 40
7.24499827467194
 40
7.24499827467194
 10
-10.09151620084089
 20
2.0
 30
0.0
 10
-8.299530478686071
 20
1.999999999999999
 30
0.0
 10
-6.672644289553258
 20
0.9999999999999998
 30
0.0
 10
-5.045758100420446
 20
0.0
 30
0.0
  0
SPLINE
  5
A5D4
330
1F
100
AcDbEntity
  8
AM_0
100
AcDbSpline
210
0.0
220
0.0
230
1.0
 70
     8
 71
     3
 72
     8
 73
     4
 74
     0
 42
0.0000000001
 43
0.0000000001
 40
0.0
 40
0.0
 40
0.0
 40
0.0
 40
6.457542170879827
 40
6.457542170879827
 40
6.457542170879827
 40
6.457542170879827
 10
0.0
 20
2.0
 30
0.0
 10
-0.7986077381745178
 20
2.0
 30
0.0
 10
-1.564425297701694
 20
1.801391451282688
 30
0.0
 10
-2.312065791889501
 20
1.492685284438721
 30
0.0
  0
SPLINE
  5
A5D5
330
1F
100
AcDbEntity
  8
AM_0
100
AcDbSpline
210
0.0
220
0.0
230
1.0
 70
     8
 71
     3
 72
     8
 73
     4
 74
     0
 42
0.0000000001
 43
0.0000000001
 40
0.7142832446738512
 40
0.7142832446738512
 40
0.7142832446738512
 40
0.7142832446738512
 40
14.36247867694493
 40
14.36247867694493
 40
14.36247867694493
 40
14.36247867694493
 10
-8.434274785729991
 20
1.840239115929671
 30
0.0
 10
-6.759431722244319
 20
1.755122814190235
 30
0.0
 10
-5.205961839175291
 20
0.8775614070950723
 30
0.0
 10
-3.652491956106094
 20
0.0
 30
0.0
  0
SPLINE
  5
A5D6
330
1F
100
AcDbEntity
  8
AM_0
100
AcDbSpline
210
0.0
220
0.0
230
1.0
 70
     8
 71
     3
 72
     8
 73
     4
 74
     0
 42
0.0000000001
 43
0.0000000001
 40
0.3581103616548037
 40
0.3581103616548037
 40
0.3581103616548037
 40
0.3581103616548037
 40
14.43901837670146
 40
14.43901837670146
 40
14.43901837670146
 40
14.43901837670146
 10
-9.311356146174423
 20
1.938338169141024
 30
0.0
 10
-7.57739815476105
 20
1.891995603221312
 30
0.0
 10
-5.987787233082725
 20
0.9459978016106106
 30
0.0
 10
-4.3981763114044
 20
0.0
 30
0.0
  0
SPLINE
  5
A5D7
330
1F
100
AcDbEntity
  8
AM_0
100
AcDbSpline
210
0.0
220
0.0
230
1.0
 70
     8
 71
     3
 72
     8
 73
     4
 74
     0
 42
0.0000000001
 43
0.0000000001
 40
1.870660592686466
 40
1.870660592686466
 40
1.870660592686466
 40
1.870660592686466
 40
14.43901837670146
 40
14.43901837670146
 40
14.43901837670146
 40
14.43901837670146
 10
-0.0389562206282531
 20
-1.893376463048753
 30
0.0
 10
-1.56046175781423
 20
-1.688760244840614
 30
0.0
 10
-2.979319034609315
 20
-0.8443801224203525
 30
0.0
 10
-4.3981763114044
 20
0.0
 30
0.0
  0
SPLINE
  5
A5D8
330
1F
100
AcDbEntity
  8
AM_0
100
AcDbSpline
210
0.0
220
0.0
230
1.0
 70
     8
 71
     3
 72
     8
 73
     4
 74
     0
 42
0.0000000001
 43
0.0000000001
 40
4.219358800530717
 40
4.219358800530717
 40
4.219358800530717
 40
4.219358800530717
 40
14.36247867694493
 40
14.36247867694493
 40
14.36247867694493
 40
14.36247867694493
 10
-0.1391293593865941
 20
-1.631288073805262
 30
0.0
 10
-1.343464169016867
 20
-1.3043791166755
 30
0.0
 10
-2.497978062561396
 20
-0.6521895583377955
 30
0.0
 10
-3.652491956106094
 20
0.0
 30
0.0
  0
SPLINE
  5
A5D9
330
1F
100
AcDbEntity
  8
AM_0
100
AcDbSpline
210
0.0
220
0.0
230
1.0
 70
     8
 71
     3
 72
     8
 73
     4
 74
     0
 42
0.0000000001
 43
0.0000000001
 40
0.0
 40
0.0
 40
0.0
 40
0.0
 40
1.748655602797241
 40
1.748655602797241
 40
1.748655602797241
 40
1.748655602797241
 10
-8.703906308152204
 20
-1.83122984894635
 30
0.0
 10
-8.279872610829382
 20
-1.83122984894635
 30
0.0
 10
-7.86377505627854
 20
-1.778980046707965
 30
0.0
 10
-7.453717832044671
 20
-1.686962050577403
 30
0.0
  0
SPLINE
  5
A5DA
330
1F
100
AcDbEntity
  8
AM_0
100
AcDbSpline
210
0.0
220
0.0
230
1.0
 70
     8
 71
     3
 72
     8
 73
     4
 74
     0
 42
0.0000000001
 43
0.0000000001
 40
0.0
 40
0.0
 40
0.0
 40
0.0
 40
1.389839699216864
 40
1.389839699216864
 40
1.389839699216864
 40
1.389839699216864
 10
-9.450077997917263
 20
-1.921621652640078
 30
0.0
 10
-9.113054020524419
 20
-1.921621652640078
 30
0.0
 10
-8.781479972006247
 20
-1.887338252885547
 30
0.0
 10
-8.454326382025573
 20
-1.825247454057716
 30
0.0
  0
SPLINE
  5
A5DB
330
1F
100
AcDbEntity
  8
AM_0
100
AcDbSpline
210
0.0
220
0.0
230
1.0
 70
     8
 71
     3
 72
     8
 73
     4
 74
     0
 42
0.0000000001
 43
0.0000000001
 40
0.0
 40
0.0
 40
0.0
 40
0.0
 40
1.293721832890842
 40
1.293721832890842
 40
1.293721832890842
 40
1.293721832890842
 10
-10.09081810989198
 20
-2.000000050559993
 30
0.0
 10
-9.777101874842378
 20
-2.000000050559993
 30
0.0
 10
-9.468442132275971
 20
-1.969365728881439
 30
0.0
 10
-9.163953861347344
 20
-1.913458907650692
 30
0.0
  0
SPLINE
  5
A5DC
330
1F
100
AcDbEntity
  8
AM_0
100
AcDbSpline
210
0.0
220
0.0
230
1.0
 70
     8
 71
     3
 72
     8
 73
     4
 74
     0
 42
0.0000000001
 43
0.0000000001
 40
0.0
 40
0.0
 40
0.0
 40
0.0
 40
3.101397527050138
 40
3.101397527050138
 40
3.101397527050138
 40
3.101397527050138
 10
-9.450077997917263
 20
-1.921621652640078
 30
0.0
 10
-10.2021397865047
 20
-1.921621652640078
 30
0.0
 10
-10.92706367235057
 20
-1.750907577360885
 30
0.0
 10
-12.00002564678757
 20
-1.355582494494921
 30
0.0
  0
SPLINE
  5
A5DD
330
1F
100
AcDbEntity
  8
AM_0
100
AcDbSpline
210
0.0
220
0.0
230
1.0
 70
     8
 71
     3
 72
     8
 73
     4
 74
     0
 42
0.0000000001
 43
0.0000000001
 40
0.0
 40
0.0
 40
0.0
 40
0.0
 40
2.86670689287766
 40
2.86670689287766
 40
2.86670689287766
 40
2.86670689287766
 10
-10.09081810989198
 20
-2.000000050560083
 30
0.0
 10
-10.78596947130549
 20
-2.000000050560083
 30
0.0
 10
-11.45629326743313
 20
-1.849584397026683
 30
0.0
 10
-12.00002564678757
 20
-1.64737127645319
 30
0.0
  0
SPLINE
  5
A5DE
330
1F
100
AcDbEntity
  8
AM_0
100
AcDbSpline
210
0.0
220
0.0
230
1.0
 70
     8
 71
     3
 72
     8
 73
     4
 74
     0
 42
0.0000000001
 43
0.0000000001
 40
0.0
 40
0.0
 40
0.0
 40
0.0
 40
4.717968117863759
 40
4.717968117863759
 40
4.717968117863759
 40
4.717968117863759
 10
-8.703906308152204
 20
-1.831229848946441
 30
0.0
 10
-9.847972333314192
 20
-1.831229848946441
 30
0.0
 10
-10.93426722236998
 20
-1.450877513645991
 30
0.0
 10
-12.36376253412374
 20
-0.7529052857815726
 30
0.0
  0
SPLINE
  5
A5DF
330
1F
100
AcDbEntity
  8
AM_0
100
AcDbSpline
210
0.0
220
0.0
230
1.0
 70
     8
 71
     3
 72
     8
 73
     4
 74
     0
 42
0.0000000001
 43
0.0000000001
 40
2.641391316682392
 40
2.641391316682392
 40
2.641391316682392
 40
2.641391316682392
 40
3.172260675542282
 40
3.172260675542282
 40
3.172260675542282
 40
3.172260675542282
 10
-12.00002564678774
 20
-1.532629408761913
 30
0.0
 10
-12.1217980549925
 20
-1.490470300037741
 30
0.0
 10
-12.24302330089813
 20
-1.444996255924052
 30
0.0
 10
-12.36376253412374
 20
-1.396577746090388
 30
0.0
  0
SPLINE
  5
A5E0
330
1F
100
AcDbEntity
  8
AM_0
100
AcDbSpline
210
0.0
220
0.0
230
1.0
 70
     8
 71
     3
 72
     8
 73
     4
 74
     0
 42
0.0000000001
 43
0.0000000001
 40
4.071346735624547
 40
4.071346735624547
 40
4.071346735624547
 40
4.071346735624547
 40
6.91280490763674
 40
6.91280490763674
 40
6.91280490763674
 40
6.91280490763674
 10
-12.36376253412374
 20
-1.074720609227244
 30
0.0
 10
-12.63840523309031
 20
-0.9500840800171317
 30
0.0
 10
-13.30835908995311
 20
-0.6800110357806091
 30
0.0
 10
-14.32366293157542
 20
0.1517245298723253
 30
0.0
  0
SPLINE
  5
A5E1
330
1F
100
AcDbEntity
  8
AM_0
100
AcDbSpline
210
0.0
220
0.0
230
1.0
 70
     8
 71
     3
 72
     8
 73
     4
 74
     0
 42
0.0000000001
 43
0.0000000001
 40
0.0
 40
0.0
 40
0.0
 40
0.0
 40
2.745882016847017
 40
2.745882016847017
 40
2.745882016847017
 40
2.745882016847017
 10
-10.09081810989198
 20
1.999999949999983
 30
0.0
 10
-10.7566704950922
 20
1.999999949999983
 30
0.0
 10
-11.39974405640468
 20
1.861996418751732
 30
0.0
 10
-12.02850085960044
 20
1.637256048678955
 30
0.0
  0
SPLINE
  5
A5E2
330
1F
100
AcDbEntity
  8
AM_0
100
AcDbSpline
210
0.0
220
0.0
230
1.0
 70
     8
 71
     3
 72
     8
 73
     4
 74
     0
 42
0.0000000001
 43
0.0000000001
 40
1.590776514610431
 40
1.590776514610431
 40
1.590776514610431
 40
1.590776514610431
 40
7.218994763998551
 40
7.218994763998551
 40
7.218994763998551
 40
7.218994763998551
 10
-13.16254143690159
 20
1.459297134083954
 30
0.0
 10
-11.82902148962711
 20
1.220065866502773
 30
0.0
 10
-10.54397501206972
 20
0.6100329081114069
 30
0.0
 10
-9.258928534512321
 20
-0.0000000502800503
 30
0.0
  0
SPLINE
  5
A5E3
330
1F
100
AcDbEntity
  8
AM_0
100
AcDbSpline
210
0.0
220
0.0
230
1.0
 70
     8
 71
     3
 72
     9
 73
     5
 74
     0
 42
0.0000000001
 43
0.0000000001
 40
0.0
 40
0.0
 40
0.0
 40
0.0
 40
0.4149625668811378
 40
1.528874629660323
 40
1.528874629660323
 40
1.528874629660323
 40
1.528874629660323
 10
-13.61512182661165
 20
1.999999949999983
 30
0.0
 10
-13.71775911745537
 20
1.999999949999983
 30
0.0
 10
-14.22579458974714
 20
1.750628589342374
 30
0.0
 10
-13.42832905642355
 20
1.537535204199594
 30
0.0
 10
-13.16254143690159
 20
1.459297134084226
 30
0.0
  0
SPLINE
  5
A5E4
330
1F
100
AcDbEntity
  8
AM_0
100
AcDbSpline
210
0.0
220
0.0
230
1.0
 70
     8
 71
     3
 72
     8
 73
     4
 74
     0
 42
0.0000000001
 43
0.0000000001
 40
0.0
 40
0.0
 40
0.0
 40
0.0
 40
7.077445848048281
 40
7.077445848048281
 40
7.077445848048281
 40
7.077445848048281
 10
-4.211873661914032
 20
-1.564909063171489
 30
0.0
 10
-5.962416785349173
 20
-1.564909063171489
 30
0.0
 10
-7.610672659930831
 20
-0.7824545567257247
 30
0.0
 10
-9.25892853451249
 20
-0.0000000502799594
 30
0.0
  0
SPLINE
  5
A5E5
330
1F
100
AcDbEntity
  8
AM_0
100
AcDbSpline
210
0.0
220
0.0
230
1.0
 70
     8
 71
     3
 72
     8
 73
     4
 74
     0
 42
0.0000000001
 43
0.0000000001
 40
0.0
 40
0.0
 40
0.0
 40
0.0
 40
2.238610194515266
 40
2.238610194515266
 40
2.238610194515266
 40
2.238610194515266
 10
-4.211873661914032
 20
-1.564909063171489
 30
0.0
 10
-3.669030259172641
 20
-1.564909063171489
 30
0.0
 10
-3.13602300315967
 20
-1.489666670596943
 30
0.0
 10
-2.609801704885999
 20
-1.362514550532614
 30
0.0
  0
LINE
  5
A5F4
330
1F
100
AcDbEntity
  8
AM_11
100
AcDbLine
 10
-12.00002564678757
 20
2.0
 30
0.0
 11
-12.00002564678757
 21
-2.0
 31
0.0
  0
LINE
  5
A5FD
330
1F
100
AcDbEntity
  8
AM_0
100
AcDbLine
 10
-20.5
 20
2.999999999999959
 30
0.0
 11
-20.5
 21
-3.000000000000036
 31
0.0
  0
LINE
  5
A616
330
1F
100
AcDbEntity
  8
AM_0
100
AcDbLine
 10
-13.61512182661165
 20
1.999999949999983
 30
0.0
 11
-16.76794938962759
 21
2.000000049677079
 31
0.0
  0
LINE
  5
A617
330
1F
100
AcDbEntity
  8
AM_0
100
AcDbLine
 10
-13.61512169776667
 20
-2.000000000000001
 30
0.0
 11
-16.76794938962737
 21
-2.000000000000004
 31
0.0
  0
LINE
  5
A618
330
1F
100
AcDbEntity
  8
AM_0
100
AcDbLine
 10
-20.5
 20
-3.000000000000036
 30
0.0
 11
-16.76794919243099
 21
-2.000000000000003
 31
0.0
  0
LINE
  5
A619
330
1F
100
AcDbEntity
  8
AM_0
100
AcDbLine
 10
-16.76794938962737
 20
-2.000000052838611
 30
0.0
 11
-16.76794938962759
 21
2.000000052838593
 31
0.0
  0
LINE
  5
A61A
330
1F
100
AcDbEntity
  8
AM_0
100
AcDbLine
 10
-16.76794938962759
 20
2.000000052838593
 30
0.0
 11
-20.5
 21
2.999999999999959
 31
0.0
  0
LINE
  5
A913
330
1F
100
AcDbEntity
  8
AM_0
100
AcDbLine
 10
-12.36376253412374
 20
-1.396577746090388
 30
0.0
 11
-12.36376253412374
 21
-0.7529052857815726
 31
0.0
  0
SPLINE
  5
A914
330
1F
100
AcDbEntity
  8
AM_0
100
AcDbSpline
210
0.0
220
0.0
230
1.0
 70
     8
 71
     3
 72
     9
 73
     5
 74
     3
 42
0.0000000001
 43
0.0000000001
 44
0.0000000001
 40
0.0
 40
0.0
 40
0.0
 40
0.0
 40
1.823760906079049
 40
2.565414850337794
 40
2.565414850337794
 40
2.565414850337794
 40
2.565414850337794
 10
-14.32366293157542
 20
0.1517245298723253
 30
0.0
 10
-13.81884964709994
 20
0.5230051855634407
 30
0.0
 10
-13.10874806946196
 20
1.045271511471764
 30
0.0
 10
-12.24867132334807
 20
1.130345980872937
 30
0.0
 10
-12.00002564678757
 20
1.154940761626932
 30
0.0
 11
-14.32366293157542
 21
0.1517245298723253
 31
0.0
 11
-12.73342818349783
 21
1.04461718218215
 31
0.0
 11
-12.00002564678757
 21
1.154940761626932
 31
0.0
  0
VIEWPORT
  5
110
330
101
100
AcDbEntity
 67
     1
  8
0
100
AcDbViewport
 10
420.5
 20
297.0
 30
0.0
 40
948.9782706766916
 41
628.452
 68
     1
 69
     1
1001
ACAD
1000
MVIEW
1002
{
1070
    16
1010
0.0
1020
0.0
1030
0.0
1010
0.0
1020
0.0
1030
1.0
1040
0.0
1040
628.452
1040
420.5
1040
297.0
1040
50.0
1040
0.0
1040
0.0
1070
     0
1070
   100
1070
     1
1070
     1
1070
     0
1070
     0
1070
     0
1070
     0
1040
0.0
1040
0.0
1040
0.0
1040
10.0
1040
10.0
1040
10.0
1040
10.0
1070
     0
1002
{
1002
}
1002
}
  0
ENDSEC
  0
SECTION
  2
OBJECTS
  0
DICTIONARY
  5
C
330
0
100
AcDbDictionary
  3
ACAD_GROUP
350
D
  3
ACAD_LAYOUT
350
1A
  3
ACAD_MLINESTYLE
350
17
  3
ACAD_PLOTSETTINGS
350
19
  3
ACAD_PLOTSTYLENAME
350
E
  3
ACDBVARIABLEDICTIONARY
350
34
  3
ACMDICTIONARY
350
43
  3
AMG
350
2B
  3
AMGSNAPSETTINGS
350
6E
  3
ASE_INDEX_DICTIONARY
350
151A
  3
DWGPROPS
350
A93A
  3
ACDBHEADERROUNDTRIPXREC
350
A946
  0
DICTIONARY
  5
74
330
1F
100
AcDbDictionary
280
     1
  3
ACAD_INDEX
360
A93C
  3
ACAD_LAYOUTSELFREF
360
A969
  0
DICTIONARY
  5
A96E
330
101
100
AcDbDictionary
280
     1
  3
ACAD_LAYOUTSELFREF
360
A96F
  0
DICTIONARY
  5
D
102
{ACAD_REACTORS
330
C
102
}
330
C
100
AcDbDictionary
  0
DICTIONARY
  5
1A
102
{ACAD_REACTORS
330
C
102
}
330
C
100
AcDbDictionary
  0
DICTIONARY
  5
17
102
{ACAD_REACTORS
330
C
102
}
330
C
100
AcDbDictionary
  3
STANDARD
350
18
  0
DICTIONARY
  5
19
102
{ACAD_REACTORS
330
C
102
}
330
C
100
AcDbDictionary
  0
ACDBDICTIONARYWDFLT
  5
E
102
{ACAD_REACTORS
330
C
102
}
330
C
100
AcDbDictionary
281
     1
  3
Normal
350
F
100
AcDbDictionaryWithDefault
340
F
  0
DICTIONARY
  5
34
102
{ACAD_REACTORS
330
C
102
}
330
C
100
AcDbDictionary
  3
INDEXCTL
350
35
  3
SORTENTS
350
B5E
  0
DICTIONARY
  5
43
102
{ACAD_REACTORS
330
C
102
}
330
C
100
AcDbDictionary
  3
ACMSTDDICTIONARY
350
260
  0
DICTIONARY
  5
2B
102
{ACAD_REACTORS
330
C
102
}
330
C
100
AcDbDictionary
  3
ACMGSETTINGS
350
2C
  0
DICTIONARY
  5
6E
102
{ACAD_REACTORS
330
C
102
}
330
C
100
AcDbDictionary
  0
DICTIONARY
  5
151A
102
{ACAD_REACTORS
330
C
102
}
330
C
100
AcDbDictionary
  3
ASEBLOCKHIERARCHYINDEXRECORD
350
151C
1001
DCO15
1040
1471862535.906
  0
XRECORD
  5
A93A
102
{ACAD_REACTORS
330
C
102
}
330
C
100
AcDbXrecord
  1
DWGPROPS COOKIE
  2

  3

  4

  6

  7

  8

  9

300
AmdtFileType=82
301
=
302
=
303
=
304
=
305
=
306
=
307
=
308
=
309
=
 40
0.5348069791666667
 41
2452838.430434386
 42
2453054.440901215
  1

 90
        1
  0
DICTIONARY
  5
A946
102
{ACAD_REACTORS
330
C
102
}
330
C
100
AcDbDictionary
  3
TSTACKALIGN
350
A947
  3
TSTACKSIZE
350
A948
  3
HYPERLINKBASE
350
A949
  3
STYLESHEET
350
A94A
  3
LAYOUTDICT
350
A94B
  3
PLOTSETDICT
350
A94C
  3
PLOTSTYLNAMDICT
350
A94D
  3
LWETCUNION
350
A94E
  3
INSUNITS
350
A94F
  3
CEPSNTYPE
350
A950
  3
FINGERPRINTGUID
350
A951
  3
VERSIONGUID
350
A952
  3
PSVPSCALE
350
A953
  3
DIMSTYLEDATA
350
A954
  3
PUCSORTHOREF
350
A955
  3
PUCSORTHOVIEW
350
A956
  3
PUCSBASE
350
A957
  3
PUCSORGTOP
350
A958
  3
PUCSORGBOTTOM
350
A959
  3
PUCSORGLEFT
350
A95A
  3
PUCSORGRIGHT
350
A95B
  3
PUCSORGFRONT
350
A95C
  3
PUCSORGBACK
350
A95D
  3
UCSORTHOREF
350
A95E
  3
UCSORTHOVIEW
350
A95F
  3
UCSBASE
350
A960
  3
UCSORGTOP
350
A961
  3
UCSORGBOTTOM
350
A962
  3
UCSORGLEFT
350
A963
  3
UCSORGRIGHT
350
A964
  3
UCSORGFRONT
350
A965
  3
UCSORGBACK
350
A966
  0
DICTIONARY
  5
A93C
102
{ACAD_REACTORS
330
74
102
}
330
74
100
AcDbDictionary
  3
*A1
350
A93D
  0
XRECORD
  5
A969
102
{ACAD_REACTORS
330
74
102
}
330
74
100
AcDbXrecord
340
1F
  0
XRECORD
  5
A96F
102
{ACAD_REACTORS
330
A96E
102
}
330
A96E
100
AcDbXrecord
340
101
  0
MLINESTYLE
  5
18
102
{ACAD_REACTORS
330
17
102
}
330
17
100
AcDbMlineStyle
  2
STANDARD
 70
     0
  3

 62
   256
 51
90.0
 52
90.0
 71
     2
 49
0.5
 62
   256
  6
BYLAYER
 49
-0.5
 62
   256
  6
BYLAYER
  0
ACDBPLACEHOLDER
  5
F
102
{ACAD_REACTORS
330
E
102
}
330
E
100
AcDbPlaceHolder
280
     0
  0
DICTIONARYVAR
  5
35
102
{ACAD_REACTORS
330
34
102
}
330
34
100
DictionaryVariables
280
     0
  1
1
  0
DICTIONARYVAR
  5
B5E
102
{ACAD_REACTORS
330
34
102
}
330
34
100
DictionaryVariables
280
     0
  1
96
  0
DICTIONARY
  5
260
102
{ACAD_REACTORS
330
43
102
}
330
43
100
AcDbDictionary
  0
DICTIONARY
  5
2C
102
{ACAD_REACTORS
330
2B
102
}
330
2B
100
AcDbDictionary
  3
DWGSETTINGS
350
2D
  0
XRECORD
  5
151C
102
{ACAD_REACTORS
330
151A
102
}
330
151A
100
AcDbXrecord
330
0
330
0
330
0
330
0
330
0
330
0
330
0
330
0
  0
XRECORD
  5
A947
102
{ACAD_REACTORS
330
A946
102
}
330
A946
100
AcDbXrecord
 90
        1
  0
XRECORD
  5
A948
102
{ACAD_REACTORS
330
A946
102
}
330
A946
100
AcDbXrecord
 90
       70
  0
XRECORD
  5
A949
102
{ACAD_REACTORS
330
A946
102
}
330
A946
100
AcDbXrecord
  1

  0
XRECORD
  5
A94A
102
{ACAD_REACTORS
330
A946
102
}
330
A946
100
AcDbXrecord
  1
ASAMI.ctb
  0
XRECORD
  5
A94B
102
{ACAD_REACTORS
330
A946
102
}
330
A946
100
AcDbXrecord
340
1A
  0
XRECORD
  5
A94C
102
{ACAD_REACTORS
330
A946
102
}
330
A946
100
AcDbXrecord
340
19
  0
XRECORD
  5
A94D
102
{ACAD_REACTORS
330
A946
102
}
330
A946
100
AcDbXrecord
340
E
  0
XRECORD
  5
A94E
102
{ACAD_REACTORS
330
A946
102
}
330
A946
100
AcDbXrecord
 90
    10781
  0
XRECORD
  5
A94F
102
{ACAD_REACTORS
330
A946
102
}
330
A946
100
AcDbXrecord
 90
        4
  0
XRECORD
  5
A950
102
{ACAD_REACTORS
330
A946
102
}
330
A946
100
AcDbXrecord
 90
        0
  0
XRECORD
  5
A951
102
{ACAD_REACTORS
330
A946
102
}
330
A946
100
AcDbXrecord
  1
{AFB28963-8C59-40AE-9337-C84526B81ACE}
  0
XRECORD
  5
A952
102
{ACAD_REACTORS
330
A946
102
}
330
A946
100
AcDbXrecord
  1
{CFB5633E-0EDC-4246-85CE-0CBF3C044963}
  0
XRECORD
  5
A953
102
{ACAD_REACTORS
330
A946
102
}
330
A946
100
AcDbXrecord
 40
0.0
  0
XRECORD
  5
A954
102
{ACAD_REACTORS
330
A946
102
}
330
A946
100
AcDbXrecord
1000
DSTYLE
1002
{
1070
    79
 70
     2
1070
   341
340
59
1070
   342
340
59
1070
   371
 70
    -1
1070
   372
 70
    -1
1002
}
  0
XRECORD
  5
A955
102
{ACAD_REACTORS
330
A946
102
}
330
A946
100
AcDbXrecord
340
0
  0
XRECORD
  5
A956
102
{ACAD_REACTORS
330
A946
102
}
330
A946
100
AcDbXrecord
 70
     0
  0
XRECORD
  5
A957
102
{ACAD_REACTORS
330
A946
102
}
330
A946
100
AcDbXrecord
340
0
  0
XRECORD
  5
A958
102
{ACAD_REACTORS
330
A946
102
}
330
A946
100
AcDbXrecord
 10
0.0
 20
0.0
 30
0.0
  0
XRECORD
  5
A959
102
{ACAD_REACTORS
330
A946
102
}
330
A946
100
AcDbXrecord
 10
0.0
 20
0.0
 30
0.0
  0
XRECORD
  5
A95A
102
{ACAD_REACTORS
330
A946
102
}
330
A946
100
AcDbXrecord
 10
0.0
 20
0.0
 30
0.0
  0
XRECORD
  5
A95B
102
{ACAD_REACTORS
330
A946
102
}
330
A946
100
AcDbXrecord
 10
0.0
 20
0.0
 30
0.0
  0
XRECORD
  5
A95C
102
{ACAD_REACTORS
330
A946
102
}
330
A946
100
AcDbXrecord
 10
0.0
 20
0.0
 30
0.0
  0
XRECORD
  5
A95D
102
{ACAD_REACTORS
330
A946
102
}
330
A946
100
AcDbXrecord
 10
0.0
 20
0.0
 30
0.0
  0
XRECORD
  5
A95E
102
{ACAD_REACTORS
330
A946
102
}
330
A946
100
AcDbXrecord
340
0
  0
XRECORD
  5
A95F
102
{ACAD_REACTORS
330
A946
102
}
330
A946
100
AcDbXrecord
 70
     0
  0
XRECORD
  5
A960
102
{ACAD_REACTORS
330
A946
102
}
330
A946
100
AcDbXrecord
340
0
  0
XRECORD
  5
A961
102
{ACAD_REACTORS
330
A946
102
}
330
A946
100
AcDbXrecord
 10
0.0
 20
0.0
 30
0.0
  0
XRECORD
  5
A962
102
{ACAD_REACTORS
330
A946
102
}
330
A946
100
AcDbXrecord
 10
0.0
 20
0.0
 30
0.0
  0
XRECORD
  5
A963
102
{ACAD_REACTORS
330
A946
102
}
330
A946
100
AcDbXrecord
 10
0.0
 20
0.0
 30
0.0
  0
XRECORD
  5
A964
102
{ACAD_REACTORS
330
A946
102
}
330
A946
100
AcDbXrecord
 10
0.0
 20
0.0
 30
0.0
  0
XRECORD
  5
A965
102
{ACAD_REACTORS
330
A946
102
}
330
A946
100
AcDbXrecord
 10
0.0
 20
0.0
 30
0.0
  0
XRECORD
  5
A966
102
{ACAD_REACTORS
330
A946
102
}
330
A946
100
AcDbXrecord
 10
0.0
 20
0.0
 30
0.0
  0
LAYER_INDEX
  5
A93D
102
{ACAD_REACTORS
330
A93C
102
}
330
A93C
100
AcDbIndex
 40
2453151.731578402
100
AcDbLayerIndex
  8
0
360
A93E
 90
        0
  8
AM_0
360
A93F
 90
       53
  8
AM_11
360
A940
 90
        3
  8
AM_7
360
A941
 90
        2
  8
AM_5
360
A942
 90
        4
  8
Defpoints
360
A943
 90
        0
  8
AM_6
360
A944
 90
        1
  0
XRECORD
  5
2D
102
{ACAD_REACTORS
330
2C
102
}
330
2C
100
AcDbXrecord
  1
VERSION
140
15.0
  1
PRODUCT
  2
AutoCAD Mechanical 2000
  0
IDBUFFER
  5
A93E
330
0
100
AcDbIdBuffer
  0
IDBUFFER
  5
A93F
330
0
100
AcDbIdBuffer
330
A618
330
A619
330
A61A
330
A913
330
A914
330
A4B1
330
A4B3
330
A4B5
330
A4C3
330
A4CF
330
A4D2
330
A5BC
330
A5BD
330
A5BE
330
A5BF
330
A5C0
330
A5C1
330
A5C2
330
A5C3
330
A5C4
330
A5C5
330
A5C6
330
A5C7
330
A5C8
330
A5C9
330
A5CD
330
A5CE
330
A5CF
330
A5D0
330
A5D1
330
A5D2
330
A5D3
330
A5D4
330
A5D5
330
A5D6
330
A5D7
330
A5D8
330
A5D9
330
A5DA
330
A5DB
330
A5DC
330
A5DD
330
A5DE
330
A5DF
330
A5E0
330
A5E1
330
A5E2
330
A5E3
330
A5E4
330
A5E5
330
A5FD
330
A616
330
A617
  0
IDBUFFER
  5
A940
330
0
100
AcDbIdBuffer
330
A524
330
A525
330
A5F4
  0
IDBUFFER
  5
A941
330
0
100
AcDbIdBuffer
330
9FF0
330
A527
  0
IDBUFFER
  5
A942
330
0
100
AcDbIdBuffer
330
A215
330
A2A1
330
A391
330
A4B6
  0
IDBUFFER
  5
A943
330
0
100
AcDbIdBuffer
  0
IDBUFFER
  5
A944
330
0
100
AcDbIdBuffer
330
1500
  0
ENDSEC
  0
EOF
