  0
SECTION
  2
HEADER
  9
$ACADVER
  1
AC1014
  9
$ACADMAINTVER
 70
     9
  9
$DWGCODEPAGE
  3
ANSI_932
  9
$INSBASE
 10
0.0
 20
0.0
 30
0.0
  9
$EXTMIN
 10
-62.66099700121461
 20
-27.25000100000011
 30
-0.00000001
  9
$EXTMAX
 10
12.05776903085518
 20
3.018973030008261
 30
0.00000001
  9
$LIMMIN
 10
-65.05194149525738
 20
-35.83366831257851
  9
$LIMMAX
 10
17.71328789359586
 20
14.16844208501393
  9
$ORTHOMODE
 70
     0
  9
$REGENMODE
 70
     1
  9
$FILLMODE
 70
     1
  9
$QTEXTMODE
 70
     0
  9
$MIRRTEXT
 70
     0
  9
$DRAGMODE
 70
     2
  9
$LTSCALE
 40
1.0
  9
$OSMODE
 70
    55
  9
$ATTMODE
 70
     1
  9
$TEXTSIZE
 40
2.5
  9
$TRACEWID
 40
1.0
  9
$TEXTSTYLE
  7
STANDARD
  9
$CLAYER
  8
AM_0
  9
$CELTYPE
  6
BYLAYER
  9
$CECOLOR
 62
   256
  9
$CELTSCALE
 40
1.0
  9
$DELOBJ
 70
     1
  9
$DISPSILH
 70
     0
  9
$DIMSCALE
 40
0.5
  9
$DIMASZ
 40
2.5
  9
$DIMEXO
 40
1.0
  9
$DIMDLI
 40
12.0
  9
$DIMRND
 40
0.0
  9
$DIMDLE
 40
0.0
  9
$DIMEXE
 40
1.0
  9
$DIMTP
 40
0.1
  9
$DIMTM
 40
0.1
  9
$DIMTXT
 40
3.2
  9
$DIMCEN
 40
0.0
  9
$DIMTSZ
 40
0.0
  9
$DIMTOL
 70
     0
  9
$DIMLIM
 70
     0
  9
$DIMTIH
 70
     0
  9
$DIMTOH
 70
     0
  9
$DIMSE1
 70
     0
  9
$DIMSE2
 70
     0
  9
$DIMTAD
 70
     3
  9
$DIMZIN
 70
     8
  9
$DIMBLK
  1
OPEN30
  9
$DIMASO
 70
     1
  9
$DIMSHO
 70
     1
  9
$DIMPOST
  1

  9
$DIMAPOST
  1
"
  9
$DIMALT
 70
     0
  9
$DIMALTD
 70
     2
  9
$DIMALTF
 40
0.0393701
  9
$DIMLFAC
 40
1.0
  9
$DIMTOFL
 70
     1
  9
$DIMTVP
 40
0.0
  9
$DIMTIX
 70
     0
  9
$DIMSOXD
 70
     0
  9
$DIMSAH
 70
     0
  9
$DIMBLK1
  1

  9
$DIMBLK2
  1

  9
$DIMSTYLE
  2
AM_JIS
  9
$DIMCLRD
 70
   256
  9
$DIMCLRE
 70
   256
  9
$DIMCLRT
 70
     2
  9
$DIMTFAC
 40
0.71
  9
$DIMGAP
 40
1.5
  9
$DIMJUST
 70
     0
  9
$DIMSD1
 70
     0
  9
$DIMSD2
 70
     0
  9
$DIMTOLJ
 70
     0
  9
$DIMTZIN
 70
     0
  9
$DIMALTZ
 70
     0
  9
$DIMALTTZ
 70
     0
  9
$DIMFIT
 70
     3
  9
$DIMUPT
 70
     0
  9
$DIMUNIT
 70
     2
  9
$DIMDEC
 70
     3
  9
$DIMTDEC
 70
     3
  9
$DIMALTU
 70
     2
  9
$DIMALTTD
 70
     2
  9
$DIMTXSTY
  7
ASAMI
  9
$DIMAUNIT
 70
     0
  9
$LUNITS
 70
     2
  9
$LUPREC
 70
     2
  9
$SKETCHINC
 40
1.0
  9
$FILLETRAD
 40
2.5
  9
$AUNITS
 70
     0
  9
$AUPREC
 70
     0
  9
$MENU
  1
.
  9
$ELEVATION
 40
0.0
  9
$PELEVATION
 40
0.0
  9
$THICKNESS
 40
0.0
  9
$LIMCHECK
 70
     0
  9
$BLIPMODE
 70
     0
  9
$CHAMFERA
 40
0.5
  9
$CHAMFERB
 40
0.5
  9
$CHAMFERC
 40
20.0
  9
$CHAMFERD
 40
0.0
  9
$SKPOLY
 70
     0
  9
$TDCREATE
 40
2452838.430434386
  9
$TDUPDATE
 40
2453151.731800115
  9
$TDINDWG
 40
0.5289601852
  9
$TDUSRTIMER
 40
0.5289601852
  9
$USRTIMER
 70
     1
  9
$ANGBASE
 50
0.0
  9
$ANGDIR
 70
     0
  9
$PDMODE
 70
     0
  9
$PDSIZE
 40
0.0
  9
$PLINEWID
 40
0.0
  9
$COORDS
 70
     1
  9
$SPLFRAME
 70
     0
  9
$SPLINETYPE
 70
     6
  9
$SPLINESEGS
 70
     8
  9
$ATTDIA
 70
     1
  9
$ATTREQ
 70
     1
  9
$HANDLING
 70
 12289
  9
$HANDSEED
  5
A79F
  9
$SURFTAB1
 70
     6
  9
$SURFTAB2
 70
     6
  9
$SURFTYPE
 70
     6
  9
$SURFU
 70
     6
  9
$SURFV
 70
     6
  9
$UCSNAME
  2

  9
$UCSORG
 10
0.0
 20
0.0
 30
0.0
  9
$UCSXDIR
 10
1.0
 20
0.0
 30
0.0
  9
$UCSYDIR
 10
0.0
 20
1.0
 30
0.0
  9
$PUCSNAME
  2

  9
$PUCSORG
 10
0.0
 20
0.0
 30
0.0
  9
$PUCSXDIR
 10
1.0
 20
0.0
 30
0.0
  9
$PUCSYDIR
 10
0.0
 20
1.0
 30
0.0
  9
$USERI1
 70
     0
  9
$USERI2
 70
     0
  9
$USERI3
 70
     0
  9
$USERI4
 70
     0
  9
$USERI5
 70
     0
  9
$USERR1
 40
0.0
  9
$USERR2
 40
0.0
  9
$USERR3
 40
0.0
  9
$USERR4
 40
0.0
  9
$USERR5
 40
0.0
  9
$WORLDVIEW
 70
     1
  9
$SHADEDGE
 70
     3
  9
$SHADEDIF
 70
    70
  9
$TILEMODE
 70
     1
  9
$MAXACTVP
 70
    64
  9
$PINSBASE
 10
0.0
 20
0.0
 30
0.0
  9
$PLIMCHECK
 70
     0
  9
$PEXTMIN
 10
1.000000000000000E+20
 20
1.000000000000000E+20
 30
1.000000000000000E+20
  9
$PEXTMAX
 10
-1.000000000000000E+20
 20
-1.000000000000000E+20
 30
-1.000000000000000E+20
  9
$PLIMMIN
 10
0.0
 20
0.0
  9
$PLIMMAX
 10
841.0
 20
594.0
  9
$UNITMODE
 70
     0
  9
$VISRETAIN
 70
     1
  9
$PLINEGEN
 70
     0
  9
$PSLTSCALE
 70
     0
  9
$TREEDEPTH
 70
  3020
  9
$PICKSTYLE
 70
     0
  9
$CMLSTYLE
  2
STANDARD
  9
$CMLJUST
 70
     0
  9
$CMLSCALE
 40
20.0
  9
$PROXYGRAPHICS
 70
     1
  9
$MEASUREMENT
 70
     1
  0
ENDSEC
  0
SECTION
  2
CLASSES
  0
CLASS
  1
ACDBDICTIONARYWDFLT
  2
AcDbDictionaryWithDefault
  3
AutoCAD 2000
 90
        0
280
     0
281
     0
  0
CLASS
  1
ACDBPLACEHOLDER
  2
AcDbPlaceHolder
  3
AutoCAD 2000
 90
        0
280
     0
281
     0
  0
CLASS
  1
LAYOUT
  2
AcDbLayout
  3
AutoCAD 2000
 90
        0
280
     0
281
     0
  0
CLASS
  1
AMGSETTINGSOBJ
  2
AmgSettingsObj
  3
"AcadM|Product Description: AutoCAD Mechanical 2000|Company: Autodesk"
 90
        0
280
     0
281
     0
  0
CLASS
  1
ACME_DOCUMENT
  2
AcMeDbDoc
  3
AcMeServices
 90
        0
280
     0
281
     0
  0
CLASS
  1
ACMESCOPE
  2
AcMeScope
  3
AcMeServices
 90
        0
280
     0
281
     0
  0
CLASS
  1
ACMECOMMANDHISTORY
  2
AcMeCommandHistory
  3
AcMeServices
 90
        0
280
     0
281
     0
  0
CLASS
  1
DICTIONARYVAR
  2
AcDbDictionaryVar
  3
AutoCAD 2000
 90
        0
280
     0
281
     0
  0
CLASS
  1
ACIMSYSVARMAN
  2
AcImSysVarManager
  3
AcMeServices
 90
        0
280
     0
281
     0
  0
CLASS
  1
ACIMREALSYSVAR
  2
AcImRealSysVar
  3
AcMeServices
 90
        0
280
     0
281
     0
  0
CLASS
  1
ACIMINTSYSVAR
  2
AcImIntSysVar
  3
AcMeServices
 90
        0
280
     0
281
     0
  0
CLASS
  1
ACMEDRAWINGMAN
  2
AcMeDrawingMan
  3
AcMeServices
 90
        0
280
     0
281
     0
  0
CLASS
  1
ACMEVIEW
  2
AcMeView
  3
AcMeServices
 90
        0
280
     0
281
     0
  0
CLASS
  1
ACDBENTITYCACHE
  2
AcMeEntityCache
  3
AcMeServices
 90
        0
280
     0
281
     0
  0
CLASS
  1
GSMANAGER
  2
AcMeGSManager
  3
AcMeServices
 90
        0
280
     0
281
     0
  0
CLASS
  1
AmdtInternalReactor
  2
AmdtInternalReactor
  3
AcMeServices
 90
        0
280
     0
281
     0
  0
CLASS
  1
ACMESTATEMGR
  2
AcMeStateMgr
  3
AcMeServices
 90
        0
280
     0
281
     0
  0
CLASS
  1
ACME_DATABASE
  2
AcMeDbDatabase
  3
AcMeServices
 90
        0
280
     0
281
     0
  0
CLASS
  1
ACRFINSADJUSTERMGR
  2
AcRfInsAdjusterMgr
  3
AcMeServices
 90
        0
280
     0
281
     0
  0
CLASS
  1
ACMDATADICTIONARY
  2
AcmDataDictionary
  3
"AcmSymBB|Product Description: AutoCAD Mechanical 2000|Company: Autodesk"
 90
        0
280
     0
281
     0
  0
CLASS
  1
ACMDATAENTRYBLOCK
  2
AcmDataEntryBlock
  3
"AcmSymBB|Product Description: AutoCAD Mechanical 2000|Company: Autodesk"
 90
        0
280
     0
281
     0
  0
CLASS
  1
AMGOBJPROPCFG
  2
AmgObjPropCfg
  3
"AmgLay|Product Description: AutoCAD Mechanical 2000|Company: Autodesk"
 90
        1
280
     0
281
     0
  0
CLASS
  1
ACAMGFILTERDAT
  2
AcAmgFilterDat
  3
"AcadM|Product Description: AutoCAD Mechanical 2000|Company: Autodesk"
 90
        0
280
     0
281
     0
  0
CLASS
  1
LAYER_INDEX
  2
AcDbLayerIndex
  3
AutoCAD 2000
 90
        0
280
     0
281
     0
  0
CLASS
  1
IDBUFFER
  2
AcDbIdBuffer
  3
AutoCAD 2000
 90
        0
280
     0
281
     0
  0
CLASS
  1
ACIMSTRSYSVAR
  2
AcImStrSysVar
  3
AcMeServices
 90
        0
280
     0
281
     0
  0
CLASS
  1
ACMSTANDARDJIS
  2
AcmStandardJIS
  3
"AcmSymBB|Product Description: AutoCAD Mechanical 2000|Company: Autodesk"
 90
        0
280
     0
281
     0
  0
CLASS
  1
ACMSURFSTANDARDJIS
  2
AcmSurfTextStdJIS
  3
"AcmSymBB|Product Description: AutoCAD Mechanical 2000|Company: Autodesk"
 90
        0
280
     0
281
     0
  0
CLASS
  1
ACMFCFSTANDARDJIS
  2
AcmFCFStdJIS
  3
"AcmSymBB|Product Description: AutoCAD Mechanical 2000|Company: Autodesk"
 90
        0
280
     0
281
     0
  0
CLASS
  1
ACMWELDSTANDARDJIS
  2
AcmWeldingStdJIS
  3
"AcmSymBB|Product Description: AutoCAD Mechanical 2000|Company: Autodesk"
 90
        0
280
     0
281
     0
  0
CLASS
  1
ACMIDSTANDARDJIS
  2
AcmIdStdJIS
  3
"AcmSymBB|Product Description: AutoCAD Mechanical 2000|Company: Autodesk"
 90
        0
280
     0
281
     0
  0
CLASS
  1
ACMDATUMSTANDARDJIS
  2
AcmDatumStdJIS
  3
"AcmSymBB|Product Description: AutoCAD Mechanical 2000|Company: Autodesk"
 90
        0
280
     0
281
     0
  0
CLASS
  1
ACMBOMSTANDARDJIS
  2
AcmBOMStdJIS
  3
"AcmSymBB|Product Description: AutoCAD Mechanical 2000|Company: Autodesk"
 90
        0
280
     0
281
     0
  0
CLASS
  1
ACMSTANDARDANSI
  2
AcmStandardANSI
  3
"AcmSymBB|Product Description: AutoCAD Mechanical 2000|Company: Autodesk"
 90
        0
280
     0
281
     0
  0
CLASS
  1
ACMSURFSTANDARDANSI
  2
AcmSurfTextStdANSI
  3
"AcmSymBB|Product Description: AutoCAD Mechanical 2000|Company: Autodesk"
 90
        0
280
     0
281
     0
  0
CLASS
  1
ACMFCFSTANDARDANSI
  2
AcmFCFStdANSI
  3
"AcmSymBB|Product Description: AutoCAD Mechanical 2000|Company: Autodesk"
 90
        0
280
     0
281
     0
  0
CLASS
  1
ACMWELDSTANDARDANSI
  2
AcmWeldingStdANSI
  3
"AcmSymBB|Product Description: AutoCAD Mechanical 2000|Company: Autodesk"
 90
        0
280
     0
281
     0
  0
CLASS
  1
ACMIDSTANDARDANSI
  2
AcmIdStdANSI
  3
"AcmSymBB|Product Description: AutoCAD Mechanical 2000|Company: Autodesk"
 90
        0
280
     0
281
     0
  0
CLASS
  1
ACMDATUMSTANDARDANSI
  2
AcmDatumStdANSI
  3
"AcmSymBB|Product Description: AutoCAD Mechanical 2000|Company: Autodesk"
 90
        0
280
     0
281
     0
  0
CLASS
  1
ACMBOMSTANDARDANSI
  2
AcmBOMStdANSI
  3
"AcmSymBB|Product Description: AutoCAD Mechanical 2000|Company: Autodesk"
 90
        0
280
     0
281
     0
  0
CLASS
  1
ACMSTANDARDBSI
  2
AcmStandardBSI
  3
"AcmSymBB|Product Description: AutoCAD Mechanical 2000|Company: Autodesk"
 90
        0
280
     0
281
     0
  0
CLASS
  1
ACMSURFSTANDARDBSI
  2
AcmSurfTextStdBSI
  3
"AcmSymBB|Product Description: AutoCAD Mechanical 2000|Company: Autodesk"
 90
        0
280
     0
281
     0
  0
CLASS
  1
ACMFCFSTANDARDBSI
  2
AcmFCFStdBSI
  3
"AcmSymBB|Product Description: AutoCAD Mechanical 2000|Company: Autodesk"
 90
        0
280
     0
281
     0
  0
CLASS
  1
ACMWELDSTANDARDBSI
  2
AcmWeldingStdBSI
  3
"AcmSymBB|Product Description: AutoCAD Mechanical 2000|Company: Autodesk"
 90
        0
280
     0
281
     0
  0
CLASS
  1
ACMIDSTANDARDBSI
  2
AcmIdStdBSI
  3
"AcmSymBB|Product Description: AutoCAD Mechanical 2000|Company: Autodesk"
 90
        0
280
     0
281
     0
  0
CLASS
  1
ACMDATUMSTANDARDBSI
  2
AcmDatumStdBSI
  3
"AcmSymBB|Product Description: AutoCAD Mechanical 2000|Company: Autodesk"
 90
        0
280
     0
281
     0
  0
CLASS
  1
ACMBOMSTANDARDBSI
  2
AcmBOMStdBSI
  3
"AcmSymBB|Product Description: AutoCAD Mechanical 2000|Company: Autodesk"
 90
        0
280
     0
281
     0
  0
CLASS
  1
LONG_TRANSACTION
  2
AcDbLongTransaction
  3
AutoCAD 2000
 90
        0
280
     0
281
     0
  0
CLASS
  1
LWPOLYLINE
  2
AcDbPolyline
  3
AutoCAD 2000
 90
        0
280
     0
281
     1
  0
CLASS
  1
HATCH
  2
AcDbHatch
  3
AutoCAD 2000
 90
        0
280
     0
281
     1
  0
CLASS
  1
XRECORD
  2
AcDbXrecord
  3
AutoCAD 2000
 90
        0
280
     0
281
     0
  0
ENDSEC
  0
SECTION
  2
TABLES
  0
TABLE
  2
VPORT
  5
8
330
0
100
AcDbSymbolTable
 70
     3
  0
VPORT
  5
A774
330
8
100
AcDbSymbolTableRecord
100
AcDbViewportTableRecord
  2
*ACTIVE
 70
     0
 10
0.0
 20
0.0
 11
1.0
 21
1.0
 12
-23.43179450119204
 22
-7.923150616135814
 13
0.0
 23
0.0
 14
2.5
 24
2.5
 15
10.0
 25
10.0
 16
0.0
 26
0.0
 36
1.0
 17
0.0
 27
0.0
 37
0.0
 40
54.38826362899624
 41
1.56570841889117
 42
50.0
 43
0.0
 44
0.0
 50
0.0
 51
0.0
 71
     0
 72
   100
 73
     1
 74
     3
 75
     0
 76
     0
 77
     0
 78
     0
  0
ENDTAB
  0
TABLE
  2
LTYPE
  5
5
330
0
100
AcDbSymbolTable
 70
    10
  0
LTYPE
  5
14
330
5
100
AcDbSymbolTableRecord
100
AcDbLinetypeTableRecord
  2
BYBLOCK
 70
     0
  3

 72
    65
 73
     0
 40
0.0
  0
LTYPE
  5
15
330
5
100
AcDbSymbolTableRecord
100
AcDbLinetypeTableRecord
  2
BYLAYER
 70
     0
  3

 72
    65
 73
     0
 40
0.0
  0
LTYPE
  5
16
330
5
100
AcDbSymbolTableRecord
100
AcDbLinetypeTableRecord
  2
CONTINUOUS
 70
     0
  3
Solid line
 72
    65
 73
     0
 40
0.0
  0
LTYPE
  5
4B
330
5
100
AcDbSymbolTableRecord
100
AcDbLinetypeTableRecord
  2
AM_ISO02W050
 70
     0
  3
__ __ __ __ __ __ __ __ __ __ __ __ __ __ __
 72
    65
 73
     2
 40
7.5
 49
6.0
 74
     0
 49
-1.5
 74
     0
  0
LTYPE
  5
4C
330
5
100
AcDbSymbolTableRecord
100
AcDbLinetypeTableRecord
  2
AM_ISO08W050
 70
     0
  3
____ . ____ . ____ . ____ . ____ . ____ . ____
 72
    65
 73
     4
 40
18.0
 49
12.0
 74
     0
 49
-1.5
 74
     0
 49
3.0
 74
     0
 49
-1.5
 74
     0
  0
LTYPE
  5
4D
330
5
100
AcDbSymbolTableRecord
100
AcDbLinetypeTableRecord
  2
AM_ISO09W050
 70
     0
  3
_____ . . _____ . . _____ . . ____ .. ____
 72
    65
 73
     6
 40
22.5
 49
12.0
 74
     0
 49
-1.5
 74
     0
 49
3.0
 74
     0
 49
-1.5
 74
     0
 49
3.0
 74
     0
 49
-1.5
 74
     0
  0
LTYPE
  5
4E
330
5
100
AcDbSymbolTableRecord
100
AcDbLinetypeTableRecord
  2
AMCONSTR
 70
     0
  3
_______________________
 72
    65
 73
     2
 40
9999.0
 49
9999.0
 74
     0
 49
0.0
 74
     0
  0
LTYPE
  5
4F
330
5
100
AcDbSymbolTableRecord
100
AcDbLinetypeTableRecord
  2
AM_ISO02W050X2
 70
     0
  3
 _ _ _ _ _ _ _ _ _ _ _ _
 72
    65
 73
     2
 40
3.75
 49
3.0
 74
     0
 49
-0.75
 74
     0
  0
LTYPE
  5
50
330
5
100
AcDbSymbolTableRecord
100
AcDbLinetypeTableRecord
  2
AM_ISO08W050X2
 70
     0
  3
__ . __ . __ . __ . __ . __
 72
    65
 73
     4
 40
9.0
 49
6.0
 74
     0
 49
-0.75
 74
     0
 49
1.5
 74
     0
 49
-0.75
 74
     0
  0
LTYPE
  5
53
330
5
100
AcDbSymbolTableRecord
100
AcDbLinetypeTableRecord
  2
AMZIGZAG
 70
     0
  3
/\/-/\/-/\/-/\/-/\/-/\/
 72
    65
 73
     2
 40
11.00009999999999
 49
0.0001
 74
     4
 75
   135
340
52
 46
0.04
 50
0.0
 44
0.0
 45
0.0
 49
-11.0
 74
     0
  0
LTYPE
  5
166
330
5
100
AcDbSymbolTableRecord
100
AcDbLinetypeTableRecord
  2
ACJISTGL
 70
     0
  3
_ _ _ _ _
 72
    65
 73
     2
 40
3.0
 49
2.0
 74
     0
 49
-1.0
 74
     0
  0
LTYPE
  5
26A
330
5
100
AcDbSymbolTableRecord
100
AcDbLinetypeTableRecord
  2
ACJISTGB
 70
     0
  3
__ . . __ . .
 72
    65
 73
     6
 40
9.0
 49
4.0
 74
     0
 49
-1.0
 74
     0
 49
1.0
 74
     0
 49
-1.0
 74
     0
 49
1.0
 74
     0
 49
-1.0
 74
     0
  0
ENDTAB
  0
TABLE
  2
LAYER
  5
2
330
0
100
AcDbSymbolTable
 70
     7
  0
LAYER
  5
10
330
2
100
AcDbSymbolTableRecord
100
AcDbLayerTableRecord
  2
0
 70
     0
 62
     7
  6
CONTINUOUS
  0
LAYER
  5
3F9
330
2
100
AcDbSymbolTableRecord
100
AcDbLayerTableRecord
  2
AM_0
 70
     0
 62
     7
  6
CONTINUOUS
  0
LAYER
  5
BDD
330
2
100
AcDbSymbolTableRecord
100
AcDbLayerTableRecord
  2
AM_11
 70
     0
 62
     3
  6
AM_ISO09W050
  0
LAYER
  5
BDE
330
2
100
AcDbSymbolTableRecord
100
AcDbLayerTableRecord
  2
AM_7
 70
     0
 62
     4
  6
AM_ISO08W050
  0
LAYER
  5
BDF
330
2
100
AcDbSymbolTableRecord
100
AcDbLayerTableRecord
  2
AM_5
 70
     0
 62
     3
  6
CONTINUOUS
  0
LAYER
  5
BE0
330
2
100
AcDbSymbolTableRecord
100
AcDbLayerTableRecord
  2
DEFPOINTS
 70
     0
 62
     7
  6
CONTINUOUS
  0
LAYER
  5
14FF
330
2
100
AcDbSymbolTableRecord
100
AcDbLayerTableRecord
  2
AM_6
 70
     0
 62
     2
  6
CONTINUOUS
  0
ENDTAB
  0
TABLE
  2
STYLE
  5
3
330
0
100
AcDbSymbolTable
 70
     5
  0
STYLE
  5
11
330
3
100
AcDbSymbolTableRecord
100
AcDbTextStyleTableRecord
  2
STANDARD
 70
     0
 40
0.0
 41
1.0
 50
0.0
 71
     0
 42
2.5
  3
simplex.shx
  4
EXTFONT.SHX
  0
STYLE
  5
52
330
3
100
AcDbSymbolTableRecord
100
AcDbTextStyleTableRecord
  2

 70
     1
 40
0.0
 41
1.0
 50
0.0
 71
     0
 42
2.5
  3
ltypeshp.shx
  4

  0
STYLE
  5
6B
330
3
100
AcDbSymbolTableRecord
100
AcDbTextStyleTableRecord
  2
ASAMI
 70
     0
 40
0.0
 41
1.0
 50
0.0
 71
     0
 42
2.5
  3
simplex.shx
  4
EXTFONT.SHX
  0
STYLE
  5
262
330
3
100
AcDbSymbolTableRecord
100
AcDbTextStyleTableRecord
  2
ACJISTS
 70
     0
 40
1.0
 41
1.0
 50
0.0
 71
     0
 42
2.5
  3
simplex.shx
  4
bigfont.shx
  0
STYLE
  5
269
330
3
100
AcDbSymbolTableRecord
100
AcDbTextStyleTableRecord
  2
ACJISGDT
 70
     0
 40
0.0
 41
1.0
 50
0.0
 71
     0
 42
2.5
  3
amgdtans.shx
  4

  0
ENDTAB
  0
TABLE
  2
VIEW
  5
6
330
0
100
AcDbSymbolTable
 70
     0
  0
ENDTAB
  0
TABLE
  2
UCS
  5
7
330
0
100
AcDbSymbolTable
 70
     0
  0
ENDTAB
  0
TABLE
  2
APPID
  5
9
330
0
100
AcDbSymbolTable
 70
    13
  0
APPID
  5
12
330
9
100
AcDbSymbolTableRecord
100
AcDbRegAppTableRecord
  2
ACAD
 70
     0
  0
APPID
  5
30
330
9
100
AcDbSymbolTableRecord
100
AcDbRegAppTableRecord
  2
MCAD_NO_VIS
 70
     0
  0
APPID
  5
31
330
9
100
AcDbSymbolTableRecord
100
AcDbRegAppTableRecord
  2
ACAD_TEMP_GRAPHIC
 70
     0
  0
APPID
  5
2C2
330
9
100
AcDbSymbolTableRecord
100
AcDbRegAppTableRecord
  2
GENIUS_GENDTOL_13
 70
     0
  0
APPID
  5
339
330
9
100
AcDbSymbolTableRecord
100
AcDbRegAppTableRecord
  2
GENIUS_GENODEF_13
 70
     0
  0
APPID
  5
33A
330
9
100
AcDbSymbolTableRecord
100
AcDbRegAppTableRecord
  2
GENIUS_GENOBJ-N-RSBK_13
 70
     0
  0
APPID
  5
33B
330
9
100
AcDbSymbolTableRecord
100
AcDbRegAppTableRecord
  2
GENIUS_GENOBJ-N-LIB_13
 70
     0
  0
APPID
  5
33C
330
9
100
AcDbSymbolTableRecord
100
AcDbRegAppTableRecord
  2
GENIUS_GENSCALE_13
 70
     0
  0
APPID
  5
378
330
9
100
AcDbSymbolTableRecord
100
AcDbRegAppTableRecord
  2
GENIUS_GENDIMSH_14
 70
     0
  0
APPID
  5
BE1
330
9
100
AcDbSymbolTableRecord
100
AcDbRegAppTableRecord
  2
GENIUS_GENFIL_13
 70
     0
  0
APPID
  5
BE2
330
9
100
AcDbSymbolTableRecord
100
AcDbRegAppTableRecord
  2
GENIUS_GENOBJ-N-CHA_13
 70
     0
  0
APPID
  5
151B
330
9
100
AcDbSymbolTableRecord
100
AcDbRegAppTableRecord
  2
DCO15
 70
     0
  0
APPID
  5
1860
330
9
100
AcDbSymbolTableRecord
100
AcDbRegAppTableRecord
  2
GENIUS_GENOBJ-N-CEN_13
 70
     0
  0
ENDTAB
  0
TABLE
  2
DIMSTYLE
  5
A
330
0
100
AcDbSymbolTable
 70
     8
  0
DIMSTYLE
105
58
102
{ACAD_REACTORS
330
A215
330
A2A1
330
A391
330
A4B6
102
}
330
A
100
AcDbSymbolTableRecord
100
AcDbDimStyleTableRecord
  2
AM_JIS
 70
     0
  3

  4
"
  5
OPEN30
  6

  7

 40
0.5
 41
2.5
 42
1.0
 43
12.0
 44
1.0
 45
0.0
 46
0.0
 47
0.1
 48
0.1
140
3.2
141
0.0
142
0.0
143
0.0393701
144
1.0
145
0.0
146
0.71
147
1.5
 71
     0
 72
     0
 73
     0
 74
     0
 75
     0
 76
     0
 77
     3
 78
     8
170
     0
171
     2
172
     1
173
     0
174
     0
175
     0
176
   256
177
   256
178
     2
270
     2
271
     3
272
     3
273
     2
274
     2
340
6B
275
     0
280
     0
281
     0
282
     0
283
     0
284
     0
285
     0
286
     0
287
     3
288
     0
  0
DIMSTYLE
105
5F
330
A
100
AcDbSymbolTableRecord
100
AcDbDimStyleTableRecord
  2
AM_JIS$3
 70
     0
  3

  4
"
  5
OPEN30
  6

  7

 40
0.5
 41
2.5
 42
1.0
 43
10.0
 44
1.0
 45
0.0
 46
0.0
 47
0.1
 48
0.1
140
3.2
141
0.0
142
0.0
143
0.0393701
144
1.0
145
0.0
146
0.71
147
1.5
 71
     0
 72
     0
 73
     0
 74
     1
 75
     0
 76
     0
 77
     3
 78
     8
170
     0
171
     2
172
     0
173
     0
174
     0
175
     0
176
   256
177
   256
178
     2
270
     2
271
     2
272
     3
273
     2
274
     2
340
6B
275
     0
280
     0
281
     0
282
     0
283
     0
284
     0
285
     0
286
     0
287
     0
288
     1
  0
DIMSTYLE
105
60
330
A
100
AcDbSymbolTableRecord
100
AcDbDimStyleTableRecord
  2
AM_JIS$4
 70
     0
  3

  4
"
  5
OPEN30
  6

  7

 40
0.5
 41
2.5
 42
1.0
 43
10.0
 44
1.0
 45
0.0
 46
0.0
 47
0.1
 48
0.1
140
3.2
141
0.0
142
0.0
143
0.0393701
144
1.0
145
0.0
146
0.71
147
1.5
 71
     0
 72
     0
 73
     0
 74
     1
 75
     0
 76
     0
 77
     3
 78
     8
170
     0
171
     2
172
     0
173
     0
174
     0
175
     0
176
   256
177
   256
178
     2
270
     2
271
     2
272
     3
273
     2
274
     2
340
6B
275
     0
280
     0
281
     0
282
     0
283
     0
284
     0
285
     0
286
     0
287
     0
288
     1
  0
DIMSTYLE
105
61
330
A
100
AcDbSymbolTableRecord
100
AcDbDimStyleTableRecord
  2
AM_JIS$6
 70
     0
  3

  4
"
  5
OPEN30
  6

  7

 40
0.5
 41
2.5
 42
1.0
 43
10.0
 44
1.0
 45
0.0
 46
0.0
 47
0.1
 48
0.1
140
3.2
141
0.0
142
0.0
143
0.0393701
144
1.0
145
0.0
146
0.71
147
1.5
 71
     0
 72
     0
 73
     0
 74
     0
 75
     0
 76
     0
 77
     0
 78
     8
170
     0
171
     2
172
     1
173
     0
174
     0
175
     0
176
   256
177
   256
178
     2
270
     2
271
     2
272
     2
273
     2
274
     2
340
6B
275
     0
280
     0
281
     0
282
     0
283
     0
284
     0
285
     0
286
     0
287
     3
288
     0
  0
DIMSTYLE
105
62
330
A
100
AcDbSymbolTableRecord
100
AcDbDimStyleTableRecord
  2
AM_JIS$7
 70
     0
  3

  4
"
  5
OPEN30
  6

  7

 40
0.5
 41
2.5
 42
1.0
 43
10.0
 44
1.0
 45
0.0
 46
0.0
 47
0.1
 48
0.1
140
3.2
141
0.0
142
0.0
143
0.0393701
144
1.0
145
0.0
146
0.71
147
1.5
 71
     0
 72
     0
 73
     0
 74
     0
 75
     0
 76
     0
 77
     3
 78
     8
170
     0
171
     2
172
     1
173
     0
174
     0
175
     0
176
   256
177
   256
178
     2
270
     2
271
     2
272
     3
273
     2
274
     2
340
6B
275
     0
280
     0
281
     0
282
     0
283
     0
284
     0
285
     0
286
     0
287
     3
288
     0
  0
DIMSTYLE
105
63
330
A
100
AcDbSymbolTableRecord
100
AcDbDimStyleTableRecord
  2
AM_JIS$SF
 70
     0
  3

  4
"
  5
OPEN30
  6

  7

 40
0.5
 41
2.5
 42
1.0
 43
10.0
 44
1.0
 45
0.0
 46
0.0
 47
0.1
 48
0.1
140
3.2
141
0.0
142
0.0
143
0.0393701
144
1.0
145
0.0
146
0.71
147
1.5
 71
     0
 72
     0
 73
     0
 74
     0
 75
     1
 76
     1
 77
     3
 78
     8
170
     0
171
     2
172
     1
173
     0
174
     0
175
     0
176
   256
177
   256
178
     2
270
     2
271
     2
272
     2
273
     2
274
     2
340
6B
275
     0
280
     0
281
     0
282
     0
283
     0
284
     0
285
     0
286
     0
287
     3
288
     0
  0
DIMSTYLE
105
68
330
A
100
AcDbSymbolTableRecord
100
AcDbDimStyleTableRecord
  2
AM_JIS$SH
 70
     0
  3

  4
"
  5

  6
GENAXEH
  7
OPEN30
 40
0.5
 41
2.5
 42
1.0
 43
10.0
 44
1.0
 45
0.0
 46
0.0
 47
0.1
 48
0.1
140
3.2
141
0.0
142
0.0
143
0.0393701
144
2.0
145
0.0
146
0.71
147
1.5
 71
     0
 72
     0
 73
     0
 74
     0
 75
     1
 76
     1
 77
     3
 78
     8
170
     0
171
     2
172
     1
173
     1
174
     0
175
     0
176
   256
177
   256
178
     2
270
     2
271
     2
272
     2
273
     2
274
     2
340
6B
275
     0
280
     0
281
     0
282
     0
283
     0
284
     0
285
     0
286
     0
287
     3
288
     0
  0
DIMSTYLE
105
B34
330
A
100
AcDbSymbolTableRecord
100
AcDbDimStyleTableRecord
  2
AM_JIS$2
 70
     0
  3

  4
"
  5
OPEN30
  6

  7

 40
0.5
 41
2.5
 42
1.0
 43
12.0
 44
1.0
 45
0.0
 46
0.0
 47
0.1
 48
0.1
140
3.2
141
0.0
142
0.0
143
0.0393701
144
1.0
145
0.0
146
0.71
147
1.5
 71
     0
 72
     0
 73
     0
 74
     0
 75
     0
 76
     0
 77
     3
 78
     8
170
     0
171
     2
172
     1
173
     0
174
     0
175
     0
176
   256
177
   256
178
     2
270
     2
271
     3
272
     3
273
     2
274
     2
340
6B
275
     0
280
     0
281
     0
282
     0
283
     0
284
     0
285
     0
286
     0
287
     3
288
     0
  0
ENDTAB
  0
TABLE
  2
BLOCK_RECORD
  5
1
330
0
100
AcDbSymbolTable
 70
     9
  0
BLOCK_RECORD
  5
1F
102
{ACAD_XDICTIONARY
360
74
102
}
330
1
100
AcDbSymbolTableRecord
100
AcDbBlockTableRecord
  2
*MODEL_SPACE
  0
BLOCK_RECORD
  5
101
102
{ACAD_XDICTIONARY
360
A79D
102
}
330
1
100
AcDbSymbolTableRecord
100
AcDbBlockTableRecord
  2
*PAPER_SPACE
  0
BLOCK_RECORD
  5
59
330
1
100
AcDbSymbolTableRecord
100
AcDbBlockTableRecord
  2
_OPEN30
  0
BLOCK_RECORD
  5
64
330
1
100
AcDbSymbolTableRecord
100
AcDbBlockTableRecord
  2
GENAXEH
  0
BLOCK_RECORD
  5
A216
330
1
100
AcDbSymbolTableRecord
100
AcDbBlockTableRecord
  2
*D5
  0
BLOCK_RECORD
  5
A2A2
330
1
100
AcDbSymbolTableRecord
100
AcDbBlockTableRecord
  2
*D6
  0
BLOCK_RECORD
  5
A392
330
1
100
AcDbSymbolTableRecord
100
AcDbBlockTableRecord
  2
*D7
  0
BLOCK_RECORD
  5
A4B7
330
1
100
AcDbSymbolTableRecord
100
AcDbBlockTableRecord
  2
*D8
  0
ENDTAB
  0
ENDSEC
  0
SECTION
  2
BLOCKS
  0
BLOCK
  5
20
330
1F
100
AcDbEntity
  8
0
100
AcDbBlockBegin
  2
*MODEL_SPACE
 70
     0
 10
0.0
 20
0.0
 30
0.0
  3
*MODEL_SPACE
  1

  0
ENDBLK
  5
21
330
1F
100
AcDbEntity
  8
0
100
AcDbBlockEnd
  0
BLOCK
  5
103
330
101
100
AcDbEntity
 67
     1
  8
0
100
AcDbBlockBegin
  2
*PAPER_SPACE
 70
     0
 10
0.0
 20
0.0
 30
0.0
  3
*PAPER_SPACE
  1

  0
ENDBLK
  5
104
330
101
100
AcDbEntity
 67
     1
  8
0
100
AcDbBlockEnd
  0
BLOCK
  5
5D
330
59
100
AcDbEntity
  8
0
100
AcDbBlockBegin
  2
_OPEN30
 70
     0
 10
0.0
 20
0.0
 30
0.0
  3
_OPEN30
  1

  0
LINE
  5
5A
330
59
100
AcDbEntity
  8
0
 62
     0
100
AcDbLine
 10
-1.0
 20
0.26794919
 30
0.0
 11
0.0
 21
0.0
 31
0.0
  0
LINE
  5
5B
330
59
100
AcDbEntity
  8
0
 62
     0
100
AcDbLine
 10
0.0
 20
0.0
 30
0.0
 11
-1.0
 21
-0.26794919
 31
0.0
  0
LINE
  5
5C
330
59
100
AcDbEntity
  8
0
 62
     0
100
AcDbLine
 10
0.0
 20
0.0
 30
0.0
 11
-1.0
 21
0.0
 31
0.0
  0
ENDBLK
  5
5E
330
59
100
AcDbEntity
  8
0
100
AcDbBlockEnd
  0
BLOCK
  5
66
330
64
100
AcDbEntity
  8
0
100
AcDbBlockBegin
  2
GENAXEH
 70
     0
 10
0.0
 20
0.0
 30
0.0
  3
GENAXEH
  1

  0
LINE
  5
65
330
64
100
AcDbEntity
  8
0
100
AcDbLine
 10
-1.0
 20
0.0
 30
0.0
 11
1.0
 21
0.0
 31
0.0
  0
ENDBLK
  5
67
330
64
100
AcDbEntity
  8
0
100
AcDbBlockEnd
  0
BLOCK
  5
A220
330
A216
100
AcDbEntity
  8
0
100
AcDbBlockBegin
  2
*D5
 70
     1
 10
0.0
 20
0.0
 30
0.0
  3
*D5
  1

  0
LINE
  5
A620
330
A216
100
AcDbEntity
  8
AM_5
100
AcDbLine
 10
0.0000000000000061
 20
-3.000000000000015
 30
0.0
 11
0.0000000000000053
 21
-16.50000100000011
 31
0.0
  0
LINE
  5
A621
330
A216
100
AcDbEntity
  8
AM_5
100
AcDbLine
 10
-50.0
 20
-3.000000000000064
 30
0.0
 11
-50.0
 21
-16.50000100000011
 31
0.0
  0
LINE
  5
A622
330
A216
100
AcDbEntity
  8
AM_5
100
AcDbLine
 10
-1.249999999999994
 20
-16.00000100000011
 30
0.0
 11
-48.75
 21
-16.00000100000011
 31
0.0
  0
INSERT
  5
A623
330
A216
100
AcDbEntity
  8
AM_5
100
AcDbBlockReference
  2
_OPEN30
 10
0.0000000000000053
 20
-16.00000100000011
 30
0.0
 41
1.25
 42
1.25
 43
1.25
  0
INSERT
  5
A624
330
A216
100
AcDbEntity
  8
AM_5
100
AcDbBlockReference
  2
_OPEN30
 10
-50.0
 20
-16.00000100000011
 30
0.0
 41
1.25
 42
1.25
 43
1.25
 50
180.0
  0
MTEXT
  5
A625
330
A216
100
AcDbEntity
  8
AM_5
 62
     2
100
AcDbMText
 10
-25.0
 20
-14.45000100000011
 30
0.0
 40
1.6
 41
0.0
 71
     5
 72
     1
  1
50
  7
ASAMI
1001
ACAD
1000
MTEXTBEGIN
1070
    73
1070
     1
1070
    44
1040
1.0
1070
    74
1070
     0
1000
MTEXTEND
  0
POINT
  5
A626
330
A216
100
AcDbEntity
  8
DEFPOINTS
 62
     0
100
AcDbPoint
 10
0.0000000000000061
 20
-2.500000000000015
 30
0.0
  0
POINT
  5
A627
330
A216
100
AcDbEntity
  8
DEFPOINTS
 62
     0
100
AcDbPoint
 10
-50.0
 20
-2.500000000000064
 30
0.0
  0
POINT
  5
A628
330
A216
100
AcDbEntity
  8
DEFPOINTS
 62
     0
100
AcDbPoint
 10
-50.0
 20
-16.00000100000011
 30
0.0
  0
ENDBLK
  5
A221
330
A216
100
AcDbEntity
  8
0
100
AcDbBlockEnd
  0
BLOCK
  5
A2AC
330
A2A2
100
AcDbEntity
  8
0
100
AcDbBlockBegin
  2
*D6
 70
     1
 10
0.0
 20
0.0
 30
0.0
  3
*D6
  1

  0
LINE
  5
A629
330
A2A2
100
AcDbEntity
  8
AM_5
100
AcDbLine
 10
0.0000000000000061
 20
-3.000000000000015
 30
0.0
 11
0.0000000000000057
 21
-10.50000100000001
 31
0.0
  0
LINE
  5
A62A
330
A2A2
100
AcDbEntity
  8
AM_5
100
AcDbLine
 10
-15.00003205848446
 20
-3.0
 30
0.0
 11
-15.00003205848446
 21
-10.50000100000001
 31
0.0
  0
LINE
  5
A62B
330
A2A2
100
AcDbEntity
  8
AM_5
100
AcDbLine
 10
-1.249999999999994
 20
-10.00000100000001
 30
0.0
 11
-13.75003205848446
 21
-10.00000100000001
 31
0.0
  0
INSERT
  5
A62C
330
A2A2
100
AcDbEntity
  8
AM_5
100
AcDbBlockReference
  2
_OPEN30
 10
0.0000000000000057
 20
-10.00000100000001
 30
0.0
 41
1.25
 42
1.25
 43
1.25
  0
INSERT
  5
A62D
330
A2A2
100
AcDbEntity
  8
AM_5
100
AcDbBlockReference
  2
_OPEN30
 10
-15.00003205848446
 20
-10.00000100000001
 30
0.0
 41
1.25
 42
1.25
 43
1.25
 50
180.0
  0
MTEXT
  5
A62E
330
A2A2
100
AcDbEntity
  8
AM_5
 62
     2
100
AcDbMText
 10
-7.500016029242231
 20
-8.450001000000014
 30
0.0
 40
1.6
 41
0.0
 71
     5
 72
     1
  1
15
  7
ASAMI
1001
ACAD
1000
MTEXTBEGIN
1070
    73
1070
     1
1070
    44
1040
1.0
1070
    74
1070
     0
1000
MTEXTEND
  0
POINT
  5
A62F
330
A2A2
100
AcDbEntity
  8
DEFPOINTS
 62
     0
100
AcDbPoint
 10
0.0000000000000061
 20
-2.500000000000015
 30
0.0
  0
POINT
  5
A630
330
A2A2
100
AcDbEntity
  8
DEFPOINTS
 62
     0
100
AcDbPoint
 10
-15.00003205848446
 20
-2.5
 30
0.0
  0
POINT
  5
A631
330
A2A2
100
AcDbEntity
  8
DEFPOINTS
 62
     0
100
AcDbPoint
 10
-15.00003205848446
 20
-10.00000100000001
 30
0.0
  0
ENDBLK
  5
A2AD
330
A2A2
100
AcDbEntity
  8
0
100
AcDbBlockEnd
  0
BLOCK
  5
A39C
330
A392
100
AcDbEntity
  8
0
100
AcDbBlockBegin
  2
*D7
 70
     1
 10
0.0
 20
0.0
 30
0.0
  3
*D7
  1

  0
LINE
  5
A57B
330
A392
100
AcDbEntity
  8
AM_5
100
AcDbLine
 10
0.4999999999993399
 20
2.5
 30
0.0
 11
12.05776903085518
 21
2.499999999999996
 31
0.0
  0
LINE
  5
A57C
330
A392
100
AcDbEntity
  8
AM_5
100
AcDbLine
 10
0.5000000000000062
 20
-2.500000000000015
 30
0.0
 11
12.05776903085518
 21
-2.500000000000019
 31
0.0
  0
LINE
  5
A57D
330
A392
100
AcDbEntity
  8
AM_5
100
AcDbLine
 10
11.55776903085518
 20
1.249999999999996
 30
0.0
 11
11.55776903085518
 21
-1.250000000000019
 31
0.0
  0
INSERT
  5
A57E
330
A392
100
AcDbEntity
  8
AM_5
100
AcDbBlockReference
  2
_OPEN30
 10
11.55776903085518
 20
2.499999999999996
 30
0.0
 41
1.25
 42
1.25
 43
1.25
 50
90.0
  0
INSERT
  5
A57F
330
A392
100
AcDbEntity
  8
AM_5
100
AcDbBlockReference
  2
_OPEN30
 10
11.55776903085518
 20
-2.500000000000019
 30
0.0
 41
1.25
 42
1.25
 43
1.25
 50
270.0
  0
MTEXT
  5
A580
330
A392
100
AcDbEntity
  8
AM_5
 62
     2
100
AcDbMText
 10
10.00776903085518
 20
-0.0000000000000092
 30
0.0
 40
1.6
 41
0.0
 71
     5
 72
     1
  1
%%c5
  7
ASAMI
 11
0.0000000000000001
 21
1.0
 31
0.0
1001
ACAD
1000
MTEXTBEGIN
1070
    73
1070
     1
1070
    44
1040
1.0
1070
    74
1070
     0
1000
MTEXTEND
  0
POINT
  5
A581
330
A392
100
AcDbEntity
  8
DEFPOINTS
 62
     0
100
AcDbPoint
 10
-0.0000000000006602
 20
2.5
 30
0.0
  0
POINT
  5
A582
330
A392
100
AcDbEntity
  8
DEFPOINTS
 62
     0
100
AcDbPoint
 10
0.0000000000000061
 20
-2.500000000000015
 30
0.0
  0
POINT
  5
A583
330
A392
100
AcDbEntity
  8
DEFPOINTS
 62
     0
100
AcDbPoint
 10
11.55776903085518
 20
-2.500000000000019
 30
0.0
  0
ENDBLK
  5
A39D
330
A392
100
AcDbEntity
  8
0
100
AcDbBlockEnd
  0
BLOCK
  5
A4C1
330
A4B7
100
AcDbEntity
  8
0
100
AcDbBlockBegin
  2
*D8
 70
     1
 10
0.0
 20
0.0
 30
0.0
  3
*D8
  1

  0
LINE
  5
A4C4
330
A4B7
100
AcDbEntity
  8
AM_5
100
AcDbLine
 10
-50.0
 20
2.99999999999993
 30
0.0
 11
-60.81099700121462
 21
2.999999999999933
 31
0.0
  0
LINE
  5
A4C5
330
A4B7
100
AcDbEntity
  8
AM_5
100
AcDbLine
 10
-50.0
 20
-3.000000000000064
 30
0.0
 11
-60.81099700121462
 21
-3.000000000000061
 31
0.0
  0
LINE
  5
A4C6
330
A4B7
100
AcDbEntity
  8
AM_5
100
AcDbLine
 10
-60.31099700121462
 20
1.749999999999933
 30
0.0
 11
-60.31099700121462
 21
-1.750000000000062
 31
0.0
  0
INSERT
  5
A4C7
330
A4B7
100
AcDbEntity
  8
AM_5
100
AcDbBlockReference
  2
_OPEN30
 10
-60.31099700121462
 20
2.999999999999933
 30
0.0
 41
1.25
 42
1.25
 43
1.25
 50
90.0
  0
INSERT
  5
A4C8
330
A4B7
100
AcDbEntity
  8
AM_5
100
AcDbBlockReference
  2
_OPEN30
 10
-60.31099700121462
 20
-3.000000000000062
 30
0.0
 41
1.25
 42
1.25
 43
1.25
 50
270.0
  0
MTEXT
  5
A4C9
330
A4B7
100
AcDbEntity
  8
AM_5
 62
     2
100
AcDbMText
 10
-61.86099700121461
 20
-0.0000000000000738
 30
0.0
 40
1.6
 41
0.0
 71
     5
 72
     1
  1
%%c6
  7
ASAMI
 11
0.0000000000000001
 21
1.0
 31
0.0
1001
ACAD
1000
MTEXTBEGIN
1070
    73
1070
     1
1070
    44
1040
1.0
1070
    74
1070
     0
1000
MTEXTEND
  0
POINT
  5
A4CA
330
A4B7
100
AcDbEntity
  8
DEFPOINTS
 62
     0
100
AcDbPoint
 10
-49.5
 20
2.99999999999993
 30
0.0
  0
POINT
  5
A4CB
330
A4B7
100
AcDbEntity
  8
DEFPOINTS
 62
     0
100
AcDbPoint
 10
-49.5
 20
-3.000000000000064
 30
0.0
  0
POINT
  5
A4CC
330
A4B7
100
AcDbEntity
  8
DEFPOINTS
 62
     0
100
AcDbPoint
 10
-60.31099700121462
 20
-3.000000000000062
 30
0.0
  0
ENDBLK
  5
A4C2
330
A4B7
100
AcDbEntity
  8
0
100
AcDbBlockEnd
  0
ENDSEC
  0
SECTION
  2
ENTITIES
  0
TEXT
  5
1500
330
1F
100
AcDbEntity
  8
AM_6
100
AcDbText
 10
-35.7142857142857
 20
-27.25000100000011
 30
0.0
 40
2.5
  1
USM2050ZX
 72
     4
 11
-24.99999999999999
 21
-26.00000100000011
 31
0.0
100
AcDbText
  0
LINE
  5
9FF0
330
1F
100
AcDbEntity
  8
AM_7
  6
AM_ISO08W050X2
100
AcDbLine
 10
4.557768030855186
 20
0.0
 30
0.0
 11
-53.31099600121461
 21
-0.0000000000000622
 31
0.0
1001
GENIUS_GENODEF_13
1002
{
1000
HIER
1070
     0
1002
}
1002
{
1000
MANEDIT
1070
     0
1002
}
1002
{
1000
NOSEL
1070
     0
1002
}
1002
{
1000
BEHIND
1070
     0
1002
}
1002
{
1000
REACTOR
1002
}
1001
GENIUS_GENOBJ-N-CEN_13
1002
{
1000
OWNER
1000
GEN
1002
}
  0
DIMENSION
  5
A215
330
1F
100
AcDbEntity
  8
AM_5
100
AcDbDimension
  2
*D5
 10
-50.0
 20
-16.00000100000011
 30
0.0
 11
-25.0
 21
-14.45000100000011
 31
0.0
 70
    32
  1
<>
  3
AM_JIS
100
AcDbAlignedDimension
 13
0.0000000000000061
 23
-2.500000000000015
 33
0.0
 14
-50.0
 24
-2.500000000000064
 34
0.0
 50
0.0000000000001641
100
AcDbRotatedDimension
1001
GENIUS_GENDTOL_13
1000

1000
h7
1000

1040
0.0
  0
DIMENSION
  5
A2A1
330
1F
100
AcDbEntity
  8
AM_5
100
AcDbDimension
  2
*D6
 10
-15.00003205848446
 20
-10.00000100000001
 30
0.0
 11
-7.500016029242231
 21
-8.450001000000014
 31
0.0
 70
    32
  1
<>
  3
AM_JIS
100
AcDbAlignedDimension
 13
0.0000000000000061
 23
-2.500000000000015
 33
0.0
 14
-15.00003205848446
 24
-2.5
 34
0.0
 50
0.0000000000001641
100
AcDbRotatedDimension
1001
GENIUS_GENDTOL_13
1000

1000
h7
1000

1040
0.0
  0
DIMENSION
  5
A391
330
1F
100
AcDbEntity
  8
AM_5
100
AcDbDimension
  2
*D7
 10
11.55776903085518
 20
-2.500000000000019
 30
0.0
 11
10.00776903085518
 21
-0.0000000000000092
 31
0.0
 70
    32
  1
%%c<>
  3
AM_JIS
100
AcDbAlignedDimension
 13
-0.0000000000006602
 23
2.5
 33
0.0
 14
0.0000000000000061
 24
-2.500000000000015
 34
0.0
 50
90.00000000000005
100
AcDbRotatedDimension
1001
GENIUS_GENDTOL_13
1000

1000
h7
1000

1040
0.0
  0
LINE
  5
A4B1
330
1F
100
AcDbEntity
  8
AM_0
100
AcDbLine
 10
-23.5
 20
-3.000000000000039
 30
0.0
 11
-49.5
 21
-3.000000000000064
 31
0.0
  0
LINE
  5
A4B3
330
1F
100
AcDbEntity
  8
AM_0
100
AcDbLine
 10
-50.0
 20
2.49999999999993
 30
0.0
 11
-50.0
 21
-2.500000000000064
 31
0.0
  0
LINE
  5
A4B5
330
1F
100
AcDbEntity
  8
AM_0
100
AcDbLine
 10
-49.5
 20
2.99999999999993
 30
0.0
 11
-49.5
 21
-3.000000000000064
 31
0.0
  0
DIMENSION
  5
A4B6
330
1F
100
AcDbEntity
  8
AM_5
100
AcDbDimension
  2
*D8
 10
-60.31099700121462
 20
-3.000000000000062
 30
0.0
 11
-61.86099700121461
 21
-0.0000000000000738
 31
0.0
 70
    32
  1
%%c<>
  3
AM_JIS
100
AcDbAlignedDimension
 13
-49.5
 23
2.99999999999993
 33
0.0
 14
-49.5
 24
-3.000000000000064
 34
0.0
 50
270.0
100
AcDbRotatedDimension
1001
GENIUS_GENDTOL_13
1000

1000
h7
1000

1040
0.0
  0
LINE
  5
A4C3
330
1F
100
AcDbEntity
  8
AM_0
100
AcDbLine
 10
-23.5
 20
2.999999999999956
 30
0.0
 11
-49.50000000000001
 21
2.99999999999993
 31
0.0
  0
LINE
  5
A4CF
330
1F
100
AcDbEntity
  8
AM_0
100
AcDbLine
 10
-49.50000000000001
 20
2.99999999999993
 30
0.0
 11
-50.0
 21
2.49999999999993
 31
0.0
1001
GENIUS_GENFIL_13
1070
     0
1040
0.5
1040
0.5
1040
20.0
1040
0.0
1002
{
1002
}
1001
GENIUS_GENODEF_13
1002
{
1000
HIER
1070
     0
1002
}
1002
{
1000
MANEDIT
1070
     0
1002
}
1002
{
1000
NOSEL
1070
     0
1002
}
1002
{
1000
BEHIND
1070
     0
1002
}
1002
{
1000
REACTOR
1002
}
1001
GENIUS_GENOBJ-N-CHA_13
1002
{
1000
OWNER
1000
GEN
1002
}
  0
LINE
  5
A4D2
330
1F
100
AcDbEntity
  8
AM_0
100
AcDbLine
 10
-50.0
 20
-2.500000000000064
 30
0.0
 11
-49.5
 21
-3.000000000000064
 31
0.0
1001
GENIUS_GENFIL_13
1070
     0
1040
0.5
1040
0.5
1040
20.0
1040
0.0
1002
{
1002
}
1001
GENIUS_GENODEF_13
1002
{
1000
HIER
1070
     0
1002
}
1002
{
1000
MANEDIT
1070
     0
1002
}
1002
{
1000
NOSEL
1070
     0
1002
}
1002
{
1000
BEHIND
1070
     0
1002
}
1002
{
1000
REACTOR
1002
}
1001
GENIUS_GENOBJ-N-CHA_13
1002
{
1000
OWNER
1000
GEN
1002
}
  0
LINE
  5
A524
330
1F
100
AcDbEntity
  8
AM_11
100
AcDbLine
 10
-15.00003205848446
 20
-2.5
 30
0.0
 11
0.0
 21
-2.5
 31
0.0
  0
LINE
  5
A525
330
1F
100
AcDbEntity
  8
AM_11
100
AcDbLine
 10
-0.0000000000004547
 20
2.5
 30
0.0
 11
-15.00003205848446
 21
2.5
 31
0.0
  0
LINE
  5
A527
330
1F
100
AcDbEntity
  8
AM_7
  6
AM_ISO08W050X2
100
AcDbLine
 10
2.278884015427593
 20
0.0
 30
0.0
 11
-20.40000000000009
 21
0.0
 31
0.0
1001
GENIUS_GENODEF_13
1002
{
1000
HIER
1070
     0
1002
}
1002
{
1000
MANEDIT
1070
     0
1002
}
1002
{
1000
NOSEL
1070
     0
1002
}
1002
{
1000
BEHIND
1070
     0
1002
}
1002
{
1000
REACTOR
1002
}
1001
GENIUS_GENOBJ-N-CEN_13
1002
{
1000
OWNER
1000
GEN
1002
}
  0
LINE
  5
A5BC
330
1F
100
AcDbEntity
  8
AM_0
100
AcDbLine
 10
-0.0486952757853164
 20
-0.2332880427903774
 30
0.0
 11
-0.4164337993158802
 21
-0.4479805605149068
 31
0.0
  0
LINE
  5
A5BD
330
1F
100
AcDbEntity
  8
AM_0
100
AcDbLine
 10
0.0
 20
-0.1375000000000455
 30
0.0
 11
-0.0486952757853164
 21
-0.2332880427903774
 31
0.0
  0
LINE
  5
A5BE
330
1F
100
AcDbEntity
  8
AM_0
100
AcDbLine
 10
-0.1739116992332426
 20
-2.039110092256692
 30
0.0
 11
-0.1739116992332426
 21
-2.012177715566281
 31
0.0
  0
ELLIPSE
  5
A5BF
330
1F
100
AcDbEntity
  8
AM_0
100
AcDbEllipse
 10
6.588595307807993
 20
0.0105186558541775
 30
0.0
 11
0.0000000000000572
 21
7.566260194955894
 31
0.0
210
0.0
220
0.0
230
1.0
 40
0.9275290625772971
 41
1.631431340463002
 42
1.841418545974729
  0
LINE
  5
A5C0
330
1F
100
AcDbEntity
  8
AM_0
100
AcDbLine
 10
0.0
 20
-2.5
 30
0.0
 11
-0.0486952757853164
 21
-2.366720578810941
 31
0.0
  0
LINE
  5
A5C1
330
1F
100
AcDbEntity
  8
AM_0
100
AcDbLine
 10
-0.0486952757853164
 20
-2.366720578810941
 30
0.0
 11
-0.0486952757853164
 21
-0.2332880427903774
 31
0.0
  0
LINE
  5
A5C2
330
1F
100
AcDbEntity
  8
AM_0
100
AcDbLine
 10
-0.0486952757853164
 20
-2.366720578810941
 30
0.0
 11
-0.1739116992332426
 21
-2.039110092256692
 31
0.0
  0
LINE
  5
A5C3
330
1F
100
AcDbEntity
  8
AM_0
100
AcDbLine
 10
0.0
 20
-2.5
 30
0.0
 11
0.0
 21
2.5
 31
0.0
  0
LINE
  5
A5C4
330
1F
100
AcDbEntity
  8
AM_0
100
AcDbLine
 10
-2.640490027429064
 20
1.855851040274615
 30
0.0
 11
0.0
 21
-0.1375000000000455
 31
0.0
  0
ELLIPSE
  5
A5C5
330
1F
100
AcDbEntity
  8
AM_0
100
AcDbEllipse
 10
-15.44902845048391
 20
3.182943297349652
 30
0.0
 11
0.0000000000000008
 21
1.220653591862111
 31
0.0
210
0.0
220
0.0
230
1.0
 40
0.9275290625772926
 41
2.797690175084262
 42
3.515370053468952
  0
LINE
  5
A5C6
330
1F
100
AcDbEntity
  8
AM_0
100
AcDbLine
 10
-15.00003205848446
 20
-1.694146810025548
 30
0.0
 11
-15.00003205848446
 21
-2.059214095566488
 31
0.0
  0
LINE
  5
A5C7
330
1F
100
AcDbEntity
  8
AM_0
100
AcDbLine
 10
-15.00003205848446
 20
-1.694146810025548
 30
0.0
 11
-15.00003205848446
 21
-1.908101747832347
 31
0.0
  0
ELLIPSE
  5
A5C8
330
1F
100
AcDbEntity
  8
AM_0
100
AcDbEllipse
 10
-15.44902845048391
 20
-3.18294342304955
 30
0.0
 11
0.0271843228702149
 21
1.22033798893032
 31
0.0
210
0.0
220
0.0
230
0.9999999999999998
 40
0.9355664845079424
 41
-0.3802558337705988
 42
0.3646243961076419
  0
LINE
  5
A5C9
330
1F
100
AcDbEntity
  8
AM_0
100
AcDbLine
 10
-15.83076230010589
 20
-2.033763903645308
 30
0.0
 11
-17.01890228326498
 21
-2.500000063199991
 31
0.0
  0
LINE
  5
A5CD
330
1F
100
AcDbEntity
  8
AM_0
100
AcDbLine
 10
-15.83076230010884
 20
2.033763777946546
 30
0.0
 11
-17.01890228326456
 21
2.499999937499978
 31
0.0
  0
LINE
  5
A5CE
330
1F
100
AcDbEntity
  8
AM_0
100
AcDbLine
 10
-4.701092644242301
 20
-1.934911588090585
 30
0.0
 11
-9.317147290055627
 21
-2.108702563221754
 31
0.0
  0
LINE
  5
A5CF
330
1F
100
AcDbEntity
  8
AM_0
100
AcDbLine
 10
-2.640490027429064
 20
1.855851040274615
 30
0.0
 11
-9.290100586680685
 21
2.122418301580751
 31
0.0
  0
SPLINE
  5
A5D0
330
1F
100
AcDbEntity
  8
AM_0
100
AcDbSpline
210
0.0
220
0.0
230
1.0
 70
     8
 71
     3
 72
     8
 73
     4
 74
     0
 42
0.0000000001
 43
0.0000000001
 40
0.0
 40
0.0
 40
0.0
 40
0.0
 40
3.325240547704682
 40
3.325240547704682
 40
3.325240547704682
 40
3.325240547704682
 10
-0.4164337993158802
 20
-0.4479805605149068
 30
0.0
 10
-1.378828887932387
 20
-0.0581253983332153
 30
0.0
 10
-3.646525148389196
 20
1.627516644969337
 30
0.0
 10
-2.640490027428853
 20
1.855851040274615
 30
0.0
  0
SPLINE
  5
A5D1
330
1F
100
AcDbEntity
  8
AM_0
100
AcDbSpline
210
0.0
220
0.0
230
1.0
 70
     8
 71
     3
 72
     8
 73
     4
 74
     0
 42
0.0000000001
 43
0.0000000001
 40
0.0
 40
0.0
 40
0.0
 40
0.0
 40
2.821318814363394
 40
2.821318814363394
 40
2.821318814363394
 40
2.821318814363394
 10
-0.0927529062576451
 20
2.5
 30
0.0
 10
0.1562692052933431
 20
1.598697799978507
 30
0.0
 10
-1.769739494556047
 20
1.911609863586362
 30
0.0
 10
-2.640490027429064
 20
1.855851040274615
 30
0.0
  0
SPLINE
  5
A5D2
330
1F
100
AcDbEntity
  8
AM_0
100
AcDbSpline
210
0.0
220
0.0
230
1.0
 70
     8
 71
     3
 72
     8
 73
     4
 74
     0
 42
0.0000000001
 43
0.0000000001
 40
0.0
 40
0.0
 40
0.0
 40
0.0
 40
7.24499827467194
 40
7.24499827467194
 40
7.24499827467194
 40
7.24499827467194
 10
0.0
 20
-2.5
 30
0.0
 10
-2.239982152693525
 20
-2.499999999999999
 30
0.0
 10
-4.27358988910954
 20
-1.249999999999999
 30
0.0
 10
-6.307197625525557
 20
0.0
 30
0.0
  0
SPLINE
  5
A5D3
330
1F
100
AcDbEntity
  8
AM_0
100
AcDbSpline
210
0.0
220
0.0
230
1.0
 70
     8
 71
     3
 72
     8
 73
     4
 74
     0
 42
0.0000000001
 43
0.0000000001
 40
0.0
 40
0.0
 40
0.0
 40
0.0
 40
7.24499827467194
 40
7.24499827467194
 40
7.24499827467194
 40
7.24499827467194
 10
-12.61439525105111
 20
2.5
 30
0.0
 10
-10.37441309835758
 20
2.499999999999999
 30
0.0
 10
-8.340805361941573
 20
1.249999999999999
 30
0.0
 10
-6.307197625525557
 20
0.0
 30
0.0
  0
SPLINE
  5
A5D4
330
1F
100
AcDbEntity
  8
AM_0
100
AcDbSpline
210
0.0
220
0.0
230
1.0
 70
     8
 71
     3
 72
     8
 73
     4
 74
     0
 42
0.0000000001
 43
0.0000000001
 40
0.0
 40
0.0
 40
0.0
 40
0.0
 40
6.457542170879827
 40
6.457542170879827
 40
6.457542170879827
 40
6.457542170879827
 10
0.0
 20
2.5
 30
0.0
 10
-0.9982596727181471
 20
2.5
 30
0.0
 10
-1.955531622127117
 20
2.25173931410336
 30
0.0
 10
-2.890082239861876
 20
1.865856605548401
 30
0.0
  0
SPLINE
  5
A5D5
330
1F
100
AcDbEntity
  8
AM_0
100
AcDbSpline
210
0.0
220
0.0
230
1.0
 70
     8
 71
     3
 72
     8
 73
     4
 74
     0
 42
0.0000000001
 43
0.0000000001
 40
0.7142832446738512
 40
0.7142832446738512
 40
0.7142832446738512
 40
0.7142832446738512
 40
14.36247867694493
 40
14.36247867694493
 40
14.36247867694493
 40
14.36247867694493
 10
-10.54284348216248
 20
2.300298894912089
 30
0.0
 10
-8.449289652805399
 20
2.193903517737794
 30
0.0
 10
-6.507452298969113
 20
1.09695175886884
 30
0.0
 10
-4.565614945132617
 20
0.0
 30
0.0
  0
SPLINE
  5
A5D6
330
1F
100
AcDbEntity
  8
AM_0
100
AcDbSpline
210
0.0
220
0.0
230
1.0
 70
     8
 71
     3
 72
     8
 73
     4
 74
     0
 42
0.0000000001
 43
0.0000000001
 40
0.3581103616548037
 40
0.3581103616548037
 40
0.3581103616548037
 40
0.3581103616548037
 40
14.43901837670146
 40
14.43901837670146
 40
14.43901837670146
 40
14.43901837670146
 10
-11.63919518271802
 20
2.422922711426281
 30
0.0
 10
-9.471747693451312
 20
2.36499450402664
 30
0.0
 10
-7.484734041353406
 20
1.182497252013263
 30
0.0
 10
-5.497720389255499
 20
0.0
 30
0.0
  0
SPLINE
  5
A5D7
330
1F
100
AcDbEntity
  8
AM_0
100
AcDbSpline
210
0.0
220
0.0
230
1.0
 70
     8
 71
     3
 72
     8
 73
     4
 74
     0
 42
0.0000000001
 43
0.0000000001
 40
1.870660592686466
 40
1.870660592686466
 40
1.870660592686466
 40
1.870660592686466
 40
14.43901837670146
 40
14.43901837670146
 40
14.43901837670146
 40
14.43901837670146
 10
-0.0486952757853164
 20
-2.366720578810941
 30
0.0
 10
-1.950577197267787
 20
-2.110950306050767
 30
0.0
 10
-3.724148793261643
 20
-1.05547515302544
 30
0.0
 10
-5.497720389255499
 20
0.0
 30
0.0
  0
SPLINE
  5
A5D8
330
1F
100
AcDbEntity
  8
AM_0
100
AcDbSpline
210
0.0
220
0.0
230
1.0
 70
     8
 71
     3
 72
     8
 73
     4
 74
     0
 42
0.0000000001
 43
0.0000000001
 40
4.219358800530717
 40
4.219358800530717
 40
4.219358800530717
 40
4.219358800530717
 40
14.36247867694493
 40
14.36247867694493
 40
14.36247867694493
 40
14.36247867694493
 10
-0.1739116992332426
 20
-2.039110092256578
 30
0.0
 10
-1.679330211271084
 20
-1.630473895844374
 30
0.0
 10
-3.122472578201745
 20
-0.8152369479222443
 30
0.0
 10
-4.565614945132617
 20
0.0
 30
0.0
  0
SPLINE
  5
A5D9
330
1F
100
AcDbEntity
  8
AM_0
100
AcDbSpline
210
0.0
220
0.0
230
1.0
 70
     8
 71
     3
 72
     8
 73
     4
 74
     0
 42
0.0000000001
 43
0.0000000001
 40
0.0
 40
0.0
 40
0.0
 40
0.0
 40
1.748655602797241
 40
1.748655602797241
 40
1.748655602797241
 40
1.748655602797241
 10
-10.87988288519025
 20
-2.289037311182937
 30
0.0
 10
-10.34984076353672
 20
-2.289037311182937
 30
0.0
 10
-9.829718820348174
 20
-2.223725058384957
 30
0.0
 10
-9.317147290055839
 20
-2.108702563221754
 30
0.0
  0
SPLINE
  5
A5DA
330
1F
100
AcDbEntity
  8
AM_0
100
AcDbSpline
210
0.0
220
0.0
230
1.0
 70
     8
 71
     3
 72
     8
 73
     4
 74
     0
 42
0.0000000001
 43
0.0000000001
 40
0.0
 40
0.0
 40
0.0
 40
0.0
 40
1.389839699216864
 40
1.389839699216864
 40
1.389839699216864
 40
1.389839699216864
 10
-11.81259749739657
 20
-2.402027065800098
 30
0.0
 10
-11.39131752565552
 20
-2.402027065800098
 30
0.0
 10
-10.9768499650078
 20
-2.359172816106934
 30
0.0
 10
-10.56790797753196
 20
-2.281559317572146
 30
0.0
  0
SPLINE
  5
A5DB
330
1F
100
AcDbEntity
  8
AM_0
100
AcDbSpline
210
0.0
220
0.0
230
1.0
 70
     8
 71
     3
 72
     8
 73
     4
 74
     0
 42
0.0000000001
 43
0.0000000001
 40
0.0
 40
0.0
 40
0.0
 40
0.0
 40
1.293721832890842
 40
1.293721832890842
 40
1.293721832890842
 40
1.293721832890842
 10
-12.61352263736498
 20
-2.500000063199991
 30
0.0
 10
-12.22137734355297
 20
-2.500000063199991
 30
0.0
 10
-11.83555266534496
 20
-2.461707161101799
 30
0.0
 10
-11.45494232668418
 20
-2.391823634563365
 30
0.0
  0
SPLINE
  5
A5DC
330
1F
100
AcDbEntity
  8
AM_0
100
AcDbSpline
210
0.0
220
0.0
230
1.0
 70
     8
 71
     3
 72
     8
 73
     4
 74
     0
 42
0.0000000001
 43
0.0000000001
 40
0.0
 40
0.0
 40
0.0
 40
0.0
 40
3.101397527050138
 40
3.101397527050138
 40
3.101397527050138
 40
3.101397527050138
 10
-11.81259749739657
 20
-2.402027065800098
 30
0.0
 10
-12.75267473313087
 20
-2.402027065800098
 30
0.0
 10
-13.65882959043822
 20
-2.188634471701107
 30
0.0
 10
-15.00003205848446
 20
-1.694146810025548
 30
0.0
  0
SPLINE
  5
A5DD
330
1F
100
AcDbEntity
  8
AM_0
100
AcDbSpline
210
0.0
220
0.0
230
1.0
 70
     8
 71
     3
 72
     8
 73
     4
 74
     0
 42
0.0000000001
 43
0.0000000001
 40
0.0
 40
0.0
 40
0.0
 40
0.0
 40
2.86670689287766
 40
2.86670689287766
 40
2.86670689287766
 40
2.86670689287766
 10
-12.61352263736498
 20
-2.500000063200104
 30
0.0
 10
-13.48246183913187
 20
-2.500000063200104
 30
0.0
 10
-14.32036658429142
 20
-2.311980496283354
 30
0.0
 10
-15.00003205848446
 20
-2.059214095566488
 30
0.0
  0
SPLINE
  5
A5DE
330
1F
100
AcDbEntity
  8
AM_0
100
AcDbSpline
210
0.0
220
0.0
230
1.0
 70
     8
 71
     3
 72
     8
 73
     4
 74
     0
 42
0.0000000001
 43
0.0000000001
 40
0.0
 40
0.0
 40
0.0
 40
0.0
 40
4.717968117863759
 40
4.717968117863759
 40
4.717968117863759
 40
4.717968117863759
 10
-10.87988288519025
 20
-2.289037311183051
 30
0.0
 10
-12.30996541664274
 20
-2.289037311183051
 30
0.0
 10
-13.66783402796248
 20
-1.813596892057489
 30
0.0
 10
-15.45470316765468
 20
-0.9584476294268316
 30
0.0
  0
SPLINE
  5
A5DF
330
1F
100
AcDbEntity
  8
AM_0
100
AcDbSpline
210
0.0
220
0.0
230
1.0
 70
     8
 71
     3
 72
     8
 73
     4
 74
     0
 42
0.0000000001
 43
0.0000000001
 40
2.641391316682392
 40
2.641391316682392
 40
2.641391316682392
 40
2.641391316682392
 40
3.172260675542282
 40
3.172260675542282
 40
3.172260675542282
 40
3.172260675542282
 10
-15.00003205848468
 20
-1.920515115710335
 30
0.0
 10
-15.15224756874062
 20
-1.86781622980512
 30
0.0
 10
-15.30377912612267
 20
-1.810973674663008
 30
0.0
 10
-15.45470316765468
 20
-1.750450537370928
 30
0.0
  0
SPLINE
  5
A5E0
330
1F
100
AcDbEntity
  8
AM_0
100
AcDbSpline
210
0.0
220
0.0
230
1.0
 70
     8
 71
     3
 72
     8
 73
     4
 74
     0
 42
0.0000000001
 43
0.0000000001
 40
4.071346735624547
 40
4.071346735624547
 40
4.071346735624547
 40
4.071346735624547
 40
6.91280490763674
 40
6.91280490763674
 40
6.91280490763674
 40
6.91280490763674
 10
-15.45470316765468
 20
-1.343400761534055
 30
0.0
 10
-15.79800654136289
 20
-1.187605100021414
 30
0.0
 10
-16.66623436132982
 20
-1.014151173887995
 30
0.0
 10
-17.943867391063
 20
0.3400103360977766
 30
0.0
  0
SPLINE
  5
A5E1
330
1F
100
AcDbEntity
  8
AM_0
100
AcDbSpline
210
0.0
220
0.0
230
1.0
 70
     8
 71
     3
 72
     8
 73
     4
 74
     0
 42
0.0000000001
 43
0.0000000001
 40
0.0
 40
0.0
 40
0.0
 40
0.0
 40
2.745882016847017
 40
2.745882016847017
 40
2.745882016847017
 40
2.745882016847017
 10
-12.61352263736498
 20
2.499999937499978
 30
0.0
 10
-13.44583811886526
 20
2.499999937499978
 30
0.0
 10
-14.24968007050585
 20
2.327495523439665
 30
0.0
 10
-15.03562607450055
 20
2.046570060848694
 30
0.0
  0
SPLINE
  5
A5E2
330
1F
100
AcDbEntity
  8
AM_0
100
AcDbSpline
210
0.0
220
0.0
230
1.0
 70
     8
 71
     3
 72
     8
 73
     4
 74
     0
 42
0.0000000001
 43
0.0000000001
 40
1.590776514610431
 40
1.590776514610431
 40
1.590776514610431
 40
1.590776514610431
 40
7.218994763998551
 40
7.218994763998551
 40
7.218994763998551
 40
7.218994763998551
 10
-16.45317679612698
 20
1.824121417604942
 30
0.0
 10
-14.78627686203389
 20
1.525082333128466
 30
0.0
 10
-13.17996876508715
 20
0.7625411351392586
 30
0.0
 10
-11.5736606681404
 20
-0.0000000628500629
 30
0.0
  0
SPLINE
  5
A5E3
330
1F
100
AcDbEntity
  8
AM_0
100
AcDbSpline
210
0.0
220
0.0
230
1.0
 70
     8
 71
     3
 72
     9
 73
     5
 74
     0
 42
0.0000000001
 43
0.0000000001
 40
0.0
 40
0.0
 40
0.0
 40
0.0
 40
0.4149625668811378
 40
1.528874629660323
 40
1.528874629660323
 40
1.528874629660323
 40
1.528874629660323
 10
-17.01890228326456
 20
2.499999937499978
 30
0.0
 10
-17.14719889681921
 20
2.499999937499978
 30
0.0
 10
-17.78224323718392
 20
2.188285736677967
 30
0.0
 10
-16.78541132052944
 20
1.921919005249493
 30
0.0
 10
-16.45317679612698
 20
1.824121417605283
 30
0.0
  0
SPLINE
  5
A5E4
330
1F
100
AcDbEntity
  8
AM_0
100
AcDbSpline
210
0.0
220
0.0
230
1.0
 70
     8
 71
     3
 72
     8
 73
     4
 74
     0
 42
0.0000000001
 43
0.0000000001
 40
0.0
 40
0.0
 40
0.0
 40
0.0
 40
7.077445848048281
 40
7.077445848048281
 40
7.077445848048281
 40
7.077445848048281
 10
-5.26484207739254
 20
-1.956136328964362
 30
0.0
 10
-7.453020981686466
 20
-1.956136328964362
 30
0.0
 10
-9.513340824913539
 20
-0.9780681959071555
 30
0.0
 10
-11.57366066814061
 20
-0.0000000628499492
 30
0.0
  0
SPLINE
  5
A5E5
330
1F
100
AcDbEntity
  8
AM_0
100
AcDbSpline
210
0.0
220
0.0
230
1.0
 70
     8
 71
     3
 72
     8
 73
     4
 74
     0
 42
0.0000000001
 43
0.0000000001
 40
0.0
 40
0.0
 40
0.0
 40
0.0
 40
2.238610194515266
 40
2.238610194515266
 40
2.238610194515266
 40
2.238610194515266
 10
-5.26484207739254
 20
-1.956136328964362
 30
0.0
 10
-4.586287823965801
 20
-1.956136328964362
 30
0.0
 10
-3.920028753949587
 20
-1.862083338246179
 30
0.0
 10
-3.262252131107499
 20
-1.703143188165768
 30
0.0
  0
LINE
  5
A5F4
330
1F
100
AcDbEntity
  8
AM_11
100
AcDbLine
 10
-15.00003205848446
 20
2.5
 30
0.0
 11
-15.00003205848446
 21
-2.5
 31
0.0
  0
LINE
  5
A5FD
330
1F
100
AcDbEntity
  8
AM_0
100
AcDbLine
 10
-23.5
 20
2.999999999999955
 30
0.0
 11
-23.5
 21
-3.000000000000039
 31
0.0
  0
LINE
  5
A616
330
1F
100
AcDbEntity
  8
AM_0
100
AcDbLine
 10
-17.01890228326456
 20
2.499999937499978
 30
0.0
 11
-21.6339745962157
 21
2.499999999999995
 31
0.0
  0
LINE
  5
A617
330
1F
100
AcDbEntity
  8
AM_0
100
AcDbLine
 10
-17.01890212220833
 20
-2.500000000000001
 30
0.0
 11
-21.63397459621543
 21
-2.500000000000005
 31
0.0
  0
LINE
  5
A618
330
1F
100
AcDbEntity
  8
AM_0
100
AcDbLine
 10
-23.5
 20
-3.000000000000039
 30
0.0
 11
-21.63397459621543
 21
-2.500000000000005
 31
0.0
  0
LINE
  5
A619
330
1F
100
AcDbEntity
  8
AM_0
100
AcDbLine
 10
-21.63397459621543
 20
-2.500000000000005
 30
0.0
 11
-21.6339745962157
 21
2.499999999999994
 31
0.0
  0
LINE
  5
A61A
330
1F
100
AcDbEntity
  8
AM_0
100
AcDbLine
 10
-21.6339745962157
 20
2.499999999999994
 30
0.0
 11
-23.5
 21
2.999999999999955
 31
0.0
  0
LINE
  5
A742
330
1F
100
AcDbEntity
  8
AM_0
100
AcDbLine
 10
-15.45470316765468
 20
-1.750450537370928
 30
0.0
 11
-15.45470316765468
 21
-0.9584476294268316
 31
0.0
  0
SPLINE
  5
A743
330
1F
100
AcDbEntity
  8
AM_0
100
AcDbSpline
210
0.0
220
0.0
230
1.0
 70
     8
 71
     3
 72
     9
 73
     5
 74
     3
 42
0.0000000001
 43
0.0000000001
 44
0.0000000001
 40
0.0
 40
0.0
 40
0.0
 40
0.0
 40
1.737216041544385
 40
3.158764774812691
 40
3.158764774812691
 40
3.158764774812691
 40
3.158764774812691
 10
-17.943867391063
 20
0.3400103360977766
 30
0.0
 10
-17.43200420992752
 20
0.6188089559425539
 30
0.0
 10
-16.50128785259011
 20
1.125746054479343
 30
0.0
 10
-15.46596266970952
 20
1.345300759140937
 30
0.0
 10
-15.00003205848446
 20
1.444107645549024
 30
0.0
 11
-17.943867391063
 21
0.3400103360977766
 31
0.0
 11
-16.37663748769665
 21
1.08948348771392
 31
0.0
 11
-15.00003205848446
 21
1.444107645549024
 31
0.0
  0
VIEWPORT
  5
110
330
101
100
AcDbEntity
 67
     1
  8
0
100
AcDbViewport
 10
420.5
 20
297.0
 30
0.0
 40
948.9782706766916
 41
628.452
 68
     1
 69
     1
1001
ACAD
1000
MVIEW
1002
{
1070
    16
1010
0.0
1020
0.0
1030
0.0
1010
0.0
1020
0.0
1030
1.0
1040
0.0
1040
628.452
1040
420.5
1040
297.0
1040
50.0
1040
0.0
1040
0.0
1070
     0
1070
   100
1070
     1
1070
     1
1070
     0
1070
     0
1070
     0
1070
     0
1040
0.0
1040
0.0
1040
0.0
1040
10.0
1040
10.0
1040
10.0
1040
10.0
1070
     0
1002
{
1002
}
1002
}
  0
ENDSEC
  0
SECTION
  2
OBJECTS
  0
DICTIONARY
  5
C
330
0
100
AcDbDictionary
  3
ACAD_GROUP
350
D
  3
ACAD_LAYOUT
350
1A
  3
ACAD_MLINESTYLE
350
17
  3
ACAD_PLOTSETTINGS
350
19
  3
ACAD_PLOTSTYLENAME
350
E
  3
ACDBVARIABLEDICTIONARY
350
34
  3
ACMDICTIONARY
350
43
  3
AMG
350
2B
  3
AMGSNAPSETTINGS
350
6E
  3
ASE_INDEX_DICTIONARY
350
151A
  3
DWGPROPS
350
A769
  3
ACDBHEADERROUNDTRIPXREC
350
A775
  0
DICTIONARY
  5
74
330
1F
100
AcDbDictionary
280
     1
  3
ACAD_INDEX
360
A76B
  3
ACAD_LAYOUTSELFREF
360
A798
  0
DICTIONARY
  5
A79D
330
101
100
AcDbDictionary
280
     1
  3
ACAD_LAYOUTSELFREF
360
A79E
  0
DICTIONARY
  5
D
102
{ACAD_REACTORS
330
C
102
}
330
C
100
AcDbDictionary
  0
DICTIONARY
  5
1A
102
{ACAD_REACTORS
330
C
102
}
330
C
100
AcDbDictionary
  0
DICTIONARY
  5
17
102
{ACAD_REACTORS
330
C
102
}
330
C
100
AcDbDictionary
  3
STANDARD
350
18
  0
DICTIONARY
  5
19
102
{ACAD_REACTORS
330
C
102
}
330
C
100
AcDbDictionary
  0
ACDBDICTIONARYWDFLT
  5
E
102
{ACAD_REACTORS
330
C
102
}
330
C
100
AcDbDictionary
281
     1
  3
Normal
350
F
100
AcDbDictionaryWithDefault
340
F
  0
DICTIONARY
  5
34
102
{ACAD_REACTORS
330
C
102
}
330
C
100
AcDbDictionary
  3
INDEXCTL
350
35
  3
SORTENTS
350
B5E
  0
DICTIONARY
  5
43
102
{ACAD_REACTORS
330
C
102
}
330
C
100
AcDbDictionary
  3
ACMSTDDICTIONARY
350
260
  0
DICTIONARY
  5
2B
102
{ACAD_REACTORS
330
C
102
}
330
C
100
AcDbDictionary
  3
ACMGSETTINGS
350
2C
  0
DICTIONARY
  5
6E
102
{ACAD_REACTORS
330
C
102
}
330
C
100
AcDbDictionary
  0
DICTIONARY
  5
151A
102
{ACAD_REACTORS
330
C
102
}
330
C
100
AcDbDictionary
  3
ASEBLOCKHIERARCHYINDEXRECORD
350
151C
1001
DCO15
1040
1471862535.906
  0
XRECORD
  5
A769
102
{ACAD_REACTORS
330
C
102
}
330
C
100
AcDbXrecord
  1
DWGPROPS COOKIE
  2

  3

  4

  6

  7

  8

  9

300
AmdtFileType=82
301
=
302
=
303
=
304
=
305
=
306
=
307
=
308
=
309
=
 40
0.5287787962962964
 41
2452838.430434386
 42
2453054.441066261
  1

 90
        1
  0
DICTIONARY
  5
A775
102
{ACAD_REACTORS
330
C
102
}
330
C
100
AcDbDictionary
  3
TSTACKALIGN
350
A776
  3
TSTACKSIZE
350
A777
  3
HYPERLINKBASE
350
A778
  3
STYLESHEET
350
A779
  3
LAYOUTDICT
350
A77A
  3
PLOTSETDICT
350
A77B
  3
PLOTSTYLNAMDICT
350
A77C
  3
LWETCUNION
350
A77D
  3
INSUNITS
350
A77E
  3
CEPSNTYPE
350
A77F
  3
FINGERPRINTGUID
350
A780
  3
VERSIONGUID
350
A781
  3
PSVPSCALE
350
A782
  3
DIMSTYLEDATA
350
A783
  3
PUCSORTHOREF
350
A784
  3
PUCSORTHOVIEW
350
A785
  3
PUCSBASE
350
A786
  3
PUCSORGTOP
350
A787
  3
PUCSORGBOTTOM
350
A788
  3
PUCSORGLEFT
350
A789
  3
PUCSORGRIGHT
350
A78A
  3
PUCSORGFRONT
350
A78B
  3
PUCSORGBACK
350
A78C
  3
UCSORTHOREF
350
A78D
  3
UCSORTHOVIEW
350
A78E
  3
UCSBASE
350
A78F
  3
UCSORGTOP
350
A790
  3
UCSORGBOTTOM
350
A791
  3
UCSORGLEFT
350
A792
  3
UCSORGRIGHT
350
A793
  3
UCSORGFRONT
350
A794
  3
UCSORGBACK
350
A795
  0
DICTIONARY
  5
A76B
102
{ACAD_REACTORS
330
74
102
}
330
74
100
AcDbDictionary
  3
*A1
350
A76C
  0
XRECORD
  5
A798
102
{ACAD_REACTORS
330
74
102
}
330
74
100
AcDbXrecord
340
1F
  0
XRECORD
  5
A79E
102
{ACAD_REACTORS
330
A79D
102
}
330
A79D
100
AcDbXrecord
340
101
  0
MLINESTYLE
  5
18
102
{ACAD_REACTORS
330
17
102
}
330
17
100
AcDbMlineStyle
  2
STANDARD
 70
     0
  3

 62
   256
 51
90.0
 52
90.0
 71
     2
 49
0.5
 62
   256
  6
BYLAYER
 49
-0.5
 62
   256
  6
BYLAYER
  0
ACDBPLACEHOLDER
  5
F
102
{ACAD_REACTORS
330
E
102
}
330
E
100
AcDbPlaceHolder
280
     0
  0
DICTIONARYVAR
  5
35
102
{ACAD_REACTORS
330
34
102
}
330
34
100
DictionaryVariables
280
     0
  1
1
  0
DICTIONARYVAR
  5
B5E
102
{ACAD_REACTORS
330
34
102
}
330
34
100
DictionaryVariables
280
     0
  1
96
  0
DICTIONARY
  5
260
102
{ACAD_REACTORS
330
43
102
}
330
43
100
AcDbDictionary
  0
DICTIONARY
  5
2C
102
{ACAD_REACTORS
330
2B
102
}
330
2B
100
AcDbDictionary
  3
DWGSETTINGS
350
2D
  0
XRECORD
  5
151C
102
{ACAD_REACTORS
330
151A
102
}
330
151A
100
AcDbXrecord
330
0
330
0
330
0
330
0
330
0
330
0
330
0
330
0
  0
XRECORD
  5
A776
102
{ACAD_REACTORS
330
A775
102
}
330
A775
100
AcDbXrecord
 90
        1
  0
XRECORD
  5
A777
102
{ACAD_REACTORS
330
A775
102
}
330
A775
100
AcDbXrecord
 90
       70
  0
XRECORD
  5
A778
102
{ACAD_REACTORS
330
A775
102
}
330
A775
100
AcDbXrecord
  1

  0
XRECORD
  5
A779
102
{ACAD_REACTORS
330
A775
102
}
330
A775
100
AcDbXrecord
  1
ASAMI.ctb
  0
XRECORD
  5
A77A
102
{ACAD_REACTORS
330
A775
102
}
330
A775
100
AcDbXrecord
340
1A
  0
XRECORD
  5
A77B
102
{ACAD_REACTORS
330
A775
102
}
330
A775
100
AcDbXrecord
340
19
  0
XRECORD
  5
A77C
102
{ACAD_REACTORS
330
A775
102
}
330
A775
100
AcDbXrecord
340
E
  0
XRECORD
  5
A77D
102
{ACAD_REACTORS
330
A775
102
}
330
A775
100
AcDbXrecord
 90
    10781
  0
XRECORD
  5
A77E
102
{ACAD_REACTORS
330
A775
102
}
330
A775
100
AcDbXrecord
 90
        4
  0
XRECORD
  5
A77F
102
{ACAD_REACTORS
330
A775
102
}
330
A775
100
AcDbXrecord
 90
        0
  0
XRECORD
  5
A780
102
{ACAD_REACTORS
330
A775
102
}
330
A775
100
AcDbXrecord
  1
{AFB28963-8C59-40AE-9337-C84526B81ACE}
  0
XRECORD
  5
A781
102
{ACAD_REACTORS
330
A775
102
}
330
A775
100
AcDbXrecord
  1
{5CBB9C15-FBD9-44E5-B93F-229C8BB5976C}
  0
XRECORD
  5
A782
102
{ACAD_REACTORS
330
A775
102
}
330
A775
100
AcDbXrecord
 40
0.0
  0
XRECORD
  5
A783
102
{ACAD_REACTORS
330
A775
102
}
330
A775
100
AcDbXrecord
1000
DSTYLE
1002
{
1070
    79
 70
     2
1070
   341
340
59
1070
   342
340
59
1070
   371
 70
    -1
1070
   372
 70
    -1
1002
}
  0
XRECORD
  5
A784
102
{ACAD_REACTORS
330
A775
102
}
330
A775
100
AcDbXrecord
340
0
  0
XRECORD
  5
A785
102
{ACAD_REACTORS
330
A775
102
}
330
A775
100
AcDbXrecord
 70
     0
  0
XRECORD
  5
A786
102
{ACAD_REACTORS
330
A775
102
}
330
A775
100
AcDbXrecord
340
0
  0
XRECORD
  5
A787
102
{ACAD_REACTORS
330
A775
102
}
330
A775
100
AcDbXrecord
 10
0.0
 20
0.0
 30
0.0
  0
XRECORD
  5
A788
102
{ACAD_REACTORS
330
A775
102
}
330
A775
100
AcDbXrecord
 10
0.0
 20
0.0
 30
0.0
  0
XRECORD
  5
A789
102
{ACAD_REACTORS
330
A775
102
}
330
A775
100
AcDbXrecord
 10
0.0
 20
0.0
 30
0.0
  0
XRECORD
  5
A78A
102
{ACAD_REACTORS
330
A775
102
}
330
A775
100
AcDbXrecord
 10
0.0
 20
0.0
 30
0.0
  0
XRECORD
  5
A78B
102
{ACAD_REACTORS
330
A775
102
}
330
A775
100
AcDbXrecord
 10
0.0
 20
0.0
 30
0.0
  0
XRECORD
  5
A78C
102
{ACAD_REACTORS
330
A775
102
}
330
A775
100
AcDbXrecord
 10
0.0
 20
0.0
 30
0.0
  0
XRECORD
  5
A78D
102
{ACAD_REACTORS
330
A775
102
}
330
A775
100
AcDbXrecord
340
0
  0
XRECORD
  5
A78E
102
{ACAD_REACTORS
330
A775
102
}
330
A775
100
AcDbXrecord
 70
     0
  0
XRECORD
  5
A78F
102
{ACAD_REACTORS
330
A775
102
}
330
A775
100
AcDbXrecord
340
0
  0
XRECORD
  5
A790
102
{ACAD_REACTORS
330
A775
102
}
330
A775
100
AcDbXrecord
 10
0.0
 20
0.0
 30
0.0
  0
XRECORD
  5
A791
102
{ACAD_REACTORS
330
A775
102
}
330
A775
100
AcDbXrecord
 10
0.0
 20
0.0
 30
0.0
  0
XRECORD
  5
A792
102
{ACAD_REACTORS
330
A775
102
}
330
A775
100
AcDbXrecord
 10
0.0
 20
0.0
 30
0.0
  0
XRECORD
  5
A793
102
{ACAD_REACTORS
330
A775
102
}
330
A775
100
AcDbXrecord
 10
0.0
 20
0.0
 30
0.0
  0
XRECORD
  5
A794
102
{ACAD_REACTORS
330
A775
102
}
330
A775
100
AcDbXrecord
 10
0.0
 20
0.0
 30
0.0
  0
XRECORD
  5
A795
102
{ACAD_REACTORS
330
A775
102
}
330
A775
100
AcDbXrecord
 10
0.0
 20
0.0
 30
0.0
  0
LAYER_INDEX
  5
A76C
102
{ACAD_REACTORS
330
A76B
102
}
330
A76B
100
AcDbIndex
 40
2453151.731800115
100
AcDbLayerIndex
  8
0
360
A76D
 90
        0
  8
AM_0
360
A76E
 90
       53
  8
AM_11
360
A76F
 90
        3
  8
AM_7
360
A770
 90
        2
  8
AM_5
360
A771
 90
        4
  8
Defpoints
360
A772
 90
        0
  8
AM_6
360
A773
 90
        1
  0
XRECORD
  5
2D
102
{ACAD_REACTORS
330
2C
102
}
330
2C
100
AcDbXrecord
  1
VERSION
140
15.0
  1
PRODUCT
  2
AutoCAD Mechanical 2000
  0
IDBUFFER
  5
A76D
330
0
100
AcDbIdBuffer
  0
IDBUFFER
  5
A76E
330
0
100
AcDbIdBuffer
330
A618
330
A619
330
A61A
330
A742
330
A743
330
A4B1
330
A4B3
330
A4B5
330
A4C3
330
A4CF
330
A4D2
330
A5BC
330
A5BD
330
A5BE
330
A5BF
330
A5C0
330
A5C1
330
A5C2
330
A5C3
330
A5C4
330
A5C5
330
A5C6
330
A5C7
330
A5C8
330
A5C9
330
A5CD
330
A5CE
330
A5CF
330
A5D0
330
A5D1
330
A5D2
330
A5D3
330
A5D4
330
A5D5
330
A5D6
330
A5D7
330
A5D8
330
A5D9
330
A5DA
330
A5DB
330
A5DC
330
A5DD
330
A5DE
330
A5DF
330
A5E0
330
A5E1
330
A5E2
330
A5E3
330
A5E4
330
A5E5
330
A5FD
330
A616
330
A617
  0
IDBUFFER
  5
A76F
330
0
100
AcDbIdBuffer
330
A524
330
A525
330
A5F4
  0
IDBUFFER
  5
A770
330
0
100
AcDbIdBuffer
330
9FF0
330
A527
  0
IDBUFFER
  5
A771
330
0
100
AcDbIdBuffer
330
A215
330
A2A1
330
A391
330
A4B6
  0
IDBUFFER
  5
A772
330
0
100
AcDbIdBuffer
  0
IDBUFFER
  5
A773
330
0
100
AcDbIdBuffer
330
1500
  0
ENDSEC
  0
EOF
