  0
SECTION
  2
HEADER
  9
$ACADVER
  1
AC1014
  9
$ACADMAINTVER
 70
     9
  9
$DWGCODEPAGE
  3
ANSI_932
  9
$INSBASE
 10
0.0
 20
0.0
 30
0.0
  9
$EXTMIN
 10
-87.66099700121461
 20
-30.25000100000013
 30
-0.00000001
  9
$EXTMAX
 10
12.05776903085517
 20
6.665602262288265
 30
0.00000001
  9
$LIMMIN
 10
-92.08447198358229
 20
-41.61963935187322
  9
$LIMMAX
 10
17.16930909505811
 20
23.41134753020079
  9
$ORTHOMODE
 70
     0
  9
$REGENMODE
 70
     1
  9
$FILLMODE
 70
     1
  9
$QTEXTMODE
 70
     0
  9
$MIRRTEXT
 70
     0
  9
$DRAGMODE
 70
     2
  9
$LTSCALE
 40
1.0
  9
$OSMODE
 70
    55
  9
$ATTMODE
 70
     1
  9
$TEXTSIZE
 40
2.5
  9
$TRACEWID
 40
1.0
  9
$TEXTSTYLE
  7
STANDARD
  9
$CLAYER
  8
AM_0
  9
$CELTYPE
  6
BYLAYER
  9
$CECOLOR
 62
   256
  9
$CELTSCALE
 40
1.0
  9
$DELOBJ
 70
     1
  9
$DISPSILH
 70
     0
  9
$DIMSCALE
 40
0.5
  9
$DIMASZ
 40
2.5
  9
$DIMEXO
 40
1.0
  9
$DIMDLI
 40
12.0
  9
$DIMRND
 40
0.0
  9
$DIMDLE
 40
0.0
  9
$DIMEXE
 40
1.0
  9
$DIMTP
 40
0.1
  9
$DIMTM
 40
0.1
  9
$DIMTXT
 40
3.2
  9
$DIMCEN
 40
0.0
  9
$DIMTSZ
 40
0.0
  9
$DIMTOL
 70
     0
  9
$DIMLIM
 70
     0
  9
$DIMTIH
 70
     0
  9
$DIMTOH
 70
     0
  9
$DIMSE1
 70
     0
  9
$DIMSE2
 70
     0
  9
$DIMTAD
 70
     3
  9
$DIMZIN
 70
     8
  9
$DIMBLK
  1
OPEN30
  9
$DIMASO
 70
     1
  9
$DIMSHO
 70
     1
  9
$DIMPOST
  1

  9
$DIMAPOST
  1
"
  9
$DIMALT
 70
     0
  9
$DIMALTD
 70
     2
  9
$DIMALTF
 40
0.0393701
  9
$DIMLFAC
 40
1.0
  9
$DIMTOFL
 70
     1
  9
$DIMTVP
 40
0.0
  9
$DIMTIX
 70
     0
  9
$DIMSOXD
 70
     0
  9
$DIMSAH
 70
     0
  9
$DIMBLK1
  1

  9
$DIMBLK2
  1

  9
$DIMSTYLE
  2
AM_JIS
  9
$DIMCLRD
 70
   256
  9
$DIMCLRE
 70
   256
  9
$DIMCLRT
 70
     2
  9
$DIMTFAC
 40
0.71
  9
$DIMGAP
 40
1.5
  9
$DIMJUST
 70
     0
  9
$DIMSD1
 70
     0
  9
$DIMSD2
 70
     0
  9
$DIMTOLJ
 70
     0
  9
$DIMTZIN
 70
     0
  9
$DIMALTZ
 70
     0
  9
$DIMALTTZ
 70
     0
  9
$DIMFIT
 70
     3
  9
$DIMUPT
 70
     0
  9
$DIMUNIT
 70
     2
  9
$DIMDEC
 70
     3
  9
$DIMTDEC
 70
     3
  9
$DIMALTU
 70
     2
  9
$DIMALTTD
 70
     2
  9
$DIMTXSTY
  7
ASAMI
  9
$DIMAUNIT
 70
     0
  9
$LUNITS
 70
     2
  9
$LUPREC
 70
     2
  9
$SKETCHINC
 40
1.0
  9
$FILLETRAD
 40
2.5
  9
$AUNITS
 70
     0
  9
$AUPREC
 70
     0
  9
$MENU
  1
.
  9
$ELEVATION
 40
0.0
  9
$PELEVATION
 40
0.0
  9
$THICKNESS
 40
0.0
  9
$LIMCHECK
 70
     0
  9
$BLIPMODE
 70
     0
  9
$CHAMFERA
 40
0.75
  9
$CHAMFERB
 40
0.75
  9
$CHAMFERC
 40
20.0
  9
$CHAMFERD
 40
0.0
  9
$SKPOLY
 70
     0
  9
$TDCREATE
 40
2452838.430434386
  9
$TDUPDATE
 40
2453151.733140902
  9
$TDINDWG
 40
0.5278779051
  9
$TDUSRTIMER
 40
0.5278779051
  9
$USRTIMER
 70
     1
  9
$ANGBASE
 50
0.0
  9
$ANGDIR
 70
     0
  9
$PDMODE
 70
     0
  9
$PDSIZE
 40
0.0
  9
$PLINEWID
 40
0.0
  9
$COORDS
 70
     1
  9
$SPLFRAME
 70
     0
  9
$SPLINETYPE
 70
     6
  9
$SPLINESEGS
 70
     8
  9
$ATTDIA
 70
     1
  9
$ATTREQ
 70
     1
  9
$HANDLING
 70
 12289
  9
$HANDSEED
  5
A7D8
  9
$SURFTAB1
 70
     6
  9
$SURFTAB2
 70
     6
  9
$SURFTYPE
 70
     6
  9
$SURFU
 70
     6
  9
$SURFV
 70
     6
  9
$UCSNAME
  2

  9
$UCSORG
 10
0.0
 20
0.0
 30
0.0
  9
$UCSXDIR
 10
1.0
 20
0.0
 30
0.0
  9
$UCSYDIR
 10
0.0
 20
1.0
 30
0.0
  9
$PUCSNAME
  2

  9
$PUCSORG
 10
0.0
 20
0.0
 30
0.0
  9
$PUCSXDIR
 10
1.0
 20
0.0
 30
0.0
  9
$PUCSYDIR
 10
0.0
 20
1.0
 30
0.0
  9
$USERI1
 70
     0
  9
$USERI2
 70
     0
  9
$USERI3
 70
     0
  9
$USERI4
 70
     0
  9
$USERI5
 70
     0
  9
$USERR1
 40
0.0
  9
$USERR2
 40
0.0
  9
$USERR3
 40
0.0
  9
$USERR4
 40
0.0
  9
$USERR5
 40
0.0
  9
$WORLDVIEW
 70
     1
  9
$SHADEDGE
 70
     3
  9
$SHADEDIF
 70
    70
  9
$TILEMODE
 70
     1
  9
$MAXACTVP
 70
    64
  9
$PINSBASE
 10
0.0
 20
0.0
 30
0.0
  9
$PLIMCHECK
 70
     0
  9
$PEXTMIN
 10
1.000000000000000E+20
 20
1.000000000000000E+20
 30
1.000000000000000E+20
  9
$PEXTMAX
 10
-1.000000000000000E+20
 20
-1.000000000000000E+20
 30
-1.000000000000000E+20
  9
$PLIMMIN
 10
0.0
 20
0.0
  9
$PLIMMAX
 10
841.0
 20
594.0
  9
$UNITMODE
 70
     0
  9
$VISRETAIN
 70
     1
  9
$PLINEGEN
 70
     0
  9
$PSLTSCALE
 70
     0
  9
$TREEDEPTH
 70
  3020
  9
$PICKSTYLE
 70
     0
  9
$CMLSTYLE
  2
STANDARD
  9
$CMLJUST
 70
     0
  9
$CMLSCALE
 40
20.0
  9
$PROXYGRAPHICS
 70
     1
  9
$MEASUREMENT
 70
     1
  0
ENDSEC
  0
SECTION
  2
CLASSES
  0
CLASS
  1
ACDBDICTIONARYWDFLT
  2
AcDbDictionaryWithDefault
  3
AutoCAD 2000
 90
        0
280
     0
281
     0
  0
CLASS
  1
ACDBPLACEHOLDER
  2
AcDbPlaceHolder
  3
AutoCAD 2000
 90
        0
280
     0
281
     0
  0
CLASS
  1
LAYOUT
  2
AcDbLayout
  3
AutoCAD 2000
 90
        0
280
     0
281
     0
  0
CLASS
  1
AMGSETTINGSOBJ
  2
AmgSettingsObj
  3
"AcadM|Product Description: AutoCAD Mechanical 2000|Company: Autodesk"
 90
        0
280
     0
281
     0
  0
CLASS
  1
ACME_DOCUMENT
  2
AcMeDbDoc
  3
AcMeServices
 90
        0
280
     0
281
     0
  0
CLASS
  1
ACMESCOPE
  2
AcMeScope
  3
AcMeServices
 90
        0
280
     0
281
     0
  0
CLASS
  1
ACMECOMMANDHISTORY
  2
AcMeCommandHistory
  3
AcMeServices
 90
        0
280
     0
281
     0
  0
CLASS
  1
DICTIONARYVAR
  2
AcDbDictionaryVar
  3
AutoCAD 2000
 90
        0
280
     0
281
     0
  0
CLASS
  1
ACIMSYSVARMAN
  2
AcImSysVarManager
  3
AcMeServices
 90
        0
280
     0
281
     0
  0
CLASS
  1
ACIMREALSYSVAR
  2
AcImRealSysVar
  3
AcMeServices
 90
        0
280
     0
281
     0
  0
CLASS
  1
ACIMINTSYSVAR
  2
AcImIntSysVar
  3
AcMeServices
 90
        0
280
     0
281
     0
  0
CLASS
  1
ACMEDRAWINGMAN
  2
AcMeDrawingMan
  3
AcMeServices
 90
        0
280
     0
281
     0
  0
CLASS
  1
ACMEVIEW
  2
AcMeView
  3
AcMeServices
 90
        0
280
     0
281
     0
  0
CLASS
  1
ACDBENTITYCACHE
  2
AcMeEntityCache
  3
AcMeServices
 90
        0
280
     0
281
     0
  0
CLASS
  1
GSMANAGER
  2
AcMeGSManager
  3
AcMeServices
 90
        0
280
     0
281
     0
  0
CLASS
  1
AmdtInternalReactor
  2
AmdtInternalReactor
  3
AcMeServices
 90
        0
280
     0
281
     0
  0
CLASS
  1
ACMESTATEMGR
  2
AcMeStateMgr
  3
AcMeServices
 90
        0
280
     0
281
     0
  0
CLASS
  1
ACME_DATABASE
  2
AcMeDbDatabase
  3
AcMeServices
 90
        0
280
     0
281
     0
  0
CLASS
  1
ACRFINSADJUSTERMGR
  2
AcRfInsAdjusterMgr
  3
AcMeServices
 90
        0
280
     0
281
     0
  0
CLASS
  1
ACMDATADICTIONARY
  2
AcmDataDictionary
  3
"AcmSymBB|Product Description: AutoCAD Mechanical 2000|Company: Autodesk"
 90
        0
280
     0
281
     0
  0
CLASS
  1
ACMDATAENTRYBLOCK
  2
AcmDataEntryBlock
  3
"AcmSymBB|Product Description: AutoCAD Mechanical 2000|Company: Autodesk"
 90
        0
280
     0
281
     0
  0
CLASS
  1
AMGOBJPROPCFG
  2
AmgObjPropCfg
  3
"AmgLay|Product Description: AutoCAD Mechanical 2000|Company: Autodesk"
 90
        1
280
     0
281
     0
  0
CLASS
  1
ACAMGFILTERDAT
  2
AcAmgFilterDat
  3
"AcadM|Product Description: AutoCAD Mechanical 2000|Company: Autodesk"
 90
        0
280
     0
281
     0
  0
CLASS
  1
LAYER_INDEX
  2
AcDbLayerIndex
  3
AutoCAD 2000
 90
        0
280
     0
281
     0
  0
CLASS
  1
IDBUFFER
  2
AcDbIdBuffer
  3
AutoCAD 2000
 90
        0
280
     0
281
     0
  0
CLASS
  1
ACIMSTRSYSVAR
  2
AcImStrSysVar
  3
AcMeServices
 90
        0
280
     0
281
     0
  0
CLASS
  1
ACMSTANDARDJIS
  2
AcmStandardJIS
  3
"AcmSymBB|Product Description: AutoCAD Mechanical 2000|Company: Autodesk"
 90
        0
280
     0
281
     0
  0
CLASS
  1
ACMSURFSTANDARDJIS
  2
AcmSurfTextStdJIS
  3
"AcmSymBB|Product Description: AutoCAD Mechanical 2000|Company: Autodesk"
 90
        0
280
     0
281
     0
  0
CLASS
  1
ACMFCFSTANDARDJIS
  2
AcmFCFStdJIS
  3
"AcmSymBB|Product Description: AutoCAD Mechanical 2000|Company: Autodesk"
 90
        0
280
     0
281
     0
  0
CLASS
  1
ACMWELDSTANDARDJIS
  2
AcmWeldingStdJIS
  3
"AcmSymBB|Product Description: AutoCAD Mechanical 2000|Company: Autodesk"
 90
        0
280
     0
281
     0
  0
CLASS
  1
ACMIDSTANDARDJIS
  2
AcmIdStdJIS
  3
"AcmSymBB|Product Description: AutoCAD Mechanical 2000|Company: Autodesk"
 90
        0
280
     0
281
     0
  0
CLASS
  1
ACMDATUMSTANDARDJIS
  2
AcmDatumStdJIS
  3
"AcmSymBB|Product Description: AutoCAD Mechanical 2000|Company: Autodesk"
 90
        0
280
     0
281
     0
  0
CLASS
  1
ACMBOMSTANDARDJIS
  2
AcmBOMStdJIS
  3
"AcmSymBB|Product Description: AutoCAD Mechanical 2000|Company: Autodesk"
 90
        0
280
     0
281
     0
  0
CLASS
  1
ACMSTANDARDANSI
  2
AcmStandardANSI
  3
"AcmSymBB|Product Description: AutoCAD Mechanical 2000|Company: Autodesk"
 90
        0
280
     0
281
     0
  0
CLASS
  1
ACMSURFSTANDARDANSI
  2
AcmSurfTextStdANSI
  3
"AcmSymBB|Product Description: AutoCAD Mechanical 2000|Company: Autodesk"
 90
        0
280
     0
281
     0
  0
CLASS
  1
ACMFCFSTANDARDANSI
  2
AcmFCFStdANSI
  3
"AcmSymBB|Product Description: AutoCAD Mechanical 2000|Company: Autodesk"
 90
        0
280
     0
281
     0
  0
CLASS
  1
ACMWELDSTANDARDANSI
  2
AcmWeldingStdANSI
  3
"AcmSymBB|Product Description: AutoCAD Mechanical 2000|Company: Autodesk"
 90
        0
280
     0
281
     0
  0
CLASS
  1
ACMIDSTANDARDANSI
  2
AcmIdStdANSI
  3
"AcmSymBB|Product Description: AutoCAD Mechanical 2000|Company: Autodesk"
 90
        0
280
     0
281
     0
  0
CLASS
  1
ACMDATUMSTANDARDANSI
  2
AcmDatumStdANSI
  3
"AcmSymBB|Product Description: AutoCAD Mechanical 2000|Company: Autodesk"
 90
        0
280
     0
281
     0
  0
CLASS
  1
ACMBOMSTANDARDANSI
  2
AcmBOMStdANSI
  3
"AcmSymBB|Product Description: AutoCAD Mechanical 2000|Company: Autodesk"
 90
        0
280
     0
281
     0
  0
CLASS
  1
ACMSTANDARDBSI
  2
AcmStandardBSI
  3
"AcmSymBB|Product Description: AutoCAD Mechanical 2000|Company: Autodesk"
 90
        0
280
     0
281
     0
  0
CLASS
  1
ACMSURFSTANDARDBSI
  2
AcmSurfTextStdBSI
  3
"AcmSymBB|Product Description: AutoCAD Mechanical 2000|Company: Autodesk"
 90
        0
280
     0
281
     0
  0
CLASS
  1
ACMFCFSTANDARDBSI
  2
AcmFCFStdBSI
  3
"AcmSymBB|Product Description: AutoCAD Mechanical 2000|Company: Autodesk"
 90
        0
280
     0
281
     0
  0
CLASS
  1
ACMWELDSTANDARDBSI
  2
AcmWeldingStdBSI
  3
"AcmSymBB|Product Description: AutoCAD Mechanical 2000|Company: Autodesk"
 90
        0
280
     0
281
     0
  0
CLASS
  1
ACMIDSTANDARDBSI
  2
AcmIdStdBSI
  3
"AcmSymBB|Product Description: AutoCAD Mechanical 2000|Company: Autodesk"
 90
        0
280
     0
281
     0
  0
CLASS
  1
ACMDATUMSTANDARDBSI
  2
AcmDatumStdBSI
  3
"AcmSymBB|Product Description: AutoCAD Mechanical 2000|Company: Autodesk"
 90
        0
280
     0
281
     0
  0
CLASS
  1
ACMBOMSTANDARDBSI
  2
AcmBOMStdBSI
  3
"AcmSymBB|Product Description: AutoCAD Mechanical 2000|Company: Autodesk"
 90
        0
280
     0
281
     0
  0
CLASS
  1
LONG_TRANSACTION
  2
AcDbLongTransaction
  3
AutoCAD 2000
 90
        0
280
     0
281
     0
  0
CLASS
  1
LWPOLYLINE
  2
AcDbPolyline
  3
AutoCAD 2000
 90
        0
280
     0
281
     1
  0
CLASS
  1
HATCH
  2
AcDbHatch
  3
AutoCAD 2000
 90
        0
280
     0
281
     1
  0
CLASS
  1
XRECORD
  2
AcDbXrecord
  3
AutoCAD 2000
 90
        0
280
     0
281
     0
  0
ENDSEC
  0
SECTION
  2
TABLES
  0
TABLE
  2
VPORT
  5
8
330
0
100
AcDbSymbolTable
 70
     3
  0
VPORT
  5
A7AD
330
8
100
AcDbSymbolTableRecord
100
AcDbViewportTableRecord
  2
*ACTIVE
 70
     0
 10
0.0
 20
0.0
 11
1.0
 21
1.0
 12
-34.44250924730649
 22
-11.33405087876292
 13
0.0
 23
0.0
 14
2.5
 24
2.5
 15
10.0
 25
10.0
 16
0.0
 26
0.0
 36
1.0
 17
0.0
 27
0.0
 37
0.0
 40
74.45925485330565
 41
1.56570841889117
 42
50.0
 43
0.0
 44
0.0
 50
0.0
 51
0.0
 71
     0
 72
   100
 73
     1
 74
     3
 75
     0
 76
     0
 77
     0
 78
     0
  0
ENDTAB
  0
TABLE
  2
LTYPE
  5
5
330
0
100
AcDbSymbolTable
 70
    10
  0
LTYPE
  5
14
330
5
100
AcDbSymbolTableRecord
100
AcDbLinetypeTableRecord
  2
BYBLOCK
 70
     0
  3

 72
    65
 73
     0
 40
0.0
  0
LTYPE
  5
15
330
5
100
AcDbSymbolTableRecord
100
AcDbLinetypeTableRecord
  2
BYLAYER
 70
     0
  3

 72
    65
 73
     0
 40
0.0
  0
LTYPE
  5
16
330
5
100
AcDbSymbolTableRecord
100
AcDbLinetypeTableRecord
  2
CONTINUOUS
 70
     0
  3
Solid line
 72
    65
 73
     0
 40
0.0
  0
LTYPE
  5
4B
330
5
100
AcDbSymbolTableRecord
100
AcDbLinetypeTableRecord
  2
AM_ISO02W050
 70
     0
  3
__ __ __ __ __ __ __ __ __ __ __ __ __ __ __
 72
    65
 73
     2
 40
7.5
 49
6.0
 74
     0
 49
-1.5
 74
     0
  0
LTYPE
  5
4C
330
5
100
AcDbSymbolTableRecord
100
AcDbLinetypeTableRecord
  2
AM_ISO08W050
 70
     0
  3
____ . ____ . ____ . ____ . ____ . ____ . ____
 72
    65
 73
     4
 40
18.0
 49
12.0
 74
     0
 49
-1.5
 74
     0
 49
3.0
 74
     0
 49
-1.5
 74
     0
  0
LTYPE
  5
4D
330
5
100
AcDbSymbolTableRecord
100
AcDbLinetypeTableRecord
  2
AM_ISO09W050
 70
     0
  3
_____ . . _____ . . _____ . . ____ .. ____
 72
    65
 73
     6
 40
22.5
 49
12.0
 74
     0
 49
-1.5
 74
     0
 49
3.0
 74
     0
 49
-1.5
 74
     0
 49
3.0
 74
     0
 49
-1.5
 74
     0
  0
LTYPE
  5
4E
330
5
100
AcDbSymbolTableRecord
100
AcDbLinetypeTableRecord
  2
AMCONSTR
 70
     0
  3
_______________________
 72
    65
 73
     2
 40
9999.0
 49
9999.0
 74
     0
 49
0.0
 74
     0
  0
LTYPE
  5
4F
330
5
100
AcDbSymbolTableRecord
100
AcDbLinetypeTableRecord
  2
AM_ISO02W050X2
 70
     0
  3
 _ _ _ _ _ _ _ _ _ _ _ _
 72
    65
 73
     2
 40
3.75
 49
3.0
 74
     0
 49
-0.75
 74
     0
  0
LTYPE
  5
50
330
5
100
AcDbSymbolTableRecord
100
AcDbLinetypeTableRecord
  2
AM_ISO08W050X2
 70
     0
  3
__ . __ . __ . __ . __ . __
 72
    65
 73
     4
 40
9.0
 49
6.0
 74
     0
 49
-0.75
 74
     0
 49
1.5
 74
     0
 49
-0.75
 74
     0
  0
LTYPE
  5
53
330
5
100
AcDbSymbolTableRecord
100
AcDbLinetypeTableRecord
  2
AMZIGZAG
 70
     0
  3
/\/-/\/-/\/-/\/-/\/-/\/
 72
    65
 73
     2
 40
11.00009999999999
 49
0.0001
 74
     4
 75
   135
340
52
 46
0.04
 50
0.0
 44
0.0
 45
0.0
 49
-11.0
 74
     0
  0
LTYPE
  5
166
330
5
100
AcDbSymbolTableRecord
100
AcDbLinetypeTableRecord
  2
ACJISTGL
 70
     0
  3
_ _ _ _ _
 72
    65
 73
     2
 40
3.0
 49
2.0
 74
     0
 49
-1.0
 74
     0
  0
LTYPE
  5
26A
330
5
100
AcDbSymbolTableRecord
100
AcDbLinetypeTableRecord
  2
ACJISTGB
 70
     0
  3
__ . . __ . .
 72
    65
 73
     6
 40
9.0
 49
4.0
 74
     0
 49
-1.0
 74
     0
 49
1.0
 74
     0
 49
-1.0
 74
     0
 49
1.0
 74
     0
 49
-1.0
 74
     0
  0
ENDTAB
  0
TABLE
  2
LAYER
  5
2
330
0
100
AcDbSymbolTable
 70
     7
  0
LAYER
  5
10
330
2
100
AcDbSymbolTableRecord
100
AcDbLayerTableRecord
  2
0
 70
     0
 62
     7
  6
CONTINUOUS
  0
LAYER
  5
3F9
330
2
100
AcDbSymbolTableRecord
100
AcDbLayerTableRecord
  2
AM_0
 70
     0
 62
     7
  6
CONTINUOUS
  0
LAYER
  5
BDD
330
2
100
AcDbSymbolTableRecord
100
AcDbLayerTableRecord
  2
AM_11
 70
     0
 62
     3
  6
AM_ISO09W050
  0
LAYER
  5
BDE
330
2
100
AcDbSymbolTableRecord
100
AcDbLayerTableRecord
  2
AM_7
 70
     0
 62
     4
  6
AM_ISO08W050
  0
LAYER
  5
BDF
330
2
100
AcDbSymbolTableRecord
100
AcDbLayerTableRecord
  2
AM_5
 70
     0
 62
     3
  6
CONTINUOUS
  0
LAYER
  5
BE0
330
2
100
AcDbSymbolTableRecord
100
AcDbLayerTableRecord
  2
DEFPOINTS
 70
     0
 62
     7
  6
CONTINUOUS
  0
LAYER
  5
14FF
330
2
100
AcDbSymbolTableRecord
100
AcDbLayerTableRecord
  2
AM_6
 70
     0
 62
     2
  6
CONTINUOUS
  0
ENDTAB
  0
TABLE
  2
STYLE
  5
3
330
0
100
AcDbSymbolTable
 70
     5
  0
STYLE
  5
11
330
3
100
AcDbSymbolTableRecord
100
AcDbTextStyleTableRecord
  2
STANDARD
 70
     0
 40
0.0
 41
1.0
 50
0.0
 71
     0
 42
2.5
  3
simplex.shx
  4
EXTFONT.SHX
  0
STYLE
  5
52
330
3
100
AcDbSymbolTableRecord
100
AcDbTextStyleTableRecord
  2

 70
     1
 40
0.0
 41
1.0
 50
0.0
 71
     0
 42
2.5
  3
ltypeshp.shx
  4

  0
STYLE
  5
6B
330
3
100
AcDbSymbolTableRecord
100
AcDbTextStyleTableRecord
  2
ASAMI
 70
     0
 40
0.0
 41
1.0
 50
0.0
 71
     0
 42
2.5
  3
simplex.shx
  4
EXTFONT.SHX
  0
STYLE
  5
262
330
3
100
AcDbSymbolTableRecord
100
AcDbTextStyleTableRecord
  2
ACJISTS
 70
     0
 40
1.0
 41
1.0
 50
0.0
 71
     0
 42
2.5
  3
simplex.shx
  4
bigfont.shx
  0
STYLE
  5
269
330
3
100
AcDbSymbolTableRecord
100
AcDbTextStyleTableRecord
  2
ACJISGDT
 70
     0
 40
0.0
 41
1.0
 50
0.0
 71
     0
 42
2.5
  3
amgdtans.shx
  4

  0
ENDTAB
  0
TABLE
  2
VIEW
  5
6
330
0
100
AcDbSymbolTable
 70
     0
  0
ENDTAB
  0
TABLE
  2
UCS
  5
7
330
0
100
AcDbSymbolTable
 70
     0
  0
ENDTAB
  0
TABLE
  2
APPID
  5
9
330
0
100
AcDbSymbolTable
 70
    13
  0
APPID
  5
12
330
9
100
AcDbSymbolTableRecord
100
AcDbRegAppTableRecord
  2
ACAD
 70
     0
  0
APPID
  5
30
330
9
100
AcDbSymbolTableRecord
100
AcDbRegAppTableRecord
  2
MCAD_NO_VIS
 70
     0
  0
APPID
  5
31
330
9
100
AcDbSymbolTableRecord
100
AcDbRegAppTableRecord
  2
ACAD_TEMP_GRAPHIC
 70
     0
  0
APPID
  5
2C2
330
9
100
AcDbSymbolTableRecord
100
AcDbRegAppTableRecord
  2
GENIUS_GENDTOL_13
 70
     0
  0
APPID
  5
339
330
9
100
AcDbSymbolTableRecord
100
AcDbRegAppTableRecord
  2
GENIUS_GENODEF_13
 70
     0
  0
APPID
  5
33A
330
9
100
AcDbSymbolTableRecord
100
AcDbRegAppTableRecord
  2
GENIUS_GENOBJ-N-RSBK_13
 70
     0
  0
APPID
  5
33B
330
9
100
AcDbSymbolTableRecord
100
AcDbRegAppTableRecord
  2
GENIUS_GENOBJ-N-LIB_13
 70
     0
  0
APPID
  5
33C
330
9
100
AcDbSymbolTableRecord
100
AcDbRegAppTableRecord
  2
GENIUS_GENSCALE_13
 70
     0
  0
APPID
  5
378
330
9
100
AcDbSymbolTableRecord
100
AcDbRegAppTableRecord
  2
GENIUS_GENDIMSH_14
 70
     0
  0
APPID
  5
BE1
330
9
100
AcDbSymbolTableRecord
100
AcDbRegAppTableRecord
  2
GENIUS_GENFIL_13
 70
     0
  0
APPID
  5
BE2
330
9
100
AcDbSymbolTableRecord
100
AcDbRegAppTableRecord
  2
GENIUS_GENOBJ-N-CHA_13
 70
     0
  0
APPID
  5
151B
330
9
100
AcDbSymbolTableRecord
100
AcDbRegAppTableRecord
  2
DCO15
 70
     0
  0
APPID
  5
1860
330
9
100
AcDbSymbolTableRecord
100
AcDbRegAppTableRecord
  2
GENIUS_GENOBJ-N-CEN_13
 70
     0
  0
ENDTAB
  0
TABLE
  2
DIMSTYLE
  5
A
330
0
100
AcDbSymbolTable
 70
     8
  0
DIMSTYLE
105
58
102
{ACAD_REACTORS
330
A215
330
A2A1
330
A492
330
A51E
102
}
330
A
100
AcDbSymbolTableRecord
100
AcDbDimStyleTableRecord
  2
AM_JIS
 70
     0
  3

  4
"
  5
OPEN30
  6

  7

 40
0.5
 41
2.5
 42
1.0
 43
12.0
 44
1.0
 45
0.0
 46
0.0
 47
0.1
 48
0.1
140
3.2
141
0.0
142
0.0
143
0.0393701
144
1.0
145
0.0
146
0.71
147
1.5
 71
     0
 72
     0
 73
     0
 74
     0
 75
     0
 76
     0
 77
     3
 78
     8
170
     0
171
     2
172
     1
173
     0
174
     0
175
     0
176
   256
177
   256
178
     2
270
     2
271
     3
272
     3
273
     2
274
     2
340
6B
275
     0
280
     0
281
     0
282
     0
283
     0
284
     0
285
     0
286
     0
287
     3
288
     0
  0
DIMSTYLE
105
5F
330
A
100
AcDbSymbolTableRecord
100
AcDbDimStyleTableRecord
  2
AM_JIS$3
 70
     0
  3

  4
"
  5
OPEN30
  6

  7

 40
0.5
 41
2.5
 42
1.0
 43
10.0
 44
1.0
 45
0.0
 46
0.0
 47
0.1
 48
0.1
140
3.2
141
0.0
142
0.0
143
0.0393701
144
1.0
145
0.0
146
0.71
147
1.5
 71
     0
 72
     0
 73
     0
 74
     1
 75
     0
 76
     0
 77
     3
 78
     8
170
     0
171
     2
172
     0
173
     0
174
     0
175
     0
176
   256
177
   256
178
     2
270
     2
271
     2
272
     3
273
     2
274
     2
340
6B
275
     0
280
     0
281
     0
282
     0
283
     0
284
     0
285
     0
286
     0
287
     0
288
     1
  0
DIMSTYLE
105
60
330
A
100
AcDbSymbolTableRecord
100
AcDbDimStyleTableRecord
  2
AM_JIS$4
 70
     0
  3

  4
"
  5
OPEN30
  6

  7

 40
0.5
 41
2.5
 42
1.0
 43
10.0
 44
1.0
 45
0.0
 46
0.0
 47
0.1
 48
0.1
140
3.2
141
0.0
142
0.0
143
0.0393701
144
1.0
145
0.0
146
0.71
147
1.5
 71
     0
 72
     0
 73
     0
 74
     1
 75
     0
 76
     0
 77
     3
 78
     8
170
     0
171
     2
172
     0
173
     0
174
     0
175
     0
176
   256
177
   256
178
     2
270
     2
271
     2
272
     3
273
     2
274
     2
340
6B
275
     0
280
     0
281
     0
282
     0
283
     0
284
     0
285
     0
286
     0
287
     0
288
     1
  0
DIMSTYLE
105
61
330
A
100
AcDbSymbolTableRecord
100
AcDbDimStyleTableRecord
  2
AM_JIS$6
 70
     0
  3

  4
"
  5
OPEN30
  6

  7

 40
0.5
 41
2.5
 42
1.0
 43
10.0
 44
1.0
 45
0.0
 46
0.0
 47
0.1
 48
0.1
140
3.2
141
0.0
142
0.0
143
0.0393701
144
1.0
145
0.0
146
0.71
147
1.5
 71
     0
 72
     0
 73
     0
 74
     0
 75
     0
 76
     0
 77
     0
 78
     8
170
     0
171
     2
172
     1
173
     0
174
     0
175
     0
176
   256
177
   256
178
     2
270
     2
271
     2
272
     2
273
     2
274
     2
340
6B
275
     0
280
     0
281
     0
282
     0
283
     0
284
     0
285
     0
286
     0
287
     3
288
     0
  0
DIMSTYLE
105
62
330
A
100
AcDbSymbolTableRecord
100
AcDbDimStyleTableRecord
  2
AM_JIS$7
 70
     0
  3

  4
"
  5
OPEN30
  6

  7

 40
0.5
 41
2.5
 42
1.0
 43
10.0
 44
1.0
 45
0.0
 46
0.0
 47
0.1
 48
0.1
140
3.2
141
0.0
142
0.0
143
0.0393701
144
1.0
145
0.0
146
0.71
147
1.5
 71
     0
 72
     0
 73
     0
 74
     0
 75
     0
 76
     0
 77
     3
 78
     8
170
     0
171
     2
172
     1
173
     0
174
     0
175
     0
176
   256
177
   256
178
     2
270
     2
271
     2
272
     3
273
     2
274
     2
340
6B
275
     0
280
     0
281
     0
282
     0
283
     0
284
     0
285
     0
286
     0
287
     3
288
     0
  0
DIMSTYLE
105
63
330
A
100
AcDbSymbolTableRecord
100
AcDbDimStyleTableRecord
  2
AM_JIS$SF
 70
     0
  3

  4
"
  5
OPEN30
  6

  7

 40
0.5
 41
2.5
 42
1.0
 43
10.0
 44
1.0
 45
0.0
 46
0.0
 47
0.1
 48
0.1
140
3.2
141
0.0
142
0.0
143
0.0393701
144
1.0
145
0.0
146
0.71
147
1.5
 71
     0
 72
     0
 73
     0
 74
     0
 75
     1
 76
     1
 77
     3
 78
     8
170
     0
171
     2
172
     1
173
     0
174
     0
175
     0
176
   256
177
   256
178
     2
270
     2
271
     2
272
     2
273
     2
274
     2
340
6B
275
     0
280
     0
281
     0
282
     0
283
     0
284
     0
285
     0
286
     0
287
     3
288
     0
  0
DIMSTYLE
105
68
330
A
100
AcDbSymbolTableRecord
100
AcDbDimStyleTableRecord
  2
AM_JIS$SH
 70
     0
  3

  4
"
  5

  6
GENAXEH
  7
OPEN30
 40
0.5
 41
2.5
 42
1.0
 43
10.0
 44
1.0
 45
0.0
 46
0.0
 47
0.1
 48
0.1
140
3.2
141
0.0
142
0.0
143
0.0393701
144
2.0
145
0.0
146
0.71
147
1.5
 71
     0
 72
     0
 73
     0
 74
     0
 75
     1
 76
     1
 77
     3
 78
     8
170
     0
171
     2
172
     1
173
     1
174
     0
175
     0
176
   256
177
   256
178
     2
270
     2
271
     2
272
     2
273
     2
274
     2
340
6B
275
     0
280
     0
281
     0
282
     0
283
     0
284
     0
285
     0
286
     0
287
     3
288
     0
  0
DIMSTYLE
105
B34
330
A
100
AcDbSymbolTableRecord
100
AcDbDimStyleTableRecord
  2
AM_JIS$2
 70
     0
  3

  4
"
  5
OPEN30
  6

  7

 40
0.5
 41
2.5
 42
1.0
 43
12.0
 44
1.0
 45
0.0
 46
0.0
 47
0.1
 48
0.1
140
3.2
141
0.0
142
0.0
143
0.0393701
144
1.0
145
0.0
146
0.71
147
1.5
 71
     0
 72
     0
 73
     0
 74
     0
 75
     0
 76
     0
 77
     3
 78
     8
170
     0
171
     2
172
     1
173
     0
174
     0
175
     0
176
   256
177
   256
178
     2
270
     2
271
     3
272
     3
273
     2
274
     2
340
6B
275
     0
280
     0
281
     0
282
     0
283
     0
284
     0
285
     0
286
     0
287
     3
288
     0
  0
ENDTAB
  0
TABLE
  2
BLOCK_RECORD
  5
1
330
0
100
AcDbSymbolTable
 70
     9
  0
BLOCK_RECORD
  5
1F
102
{ACAD_XDICTIONARY
360
74
102
}
330
1
100
AcDbSymbolTableRecord
100
AcDbBlockTableRecord
  2
*MODEL_SPACE
  0
BLOCK_RECORD
  5
101
102
{ACAD_XDICTIONARY
360
A7D6
102
}
330
1
100
AcDbSymbolTableRecord
100
AcDbBlockTableRecord
  2
*PAPER_SPACE
  0
BLOCK_RECORD
  5
59
330
1
100
AcDbSymbolTableRecord
100
AcDbBlockTableRecord
  2
_OPEN30
  0
BLOCK_RECORD
  5
64
330
1
100
AcDbSymbolTableRecord
100
AcDbBlockTableRecord
  2
GENAXEH
  0
BLOCK_RECORD
  5
A216
330
1
100
AcDbSymbolTableRecord
100
AcDbBlockTableRecord
  2
*D5
  0
BLOCK_RECORD
  5
A2A2
330
1
100
AcDbSymbolTableRecord
100
AcDbBlockTableRecord
  2
*D6
  0
BLOCK_RECORD
  5
A493
330
1
100
AcDbSymbolTableRecord
100
AcDbBlockTableRecord
  2
*D7
  0
BLOCK_RECORD
  5
A51F
330
1
100
AcDbSymbolTableRecord
100
AcDbBlockTableRecord
  2
*D8
  0
ENDTAB
  0
ENDSEC
  0
SECTION
  2
BLOCKS
  0
BLOCK
  5
20
330
1F
100
AcDbEntity
  8
0
100
AcDbBlockBegin
  2
*MODEL_SPACE
 70
     0
 10
0.0
 20
0.0
 30
0.0
  3
*MODEL_SPACE
  1

  0
ENDBLK
  5
21
330
1F
100
AcDbEntity
  8
0
100
AcDbBlockEnd
  0
BLOCK
  5
103
330
101
100
AcDbEntity
 67
     1
  8
0
100
AcDbBlockBegin
  2
*PAPER_SPACE
 70
     0
 10
0.0
 20
0.0
 30
0.0
  3
*PAPER_SPACE
  1

  0
ENDBLK
  5
104
330
101
100
AcDbEntity
 67
     1
  8
0
100
AcDbBlockEnd
  0
BLOCK
  5
5D
330
59
100
AcDbEntity
  8
0
100
AcDbBlockBegin
  2
_OPEN30
 70
     0
 10
0.0
 20
0.0
 30
0.0
  3
_OPEN30
  1

  0
LINE
  5
5A
330
59
100
AcDbEntity
  8
0
 62
     0
100
AcDbLine
 10
-1.0
 20
0.26794919
 30
0.0
 11
0.0
 21
0.0
 31
0.0
  0
LINE
  5
5B
330
59
100
AcDbEntity
  8
0
 62
     0
100
AcDbLine
 10
0.0
 20
0.0
 30
0.0
 11
-1.0
 21
-0.26794919
 31
0.0
  0
LINE
  5
5C
330
59
100
AcDbEntity
  8
0
 62
     0
100
AcDbLine
 10
0.0
 20
0.0
 30
0.0
 11
-1.0
 21
0.0
 31
0.0
  0
ENDBLK
  5
5E
330
59
100
AcDbEntity
  8
0
100
AcDbBlockEnd
  0
BLOCK
  5
66
330
64
100
AcDbEntity
  8
0
100
AcDbBlockBegin
  2
GENAXEH
 70
     0
 10
0.0
 20
0.0
 30
0.0
  3
GENAXEH
  1

  0
LINE
  5
65
330
64
100
AcDbEntity
  8
0
100
AcDbLine
 10
-1.0
 20
0.0
 30
0.0
 11
1.0
 21
0.0
 31
0.0
  0
ENDBLK
  5
67
330
64
100
AcDbEntity
  8
0
100
AcDbBlockEnd
  0
BLOCK
  5
A220
330
A216
100
AcDbEntity
  8
0
100
AcDbBlockBegin
  2
*D5
 70
     1
 10
0.0
 20
0.0
 30
0.0
  3
*D5
  1

  0
LINE
  5
A57C
330
A216
100
AcDbEntity
  8
AM_5
100
AcDbLine
 10
0.000000000000007
 20
-6.000000000000005
 30
0.0
 11
0.0000000000000062
 21
-19.50000100000012
 31
0.0
  0
LINE
  5
A57D
330
A216
100
AcDbEntity
  8
AM_5
100
AcDbLine
 10
-75.0
 20
-5.750000000000068
 30
0.0
 11
-75.0
 21
-19.50000100000012
 31
0.0
  0
LINE
  5
A57E
330
A216
100
AcDbEntity
  8
AM_5
100
AcDbLine
 10
-1.249999999999993
 20
-19.00000100000013
 30
0.0
 11
-73.75
 21
-19.00000100000013
 31
0.0
  0
INSERT
  5
A57F
330
A216
100
AcDbEntity
  8
AM_5
100
AcDbBlockReference
  2
_OPEN30
 10
0.0000000000000062
 20
-19.00000100000013
 30
0.0
 41
1.25
 42
1.25
 43
1.25
  0
INSERT
  5
A580
330
A216
100
AcDbEntity
  8
AM_5
100
AcDbBlockReference
  2
_OPEN30
 10
-75.0
 20
-19.00000100000013
 30
0.0
 41
1.25
 42
1.25
 43
1.25
 50
180.0
  0
MTEXT
  5
A581
330
A216
100
AcDbEntity
  8
AM_5
 62
     2
100
AcDbMText
 10
-37.5
 20
-17.45000100000012
 30
0.0
 40
1.6
 41
0.0
 71
     5
 72
     1
  1
75
  7
ASAMI
1001
ACAD
1000
MTEXTBEGIN
1070
    73
1070
     1
1070
    44
1040
1.0
1070
    74
1070
     0
1000
MTEXTEND
  0
POINT
  5
A582
330
A216
100
AcDbEntity
  8
DEFPOINTS
 62
     0
100
AcDbPoint
 10
0.0000000000000071
 20
-5.500000000000005
 30
0.0
  0
POINT
  5
A583
330
A216
100
AcDbEntity
  8
DEFPOINTS
 62
     0
100
AcDbPoint
 10
-75.0
 20
-5.250000000000068
 30
0.0
  0
POINT
  5
A584
330
A216
100
AcDbEntity
  8
DEFPOINTS
 62
     0
100
AcDbPoint
 10
-75.0
 20
-19.00000100000013
 30
0.0
  0
ENDBLK
  5
A221
330
A216
100
AcDbEntity
  8
0
100
AcDbBlockEnd
  0
BLOCK
  5
A2AC
330
A2A2
100
AcDbEntity
  8
0
100
AcDbBlockBegin
  2
*D6
 70
     1
 10
0.0
 20
0.0
 30
0.0
  3
*D6
  1

  0
LINE
  5
A58E
330
A2A2
100
AcDbEntity
  8
AM_5
100
AcDbLine
 10
0.000000000000007
 20
-6.000000000000005
 30
0.0
 11
0.0000000000000066
 21
-13.50000099999998
 31
0.0
  0
LINE
  5
A58F
330
A2A2
100
AcDbEntity
  8
AM_5
100
AcDbLine
 10
-25.00000000000001
 20
-6.000000000000039
 30
0.0
 11
-25.00000000000001
 21
-13.50000099999998
 31
0.0
  0
LINE
  5
A590
330
A2A2
100
AcDbEntity
  8
AM_5
100
AcDbLine
 10
-1.249999999999993
 20
-13.00000099999998
 30
0.0
 11
-23.75000000000001
 21
-13.00000099999998
 31
0.0
  0
INSERT
  5
A591
330
A2A2
100
AcDbEntity
  8
AM_5
100
AcDbBlockReference
  2
_OPEN30
 10
0.0000000000000066
 20
-13.00000099999998
 30
0.0
 41
1.25
 42
1.25
 43
1.25
  0
INSERT
  5
A592
330
A2A2
100
AcDbEntity
  8
AM_5
100
AcDbBlockReference
  2
_OPEN30
 10
-25.00000000000001
 20
-13.00000099999998
 30
0.0
 41
1.25
 42
1.25
 43
1.25
 50
180.0
  0
MTEXT
  5
A593
330
A2A2
100
AcDbEntity
  8
AM_5
 62
     2
100
AcDbMText
 10
-12.5
 20
-11.45000099999998
 30
0.0
 40
1.6
 41
0.0
 71
     5
 72
     1
  1
25
  7
ASAMI
1001
ACAD
1000
MTEXTBEGIN
1070
    73
1070
     1
1070
    44
1040
1.0
1070
    74
1070
     0
1000
MTEXTEND
  0
POINT
  5
A594
330
A2A2
100
AcDbEntity
  8
DEFPOINTS
 62
     0
100
AcDbPoint
 10
0.0000000000000071
 20
-5.500000000000005
 30
0.0
  0
POINT
  5
A595
330
A2A2
100
AcDbEntity
  8
DEFPOINTS
 62
     0
100
AcDbPoint
 10
-25.00000000000001
 20
-5.500000000000039
 30
0.0
  0
POINT
  5
A596
330
A2A2
100
AcDbEntity
  8
DEFPOINTS
 62
     0
100
AcDbPoint
 10
-25.00000000000001
 20
-13.00000099999998
 30
0.0
  0
ENDBLK
  5
A2AD
330
A2A2
100
AcDbEntity
  8
0
100
AcDbBlockEnd
  0
BLOCK
  5
A49D
330
A493
100
AcDbEntity
  8
0
100
AcDbBlockBegin
  2
*D7
 70
     1
 10
0.0
 20
0.0
 30
0.0
  3
*D7
  1

  0
LINE
  5
A4C2
330
A493
100
AcDbEntity
  8
AM_5
100
AcDbLine
 10
-74.75
 20
5.999999999999924
 30
0.0
 11
-85.81099700121461
 21
5.999999999999927
 31
0.0
  0
LINE
  5
A4C3
330
A493
100
AcDbEntity
  8
AM_5
100
AcDbLine
 10
-74.75
 20
-6.000000000000067
 30
0.0
 11
-85.81099700121461
 21
-6.000000000000064
 31
0.0
  0
LINE
  5
A4C4
330
A493
100
AcDbEntity
  8
AM_5
100
AcDbLine
 10
-85.31099700121462
 20
4.749999999999927
 30
0.0
 11
-85.31099700121462
 21
-4.750000000000064
 31
0.0
  0
INSERT
  5
A4C5
330
A493
100
AcDbEntity
  8
AM_5
100
AcDbBlockReference
  2
_OPEN30
 10
-85.31099700121462
 20
5.999999999999927
 30
0.0
 41
1.25
 42
1.25
 43
1.25
 50
90.0
  0
INSERT
  5
A4C6
330
A493
100
AcDbEntity
  8
AM_5
100
AcDbBlockReference
  2
_OPEN30
 10
-85.31099700121462
 20
-6.000000000000064
 30
0.0
 41
1.25
 42
1.25
 43
1.25
 50
270.0
  0
MTEXT
  5
A4C7
330
A493
100
AcDbEntity
  8
AM_5
 62
     2
100
AcDbMText
 10
-86.86099700121461
 20
-0.0000000000000821
 30
0.0
 40
1.6
 41
0.0
 71
     5
 72
     1
  1
%%c12
  7
ASAMI
 11
0.0000000000000001
 21
1.0
 31
0.0
1001
ACAD
1000
MTEXTBEGIN
1070
    73
1070
     1
1070
    44
1040
1.0
1070
    74
1070
     0
1000
MTEXTEND
  0
POINT
  5
A4C8
330
A493
100
AcDbEntity
  8
DEFPOINTS
 62
     0
100
AcDbPoint
 10
-74.25
 20
5.999999999999924
 30
0.0
  0
POINT
  5
A4C9
330
A493
100
AcDbEntity
  8
DEFPOINTS
 62
     0
100
AcDbPoint
 10
-74.25
 20
-6.000000000000067
 30
0.0
  0
POINT
  5
A4CA
330
A493
100
AcDbEntity
  8
DEFPOINTS
 62
     0
100
AcDbPoint
 10
-85.31099700121462
 20
-6.000000000000064
 30
0.0
  0
ENDBLK
  5
A49E
330
A493
100
AcDbEntity
  8
0
100
AcDbBlockEnd
  0
BLOCK
  5
A529
330
A51F
100
AcDbEntity
  8
0
100
AcDbBlockBegin
  2
*D8
 70
     1
 10
0.0
 20
0.0
 30
0.0
  3
*D8
  1

  0
LINE
  5
A585
330
A51F
100
AcDbEntity
  8
AM_5
100
AcDbLine
 10
0.499999999999992
 20
5.499999999999992
 30
0.0
 11
12.05776903085517
 21
5.499999999999989
 31
0.0
  0
LINE
  5
A586
330
A51F
100
AcDbEntity
  8
AM_5
100
AcDbLine
 10
0.5000000000000081
 20
-5.500000000000007
 30
0.0
 11
12.05776903085517
 21
-5.500000000000011
 31
0.0
  0
LINE
  5
A587
330
A51F
100
AcDbEntity
  8
AM_5
100
AcDbLine
 10
11.55776903085517
 20
4.249999999999989
 30
0.0
 11
11.55776903085517
 21
-4.250000000000011
 31
0.0
  0
INSERT
  5
A588
330
A51F
100
AcDbEntity
  8
AM_5
100
AcDbBlockReference
  2
_OPEN30
 10
11.55776903085517
 20
5.499999999999989
 30
0.0
 41
1.25
 42
1.25
 43
1.25
 50
90.0
  0
INSERT
  5
A589
330
A51F
100
AcDbEntity
  8
AM_5
100
AcDbBlockReference
  2
_OPEN30
 10
11.55776903085517
 20
-5.500000000000011
 30
0.0
 41
1.25
 42
1.25
 43
1.25
 50
270.0
  0
MTEXT
  5
A58A
330
A51F
100
AcDbEntity
  8
AM_5
 62
     2
100
AcDbMText
 10
10.00776903085517
 20
-0.000000000000009
 30
0.0
 40
1.6
 41
0.0
 71
     5
 72
     1
  1
%%c11
  7
ASAMI
 11
0.0000000000000001
 21
1.0
 31
0.0
1001
ACAD
1000
MTEXTBEGIN
1070
    73
1070
     1
1070
    44
1040
1.0
1070
    74
1070
     0
1000
MTEXTEND
  0
POINT
  5
A58B
330
A51F
100
AcDbEntity
  8
DEFPOINTS
 62
     0
100
AcDbPoint
 10
-0.0000000000000081
 20
5.499999999999992
 30
0.0
  0
POINT
  5
A58C
330
A51F
100
AcDbEntity
  8
DEFPOINTS
 62
     0
100
AcDbPoint
 10
0.0000000000000081
 20
-5.500000000000007
 30
0.0
  0
POINT
  5
A58D
330
A51F
100
AcDbEntity
  8
DEFPOINTS
 62
     0
100
AcDbPoint
 10
11.55776903085517
 20
-5.500000000000011
 30
0.0
  0
ENDBLK
  5
A52A
330
A51F
100
AcDbEntity
  8
0
100
AcDbBlockEnd
  0
ENDSEC
  0
SECTION
  2
ENTITIES
  0
TEXT
  5
1500
330
1F
100
AcDbEntity
  8
AM_6
100
AcDbText
 10
-47.73809523809522
 20
-30.25000100000013
 30
0.0
 40
2.5
  1
USM2110ZX
 72
     4
 11
-37.49999999999999
 21
-29.00000100000013
 31
0.0
100
AcDbText
  0
LINE
  5
9FF0
330
1F
100
AcDbEntity
  8
AM_7
  6
AM_ISO08W050X2
100
AcDbLine
 10
4.557768030855186
 20
0.0
 30
0.0
 11
-78.31099600121461
 21
-0.0000000000000604
 31
0.0
1001
GENIUS_GENODEF_13
1002
{
1000
HIER
1070
     0
1002
}
1002
{
1000
MANEDIT
1070
     0
1002
}
1002
{
1000
NOSEL
1070
     0
1002
}
1002
{
1000
BEHIND
1070
     0
1002
}
1002
{
1000
REACTOR
1002
}
1001
GENIUS_GENOBJ-N-CEN_13
1002
{
1000
OWNER
1000
GEN
1002
}
  0
DIMENSION
  5
A215
330
1F
100
AcDbEntity
  8
AM_5
100
AcDbDimension
  2
*D5
 10
-75.0
 20
-19.00000100000013
 30
0.0
 11
-37.5
 21
-17.45000100000012
 31
0.0
 70
    32
  1
<>
  3
AM_JIS
100
AcDbAlignedDimension
 13
0.0000000000000071
 23
-5.500000000000005
 33
0.0
 14
-75.0
 24
-5.250000000000068
 34
0.0
 50
0.0000000000001641
100
AcDbRotatedDimension
1001
GENIUS_GENDTOL_13
1000

1000
h7
1000

1040
0.0
  0
DIMENSION
  5
A2A1
330
1F
100
AcDbEntity
  8
AM_5
100
AcDbDimension
  2
*D6
 10
-25.00000000000001
 20
-13.00000099999998
 30
0.0
 11
-12.5
 21
-11.45000099999998
 31
0.0
 70
    32
  1
<>
  3
AM_JIS
100
AcDbAlignedDimension
 13
0.0000000000000071
 23
-5.500000000000005
 33
0.0
 14
-25.00000000000001
 24
-5.500000000000039
 34
0.0
 50
0.0000000000001641
100
AcDbRotatedDimension
1001
GENIUS_GENDTOL_13
1000

1000
h7
1000

1040
0.0
  0
LINE
  5
A48D
330
1F
100
AcDbEntity
  8
AM_0
100
AcDbLine
 10
-38.99999999999999
 20
-6.000000000000027
 30
0.0
 11
-74.25
 21
-6.000000000000067
 31
0.0
  0
LINE
  5
A490
330
1F
100
AcDbEntity
  8
AM_0
100
AcDbLine
 10
-74.24999999999998
 20
5.999999999999924
 30
0.0
 11
-74.25000000000001
 21
-6.000000000000067
 31
0.0
  0
LINE
  5
A491
330
1F
100
AcDbEntity
  8
AM_0
100
AcDbLine
 10
-75.0
 20
5.249999999999924
 30
0.0
 11
-75.0
 21
-5.250000000000068
 31
0.0
  0
DIMENSION
  5
A492
330
1F
100
AcDbEntity
  8
AM_5
100
AcDbDimension
  2
*D7
 10
-85.31099700121462
 20
-6.000000000000064
 30
0.0
 11
-86.86099700121461
 21
-0.0000000000000821
 31
0.0
 70
    32
  1
%%c<>
  3
AM_JIS
100
AcDbAlignedDimension
 13
-74.25
 23
5.999999999999924
 33
0.0
 14
-74.25
 24
-6.000000000000067
 34
0.0
 50
270.0
100
AcDbRotatedDimension
1001
GENIUS_GENDTOL_13
1000

1000
h7
1000

1040
0.0
  0
LINE
  5
A49F
330
1F
100
AcDbEntity
  8
AM_0
100
AcDbLine
 10
-39.0
 20
5.999999999999965
 30
0.0
 11
-74.25
 21
5.999999999999925
 31
0.0
  0
LINE
  5
A4AB
330
1F
100
AcDbEntity
  8
AM_0
100
AcDbLine
 10
-74.25
 20
5.999999999999925
 30
0.0
 11
-75.0
 21
5.249999999999924
 31
0.0
1001
GENIUS_GENFIL_13
1070
     0
1040
0.75
1040
0.75
1040
20.0
1040
0.0
1002
{
1002
}
1001
GENIUS_GENODEF_13
1002
{
1000
HIER
1070
     0
1002
}
1002
{
1000
MANEDIT
1070
     0
1002
}
1002
{
1000
NOSEL
1070
     0
1002
}
1002
{
1000
BEHIND
1070
     0
1002
}
1002
{
1000
REACTOR
1002
}
1001
GENIUS_GENOBJ-N-CHA_13
1002
{
1000
OWNER
1000
GEN
1002
}
  0
LINE
  5
A4AE
330
1F
100
AcDbEntity
  8
AM_0
100
AcDbLine
 10
-75.0
 20
-5.250000000000068
 30
0.0
 11
-74.25
 21
-6.000000000000067
 31
0.0
1001
GENIUS_GENFIL_13
1070
     0
1040
0.75
1040
0.75
1040
20.0
1040
0.0
1002
{
1002
}
1001
GENIUS_GENODEF_13
1002
{
1000
HIER
1070
     0
1002
}
1002
{
1000
MANEDIT
1070
     0
1002
}
1002
{
1000
NOSEL
1070
     0
1002
}
1002
{
1000
BEHIND
1070
     0
1002
}
1002
{
1000
REACTOR
1002
}
1001
GENIUS_GENOBJ-N-CHA_13
1002
{
1000
OWNER
1000
GEN
1002
}
  0
LINE
  5
A4FD
330
1F
100
AcDbEntity
  8
AM_11
100
AcDbLine
 10
-0.0000000000010174
 20
5.499999999999992
 30
0.0
 11
-25.00000000000001
 21
5.499999999999984
 31
0.0
  0
LINE
  5
A4FE
330
1F
100
AcDbEntity
  8
AM_0
100
AcDbLine
 10
-6.342585225824485
 20
4.082872288604145
 30
0.0
 11
-22.31527258782163
 21
4.669320263477629
 31
0.0
  0
SPLINE
  5
A4FF
330
1F
100
AcDbEntity
  8
AM_0
100
AcDbSpline
210
0.0
220
0.0
230
1.0
 70
     8
 71
     3
 72
     8
 73
     4
 74
     0
 42
0.0000000001
 43
0.0000000001
 40
0.0
 40
0.0
 40
0.0
 40
0.0
 40
6.457542170879827
 40
6.457542170879827
 40
6.457542170879827
 40
6.457542170879827
 10
-0.0000000000000081
 20
5.499999999999992
 30
0.0
 10
-2.397868193383515
 20
5.499999999999992
 30
0.0
 10
-4.697281885670462
 20
4.953826491027386
 30
0.0
 10
-6.942117836291694
 20
4.104884532206476
 30
0.0
  0
SPLINE
  5
A500
330
1F
100
AcDbEntity
  8
AM_0
100
AcDbSpline
210
0.0
220
0.0
230
1.0
 70
     8
 71
     3
 72
     8
 73
     4
 74
     0
 42
0.0000000001
 43
0.0000000001
 40
0.0
 40
0.0
 40
0.0
 40
0.0
 40
5.642637628726789
 40
5.642637628726789
 40
5.642637628726789
 40
5.642637628726789
 10
-0.2227969834276745
 20
5.499999999999992
 30
0.0
 10
0.3753662170464316
 20
3.517135159952705
 30
0.0
 10
-4.251000176152277
 20
4.205541699889992
 30
0.0
 10
-6.342585225824485
 20
4.082872288604145
 30
0.0
  0
LINE
  5
A501
330
1F
100
AcDbEntity
  8
AM_0
100
AcDbLine
 10
0.0
 20
-0.3025000000001079
 30
0.0
 11
-0.1169684162996535
 21
-0.5132336941388381
 31
0.0
  0
LINE
  5
A502
330
1F
100
AcDbEntity
  8
AM_0
100
AcDbLine
 10
-0.4177443439272369
 20
-4.48604220296473
 30
0.0
 11
-0.4177443439272369
 21
-4.426790974245826
 31
0.0
  0
LINE
  5
A503
330
1F
100
AcDbEntity
  8
AM_0
100
AcDbLine
 10
-0.1169684162996535
 20
-0.5132336941388381
 30
0.0
 11
-1.000294201317831
 21
-0.9855572331328026
 31
0.0
  0
LINE
  5
A504
330
1F
100
AcDbEntity
  8
AM_0
100
AcDbLine
 10
0.0000000000000081
 20
-5.500000000000007
 30
0.0
 11
-0.1169684162996454
 21
-5.206785273384078
 31
0.0
  0
LINE
  5
A505
330
1F
100
AcDbEntity
  8
AM_0
100
AcDbLine
 10
-0.1169684162996454
 20
-5.206785273384078
 30
0.0
 11
-0.4177443439272369
 21
-4.48604220296473
 31
0.0
  0
LINE
  5
A506
330
1F
100
AcDbEntity
  8
AM_0
100
AcDbLine
 10
-0.1169684162996454
 20
-5.206785273384078
 30
0.0
 11
-0.1169684162996535
 21
-0.5132336941388381
 31
0.0
  0
LINE
  5
A508
330
1F
100
AcDbEntity
  8
AM_11
100
AcDbLine
 10
-25.00000000000002
 20
-5.500000000000023
 30
0.0
 11
0.0000000000000081
 21
-5.500000000000007
 31
0.0
  0
LINE
  5
A509
330
1F
100
AcDbEntity
  8
AM_0
100
AcDbLine
 10
-11.29225274129702
 20
-4.256805493799304
 30
0.0
 11
-22.38024008228331
 21
-4.639145639087884
 31
0.0
  0
ELLIPSE
  5
A50A
330
1F
100
AcDbEntity
  8
AM_0
100
AcDbEllipse
 10
15.82612576610539
 20
0.0231410428792138
 30
0.0
 11
16.85739947266511
 21
0.0000000000015095
 31
0.0
210
0.0
220
0.0
230
1.0
 40
0.9874460444444341
 41
3.2022276672578
 42
3.41221487276953
  0
ELLIPSE
  5
A50B
330
1F
100
AcDbEntity
  8
AM_0
100
AcDbEllipse
 10
50.69310746077761
 20
-132.0944091114677
 30
0.0
 11
-82.8542659665487
 21
129.4949245834333
 31
0.0
210
0.0
220
0.0
230
1.0
 40
0.3289382831905923
 41
-0.1110184053453938
 42
0.033458916243218
  0
ELLIPSE
  5
A50C
330
1F
100
AcDbEntity
  8
AM_0
100
AcDbEllipse
 10
-26.92269948429107
 20
6.582217264190526
 30
0.0
 11
-12.23826103284963
 21
0.0000000000027019
 31
0.0
210
0.0
220
0.0
230
1.0
 40
0.9874460444444606
 41
1.550844632921653
 42
1.951063636333873
  0
ELLIPSE
  5
A50D
330
1F
100
AcDbEntity
  8
AM_0
100
AcDbEllipse
 10
-26.92269948429107
 20
6.582217264190526
 30
0.0
 11
12.23826103284979
 21
0.0000000000010796
 31
0.0
210
0.0
220
0.0
230
1.0
 40
0.9874460444444469
 41
4.141139133749289
 42
4.692437286511109
  0
SPLINE
  5
A50E
330
1F
100
AcDbEntity
  8
AM_0
100
AcDbSpline
210
0.0
220
0.0
230
1.0
 70
     8
 71
     3
 72
     8
 73
     4
 74
     0
 42
0.0000000001
 43
0.0000000001
 40
4.219358800530717
 40
4.219358800530717
 40
4.219358800530717
 40
4.219358800530717
 40
14.36247867694493
 40
14.36247867694493
 40
14.36247867694493
 40
14.36247867694493
 10
-0.4177443439272369
 20
-4.48604220296448
 30
0.0
 10
-4.03383268887381
 20
-3.587042570857633
 30
0.0
 10
-7.500330710139937
 20
-1.793521285428945
 30
0.0
 10
-10.96682873140656
 20
-0.0000000000000156
 30
0.0
  0
SPLINE
  5
A50F
330
1F
100
AcDbEntity
  8
AM_0
100
AcDbSpline
210
0.0
220
0.0
230
1.0
 70
     8
 71
     3
 72
     8
 73
     4
 74
     0
 42
0.0000000001
 43
0.0000000001
 40
1.870660592686466
 40
1.870660592686466
 40
1.870660592686466
 40
1.870660592686466
 40
14.43901837670146
 40
14.43901837670146
 40
14.43901837670146
 40
14.43901837670146
 10
-0.1169684162996454
 20
-5.206785273384078
 30
0.0
 10
-4.685381116650745
 20
-4.644090673311697
 30
0.0
 10
-8.945586186482168
 20
-2.322045336655985
 30
0.0
 10
-13.20579125631357
 20
-0.0000000000000156
 30
0.0
  0
SPLINE
  5
A510
330
1F
100
AcDbEntity
  8
AM_0
100
AcDbSpline
210
0.0
220
0.0
230
1.0
 70
     8
 71
     3
 72
     8
 73
     4
 74
     0
 42
0.0000000001
 43
0.0000000001
 40
0.0
 40
0.0
 40
0.0
 40
0.0
 40
14.48999654934389
 40
14.48999654934389
 40
14.48999654934389
 40
14.48999654934389
 10
0.0000000000000081
 20
-5.500000000000007
 30
0.0
 10
-5.380545868456652
 20
-5.500000000000015
 30
0.0
 10
-10.26537037077571
 20
-2.750000000000015
 30
0.0
 10
-15.15019487309474
 20
-0.0000000000000156
 30
0.0
  0
SPLINE
  5
A511
330
1F
100
AcDbEntity
  8
AM_0
100
AcDbSpline
210
0.0
220
0.0
230
1.0
 70
     8
 71
     3
 72
     8
 73
     4
 74
     0
 42
0.0000000001
 43
0.0000000001
 40
0.0
 40
0.0
 40
0.0
 40
0.0
 40
2.238610194515266
 40
2.238610194515266
 40
2.238610194515266
 40
2.238610194515266
 10
-12.64640624637466
 20
-4.303499923721613
 30
0.0
 10
-11.01648598990802
 20
-4.303499923721613
 30
0.0
 10
-9.416099360850802
 20
-4.096583344141611
 30
0.0
 10
-7.83608798167774
 20
-3.746915013964697
 30
0.0
  0
SPLINE
  5
A512
330
1F
100
AcDbEntity
  8
AM_0
100
AcDbSpline
210
0.0
220
0.0
230
1.0
 70
     8
 71
     3
 72
     8
 73
     4
 74
     0
 42
0.0000000001
 43
0.0000000001
 40
0.0
 40
0.0
 40
0.0
 40
0.0
 40
14.15489169609657
 40
14.15489169609657
 40
14.15489169609657
 40
14.15489169609657
 10
-12.64640624637466
 20
-4.303499923721613
 30
0.0
 10
-17.90251819743874
 20
-4.30349992372162
 30
0.0
 10
-22.85150647703039
 20
-2.151750030995766
 30
0.0
 10
-27.80049475662202
 20
-0.0000001382699118
 30
0.0
  0
SPLINE
  5
A513
330
1F
100
AcDbEntity
  8
AM_0
100
AcDbSpline
210
0.0
220
0.0
230
1.0
 70
     8
 71
     3
 72
     8
 73
     4
 74
     0
 42
0.0000000001
 43
0.0000000001
 40
4.436970674848568
 40
4.436970674848568
 40
4.436970674848568
 40
4.436970674848568
 40
7.218994763998551
 40
7.218994763998551
 40
7.218994763998551
 40
7.218994763998551
 10
-33.46515106738098
 20
3.21247890334726
 30
0.0
 10
-31.6998258955814
 20
1.46051938078412
 30
0.0
 10
-29.70771384471505
 20
0.8292316635373822
 30
0.0
 10
-27.80049475662152
 20
-0.0000001382701619
 30
0.0
  0
SPLINE
  5
A514
330
1F
100
AcDbEntity
  8
AM_0
100
AcDbSpline
210
0.0
220
0.0
230
1.0
 70
     8
 71
     3
 72
     8
 73
     4
 74
     0
 42
0.0000000001
 43
0.0000000001
 40
0.0
 40
0.0
 40
0.0
 40
0.0
 40
3.500713630577632
 40
3.500713630577632
 40
3.500713630577632
 40
3.500713630577632
 10
-26.13400684322866
 20
-5.035882084602736
 30
0.0
 10
-28.68285794403497
 20
-5.035882084602736
 30
0.0
 10
-31.13620849569237
 20
-4.46001540753422
 30
0.0
 10
-33.53972987149871
 20
-3.583679652811366
 30
0.0
  0
SPLINE
  5
A515
330
1F
100
AcDbEntity
  8
AM_0
100
AcDbSpline
210
0.0
220
0.0
230
1.0
 70
     8
 71
     3
 72
     8
 73
     4
 74
     0
 42
0.0000000001
 43
0.0000000001
 40
0.0
 40
0.0
 40
0.0
 40
0.0
 40
1.748655602797241
 40
1.748655602797241
 40
1.748655602797241
 40
1.748655602797241
 10
-26.13400684322866
 20
-5.035882084602486
 30
0.0
 10
-24.86081993665376
 20
-5.035882084602486
 30
0.0
 10
-23.61146178031682
 20
-4.892195128446929
 30
0.0
 10
-22.38024008228382
 20
-4.639145639087884
 30
0.0
  0
LINE
  5
A516
330
1F
100
AcDbEntity
  8
AM_0
100
AcDbLine
 10
-6.342585225824485
 20
4.082872288604145
 30
0.0
 11
0.0
 21
-0.3025000000001079
 31
0.0
  0
LINE
  5
A517
330
1F
100
AcDbEntity
  8
AM_0
100
AcDbLine
 10
0.0000000000000081
 20
-5.500000000000007
 30
0.0
 11
-0.0000000000000081
 21
5.499999999999992
 31
0.0
  0
ELLIPSE
  5
A518
330
1F
100
AcDbEntity
  8
AM_0
100
AcDbEllipse
 10
-18.25621856047722
 20
-26.06448813567892
 30
0.0
 11
-14.45323843615066
 21
29.67306259402676
 31
0.0
210
0.0
220
0.0
230
1.0
 40
0.6616014089071557
 41
-0.2824788511846543
 42
0.0390651127521309
  0
LINE
  5
A519
330
1F
100
AcDbEntity
  8
AM_11
100
AcDbLine
 10
-25.00000000000001
 20
5.499999999999953
 30
0.0
 11
-25.00000000000001
 21
-5.500000000000039
 31
0.0
  0
SPLINE
  5
A51A
330
1F
100
AcDbEntity
  8
AM_0
100
AcDbSpline
210
0.0
220
0.0
230
1.0
 70
     8
 71
     3
 72
     8
 73
     4
 74
     0
 42
0.0000000001
 43
0.0000000001
 40
0.0
 40
0.0
 40
0.0
 40
0.0
 40
6.650481095409369
 40
6.650481095409369
 40
6.650481095409369
 40
6.650481095409369
 10
-1.000294201317831
 20
-0.9855572331328026
 30
0.0
 10
-3.312013922678938
 20
-0.1278758763330863
 30
0.0
 10
-8.759130423336561
 20
3.580536618932532
 30
0.0
 10
-6.342585225823968
 20
4.082872288604145
 30
0.0
  0
SPLINE
  5
A51B
330
1F
100
AcDbEntity
  8
AM_0
100
AcDbSpline
210
0.0
220
0.0
230
1.0
 70
     8
 71
     3
 72
     8
 73
     4
 74
     0
 42
0.0000000001
 43
0.0000000001
 40
0.3581103616548037
 40
0.3581103616548037
 40
0.3581103616548037
 40
0.3581103616548037
 40
14.43901837670146
 40
14.43901837670146
 40
14.43901837670146
 40
14.43901837670146
 10
-27.95791184194426
 20
5.330429965137795
 30
0.0
 10
-22.75159775616129
 20
5.202987908858585
 30
0.0
 10
-17.97869450623743
 20
2.601493954429163
 30
0.0
 10
-13.20579125631357
 20
-0.0000000000000156
 30
0.0
  0
SPLINE
  5
A51C
330
1F
100
AcDbEntity
  8
AM_0
100
AcDbSpline
210
0.0
220
0.0
230
1.0
 70
     8
 71
     3
 72
     8
 73
     4
 74
     0
 42
0.0000000001
 43
0.0000000001
 40
0.7142832446738512
 40
0.7142832446738512
 40
0.7142832446738512
 40
0.7142832446738512
 40
14.36247867694493
 40
14.36247867694493
 40
14.36247867694493
 40
14.36247867694493
 10
-25.32442183591622
 20
5.060657568806572
 30
0.0
 10
-20.29560390832978
 20
4.826587739023125
 30
0.0
 10
-15.63121631986843
 20
2.413293869511433
 30
0.0
 10
-10.96682873140656
 20
-0.0000000000000156
 30
0.0
  0
SPLINE
  5
A51D
330
1F
100
AcDbEntity
  8
AM_0
100
AcDbSpline
210
0.0
220
0.0
230
1.0
 70
     8
 71
     3
 72
     8
 73
     4
 74
     0
 42
0.0000000001
 43
0.0000000001
 40
0.0
 40
0.0
 40
0.0
 40
0.0
 40
14.48999654934387
 40
14.48999654934387
 40
14.48999654934387
 40
14.48999654934387
 10
-30.30038974618948
 20
5.499999999999968
 30
0.0
 10
-24.91984387773282
 20
5.499999999999968
 30
0.0
 10
-20.03501937541379
 20
2.749999999999968
 30
0.0
 10
-15.15019487309474
 20
-0.0000000000000156
 30
0.0
  0
DIMENSION
  5
A51E
330
1F
100
AcDbEntity
  8
AM_5
100
AcDbDimension
  2
*D8
 10
11.55776903085517
 20
-5.500000000000011
 30
0.0
 11
10.00776903085517
 21
-0.000000000000009
 31
0.0
 70
    32
  1
%%c<>
  3
AM_JIS
100
AcDbAlignedDimension
 13
-0.0000000000000081
 23
5.499999999999992
 33
0.0
 14
0.0000000000000081
 24
-5.500000000000007
 34
0.0
 50
90.00000000000003
100
AcDbRotatedDimension
1001
GENIUS_GENDTOL_13
1000

1000
h7
1000

1040
0.0
  0
LINE
  5
A556
330
1F
100
AcDbEntity
  8
AM_0
100
AcDbLine
 10
-39.0
 20
5.999999999999964
 30
0.0
 11
-39.0
 21
-6.000000000000027
 31
0.0
  0
LINE
  5
A56E
330
1F
100
AcDbEntity
  8
AM_0
100
AcDbLine
 10
-30.30038974618856
 20
5.499999999999949
 30
0.0
 11
-37.62626129027264
 21
5.499999999999944
 31
0.0
  0
LINE
  5
A56F
330
1F
100
AcDbEntity
  8
AM_0
100
AcDbLine
 10
-27.16685732255331
 20
-5.500000000000041
 30
0.0
 11
-37.62626129027275
 21
-5.500000000000049
 31
0.0
  0
LINE
  5
A572
330
1F
100
AcDbEntity
  8
AM_0
100
AcDbLine
 10
-39.0
 20
5.999999999999964
 30
0.0
 11
-37.62626129027264
 21
5.499999999999944
 31
0.0
  0
LINE
  5
A573
330
1F
100
AcDbEntity
  8
AM_0
100
AcDbLine
 10
-37.62626129027264
 20
5.499999999999944
 30
0.0
 11
-37.62626129027275
 21
-5.500000000000049
 31
0.0
  0
LINE
  5
A574
330
1F
100
AcDbEntity
  8
AM_0
100
AcDbLine
 10
-37.62626129027275
 20
-5.500000000000049
 30
0.0
 11
-39.0
 21
-6.000000000000027
 31
0.0
  0
LINE
  5
A75C
330
1F
100
AcDbEntity
  8
AM_11
100
AcDbLine
 10
-0.0000000000000071
 20
5.499999999999961
 30
0.0
 11
-0.0000000000000071
 21
-5.500000000000031
 31
0.0
  0
VIEWPORT
  5
110
330
101
100
AcDbEntity
 67
     1
  8
0
100
AcDbViewport
 10
420.5
 20
297.0
 30
0.0
 40
948.9782706766916
 41
628.452
 68
     1
 69
     1
1001
ACAD
1000
MVIEW
1002
{
1070
    16
1010
0.0
1020
0.0
1030
0.0
1010
0.0
1020
0.0
1030
1.0
1040
0.0
1040
628.452
1040
420.5
1040
297.0
1040
50.0
1040
0.0
1040
0.0
1070
     0
1070
   100
1070
     1
1070
     1
1070
     0
1070
     0
1070
     0
1070
     0
1040
0.0
1040
0.0
1040
0.0
1040
10.0
1040
10.0
1040
10.0
1040
10.0
1070
     0
1002
{
1002
}
1002
}
  0
ENDSEC
  0
SECTION
  2
OBJECTS
  0
DICTIONARY
  5
C
330
0
100
AcDbDictionary
  3
ACAD_GROUP
350
D
  3
ACAD_LAYOUT
350
1A
  3
ACAD_MLINESTYLE
350
17
  3
ACAD_PLOTSETTINGS
350
19
  3
ACAD_PLOTSTYLENAME
350
E
  3
ACDBVARIABLEDICTIONARY
350
34
  3
ACMDICTIONARY
350
43
  3
AMG
350
2B
  3
AMGSNAPSETTINGS
350
6E
  3
ASE_INDEX_DICTIONARY
350
151A
  3
DWGPROPS
350
A7A2
  3
ACDBHEADERROUNDTRIPXREC
350
A7AE
  0
DICTIONARY
  5
74
330
1F
100
AcDbDictionary
280
     1
  3
ACAD_INDEX
360
A7A4
  3
ACAD_LAYOUTSELFREF
360
A7D1
  0
DICTIONARY
  5
A7D6
330
101
100
AcDbDictionary
280
     1
  3
ACAD_LAYOUTSELFREF
360
A7D7
  0
DICTIONARY
  5
D
102
{ACAD_REACTORS
330
C
102
}
330
C
100
AcDbDictionary
  0
DICTIONARY
  5
1A
102
{ACAD_REACTORS
330
C
102
}
330
C
100
AcDbDictionary
  0
DICTIONARY
  5
17
102
{ACAD_REACTORS
330
C
102
}
330
C
100
AcDbDictionary
  3
STANDARD
350
18
  0
DICTIONARY
  5
19
102
{ACAD_REACTORS
330
C
102
}
330
C
100
AcDbDictionary
  0
ACDBDICTIONARYWDFLT
  5
E
102
{ACAD_REACTORS
330
C
102
}
330
C
100
AcDbDictionary
281
     1
  3
Normal
350
F
100
AcDbDictionaryWithDefault
340
F
  0
DICTIONARY
  5
34
102
{ACAD_REACTORS
330
C
102
}
330
C
100
AcDbDictionary
  3
INDEXCTL
350
35
  3
SORTENTS
350
B5E
  0
DICTIONARY
  5
43
102
{ACAD_REACTORS
330
C
102
}
330
C
100
AcDbDictionary
  3
ACMSTDDICTIONARY
350
260
  0
DICTIONARY
  5
2B
102
{ACAD_REACTORS
330
C
102
}
330
C
100
AcDbDictionary
  3
ACMGSETTINGS
350
2C
  0
DICTIONARY
  5
6E
102
{ACAD_REACTORS
330
C
102
}
330
C
100
AcDbDictionary
  0
DICTIONARY
  5
151A
102
{ACAD_REACTORS
330
C
102
}
330
C
100
AcDbDictionary
  3
ASEBLOCKHIERARCHYINDEXRECORD
350
151C
1001
DCO15
1040
1471862535.906
  0
XRECORD
  5
A7A2
102
{ACAD_REACTORS
330
C
102
}
330
C
100
AcDbXrecord
  1
DWGPROPS COOKIE
  2

  3

  4

  6

  7

  8

  9

300
AmdtFileType=82
301
=
302
=
303
=
304
=
305
=
306
=
307
=
308
=
309
=
 40
0.5276945254629629
 41
2452838.430434386
 42
2453054.442357129
  1

 90
        1
  0
DICTIONARY
  5
A7AE
102
{ACAD_REACTORS
330
C
102
}
330
C
100
AcDbDictionary
  3
TSTACKALIGN
350
A7AF
  3
TSTACKSIZE
350
A7B0
  3
HYPERLINKBASE
350
A7B1
  3
STYLESHEET
350
A7B2
  3
LAYOUTDICT
350
A7B3
  3
PLOTSETDICT
350
A7B4
  3
PLOTSTYLNAMDICT
350
A7B5
  3
LWETCUNION
350
A7B6
  3
INSUNITS
350
A7B7
  3
CEPSNTYPE
350
A7B8
  3
FINGERPRINTGUID
350
A7B9
  3
VERSIONGUID
350
A7BA
  3
PSVPSCALE
350
A7BB
  3
DIMSTYLEDATA
350
A7BC
  3
PUCSORTHOREF
350
A7BD
  3
PUCSORTHOVIEW
350
A7BE
  3
PUCSBASE
350
A7BF
  3
PUCSORGTOP
350
A7C0
  3
PUCSORGBOTTOM
350
A7C1
  3
PUCSORGLEFT
350
A7C2
  3
PUCSORGRIGHT
350
A7C3
  3
PUCSORGFRONT
350
A7C4
  3
PUCSORGBACK
350
A7C5
  3
UCSORTHOREF
350
A7C6
  3
UCSORTHOVIEW
350
A7C7
  3
UCSBASE
350
A7C8
  3
UCSORGTOP
350
A7C9
  3
UCSORGBOTTOM
350
A7CA
  3
UCSORGLEFT
350
A7CB
  3
UCSORGRIGHT
350
A7CC
  3
UCSORGFRONT
350
A7CD
  3
UCSORGBACK
350
A7CE
  0
DICTIONARY
  5
A7A4
102
{ACAD_REACTORS
330
74
102
}
330
74
100
AcDbDictionary
  3
*A1
350
A7A5
  0
XRECORD
  5
A7D1
102
{ACAD_REACTORS
330
74
102
}
330
74
100
AcDbXrecord
340
1F
  0
XRECORD
  5
A7D7
102
{ACAD_REACTORS
330
A7D6
102
}
330
A7D6
100
AcDbXrecord
340
101
  0
MLINESTYLE
  5
18
102
{ACAD_REACTORS
330
17
102
}
330
17
100
AcDbMlineStyle
  2
STANDARD
 70
     0
  3

 62
   256
 51
90.0
 52
90.0
 71
     2
 49
0.5
 62
   256
  6
BYLAYER
 49
-0.5
 62
   256
  6
BYLAYER
  0
ACDBPLACEHOLDER
  5
F
102
{ACAD_REACTORS
330
E
102
}
330
E
100
AcDbPlaceHolder
280
     0
  0
DICTIONARYVAR
  5
35
102
{ACAD_REACTORS
330
34
102
}
330
34
100
DictionaryVariables
280
     0
  1
1
  0
DICTIONARYVAR
  5
B5E
102
{ACAD_REACTORS
330
34
102
}
330
34
100
DictionaryVariables
280
     0
  1
96
  0
DICTIONARY
  5
260
102
{ACAD_REACTORS
330
43
102
}
330
43
100
AcDbDictionary
  0
DICTIONARY
  5
2C
102
{ACAD_REACTORS
330
2B
102
}
330
2B
100
AcDbDictionary
  3
DWGSETTINGS
350
2D
  0
XRECORD
  5
151C
102
{ACAD_REACTORS
330
151A
102
}
330
151A
100
AcDbXrecord
330
0
330
0
330
0
330
0
330
0
330
0
330
0
330
0
  0
XRECORD
  5
A7AF
102
{ACAD_REACTORS
330
A7AE
102
}
330
A7AE
100
AcDbXrecord
 90
        1
  0
XRECORD
  5
A7B0
102
{ACAD_REACTORS
330
A7AE
102
}
330
A7AE
100
AcDbXrecord
 90
       70
  0
XRECORD
  5
A7B1
102
{ACAD_REACTORS
330
A7AE
102
}
330
A7AE
100
AcDbXrecord
  1

  0
XRECORD
  5
A7B2
102
{ACAD_REACTORS
330
A7AE
102
}
330
A7AE
100
AcDbXrecord
  1
ASAMI.ctb
  0
XRECORD
  5
A7B3
102
{ACAD_REACTORS
330
A7AE
102
}
330
A7AE
100
AcDbXrecord
340
1A
  0
XRECORD
  5
A7B4
102
{ACAD_REACTORS
330
A7AE
102
}
330
A7AE
100
AcDbXrecord
340
19
  0
XRECORD
  5
A7B5
102
{ACAD_REACTORS
330
A7AE
102
}
330
A7AE
100
AcDbXrecord
340
E
  0
XRECORD
  5
A7B6
102
{ACAD_REACTORS
330
A7AE
102
}
330
A7AE
100
AcDbXrecord
 90
    10781
  0
XRECORD
  5
A7B7
102
{ACAD_REACTORS
330
A7AE
102
}
330
A7AE
100
AcDbXrecord
 90
        4
  0
XRECORD
  5
A7B8
102
{ACAD_REACTORS
330
A7AE
102
}
330
A7AE
100
AcDbXrecord
 90
        0
  0
XRECORD
  5
A7B9
102
{ACAD_REACTORS
330
A7AE
102
}
330
A7AE
100
AcDbXrecord
  1
{AFB28963-8C59-40AE-9337-C84526B81ACE}
  0
XRECORD
  5
A7BA
102
{ACAD_REACTORS
330
A7AE
102
}
330
A7AE
100
AcDbXrecord
  1
{D5920D39-2762-4A6B-8011-61A535FEFFE2}
  0
XRECORD
  5
A7BB
102
{ACAD_REACTORS
330
A7AE
102
}
330
A7AE
100
AcDbXrecord
 40
0.0
  0
XRECORD
  5
A7BC
102
{ACAD_REACTORS
330
A7AE
102
}
330
A7AE
100
AcDbXrecord
1000
DSTYLE
1002
{
1070
    79
 70
     2
1070
   341
340
59
1070
   342
340
59
1070
   371
 70
    -1
1070
   372
 70
    -1
1002
}
  0
XRECORD
  5
A7BD
102
{ACAD_REACTORS
330
A7AE
102
}
330
A7AE
100
AcDbXrecord
340
0
  0
XRECORD
  5
A7BE
102
{ACAD_REACTORS
330
A7AE
102
}
330
A7AE
100
AcDbXrecord
 70
     0
  0
XRECORD
  5
A7BF
102
{ACAD_REACTORS
330
A7AE
102
}
330
A7AE
100
AcDbXrecord
340
0
  0
XRECORD
  5
A7C0
102
{ACAD_REACTORS
330
A7AE
102
}
330
A7AE
100
AcDbXrecord
 10
0.0
 20
0.0
 30
0.0
  0
XRECORD
  5
A7C1
102
{ACAD_REACTORS
330
A7AE
102
}
330
A7AE
100
AcDbXrecord
 10
0.0
 20
0.0
 30
0.0
  0
XRECORD
  5
A7C2
102
{ACAD_REACTORS
330
A7AE
102
}
330
A7AE
100
AcDbXrecord
 10
0.0
 20
0.0
 30
0.0
  0
XRECORD
  5
A7C3
102
{ACAD_REACTORS
330
A7AE
102
}
330
A7AE
100
AcDbXrecord
 10
0.0
 20
0.0
 30
0.0
  0
XRECORD
  5
A7C4
102
{ACAD_REACTORS
330
A7AE
102
}
330
A7AE
100
AcDbXrecord
 10
0.0
 20
0.0
 30
0.0
  0
XRECORD
  5
A7C5
102
{ACAD_REACTORS
330
A7AE
102
}
330
A7AE
100
AcDbXrecord
 10
0.0
 20
0.0
 30
0.0
  0
XRECORD
  5
A7C6
102
{ACAD_REACTORS
330
A7AE
102
}
330
A7AE
100
AcDbXrecord
340
0
  0
XRECORD
  5
A7C7
102
{ACAD_REACTORS
330
A7AE
102
}
330
A7AE
100
AcDbXrecord
 70
     0
  0
XRECORD
  5
A7C8
102
{ACAD_REACTORS
330
A7AE
102
}
330
A7AE
100
AcDbXrecord
340
0
  0
XRECORD
  5
A7C9
102
{ACAD_REACTORS
330
A7AE
102
}
330
A7AE
100
AcDbXrecord
 10
0.0
 20
0.0
 30
0.0
  0
XRECORD
  5
A7CA
102
{ACAD_REACTORS
330
A7AE
102
}
330
A7AE
100
AcDbXrecord
 10
0.0
 20
0.0
 30
0.0
  0
XRECORD
  5
A7CB
102
{ACAD_REACTORS
330
A7AE
102
}
330
A7AE
100
AcDbXrecord
 10
0.0
 20
0.0
 30
0.0
  0
XRECORD
  5
A7CC
102
{ACAD_REACTORS
330
A7AE
102
}
330
A7AE
100
AcDbXrecord
 10
0.0
 20
0.0
 30
0.0
  0
XRECORD
  5
A7CD
102
{ACAD_REACTORS
330
A7AE
102
}
330
A7AE
100
AcDbXrecord
 10
0.0
 20
0.0
 30
0.0
  0
XRECORD
  5
A7CE
102
{ACAD_REACTORS
330
A7AE
102
}
330
A7AE
100
AcDbXrecord
 10
0.0
 20
0.0
 30
0.0
  0
LAYER_INDEX
  5
A7A5
102
{ACAD_REACTORS
330
A7A4
102
}
330
A7A4
100
AcDbIndex
 40
2453151.733140902
100
AcDbLayerIndex
  8
0
360
A7A6
 90
        0
  8
AM_0
360
A7A7
 90
       41
  8
AM_11
360
A7A8
 90
        4
  8
AM_7
360
A7A9
 90
        1
  8
AM_5
360
A7AA
 90
        4
  8
Defpoints
360
A7AB
 90
        0
  8
AM_6
360
A7AC
 90
        1
  0
XRECORD
  5
2D
102
{ACAD_REACTORS
330
2C
102
}
330
2C
100
AcDbXrecord
  1
VERSION
140
15.0
  1
PRODUCT
  2
AutoCAD Mechanical 2000
  0
IDBUFFER
  5
A7A6
330
0
100
AcDbIdBuffer
  0
IDBUFFER
  5
A7A7
330
0
100
AcDbIdBuffer
330
A50A
330
A50B
330
A50C
330
A50D
330
A50E
330
A50F
330
A510
330
A511
330
A512
330
A513
330
A514
330
A515
330
A516
330
A517
330
A518
330
A51A
330
A51B
330
A51C
330
A51D
330
A556
330
A56E
330
A56F
330
A572
330
A573
330
A574
330
A48D
330
A490
330
A491
330
A49F
330
A4AB
330
A4AE
330
A4FE
330
A4FF
330
A500
330
A501
330
A502
330
A503
330
A504
330
A505
330
A506
330
A509
  0
IDBUFFER
  5
A7A8
330
0
100
AcDbIdBuffer
330
A4FD
330
A508
330
A519
330
A75C
  0
IDBUFFER
  5
A7A9
330
0
100
AcDbIdBuffer
330
9FF0
  0
IDBUFFER
  5
A7AA
330
0
100
AcDbIdBuffer
330
A215
330
A2A1
330
A492
330
A51E
  0
IDBUFFER
  5
A7AB
330
0
100
AcDbIdBuffer
  0
IDBUFFER
  5
A7AC
330
0
100
AcDbIdBuffer
330
1500
  0
ENDSEC
  0
EOF
