  0
SECTION
  2
HEADER
  9
$ACADVER
  1
AC1014
  9
$ACADMAINTVER
 70
     9
  9
$DWGCODEPAGE
  3
ANSI_932
  9
$INSBASE
 10
0.0
 20
0.0
 30
0.0
  9
$EXTMIN
 10
-112.0109970012145
 20
-56.50000100000014
 30
-0.00000001
  9
$EXTMAX
 10
19.55776903085516
 20
8.532078355708671
 30
0.00000001
  9
$LIMMIN
 10
-120.7492063277356
 20
-69.09673046957061
  9
$LIMMAX
 10
24.35822478021947
 20
26.50724938867756
  9
$ORTHOMODE
 70
     0
  9
$REGENMODE
 70
     1
  9
$FILLMODE
 70
     1
  9
$QTEXTMODE
 70
     0
  9
$MIRRTEXT
 70
     0
  9
$DRAGMODE
 70
     2
  9
$LTSCALE
 40
1.0
  9
$OSMODE
 70
    55
  9
$ATTMODE
 70
     1
  9
$TEXTSIZE
 40
2.5
  9
$TRACEWID
 40
1.0
  9
$TEXTSTYLE
  7
STANDARD
  9
$CLAYER
  8
AM_0
  9
$CELTYPE
  6
BYLAYER
  9
$CECOLOR
 62
   256
  9
$CELTSCALE
 40
1.0
  9
$DELOBJ
 70
     1
  9
$DISPSILH
 70
     0
  9
$DIMSCALE
 40
1.0
  9
$DIMASZ
 40
2.5
  9
$DIMEXO
 40
1.0
  9
$DIMDLI
 40
12.0
  9
$DIMRND
 40
0.0
  9
$DIMDLE
 40
0.0
  9
$DIMEXE
 40
1.0
  9
$DIMTP
 40
0.1
  9
$DIMTM
 40
0.1
  9
$DIMTXT
 40
3.2
  9
$DIMCEN
 40
0.0
  9
$DIMTSZ
 40
0.0
  9
$DIMTOL
 70
     0
  9
$DIMLIM
 70
     0
  9
$DIMTIH
 70
     0
  9
$DIMTOH
 70
     0
  9
$DIMSE1
 70
     0
  9
$DIMSE2
 70
     0
  9
$DIMTAD
 70
     3
  9
$DIMZIN
 70
     8
  9
$DIMBLK
  1
OPEN30
  9
$DIMASO
 70
     1
  9
$DIMSHO
 70
     1
  9
$DIMPOST
  1

  9
$DIMAPOST
  1
"
  9
$DIMALT
 70
     0
  9
$DIMALTD
 70
     2
  9
$DIMALTF
 40
0.0393701
  9
$DIMLFAC
 40
1.0
  9
$DIMTOFL
 70
     1
  9
$DIMTVP
 40
0.0
  9
$DIMTIX
 70
     0
  9
$DIMSOXD
 70
     0
  9
$DIMSAH
 70
     0
  9
$DIMBLK1
  1

  9
$DIMBLK2
  1

  9
$DIMSTYLE
  2
AM_JIS
  9
$DIMCLRD
 70
   256
  9
$DIMCLRE
 70
   256
  9
$DIMCLRT
 70
     2
  9
$DIMTFAC
 40
0.71
  9
$DIMGAP
 40
1.5
  9
$DIMJUST
 70
     0
  9
$DIMSD1
 70
     0
  9
$DIMSD2
 70
     0
  9
$DIMTOLJ
 70
     0
  9
$DIMTZIN
 70
     0
  9
$DIMALTZ
 70
     0
  9
$DIMALTTZ
 70
     0
  9
$DIMFIT
 70
     3
  9
$DIMUPT
 70
     0
  9
$DIMUNIT
 70
     2
  9
$DIMDEC
 70
     3
  9
$DIMTDEC
 70
     3
  9
$DIMALTU
 70
     2
  9
$DIMALTTD
 70
     2
  9
$DIMTXSTY
  7
ASAMI
  9
$DIMAUNIT
 70
     0
  9
$LUNITS
 70
     2
  9
$LUPREC
 70
     2
  9
$SKETCHINC
 40
1.0
  9
$FILLETRAD
 40
2.5
  9
$AUNITS
 70
     0
  9
$AUPREC
 70
     0
  9
$MENU
  1
.
  9
$ELEVATION
 40
0.0
  9
$PELEVATION
 40
0.0
  9
$THICKNESS
 40
0.0
  9
$LIMCHECK
 70
     0
  9
$BLIPMODE
 70
     0
  9
$CHAMFERA
 40
1.0
  9
$CHAMFERB
 40
1.0
  9
$CHAMFERC
 40
20.0
  9
$CHAMFERD
 40
0.0
  9
$SKPOLY
 70
     0
  9
$TDCREATE
 40
2452838.430434386
  9
$TDUPDATE
 40
2453151.733808761
  9
$TDINDWG
 40
0.5308976273
  9
$TDUSRTIMER
 40
0.5308976273
  9
$USRTIMER
 70
     1
  9
$ANGBASE
 50
0.0
  9
$ANGDIR
 70
     0
  9
$PDMODE
 70
     0
  9
$PDSIZE
 40
0.0
  9
$PLINEWID
 40
0.0
  9
$COORDS
 70
     1
  9
$SPLFRAME
 70
     0
  9
$SPLINETYPE
 70
     6
  9
$SPLINESEGS
 70
     8
  9
$ATTDIA
 70
     1
  9
$ATTREQ
 70
     1
  9
$HANDLING
 70
 12289
  9
$HANDSEED
  5
A8A5
  9
$SURFTAB1
 70
     6
  9
$SURFTAB2
 70
     6
  9
$SURFTYPE
 70
     6
  9
$SURFU
 70
     6
  9
$SURFV
 70
     6
  9
$UCSNAME
  2

  9
$UCSORG
 10
0.0
 20
0.0
 30
0.0
  9
$UCSXDIR
 10
1.0
 20
0.0
 30
0.0
  9
$UCSYDIR
 10
0.0
 20
1.0
 30
0.0
  9
$PUCSNAME
  2

  9
$PUCSORG
 10
0.0
 20
0.0
 30
0.0
  9
$PUCSXDIR
 10
1.0
 20
0.0
 30
0.0
  9
$PUCSYDIR
 10
0.0
 20
1.0
 30
0.0
  9
$USERI1
 70
     0
  9
$USERI2
 70
     0
  9
$USERI3
 70
     0
  9
$USERI4
 70
     0
  9
$USERI5
 70
     0
  9
$USERR1
 40
0.0
  9
$USERR2
 40
0.0
  9
$USERR3
 40
0.0
  9
$USERR4
 40
0.0
  9
$USERR5
 40
0.0
  9
$WORLDVIEW
 70
     1
  9
$SHADEDGE
 70
     3
  9
$SHADEDIF
 70
    70
  9
$TILEMODE
 70
     1
  9
$MAXACTVP
 70
    64
  9
$PINSBASE
 10
0.0
 20
0.0
 30
0.0
  9
$PLIMCHECK
 70
     0
  9
$PEXTMIN
 10
1.000000000000000E+20
 20
1.000000000000000E+20
 30
1.000000000000000E+20
  9
$PEXTMAX
 10
-1.000000000000000E+20
 20
-1.000000000000000E+20
 30
-1.000000000000000E+20
  9
$PLIMMIN
 10
0.0
 20
0.0
  9
$PLIMMAX
 10
841.0
 20
594.0
  9
$UNITMODE
 70
     0
  9
$VISRETAIN
 70
     1
  9
$PLINEGEN
 70
     0
  9
$PSLTSCALE
 70
     0
  9
$TREEDEPTH
 70
  3020
  9
$PICKSTYLE
 70
     0
  9
$CMLSTYLE
  2
STANDARD
  9
$CMLJUST
 70
     0
  9
$CMLSCALE
 40
20.0
  9
$PROXYGRAPHICS
 70
     1
  9
$MEASUREMENT
 70
     1
  0
ENDSEC
  0
SECTION
  2
CLASSES
  0
CLASS
  1
ACDBDICTIONARYWDFLT
  2
AcDbDictionaryWithDefault
  3
AutoCAD 2000
 90
        0
280
     0
281
     0
  0
CLASS
  1
ACDBPLACEHOLDER
  2
AcDbPlaceHolder
  3
AutoCAD 2000
 90
        0
280
     0
281
     0
  0
CLASS
  1
LAYOUT
  2
AcDbLayout
  3
AutoCAD 2000
 90
        0
280
     0
281
     0
  0
CLASS
  1
AMGSETTINGSOBJ
  2
AmgSettingsObj
  3
"AcadM|Product Description: AutoCAD Mechanical 2000|Company: Autodesk"
 90
        0
280
     0
281
     0
  0
CLASS
  1
ACME_DOCUMENT
  2
AcMeDbDoc
  3
AcMeServices
 90
        0
280
     0
281
     0
  0
CLASS
  1
ACMESCOPE
  2
AcMeScope
  3
AcMeServices
 90
        0
280
     0
281
     0
  0
CLASS
  1
ACMECOMMANDHISTORY
  2
AcMeCommandHistory
  3
AcMeServices
 90
        0
280
     0
281
     0
  0
CLASS
  1
DICTIONARYVAR
  2
AcDbDictionaryVar
  3
AutoCAD 2000
 90
        0
280
     0
281
     0
  0
CLASS
  1
ACIMSYSVARMAN
  2
AcImSysVarManager
  3
AcMeServices
 90
        0
280
     0
281
     0
  0
CLASS
  1
ACIMREALSYSVAR
  2
AcImRealSysVar
  3
AcMeServices
 90
        0
280
     0
281
     0
  0
CLASS
  1
ACIMINTSYSVAR
  2
AcImIntSysVar
  3
AcMeServices
 90
        0
280
     0
281
     0
  0
CLASS
  1
ACMEDRAWINGMAN
  2
AcMeDrawingMan
  3
AcMeServices
 90
        0
280
     0
281
     0
  0
CLASS
  1
ACMEVIEW
  2
AcMeView
  3
AcMeServices
 90
        0
280
     0
281
     0
  0
CLASS
  1
ACDBENTITYCACHE
  2
AcMeEntityCache
  3
AcMeServices
 90
        0
280
     0
281
     0
  0
CLASS
  1
GSMANAGER
  2
AcMeGSManager
  3
AcMeServices
 90
        0
280
     0
281
     0
  0
CLASS
  1
AmdtInternalReactor
  2
AmdtInternalReactor
  3
AcMeServices
 90
        0
280
     0
281
     0
  0
CLASS
  1
ACMESTATEMGR
  2
AcMeStateMgr
  3
AcMeServices
 90
        0
280
     0
281
     0
  0
CLASS
  1
ACME_DATABASE
  2
AcMeDbDatabase
  3
AcMeServices
 90
        0
280
     0
281
     0
  0
CLASS
  1
ACRFINSADJUSTERMGR
  2
AcRfInsAdjusterMgr
  3
AcMeServices
 90
        0
280
     0
281
     0
  0
CLASS
  1
ACMDATADICTIONARY
  2
AcmDataDictionary
  3
"AcmSymBB|Product Description: AutoCAD Mechanical 2000|Company: Autodesk"
 90
        0
280
     0
281
     0
  0
CLASS
  1
ACMDATAENTRYBLOCK
  2
AcmDataEntryBlock
  3
"AcmSymBB|Product Description: AutoCAD Mechanical 2000|Company: Autodesk"
 90
        0
280
     0
281
     0
  0
CLASS
  1
AMGOBJPROPCFG
  2
AmgObjPropCfg
  3
"AmgLay|Product Description: AutoCAD Mechanical 2000|Company: Autodesk"
 90
        1
280
     0
281
     0
  0
CLASS
  1
ACAMGFILTERDAT
  2
AcAmgFilterDat
  3
"AcadM|Product Description: AutoCAD Mechanical 2000|Company: Autodesk"
 90
        0
280
     0
281
     0
  0
CLASS
  1
LAYER_INDEX
  2
AcDbLayerIndex
  3
AutoCAD 2000
 90
        0
280
     0
281
     0
  0
CLASS
  1
IDBUFFER
  2
AcDbIdBuffer
  3
AutoCAD 2000
 90
        0
280
     0
281
     0
  0
CLASS
  1
ACIMSTRSYSVAR
  2
AcImStrSysVar
  3
AcMeServices
 90
        0
280
     0
281
     0
  0
CLASS
  1
ACMSTANDARDJIS
  2
AcmStandardJIS
  3
"AcmSymBB|Product Description: AutoCAD Mechanical 2000|Company: Autodesk"
 90
        0
280
     0
281
     0
  0
CLASS
  1
ACMSURFSTANDARDJIS
  2
AcmSurfTextStdJIS
  3
"AcmSymBB|Product Description: AutoCAD Mechanical 2000|Company: Autodesk"
 90
        0
280
     0
281
     0
  0
CLASS
  1
ACMFCFSTANDARDJIS
  2
AcmFCFStdJIS
  3
"AcmSymBB|Product Description: AutoCAD Mechanical 2000|Company: Autodesk"
 90
        0
280
     0
281
     0
  0
CLASS
  1
ACMWELDSTANDARDJIS
  2
AcmWeldingStdJIS
  3
"AcmSymBB|Product Description: AutoCAD Mechanical 2000|Company: Autodesk"
 90
        0
280
     0
281
     0
  0
CLASS
  1
ACMIDSTANDARDJIS
  2
AcmIdStdJIS
  3
"AcmSymBB|Product Description: AutoCAD Mechanical 2000|Company: Autodesk"
 90
        0
280
     0
281
     0
  0
CLASS
  1
ACMDATUMSTANDARDJIS
  2
AcmDatumStdJIS
  3
"AcmSymBB|Product Description: AutoCAD Mechanical 2000|Company: Autodesk"
 90
        0
280
     0
281
     0
  0
CLASS
  1
ACMBOMSTANDARDJIS
  2
AcmBOMStdJIS
  3
"AcmSymBB|Product Description: AutoCAD Mechanical 2000|Company: Autodesk"
 90
        0
280
     0
281
     0
  0
CLASS
  1
ACMSTANDARDANSI
  2
AcmStandardANSI
  3
"AcmSymBB|Product Description: AutoCAD Mechanical 2000|Company: Autodesk"
 90
        0
280
     0
281
     0
  0
CLASS
  1
ACMSURFSTANDARDANSI
  2
AcmSurfTextStdANSI
  3
"AcmSymBB|Product Description: AutoCAD Mechanical 2000|Company: Autodesk"
 90
        0
280
     0
281
     0
  0
CLASS
  1
ACMFCFSTANDARDANSI
  2
AcmFCFStdANSI
  3
"AcmSymBB|Product Description: AutoCAD Mechanical 2000|Company: Autodesk"
 90
        0
280
     0
281
     0
  0
CLASS
  1
ACMWELDSTANDARDANSI
  2
AcmWeldingStdANSI
  3
"AcmSymBB|Product Description: AutoCAD Mechanical 2000|Company: Autodesk"
 90
        0
280
     0
281
     0
  0
CLASS
  1
ACMIDSTANDARDANSI
  2
AcmIdStdANSI
  3
"AcmSymBB|Product Description: AutoCAD Mechanical 2000|Company: Autodesk"
 90
        0
280
     0
281
     0
  0
CLASS
  1
ACMDATUMSTANDARDANSI
  2
AcmDatumStdANSI
  3
"AcmSymBB|Product Description: AutoCAD Mechanical 2000|Company: Autodesk"
 90
        0
280
     0
281
     0
  0
CLASS
  1
ACMBOMSTANDARDANSI
  2
AcmBOMStdANSI
  3
"AcmSymBB|Product Description: AutoCAD Mechanical 2000|Company: Autodesk"
 90
        0
280
     0
281
     0
  0
CLASS
  1
ACMSTANDARDBSI
  2
AcmStandardBSI
  3
"AcmSymBB|Product Description: AutoCAD Mechanical 2000|Company: Autodesk"
 90
        0
280
     0
281
     0
  0
CLASS
  1
ACMSURFSTANDARDBSI
  2
AcmSurfTextStdBSI
  3
"AcmSymBB|Product Description: AutoCAD Mechanical 2000|Company: Autodesk"
 90
        0
280
     0
281
     0
  0
CLASS
  1
ACMFCFSTANDARDBSI
  2
AcmFCFStdBSI
  3
"AcmSymBB|Product Description: AutoCAD Mechanical 2000|Company: Autodesk"
 90
        0
280
     0
281
     0
  0
CLASS
  1
ACMWELDSTANDARDBSI
  2
AcmWeldingStdBSI
  3
"AcmSymBB|Product Description: AutoCAD Mechanical 2000|Company: Autodesk"
 90
        0
280
     0
281
     0
  0
CLASS
  1
ACMIDSTANDARDBSI
  2
AcmIdStdBSI
  3
"AcmSymBB|Product Description: AutoCAD Mechanical 2000|Company: Autodesk"
 90
        0
280
     0
281
     0
  0
CLASS
  1
ACMDATUMSTANDARDBSI
  2
AcmDatumStdBSI
  3
"AcmSymBB|Product Description: AutoCAD Mechanical 2000|Company: Autodesk"
 90
        0
280
     0
281
     0
  0
CLASS
  1
ACMBOMSTANDARDBSI
  2
AcmBOMStdBSI
  3
"AcmSymBB|Product Description: AutoCAD Mechanical 2000|Company: Autodesk"
 90
        0
280
     0
281
     0
  0
CLASS
  1
LONG_TRANSACTION
  2
AcDbLongTransaction
  3
AutoCAD 2000
 90
        0
280
     0
281
     0
  0
CLASS
  1
LWPOLYLINE
  2
AcDbPolyline
  3
AutoCAD 2000
 90
        0
280
     0
281
     1
  0
CLASS
  1
HATCH
  2
AcDbHatch
  3
AutoCAD 2000
 90
        0
280
     0
281
     1
  0
CLASS
  1
XRECORD
  2
AcDbXrecord
  3
AutoCAD 2000
 90
        0
280
     0
281
     0
  0
ENDSEC
  0
SECTION
  2
TABLES
  0
TABLE
  2
VPORT
  5
8
330
0
100
AcDbSymbolTable
 70
     3
  0
VPORT
  5
A87A
330
8
100
AcDbSymbolTableRecord
100
AcDbViewportTableRecord
  2
*ACTIVE
 70
     0
 10
0.0
 20
0.0
 11
1.0
 21
1.0
 12
-43.73046446100334
 22
-18.34199010768141
 13
0.0
 23
0.0
 14
2.5
 24
2.5
 15
10.0
 25
10.0
 16
0.0
 26
0.0
 36
1.0
 17
0.0
 27
0.0
 37
0.0
 40
95.39644188057716
 41
1.56570841889117
 42
50.0
 43
0.0
 44
0.0
 50
0.0
 51
0.0
 71
     0
 72
   100
 73
     1
 74
     3
 75
     0
 76
     0
 77
     0
 78
     0
  0
ENDTAB
  0
TABLE
  2
LTYPE
  5
5
330
0
100
AcDbSymbolTable
 70
    10
  0
LTYPE
  5
14
330
5
100
AcDbSymbolTableRecord
100
AcDbLinetypeTableRecord
  2
BYBLOCK
 70
     0
  3

 72
    65
 73
     0
 40
0.0
  0
LTYPE
  5
15
330
5
100
AcDbSymbolTableRecord
100
AcDbLinetypeTableRecord
  2
BYLAYER
 70
     0
  3

 72
    65
 73
     0
 40
0.0
  0
LTYPE
  5
16
330
5
100
AcDbSymbolTableRecord
100
AcDbLinetypeTableRecord
  2
CONTINUOUS
 70
     0
  3
Solid line
 72
    65
 73
     0
 40
0.0
  0
LTYPE
  5
4B
330
5
100
AcDbSymbolTableRecord
100
AcDbLinetypeTableRecord
  2
AM_ISO02W050
 70
     0
  3
__ __ __ __ __ __ __ __ __ __ __ __ __ __ __
 72
    65
 73
     2
 40
7.5
 49
6.0
 74
     0
 49
-1.5
 74
     0
  0
LTYPE
  5
4C
330
5
100
AcDbSymbolTableRecord
100
AcDbLinetypeTableRecord
  2
AM_ISO08W050
 70
     0
  3
____ . ____ . ____ . ____ . ____ . ____ . ____
 72
    65
 73
     4
 40
18.0
 49
12.0
 74
     0
 49
-1.5
 74
     0
 49
3.0
 74
     0
 49
-1.5
 74
     0
  0
LTYPE
  5
4D
330
5
100
AcDbSymbolTableRecord
100
AcDbLinetypeTableRecord
  2
AM_ISO09W050
 70
     0
  3
_____ . . _____ . . _____ . . ____ .. ____
 72
    65
 73
     6
 40
22.5
 49
12.0
 74
     0
 49
-1.5
 74
     0
 49
3.0
 74
     0
 49
-1.5
 74
     0
 49
3.0
 74
     0
 49
-1.5
 74
     0
  0
LTYPE
  5
4E
330
5
100
AcDbSymbolTableRecord
100
AcDbLinetypeTableRecord
  2
AMCONSTR
 70
     0
  3
_______________________
 72
    65
 73
     2
 40
9999.0
 49
9999.0
 74
     0
 49
0.0
 74
     0
  0
LTYPE
  5
4F
330
5
100
AcDbSymbolTableRecord
100
AcDbLinetypeTableRecord
  2
AM_ISO02W050X2
 70
     0
  3
 _ _ _ _ _ _ _ _ _ _ _ _
 72
    65
 73
     2
 40
3.75
 49
3.0
 74
     0
 49
-0.75
 74
     0
  0
LTYPE
  5
50
330
5
100
AcDbSymbolTableRecord
100
AcDbLinetypeTableRecord
  2
AM_ISO08W050X2
 70
     0
  3
__ . __ . __ . __ . __ . __
 72
    65
 73
     4
 40
9.0
 49
6.0
 74
     0
 49
-0.75
 74
     0
 49
1.5
 74
     0
 49
-0.75
 74
     0
  0
LTYPE
  5
53
330
5
100
AcDbSymbolTableRecord
100
AcDbLinetypeTableRecord
  2
AMZIGZAG
 70
     0
  3
/\/-/\/-/\/-/\/-/\/-/\/
 72
    65
 73
     2
 40
11.00009999999999
 49
0.0001
 74
     4
 75
   135
340
52
 46
0.04
 50
0.0
 44
0.0
 45
0.0
 49
-11.0
 74
     0
  0
LTYPE
  5
166
330
5
100
AcDbSymbolTableRecord
100
AcDbLinetypeTableRecord
  2
ACJISTGL
 70
     0
  3
_ _ _ _ _
 72
    65
 73
     2
 40
3.0
 49
2.0
 74
     0
 49
-1.0
 74
     0
  0
LTYPE
  5
26A
330
5
100
AcDbSymbolTableRecord
100
AcDbLinetypeTableRecord
  2
ACJISTGB
 70
     0
  3
__ . . __ . .
 72
    65
 73
     6
 40
9.0
 49
4.0
 74
     0
 49
-1.0
 74
     0
 49
1.0
 74
     0
 49
-1.0
 74
     0
 49
1.0
 74
     0
 49
-1.0
 74
     0
  0
ENDTAB
  0
TABLE
  2
LAYER
  5
2
330
0
100
AcDbSymbolTable
 70
     7
  0
LAYER
  5
10
330
2
100
AcDbSymbolTableRecord
100
AcDbLayerTableRecord
  2
0
 70
     0
 62
     7
  6
CONTINUOUS
  0
LAYER
  5
3F9
330
2
100
AcDbSymbolTableRecord
100
AcDbLayerTableRecord
  2
AM_0
 70
     0
 62
     7
  6
CONTINUOUS
  0
LAYER
  5
BDD
330
2
100
AcDbSymbolTableRecord
100
AcDbLayerTableRecord
  2
AM_11
 70
     0
 62
     3
  6
AM_ISO09W050
  0
LAYER
  5
BDE
330
2
100
AcDbSymbolTableRecord
100
AcDbLayerTableRecord
  2
AM_7
 70
     0
 62
     4
  6
AM_ISO08W050
  0
LAYER
  5
BDF
330
2
100
AcDbSymbolTableRecord
100
AcDbLayerTableRecord
  2
AM_5
 70
     0
 62
     3
  6
CONTINUOUS
  0
LAYER
  5
BE0
330
2
100
AcDbSymbolTableRecord
100
AcDbLayerTableRecord
  2
DEFPOINTS
 70
     0
 62
     7
  6
CONTINUOUS
  0
LAYER
  5
14FF
330
2
100
AcDbSymbolTableRecord
100
AcDbLayerTableRecord
  2
AM_6
 70
     0
 62
     2
  6
CONTINUOUS
  0
ENDTAB
  0
TABLE
  2
STYLE
  5
3
330
0
100
AcDbSymbolTable
 70
     5
  0
STYLE
  5
11
330
3
100
AcDbSymbolTableRecord
100
AcDbTextStyleTableRecord
  2
STANDARD
 70
     0
 40
0.0
 41
1.0
 50
0.0
 71
     0
 42
2.5
  3
simplex.shx
  4
EXTFONT.SHX
  0
STYLE
  5
52
330
3
100
AcDbSymbolTableRecord
100
AcDbTextStyleTableRecord
  2

 70
     1
 40
0.0
 41
1.0
 50
0.0
 71
     0
 42
2.5
  3
ltypeshp.shx
  4

  0
STYLE
  5
6B
330
3
100
AcDbSymbolTableRecord
100
AcDbTextStyleTableRecord
  2
ASAMI
 70
     0
 40
0.0
 41
1.0
 50
0.0
 71
     0
 42
2.5
  3
simplex.shx
  4
EXTFONT.SHX
  0
STYLE
  5
262
330
3
100
AcDbSymbolTableRecord
100
AcDbTextStyleTableRecord
  2
ACJISTS
 70
     0
 40
1.0
 41
1.0
 50
0.0
 71
     0
 42
2.5
  3
simplex.shx
  4
bigfont.shx
  0
STYLE
  5
269
330
3
100
AcDbSymbolTableRecord
100
AcDbTextStyleTableRecord
  2
ACJISGDT
 70
     0
 40
0.0
 41
1.0
 50
0.0
 71
     0
 42
2.5
  3
amgdtans.shx
  4

  0
ENDTAB
  0
TABLE
  2
VIEW
  5
6
330
0
100
AcDbSymbolTable
 70
     0
  0
ENDTAB
  0
TABLE
  2
UCS
  5
7
330
0
100
AcDbSymbolTable
 70
     0
  0
ENDTAB
  0
TABLE
  2
APPID
  5
9
330
0
100
AcDbSymbolTable
 70
    13
  0
APPID
  5
12
330
9
100
AcDbSymbolTableRecord
100
AcDbRegAppTableRecord
  2
ACAD
 70
     0
  0
APPID
  5
30
330
9
100
AcDbSymbolTableRecord
100
AcDbRegAppTableRecord
  2
MCAD_NO_VIS
 70
     0
  0
APPID
  5
31
330
9
100
AcDbSymbolTableRecord
100
AcDbRegAppTableRecord
  2
ACAD_TEMP_GRAPHIC
 70
     0
  0
APPID
  5
2C2
330
9
100
AcDbSymbolTableRecord
100
AcDbRegAppTableRecord
  2
GENIUS_GENDTOL_13
 70
     0
  0
APPID
  5
339
330
9
100
AcDbSymbolTableRecord
100
AcDbRegAppTableRecord
  2
GENIUS_GENODEF_13
 70
     0
  0
APPID
  5
33A
330
9
100
AcDbSymbolTableRecord
100
AcDbRegAppTableRecord
  2
GENIUS_GENOBJ-N-RSBK_13
 70
     0
  0
APPID
  5
33B
330
9
100
AcDbSymbolTableRecord
100
AcDbRegAppTableRecord
  2
GENIUS_GENOBJ-N-LIB_13
 70
     0
  0
APPID
  5
33C
330
9
100
AcDbSymbolTableRecord
100
AcDbRegAppTableRecord
  2
GENIUS_GENSCALE_13
 70
     0
  0
APPID
  5
378
330
9
100
AcDbSymbolTableRecord
100
AcDbRegAppTableRecord
  2
GENIUS_GENDIMSH_14
 70
     0
  0
APPID
  5
BE1
330
9
100
AcDbSymbolTableRecord
100
AcDbRegAppTableRecord
  2
GENIUS_GENFIL_13
 70
     0
  0
APPID
  5
BE2
330
9
100
AcDbSymbolTableRecord
100
AcDbRegAppTableRecord
  2
GENIUS_GENOBJ-N-CHA_13
 70
     0
  0
APPID
  5
151B
330
9
100
AcDbSymbolTableRecord
100
AcDbRegAppTableRecord
  2
DCO15
 70
     0
  0
APPID
  5
1860
330
9
100
AcDbSymbolTableRecord
100
AcDbRegAppTableRecord
  2
GENIUS_GENOBJ-N-CEN_13
 70
     0
  0
ENDTAB
  0
TABLE
  2
DIMSTYLE
  5
A
330
0
100
AcDbSymbolTable
 70
     8
  0
DIMSTYLE
105
58
102
{ACAD_REACTORS
330
A215
330
A2A1
330
A391
330
A4A4
102
}
330
A
100
AcDbSymbolTableRecord
100
AcDbDimStyleTableRecord
  2
AM_JIS
 70
     0
  3

  4
"
  5
OPEN30
  6

  7

 40
1.0
 41
2.5
 42
1.0
 43
12.0
 44
1.0
 45
0.0
 46
0.0
 47
0.1
 48
0.1
140
3.2
141
0.0
142
0.0
143
0.0393701
144
1.0
145
0.0
146
0.71
147
1.5
 71
     0
 72
     0
 73
     0
 74
     0
 75
     0
 76
     0
 77
     3
 78
     8
170
     0
171
     2
172
     1
173
     0
174
     0
175
     0
176
   256
177
   256
178
     2
270
     2
271
     3
272
     3
273
     2
274
     2
340
6B
275
     0
280
     0
281
     0
282
     0
283
     0
284
     0
285
     0
286
     0
287
     3
288
     0
  0
DIMSTYLE
105
5F
330
A
100
AcDbSymbolTableRecord
100
AcDbDimStyleTableRecord
  2
AM_JIS$3
 70
     0
  3

  4
"
  5
OPEN30
  6

  7

 40
1.0
 41
2.5
 42
1.0
 43
10.0
 44
1.0
 45
0.0
 46
0.0
 47
0.1
 48
0.1
140
3.2
141
0.0
142
0.0
143
0.0393701
144
1.0
145
0.0
146
0.71
147
1.5
 71
     0
 72
     0
 73
     0
 74
     1
 75
     0
 76
     0
 77
     3
 78
     8
170
     0
171
     2
172
     0
173
     0
174
     0
175
     0
176
   256
177
   256
178
     2
270
     2
271
     2
272
     3
273
     2
274
     2
340
6B
275
     0
280
     0
281
     0
282
     0
283
     0
284
     0
285
     0
286
     0
287
     0
288
     1
  0
DIMSTYLE
105
60
330
A
100
AcDbSymbolTableRecord
100
AcDbDimStyleTableRecord
  2
AM_JIS$4
 70
     0
  3

  4
"
  5
OPEN30
  6

  7

 40
1.0
 41
2.5
 42
1.0
 43
10.0
 44
1.0
 45
0.0
 46
0.0
 47
0.1
 48
0.1
140
3.2
141
0.0
142
0.0
143
0.0393701
144
1.0
145
0.0
146
0.71
147
1.5
 71
     0
 72
     0
 73
     0
 74
     1
 75
     0
 76
     0
 77
     3
 78
     8
170
     0
171
     2
172
     0
173
     0
174
     0
175
     0
176
   256
177
   256
178
     2
270
     2
271
     2
272
     3
273
     2
274
     2
340
6B
275
     0
280
     0
281
     0
282
     0
283
     0
284
     0
285
     0
286
     0
287
     0
288
     1
  0
DIMSTYLE
105
61
330
A
100
AcDbSymbolTableRecord
100
AcDbDimStyleTableRecord
  2
AM_JIS$6
 70
     0
  3

  4
"
  5
OPEN30
  6

  7

 40
1.0
 41
2.5
 42
1.0
 43
10.0
 44
1.0
 45
0.0
 46
0.0
 47
0.1
 48
0.1
140
3.2
141
0.0
142
0.0
143
0.0393701
144
1.0
145
0.0
146
0.71
147
1.5
 71
     0
 72
     0
 73
     0
 74
     0
 75
     0
 76
     0
 77
     0
 78
     8
170
     0
171
     2
172
     1
173
     0
174
     0
175
     0
176
   256
177
   256
178
     2
270
     2
271
     2
272
     2
273
     2
274
     2
340
6B
275
     0
280
     0
281
     0
282
     0
283
     0
284
     0
285
     0
286
     0
287
     3
288
     0
  0
DIMSTYLE
105
62
330
A
100
AcDbSymbolTableRecord
100
AcDbDimStyleTableRecord
  2
AM_JIS$7
 70
     0
  3

  4
"
  5
OPEN30
  6

  7

 40
1.0
 41
2.5
 42
1.0
 43
10.0
 44
1.0
 45
0.0
 46
0.0
 47
0.1
 48
0.1
140
3.2
141
0.0
142
0.0
143
0.0393701
144
1.0
145
0.0
146
0.71
147
1.5
 71
     0
 72
     0
 73
     0
 74
     0
 75
     0
 76
     0
 77
     3
 78
     8
170
     0
171
     2
172
     1
173
     0
174
     0
175
     0
176
   256
177
   256
178
     2
270
     2
271
     2
272
     3
273
     2
274
     2
340
6B
275
     0
280
     0
281
     0
282
     0
283
     0
284
     0
285
     0
286
     0
287
     3
288
     0
  0
DIMSTYLE
105
63
330
A
100
AcDbSymbolTableRecord
100
AcDbDimStyleTableRecord
  2
AM_JIS$SF
 70
     0
  3

  4
"
  5
OPEN30
  6

  7

 40
1.0
 41
2.5
 42
1.0
 43
10.0
 44
1.0
 45
0.0
 46
0.0
 47
0.1
 48
0.1
140
3.2
141
0.0
142
0.0
143
0.0393701
144
1.0
145
0.0
146
0.71
147
1.5
 71
     0
 72
     0
 73
     0
 74
     0
 75
     1
 76
     1
 77
     3
 78
     8
170
     0
171
     2
172
     1
173
     0
174
     0
175
     0
176
   256
177
   256
178
     2
270
     2
271
     2
272
     2
273
     2
274
     2
340
6B
275
     0
280
     0
281
     0
282
     0
283
     0
284
     0
285
     0
286
     0
287
     3
288
     0
  0
DIMSTYLE
105
68
330
A
100
AcDbSymbolTableRecord
100
AcDbDimStyleTableRecord
  2
AM_JIS$SH
 70
     0
  3

  4
"
  5

  6
GENAXEH
  7
OPEN30
 40
1.0
 41
2.5
 42
1.0
 43
10.0
 44
1.0
 45
0.0
 46
0.0
 47
0.1
 48
0.1
140
3.2
141
0.0
142
0.0
143
0.0393701
144
2.0
145
0.0
146
0.71
147
1.5
 71
     0
 72
     0
 73
     0
 74
     0
 75
     1
 76
     1
 77
     3
 78
     8
170
     0
171
     2
172
     1
173
     1
174
     0
175
     0
176
   256
177
   256
178
     2
270
     2
271
     2
272
     2
273
     2
274
     2
340
6B
275
     0
280
     0
281
     0
282
     0
283
     0
284
     0
285
     0
286
     0
287
     3
288
     0
  0
DIMSTYLE
105
B34
330
A
100
AcDbSymbolTableRecord
100
AcDbDimStyleTableRecord
  2
AM_JIS$2
 70
     0
  3

  4
"
  5
OPEN30
  6

  7

 40
1.0
 41
2.5
 42
1.0
 43
12.0
 44
1.0
 45
0.0
 46
0.0
 47
0.1
 48
0.1
140
3.2
141
0.0
142
0.0
143
0.0393701
144
1.0
145
0.0
146
0.71
147
1.5
 71
     0
 72
     0
 73
     0
 74
     0
 75
     0
 76
     0
 77
     3
 78
     8
170
     0
171
     2
172
     1
173
     0
174
     0
175
     0
176
   256
177
   256
178
     2
270
     2
271
     3
272
     3
273
     2
274
     2
340
6B
275
     0
280
     0
281
     0
282
     0
283
     0
284
     0
285
     0
286
     0
287
     3
288
     0
  0
ENDTAB
  0
TABLE
  2
BLOCK_RECORD
  5
1
330
0
100
AcDbSymbolTable
 70
     9
  0
BLOCK_RECORD
  5
1F
102
{ACAD_XDICTIONARY
360
74
102
}
330
1
100
AcDbSymbolTableRecord
100
AcDbBlockTableRecord
  2
*MODEL_SPACE
  0
BLOCK_RECORD
  5
101
102
{ACAD_XDICTIONARY
360
A8A3
102
}
330
1
100
AcDbSymbolTableRecord
100
AcDbBlockTableRecord
  2
*PAPER_SPACE
  0
BLOCK_RECORD
  5
59
330
1
100
AcDbSymbolTableRecord
100
AcDbBlockTableRecord
  2
_OPEN30
  0
BLOCK_RECORD
  5
64
330
1
100
AcDbSymbolTableRecord
100
AcDbBlockTableRecord
  2
GENAXEH
  0
BLOCK_RECORD
  5
A216
330
1
100
AcDbSymbolTableRecord
100
AcDbBlockTableRecord
  2
*D5
  0
BLOCK_RECORD
  5
A2A2
330
1
100
AcDbSymbolTableRecord
100
AcDbBlockTableRecord
  2
*D6
  0
BLOCK_RECORD
  5
A392
330
1
100
AcDbSymbolTableRecord
100
AcDbBlockTableRecord
  2
*D7
  0
BLOCK_RECORD
  5
A4A5
330
1
100
AcDbSymbolTableRecord
100
AcDbBlockTableRecord
  2
*D8
  0
ENDTAB
  0
ENDSEC
  0
SECTION
  2
BLOCKS
  0
BLOCK
  5
20
330
1F
100
AcDbEntity
  8
0
100
AcDbBlockBegin
  2
*MODEL_SPACE
 70
     0
 10
0.0
 20
0.0
 30
0.0
  3
*MODEL_SPACE
  1

  0
ENDBLK
  5
21
330
1F
100
AcDbEntity
  8
0
100
AcDbBlockEnd
  0
BLOCK
  5
103
330
101
100
AcDbEntity
 67
     1
  8
0
100
AcDbBlockBegin
  2
*PAPER_SPACE
 70
     0
 10
0.0
 20
0.0
 30
0.0
  3
*PAPER_SPACE
  1

  0
ENDBLK
  5
104
330
101
100
AcDbEntity
 67
     1
  8
0
100
AcDbBlockEnd
  0
BLOCK
  5
5D
330
59
100
AcDbEntity
  8
0
100
AcDbBlockBegin
  2
_OPEN30
 70
     0
 10
0.0
 20
0.0
 30
0.0
  3
_OPEN30
  1

  0
LINE
  5
5A
330
59
100
AcDbEntity
  8
0
 62
     0
100
AcDbLine
 10
-1.0
 20
0.26794919
 30
0.0
 11
0.0
 21
0.0
 31
0.0
  0
LINE
  5
5B
330
59
100
AcDbEntity
  8
0
 62
     0
100
AcDbLine
 10
0.0
 20
0.0
 30
0.0
 11
-1.0
 21
-0.26794919
 31
0.0
  0
LINE
  5
5C
330
59
100
AcDbEntity
  8
0
 62
     0
100
AcDbLine
 10
0.0
 20
0.0
 30
0.0
 11
-1.0
 21
0.0
 31
0.0
  0
ENDBLK
  5
5E
330
59
100
AcDbEntity
  8
0
100
AcDbBlockEnd
  0
BLOCK
  5
66
330
64
100
AcDbEntity
  8
0
100
AcDbBlockBegin
  2
GENAXEH
 70
     0
 10
0.0
 20
0.0
 30
0.0
  3
GENAXEH
  1

  0
LINE
  5
65
330
64
100
AcDbEntity
  8
0
100
AcDbLine
 10
-1.0
 20
0.0
 30
0.0
 11
1.0
 21
0.0
 31
0.0
  0
ENDBLK
  5
67
330
64
100
AcDbEntity
  8
0
100
AcDbBlockEnd
  0
BLOCK
  5
A220
330
A216
100
AcDbEntity
  8
0
100
AcDbBlockBegin
  2
*D5
 70
     1
 10
0.0
 20
0.0
 30
0.0
  3
*D5
  1

  0
LINE
  5
A6B3
330
A216
100
AcDbEntity
  8
AM_5
100
AcDbLine
 10
-0.0000000000010659
 20
-8.00000000000001
 30
0.0
 11
-0.0000000000010675
 21
-35.00000100000014
 31
0.0
  0
LINE
  5
A6B4
330
A216
100
AcDbEntity
  8
AM_5
100
AcDbLine
 10
-90.0
 20
-8.000000000000078
 30
0.0
 11
-90.0
 21
-35.00000100000014
 31
0.0
  0
LINE
  5
A6B5
330
A216
100
AcDbEntity
  8
AM_5
100
AcDbLine
 10
-2.500000000001067
 20
-34.00000100000013
 30
0.0
 11
-87.5
 21
-34.00000100000013
 31
0.0
  0
INSERT
  5
A6B6
330
A216
100
AcDbEntity
  8
AM_5
100
AcDbBlockReference
  2
_OPEN30
 10
-0.0000000000010675
 20
-34.00000100000013
 30
0.0
 41
2.5
 42
2.5
 43
2.5
  0
INSERT
  5
A6B7
330
A216
100
AcDbEntity
  8
AM_5
100
AcDbBlockReference
  2
_OPEN30
 10
-90.0
 20
-34.00000100000013
 30
0.0
 41
2.5
 42
2.5
 43
2.5
 50
180.0
  0
MTEXT
  5
A6B8
330
A216
100
AcDbEntity
  8
AM_5
 62
     2
100
AcDbMText
 10
-45.00000000000053
 20
-30.90000100000013
 30
0.0
 40
3.2
 41
0.0
 71
     5
 72
     1
  1
90
  7
ASAMI
1001
ACAD
1000
MTEXTBEGIN
1070
    73
1070
     1
1070
    44
1040
1.0
1070
    74
1070
     0
1000
MTEXTEND
  0
POINT
  5
A6B9
330
A216
100
AcDbEntity
  8
DEFPOINTS
 62
     0
100
AcDbPoint
 10
-0.0000000000010658
 20
-7.000000000000009
 30
0.0
  0
POINT
  5
A6BA
330
A216
100
AcDbEntity
  8
DEFPOINTS
 62
     0
100
AcDbPoint
 10
-90.0
 20
-7.000000000000079
 30
0.0
  0
POINT
  5
A6BB
330
A216
100
AcDbEntity
  8
DEFPOINTS
 62
     0
100
AcDbPoint
 10
-90.0
 20
-34.00000100000013
 30
0.0
  0
ENDBLK
  5
A221
330
A216
100
AcDbEntity
  8
0
100
AcDbBlockEnd
  0
BLOCK
  5
A2AC
330
A2A2
100
AcDbEntity
  8
0
100
AcDbBlockBegin
  2
*D6
 70
     1
 10
0.0
 20
0.0
 30
0.0
  3
*D6
  1

  0
LINE
  5
A6BC
330
A2A2
100
AcDbEntity
  8
AM_5
100
AcDbLine
 10
-0.0000000000010659
 20
-8.00000000000001
 30
0.0
 11
-0.0000000000010668
 21
-23.00000099999997
 31
0.0
  0
LINE
  5
A6BD
330
A2A2
100
AcDbEntity
  8
AM_5
100
AcDbLine
 10
-32.00000000000001
 20
-8.000000000000051
 30
0.0
 11
-32.00000000000001
 21
-23.00000099999997
 31
0.0
  0
LINE
  5
A6BE
330
A2A2
100
AcDbEntity
  8
AM_5
100
AcDbLine
 10
-2.500000000001066
 20
-22.00000099999998
 30
0.0
 11
-29.50000000000001
 21
-22.00000099999998
 31
0.0
  0
INSERT
  5
A6BF
330
A2A2
100
AcDbEntity
  8
AM_5
100
AcDbBlockReference
  2
_OPEN30
 10
-0.0000000000010667
 20
-22.00000099999998
 30
0.0
 41
2.5
 42
2.5
 43
2.5
  0
INSERT
  5
A6C0
330
A2A2
100
AcDbEntity
  8
AM_5
100
AcDbBlockReference
  2
_OPEN30
 10
-32.00000000000001
 20
-22.00000099999998
 30
0.0
 41
2.5
 42
2.5
 43
2.5
 50
180.0
  0
MTEXT
  5
A6C1
330
A2A2
100
AcDbEntity
  8
AM_5
 62
     2
100
AcDbMText
 10
-16.00000000000054
 20
-18.90000099999998
 30
0.0
 40
3.2
 41
0.0
 71
     5
 72
     1
  1
32
  7
ASAMI
1001
ACAD
1000
MTEXTBEGIN
1070
    73
1070
     1
1070
    44
1040
1.0
1070
    74
1070
     0
1000
MTEXTEND
  0
POINT
  5
A6C2
330
A2A2
100
AcDbEntity
  8
DEFPOINTS
 62
     0
100
AcDbPoint
 10
-0.0000000000010658
 20
-7.000000000000009
 30
0.0
  0
POINT
  5
A6C3
330
A2A2
100
AcDbEntity
  8
DEFPOINTS
 62
     0
100
AcDbPoint
 10
-32.00000000000001
 20
-7.000000000000051
 30
0.0
  0
POINT
  5
A6C4
330
A2A2
100
AcDbEntity
  8
DEFPOINTS
 62
     0
100
AcDbPoint
 10
-32.00000000000001
 20
-22.00000099999998
 30
0.0
  0
ENDBLK
  5
A2AD
330
A2A2
100
AcDbEntity
  8
0
100
AcDbBlockEnd
  0
BLOCK
  5
A39C
330
A392
100
AcDbEntity
  8
0
100
AcDbBlockBegin
  2
*D7
 70
     1
 10
0.0
 20
0.0
 30
0.0
  3
*D7
  1

  0
LINE
  5
A6C6
330
A392
100
AcDbEntity
  8
AM_5
100
AcDbLine
 10
0.99999999999999
 20
6.99999999999999
 30
0.0
 11
19.55776903085516
 21
6.999999999999984
 31
0.0
  0
LINE
  5
A6C7
330
A392
100
AcDbEntity
  8
AM_5
100
AcDbLine
 10
1.000000000000009
 20
-7.000000000000009
 30
0.0
 11
19.55776903085516
 21
-7.000000000000015
 31
0.0
  0
LINE
  5
A6C8
330
A392
100
AcDbEntity
  8
AM_5
100
AcDbLine
 10
18.55776903085517
 20
4.499999999999984
 30
0.0
 11
18.55776903085517
 21
-4.500000000000015
 31
0.0
  0
INSERT
  5
A6C9
330
A392
100
AcDbEntity
  8
AM_5
100
AcDbBlockReference
  2
_OPEN30
 10
18.55776903085517
 20
6.999999999999984
 30
0.0
 41
2.5
 42
2.5
 43
2.5
 50
90.0
  0
INSERT
  5
A6CA
330
A392
100
AcDbEntity
  8
AM_5
100
AcDbBlockReference
  2
_OPEN30
 10
18.55776903085517
 20
-7.000000000000015
 30
0.0
 41
2.5
 42
2.5
 43
2.5
 50
270.0
  0
MTEXT
  5
A6CB
330
A392
100
AcDbEntity
  8
AM_5
 62
     2
100
AcDbMText
 10
15.45776903085516
 20
-0.0000000000000114
 30
0.0
 40
3.2
 41
0.0
 71
     5
 72
     1
  1
%%c14
  7
ASAMI
 11
0.0000000000000001
 21
1.0
 31
0.0
1001
ACAD
1000
MTEXTBEGIN
1070
    73
1070
     1
1070
    44
1040
1.0
1070
    74
1070
     0
1000
MTEXTEND
  0
POINT
  5
A6CC
330
A392
100
AcDbEntity
  8
DEFPOINTS
 62
     0
100
AcDbPoint
 10
-0.0000000000000099
 20
6.99999999999999
 30
0.0
  0
POINT
  5
A6CD
330
A392
100
AcDbEntity
  8
DEFPOINTS
 62
     0
100
AcDbPoint
 10
0.0000000000000099
 20
-7.000000000000009
 30
0.0
  0
POINT
  5
A6CE
330
A392
100
AcDbEntity
  8
DEFPOINTS
 62
     0
100
AcDbPoint
 10
18.55776903085517
 20
-7.000000000000015
 30
0.0
  0
ENDBLK
  5
A39D
330
A392
100
AcDbEntity
  8
0
100
AcDbBlockEnd
  0
BLOCK
  5
A4AF
330
A4A5
100
AcDbEntity
  8
0
100
AcDbBlockBegin
  2
*D8
 70
     1
 10
0.0
 20
0.0
 30
0.0
  3
*D8
  1

  0
LINE
  5
A55F
330
A4A5
100
AcDbEntity
  8
AM_5
100
AcDbLine
 10
-90.0
 20
7.999999999999912
 30
0.0
 11
-108.3109970012145
 21
7.999999999999917
 31
0.0
  0
LINE
  5
A560
330
A4A5
100
AcDbEntity
  8
AM_5
100
AcDbLine
 10
-90.0
 20
-8.000000000000081
 30
0.0
 11
-108.3109970012145
 21
-8.000000000000074
 31
0.0
  0
LINE
  5
A561
330
A4A5
100
AcDbEntity
  8
AM_5
100
AcDbLine
 10
-107.3109970012145
 20
5.499999999999917
 30
0.0
 11
-107.3109970012145
 21
-5.500000000000075
 31
0.0
  0
INSERT
  5
A562
330
A4A5
100
AcDbEntity
  8
AM_5
100
AcDbBlockReference
  2
_OPEN30
 10
-107.3109970012145
 20
7.999999999999917
 30
0.0
 41
2.5
 42
2.5
 43
2.5
 50
90.0
  0
INSERT
  5
A563
330
A4A5
100
AcDbEntity
  8
AM_5
100
AcDbBlockReference
  2
_OPEN30
 10
-107.3109970012145
 20
-8.000000000000076
 30
0.0
 41
2.5
 42
2.5
 43
2.5
 50
270.0
  0
MTEXT
  5
A564
330
A4A5
100
AcDbEntity
  8
AM_5
 62
     2
100
AcDbMText
 10
-110.4109970012145
 20
-0.0000000000000961
 30
0.0
 40
3.2
 41
0.0
 71
     5
 72
     1
  1
%%c16
  7
ASAMI
 11
0.0000000000000001
 21
1.0
 31
0.0
1001
ACAD
1000
MTEXTBEGIN
1070
    73
1070
     1
1070
    44
1040
1.0
1070
    74
1070
     0
1000
MTEXTEND
  0
POINT
  5
A565
330
A4A5
100
AcDbEntity
  8
DEFPOINTS
 62
     0
100
AcDbPoint
 10
-89.0
 20
7.999999999999912
 30
0.0
  0
POINT
  5
A566
330
A4A5
100
AcDbEntity
  8
DEFPOINTS
 62
     0
100
AcDbPoint
 10
-89.0
 20
-8.000000000000081
 30
0.0
  0
POINT
  5
A567
330
A4A5
100
AcDbEntity
  8
DEFPOINTS
 62
     0
100
AcDbPoint
 10
-107.3109970012145
 20
-8.000000000000076
 30
0.0
  0
ENDBLK
  5
A4B0
330
A4A5
100
AcDbEntity
  8
0
100
AcDbBlockEnd
  0
ENDSEC
  0
SECTION
  2
ENTITIES
  0
TEXT
  5
1500
330
1F
100
AcDbEntity
  8
AM_6
100
AcDbText
 10
-65.95238095238148
 20
-56.50000100000013
 30
0.0
 40
5.0
  1
USM2140ZX
 72
     4
 11
-45.00000000000052
 21
-54.00000100000013
 31
0.0
100
AcDbText
  0
LINE
  5
9FF0
330
1F
100
AcDbEntity
  8
AM_7
  6
AM_ISO08W050X2
100
AcDbLine
 10
4.557768030855186
 20
0.0
 30
0.0
 11
-93.31099600121461
 21
-0.0000000000000728
 31
0.0
1001
GENIUS_GENODEF_13
1002
{
1000
HIER
1070
     0
1002
}
1002
{
1000
MANEDIT
1070
     0
1002
}
1002
{
1000
NOSEL
1070
     0
1002
}
1002
{
1000
BEHIND
1070
     0
1002
}
1002
{
1000
REACTOR
1002
}
1001
GENIUS_GENOBJ-N-CEN_13
1002
{
1000
OWNER
1000
GEN
1002
}
  0
DIMENSION
  5
A215
330
1F
100
AcDbEntity
  8
AM_5
100
AcDbDimension
  2
*D5
 10
-90.0
 20
-34.00000100000013
 30
0.0
 11
-45.00000000000053
 21
-30.90000100000013
 31
0.0
 70
    32
  1
<>
  3
AM_JIS
100
AcDbAlignedDimension
 13
-0.0000000000010658
 23
-7.000000000000009
 33
0.0
 14
-90.0
 24
-7.000000000000079
 34
0.0
 50
0.0000000000001641
100
AcDbRotatedDimension
1001
GENIUS_GENDTOL_13
1000

1000
h7
1000

1040
0.0
  0
DIMENSION
  5
A2A1
330
1F
100
AcDbEntity
  8
AM_5
100
AcDbDimension
  2
*D6
 10
-32.00000000000001
 20
-22.00000099999998
 30
0.0
 11
-16.00000000000054
 21
-18.90000099999998
 31
0.0
 70
    32
  1
<>
  3
AM_JIS
100
AcDbAlignedDimension
 13
-0.0000000000010658
 23
-7.000000000000009
 33
0.0
 14
-32.00000000000001
 24
-7.000000000000051
 34
0.0
 50
0.0000000000001641
100
AcDbRotatedDimension
1001
GENIUS_GENDTOL_13
1000

1000
h7
1000

1040
0.0
  0
DIMENSION
  5
A391
330
1F
100
AcDbEntity
  8
AM_5
100
AcDbDimension
  2
*D7
 10
18.55776903085517
 20
-7.000000000000015
 30
0.0
 11
15.45776903085516
 21
-0.0000000000000114
 31
0.0
 70
    32
  1
%%c<>
  3
AM_JIS
100
AcDbAlignedDimension
 13
-0.0000000000000099
 23
6.99999999999999
 33
0.0
 14
0.0000000000000099
 24
-7.000000000000009
 34
0.0
 50
90.00000000000003
100
AcDbRotatedDimension
1001
GENIUS_GENDTOL_13
1000

1000
h7
1000

1040
0.0
  0
LINE
  5
A49F
330
1F
100
AcDbEntity
  8
AM_0
100
AcDbLine
 10
-47.00000000000001
 20
-8.000000000000017
 30
0.0
 11
-89.0
 21
-8.000000000000078
 31
0.0
  0
LINE
  5
A4A1
330
1F
100
AcDbEntity
  8
AM_0
100
AcDbLine
 10
-90.0
 20
6.99999999999991
 30
0.0
 11
-90.0
 21
-7.000000000000079
 31
0.0
  0
LINE
  5
A4A2
330
1F
100
AcDbEntity
  8
AM_0
100
AcDbLine
 10
-89.0
 20
7.999999999999912
 30
0.0
 11
-89.0
 21
-8.000000000000078
 31
0.0
  0
DIMENSION
  5
A4A4
330
1F
100
AcDbEntity
  8
AM_5
100
AcDbDimension
  2
*D8
 10
-107.3109970012145
 20
-8.000000000000076
 30
0.0
 11
-110.4109970012145
 21
-0.0000000000000961
 31
0.0
 70
    32
  1
%%c<>
  3
AM_JIS
100
AcDbAlignedDimension
 13
-89.0
 23
7.999999999999912
 33
0.0
 14
-89.0
 24
-8.000000000000081
 34
0.0
 50
270.0
100
AcDbRotatedDimension
1001
GENIUS_GENDTOL_13
1000

1000
h7
1000

1040
0.0
  0
LINE
  5
A4B1
330
1F
100
AcDbEntity
  8
AM_0
100
AcDbLine
 10
-47.00000000000001
 20
7.999999999999975
 30
0.0
 11
-89.0
 21
7.999999999999912
 31
0.0
  0
LINE
  5
A4BD
330
1F
100
AcDbEntity
  8
AM_0
100
AcDbLine
 10
-89.0
 20
7.999999999999912
 30
0.0
 11
-90.0
 21
6.99999999999991
 31
0.0
1001
GENIUS_GENFIL_13
1070
     0
1040
1.0
1040
1.0
1040
20.0
1040
0.0
1002
{
1002
}
1001
GENIUS_GENODEF_13
1002
{
1000
HIER
1070
     0
1002
}
1002
{
1000
MANEDIT
1070
     0
1002
}
1002
{
1000
NOSEL
1070
     0
1002
}
1002
{
1000
BEHIND
1070
     0
1002
}
1002
{
1000
REACTOR
1002
}
1001
GENIUS_GENOBJ-N-CHA_13
1002
{
1000
OWNER
1000
GEN
1002
}
  0
LINE
  5
A4C0
330
1F
100
AcDbEntity
  8
AM_0
100
AcDbLine
 10
-90.0
 20
-7.000000000000079
 30
0.0
 11
-89.0
 21
-8.000000000000078
 31
0.0
1001
GENIUS_GENFIL_13
1070
     0
1040
1.0
1040
1.0
1040
20.0
1040
0.0
1002
{
1002
}
1001
GENIUS_GENODEF_13
1002
{
1000
HIER
1070
     0
1002
}
1002
{
1000
MANEDIT
1070
     0
1002
}
1002
{
1000
NOSEL
1070
     0
1002
}
1002
{
1000
BEHIND
1070
     0
1002
}
1002
{
1000
REACTOR
1002
}
1001
GENIUS_GENOBJ-N-CHA_13
1002
{
1000
OWNER
1000
GEN
1002
}
  0
LINE
  5
A4E4
330
1F
100
AcDbEntity
  8
AM_0
100
AcDbLine
 10
-47.00000000000001
 20
7.999999999999976
 30
0.0
 11
-47.00000000000001
 21
-8.000000000000015
 31
0.0
  0
LINE
  5
A5DF
330
1F
100
AcDbEntity
  8
AM_0
100
AcDbLine
 10
-34.82398184314553
 20
-7.000000000000049
 30
0.0
 11
-44.25252258054541
 21
-7.000000000000051
 31
0.0
  0
LINE
  5
A5F6
330
1F
100
AcDbEntity
  8
AM_0
100
AcDbLine
 10
-47.00000000000001
 20
7.999999999999976
 30
0.0
 11
-44.25252258054533
 21
6.999999999999953
 31
0.0
  0
LINE
  5
A5F7
330
1F
100
AcDbEntity
  8
AM_0
100
AcDbLine
 10
-44.25252258054533
 20
6.999999999999953
 30
0.0
 11
-44.25252258054541
 21
-7.000000000000052
 31
0.0
  0
LINE
  5
A5F8
330
1F
100
AcDbEntity
  8
AM_0
100
AcDbLine
 10
-44.25252258054548
 20
-7.000000000000052
 30
0.0
 11
-47.00000000000001
 21
-8.000000000000015
 31
0.0
  0
LINE
  5
A613
330
1F
100
AcDbEntity
  8
AM_0
100
AcDbLine
 10
-44.25252258054533
 20
6.999999999999955
 30
0.0
 11
-38.53087568326526
 21
6.999999999999952
 31
0.0
  0
LINE
  5
A67E
330
1F
100
AcDbEntity
  8
AM_0
100
AcDbLine
 10
-0.1473054552432774
 20
-0.6532065198130667
 30
0.0
 11
-1.25973145028185
 21
-1.254345569441748
 31
0.0
  0
LINE
  5
A67F
330
1F
100
AcDbEntity
  8
AM_0
100
AcDbLine
 10
0.0
 20
-0.3850000000001373
 30
0.0
 11
-0.1473054552432774
 21
-0.6532065198130667
 31
0.0
  0
LINE
  5
A680
330
1F
100
AcDbEntity
  8
AM_0
100
AcDbLine
 10
-0.5260909115830116
 20
-5.709508258318748
 30
0.0
 11
-0.5260909115830116
 21
-5.634097603585597
 31
0.0
  0
LINE
  5
A681
330
1F
100
AcDbEntity
  8
AM_0
100
AcDbLine
 10
0.0000000000000102
 20
-7.000000000000009
 30
0.0
 11
-0.1473054552432672
 21
-6.626817620670645
 31
0.0
  0
LINE
  5
A682
330
1F
100
AcDbEntity
  8
AM_0
100
AcDbLine
 10
0.0000000000000102
 20
-7.000000000000009
 30
0.0
 11
-0.0000000000000102
 21
6.99999999999999
 31
0.0
  0
LINE
  5
A683
330
1F
100
AcDbEntity
  8
AM_0
100
AcDbLine
 10
-0.1473054552432672
 20
-6.626817620670645
 30
0.0
 11
-0.1473054552432774
 21
-0.6532065198130667
 31
0.0
  0
LINE
  5
A684
330
1F
100
AcDbEntity
  8
AM_0
100
AcDbLine
 10
-0.1473054552432672
 20
-6.626817620670645
 30
0.0
 11
-0.5260909115830116
 21
-5.709508258318748
 31
0.0
  0
LINE
  5
A688
330
1F
100
AcDbEntity
  8
AM_0
100
AcDbLine
 10
-14.22102207930665
 20
-5.417752446653659
 30
0.0
 11
-28.18480029112229
 21
-5.904367177020943
 31
0.0
  0
LINE
  5
A689
330
1F
100
AcDbEntity
  8
AM_0
100
AcDbLine
 10
-7.987604121405284
 20
5.196382912768912
 30
0.0
 11
-27.99961624959236
 21
5.883092558395286
 31
0.0
  0
LINE
  5
A68A
330
1F
100
AcDbEntity
  8
AM_11
100
AcDbLine
 10
-0.0000000000012812
 20
6.99999999999999
 30
0.0
 11
-32.00000000000001
 21
6.99999999999998
 31
0.0
  0
LINE
  5
A68B
330
1F
100
AcDbEntity
  8
AM_11
100
AcDbLine
 10
-32.00000000000001
 20
-7.000000000000031
 30
0.0
 11
0.0000000000000102
 21
-7.000000000000009
 31
0.0
  0
LINE
  5
A68C
330
1F
100
AcDbEntity
  8
AM_0
100
AcDbLine
 10
-7.987604121405284
 20
5.196382912768912
 30
0.0
 11
0.0
 21
-0.3850000000001373
 31
0.0
  0
SPLINE
  5
A68D
330
1F
100
AcDbEntity
  8
AM_0
100
AcDbSpline
210
0.0
220
0.0
230
1.0
 70
     8
 71
     3
 72
     8
 73
     4
 74
     0
 42
0.0000000001
 43
0.0000000001
 40
0.0
 40
0.0
 40
0.0
 40
0.0
 40
14.15489169609657
 40
14.15489169609657
 40
14.15489169609657
 40
14.15489169609657
 10
-15.92639011663839
 20
-5.477181721100234
 30
0.0
 10
-22.54573222842365
 20
-5.477181721100244
 30
0.0
 10
-28.77829478318444
 20
-2.738590948540065
 30
0.0
 10
-35.06030186608571
 20
-0.0000000000000295
 30
0.0
  0
SPLINE
  5
A68E
330
1F
100
AcDbEntity
  8
AM_0
100
AcDbSpline
210
0.0
220
0.0
230
1.0
 70
     8
 71
     3
 72
     8
 73
     4
 74
     0
 42
0.0000000001
 43
0.0000000001
 40
0.6970660008666505
 40
0.6970660008666505
 40
0.6970660008666505
 40
0.6970660008666505
 40
14.43901837670146
 40
14.43901837670146
 40
14.43901837670146
 40
14.43901837670146
 10
-35.31849673906145
 20
6.767040340305638
 30
0.0
 10
-28.36308928603417
 20
6.462580187613305
 30
0.0
 10
-22.49697351860119
 20
3.231290093806495
 30
0.0
 10
-16.63085775116821
 20
-0.0000000000000199
 30
0.0
  0
SPLINE
  5
A68F
330
1F
100
AcDbEntity
  8
AM_0
100
AcDbSpline
210
0.0
220
0.0
230
1.0
 70
     8
 71
     3
 72
     8
 73
     4
 74
     0
 42
0.0000000001
 43
0.0000000001
 40
0.7142832446738512
 40
0.7142832446738512
 40
0.7142832446738512
 40
0.7142832446738512
 40
14.36247867694493
 40
14.36247867694493
 40
14.36247867694493
 40
14.36247867694493
 10
-32.24940689346739
 20
6.440836905753819
 30
0.0
 10
-25.55949090987748
 20
6.142929849665795
 30
0.0
 10
-19.68534335034155
 20
3.071464924832733
 30
0.0
 10
-13.81119579080497
 20
-0.0000000000000199
 30
0.0
  0
SPLINE
  5
A690
330
1F
100
AcDbEntity
  8
AM_0
100
AcDbSpline
210
0.0
220
0.0
230
1.0
 70
     8
 71
     3
 72
     8
 73
     4
 74
     0
 42
0.0000000001
 43
0.0000000001
 40
0.0
 40
0.0
 40
0.0
 40
0.0
 40
14.48999654934387
 40
14.48999654934387
 40
14.48999654934387
 40
14.48999654934387
 10
-38.53087568326583
 20
6.999999999999959
 30
0.0
 10
-31.3830781259514
 20
6.99999999999996
 30
0.0
 10
-25.23132092634783
 20
3.49999999999996
 30
0.0
 10
-19.07956372674424
 20
-0.0000000000000199
 30
0.0
  0
ELLIPSE
  5
A691
330
1F
100
AcDbEntity
  8
AM_0
100
AcDbEllipse
 10
-34.51649899730997
 20
8.377367427151579
 30
0.0
 11
18.44359712476735
 21
1.50525164841413
 31
0.0
210
0.0
220
0.0
230
1.0
 40
0.8298264312708308
 41
4.628132784382313
 42
4.99436058183581
  0
SPLINE
  5
A692
330
1F
100
AcDbEntity
  8
AM_0
100
AcDbSpline
210
0.0
220
0.0
230
1.0
 70
     8
 71
     3
 72
     8
 73
     4
 74
     0
 42
0.0000000001
 43
0.0000000001
 40
0.0
 40
0.0
 40
0.0
 40
0.0
 40
1.748655602797241
 40
1.748655602797241
 40
1.748655602797241
 40
1.748655602797241
 10
-33.52325028783706
 20
-6.409304471312255
 30
0.0
 10
-31.9198484224794
 20
-6.409304471312255
 30
0.0
 10
-30.34645555453082
 20
-6.22643016347791
 30
0.0
 10
-28.18480029112229
 20
-5.904367177020943
 30
0.0
  0
ELLIPSE
  5
A693
330
1F
100
AcDbEntity
  8
AM_0
100
AcDbEllipse
 10
19.93080469467229
 20
0.0294522363917267
 30
0.0
 11
21.22955052393981
 21
0.0000000000005717
 31
0.0
210
0.0
220
0.0
230
1.0
 40
0.9979263820016507
 41
3.202227667257863
 42
3.41221487276959
  0
SPLINE
  5
A694
330
1F
100
AcDbEntity
  8
AM_0
100
AcDbSpline
210
0.0
220
0.0
230
1.0
 70
     8
 71
     3
 72
     8
 73
     4
 74
     0
 42
0.0000000001
 43
0.0000000001
 40
4.219358800530717
 40
4.219358800530717
 40
4.219358800530717
 40
4.219358800530717
 40
14.36247867694493
 40
14.36247867694493
 40
14.36247867694493
 40
14.36247867694493
 10
-0.5260909115830116
 20
-5.709508258318429
 30
0.0
 10
-5.080051345548829
 20
-4.56532690836426
 30
0.0
 10
-9.445623568176589
 20
-2.282663454182293
 30
0.0
 10
-13.81119579080497
 20
-0.0000000000000199
 30
0.0
  0
SPLINE
  5
A695
330
1F
100
AcDbEntity
  8
AM_0
100
AcDbSpline
210
0.0
220
0.0
230
1.0
 70
     8
 71
     3
 72
     8
 73
     4
 74
     0
 42
0.0000000001
 43
0.0000000001
 40
1.870660592686466
 40
1.870660592686466
 40
1.870660592686466
 40
1.870660592686466
 40
14.43901837670146
 40
14.43901837670146
 40
14.43901837670146
 40
14.43901837670146
 10
-0.1473054552432672
 20
-6.626817620670645
 30
0.0
 10
-5.90058598902769
 20
-5.910660856942159
 30
0.0
 10
-11.26572187009796
 20
-2.955330428471254
 30
0.0
 10
-16.63085775116821
 20
-0.0000000000000199
 30
0.0
  0
SPLINE
  5
A696
330
1F
100
AcDbEntity
  8
AM_0
100
AcDbSpline
210
0.0
220
0.0
230
1.0
 70
     8
 71
     3
 72
     8
 73
     4
 74
     0
 42
0.0000000001
 43
0.0000000001
 40
0.0
 40
0.0
 40
0.0
 40
0.0
 40
14.48999654934389
 40
14.48999654934389
 40
14.48999654934389
 40
14.48999654934389
 10
0.0000000000000102
 20
-7.000000000000009
 30
0.0
 10
-6.776049327537063
 20
-7.00000000000002
 30
0.0
 10
-12.92780652714067
 20
-3.500000000000019
 30
0.0
 10
-19.07956372674424
 20
-0.0000000000000199
 30
0.0
  0
SPLINE
  5
A697
330
1F
100
AcDbEntity
  8
AM_0
100
AcDbSpline
210
0.0
220
0.0
230
1.0
 70
     8
 71
     3
 72
     8
 73
     4
 74
     0
 42
0.0000000001
 43
0.0000000001
 40
0.0
 40
0.0
 40
0.0
 40
0.0
 40
6.650481095409369
 40
6.650481095409369
 40
6.650481095409369
 40
6.650481095409369
 10
-1.25973145028185
 20
-1.254345569441748
 30
0.0
 10
-4.171020982300325
 20
-0.162751115333019
 30
0.0
 10
-11.03090676409077
 20
4.557046605914132
 30
0.0
 10
-7.987604121404633
 20
5.196382912768912
 30
0.0
  0
SPLINE
  5
A698
330
1F
100
AcDbEntity
  8
AM_0
100
AcDbSpline
210
0.0
220
0.0
230
1.0
 70
     8
 71
     3
 72
     8
 73
     4
 74
     0
 42
0.0000000001
 43
0.0000000001
 40
0.0
 40
0.0
 40
0.0
 40
0.0
 40
6.457542170879827
 40
6.457542170879827
 40
6.457542170879827
 40
6.457542170879827
 10
-0.0000000000000102
 20
6.99999999999999
 30
0.0
 10
-3.019781553123244
 20
6.99999999999999
 30
0.0
 10
-5.915573352742211
 20
6.3048700794894
 30
0.0
 10
-8.742632076061145
 20
5.224398495535514
 30
0.0
  0
SPLINE
  5
A699
330
1F
100
AcDbEntity
  8
AM_0
100
AcDbSpline
210
0.0
220
0.0
230
1.0
 70
     8
 71
     3
 72
     8
 73
     4
 74
     0
 42
0.0000000001
 43
0.0000000001
 40
0.0
 40
0.0
 40
0.0
 40
0.0
 40
5.642637628726789
 40
5.642637628726789
 40
5.642637628726789
 40
5.642637628726789
 10
-0.2805818195107062
 20
6.99999999999999
 30
0.0
 10
0.4727215536826524
 20
4.476353839939807
 30
0.0
 10
-5.353543597471267
 20
5.352507618041808
 30
0.0
 10
-7.987604121405284
 20
5.196382912768912
 30
0.0
  0
SPLINE
  5
A69A
330
1F
100
AcDbEntity
  8
AM_0
100
AcDbSpline
210
0.0
220
0.0
230
1.0
 70
     8
 71
     3
 72
     8
 73
     4
 74
     0
 42
0.0000000001
 43
0.0000000001
 40
0.0
 40
0.0
 40
0.0
 40
0.0
 40
2.238610194515266
 40
2.238610194515266
 40
2.238610194515266
 40
2.238610194515266
 10
-15.92639011663839
 20
-5.477181721100234
 30
0.0
 10
-13.87373220277922
 20
-5.477181721100234
 30
0.0
 10
-11.85826778583279
 20
-5.213833347089322
 30
0.0
 10
-9.868463162827604
 20
-4.768800926864161
 30
0.0
  0
ELLIPSE
  5
A69B
330
1F
100
AcDbEntity
  8
AM_0
100
AcDbEllipse
 10
-22.22238835772493
 20
-38.41806653393598
 30
0.0
 11
-17.94451863958564
 21
35.36057612420487
 31
0.0
210
0.0
220
0.0
230
1.0
 40
0.763070081018202
 41
-0.2413358919931141
 42
0.0753846167371826
  0
ELLIPSE
  5
A69C
330
1F
100
AcDbEntity
  8
AM_0
100
AcDbEllipse
 10
-27.66459314114348
 20
-16.46729249223406
 30
0.0
 11
-12.47295469696075
 21
21.08874277371107
 31
0.0
210
0.0
220
0.0
230
1.0
 40
0.7723928525845195
 41
-0.3251895687563331
 42
0.0754785565879761
  0
SPLINE
  5
A69D
330
1F
100
AcDbEntity
  8
AM_0
100
AcDbSpline
210
0.0
220
0.0
230
1.0
 70
     8
 71
     3
 72
     8
 73
     4
 74
     0
 42
0.0000000001
 43
0.0000000001
 40
4.436970674848568
 40
4.436970674848568
 40
4.436970674848568
 40
4.436970674848568
 40
6.787565663761609
 40
6.787565663761609
 40
6.787565663761609
 40
6.787565663761609
 10
-41.33032304963177
 20
3.834935620941223
 30
0.0
 10
-40.40448863810013
 20
2.604070586436307
 30
0.0
 10
-38.70154738313363
 20
1.585785713292409
 30
0.0
 10
-35.06030186608571
 20
-0.0000000000000245
 30
0.0
  0
ELLIPSE
  5
A69E
330
1F
100
AcDbEntity
  8
AM_0
100
AcDbEllipse
 10
-34.51649899730997
 20
8.377367427151579
 30
0.0
 11
2.376883937812215
 21
15.29946788665304
 31
0.0
210
0.0
220
0.0
230
1.0
 40
0.7563167806080417
 41
2.641800165299669
 42
3.318155079251829
  0
SPLINE
  5
A69F
330
1F
100
AcDbEntity
  8
AM_0
100
AcDbSpline
210
0.0
220
0.0
230
1.0
 70
     8
 71
     3
 72
     8
 73
     4
 74
     0
 42
0.0000000001
 43
0.0000000001
 40
0.0
 40
0.0
 40
0.0
 40
0.0
 40
3.500713630577632
 40
3.500713630577632
 40
3.500713630577632
 40
3.500713630577632
 10
-33.52325028783706
 20
-6.409304471312573
 30
0.0
 10
-36.7331738178756
 20
-6.409304471312573
 30
0.0
 10
-39.82282768612508
 20
-5.676383245952644
 30
0.0
 10
-42.14809000175382
 20
-4.189175624057307
 30
0.0
  0
LINE
  5
A6A0
330
1F
100
AcDbEntity
  8
AM_11
100
AcDbLine
 10
-32.00000000000001
 20
6.999999999999938
 30
0.0
 11
-32.00000000000001
 21
-7.000000000000051
 31
0.0
  0
LINE
  5
A828
330
1F
100
AcDbEntity
  8
AM_11
100
AcDbLine
 10
-0.0000000000000178
 20
6.999999999999937
 30
0.0
 11
-0.0000000000000178
 21
-7.000000000000052
 31
0.0
  0
VIEWPORT
  5
110
330
101
100
AcDbEntity
 67
     1
  8
0
100
AcDbViewport
 10
420.5
 20
297.0
 30
0.0
 40
948.9782706766916
 41
628.452
 68
     1
 69
     1
1001
ACAD
1000
MVIEW
1002
{
1070
    16
1010
0.0
1020
0.0
1030
0.0
1010
0.0
1020
0.0
1030
1.0
1040
0.0
1040
628.452
1040
420.5
1040
297.0
1040
50.0
1040
0.0
1040
0.0
1070
     0
1070
   100
1070
     1
1070
     1
1070
     0
1070
     0
1070
     0
1070
     0
1040
0.0
1040
0.0
1040
0.0
1040
10.0
1040
10.0
1040
10.0
1040
10.0
1070
     0
1002
{
1002
}
1002
}
  0
ENDSEC
  0
SECTION
  2
OBJECTS
  0
DICTIONARY
  5
C
330
0
100
AcDbDictionary
  3
ACAD_GROUP
350
D
  3
ACAD_LAYOUT
350
1A
  3
ACAD_MLINESTYLE
350
17
  3
ACAD_PLOTSETTINGS
350
19
  3
ACAD_PLOTSTYLENAME
350
E
  3
ACDBVARIABLEDICTIONARY
350
34
  3
ACMDICTIONARY
350
43
  3
AMG
350
2B
  3
AMGSNAPSETTINGS
350
6E
  3
ASE_INDEX_DICTIONARY
350
151A
  3
DWGPROPS
350
A86F
  3
ACDBHEADERROUNDTRIPXREC
350
A87B
  0
DICTIONARY
  5
74
330
1F
100
AcDbDictionary
280
     1
  3
ACAD_INDEX
360
A871
  3
ACAD_LAYOUTSELFREF
360
A89E
  0
DICTIONARY
  5
A8A3
330
101
100
AcDbDictionary
280
     1
  3
ACAD_LAYOUTSELFREF
360
A8A4
  0
DICTIONARY
  5
D
102
{ACAD_REACTORS
330
C
102
}
330
C
100
AcDbDictionary
  0
DICTIONARY
  5
1A
102
{ACAD_REACTORS
330
C
102
}
330
C
100
AcDbDictionary
  0
DICTIONARY
  5
17
102
{ACAD_REACTORS
330
C
102
}
330
C
100
AcDbDictionary
  3
STANDARD
350
18
  0
DICTIONARY
  5
19
102
{ACAD_REACTORS
330
C
102
}
330
C
100
AcDbDictionary
  0
ACDBDICTIONARYWDFLT
  5
E
102
{ACAD_REACTORS
330
C
102
}
330
C
100
AcDbDictionary
281
     1
  3
Normal
350
F
100
AcDbDictionaryWithDefault
340
F
  0
DICTIONARY
  5
34
102
{ACAD_REACTORS
330
C
102
}
330
C
100
AcDbDictionary
  3
INDEXCTL
350
35
  3
SORTENTS
350
B5E
  0
DICTIONARY
  5
43
102
{ACAD_REACTORS
330
C
102
}
330
C
100
AcDbDictionary
  3
ACMSTDDICTIONARY
350
260
  0
DICTIONARY
  5
2B
102
{ACAD_REACTORS
330
C
102
}
330
C
100
AcDbDictionary
  3
ACMGSETTINGS
350
2C
  0
DICTIONARY
  5
6E
102
{ACAD_REACTORS
330
C
102
}
330
C
100
AcDbDictionary
  0
DICTIONARY
  5
151A
102
{ACAD_REACTORS
330
C
102
}
330
C
100
AcDbDictionary
  3
ASEBLOCKHIERARCHYINDEXRECORD
350
151C
1001
DCO15
1040
1471862535.906
  0
XRECORD
  5
A86F
102
{ACAD_REACTORS
330
C
102
}
330
C
100
AcDbXrecord
  1
DWGPROPS COOKIE
  2

  3

  4

  6

  7

  8

  9

300
AmdtFileType=82
301
=
302
=
303
=
304
=
305
=
306
=
307
=
308
=
309
=
 40
0.5307155208333333
 41
2452838.430434386
 42
2453054.442834432
  1

 90
        1
  0
DICTIONARY
  5
A87B
102
{ACAD_REACTORS
330
C
102
}
330
C
100
AcDbDictionary
  3
TSTACKALIGN
350
A87C
  3
TSTACKSIZE
350
A87D
  3
HYPERLINKBASE
350
A87E
  3
STYLESHEET
350
A87F
  3
LAYOUTDICT
350
A880
  3
PLOTSETDICT
350
A881
  3
PLOTSTYLNAMDICT
350
A882
  3
LWETCUNION
350
A883
  3
INSUNITS
350
A884
  3
CEPSNTYPE
350
A885
  3
FINGERPRINTGUID
350
A886
  3
VERSIONGUID
350
A887
  3
PSVPSCALE
350
A888
  3
DIMSTYLEDATA
350
A889
  3
PUCSORTHOREF
350
A88A
  3
PUCSORTHOVIEW
350
A88B
  3
PUCSBASE
350
A88C
  3
PUCSORGTOP
350
A88D
  3
PUCSORGBOTTOM
350
A88E
  3
PUCSORGLEFT
350
A88F
  3
PUCSORGRIGHT
350
A890
  3
PUCSORGFRONT
350
A891
  3
PUCSORGBACK
350
A892
  3
UCSORTHOREF
350
A893
  3
UCSORTHOVIEW
350
A894
  3
UCSBASE
350
A895
  3
UCSORGTOP
350
A896
  3
UCSORGBOTTOM
350
A897
  3
UCSORGLEFT
350
A898
  3
UCSORGRIGHT
350
A899
  3
UCSORGFRONT
350
A89A
  3
UCSORGBACK
350
A89B
  0
DICTIONARY
  5
A871
102
{ACAD_REACTORS
330
74
102
}
330
74
100
AcDbDictionary
  3
*A1
350
A872
  0
XRECORD
  5
A89E
102
{ACAD_REACTORS
330
74
102
}
330
74
100
AcDbXrecord
340
1F
  0
XRECORD
  5
A8A4
102
{ACAD_REACTORS
330
A8A3
102
}
330
A8A3
100
AcDbXrecord
340
101
  0
MLINESTYLE
  5
18
102
{ACAD_REACTORS
330
17
102
}
330
17
100
AcDbMlineStyle
  2
STANDARD
 70
     0
  3

 62
   256
 51
90.0
 52
90.0
 71
     2
 49
0.5
 62
   256
  6
BYLAYER
 49
-0.5
 62
   256
  6
BYLAYER
  0
ACDBPLACEHOLDER
  5
F
102
{ACAD_REACTORS
330
E
102
}
330
E
100
AcDbPlaceHolder
280
     0
  0
DICTIONARYVAR
  5
35
102
{ACAD_REACTORS
330
34
102
}
330
34
100
DictionaryVariables
280
     0
  1
1
  0
DICTIONARYVAR
  5
B5E
102
{ACAD_REACTORS
330
34
102
}
330
34
100
DictionaryVariables
280
     0
  1
96
  0
DICTIONARY
  5
260
102
{ACAD_REACTORS
330
43
102
}
330
43
100
AcDbDictionary
  0
DICTIONARY
  5
2C
102
{ACAD_REACTORS
330
2B
102
}
330
2B
100
AcDbDictionary
  3
DWGSETTINGS
350
2D
  0
XRECORD
  5
151C
102
{ACAD_REACTORS
330
151A
102
}
330
151A
100
AcDbXrecord
330
0
330
0
330
0
330
0
330
0
330
0
330
0
330
0
  0
XRECORD
  5
A87C
102
{ACAD_REACTORS
330
A87B
102
}
330
A87B
100
AcDbXrecord
 90
        1
  0
XRECORD
  5
A87D
102
{ACAD_REACTORS
330
A87B
102
}
330
A87B
100
AcDbXrecord
 90
       70
  0
XRECORD
  5
A87E
102
{ACAD_REACTORS
330
A87B
102
}
330
A87B
100
AcDbXrecord
  1

  0
XRECORD
  5
A87F
102
{ACAD_REACTORS
330
A87B
102
}
330
A87B
100
AcDbXrecord
  1
ASAMI.ctb
  0
XRECORD
  5
A880
102
{ACAD_REACTORS
330
A87B
102
}
330
A87B
100
AcDbXrecord
340
1A
  0
XRECORD
  5
A881
102
{ACAD_REACTORS
330
A87B
102
}
330
A87B
100
AcDbXrecord
340
19
  0
XRECORD
  5
A882
102
{ACAD_REACTORS
330
A87B
102
}
330
A87B
100
AcDbXrecord
340
E
  0
XRECORD
  5
A883
102
{ACAD_REACTORS
330
A87B
102
}
330
A87B
100
AcDbXrecord
 90
    10781
  0
XRECORD
  5
A884
102
{ACAD_REACTORS
330
A87B
102
}
330
A87B
100
AcDbXrecord
 90
        4
  0
XRECORD
  5
A885
102
{ACAD_REACTORS
330
A87B
102
}
330
A87B
100
AcDbXrecord
 90
        0
  0
XRECORD
  5
A886
102
{ACAD_REACTORS
330
A87B
102
}
330
A87B
100
AcDbXrecord
  1
{AFB28963-8C59-40AE-9337-C84526B81ACE}
  0
XRECORD
  5
A887
102
{ACAD_REACTORS
330
A87B
102
}
330
A87B
100
AcDbXrecord
  1
{43BF7C0B-2AEB-45FC-9F12-965F034CF3EA}
  0
XRECORD
  5
A888
102
{ACAD_REACTORS
330
A87B
102
}
330
A87B
100
AcDbXrecord
 40
0.0
  0
XRECORD
  5
A889
102
{ACAD_REACTORS
330
A87B
102
}
330
A87B
100
AcDbXrecord
1000
DSTYLE
1002
{
1070
    79
 70
     2
1070
   341
340
59
1070
   342
340
59
1070
   371
 70
    -1
1070
   372
 70
    -1
1002
}
  0
XRECORD
  5
A88A
102
{ACAD_REACTORS
330
A87B
102
}
330
A87B
100
AcDbXrecord
340
0
  0
XRECORD
  5
A88B
102
{ACAD_REACTORS
330
A87B
102
}
330
A87B
100
AcDbXrecord
 70
     0
  0
XRECORD
  5
A88C
102
{ACAD_REACTORS
330
A87B
102
}
330
A87B
100
AcDbXrecord
340
0
  0
XRECORD
  5
A88D
102
{ACAD_REACTORS
330
A87B
102
}
330
A87B
100
AcDbXrecord
 10
0.0
 20
0.0
 30
0.0
  0
XRECORD
  5
A88E
102
{ACAD_REACTORS
330
A87B
102
}
330
A87B
100
AcDbXrecord
 10
0.0
 20
0.0
 30
0.0
  0
XRECORD
  5
A88F
102
{ACAD_REACTORS
330
A87B
102
}
330
A87B
100
AcDbXrecord
 10
0.0
 20
0.0
 30
0.0
  0
XRECORD
  5
A890
102
{ACAD_REACTORS
330
A87B
102
}
330
A87B
100
AcDbXrecord
 10
0.0
 20
0.0
 30
0.0
  0
XRECORD
  5
A891
102
{ACAD_REACTORS
330
A87B
102
}
330
A87B
100
AcDbXrecord
 10
0.0
 20
0.0
 30
0.0
  0
XRECORD
  5
A892
102
{ACAD_REACTORS
330
A87B
102
}
330
A87B
100
AcDbXrecord
 10
0.0
 20
0.0
 30
0.0
  0
XRECORD
  5
A893
102
{ACAD_REACTORS
330
A87B
102
}
330
A87B
100
AcDbXrecord
340
0
  0
XRECORD
  5
A894
102
{ACAD_REACTORS
330
A87B
102
}
330
A87B
100
AcDbXrecord
 70
     0
  0
XRECORD
  5
A895
102
{ACAD_REACTORS
330
A87B
102
}
330
A87B
100
AcDbXrecord
340
0
  0
XRECORD
  5
A896
102
{ACAD_REACTORS
330
A87B
102
}
330
A87B
100
AcDbXrecord
 10
0.0
 20
0.0
 30
0.0
  0
XRECORD
  5
A897
102
{ACAD_REACTORS
330
A87B
102
}
330
A87B
100
AcDbXrecord
 10
0.0
 20
0.0
 30
0.0
  0
XRECORD
  5
A898
102
{ACAD_REACTORS
330
A87B
102
}
330
A87B
100
AcDbXrecord
 10
0.0
 20
0.0
 30
0.0
  0
XRECORD
  5
A899
102
{ACAD_REACTORS
330
A87B
102
}
330
A87B
100
AcDbXrecord
 10
0.0
 20
0.0
 30
0.0
  0
XRECORD
  5
A89A
102
{ACAD_REACTORS
330
A87B
102
}
330
A87B
100
AcDbXrecord
 10
0.0
 20
0.0
 30
0.0
  0
XRECORD
  5
A89B
102
{ACAD_REACTORS
330
A87B
102
}
330
A87B
100
AcDbXrecord
 10
0.0
 20
0.0
 30
0.0
  0
LAYER_INDEX
  5
A872
102
{ACAD_REACTORS
330
A871
102
}
330
A871
100
AcDbIndex
 40
2453151.733808761
100
AcDbLayerIndex
  8
0
360
A873
 90
        0
  8
AM_0
360
A874
 90
       41
  8
AM_11
360
A875
 90
        4
  8
AM_7
360
A876
 90
        1
  8
AM_5
360
A877
 90
        4
  8
Defpoints
360
A878
 90
        0
  8
AM_6
360
A879
 90
        1
  0
XRECORD
  5
2D
102
{ACAD_REACTORS
330
2C
102
}
330
2C
100
AcDbXrecord
  1
VERSION
140
15.0
  1
PRODUCT
  2
AutoCAD Mechanical 2000
  0
IDBUFFER
  5
A873
330
0
100
AcDbIdBuffer
  0
IDBUFFER
  5
A874
330
0
100
AcDbIdBuffer
330
A682
330
A683
330
A684
330
A688
330
A689
330
A68C
330
A68D
330
A68E
330
A68F
330
A690
330
A691
330
A692
330
A693
330
A694
330
A695
330
A696
330
A697
330
A698
330
A699
330
A69A
330
A69B
330
A69C
330
A69D
330
A69E
330
A69F
330
A49F
330
A4A1
330
A4A2
330
A4B1
330
A4BD
330
A4C0
330
A4E4
330
A5DF
330
A5F6
330
A5F7
330
A5F8
330
A613
330
A67E
330
A67F
330
A680
330
A681
  0
IDBUFFER
  5
A875
330
0
100
AcDbIdBuffer
330
A68A
330
A68B
330
A6A0
330
A828
  0
IDBUFFER
  5
A876
330
0
100
AcDbIdBuffer
330
9FF0
  0
IDBUFFER
  5
A877
330
0
100
AcDbIdBuffer
330
A215
330
A2A1
330
A391
330
A4A4
  0
IDBUFFER
  5
A878
330
0
100
AcDbIdBuffer
  0
IDBUFFER
  5
A879
330
0
100
AcDbIdBuffer
330
1500
  0
ENDSEC
  0
EOF
