  0
SECTION
  2
HEADER
  9
$ACADVER
  1
AC1014
  9
$ACADMAINTVER
 70
     9
  9
$DWGCODEPAGE
  3
ANSI_932
  9
$INSBASE
 10
0.0
 20
0.0
 30
0.0
  9
$EXTMIN
 10
-57.66099700121461
 20
-27.25000100000015
 30
-0.00000001
  9
$EXTMAX
 10
12.05776903085517
 20
4.499999999999996
 30
0.00000001
  9
$LIMMIN
 10
-63.76659503073262
 20
-31.80643058050069
  9
$LIMMAX
 10
15.16738589559264
 20
12.12926007299893
  9
$ORTHOMODE
 70
     0
  9
$REGENMODE
 70
     1
  9
$FILLMODE
 70
     1
  9
$QTEXTMODE
 70
     0
  9
$MIRRTEXT
 70
     0
  9
$DRAGMODE
 70
     2
  9
$LTSCALE
 40
1.0
  9
$OSMODE
 70
    55
  9
$ATTMODE
 70
     1
  9
$TEXTSIZE
 40
2.5
  9
$TRACEWID
 40
1.0
  9
$TEXTSTYLE
  7
STANDARD
  9
$CLAYER
  8
AM_11
  9
$CELTYPE
  6
BYLAYER
  9
$CECOLOR
 62
   256
  9
$CELTSCALE
 40
1.0
  9
$DELOBJ
 70
     1
  9
$DISPSILH
 70
     0
  9
$DIMSCALE
 40
0.5
  9
$DIMASZ
 40
2.5
  9
$DIMEXO
 40
1.0
  9
$DIMDLI
 40
12.0
  9
$DIMRND
 40
0.0
  9
$DIMDLE
 40
0.0
  9
$DIMEXE
 40
1.0
  9
$DIMTP
 40
0.1
  9
$DIMTM
 40
0.1
  9
$DIMTXT
 40
3.2
  9
$DIMCEN
 40
0.0
  9
$DIMTSZ
 40
0.0
  9
$DIMTOL
 70
     0
  9
$DIMLIM
 70
     0
  9
$DIMTIH
 70
     0
  9
$DIMTOH
 70
     0
  9
$DIMSE1
 70
     0
  9
$DIMSE2
 70
     0
  9
$DIMTAD
 70
     3
  9
$DIMZIN
 70
     8
  9
$DIMBLK
  1
OPEN30
  9
$DIMASO
 70
     1
  9
$DIMSHO
 70
     1
  9
$DIMPOST
  1

  9
$DIMAPOST
  1
"
  9
$DIMALT
 70
     0
  9
$DIMALTD
 70
     2
  9
$DIMALTF
 40
0.0393701
  9
$DIMLFAC
 40
1.0
  9
$DIMTOFL
 70
     1
  9
$DIMTVP
 40
0.0
  9
$DIMTIX
 70
     0
  9
$DIMSOXD
 70
     0
  9
$DIMSAH
 70
     0
  9
$DIMBLK1
  1

  9
$DIMBLK2
  1

  9
$DIMSTYLE
  2
AM_JIS
  9
$DIMCLRD
 70
   256
  9
$DIMCLRE
 70
   256
  9
$DIMCLRT
 70
     2
  9
$DIMTFAC
 40
0.71
  9
$DIMGAP
 40
1.5
  9
$DIMJUST
 70
     0
  9
$DIMSD1
 70
     0
  9
$DIMSD2
 70
     0
  9
$DIMTOLJ
 70
     0
  9
$DIMTZIN
 70
     0
  9
$DIMALTZ
 70
     0
  9
$DIMALTTZ
 70
     0
  9
$DIMFIT
 70
     3
  9
$DIMUPT
 70
     0
  9
$DIMUNIT
 70
     2
  9
$DIMDEC
 70
     3
  9
$DIMTDEC
 70
     3
  9
$DIMALTU
 70
     2
  9
$DIMALTTD
 70
     2
  9
$DIMTXSTY
  7
ASAMI
  9
$DIMAUNIT
 70
     0
  9
$LUNITS
 70
     2
  9
$LUPREC
 70
     2
  9
$SKETCHINC
 40
1.0
  9
$FILLETRAD
 40
2.5
  9
$AUNITS
 70
     0
  9
$AUPREC
 70
     0
  9
$MENU
  1
.
  9
$ELEVATION
 40
0.0
  9
$PELEVATION
 40
0.0
  9
$THICKNESS
 40
0.0
  9
$LIMCHECK
 70
     0
  9
$BLIPMODE
 70
     0
  9
$CHAMFERA
 40
0.5
  9
$CHAMFERB
 40
0.5
  9
$CHAMFERC
 40
20.0
  9
$CHAMFERD
 40
0.0
  9
$SKPOLY
 70
     0
  9
$TDCREATE
 40
2452838.430434386
  9
$TDUPDATE
 40
2453151.727799641
  9
$TDINDWG
 40
0.5219280787
  9
$TDUSRTIMER
 40
0.5219280787
  9
$USRTIMER
 70
     1
  9
$ANGBASE
 50
0.0
  9
$ANGDIR
 70
     0
  9
$PDMODE
 70
     0
  9
$PDSIZE
 40
0.0
  9
$PLINEWID
 40
0.0
  9
$COORDS
 70
     1
  9
$SPLFRAME
 70
     0
  9
$SPLINETYPE
 70
     6
  9
$SPLINESEGS
 70
     8
  9
$ATTDIA
 70
     1
  9
$ATTREQ
 70
     1
  9
$HANDLING
 70
 12289
  9
$HANDSEED
  5
B81E
  9
$SURFTAB1
 70
     6
  9
$SURFTAB2
 70
     6
  9
$SURFTYPE
 70
     6
  9
$SURFU
 70
     6
  9
$SURFV
 70
     6
  9
$UCSNAME
  2

  9
$UCSORG
 10
0.0
 20
0.0
 30
0.0
  9
$UCSXDIR
 10
1.0
 20
0.0
 30
0.0
  9
$UCSYDIR
 10
0.0
 20
1.0
 30
0.0
  9
$PUCSNAME
  2

  9
$PUCSORG
 10
0.0
 20
0.0
 30
0.0
  9
$PUCSXDIR
 10
1.0
 20
0.0
 30
0.0
  9
$PUCSYDIR
 10
0.0
 20
1.0
 30
0.0
  9
$USERI1
 70
     0
  9
$USERI2
 70
     0
  9
$USERI3
 70
     0
  9
$USERI4
 70
     0
  9
$USERI5
 70
     0
  9
$USERR1
 40
0.0
  9
$USERR2
 40
0.0
  9
$USERR3
 40
0.0
  9
$USERR4
 40
0.0
  9
$USERR5
 40
0.0
  9
$WORLDVIEW
 70
     1
  9
$SHADEDGE
 70
     3
  9
$SHADEDIF
 70
    70
  9
$TILEMODE
 70
     1
  9
$MAXACTVP
 70
    64
  9
$PINSBASE
 10
0.0
 20
0.0
 30
0.0
  9
$PLIMCHECK
 70
     0
  9
$PEXTMIN
 10
1.000000000000000E+20
 20
1.000000000000000E+20
 30
1.000000000000000E+20
  9
$PEXTMAX
 10
-1.000000000000000E+20
 20
-1.000000000000000E+20
 30
-1.000000000000000E+20
  9
$PLIMMIN
 10
0.0
 20
0.0
  9
$PLIMMAX
 10
210.0
 20
297.0
  9
$UNITMODE
 70
     0
  9
$VISRETAIN
 70
     1
  9
$PLINEGEN
 70
     0
  9
$PSLTSCALE
 70
     1
  9
$TREEDEPTH
 70
  3020
  9
$PICKSTYLE
 70
     0
  9
$CMLSTYLE
  2
STANDARD
  9
$CMLJUST
 70
     0
  9
$CMLSCALE
 40
20.0
  9
$PROXYGRAPHICS
 70
     1
  9
$MEASUREMENT
 70
     1
  0
ENDSEC
  0
SECTION
  2
CLASSES
  0
CLASS
  1
ACDBDICTIONARYWDFLT
  2
AcDbDictionaryWithDefault
  3
AutoCAD 2000
 90
        0
280
     0
281
     0
  0
CLASS
  1
ACDBPLACEHOLDER
  2
AcDbPlaceHolder
  3
AutoCAD 2000
 90
        0
280
     0
281
     0
  0
CLASS
  1
LAYOUT
  2
AcDbLayout
  3
AutoCAD 2000
 90
        0
280
     0
281
     0
  0
CLASS
  1
AMGSETTINGSOBJ
  2
AmgSettingsObj
  3
"AcadM|Product Description: AutoCAD Mechanical 2000|Company: Autodesk"
 90
        0
280
     0
281
     0
  0
CLASS
  1
ACME_DOCUMENT
  2
AcMeDbDoc
  3
AcMeServices
 90
        0
280
     0
281
     0
  0
CLASS
  1
ACMESCOPE
  2
AcMeScope
  3
AcMeServices
 90
        0
280
     0
281
     0
  0
CLASS
  1
ACMECOMMANDHISTORY
  2
AcMeCommandHistory
  3
AcMeServices
 90
        0
280
     0
281
     0
  0
CLASS
  1
DICTIONARYVAR
  2
AcDbDictionaryVar
  3
AutoCAD 2000
 90
        0
280
     0
281
     0
  0
CLASS
  1
ACIMSYSVARMAN
  2
AcImSysVarManager
  3
AcMeServices
 90
        0
280
     0
281
     0
  0
CLASS
  1
ACIMREALSYSVAR
  2
AcImRealSysVar
  3
AcMeServices
 90
        0
280
     0
281
     0
  0
CLASS
  1
ACIMINTSYSVAR
  2
AcImIntSysVar
  3
AcMeServices
 90
        0
280
     0
281
     0
  0
CLASS
  1
ACMEDRAWINGMAN
  2
AcMeDrawingMan
  3
AcMeServices
 90
        0
280
     0
281
     0
  0
CLASS
  1
ACMEVIEW
  2
AcMeView
  3
AcMeServices
 90
        0
280
     0
281
     0
  0
CLASS
  1
ACDBENTITYCACHE
  2
AcMeEntityCache
  3
AcMeServices
 90
        0
280
     0
281
     0
  0
CLASS
  1
GSMANAGER
  2
AcMeGSManager
  3
AcMeServices
 90
        0
280
     0
281
     0
  0
CLASS
  1
AmdtInternalReactor
  2
AmdtInternalReactor
  3
AcMeServices
 90
        0
280
     0
281
     0
  0
CLASS
  1
ACMESTATEMGR
  2
AcMeStateMgr
  3
AcMeServices
 90
        0
280
     0
281
     0
  0
CLASS
  1
ACME_DATABASE
  2
AcMeDbDatabase
  3
AcMeServices
 90
        0
280
     0
281
     0
  0
CLASS
  1
ACRFINSADJUSTERMGR
  2
AcRfInsAdjusterMgr
  3
AcMeServices
 90
        0
280
     0
281
     0
  0
CLASS
  1
ACMDATADICTIONARY
  2
AcmDataDictionary
  3
"AcmSymBB|Product Description: AutoCAD Mechanical 2000|Company: Autodesk"
 90
        0
280
     0
281
     0
  0
CLASS
  1
ACMDATAENTRYBLOCK
  2
AcmDataEntryBlock
  3
"AcmSymBB|Product Description: AutoCAD Mechanical 2000|Company: Autodesk"
 90
        0
280
     0
281
     0
  0
CLASS
  1
AMGOBJPROPCFG
  2
AmgObjPropCfg
  3
"AmgLay|Product Description: AutoCAD Mechanical 2000|Company: Autodesk"
 90
        1
280
     0
281
     0
  0
CLASS
  1
ACAMGFILTERDAT
  2
AcAmgFilterDat
  3
"AcadM|Product Description: AutoCAD Mechanical 2000|Company: Autodesk"
 90
        0
280
     0
281
     0
  0
CLASS
  1
LAYER_INDEX
  2
AcDbLayerIndex
  3
AutoCAD 2000
 90
        0
280
     0
281
     0
  0
CLASS
  1
IDBUFFER
  2
AcDbIdBuffer
  3
AutoCAD 2000
 90
        0
280
     0
281
     0
  0
CLASS
  1
ACIMSTRSYSVAR
  2
AcImStrSysVar
  3
AcMeServices
 90
        0
280
     0
281
     0
  0
CLASS
  1
ACMSTANDARDJIS
  2
AcmStandardJIS
  3
"AcmSymBB|Product Description: AutoCAD Mechanical 2000|Company: Autodesk"
 90
        0
280
     0
281
     0
  0
CLASS
  1
ACMSURFSTANDARDJIS
  2
AcmSurfTextStdJIS
  3
"AcmSymBB|Product Description: AutoCAD Mechanical 2000|Company: Autodesk"
 90
        0
280
     0
281
     0
  0
CLASS
  1
ACMFCFSTANDARDJIS
  2
AcmFCFStdJIS
  3
"AcmSymBB|Product Description: AutoCAD Mechanical 2000|Company: Autodesk"
 90
        0
280
     0
281
     0
  0
CLASS
  1
ACMWELDSTANDARDJIS
  2
AcmWeldingStdJIS
  3
"AcmSymBB|Product Description: AutoCAD Mechanical 2000|Company: Autodesk"
 90
        0
280
     0
281
     0
  0
CLASS
  1
ACMIDSTANDARDJIS
  2
AcmIdStdJIS
  3
"AcmSymBB|Product Description: AutoCAD Mechanical 2000|Company: Autodesk"
 90
        0
280
     0
281
     0
  0
CLASS
  1
ACMDATUMSTANDARDJIS
  2
AcmDatumStdJIS
  3
"AcmSymBB|Product Description: AutoCAD Mechanical 2000|Company: Autodesk"
 90
        0
280
     0
281
     0
  0
CLASS
  1
ACMBOMSTANDARDJIS
  2
AcmBOMStdJIS
  3
"AcmSymBB|Product Description: AutoCAD Mechanical 2000|Company: Autodesk"
 90
        0
280
     0
281
     0
  0
CLASS
  1
ACMSTANDARDANSI
  2
AcmStandardANSI
  3
"AcmSymBB|Product Description: AutoCAD Mechanical 2000|Company: Autodesk"
 90
        0
280
     0
281
     0
  0
CLASS
  1
ACMSURFSTANDARDANSI
  2
AcmSurfTextStdANSI
  3
"AcmSymBB|Product Description: AutoCAD Mechanical 2000|Company: Autodesk"
 90
        0
280
     0
281
     0
  0
CLASS
  1
ACMFCFSTANDARDANSI
  2
AcmFCFStdANSI
  3
"AcmSymBB|Product Description: AutoCAD Mechanical 2000|Company: Autodesk"
 90
        0
280
     0
281
     0
  0
CLASS
  1
ACMWELDSTANDARDANSI
  2
AcmWeldingStdANSI
  3
"AcmSymBB|Product Description: AutoCAD Mechanical 2000|Company: Autodesk"
 90
        0
280
     0
281
     0
  0
CLASS
  1
ACMIDSTANDARDANSI
  2
AcmIdStdANSI
  3
"AcmSymBB|Product Description: AutoCAD Mechanical 2000|Company: Autodesk"
 90
        0
280
     0
281
     0
  0
CLASS
  1
ACMDATUMSTANDARDANSI
  2
AcmDatumStdANSI
  3
"AcmSymBB|Product Description: AutoCAD Mechanical 2000|Company: Autodesk"
 90
        0
280
     0
281
     0
  0
CLASS
  1
ACMBOMSTANDARDANSI
  2
AcmBOMStdANSI
  3
"AcmSymBB|Product Description: AutoCAD Mechanical 2000|Company: Autodesk"
 90
        0
280
     0
281
     0
  0
CLASS
  1
ACMSTANDARDBSI
  2
AcmStandardBSI
  3
"AcmSymBB|Product Description: AutoCAD Mechanical 2000|Company: Autodesk"
 90
        0
280
     0
281
     0
  0
CLASS
  1
ACMSURFSTANDARDBSI
  2
AcmSurfTextStdBSI
  3
"AcmSymBB|Product Description: AutoCAD Mechanical 2000|Company: Autodesk"
 90
        0
280
     0
281
     0
  0
CLASS
  1
ACMFCFSTANDARDBSI
  2
AcmFCFStdBSI
  3
"AcmSymBB|Product Description: AutoCAD Mechanical 2000|Company: Autodesk"
 90
        0
280
     0
281
     0
  0
CLASS
  1
ACMWELDSTANDARDBSI
  2
AcmWeldingStdBSI
  3
"AcmSymBB|Product Description: AutoCAD Mechanical 2000|Company: Autodesk"
 90
        0
280
     0
281
     0
  0
CLASS
  1
ACMIDSTANDARDBSI
  2
AcmIdStdBSI
  3
"AcmSymBB|Product Description: AutoCAD Mechanical 2000|Company: Autodesk"
 90
        0
280
     0
281
     0
  0
CLASS
  1
ACMDATUMSTANDARDBSI
  2
AcmDatumStdBSI
  3
"AcmSymBB|Product Description: AutoCAD Mechanical 2000|Company: Autodesk"
 90
        0
280
     0
281
     0
  0
CLASS
  1
ACMBOMSTANDARDBSI
  2
AcmBOMStdBSI
  3
"AcmSymBB|Product Description: AutoCAD Mechanical 2000|Company: Autodesk"
 90
        0
280
     0
281
     0
  0
CLASS
  1
LONG_TRANSACTION
  2
AcDbLongTransaction
  3
AutoCAD 2000
 90
        0
280
     0
281
     0
  0
CLASS
  1
LWPOLYLINE
  2
AcDbPolyline
  3
AutoCAD 2000
 90
        0
280
     0
281
     1
  0
CLASS
  1
HATCH
  2
AcDbHatch
  3
AutoCAD 2000
 90
        0
280
     0
281
     1
  0
CLASS
  1
XRECORD
  2
AcDbXrecord
  3
AutoCAD 2000
 90
        0
280
     0
281
     0
  0
ENDSEC
  0
SECTION
  2
TABLES
  0
TABLE
  2
VPORT
  5
8
330
0
100
AcDbSymbolTable
 70
     3
  0
VPORT
  5
B7E8
330
8
100
AcDbSymbolTableRecord
100
AcDbViewportTableRecord
  2
*ACTIVE
 70
     0
 10
0.0
 20
0.0
 11
1.0
 21
1.0
 12
-19.39853620982359
 22
-6.605967936374554
 13
0.0
 23
0.0
 14
2.5
 24
2.5
 15
10.0
 25
10.0
 16
0.0
 26
0.0
 36
1.0
 17
0.0
 27
0.0
 37
0.0
 40
52.87937613498752
 41
1.56570841889117
 42
50.0
 43
0.0
 44
0.0
 50
0.0
 51
0.0
 71
     0
 72
   100
 73
     1
 74
     3
 75
     0
 76
     0
 77
     0
 78
     0
  0
ENDTAB
  0
TABLE
  2
LTYPE
  5
5
330
0
100
AcDbSymbolTable
 70
    10
  0
LTYPE
  5
14
330
5
100
AcDbSymbolTableRecord
100
AcDbLinetypeTableRecord
  2
BYBLOCK
 70
     0
  3

 72
    65
 73
     0
 40
0.0
  0
LTYPE
  5
15
330
5
100
AcDbSymbolTableRecord
100
AcDbLinetypeTableRecord
  2
BYLAYER
 70
     0
  3

 72
    65
 73
     0
 40
0.0
  0
LTYPE
  5
16
330
5
100
AcDbSymbolTableRecord
100
AcDbLinetypeTableRecord
  2
CONTINUOUS
 70
     0
  3
Solid line
 72
    65
 73
     0
 40
0.0
  0
LTYPE
  5
4B
330
5
100
AcDbSymbolTableRecord
100
AcDbLinetypeTableRecord
  2
AM_ISO02W050
 70
     0
  3
__ __ __ __ __ __ __ __ __ __ __ __ __ __ __
 72
    65
 73
     2
 40
7.5
 49
6.0
 74
     0
 49
-1.5
 74
     0
  0
LTYPE
  5
4C
330
5
100
AcDbSymbolTableRecord
100
AcDbLinetypeTableRecord
  2
AM_ISO08W050
 70
     0
  3
____ . ____ . ____ . ____ . ____ . ____ . ____
 72
    65
 73
     4
 40
18.0
 49
12.0
 74
     0
 49
-1.5
 74
     0
 49
3.0
 74
     0
 49
-1.5
 74
     0
  0
LTYPE
  5
4D
330
5
100
AcDbSymbolTableRecord
100
AcDbLinetypeTableRecord
  2
AM_ISO09W050
 70
     0
  3
_____ . . _____ . . _____ . . ____ .. ____
 72
    65
 73
     6
 40
22.5
 49
12.0
 74
     0
 49
-1.5
 74
     0
 49
3.0
 74
     0
 49
-1.5
 74
     0
 49
3.0
 74
     0
 49
-1.5
 74
     0
  0
LTYPE
  5
4E
330
5
100
AcDbSymbolTableRecord
100
AcDbLinetypeTableRecord
  2
AMCONSTR
 70
     0
  3
_______________________
 72
    65
 73
     2
 40
9999.0
 49
9999.0
 74
     0
 49
0.0
 74
     0
  0
LTYPE
  5
4F
330
5
100
AcDbSymbolTableRecord
100
AcDbLinetypeTableRecord
  2
AM_ISO02W050X2
 70
     0
  3
 _ _ _ _ _ _ _ _ _ _ _ _
 72
    65
 73
     2
 40
3.75
 49
3.0
 74
     0
 49
-0.75
 74
     0
  0
LTYPE
  5
50
330
5
100
AcDbSymbolTableRecord
100
AcDbLinetypeTableRecord
  2
AM_ISO08W050X2
 70
     0
  3
__ . __ . __ . __ . __ . __
 72
    65
 73
     4
 40
9.0
 49
6.0
 74
     0
 49
-0.75
 74
     0
 49
1.5
 74
     0
 49
-0.75
 74
     0
  0
LTYPE
  5
53
330
5
100
AcDbSymbolTableRecord
100
AcDbLinetypeTableRecord
  2
AMZIGZAG
 70
     0
  3
/\/-/\/-/\/-/\/-/\/-/\/
 72
    65
 73
     2
 40
11.00009999999999
 49
0.0001
 74
     4
 75
   135
340
52
 46
0.04
 50
0.0
 44
0.0
 45
0.0
 49
-11.0
 74
     0
  0
LTYPE
  5
166
330
5
100
AcDbSymbolTableRecord
100
AcDbLinetypeTableRecord
  2
ACJISTGL
 70
     0
  3
_ _ _ _ _
 72
    65
 73
     2
 40
3.0
 49
2.0
 74
     0
 49
-1.0
 74
     0
  0
LTYPE
  5
26A
330
5
100
AcDbSymbolTableRecord
100
AcDbLinetypeTableRecord
  2
ACJISTGB
 70
     0
  3
__ . . __ . .
 72
    65
 73
     6
 40
9.0
 49
4.0
 74
     0
 49
-1.0
 74
     0
 49
1.0
 74
     0
 49
-1.0
 74
     0
 49
1.0
 74
     0
 49
-1.0
 74
     0
  0
ENDTAB
  0
TABLE
  2
LAYER
  5
2
330
0
100
AcDbSymbolTable
 70
     7
  0
LAYER
  5
10
330
2
100
AcDbSymbolTableRecord
100
AcDbLayerTableRecord
  2
0
 70
     0
 62
     7
  6
CONTINUOUS
  0
LAYER
  5
3F9
330
2
100
AcDbSymbolTableRecord
100
AcDbLayerTableRecord
  2
AM_0
 70
     0
 62
     7
  6
CONTINUOUS
  0
LAYER
  5
BDD
330
2
100
AcDbSymbolTableRecord
100
AcDbLayerTableRecord
  2
AM_11
 70
     0
 62
     3
  6
AM_ISO09W050
  0
LAYER
  5
BDE
330
2
100
AcDbSymbolTableRecord
100
AcDbLayerTableRecord
  2
AM_7
 70
     0
 62
     4
  6
AM_ISO08W050
  0
LAYER
  5
BDF
330
2
100
AcDbSymbolTableRecord
100
AcDbLayerTableRecord
  2
AM_5
 70
     0
 62
     3
  6
CONTINUOUS
  0
LAYER
  5
BE0
330
2
100
AcDbSymbolTableRecord
100
AcDbLayerTableRecord
  2
DEFPOINTS
 70
     0
 62
     7
  6
CONTINUOUS
  0
LAYER
  5
14FF
330
2
100
AcDbSymbolTableRecord
100
AcDbLayerTableRecord
  2
AM_6
 70
     0
 62
     2
  6
CONTINUOUS
  0
ENDTAB
  0
TABLE
  2
STYLE
  5
3
330
0
100
AcDbSymbolTable
 70
     5
  0
STYLE
  5
11
330
3
100
AcDbSymbolTableRecord
100
AcDbTextStyleTableRecord
  2
STANDARD
 70
     0
 40
0.0
 41
1.0
 50
0.0
 71
     0
 42
2.5
  3
simplex.shx
  4
EXTFONT.SHX
  0
STYLE
  5
52
330
3
100
AcDbSymbolTableRecord
100
AcDbTextStyleTableRecord
  2

 70
     1
 40
0.0
 41
1.0
 50
0.0
 71
     0
 42
2.5
  3
ltypeshp.shx
  4

  0
STYLE
  5
6B
330
3
100
AcDbSymbolTableRecord
100
AcDbTextStyleTableRecord
  2
ASAMI
 70
     0
 40
0.0
 41
1.0
 50
0.0
 71
     0
 42
2.5
  3
simplex.shx
  4
EXTFONT.SHX
  0
STYLE
  5
262
330
3
100
AcDbSymbolTableRecord
100
AcDbTextStyleTableRecord
  2
ACJISTS
 70
     0
 40
1.0
 41
1.0
 50
0.0
 71
     0
 42
2.5
  3
simplex.shx
  4
bigfont.shx
  0
STYLE
  5
269
330
3
100
AcDbSymbolTableRecord
100
AcDbTextStyleTableRecord
  2
ACJISGDT
 70
     0
 40
0.0
 41
1.0
 50
0.0
 71
     0
 42
2.5
  3
amgdtans.shx
  4

  0
ENDTAB
  0
TABLE
  2
VIEW
  5
6
330
0
100
AcDbSymbolTable
 70
     0
  0
ENDTAB
  0
TABLE
  2
UCS
  5
7
330
0
100
AcDbSymbolTable
 70
     0
  0
ENDTAB
  0
TABLE
  2
APPID
  5
9
330
0
100
AcDbSymbolTable
 70
    13
  0
APPID
  5
12
330
9
100
AcDbSymbolTableRecord
100
AcDbRegAppTableRecord
  2
ACAD
 70
     0
  0
APPID
  5
30
330
9
100
AcDbSymbolTableRecord
100
AcDbRegAppTableRecord
  2
MCAD_NO_VIS
 70
     0
  0
APPID
  5
31
330
9
100
AcDbSymbolTableRecord
100
AcDbRegAppTableRecord
  2
ACAD_TEMP_GRAPHIC
 70
     0
  0
APPID
  5
2C2
330
9
100
AcDbSymbolTableRecord
100
AcDbRegAppTableRecord
  2
GENIUS_GENDTOL_13
 70
     0
  0
APPID
  5
339
330
9
100
AcDbSymbolTableRecord
100
AcDbRegAppTableRecord
  2
GENIUS_GENODEF_13
 70
     0
  0
APPID
  5
33A
330
9
100
AcDbSymbolTableRecord
100
AcDbRegAppTableRecord
  2
GENIUS_GENOBJ-N-RSBK_13
 70
     0
  0
APPID
  5
33B
330
9
100
AcDbSymbolTableRecord
100
AcDbRegAppTableRecord
  2
GENIUS_GENOBJ-N-LIB_13
 70
     0
  0
APPID
  5
33C
330
9
100
AcDbSymbolTableRecord
100
AcDbRegAppTableRecord
  2
GENIUS_GENSCALE_13
 70
     0
  0
APPID
  5
378
330
9
100
AcDbSymbolTableRecord
100
AcDbRegAppTableRecord
  2
GENIUS_GENDIMSH_14
 70
     0
  0
APPID
  5
BE1
330
9
100
AcDbSymbolTableRecord
100
AcDbRegAppTableRecord
  2
GENIUS_GENFIL_13
 70
     0
  0
APPID
  5
BE2
330
9
100
AcDbSymbolTableRecord
100
AcDbRegAppTableRecord
  2
GENIUS_GENOBJ-N-CHA_13
 70
     0
  0
APPID
  5
151B
330
9
100
AcDbSymbolTableRecord
100
AcDbRegAppTableRecord
  2
DCO15
 70
     0
  0
APPID
  5
1860
330
9
100
AcDbSymbolTableRecord
100
AcDbRegAppTableRecord
  2
GENIUS_GENOBJ-N-CEN_13
 70
     0
  0
ENDTAB
  0
TABLE
  2
DIMSTYLE
  5
A
330
0
100
AcDbSymbolTable
 70
     8
  0
DIMSTYLE
105
58
102
{ACAD_REACTORS
330
A215
330
A2A1
330
AA32
330
A391
102
}
330
A
100
AcDbSymbolTableRecord
100
AcDbDimStyleTableRecord
  2
AM_JIS
 70
     0
  3

  4
"
  5
OPEN30
  6

  7

 40
0.5
 41
2.5
 42
1.0
 43
12.0
 44
1.0
 45
0.0
 46
0.0
 47
0.1
 48
0.1
140
3.2
141
0.0
142
0.0
143
0.0393701
144
1.0
145
0.0
146
0.71
147
1.5
 71
     0
 72
     0
 73
     0
 74
     0
 75
     0
 76
     0
 77
     3
 78
     8
170
     0
171
     2
172
     1
173
     0
174
     0
175
     0
176
   256
177
   256
178
     2
270
     2
271
     3
272
     3
273
     2
274
     2
340
6B
275
     0
280
     0
281
     0
282
     0
283
     0
284
     0
285
     0
286
     0
287
     3
288
     0
  0
DIMSTYLE
105
5F
330
A
100
AcDbSymbolTableRecord
100
AcDbDimStyleTableRecord
  2
AM_JIS$3
 70
     0
  3

  4
"
  5
OPEN30
  6

  7

 40
0.5
 41
2.5
 42
1.0
 43
10.0
 44
1.0
 45
0.0
 46
0.0
 47
0.1
 48
0.1
140
3.2
141
0.0
142
0.0
143
0.0393701
144
1.0
145
0.0
146
0.71
147
1.5
 71
     0
 72
     0
 73
     0
 74
     1
 75
     0
 76
     0
 77
     3
 78
     8
170
     0
171
     2
172
     0
173
     0
174
     0
175
     0
176
   256
177
   256
178
     2
270
     2
271
     2
272
     3
273
     2
274
     2
340
6B
275
     0
280
     0
281
     0
282
     0
283
     0
284
     0
285
     0
286
     0
287
     0
288
     1
  0
DIMSTYLE
105
60
330
A
100
AcDbSymbolTableRecord
100
AcDbDimStyleTableRecord
  2
AM_JIS$4
 70
     0
  3

  4
"
  5
OPEN30
  6

  7

 40
0.5
 41
2.5
 42
1.0
 43
10.0
 44
1.0
 45
0.0
 46
0.0
 47
0.1
 48
0.1
140
3.2
141
0.0
142
0.0
143
0.0393701
144
1.0
145
0.0
146
0.71
147
1.5
 71
     0
 72
     0
 73
     0
 74
     1
 75
     0
 76
     0
 77
     3
 78
     8
170
     0
171
     2
172
     0
173
     0
174
     0
175
     0
176
   256
177
   256
178
     2
270
     2
271
     2
272
     3
273
     2
274
     2
340
6B
275
     0
280
     0
281
     0
282
     0
283
     0
284
     0
285
     0
286
     0
287
     0
288
     1
  0
DIMSTYLE
105
61
330
A
100
AcDbSymbolTableRecord
100
AcDbDimStyleTableRecord
  2
AM_JIS$6
 70
     0
  3

  4
"
  5
OPEN30
  6

  7

 40
0.5
 41
2.5
 42
1.0
 43
10.0
 44
1.0
 45
0.0
 46
0.0
 47
0.1
 48
0.1
140
3.2
141
0.0
142
0.0
143
0.0393701
144
1.0
145
0.0
146
0.71
147
1.5
 71
     0
 72
     0
 73
     0
 74
     0
 75
     0
 76
     0
 77
     0
 78
     8
170
     0
171
     2
172
     1
173
     0
174
     0
175
     0
176
   256
177
   256
178
     2
270
     2
271
     2
272
     2
273
     2
274
     2
340
6B
275
     0
280
     0
281
     0
282
     0
283
     0
284
     0
285
     0
286
     0
287
     3
288
     0
  0
DIMSTYLE
105
62
330
A
100
AcDbSymbolTableRecord
100
AcDbDimStyleTableRecord
  2
AM_JIS$7
 70
     0
  3

  4
"
  5
OPEN30
  6

  7

 40
0.5
 41
2.5
 42
1.0
 43
10.0
 44
1.0
 45
0.0
 46
0.0
 47
0.1
 48
0.1
140
3.2
141
0.0
142
0.0
143
0.0393701
144
1.0
145
0.0
146
0.71
147
1.5
 71
     0
 72
     0
 73
     0
 74
     0
 75
     0
 76
     0
 77
     3
 78
     8
170
     0
171
     2
172
     1
173
     0
174
     0
175
     0
176
   256
177
   256
178
     2
270
     2
271
     2
272
     3
273
     2
274
     2
340
6B
275
     0
280
     0
281
     0
282
     0
283
     0
284
     0
285
     0
286
     0
287
     3
288
     0
  0
DIMSTYLE
105
63
330
A
100
AcDbSymbolTableRecord
100
AcDbDimStyleTableRecord
  2
AM_JIS$SF
 70
     0
  3

  4
"
  5
OPEN30
  6

  7

 40
0.5
 41
2.5
 42
1.0
 43
10.0
 44
1.0
 45
0.0
 46
0.0
 47
0.1
 48
0.1
140
3.2
141
0.0
142
0.0
143
0.0393701
144
1.0
145
0.0
146
0.71
147
1.5
 71
     0
 72
     0
 73
     0
 74
     0
 75
     1
 76
     1
 77
     3
 78
     8
170
     0
171
     2
172
     1
173
     0
174
     0
175
     0
176
   256
177
   256
178
     2
270
     2
271
     2
272
     2
273
     2
274
     2
340
6B
275
     0
280
     0
281
     0
282
     0
283
     0
284
     0
285
     0
286
     0
287
     3
288
     0
  0
DIMSTYLE
105
68
330
A
100
AcDbSymbolTableRecord
100
AcDbDimStyleTableRecord
  2
AM_JIS$SH
 70
     0
  3

  4
"
  5

  6
GENAXEH
  7
OPEN30
 40
0.5
 41
2.5
 42
1.0
 43
10.0
 44
1.0
 45
0.0
 46
0.0
 47
0.1
 48
0.1
140
3.2
141
0.0
142
0.0
143
0.0393701
144
2.0
145
0.0
146
0.71
147
1.5
 71
     0
 72
     0
 73
     0
 74
     0
 75
     1
 76
     1
 77
     3
 78
     8
170
     0
171
     2
172
     1
173
     1
174
     0
175
     0
176
   256
177
   256
178
     2
270
     2
271
     2
272
     2
273
     2
274
     2
340
6B
275
     0
280
     0
281
     0
282
     0
283
     0
284
     0
285
     0
286
     0
287
     3
288
     0
  0
DIMSTYLE
105
B34
330
A
100
AcDbSymbolTableRecord
100
AcDbDimStyleTableRecord
  2
AM_JIS$2
 70
     0
  3

  4
"
  5
OPEN30
  6

  7

 40
0.5
 41
2.5
 42
1.0
 43
12.0
 44
1.0
 45
0.0
 46
0.0
 47
0.1
 48
0.1
140
3.2
141
0.0
142
0.0
143
0.0393701
144
1.0
145
0.0
146
0.71
147
1.5
 71
     0
 72
     0
 73
     0
 74
     0
 75
     0
 76
     0
 77
     3
 78
     8
170
     0
171
     2
172
     1
173
     0
174
     0
175
     0
176
   256
177
   256
178
     2
270
     2
271
     3
272
     3
273
     2
274
     2
340
6B
275
     0
280
     0
281
     0
282
     0
283
     0
284
     0
285
     0
286
     0
287
     3
288
     0
  0
ENDTAB
  0
TABLE
  2
BLOCK_RECORD
  5
1
330
0
100
AcDbSymbolTable
 70
     9
  0
BLOCK_RECORD
  5
1F
102
{ACAD_XDICTIONARY
360
74
102
}
330
1
100
AcDbSymbolTableRecord
100
AcDbBlockTableRecord
  2
*MODEL_SPACE
  0
BLOCK_RECORD
  5
1B
102
{ACAD_XDICTIONARY
360
B80A
102
}
330
1
100
AcDbSymbolTableRecord
100
AcDbBlockTableRecord
  2
*PAPER_SPACE
  0
BLOCK_RECORD
  5
59
330
1
100
AcDbSymbolTableRecord
100
AcDbBlockTableRecord
  2
_OPEN30
  0
BLOCK_RECORD
  5
64
330
1
100
AcDbSymbolTableRecord
100
AcDbBlockTableRecord
  2
GENAXEH
  0
BLOCK_RECORD
  5
A216
330
1
100
AcDbSymbolTableRecord
100
AcDbBlockTableRecord
  2
*D5
  0
BLOCK_RECORD
  5
A2A2
330
1
100
AcDbSymbolTableRecord
100
AcDbBlockTableRecord
  2
*D6
  0
BLOCK_RECORD
  5
A392
330
1
100
AcDbSymbolTableRecord
100
AcDbBlockTableRecord
  2
*D7
  0
BLOCK_RECORD
  5
AA33
330
1
100
AcDbSymbolTableRecord
100
AcDbBlockTableRecord
  2
*D8
  0
ENDTAB
  0
ENDSEC
  0
SECTION
  2
BLOCKS
  0
BLOCK
  5
20
330
1F
100
AcDbEntity
  8
0
100
AcDbBlockBegin
  2
*MODEL_SPACE
 70
     0
 10
0.0
 20
0.0
 30
0.0
  3
*MODEL_SPACE
  1

  0
ENDBLK
  5
21
330
1F
100
AcDbEntity
  8
0
100
AcDbBlockEnd
  0
BLOCK
  5
1C
330
1B
100
AcDbEntity
 67
     1
  8
0
100
AcDbBlockBegin
  2
*PAPER_SPACE
 70
     0
 10
0.0
 20
0.0
 30
0.0
  3
*PAPER_SPACE
  1

  0
ENDBLK
  5
1D
330
1B
100
AcDbEntity
 67
     1
  8
0
100
AcDbBlockEnd
  0
BLOCK
  5
5D
330
59
100
AcDbEntity
  8
0
100
AcDbBlockBegin
  2
_OPEN30
 70
     0
 10
0.0
 20
0.0
 30
0.0
  3
_OPEN30
  1

  0
LINE
  5
5A
330
59
100
AcDbEntity
  8
0
 62
     0
100
AcDbLine
 10
-1.0
 20
0.26794919
 30
0.0
 11
0.0
 21
0.0
 31
0.0
  0
LINE
  5
5B
330
59
100
AcDbEntity
  8
0
 62
     0
100
AcDbLine
 10
0.0
 20
0.0
 30
0.0
 11
-1.0
 21
-0.26794919
 31
0.0
  0
LINE
  5
5C
330
59
100
AcDbEntity
  8
0
 62
     0
100
AcDbLine
 10
0.0
 20
0.0
 30
0.0
 11
-1.0
 21
0.0
 31
0.0
  0
ENDBLK
  5
5E
330
59
100
AcDbEntity
  8
0
100
AcDbBlockEnd
  0
BLOCK
  5
66
330
64
100
AcDbEntity
  8
0
100
AcDbBlockBegin
  2
GENAXEH
 70
     0
 10
0.0
 20
0.0
 30
0.0
  3
GENAXEH
  1

  0
LINE
  5
65
330
64
100
AcDbEntity
  8
0
100
AcDbLine
 10
-1.0
 20
0.0
 30
0.0
 11
1.0
 21
0.0
 31
0.0
  0
ENDBLK
  5
67
330
64
100
AcDbEntity
  8
0
100
AcDbBlockEnd
  0
BLOCK
  5
A220
330
A216
100
AcDbEntity
  8
0
100
AcDbBlockBegin
  2
*D5
 70
     1
 10
0.0
 20
0.0
 30
0.0
  3
*D5
  1

  0
LINE
  5
B775
330
A216
100
AcDbEntity
  8
AM_5
100
AcDbLine
 10
0.0000000000000057
 20
-2.499999999999996
 30
0.0
 11
0.0000000000000048
 21
-16.50000100000014
 31
0.0
  0
LINE
  5
B776
330
A216
100
AcDbEntity
  8
AM_5
100
AcDbLine
 10
-44.99999999999999
 20
-3.000000000000063
 30
0.0
 11
-44.99999999999999
 21
-16.50000100000014
 31
0.0
  0
LINE
  5
B777
330
A216
100
AcDbEntity
  8
AM_5
100
AcDbLine
 10
-1.249999999999995
 20
-16.00000100000014
 30
0.0
 11
-43.74999999999999
 21
-16.00000100000014
 31
0.0
  0
INSERT
  5
B778
330
A216
100
AcDbEntity
  8
AM_5
100
AcDbBlockReference
  2
_OPEN30
 10
0.0000000000000049
 20
-16.00000100000014
 30
0.0
 41
1.25
 42
1.25
 43
1.25
  0
INSERT
  5
B779
330
A216
100
AcDbEntity
  8
AM_5
100
AcDbBlockReference
  2
_OPEN30
 10
-44.99999999999999
 20
-16.00000100000014
 30
0.0
 41
1.25
 42
1.25
 43
1.25
 50
180.0
  0
MTEXT
  5
B77A
330
A216
100
AcDbEntity
  8
AM_5
 62
     2
100
AcDbMText
 10
-22.49999999999999
 20
-14.45000100000014
 30
0.0
 40
1.6
 41
0.0
 71
     5
 72
     1
  1
45
  7
ASAMI
1001
ACAD
1000
MTEXTBEGIN
1070
    73
1070
     1
1070
    44
1040
1.0
1070
    74
1070
     0
1000
MTEXTEND
  0
POINT
  5
B77B
330
A216
100
AcDbEntity
  8
DEFPOINTS
 62
     0
100
AcDbPoint
 10
0.0000000000000057
 20
-1.999999999999996
 30
0.0
  0
POINT
  5
B77C
330
A216
100
AcDbEntity
  8
DEFPOINTS
 62
     0
100
AcDbPoint
 10
-44.99999999999999
 20
-2.500000000000063
 30
0.0
  0
POINT
  5
B77D
330
A216
100
AcDbEntity
  8
DEFPOINTS
 62
     0
100
AcDbPoint
 10
-44.99999999999999
 20
-16.00000100000014
 30
0.0
  0
ENDBLK
  5
A221
330
A216
100
AcDbEntity
  8
0
100
AcDbBlockEnd
  0
BLOCK
  5
A2AC
330
A2A2
100
AcDbEntity
  8
0
100
AcDbBlockBegin
  2
*D6
 70
     1
 10
0.0
 20
0.0
 30
0.0
  3
*D6
  1

  0
LINE
  5
B76C
330
A2A2
100
AcDbEntity
  8
AM_5
100
AcDbLine
 10
0.0000000000000057
 20
-2.499999999999996
 30
0.0
 11
0.0000000000000052
 21
-10.50000100000004
 31
0.0
  0
LINE
  5
B76D
330
A2A2
100
AcDbEntity
  8
AM_5
100
AcDbLine
 10
-12.0000000000001
 20
-2.500000000000002
 30
0.0
 11
-12.0000000000001
 21
-10.50000100000004
 31
0.0
  0
LINE
  5
B76E
330
A2A2
100
AcDbEntity
  8
AM_5
100
AcDbLine
 10
-1.249999999999994
 20
-10.00000100000004
 30
0.0
 11
-10.7500000000001
 21
-10.00000100000004
 31
0.0
  0
INSERT
  5
B76F
330
A2A2
100
AcDbEntity
  8
AM_5
100
AcDbBlockReference
  2
_OPEN30
 10
0.0000000000000052
 20
-10.00000100000004
 30
0.0
 41
1.25
 42
1.25
 43
1.25
  0
INSERT
  5
B770
330
A2A2
100
AcDbEntity
  8
AM_5
100
AcDbBlockReference
  2
_OPEN30
 10
-12.0000000000001
 20
-10.00000100000004
 30
0.0
 41
1.25
 42
1.25
 43
1.25
 50
180.0
  0
MTEXT
  5
B771
330
A2A2
100
AcDbEntity
  8
AM_5
 62
     2
100
AcDbMText
 10
-6.000000000000049
 20
-8.450001000000042
 30
0.0
 40
1.6
 41
0.0
 71
     5
 72
     1
  1
12
  7
ASAMI
1001
ACAD
1000
MTEXTBEGIN
1070
    73
1070
     1
1070
    44
1040
1.0
1070
    74
1070
     0
1000
MTEXTEND
  0
POINT
  5
B772
330
A2A2
100
AcDbEntity
  8
DEFPOINTS
 62
     0
100
AcDbPoint
 10
0.0000000000000057
 20
-1.999999999999996
 30
0.0
  0
POINT
  5
B773
330
A2A2
100
AcDbEntity
  8
DEFPOINTS
 62
     0
100
AcDbPoint
 10
-12.0000000000001
 20
-2.000000000000002
 30
0.0
  0
POINT
  5
B774
330
A2A2
100
AcDbEntity
  8
DEFPOINTS
 62
     0
100
AcDbPoint
 10
-12.0000000000001
 20
-10.00000100000004
 30
0.0
  0
ENDBLK
  5
A2AD
330
A2A2
100
AcDbEntity
  8
0
100
AcDbBlockEnd
  0
BLOCK
  5
A39C
330
A392
100
AcDbEntity
  8
0
100
AcDbBlockBegin
  2
*D7
 70
     1
 10
0.0
 20
0.0
 30
0.0
  3
*D7
  1

  0
LINE
  5
B813
330
A392
100
AcDbEntity
  8
AM_5
100
AcDbLine
 10
0.4999999999989566
 20
2.0
 30
0.0
 11
12.05776903085517
 21
1.999999999999996
 31
0.0
  0
LINE
  5
B814
330
A392
100
AcDbEntity
  8
AM_5
100
AcDbLine
 10
0.4999999999998959
 20
-2.0
 30
0.0
 11
12.05776903085517
 21
-2.000000000000003
 31
0.0
  0
LINE
  5
B815
330
A392
100
AcDbEntity
  8
AM_5
100
AcDbLine
 10
11.55776903085517
 20
3.249999999999996
 30
0.0
 11
11.55776903085518
 21
4.499999999999996
 31
0.0
  0
LINE
  5
B816
330
A392
100
AcDbEntity
  8
AM_5
100
AcDbLine
 10
11.55776903085517
 20
-3.250000000000003
 30
0.0
 11
11.55776903085517
 21
-4.500000000000003
 31
0.0
  0
MTEXT
  5
B817
330
A392
100
AcDbEntity
  8
AM_5
 62
     2
100
AcDbMText
 10
10.50843968880249
 20
0.1067248667470437
 30
0.0
 40
1.6
 41
0.0
 71
     5
 72
     1
  1
%%c4
  7
ASAMI
 11
0.0000000000000001
 21
1.0
 31
0.0
  0
LINE
  5
B818
330
A392
100
AcDbEntity
  8
AM_5
100
AcDbLine
 10
11.55776903085517
 20
1.999999999999996
 30
0.0
 11
11.55776903085517
 21
-2.000000000000003
 31
0.0
  0
INSERT
  5
B819
330
A392
100
AcDbEntity
  8
AM_5
100
AcDbBlockReference
  2
_OPEN30
 10
11.55776903085517
 20
1.999999999999996
 30
0.0
 41
1.25
 42
1.25
 43
1.25
 50
270.0
  0
INSERT
  5
B81A
330
A392
100
AcDbEntity
  8
AM_5
100
AcDbBlockReference
  2
_OPEN30
 10
11.55776903085517
 20
-2.000000000000003
 30
0.0
 41
1.25
 42
1.25
 43
1.25
 50
90.0
  0
POINT
  5
B81B
330
A392
100
AcDbEntity
  8
DEFPOINTS
 62
     0
100
AcDbPoint
 10
-0.0000000000010434
 20
2.0
 30
0.0
  0
POINT
  5
B81C
330
A392
100
AcDbEntity
  8
DEFPOINTS
 62
     0
100
AcDbPoint
 10
-0.0000000000001042
 20
-2.0
 30
0.0
  0
POINT
  5
B81D
330
A392
100
AcDbEntity
  8
DEFPOINTS
 62
     0
100
AcDbPoint
 10
11.55776903085517
 20
-2.000000000000003
 30
0.0
  0
ENDBLK
  5
A39D
330
A392
100
AcDbEntity
  8
0
100
AcDbBlockEnd
  0
BLOCK
  5
AA3D
330
AA33
100
AcDbEntity
  8
0
100
AcDbBlockBegin
  2
*D8
 70
     1
 10
0.0
 20
0.0
 30
0.0
  3
*D8
  1

  0
LINE
  5
AD0C
330
AA33
100
AcDbEntity
  8
AM_5
100
AcDbLine
 10
-45.0
 20
2.999999999999932
 30
0.0
 11
-55.81099700121462
 21
2.999999999999936
 31
0.0
  0
LINE
  5
AD0D
330
AA33
100
AcDbEntity
  8
AM_5
100
AcDbLine
 10
-45.0
 20
-3.000000000000063
 30
0.0
 11
-55.81099700121462
 21
-3.000000000000059
 31
0.0
  0
LINE
  5
AD0E
330
AA33
100
AcDbEntity
  8
AM_5
100
AcDbLine
 10
-55.31099700121462
 20
1.749999999999935
 30
0.0
 11
-55.31099700121462
 21
-1.75000000000006
 31
0.0
  0
INSERT
  5
AD0F
330
AA33
100
AcDbEntity
  8
AM_5
100
AcDbBlockReference
  2
_OPEN30
 10
-55.31099700121462
 20
2.999999999999935
 30
0.0
 41
1.25
 42
1.25
 43
1.25
 50
90.0
  0
INSERT
  5
AD10
330
AA33
100
AcDbEntity
  8
AM_5
100
AcDbBlockReference
  2
_OPEN30
 10
-55.31099700121462
 20
-3.000000000000059
 30
0.0
 41
1.25
 42
1.25
 43
1.25
 50
270.0
  0
MTEXT
  5
AD11
330
AA33
100
AcDbEntity
  8
AM_5
 62
     2
100
AcDbMText
 10
-56.86099700121461
 20
-0.000000000000071
 30
0.0
 40
1.6
 41
0.0
 71
     5
 72
     1
  1
%%c6
  7
ASAMI
 11
0.0000000000000001
 21
1.0
 31
0.0
1001
ACAD
1000
MTEXTBEGIN
1070
    73
1070
     1
1070
    44
1040
1.0
1070
    74
1070
     0
1000
MTEXTEND
  0
POINT
  5
AD12
330
AA33
100
AcDbEntity
  8
DEFPOINTS
 62
     0
100
AcDbPoint
 10
-44.5
 20
2.999999999999932
 30
0.0
  0
POINT
  5
AD13
330
AA33
100
AcDbEntity
  8
DEFPOINTS
 62
     0
100
AcDbPoint
 10
-44.5
 20
-3.000000000000063
 30
0.0
  0
POINT
  5
AD14
330
AA33
100
AcDbEntity
  8
DEFPOINTS
 62
     0
100
AcDbPoint
 10
-55.31099700121462
 20
-3.000000000000059
 30
0.0
  0
ENDBLK
  5
AA3E
330
AA33
100
AcDbEntity
  8
0
100
AcDbBlockEnd
  0
ENDSEC
  0
SECTION
  2
ENTITIES
  0
TEXT
  5
1500
330
1F
100
AcDbEntity
  8
AM_6
100
AcDbText
 10
-33.2142857142857
 20
-27.25000100000014
 30
0.0
 40
2.5
  1
USM4040ZX
 72
     4
 11
-22.49999999999998
 21
-26.00000100000014
 31
0.0
100
AcDbText
  0
LINE
  5
9FF0
330
1F
100
AcDbEntity
  8
AM_7
  6
AM_ISO08W050X2
100
AcDbLine
 10
4.557768030855186
 20
0.0
 30
0.0
 11
-48.31099600121461
 21
-0.0000000000000568
 31
0.0
1001
GENIUS_GENODEF_13
1002
{
1000
HIER
1070
     0
1002
}
1002
{
1000
MANEDIT
1070
     0
1002
}
1002
{
1000
NOSEL
1070
     0
1002
}
1002
{
1000
BEHIND
1070
     0
1002
}
1002
{
1000
REACTOR
1002
}
1001
GENIUS_GENOBJ-N-CEN_13
1002
{
1000
OWNER
1000
GEN
1002
}
  0
DIMENSION
  5
A215
330
1F
100
AcDbEntity
  8
AM_5
100
AcDbDimension
  2
*D5
 10
-44.99999999999999
 20
-16.00000100000014
 30
0.0
 11
-22.49999999999999
 21
-14.45000100000014
 31
0.0
 70
    32
  1
<>
  3
AM_JIS
100
AcDbAlignedDimension
 13
0.0000000000000057
 23
-1.999999999999996
 33
0.0
 14
-44.99999999999999
 24
-2.500000000000063
 34
0.0
 50
0.0000000000001641
100
AcDbRotatedDimension
1001
GENIUS_GENDTOL_13
1000

1000
h7
1000

1040
0.0
  0
DIMENSION
  5
A2A1
330
1F
100
AcDbEntity
  8
AM_5
100
AcDbDimension
  2
*D6
 10
-12.0000000000001
 20
-10.00000100000004
 30
0.0
 11
-6.000000000000049
 21
-8.450001000000042
 31
0.0
 70
    32
  1
<>
  3
AM_JIS
100
AcDbAlignedDimension
 13
0.0000000000000057
 23
-1.999999999999996
 33
0.0
 14
-12.0000000000001
 24
-2.000000000000002
 34
0.0
 50
0.0000000000001641
100
AcDbRotatedDimension
1001
GENIUS_GENDTOL_13
1000

1000
h7
1000

1040
0.0
  0
DIMENSION
  5
A391
330
1F
100
AcDbEntity
  8
AM_5
100
AcDbDimension
  2
*D7
 10
11.55776903085517
 20
-2.000000000000003
 30
0.0
 11
10.50843968880249
 21
0.1067248667470437
 31
0.0
 70
   160
  1
%%c<>
  3
AM_JIS
100
AcDbAlignedDimension
 13
-0.0000000000010434
 23
2.0
 33
0.0
 14
-0.0000000000001042
 24
-2.0
 34
0.0
 50
90.00000000000003
100
AcDbRotatedDimension
1001
GENIUS_GENDTOL_13
1000

1000
h7
1000

1040
0.0
1001
ACAD
1000
DSTYLE
1002
{
1070
   287
1070
     5
1070
   279
1070
     2
1002
}
  0
LINE
  5
AA2E
330
1F
100
AcDbEntity
  8
AM_0
100
AcDbLine
 10
-19.49999999999999
 20
-3.000000000000033
 30
0.0
 11
-44.49999999999999
 21
-3.000000000000063
 31
0.0
  0
LINE
  5
AA30
330
1F
100
AcDbEntity
  8
AM_0
100
AcDbLine
 10
-45.0
 20
2.499999999999931
 30
0.0
 11
-44.99999999999999
 21
-2.500000000000063
 31
0.0
  0
LINE
  5
AA31
330
1F
100
AcDbEntity
  8
AM_0
100
AcDbLine
 10
-44.5
 20
2.999999999999932
 30
0.0
 11
-44.5
 21
-3.000000000000063
 31
0.0
  0
DIMENSION
  5
AA32
330
1F
100
AcDbEntity
  8
AM_5
100
AcDbDimension
  2
*D8
 10
-55.31099700121462
 20
-3.000000000000059
 30
0.0
 11
-56.86099700121461
 21
-0.000000000000071
 31
0.0
 70
    32
  1
%%c<>
  3
AM_JIS
100
AcDbAlignedDimension
 13
-44.5
 23
2.999999999999932
 33
0.0
 14
-44.5
 24
-3.000000000000063
 34
0.0
 50
270.0
100
AcDbRotatedDimension
1001
GENIUS_GENDTOL_13
1000

1000
h7
1000

1040
0.0
  0
LINE
  5
AA3F
330
1F
100
AcDbEntity
  8
AM_0
100
AcDbLine
 10
-19.5
 20
2.999999999999962
 30
0.0
 11
-44.5
 21
2.999999999999932
 31
0.0
  0
LINE
  5
AA4B
330
1F
100
AcDbEntity
  8
AM_0
100
AcDbLine
 10
-44.5
 20
2.999999999999932
 30
0.0
 11
-45.0
 21
2.499999999999931
 31
0.0
1001
GENIUS_GENFIL_13
1070
     0
1040
0.5
1040
0.5
1040
20.0
1040
0.0
1002
{
1002
}
1001
GENIUS_GENODEF_13
1002
{
1000
HIER
1070
     0
1002
}
1002
{
1000
MANEDIT
1070
     0
1002
}
1002
{
1000
NOSEL
1070
     0
1002
}
1002
{
1000
BEHIND
1070
     0
1002
}
1002
{
1000
REACTOR
1002
}
1001
GENIUS_GENOBJ-N-CHA_13
1002
{
1000
OWNER
1000
GEN
1002
}
  0
LINE
  5
AA4E
330
1F
100
AcDbEntity
  8
AM_0
100
AcDbLine
 10
-44.99999999999999
 20
-2.500000000000063
 30
0.0
 11
-44.49999999999999
 21
-3.000000000000063
 31
0.0
1001
GENIUS_GENFIL_13
1070
     0
1040
0.5
1040
0.5
1040
20.0
1040
0.0
1002
{
1002
}
1001
GENIUS_GENODEF_13
1002
{
1000
HIER
1070
     0
1002
}
1002
{
1000
MANEDIT
1070
     0
1002
}
1002
{
1000
NOSEL
1070
     0
1002
}
1002
{
1000
BEHIND
1070
     0
1002
}
1002
{
1000
REACTOR
1002
}
1001
GENIUS_GENOBJ-N-CHA_13
1002
{
1000
OWNER
1000
GEN
1002
}
  0
LINE
  5
B0F2
330
1F
100
AcDbEntity
  8
AM_0
100
AcDbLine
 10
-19.5
 20
2.999999999999963
 30
0.0
 11
-19.49999999999999
 21
-3.000000000000033
 31
0.0
  0
LINE
  5
B10A
330
1F
100
AcDbEntity
  8
AM_0
100
AcDbLine
 10
-15.76794919243107
 20
1.999999999999952
 30
0.0
 11
-19.5
 21
2.999999999999963
 31
0.0
  0
LINE
  5
B308
330
1F
100
AcDbEntity
  8
AM_0
100
AcDbLine
 10
-15.76794919243107
 20
-2.000000000000002
 30
0.0
 11
-19.5
 21
-3.000000000000013
 31
0.0
  0
LINE
  5
B4AA
330
1F
100
AcDbEntity
  8
AM_0
100
AcDbLine
 10
-0.4003315824444266
 20
1.066856325604213
 30
0.0
 11
-1.038281440477678
 21
1.249185793143173
 31
0.0
  0
LINE
  5
B4AB
330
1F
100
AcDbEntity
  8
AM_0
100
AcDbLine
 10
-0.023924036551326
 20
-0.4794465595242201
 30
0.0
 11
-0.023924036551326
 21
0.0000000000000036
 31
0.0
  0
LINE
  5
B4AC
330
1F
100
AcDbEntity
  8
AM_0
100
AcDbLine
 10
-0.0393759843997231
 20
-0.5307591418252642
 30
0.0
 11
-0.023924036551326
 21
-0.4794465595242201
 31
0.0
  0
LINE
  5
B4AD
330
1F
100
AcDbEntity
  8
AM_0
100
AcDbLine
 10
-0.0000000000001016
 20
0.0000000000000036
 30
0.0
 11
-0.0393759843997231
 21
0.4000000000000945
 31
0.0
  0
LINE
  5
B4AE
330
1F
100
AcDbEntity
  8
AM_0
100
AcDbLine
 10
-1.056258399542211
 20
0.0000000000000036
 30
0.0
 11
-1.056258399542211
 21
-0.3999999999999737
 31
0.0
  0
LINE
  5
B4AF
330
1F
100
AcDbEntity
  8
AM_0
100
AcDbLine
 10
-0.3843149303068928
 20
-0.8465265503335004
 30
0.0
 11
-1.056258399542211
 21
-0.3999999999999737
 31
0.0
  0
LINE
  5
B4B0
330
1F
100
AcDbEntity
  8
AM_0
100
AcDbLine
 10
-0.3843149303068928
 20
-0.8465265503335004
 30
0.0
 11
-0.0393759843997231
 21
-0.5307591418252642
 31
0.0
  0
LINE
  5
B4B1
330
1F
100
AcDbEntity
  8
AM_0
100
AcDbLine
 10
-0.0000000000001016
 20
0.0000000000000036
 30
0.0
 11
-1.056258399542211
 21
0.0000000000000036
 31
0.0
  0
LINE
  5
B4B2
330
1F
100
AcDbEntity
  8
AM_0
100
AcDbLine
 10
-0.0000000000001016
 20
0.0000000000000036
 30
0.0
 11
-0.0000000000001016
 21
2.000000000000003
 31
0.0
  0
LINE
  5
B4B3
330
1F
100
AcDbEntity
  8
AM_0
100
AcDbLine
 10
-0.0393759843997231
 20
0.4000000000000945
 30
0.0
 11
-0.4003315824444266
 21
1.066856325604213
 31
0.0
  0
LINE
  5
B4B4
330
1F
100
AcDbEntity
  8
AM_0
100
AcDbLine
 10
-0.0000000000001016
 20
-1.999999999999996
 30
0.0
 11
-0.0393759843997231
 21
-1.893376463048749
 31
0.0
  0
LINE
  5
B4B5
330
1F
100
AcDbEntity
  8
AM_0
100
AcDbLine
 10
-0.0393759843997231
 20
-1.893376463048635
 30
0.0
 11
-0.2568814220358066
 21
-1.599046662184715
 31
0.0
  0
LINE
  5
B4B6
330
1F
100
AcDbEntity
  8
AM_0
100
AcDbLine
 10
-0.0000000000001016
 20
-1.999999999999996
 30
0.0
 11
-0.0000000000001016
 21
0.0000000000000036
 31
0.0
  0
ELLIPSE
  5
B4B7
330
1F
100
AcDbEntity
  8
AM_0
100
AcDbEllipse
 10
2.787967768994751
 20
-0.6238769086885405
 30
0.0
 11
0.0000000000000471
 21
3.391000986764603
 31
0.0
210
0.0
220
0.0
230
1.0
 40
0.9375234380859547
 41
1.636502568454466
 42
1.86249105846374
  0
LINE
  5
B4B8
330
1F
100
AcDbEntity
  8
AM_0
100
AcDbLine
 10
-0.0393759843997231
 20
-1.893376463048749
 30
0.0
 11
-0.0393759843997231
 21
-0.5307591418252642
 31
0.0
  0
LINE
  5
B4B9
330
1F
100
AcDbEntity
  8
AM_0
100
AcDbLine
 10
-12.0000000000001
 20
-1.603815423359677
 30
0.0
 11
-12.0000000000001
 21
-1.286666326486131
 31
0.0
  0
LINE
  5
B4BB
330
1F
100
AcDbEntity
  8
AM_11
100
AcDbLine
 10
-12.0000000000001
 20
-1.999999999999996
 30
0.0
 11
-12.0000000000001
 21
2.000000000000003
 31
0.0
  0
LINE
  5
B4BC
330
1F
100
AcDbEntity
  8
AM_0
100
AcDbLine
 10
-12.00000000000007
 20
-1.489692209657968
 30
0.0
 11
-12.0000000000001
 21
-1.286666326486131
 31
0.0
  0
LINE
  5
B4BD
330
1F
100
AcDbEntity
  8
AM_11
100
AcDbLine
 10
-12.0000000000001
 20
-1.999999999999999
 30
0.0
 11
-0.0000000000001016
 21
-1.999999999999996
 31
0.0
  0
LINE
  5
B4BE
330
1F
100
AcDbEntity
  8
AM_11
100
AcDbLine
 10
-0.000000000000448
 20
2.000000000000003
 30
0.0
 11
-12.0000000000001
 21
2.0
 31
0.0
  0
POLYLINE
  5
B4BF
330
1F
100
AcDbEntity
  8
AM_0
100
AcDb2dPolyline
 66
     1
 10
0.0
 20
0.0
 30
0.0
 70
     2
  0
VERTEX
  5
B4C0
330
B4BF
100
AcDbEntity
  8
AM_0
100
AcDbVertex
100
AcDb2dVertex
 10
-13.12524688198429
 20
-1.120670574617459
 30
0.0
 42
0.0520389030992593
  0
VERTEX
  5
B4C1
330
B4BF
100
AcDbEntity
  8
AM_0
100
AcDbVertex
100
AcDb2dVertex
 10
-13.23974282260159
 20
-1.075285990937018
 30
0.0
 42
0.0620736703120521
 70
     1
  0
VERTEX
  5
B4C2
330
B4BF
100
AcDbEntity
  8
AM_0
100
AcDbVertex
100
AcDb2dVertex
 10
-13.3413012592176
 20
-1.061702258096996
 30
0.0
 42
0.0596620020802711
  0
VERTEX
  5
B4C3
330
B4BF
100
AcDbEntity
  8
AM_0
100
AcDbVertex
100
AcDb2dVertex
 10
-13.53457911759271
 20
-1.087006584959411
 30
0.0
 42
0.1107428676984588
 70
     1
  0
VERTEX
  5
B4C4
330
B4BF
100
AcDbEntity
  8
AM_0
100
AcDbVertex
100
AcDb2dVertex
 10
-13.62937376219534
 20
-1.137882121302268
 30
0.0
 42
0.0919321010959952
  0
VERTEX
  5
B4C5
330
B4BF
100
AcDbEntity
  8
AM_0
100
AcDbVertex
100
AcDb2dVertex
 10
-13.68543196094647
 20
-1.208978977171604
 30
0.0
 42
0.1306625885944883
 70
     1
  0
VERTEX
  5
B4C6
330
B4BF
100
AcDbEntity
  8
AM_0
100
AcDbVertex
100
AcDb2dVertex
 10
-13.70139188793978
 20
-1.273030301028025
 30
0.0
 42
0.1055421366890948
  0
VERTEX
  5
B4C7
330
B4BF
100
AcDbEntity
  8
AM_0
100
AcDbVertex
100
AcDb2dVertex
 10
-13.68740609638262
 20
-1.34531367145059
 30
0.0
 42
0.064249691717919
 70
     1
  0
VERTEX
  5
B4C8
330
B4BF
100
AcDbEntity
  8
AM_0
100
AcDbVertex
100
AcDb2dVertex
 10
-13.62971993240041
 20
-1.448324490297046
 30
0.0
 42
0.0621419645227973
  0
VERTEX
  5
B4C9
330
B4BF
100
AcDbEntity
  8
AM_0
100
AcDbVertex
100
AcDb2dVertex
 10
-13.52313424785945
 20
-1.560970129677237
 30
0.0
 42
0.0430349623912406
 70
     1
  0
VERTEX
  5
B4CA
330
B4BF
100
AcDbEntity
  8
AM_0
100
AcDbVertex
100
AcDb2dVertex
 10
-13.34164742942267
 20
-1.685030310986117
 30
0.0
 42
0.0552392510866287
  0
VERTEX
  5
B4CB
330
B4BF
100
AcDbEntity
  8
AM_0
100
AcDbVertex
100
AcDb2dVertex
 10
-13.25689744440035
 20
-1.720276458989697
 30
0.0
 42
0.0374044438261813
 70
     1
  0
VERTEX
  5
B4CC
330
B4BF
100
AcDbEntity
  8
AM_0
100
AcDbVertex
100
AcDb2dVertex
 10
-13.12524688198429
 20
-1.746441942406171
 30
0.0
  0
SEQEND
  5
B4CD
330
B4BF
100
AcDbEntity
  8
AM_0
  0
POLYLINE
  5
B4CE
330
1F
100
AcDbEntity
  8
AM_0
100
AcDb2dPolyline
 66
     1
 10
0.0
 20
0.0
 30
0.0
 70
     2
  0
VERTEX
  5
B4CF
330
B4CE
100
AcDbEntity
  8
AM_0
100
AcDbVertex
100
AcDb2dVertex
 10
-12.35169738000299
 20
-0.8734063119630501
 30
0.0
 42
-0.018696225727277
  0
VERTEX
  5
B4D0
330
B4CE
100
AcDbEntity
  8
AM_0
100
AcDbVertex
100
AcDb2dVertex
 10
-12.97192959983891
 20
-0.4751040016829294
 30
0.0
 42
-0.028063631298639
 70
     1
  0
VERTEX
  5
B4D1
330
B4CE
100
AcDbEntity
  8
AM_0
100
AcDbVertex
100
AcDb2dVertex
 10
-13.22689317232939
 20
-0.2738646927239152
 30
0.0
 42
-0.0124104218391276
  0
VERTEX
  5
B4D2
330
B4CE
100
AcDbEntity
  8
AM_0
100
AcDbVertex
100
AcDb2dVertex
 10
-13.87052774780385
 20
0.3258236242491748
 30
0.0
 42
-0.0229961192214795
 70
     1
  0
VERTEX
  5
B4D3
330
B4CE
100
AcDbEntity
  8
AM_0
100
AcDbVertex
100
AcDb2dVertex
 10
-14.19566739168487
 20
0.6749910246072091
 30
0.0
 42
-0.0513407457430814
  0
VERTEX
  5
B4D4
330
B4CE
100
AcDbEntity
  8
AM_0
100
AcDbVertex
100
AcDb2dVertex
 10
-14.40621870508759
 20
0.980802116413546
 30
0.0
 42
-0.1432342295436034
 70
     1
  0
VERTEX
  5
B4D5
330
B4CE
100
AcDbEntity
  8
AM_0
100
AcDbVertex
100
AcDb2dVertex
 10
-14.43786094652376
 20
1.115047810894807
 30
0.0
 42
-0.2070888384142486
  0
VERTEX
  5
B4D6
330
B4CE
100
AcDbEntity
  8
AM_0
100
AcDbVertex
100
AcDb2dVertex
 10
-14.39369981667061
 20
1.213405131608475
 30
0.0
 42
-0.0886851914809994
 70
     1
  0
VERTEX
  5
B4D7
330
B4CE
100
AcDbEntity
  8
AM_0
100
AcDbVertex
100
AcDb2dVertex
 10
-14.19566739168487
 20
1.339693017375395
 30
0.0
 42
-0.0695489127369157
  0
VERTEX
  5
B4D8
330
B4CE
100
AcDbEntity
  8
AM_0
100
AcDbVertex
100
AcDb2dVertex
 10
-13.91893509379819
 20
1.406652021264054
 30
0.0
 42
-0.0283925858457568
 70
     1
  0
VERTEX
  5
B4D9
330
B4CE
100
AcDbEntity
  8
AM_0
100
AcDbVertex
100
AcDb2dVertex
 10
-13.2268931723294
 20
1.426902415478483
 30
0.0
 42
-0.0365584457920419
  0
VERTEX
  5
B4DA
330
B4CE
100
AcDbEntity
  8
AM_0
100
AcDbVertex
100
AcDb2dVertex
 10
-12.90778241297241
 20
1.391916078702259
 30
0.0
 42
-0.0279984380152423
 70
     1
  0
VERTEX
  5
B4DB
330
B4CE
100
AcDbEntity
  8
AM_0
100
AcDbVertex
100
AcDb2dVertex
 10
-12.50031250781278
 20
1.289466607100983
 30
0.0
  0
SEQEND
  5
B4DC
330
B4CE
100
AcDbEntity
  8
AM_0
  0
SPLINE
  5
B4DD
330
1F
100
AcDbEntity
  8
AM_0
100
AcDbSpline
210
0.0
220
0.0
230
1.0
 70
     8
 71
     3
 72
     8
 73
     4
 74
     0
 42
0.0000000001
 43
0.0000000001
 40
0.0
 40
0.0
 40
0.0
 40
0.0
 40
3.891555268760223
 40
3.891555268760223
 40
3.891555268760223
 40
3.891555268760223
 10
-0.0772832397106841
 20
1.999394464600037
 30
0.0
 10
0.0610609736114015
 20
1.50194568644914
 30
0.0
 10
-0.9262634436121231
 20
1.436130979129686
 30
0.0
 10
-1.42554177011493
 20
1.40142840507406
 30
0.0
  0
SPLINE
  5
B4DE
330
1F
100
AcDbEntity
  8
AM_0
100
AcDbSpline
210
0.0
220
0.0
230
1.0
 70
     8
 71
     3
 72
     8
 73
     4
 74
     0
 42
0.0000000001
 43
0.0000000001
 40
0.3581103616548037
 40
0.3581103616548037
 40
0.3581103616548037
 40
0.3581103616548037
 40
14.43901837670146
 40
14.43901837670146
 40
14.43901837670146
 40
14.43901837670146
 10
-9.411688516959014
 20
1.938338169141125
 30
0.0
 10
-7.659046661091377
 20
1.891995603221332
 30
0.0
 10
-6.052307253519833
 20
0.9459978016107051
 30
0.0
 10
-4.445567845948433
 20
0.0000000000000036
 30
0.0
  0
SPLINE
  5
B4DF
330
1F
100
AcDbEntity
  8
AM_0
100
AcDbSpline
210
0.0
220
0.0
230
1.0
 70
     8
 71
     3
 72
     8
 73
     4
 74
     0
 42
0.0000000001
 43
0.0000000001
 40
0.7142832446738512
 40
0.7142832446738512
 40
0.7142832446738512
 40
0.7142832446738512
 40
14.36247867694493
 40
14.36247867694493
 40
14.36247867694493
 40
14.36247867694493
 10
-8.525156368586094
 20
1.840239115929765
 30
0.0
 10
-6.832266419919237
 20
1.755122814190222
 30
0.0
 10
-5.262057480383565
 20
0.8775614070951505
 30
0.0
 10
-3.691848540848053
 20
0.0000000000000036
 30
0.0
  0
SPLINE
  5
B4E0
330
1F
100
AcDbEntity
  8
AM_0
100
AcDbSpline
210
0.0
220
0.0
230
1.0
 70
     8
 71
     3
 72
     8
 73
     4
 74
     0
 42
0.0000000001
 43
0.0000000001
 40
0.0
 40
0.0
 40
0.0
 40
0.0
 40
5.795998619737547
 40
5.795998619737547
 40
5.795998619737547
 40
5.795998619737547
 10
-10.20025500637538
 20
2.000000000000078
 30
0.0
 10
-8.388960155336121
 20
2.000000000000077
 30
0.0
 10
-6.744543829261981
 20
1.000000000000077
 30
0.0
 10
-5.10012750318784
 20
0.0000000000000782
 30
0.0
  0
SPLINE
  5
B4E1
330
1F
100
AcDbEntity
  8
AM_0
100
AcDbSpline
210
0.0
220
0.0
230
1.0
 70
     8
 71
     3
 72
     8
 73
     4
 74
     0
 42
0.0000000001
 43
0.0000000001
 40
0.0
 40
0.0
 40
0.0
 40
0.0
 40
5.635889483499305
 40
5.635889483499305
 40
5.635889483499305
 40
5.635889483499305
 10
-5.10012750318784
 20
2.000000000000078
 30
0.0
 10
-5.804631301220258
 20
2.000000000000078
 30
0.0
 10
-6.483889317421771
 20
1.848717611591766
 30
0.0
 10
-7.147720907914528
 20
1.604994175348569
 30
0.0
  0
SPLINE
  5
B4E2
330
1F
100
AcDbEntity
  8
AM_0
100
AcDbSpline
210
0.0
220
0.0
230
1.0
 70
     8
 71
     3
 72
     8
 73
     4
 74
     0
 42
0.0000000001
 43
0.0000000001
 40
0.0
 40
0.0
 40
0.0
 40
0.0
 40
5.635889483499305
 40
5.635889483499305
 40
5.635889483499305
 40
5.635889483499305
 10
-9.961809605573257
 20
2.000000000000078
 30
0.0
 10
-10.66631340360567
 20
2.000000000000078
 30
0.0
 10
-11.34557141980718
 20
1.848717611591766
 30
0.0
 10
-12.24784841104838
 20
1.604994175348569
 30
0.0
  0
SPLINE
  5
B4E3
330
1F
100
AcDbEntity
  8
AM_0
100
AcDbSpline
210
0.0
220
0.0
230
1.0
 70
     8
 71
     3
 72
     8
 73
     4
 74
     0
 42
0.0000000001
 43
0.0000000001
 40
2.334855840180832
 40
2.334855840180832
 40
2.334855840180832
 40
2.334855840180832
 40
4.346998964803161
 40
4.346998964803161
 40
4.346998964803161
 40
4.346998964803161
 10
-12.50031250781278
 20
1.289466607100983
 30
0.0
 10
-12.50031250781278
 20
1.289466607100983
 30
0.0
 10
-10.9614240407634
 20
0.4628809762585924
 30
0.0
 10
-10.20025500637495
 20
0.0000000000001918
 30
0.0
  0
SPLINE
  5
B4E4
330
1F
100
AcDbEntity
  8
AM_0
100
AcDbSpline
210
0.0
220
0.0
230
1.0
 70
     8
 71
     3
 72
     8
 73
     4
 74
     0
 42
0.0000000001
 43
0.0000000001
 40
1.174135927340542
 40
1.174135927340542
 40
1.174135927340542
 40
1.174135927340542
 40
14.36247867694493
 40
14.36247867694493
 40
14.36247867694493
 40
14.36247867694493
 10
-13.45457987151394
 20
1.828967038966681
 30
0.0
 10
-11.82658289530038
 20
1.69598694245403
 30
0.0
 10
-10.30927946966769
 20
0.8479934712271059
 30
0.0
 10
-8.791976044035168
 20
0.0000000000000782
 30
0.0
  0
SPLINE
  5
B4E5
330
1F
100
AcDbEntity
  8
AM_0
100
AcDbSpline
210
0.0
220
0.0
230
1.0
 70
     8
 71
     3
 72
     8
 73
     4
 74
     0
 42
0.0000000001
 43
0.0000000001
 40
0.3581103616548037
 40
0.3581103616548037
 40
0.3581103616548037
 40
0.3581103616548037
 40
14.43901837670146
 40
14.43901837670146
 40
14.43901837670146
 40
14.43901837670146
 10
-14.56962543181151
 20
2.000000000000003
 30
0.0
 10
-12.75917416427851
 20
1.891995603221406
 30
0.0
 10
-11.15243475670695
 20
0.9459978016107797
 30
0.0
 10
-9.545695349135566
 20
0.0000000000000782
 30
0.0
  0
SPLINE
  5
B4E6
330
1F
100
AcDbEntity
  8
AM_0
100
AcDbSpline
210
0.0
220
0.0
230
1.0
 70
     8
 71
     3
 72
     8
 73
     4
 74
     0
 42
0.0000000001
 43
0.0000000001
 40
0.0
 40
0.0
 40
0.0
 40
0.0
 40
5.795998619737708
 40
5.795998619737708
 40
5.795998619737708
 40
5.795998619737708
 10
-5.100127503187094
 20
-1.999999999999996
 30
0.0
 10
-6.911422354226403
 20
-1.999999999999996
 30
0.0
 10
-8.555838680300601
 20
-0.9999999999999962
 30
0.0
 10
-10.20025500637479
 20
0.0000000000000036
 30
0.0
  0
SPLINE
  5
B4E7
330
1F
100
AcDbEntity
  8
AM_0
100
AcDbSpline
210
0.0
220
0.0
230
1.0
 70
     8
 71
     3
 72
     8
 73
     4
 74
     0
 42
0.0000000001
 43
0.0000000001
 40
0.0
 40
0.0
 40
0.0
 40
0.0
 40
9.637195575647414
 40
9.637195575647414
 40
9.637195575647414
 40
9.637195575647414
 10
-3.196413762852304
 20
-1.750448367778894
 30
0.0
 10
-2.794853918242958
 20
-1.750448367778894
 30
0.0
 10
-2.399783772876199
 20
-1.706289317603854
 30
0.0
 10
-2.009745604499142
 20
-1.627890263994039
 30
0.0
  0
SPLINE
  5
B4E8
330
1F
100
AcDbEntity
  8
AM_0
100
AcDbSpline
210
0.0
220
0.0
230
1.0
 70
     8
 71
     3
 72
     8
 73
     4
 74
     0
 42
0.0000000001
 43
0.0000000001
 40
0.0
 40
0.0
 40
0.0
 40
0.0
 40
9.964098609850829
 40
9.964098609850829
 40
9.964098609850829
 40
9.964098609850829
 10
-4.442216946969339
 20
-1.892295251000703
 30
0.0
 10
-4.02703580240955
 20
-1.892295251000703
 30
0.0
 10
-3.619854723644876
 20
-1.841880702066454
 30
0.0
 10
-3.218828761460381
 20
-1.752678043887495
 30
0.0
  0
SPLINE
  5
B4E9
330
1F
100
AcDbEntity
  8
AM_0
100
AcDbSpline
210
0.0
220
0.0
230
1.0
 70
     8
 71
     3
 72
     8
 73
     4
 74
     0
 42
0.0000000001
 43
0.0000000001
 40
0.0
 40
0.0
 40
0.0
 40
0.0
 40
9.450452127946082
 40
9.450452127946082
 40
9.450452127946082
 40
9.450452127946082
 10
-5.10012750318736
 20
-1.999999999999996
 30
0.0
 10
-4.706348829900303
 20
-1.999999999999996
 30
0.0
 10
-4.320485958631165
 20
-1.952624988604078
 30
0.0
 10
-3.940815951605904
 20
-1.868186516871709
 30
0.0
  0
SPLINE
  5
B4EA
330
1F
100
AcDbEntity
  8
AM_0
100
AcDbSpline
210
0.0
220
0.0
230
1.0
 70
     8
 71
     3
 72
     8
 73
     4
 74
     0
 42
0.0000000001
 43
0.0000000001
 40
1.870660592686466
 40
1.870660592686466
 40
1.870660592686466
 40
1.870660592686466
 40
14.43901837670146
 40
14.43901837670146
 40
14.43901837670146
 40
14.43901837670146
 10
-4.442216946969339
 20
-1.892295251000703
 30
0.0
 10
-6.816064784037658
 20
-1.836661749595421
 30
0.0
 10
-8.111549502968617
 20
-0.844380122420258
 30
0.0
 10
-9.545695349135389
 20
0.0000000000000036
 30
0.0
  0
SPLINE
  5
B4EB
330
1F
100
AcDbEntity
  8
AM_0
100
AcDbSpline
210
0.0
220
0.0
230
1.0
 70
     8
 71
     3
 72
     8
 73
     4
 74
     0
 42
0.0000000001
 43
0.0000000001
 40
4.542668862435135
 40
4.542668862435135
 40
4.542668862435135
 40
4.542668862435135
 40
14.36247867694493
 40
14.36247867694493
 40
14.36247867694493
 40
14.36247867694493
 10
-3.218828761460381
 20
-1.752678043887495
 30
0.0
 10
-6.532460750339225
 20
-1.55491718052394
 30
0.0
 10
-7.662218397187108
 20
-0.631401137314505
 30
0.0
 10
-8.791976044035008
 20
0.0000000000000036
 30
0.0
  0
SPLINE
  5
B4EC
330
1F
100
AcDbEntity
  8
AM_0
100
AcDbSpline
210
0.0
220
0.0
230
1.0
 70
     8
 71
     3
 72
     8
 73
     4
 74
     0
 42
0.0000000001
 43
0.0000000001
 40
0.0
 40
0.0
 40
0.0
 40
0.0
 40
10.78039713404189
 40
10.78039713404189
 40
10.78039713404189
 40
10.78039713404189
 10
-8.126193048830867
 20
-1.748893151134037
 30
0.0
 10
-9.453345179385378
 20
-1.748893151134037
 30
0.0
 10
-10.73229375718814
 20
-1.440749934835414
 30
0.0
 10
-12.35169738000299
 20
-0.6890508357133101
 30
0.0
  0
SPLINE
  5
B4ED
330
1F
100
AcDbEntity
  8
AM_0
100
AcDbSpline
210
0.0
220
0.0
230
1.0
 70
     8
 71
     3
 72
     8
 73
     4
 74
     0
 42
0.0000000001
 43
0.0000000001
 40
0.0
 40
0.0
 40
0.0
 40
0.0
 40
9.964098609850829
 40
9.964098609850829
 40
9.964098609850829
 40
9.964098609850829
 10
-9.360737078486167
 20
-1.888404987006637
 30
0.0
 10
-8.951850646193113
 20
-1.888404987006637
 30
0.0
 10
-8.550842987789337
 20
-1.837990438072377
 30
0.0
 10
-8.155897126005658
 20
-1.748787779893412
 30
0.0
  0
SPLINE
  5
B4EE
330
1F
100
AcDbEntity
  8
AM_0
100
AcDbSpline
210
0.0
220
0.0
230
1.0
 70
     8
 71
     3
 72
     8
 73
     4
 74
     0
 42
0.0000000001
 43
0.0000000001
 40
10.52089085168291
 40
10.52089085168291
 40
10.52089085168291
 40
10.52089085168291
 40
10.85199757529305
 40
10.85199757529305
 40
10.85199757529305
 40
10.85199757529305
 10
-12.0000000000001
 20
-1.498228815857374
 30
0.0
 10
-12.18472991596494
 20
-1.411890720954347
 30
0.0
 10
-12.2802306006936
 20
-1.362644768451969
 30
0.0
 10
-12.35169738000299
 20
-1.316171319000386
 30
0.0
  0
SPLINE
  5
B4EF
330
1F
100
AcDbEntity
  8
AM_0
100
AcDbSpline
210
0.0
220
0.0
230
1.0
 70
     8
 71
     3
 72
     8
 73
     4
 74
     0
 42
0.0000000001
 43
0.0000000001
 40
0.0
 40
0.0
 40
0.0
 40
0.0
 40
9.450452127946082
 40
9.450452127946082
 40
9.450452127946082
 40
9.450452127946082
 10
-10.00867281358595
 20
-1.996109736005919
 30
0.0
 10
-9.620864361918087
 20
-1.996109736005919
 30
0.0
 10
-9.240851697916012
 20
-1.94873472461003
 30
0.0
 10
-8.866938005891698
 20
-1.864296252877633
 30
0.0
  0
SPLINE
  5
B4F0
330
1F
100
AcDbEntity
  8
AM_0
100
AcDbSpline
210
0.0
220
0.0
230
1.0
 70
     8
 71
     3
 72
     8
 73
     4
 74
     0
 42
0.0000000001
 43
0.0000000001
 40
4.041712701031851
 40
4.041712701031851
 40
4.041712701031851
 40
4.041712701031851
 40
9.964098609850829
 40
9.964098609850829
 40
9.964098609850829
 40
9.964098609850829
 10
-13.88219797960395
 20
-1.885529194086156
 30
0.0
 10
-13.65410720327638
 20
-1.841123978313756
 30
0.0
 10
-13.41722075239475
 20
-1.801807384226307
 30
0.0
 10
-13.1824758047422
 20
-1.748787779893419
 30
0.0
  0
SPLINE
  5
B4F1
330
1F
100
AcDbEntity
  8
AM_0
100
AcDbSpline
210
0.0
220
0.0
230
1.0
 70
     8
 71
     3
 72
     8
 73
     4
 74
     0
 42
0.0000000001
 43
0.0000000001
 40
0.0
 40
0.0
 40
0.0
 40
0.0
 40
9.450452127946082
 40
9.450452127946082
 40
9.450452127946082
 40
9.450452127946082
 10
-14.8407521106309
 20
-1.999999999999996
 30
0.0
 10
-14.64744304065461
 20
-1.996109736005919
 30
0.0
 10
-14.26743037665271
 20
-1.94873472461003
 30
0.0
 10
-13.88219797960411
 20
-1.885529194086156
 30
0.0
  0
SPLINE
  5
B4F2
330
1F
100
AcDbEntity
  8
AM_0
100
AcDbSpline
210
0.0
220
0.0
230
1.0
 70
     8
 71
     3
 72
     8
 73
     4
 74
     0
 42
0.0000000001
 43
0.0000000001
 40
0.0
 40
0.0
 40
0.0
 40
0.0
 40
7.010133154738189
 40
7.010133154738189
 40
7.010133154738189
 40
7.010133154738189
 10
-10.00867281358595
 20
-1.996109736005919
 30
0.0
 10
-11.11218182535527
 20
-1.998444783355065
 30
0.0
 10
-12.13061416041878
 20
-1.631872819483444
 30
0.0
 10
-13.12524688198429
 20
-1.120670574617449
 30
0.0
  0
SPLINE
  5
B4F3
330
1F
100
AcDbEntity
  8
AM_0
100
AcDbSpline
210
0.0
220
0.0
230
1.0
 70
     8
 71
     3
 72
     8
 73
     4
 74
     0
 42
0.0000000001
 43
0.0000000001
 40
0.0
 40
0.0
 40
0.0
 40
0.0
 40
9.637195575647414
 40
9.637195575647414
 40
9.637195575647414
 40
9.637195575647414
 10
-13.16040064807672
 20
-1.746558103784799
 30
0.0
 10
-12.76492899825371
 20
-1.746558103784799
 30
0.0
 10
-12.37584865498399
 20
-1.702399053609759
 30
0.0
 10
-11.99172399707133
 20
-1.623999999999963
 30
0.0
  0
SPLINE
  5
B4F4
330
1F
100
AcDbEntity
  8
AM_0
100
AcDbSpline
210
0.0
220
0.0
230
1.0
 70
     8
 71
     3
 72
     8
 73
     4
 74
     0
 42
0.0000000001
 43
0.0000000001
 40
0.0
 40
0.0
 40
0.0
 40
0.0
 40
8.937228630249105
 40
8.937228630249105
 40
8.937228630249105
 40
8.937228630249105
 10
-8.133821969340177
 20
-1.746558103784789
 30
0.0
 10
-7.767074140731066
 20
-1.746558103784789
 30
0.0
 10
-7.405822910933761
 20
-1.708580801224648
 30
0.0
 10
-7.048923303777236
 20
-1.640537107554777
 30
0.0
  0
SPLINE
  5
B4F5
330
1F
100
AcDbEntity
  8
AM_0
100
AcDbSpline
210
0.0
220
0.0
230
1.0
 70
     8
 71
     3
 72
     8
 73
     4
 74
     0
 42
0.0000000001
 43
0.0000000001
 40
0.0
 40
0.0
 40
0.0
 40
0.0
 40
5.108010678047876
 40
5.108010678047876
 40
5.108010678047876
 40
5.108010678047876
 10
-9.364608390496334
 20
-1.897851326897026
 30
0.0
 10
-10.15065402151257
 20
-1.897851326897026
 30
0.0
 10
-10.90758250993685
 20
-1.711537107113404
 30
0.0
 10
-12.0000000000001
 20
-1.286666326486131
 30
0.0
  0
SPLINE
  5
B4F6
330
1F
100
AcDbEntity
  8
AM_0
100
AcDbSpline
210
0.0
220
0.0
230
1.0
 70
     8
 71
     3
 72
     8
 73
     4
 74
     0
 42
0.0000000001
 43
0.0000000001
 40
0.0
 40
0.0
 40
0.0
 40
0.0
 40
5.795998619737717
 40
5.795998619737717
 40
5.795998619737717
 40
5.795998619737717
 10
-5.10012750318784
 20
2.000000000000078
 30
0.0
 10
-3.288832652148527
 20
2.000000000000077
 30
0.0
 10
-1.644416326074328
 20
1.000000000000077
 30
0.0
 10
-0.0000000000001293
 20
0.0000000000000782
 30
0.0
  0
SPLINE
  5
B4F7
330
1F
100
AcDbEntity
  8
AM_0
100
AcDbSpline
210
0.0
220
0.0
230
1.0
 70
     8
 71
     3
 72
     8
 73
     4
 74
     0
 42
0.0000000001
 43
0.0000000001
 40
0.3581103616548037
 40
0.3581103616548037
 40
0.3581103616548037
 40
0.3581103616548037
 40
12.40023413887867
 40
12.40023413887867
 40
12.40023413887867
 40
12.40023413887867
 10
-4.311561013771294
 20
1.938338169141125
 30
0.0
 10
-2.812685362929297
 20
1.8987055748252
 30
0.0
 10
-1.420520279813522
 20
1.201080451394055
 30
0.0
 10
-0.0438058922959757
 20
0.4081841426436057
 30
0.0
  0
SPLINE
  5
B4F8
330
1F
100
AcDbEntity
  8
AM_0
100
AcDbSpline
210
0.0
220
0.0
230
1.0
 70
     8
 71
     3
 72
     8
 73
     4
 74
     0
 42
0.0000000001
 43
0.0000000001
 40
1.870660592686466
 40
1.870660592686466
 40
1.870660592686466
 40
1.870660592686466
 40
14.43901837670146
 40
14.43901837670146
 40
14.43901837670146
 40
14.43901837670146
 10
-0.0393759843997408
 20
-1.893376463048674
 30
0.0
 10
-1.577276153614871
 20
-1.688760244840594
 30
0.0
 10
-3.011421999781661
 20
-0.844380122420258
 30
0.0
 10
-4.445567845948433
 20
0.0000000000000036
 30
0.0
  0
SPLINE
  5
B4F9
330
1F
100
AcDbEntity
  8
AM_0
100
AcDbSpline
210
0.0
220
0.0
230
1.0
 70
     8
 71
     3
 72
     8
 73
     4
 74
     0
 42
0.0000000001
 43
0.0000000001
 40
0.0
 40
0.0
 40
0.0
 40
0.0
 40
5.795998619737717
 40
5.795998619737717
 40
5.795998619737717
 40
5.795998619737717
 10
-0.0000000000001293
 20
-1.999999999999996
 30
0.0
 10
-1.811294851039441
 20
-1.999999999999996
 30
0.0
 10
-3.45571117711364
 20
-0.9999999999999962
 30
0.0
 10
-5.10012750318784
 20
0.0000000000000036
 30
0.0
  0
SPLINE
  5
B4FA
330
1F
100
AcDbEntity
  8
AM_0
100
AcDbSpline
210
0.0
220
0.0
230
1.0
 70
     8
 71
     3
 72
     8
 73
     4
 74
     0
 42
0.0000000001
 43
0.0000000001
 40
4.542668862435135
 40
4.542668862435135
 40
4.542668862435135
 40
4.542668862435135
 40
14.36247867694493
 40
14.36247867694493
 40
14.36247867694493
 40
14.36247867694493
 10
-0.2568814220353169
 20
-1.599046662182594
 30
0.0
 10
-1.43233324715227
 20
-1.262802274629088
 30
0.0
 10
-2.562090894000161
 20
-0.631401137314505
 30
0.0
 10
-3.691848540848053
 20
0.0000000000000036
 30
0.0
  0
SPLINE
  5
B4FB
330
1F
100
AcDbEntity
  8
AM_0
100
AcDbSpline
210
0.0
220
0.0
230
1.0
 70
     8
 71
     3
 72
     8
 73
     4
 74
     0
 42
0.0000000001
 43
0.0000000001
 40
0.7142832446738512
 40
0.7142832446738512
 40
0.7142832446738512
 40
0.7142832446738512
 40
9.361146747480315
 40
9.361146747480315
 40
9.361146747480315
 40
9.361146747480315
 10
-3.425028865398551
 20
1.840239115929765
 30
0.0
 10
-2.352492325015727
 20
1.786313375588637
 30
0.0
 10
-1.329198736761656
 20
1.414307953119916
 30
0.0
 10
-0.3239500504877377
 20
0.9257433797924221
 30
0.0
  0
SPLINE
  5
B4FC
330
1F
100
AcDbEntity
  8
AM_0
100
AcDbSpline
210
0.0
220
0.0
230
1.0
 70
     8
 71
     3
 72
     8
 73
     4
 74
     0
 42
0.0000000001
 43
0.0000000001
 40
0.0
 40
0.0
 40
0.0
 40
0.0
 40
5.635889483499127
 40
5.635889483499127
 40
5.635889483499127
 40
5.635889483499127
 10
-0.0000000000001293
 20
2.000000000000003
 30
0.0
 10
-0.7045037980325564
 20
2.000000000000003
 30
0.0
 10
-1.383761814234051
 20
1.848717611591688
 30
0.0
 10
-2.047593404726809
 20
1.604994175348494
 30
0.0
  0
LINE
  5
B67A
330
1F
100
AcDbEntity
  8
AM_0
100
AcDbLine
 10
-14.56962543181142
 20
1.999999999999998
 30
0.0
 11
-15.76794919243107
 21
1.999999999999997
 31
0.0
  0
LINE
  5
B67B
330
1F
100
AcDbEntity
  8
AM_0
100
AcDbLine
 10
-14.84075211062809
 20
-2.000000000000001
 30
0.0
 11
-15.76794919243107
 21
-2.000000000000002
 31
0.0
  0
LINE
  5
B67C
330
1F
100
AcDbEntity
  8
AM_0
100
AcDbLine
 10
-15.76794919243107
 20
-2.000000000000002
 30
0.0
 11
-15.76794919243108
 21
1.999999999999951
 31
0.0
  0
LINE
  5
B76B
330
1F
100
AcDbEntity
  8
AM_11
100
AcDbLine
 10
-0.0000000000001016
 20
2.000000000000003
 30
0.0
 11
0.0000000000000057
 21
-2.000000000001015
 31
0.0
  0
LINE
  5
B7A9
330
1F
100
AcDbEntity
  8
AM_0
100
AcDbLine
 10
-12.35169738000299
 20
-1.316171319000386
 30
0.0
 11
-12.35169738000299
 21
-0.6890508357133099
 31
0.0
  0
VIEWPORT
  5
E2
330
1B
100
AcDbEntity
 67
     1
  8
0
100
AcDbViewport
 10
105.0
 20
210.50871875
 30
0.0
 40
474.4891353383458
 41
438.2434375
 68
     1
 69
     1
1001
ACAD
1000
MVIEW
1002
{
1070
    16
1010
0.0
1020
0.0
1030
0.0
1010
0.0
1020
0.0
1030
1.0
1040
0.0
1040
438.2434375
1040
105.0
1040
210.50871875
1040
50.0
1040
0.0
1040
0.0
1070
     0
1070
   100
1070
     1
1070
     1
1070
     0
1070
     0
1070
     0
1070
     0
1040
0.0
1040
0.0
1040
0.0
1040
10.0
1040
10.0
1040
10.0
1040
10.0
1070
     0
1002
{
1002
}
1002
}
  0
ENDSEC
  0
SECTION
  2
OBJECTS
  0
DICTIONARY
  5
C
330
0
100
AcDbDictionary
  3
ACAD_GROUP
350
D
  3
ACAD_LAYOUT
350
1A
  3
ACAD_MLINESTYLE
350
17
  3
ACAD_PLOTSETTINGS
350
19
  3
ACAD_PLOTSTYLENAME
350
E
  3
ACDBVARIABLEDICTIONARY
350
34
  3
ACMDICTIONARY
350
43
  3
AMG
350
2B
  3
AMGSNAPSETTINGS
350
6E
  3
ASE_INDEX_DICTIONARY
350
151A
  3
DWGPROPS
350
B7DD
  3
ACDBHEADERROUNDTRIPXREC
350
B7E9
  0
DICTIONARY
  5
74
330
1F
100
AcDbDictionary
280
     1
  3
ACAD_INDEX
360
B7DF
  3
ACAD_LAYOUTSELFREF
360
B80C
  0
DICTIONARY
  5
B80A
330
1B
100
AcDbDictionary
280
     1
  3
ACAD_LAYOUTSELFREF
360
B80B
  0
DICTIONARY
  5
D
102
{ACAD_REACTORS
330
C
102
}
330
C
100
AcDbDictionary
  0
DICTIONARY
  5
1A
102
{ACAD_REACTORS
330
C
102
}
330
C
100
AcDbDictionary
  0
DICTIONARY
  5
17
102
{ACAD_REACTORS
330
C
102
}
330
C
100
AcDbDictionary
  3
STANDARD
350
18
  0
DICTIONARY
  5
19
102
{ACAD_REACTORS
330
C
102
}
330
C
100
AcDbDictionary
  0
ACDBDICTIONARYWDFLT
  5
E
102
{ACAD_REACTORS
330
C
102
}
330
C
100
AcDbDictionary
281
     1
  3
Normal
350
F
100
AcDbDictionaryWithDefault
340
F
  0
DICTIONARY
  5
34
102
{ACAD_REACTORS
330
C
102
}
330
C
100
AcDbDictionary
  3
INDEXCTL
350
35
  3
SORTENTS
350
B5E
  0
DICTIONARY
  5
43
102
{ACAD_REACTORS
330
C
102
}
330
C
100
AcDbDictionary
  3
ACMSTDDICTIONARY
350
260
  0
DICTIONARY
  5
2B
102
{ACAD_REACTORS
330
C
102
}
330
C
100
AcDbDictionary
  3
ACMGSETTINGS
350
2C
  0
DICTIONARY
  5
6E
102
{ACAD_REACTORS
330
C
102
}
330
C
100
AcDbDictionary
  0
DICTIONARY
  5
151A
102
{ACAD_REACTORS
330
C
102
}
330
C
100
AcDbDictionary
  3
ASEBLOCKHIERARCHYINDEXRECORD
350
151C
1001
DCO15
1040
1471862535.906
  0
XRECORD
  5
B7DD
102
{ACAD_REACTORS
330
C
102
}
330
C
100
AcDbXrecord
  1
DWGPROPS COOKIE
  2

  3

  4

  6

  7

  8

  9

300
AmdtFileType=82
301
=
302
=
303
=
304
=
305
=
306
=
307
=
308
=
309
=
 40
0.5217465046296298
 41
2452838.430434386
 42
2453054.443997221
  1

 90
        1
  0
DICTIONARY
  5
B7E9
102
{ACAD_REACTORS
330
C
102
}
330
C
100
AcDbDictionary
  3
TSTACKALIGN
350
B7EA
  3
TSTACKSIZE
350
B7EB
  3
HYPERLINKBASE
350
B7EC
  3
STYLESHEET
350
B7ED
  3
LAYOUTDICT
350
B7EE
  3
PLOTSETDICT
350
B7EF
  3
PLOTSTYLNAMDICT
350
B7F0
  3
LWETCUNION
350
B7F1
  3
INSUNITS
350
B7F2
  3
CEPSNTYPE
350
B7F3
  3
FINGERPRINTGUID
350
B7F4
  3
VERSIONGUID
350
B7F5
  3
PSVPSCALE
350
B7F6
  3
DIMSTYLEDATA
350
B7F7
  3
PUCSORTHOREF
350
B7F8
  3
PUCSORTHOVIEW
350
B7F9
  3
PUCSBASE
350
B7FA
  3
PUCSORGTOP
350
B7FB
  3
PUCSORGBOTTOM
350
B7FC
  3
PUCSORGLEFT
350
B7FD
  3
PUCSORGRIGHT
350
B7FE
  3
PUCSORGFRONT
350
B7FF
  3
PUCSORGBACK
350
B800
  3
UCSORTHOREF
350
B801
  3
UCSORTHOVIEW
350
B802
  3
UCSBASE
350
B803
  3
UCSORGTOP
350
B804
  3
UCSORGBOTTOM
350
B805
  3
UCSORGLEFT
350
B806
  3
UCSORGRIGHT
350
B807
  3
UCSORGFRONT
350
B808
  3
UCSORGBACK
350
B809
  0
DICTIONARY
  5
B7DF
102
{ACAD_REACTORS
330
74
102
}
330
74
100
AcDbDictionary
  3
*A1
350
B7E0
  0
XRECORD
  5
B80C
102
{ACAD_REACTORS
330
74
102
}
330
74
100
AcDbXrecord
340
1F
  0
XRECORD
  5
B80B
102
{ACAD_REACTORS
330
B80A
102
}
330
B80A
100
AcDbXrecord
340
1B
  0
MLINESTYLE
  5
18
102
{ACAD_REACTORS
330
17
102
}
330
17
100
AcDbMlineStyle
  2
STANDARD
 70
     0
  3

 62
   256
 51
90.0
 52
90.0
 71
     2
 49
0.5
 62
   256
  6
BYLAYER
 49
-0.5
 62
   256
  6
BYLAYER
  0
ACDBPLACEHOLDER
  5
F
102
{ACAD_REACTORS
330
E
102
}
330
E
100
AcDbPlaceHolder
280
     0
  0
DICTIONARYVAR
  5
35
102
{ACAD_REACTORS
330
34
102
}
330
34
100
DictionaryVariables
280
     0
  1
1
  0
DICTIONARYVAR
  5
B5E
102
{ACAD_REACTORS
330
34
102
}
330
34
100
DictionaryVariables
280
     0
  1
96
  0
DICTIONARY
  5
260
102
{ACAD_REACTORS
330
43
102
}
330
43
100
AcDbDictionary
  0
DICTIONARY
  5
2C
102
{ACAD_REACTORS
330
2B
102
}
330
2B
100
AcDbDictionary
  3
DWGSETTINGS
350
2D
  0
XRECORD
  5
151C
102
{ACAD_REACTORS
330
151A
102
}
330
151A
100
AcDbXrecord
330
0
330
0
330
0
330
0
330
0
330
0
330
0
330
0
  0
XRECORD
  5
B7EA
102
{ACAD_REACTORS
330
B7E9
102
}
330
B7E9
100
AcDbXrecord
 90
        1
  0
XRECORD
  5
B7EB
102
{ACAD_REACTORS
330
B7E9
102
}
330
B7E9
100
AcDbXrecord
 90
       70
  0
XRECORD
  5
B7EC
102
{ACAD_REACTORS
330
B7E9
102
}
330
B7E9
100
AcDbXrecord
  1

  0
XRECORD
  5
B7ED
102
{ACAD_REACTORS
330
B7E9
102
}
330
B7E9
100
AcDbXrecord
  1
ASAMI.ctb
  0
XRECORD
  5
B7EE
102
{ACAD_REACTORS
330
B7E9
102
}
330
B7E9
100
AcDbXrecord
340
1A
  0
XRECORD
  5
B7EF
102
{ACAD_REACTORS
330
B7E9
102
}
330
B7E9
100
AcDbXrecord
340
19
  0
XRECORD
  5
B7F0
102
{ACAD_REACTORS
330
B7E9
102
}
330
B7E9
100
AcDbXrecord
340
E
  0
XRECORD
  5
B7F1
102
{ACAD_REACTORS
330
B7E9
102
}
330
B7E9
100
AcDbXrecord
 90
    10781
  0
XRECORD
  5
B7F2
102
{ACAD_REACTORS
330
B7E9
102
}
330
B7E9
100
AcDbXrecord
 90
        4
  0
XRECORD
  5
B7F3
102
{ACAD_REACTORS
330
B7E9
102
}
330
B7E9
100
AcDbXrecord
 90
        0
  0
XRECORD
  5
B7F4
102
{ACAD_REACTORS
330
B7E9
102
}
330
B7E9
100
AcDbXrecord
  1
{AFB28963-8C59-40AE-9337-C84526B81ACE}
  0
XRECORD
  5
B7F5
102
{ACAD_REACTORS
330
B7E9
102
}
330
B7E9
100
AcDbXrecord
  1
{0C691940-A554-4D30-ACCA-96B309B68528}
  0
XRECORD
  5
B7F6
102
{ACAD_REACTORS
330
B7E9
102
}
330
B7E9
100
AcDbXrecord
 40
0.0
  0
XRECORD
  5
B7F7
102
{ACAD_REACTORS
330
B7E9
102
}
330
B7E9
100
AcDbXrecord
1000
DSTYLE
1002
{
1070
    79
 70
     2
1070
   341
340
59
1070
   342
340
59
1070
   371
 70
    -1
1070
   372
 70
    -1
1002
}
  0
XRECORD
  5
B7F8
102
{ACAD_REACTORS
330
B7E9
102
}
330
B7E9
100
AcDbXrecord
340
0
  0
XRECORD
  5
B7F9
102
{ACAD_REACTORS
330
B7E9
102
}
330
B7E9
100
AcDbXrecord
 70
     0
  0
XRECORD
  5
B7FA
102
{ACAD_REACTORS
330
B7E9
102
}
330
B7E9
100
AcDbXrecord
340
0
  0
XRECORD
  5
B7FB
102
{ACAD_REACTORS
330
B7E9
102
}
330
B7E9
100
AcDbXrecord
 10
0.0
 20
0.0
 30
0.0
  0
XRECORD
  5
B7FC
102
{ACAD_REACTORS
330
B7E9
102
}
330
B7E9
100
AcDbXrecord
 10
0.0
 20
0.0
 30
0.0
  0
XRECORD
  5
B7FD
102
{ACAD_REACTORS
330
B7E9
102
}
330
B7E9
100
AcDbXrecord
 10
0.0
 20
0.0
 30
0.0
  0
XRECORD
  5
B7FE
102
{ACAD_REACTORS
330
B7E9
102
}
330
B7E9
100
AcDbXrecord
 10
0.0
 20
0.0
 30
0.0
  0
XRECORD
  5
B7FF
102
{ACAD_REACTORS
330
B7E9
102
}
330
B7E9
100
AcDbXrecord
 10
0.0
 20
0.0
 30
0.0
  0
XRECORD
  5
B800
102
{ACAD_REACTORS
330
B7E9
102
}
330
B7E9
100
AcDbXrecord
 10
0.0
 20
0.0
 30
0.0
  0
XRECORD
  5
B801
102
{ACAD_REACTORS
330
B7E9
102
}
330
B7E9
100
AcDbXrecord
340
0
  0
XRECORD
  5
B802
102
{ACAD_REACTORS
330
B7E9
102
}
330
B7E9
100
AcDbXrecord
 70
     0
  0
XRECORD
  5
B803
102
{ACAD_REACTORS
330
B7E9
102
}
330
B7E9
100
AcDbXrecord
340
0
  0
XRECORD
  5
B804
102
{ACAD_REACTORS
330
B7E9
102
}
330
B7E9
100
AcDbXrecord
 10
0.0
 20
0.0
 30
0.0
  0
XRECORD
  5
B805
102
{ACAD_REACTORS
330
B7E9
102
}
330
B7E9
100
AcDbXrecord
 10
0.0
 20
0.0
 30
0.0
  0
XRECORD
  5
B806
102
{ACAD_REACTORS
330
B7E9
102
}
330
B7E9
100
AcDbXrecord
 10
0.0
 20
0.0
 30
0.0
  0
XRECORD
  5
B807
102
{ACAD_REACTORS
330
B7E9
102
}
330
B7E9
100
AcDbXrecord
 10
0.0
 20
0.0
 30
0.0
  0
XRECORD
  5
B808
102
{ACAD_REACTORS
330
B7E9
102
}
330
B7E9
100
AcDbXrecord
 10
0.0
 20
0.0
 30
0.0
  0
XRECORD
  5
B809
102
{ACAD_REACTORS
330
B7E9
102
}
330
B7E9
100
AcDbXrecord
 10
0.0
 20
0.0
 30
0.0
  0
LAYER_INDEX
  5
B7E0
102
{ACAD_REACTORS
330
B7DF
102
}
330
B7DF
100
AcDbIndex
 40
2453151.727799641
100
AcDbLayerIndex
  8
0
360
B7E1
 90
        0
  8
AM_0
360
B7E2
 90
       64
  8
AM_11
360
B7E3
 90
        4
  8
AM_7
360
B7E4
 90
        1
  8
AM_5
360
B7E5
 90
        4
  8
Defpoints
360
B7E6
 90
        0
  8
AM_6
360
B7E7
 90
        1
  0
XRECORD
  5
2D
102
{ACAD_REACTORS
330
2C
102
}
330
2C
100
AcDbXrecord
  1
VERSION
140
15.0
  1
PRODUCT
  2
AutoCAD Mechanical 2000
  0
IDBUFFER
  5
B7E1
330
0
100
AcDbIdBuffer
  0
IDBUFFER
  5
B7E2
330
0
100
AcDbIdBuffer
330
B4F1
330
B4F2
330
B4F3
330
B4F4
330
B4F5
330
B4F6
330
B4F7
330
B4F8
330
B4F9
330
B4FA
330
B4FB
330
B4FC
330
B67A
330
B67B
330
B67C
330
B7A9
330
AA2E
330
AA30
330
AA31
330
AA3F
330
AA4B
330
AA4E
330
B0F2
330
B10A
330
B308
330
B4AA
330
B4AB
330
B4AC
330
B4AD
330
B4AE
330
B4AF
330
B4B0
330
B4B1
330
B4B2
330
B4B3
330
B4B4
330
B4B5
330
B4B6
330
B4B7
330
B4B8
330
B4B9
330
B4BC
330
B4BF
330
B4CE
330
B4DD
330
B4DE
330
B4DF
330
B4E0
330
B4E1
330
B4E2
330
B4E3
330
B4E4
330
B4E5
330
B4E6
330
B4E7
330
B4E8
330
B4E9
330
B4EA
330
B4EB
330
B4EC
330
B4ED
330
B4EE
330
B4EF
330
B4F0
  0
IDBUFFER
  5
B7E3
330
0
100
AcDbIdBuffer
330
B4BB
330
B4BD
330
B4BE
330
B76B
  0
IDBUFFER
  5
B7E4
330
0
100
AcDbIdBuffer
330
9FF0
  0
IDBUFFER
  5
B7E5
330
0
100
AcDbIdBuffer
330
A215
330
A2A1
330
A391
330
AA32
  0
IDBUFFER
  5
B7E6
330
0
100
AcDbIdBuffer
  0
IDBUFFER
  5
B7E7
330
0
100
AcDbIdBuffer
330
1500
  0
ENDSEC
  0
EOF
