  0
SECTION
  2
HEADER
  9
$ACADVER
  1
AC1014
  9
$ACADMAINTVER
 70
     9
  9
$DWGCODEPAGE
  3
ANSI_932
  9
$INSBASE
 10
0.0
 20
0.0
 30
0.0
  9
$EXTMIN
 10
-87.66099700121461
 20
-30.25000100000014
 30
-0.00000001
  9
$EXTMAX
 10
12.05776903085518
 20
7.542441921528119
 30
0.00000001
  9
$LIMMIN
 10
-92.55671965735059
 20
-38.30400503330162
  9
$LIMMAX
 10
14.66665229191107
 20
17.42077897570573
  9
$ORTHOMODE
 70
     0
  9
$REGENMODE
 70
     1
  9
$FILLMODE
 70
     1
  9
$QTEXTMODE
 70
     0
  9
$MIRRTEXT
 70
     0
  9
$DRAGMODE
 70
     2
  9
$LTSCALE
 40
1.0
  9
$OSMODE
 70
    55
  9
$ATTMODE
 70
     1
  9
$TEXTSIZE
 40
2.5
  9
$TRACEWID
 40
1.0
  9
$TEXTSTYLE
  7
STANDARD
  9
$CLAYER
  8
AM_0
  9
$CELTYPE
  6
BYLAYER
  9
$CECOLOR
 62
   256
  9
$CELTSCALE
 40
1.0
  9
$DELOBJ
 70
     1
  9
$DISPSILH
 70
     0
  9
$DIMSCALE
 40
0.5
  9
$DIMASZ
 40
2.5
  9
$DIMEXO
 40
1.0
  9
$DIMDLI
 40
12.0
  9
$DIMRND
 40
0.0
  9
$DIMDLE
 40
0.0
  9
$DIMEXE
 40
1.0
  9
$DIMTP
 40
0.1
  9
$DIMTM
 40
0.1
  9
$DIMTXT
 40
3.2
  9
$DIMCEN
 40
0.0
  9
$DIMTSZ
 40
0.0
  9
$DIMTOL
 70
     0
  9
$DIMLIM
 70
     0
  9
$DIMTIH
 70
     0
  9
$DIMTOH
 70
     0
  9
$DIMSE1
 70
     0
  9
$DIMSE2
 70
     0
  9
$DIMTAD
 70
     3
  9
$DIMZIN
 70
     8
  9
$DIMBLK
  1
OPEN30
  9
$DIMASO
 70
     1
  9
$DIMSHO
 70
     1
  9
$DIMPOST
  1

  9
$DIMAPOST
  1
"
  9
$DIMALT
 70
     0
  9
$DIMALTD
 70
     2
  9
$DIMALTF
 40
0.0393701
  9
$DIMLFAC
 40
1.0
  9
$DIMTOFL
 70
     1
  9
$DIMTVP
 40
0.0
  9
$DIMTIX
 70
     0
  9
$DIMSOXD
 70
     0
  9
$DIMSAH
 70
     0
  9
$DIMBLK1
  1

  9
$DIMBLK2
  1

  9
$DIMSTYLE
  2
AM_JIS
  9
$DIMCLRD
 70
   256
  9
$DIMCLRE
 70
   256
  9
$DIMCLRT
 70
     2
  9
$DIMTFAC
 40
0.71
  9
$DIMGAP
 40
1.5
  9
$DIMJUST
 70
     0
  9
$DIMSD1
 70
     0
  9
$DIMSD2
 70
     0
  9
$DIMTOLJ
 70
     0
  9
$DIMTZIN
 70
     0
  9
$DIMALTZ
 70
     0
  9
$DIMALTTZ
 70
     0
  9
$DIMFIT
 70
     3
  9
$DIMUPT
 70
     0
  9
$DIMUNIT
 70
     2
  9
$DIMDEC
 70
     3
  9
$DIMTDEC
 70
     3
  9
$DIMALTU
 70
     2
  9
$DIMALTTD
 70
     2
  9
$DIMTXSTY
  7
ASAMI
  9
$DIMAUNIT
 70
     0
  9
$LUNITS
 70
     2
  9
$LUPREC
 70
     2
  9
$SKETCHINC
 40
1.0
  9
$FILLETRAD
 40
2.5
  9
$AUNITS
 70
     0
  9
$AUPREC
 70
     0
  9
$MENU
  1
.
  9
$ELEVATION
 40
0.0
  9
$PELEVATION
 40
0.0
  9
$THICKNESS
 40
0.0
  9
$LIMCHECK
 70
     0
  9
$BLIPMODE
 70
     0
  9
$CHAMFERA
 40
0.5
  9
$CHAMFERB
 40
0.5
  9
$CHAMFERC
 40
20.0
  9
$CHAMFERD
 40
0.0
  9
$SKPOLY
 70
     0
  9
$TDCREATE
 40
2452838.430434386
  9
$TDUPDATE
 40
2453151.729575000
  9
$TDINDWG
 40
0.4891313194
  9
$TDUSRTIMER
 40
0.4891313194
  9
$USRTIMER
 70
     1
  9
$ANGBASE
 50
0.0
  9
$ANGDIR
 70
     0
  9
$PDMODE
 70
     0
  9
$PDSIZE
 40
0.0
  9
$PLINEWID
 40
0.0
  9
$COORDS
 70
     1
  9
$SPLFRAME
 70
     0
  9
$SPLINETYPE
 70
     6
  9
$SPLINESEGS
 70
     8
  9
$ATTDIA
 70
     1
  9
$ATTREQ
 70
     1
  9
$HANDLING
 70
 12289
  9
$HANDSEED
  5
AD8B
  9
$SURFTAB1
 70
     6
  9
$SURFTAB2
 70
     6
  9
$SURFTYPE
 70
     6
  9
$SURFU
 70
     6
  9
$SURFV
 70
     6
  9
$UCSNAME
  2

  9
$UCSORG
 10
0.0
 20
0.0
 30
0.0
  9
$UCSXDIR
 10
1.0
 20
0.0
 30
0.0
  9
$UCSYDIR
 10
0.0
 20
1.0
 30
0.0
  9
$PUCSNAME
  2

  9
$PUCSORG
 10
0.0
 20
0.0
 30
0.0
  9
$PUCSXDIR
 10
1.0
 20
0.0
 30
0.0
  9
$PUCSYDIR
 10
0.0
 20
1.0
 30
0.0
  9
$USERI1
 70
     0
  9
$USERI2
 70
     0
  9
$USERI3
 70
     0
  9
$USERI4
 70
     0
  9
$USERI5
 70
     0
  9
$USERR1
 40
0.0
  9
$USERR2
 40
0.0
  9
$USERR3
 40
0.0
  9
$USERR4
 40
0.0
  9
$USERR5
 40
0.0
  9
$WORLDVIEW
 70
     1
  9
$SHADEDGE
 70
     3
  9
$SHADEDIF
 70
    70
  9
$TILEMODE
 70
     1
  9
$MAXACTVP
 70
    64
  9
$PINSBASE
 10
0.0
 20
0.0
 30
0.0
  9
$PLIMCHECK
 70
     0
  9
$PEXTMIN
 10
1.000000000000000E+20
 20
1.000000000000000E+20
 30
1.000000000000000E+20
  9
$PEXTMAX
 10
-1.000000000000000E+20
 20
-1.000000000000000E+20
 30
-1.000000000000000E+20
  9
$PLIMMIN
 10
0.0
 20
0.0
  9
$PLIMMAX
 10
841.0
 20
594.0
  9
$UNITMODE
 70
     0
  9
$VISRETAIN
 70
     1
  9
$PLINEGEN
 70
     0
  9
$PSLTSCALE
 70
     0
  9
$TREEDEPTH
 70
  3020
  9
$PICKSTYLE
 70
     0
  9
$CMLSTYLE
  2
STANDARD
  9
$CMLJUST
 70
     0
  9
$CMLSCALE
 40
20.0
  9
$PROXYGRAPHICS
 70
     1
  9
$MEASUREMENT
 70
     1
  0
ENDSEC
  0
SECTION
  2
CLASSES
  0
CLASS
  1
ACDBDICTIONARYWDFLT
  2
AcDbDictionaryWithDefault
  3
AutoCAD 2000
 90
        0
280
     0
281
     0
  0
CLASS
  1
ACDBPLACEHOLDER
  2
AcDbPlaceHolder
  3
AutoCAD 2000
 90
        0
280
     0
281
     0
  0
CLASS
  1
LAYOUT
  2
AcDbLayout
  3
AutoCAD 2000
 90
        0
280
     0
281
     0
  0
CLASS
  1
AMGSETTINGSOBJ
  2
AmgSettingsObj
  3
"AcadM|Product Description: AutoCAD Mechanical 2000|Company: Autodesk"
 90
        0
280
     0
281
     0
  0
CLASS
  1
ACME_DOCUMENT
  2
AcMeDbDoc
  3
AcMeServices
 90
        0
280
     0
281
     0
  0
CLASS
  1
ACMESCOPE
  2
AcMeScope
  3
AcMeServices
 90
        0
280
     0
281
     0
  0
CLASS
  1
ACMECOMMANDHISTORY
  2
AcMeCommandHistory
  3
AcMeServices
 90
        0
280
     0
281
     0
  0
CLASS
  1
DICTIONARYVAR
  2
AcDbDictionaryVar
  3
AutoCAD 2000
 90
        0
280
     0
281
     0
  0
CLASS
  1
ACIMSYSVARMAN
  2
AcImSysVarManager
  3
AcMeServices
 90
        0
280
     0
281
     0
  0
CLASS
  1
ACIMREALSYSVAR
  2
AcImRealSysVar
  3
AcMeServices
 90
        0
280
     0
281
     0
  0
CLASS
  1
ACIMINTSYSVAR
  2
AcImIntSysVar
  3
AcMeServices
 90
        0
280
     0
281
     0
  0
CLASS
  1
ACMEDRAWINGMAN
  2
AcMeDrawingMan
  3
AcMeServices
 90
        0
280
     0
281
     0
  0
CLASS
  1
ACMEVIEW
  2
AcMeView
  3
AcMeServices
 90
        0
280
     0
281
     0
  0
CLASS
  1
ACDBENTITYCACHE
  2
AcMeEntityCache
  3
AcMeServices
 90
        0
280
     0
281
     0
  0
CLASS
  1
GSMANAGER
  2
AcMeGSManager
  3
AcMeServices
 90
        0
280
     0
281
     0
  0
CLASS
  1
AmdtInternalReactor
  2
AmdtInternalReactor
  3
AcMeServices
 90
        0
280
     0
281
     0
  0
CLASS
  1
ACMESTATEMGR
  2
AcMeStateMgr
  3
AcMeServices
 90
        0
280
     0
281
     0
  0
CLASS
  1
ACME_DATABASE
  2
AcMeDbDatabase
  3
AcMeServices
 90
        0
280
     0
281
     0
  0
CLASS
  1
ACRFINSADJUSTERMGR
  2
AcRfInsAdjusterMgr
  3
AcMeServices
 90
        0
280
     0
281
     0
  0
CLASS
  1
ACMDATADICTIONARY
  2
AcmDataDictionary
  3
"AcmSymBB|Product Description: AutoCAD Mechanical 2000|Company: Autodesk"
 90
        0
280
     0
281
     0
  0
CLASS
  1
ACMDATAENTRYBLOCK
  2
AcmDataEntryBlock
  3
"AcmSymBB|Product Description: AutoCAD Mechanical 2000|Company: Autodesk"
 90
        0
280
     0
281
     0
  0
CLASS
  1
AMGOBJPROPCFG
  2
AmgObjPropCfg
  3
"AmgLay|Product Description: AutoCAD Mechanical 2000|Company: Autodesk"
 90
        1
280
     0
281
     0
  0
CLASS
  1
ACAMGFILTERDAT
  2
AcAmgFilterDat
  3
"AcadM|Product Description: AutoCAD Mechanical 2000|Company: Autodesk"
 90
        0
280
     0
281
     0
  0
CLASS
  1
LAYER_INDEX
  2
AcDbLayerIndex
  3
AutoCAD 2000
 90
        0
280
     0
281
     0
  0
CLASS
  1
IDBUFFER
  2
AcDbIdBuffer
  3
AutoCAD 2000
 90
        0
280
     0
281
     0
  0
CLASS
  1
ACIMSTRSYSVAR
  2
AcImStrSysVar
  3
AcMeServices
 90
        0
280
     0
281
     0
  0
CLASS
  1
ACMSTANDARDJIS
  2
AcmStandardJIS
  3
"AcmSymBB|Product Description: AutoCAD Mechanical 2000|Company: Autodesk"
 90
        0
280
     0
281
     0
  0
CLASS
  1
ACMSURFSTANDARDJIS
  2
AcmSurfTextStdJIS
  3
"AcmSymBB|Product Description: AutoCAD Mechanical 2000|Company: Autodesk"
 90
        0
280
     0
281
     0
  0
CLASS
  1
ACMFCFSTANDARDJIS
  2
AcmFCFStdJIS
  3
"AcmSymBB|Product Description: AutoCAD Mechanical 2000|Company: Autodesk"
 90
        0
280
     0
281
     0
  0
CLASS
  1
ACMWELDSTANDARDJIS
  2
AcmWeldingStdJIS
  3
"AcmSymBB|Product Description: AutoCAD Mechanical 2000|Company: Autodesk"
 90
        0
280
     0
281
     0
  0
CLASS
  1
ACMIDSTANDARDJIS
  2
AcmIdStdJIS
  3
"AcmSymBB|Product Description: AutoCAD Mechanical 2000|Company: Autodesk"
 90
        0
280
     0
281
     0
  0
CLASS
  1
ACMDATUMSTANDARDJIS
  2
AcmDatumStdJIS
  3
"AcmSymBB|Product Description: AutoCAD Mechanical 2000|Company: Autodesk"
 90
        0
280
     0
281
     0
  0
CLASS
  1
ACMBOMSTANDARDJIS
  2
AcmBOMStdJIS
  3
"AcmSymBB|Product Description: AutoCAD Mechanical 2000|Company: Autodesk"
 90
        0
280
     0
281
     0
  0
CLASS
  1
ACMSTANDARDANSI
  2
AcmStandardANSI
  3
"AcmSymBB|Product Description: AutoCAD Mechanical 2000|Company: Autodesk"
 90
        0
280
     0
281
     0
  0
CLASS
  1
ACMSURFSTANDARDANSI
  2
AcmSurfTextStdANSI
  3
"AcmSymBB|Product Description: AutoCAD Mechanical 2000|Company: Autodesk"
 90
        0
280
     0
281
     0
  0
CLASS
  1
ACMFCFSTANDARDANSI
  2
AcmFCFStdANSI
  3
"AcmSymBB|Product Description: AutoCAD Mechanical 2000|Company: Autodesk"
 90
        0
280
     0
281
     0
  0
CLASS
  1
ACMWELDSTANDARDANSI
  2
AcmWeldingStdANSI
  3
"AcmSymBB|Product Description: AutoCAD Mechanical 2000|Company: Autodesk"
 90
        0
280
     0
281
     0
  0
CLASS
  1
ACMIDSTANDARDANSI
  2
AcmIdStdANSI
  3
"AcmSymBB|Product Description: AutoCAD Mechanical 2000|Company: Autodesk"
 90
        0
280
     0
281
     0
  0
CLASS
  1
ACMDATUMSTANDARDANSI
  2
AcmDatumStdANSI
  3
"AcmSymBB|Product Description: AutoCAD Mechanical 2000|Company: Autodesk"
 90
        0
280
     0
281
     0
  0
CLASS
  1
ACMBOMSTANDARDANSI
  2
AcmBOMStdANSI
  3
"AcmSymBB|Product Description: AutoCAD Mechanical 2000|Company: Autodesk"
 90
        0
280
     0
281
     0
  0
CLASS
  1
ACMSTANDARDBSI
  2
AcmStandardBSI
  3
"AcmSymBB|Product Description: AutoCAD Mechanical 2000|Company: Autodesk"
 90
        0
280
     0
281
     0
  0
CLASS
  1
ACMSURFSTANDARDBSI
  2
AcmSurfTextStdBSI
  3
"AcmSymBB|Product Description: AutoCAD Mechanical 2000|Company: Autodesk"
 90
        0
280
     0
281
     0
  0
CLASS
  1
ACMFCFSTANDARDBSI
  2
AcmFCFStdBSI
  3
"AcmSymBB|Product Description: AutoCAD Mechanical 2000|Company: Autodesk"
 90
        0
280
     0
281
     0
  0
CLASS
  1
ACMWELDSTANDARDBSI
  2
AcmWeldingStdBSI
  3
"AcmSymBB|Product Description: AutoCAD Mechanical 2000|Company: Autodesk"
 90
        0
280
     0
281
     0
  0
CLASS
  1
ACMIDSTANDARDBSI
  2
AcmIdStdBSI
  3
"AcmSymBB|Product Description: AutoCAD Mechanical 2000|Company: Autodesk"
 90
        0
280
     0
281
     0
  0
CLASS
  1
ACMDATUMSTANDARDBSI
  2
AcmDatumStdBSI
  3
"AcmSymBB|Product Description: AutoCAD Mechanical 2000|Company: Autodesk"
 90
        0
280
     0
281
     0
  0
CLASS
  1
ACMBOMSTANDARDBSI
  2
AcmBOMStdBSI
  3
"AcmSymBB|Product Description: AutoCAD Mechanical 2000|Company: Autodesk"
 90
        0
280
     0
281
     0
  0
CLASS
  1
LONG_TRANSACTION
  2
AcDbLongTransaction
  3
AutoCAD 2000
 90
        0
280
     0
281
     0
  0
CLASS
  1
LWPOLYLINE
  2
AcDbPolyline
  3
AutoCAD 2000
 90
        0
280
     0
281
     1
  0
CLASS
  1
HATCH
  2
AcDbHatch
  3
AutoCAD 2000
 90
        0
280
     0
281
     1
  0
CLASS
  1
XRECORD
  2
AcDbXrecord
  3
AutoCAD 2000
 90
        0
280
     0
281
     0
  0
ENDSEC
  0
SECTION
  2
TABLES
  0
TABLE
  2
VPORT
  5
8
330
0
100
AcDbSymbolTable
 70
     3
  0
VPORT
  5
AD60
330
8
100
AcDbSymbolTableRecord
100
AcDbViewportTableRecord
  2
*ACTIVE
 70
     0
 10
0.0
 20
0.0
 11
1.0
 21
1.0
 12
-35.47529430017031
 22
-10.42902420188374
 13
0.0
 23
0.0
 14
2.5
 24
2.5
 15
10.0
 25
10.0
 16
0.0
 26
0.0
 36
1.0
 17
0.0
 27
0.0
 37
0.0
 40
69.79426751130178
 41
1.56570841889117
 42
50.0
 43
0.0
 44
0.0
 50
0.0
 51
0.0
 71
     0
 72
   100
 73
     1
 74
     3
 75
     0
 76
     0
 77
     0
 78
     0
  0
ENDTAB
  0
TABLE
  2
LTYPE
  5
5
330
0
100
AcDbSymbolTable
 70
    10
  0
LTYPE
  5
14
330
5
100
AcDbSymbolTableRecord
100
AcDbLinetypeTableRecord
  2
BYBLOCK
 70
     0
  3

 72
    65
 73
     0
 40
0.0
  0
LTYPE
  5
15
330
5
100
AcDbSymbolTableRecord
100
AcDbLinetypeTableRecord
  2
BYLAYER
 70
     0
  3

 72
    65
 73
     0
 40
0.0
  0
LTYPE
  5
16
330
5
100
AcDbSymbolTableRecord
100
AcDbLinetypeTableRecord
  2
CONTINUOUS
 70
     0
  3
Solid line
 72
    65
 73
     0
 40
0.0
  0
LTYPE
  5
4B
330
5
100
AcDbSymbolTableRecord
100
AcDbLinetypeTableRecord
  2
AM_ISO02W050
 70
     0
  3
__ __ __ __ __ __ __ __ __ __ __ __ __ __ __
 72
    65
 73
     2
 40
7.5
 49
6.0
 74
     0
 49
-1.5
 74
     0
  0
LTYPE
  5
4C
330
5
100
AcDbSymbolTableRecord
100
AcDbLinetypeTableRecord
  2
AM_ISO08W050
 70
     0
  3
____ . ____ . ____ . ____ . ____ . ____ . ____
 72
    65
 73
     4
 40
18.0
 49
12.0
 74
     0
 49
-1.5
 74
     0
 49
3.0
 74
     0
 49
-1.5
 74
     0
  0
LTYPE
  5
4D
330
5
100
AcDbSymbolTableRecord
100
AcDbLinetypeTableRecord
  2
AM_ISO09W050
 70
     0
  3
_____ . . _____ . . _____ . . ____ .. ____
 72
    65
 73
     6
 40
22.5
 49
12.0
 74
     0
 49
-1.5
 74
     0
 49
3.0
 74
     0
 49
-1.5
 74
     0
 49
3.0
 74
     0
 49
-1.5
 74
     0
  0
LTYPE
  5
4E
330
5
100
AcDbSymbolTableRecord
100
AcDbLinetypeTableRecord
  2
AMCONSTR
 70
     0
  3
_______________________
 72
    65
 73
     2
 40
9999.0
 49
9999.0
 74
     0
 49
0.0
 74
     0
  0
LTYPE
  5
4F
330
5
100
AcDbSymbolTableRecord
100
AcDbLinetypeTableRecord
  2
AM_ISO02W050X2
 70
     0
  3
 _ _ _ _ _ _ _ _ _ _ _ _
 72
    65
 73
     2
 40
3.75
 49
3.0
 74
     0
 49
-0.75
 74
     0
  0
LTYPE
  5
50
330
5
100
AcDbSymbolTableRecord
100
AcDbLinetypeTableRecord
  2
AM_ISO08W050X2
 70
     0
  3
__ . __ . __ . __ . __ . __
 72
    65
 73
     4
 40
9.0
 49
6.0
 74
     0
 49
-0.75
 74
     0
 49
1.5
 74
     0
 49
-0.75
 74
     0
  0
LTYPE
  5
53
330
5
100
AcDbSymbolTableRecord
100
AcDbLinetypeTableRecord
  2
AMZIGZAG
 70
     0
  3
/\/-/\/-/\/-/\/-/\/-/\/
 72
    65
 73
     2
 40
11.00009999999999
 49
0.0001
 74
     4
 75
   135
340
52
 46
0.04
 50
0.0
 44
0.0
 45
0.0
 49
-11.0
 74
     0
  0
LTYPE
  5
166
330
5
100
AcDbSymbolTableRecord
100
AcDbLinetypeTableRecord
  2
ACJISTGL
 70
     0
  3
_ _ _ _ _
 72
    65
 73
     2
 40
3.0
 49
2.0
 74
     0
 49
-1.0
 74
     0
  0
LTYPE
  5
26A
330
5
100
AcDbSymbolTableRecord
100
AcDbLinetypeTableRecord
  2
ACJISTGB
 70
     0
  3
__ . . __ . .
 72
    65
 73
     6
 40
9.0
 49
4.0
 74
     0
 49
-1.0
 74
     0
 49
1.0
 74
     0
 49
-1.0
 74
     0
 49
1.0
 74
     0
 49
-1.0
 74
     0
  0
ENDTAB
  0
TABLE
  2
LAYER
  5
2
330
0
100
AcDbSymbolTable
 70
     7
  0
LAYER
  5
10
330
2
100
AcDbSymbolTableRecord
100
AcDbLayerTableRecord
  2
0
 70
     0
 62
     7
  6
CONTINUOUS
  0
LAYER
  5
3F9
330
2
100
AcDbSymbolTableRecord
100
AcDbLayerTableRecord
  2
AM_0
 70
     0
 62
     7
  6
CONTINUOUS
  0
LAYER
  5
BDD
330
2
100
AcDbSymbolTableRecord
100
AcDbLayerTableRecord
  2
AM_11
 70
     0
 62
     3
  6
AM_ISO09W050
  0
LAYER
  5
BDE
330
2
100
AcDbSymbolTableRecord
100
AcDbLayerTableRecord
  2
AM_7
 70
     0
 62
     4
  6
AM_ISO08W050
  0
LAYER
  5
BDF
330
2
100
AcDbSymbolTableRecord
100
AcDbLayerTableRecord
  2
AM_5
 70
     0
 62
     3
  6
CONTINUOUS
  0
LAYER
  5
BE0
330
2
100
AcDbSymbolTableRecord
100
AcDbLayerTableRecord
  2
DEFPOINTS
 70
     0
 62
     7
  6
CONTINUOUS
  0
LAYER
  5
14FF
330
2
100
AcDbSymbolTableRecord
100
AcDbLayerTableRecord
  2
AM_6
 70
     0
 62
     2
  6
CONTINUOUS
  0
ENDTAB
  0
TABLE
  2
STYLE
  5
3
330
0
100
AcDbSymbolTable
 70
     5
  0
STYLE
  5
11
330
3
100
AcDbSymbolTableRecord
100
AcDbTextStyleTableRecord
  2
STANDARD
 70
     0
 40
0.0
 41
1.0
 50
0.0
 71
     0
 42
2.5
  3
simplex.shx
  4
EXTFONT.SHX
  0
STYLE
  5
52
330
3
100
AcDbSymbolTableRecord
100
AcDbTextStyleTableRecord
  2

 70
     1
 40
0.0
 41
1.0
 50
0.0
 71
     0
 42
2.5
  3
ltypeshp.shx
  4

  0
STYLE
  5
6B
330
3
100
AcDbSymbolTableRecord
100
AcDbTextStyleTableRecord
  2
ASAMI
 70
     0
 40
0.0
 41
1.0
 50
0.0
 71
     0
 42
2.5
  3
simplex.shx
  4
EXTFONT.SHX
  0
STYLE
  5
262
330
3
100
AcDbSymbolTableRecord
100
AcDbTextStyleTableRecord
  2
ACJISTS
 70
     0
 40
1.0
 41
1.0
 50
0.0
 71
     0
 42
2.5
  3
simplex.shx
  4
bigfont.shx
  0
STYLE
  5
269
330
3
100
AcDbSymbolTableRecord
100
AcDbTextStyleTableRecord
  2
ACJISGDT
 70
     0
 40
0.0
 41
1.0
 50
0.0
 71
     0
 42
2.5
  3
amgdtans.shx
  4

  0
ENDTAB
  0
TABLE
  2
VIEW
  5
6
330
0
100
AcDbSymbolTable
 70
     0
  0
ENDTAB
  0
TABLE
  2
UCS
  5
7
330
0
100
AcDbSymbolTable
 70
     0
  0
ENDTAB
  0
TABLE
  2
APPID
  5
9
330
0
100
AcDbSymbolTable
 70
    13
  0
APPID
  5
12
330
9
100
AcDbSymbolTableRecord
100
AcDbRegAppTableRecord
  2
ACAD
 70
     0
  0
APPID
  5
30
330
9
100
AcDbSymbolTableRecord
100
AcDbRegAppTableRecord
  2
MCAD_NO_VIS
 70
     0
  0
APPID
  5
31
330
9
100
AcDbSymbolTableRecord
100
AcDbRegAppTableRecord
  2
ACAD_TEMP_GRAPHIC
 70
     0
  0
APPID
  5
2C2
330
9
100
AcDbSymbolTableRecord
100
AcDbRegAppTableRecord
  2
GENIUS_GENDTOL_13
 70
     0
  0
APPID
  5
339
330
9
100
AcDbSymbolTableRecord
100
AcDbRegAppTableRecord
  2
GENIUS_GENODEF_13
 70
     0
  0
APPID
  5
33A
330
9
100
AcDbSymbolTableRecord
100
AcDbRegAppTableRecord
  2
GENIUS_GENOBJ-N-RSBK_13
 70
     0
  0
APPID
  5
33B
330
9
100
AcDbSymbolTableRecord
100
AcDbRegAppTableRecord
  2
GENIUS_GENOBJ-N-LIB_13
 70
     0
  0
APPID
  5
33C
330
9
100
AcDbSymbolTableRecord
100
AcDbRegAppTableRecord
  2
GENIUS_GENSCALE_13
 70
     0
  0
APPID
  5
378
330
9
100
AcDbSymbolTableRecord
100
AcDbRegAppTableRecord
  2
GENIUS_GENDIMSH_14
 70
     0
  0
APPID
  5
BE1
330
9
100
AcDbSymbolTableRecord
100
AcDbRegAppTableRecord
  2
GENIUS_GENFIL_13
 70
     0
  0
APPID
  5
BE2
330
9
100
AcDbSymbolTableRecord
100
AcDbRegAppTableRecord
  2
GENIUS_GENOBJ-N-CHA_13
 70
     0
  0
APPID
  5
151B
330
9
100
AcDbSymbolTableRecord
100
AcDbRegAppTableRecord
  2
DCO15
 70
     0
  0
APPID
  5
1860
330
9
100
AcDbSymbolTableRecord
100
AcDbRegAppTableRecord
  2
GENIUS_GENOBJ-N-CEN_13
 70
     0
  0
ENDTAB
  0
TABLE
  2
DIMSTYLE
  5
A
330
0
100
AcDbSymbolTable
 70
     8
  0
DIMSTYLE
105
58
102
{ACAD_REACTORS
330
A215
330
A2A1
330
A7E7
330
AB45
102
}
330
A
100
AcDbSymbolTableRecord
100
AcDbDimStyleTableRecord
  2
AM_JIS
 70
     0
  3

  4
"
  5
OPEN30
  6

  7

 40
0.5
 41
2.5
 42
1.0
 43
12.0
 44
1.0
 45
0.0
 46
0.0
 47
0.1
 48
0.1
140
3.2
141
0.0
142
0.0
143
0.0393701
144
1.0
145
0.0
146
0.71
147
1.5
 71
     0
 72
     0
 73
     0
 74
     0
 75
     0
 76
     0
 77
     3
 78
     8
170
     0
171
     2
172
     1
173
     0
174
     0
175
     0
176
   256
177
   256
178
     2
270
     2
271
     3
272
     3
273
     2
274
     2
340
6B
275
     0
280
     0
281
     0
282
     0
283
     0
284
     0
285
     0
286
     0
287
     3
288
     0
  0
DIMSTYLE
105
5F
330
A
100
AcDbSymbolTableRecord
100
AcDbDimStyleTableRecord
  2
AM_JIS$3
 70
     0
  3

  4
"
  5
OPEN30
  6

  7

 40
0.5
 41
2.5
 42
1.0
 43
10.0
 44
1.0
 45
0.0
 46
0.0
 47
0.1
 48
0.1
140
3.2
141
0.0
142
0.0
143
0.0393701
144
1.0
145
0.0
146
0.71
147
1.5
 71
     0
 72
     0
 73
     0
 74
     1
 75
     0
 76
     0
 77
     3
 78
     8
170
     0
171
     2
172
     0
173
     0
174
     0
175
     0
176
   256
177
   256
178
     2
270
     2
271
     2
272
     3
273
     2
274
     2
340
6B
275
     0
280
     0
281
     0
282
     0
283
     0
284
     0
285
     0
286
     0
287
     0
288
     1
  0
DIMSTYLE
105
60
330
A
100
AcDbSymbolTableRecord
100
AcDbDimStyleTableRecord
  2
AM_JIS$4
 70
     0
  3

  4
"
  5
OPEN30
  6

  7

 40
0.5
 41
2.5
 42
1.0
 43
10.0
 44
1.0
 45
0.0
 46
0.0
 47
0.1
 48
0.1
140
3.2
141
0.0
142
0.0
143
0.0393701
144
1.0
145
0.0
146
0.71
147
1.5
 71
     0
 72
     0
 73
     0
 74
     1
 75
     0
 76
     0
 77
     3
 78
     8
170
     0
171
     2
172
     0
173
     0
174
     0
175
     0
176
   256
177
   256
178
     2
270
     2
271
     2
272
     3
273
     2
274
     2
340
6B
275
     0
280
     0
281
     0
282
     0
283
     0
284
     0
285
     0
286
     0
287
     0
288
     1
  0
DIMSTYLE
105
61
330
A
100
AcDbSymbolTableRecord
100
AcDbDimStyleTableRecord
  2
AM_JIS$6
 70
     0
  3

  4
"
  5
OPEN30
  6

  7

 40
0.5
 41
2.5
 42
1.0
 43
10.0
 44
1.0
 45
0.0
 46
0.0
 47
0.1
 48
0.1
140
3.2
141
0.0
142
0.0
143
0.0393701
144
1.0
145
0.0
146
0.71
147
1.5
 71
     0
 72
     0
 73
     0
 74
     0
 75
     0
 76
     0
 77
     0
 78
     8
170
     0
171
     2
172
     1
173
     0
174
     0
175
     0
176
   256
177
   256
178
     2
270
     2
271
     2
272
     2
273
     2
274
     2
340
6B
275
     0
280
     0
281
     0
282
     0
283
     0
284
     0
285
     0
286
     0
287
     3
288
     0
  0
DIMSTYLE
105
62
330
A
100
AcDbSymbolTableRecord
100
AcDbDimStyleTableRecord
  2
AM_JIS$7
 70
     0
  3

  4
"
  5
OPEN30
  6

  7

 40
0.5
 41
2.5
 42
1.0
 43
10.0
 44
1.0
 45
0.0
 46
0.0
 47
0.1
 48
0.1
140
3.2
141
0.0
142
0.0
143
0.0393701
144
1.0
145
0.0
146
0.71
147
1.5
 71
     0
 72
     0
 73
     0
 74
     0
 75
     0
 76
     0
 77
     3
 78
     8
170
     0
171
     2
172
     1
173
     0
174
     0
175
     0
176
   256
177
   256
178
     2
270
     2
271
     2
272
     3
273
     2
274
     2
340
6B
275
     0
280
     0
281
     0
282
     0
283
     0
284
     0
285
     0
286
     0
287
     3
288
     0
  0
DIMSTYLE
105
63
330
A
100
AcDbSymbolTableRecord
100
AcDbDimStyleTableRecord
  2
AM_JIS$SF
 70
     0
  3

  4
"
  5
OPEN30
  6

  7

 40
0.5
 41
2.5
 42
1.0
 43
10.0
 44
1.0
 45
0.0
 46
0.0
 47
0.1
 48
0.1
140
3.2
141
0.0
142
0.0
143
0.0393701
144
1.0
145
0.0
146
0.71
147
1.5
 71
     0
 72
     0
 73
     0
 74
     0
 75
     1
 76
     1
 77
     3
 78
     8
170
     0
171
     2
172
     1
173
     0
174
     0
175
     0
176
   256
177
   256
178
     2
270
     2
271
     2
272
     2
273
     2
274
     2
340
6B
275
     0
280
     0
281
     0
282
     0
283
     0
284
     0
285
     0
286
     0
287
     3
288
     0
  0
DIMSTYLE
105
68
330
A
100
AcDbSymbolTableRecord
100
AcDbDimStyleTableRecord
  2
AM_JIS$SH
 70
     0
  3

  4
"
  5

  6
GENAXEH
  7
OPEN30
 40
0.5
 41
2.5
 42
1.0
 43
10.0
 44
1.0
 45
0.0
 46
0.0
 47
0.1
 48
0.1
140
3.2
141
0.0
142
0.0
143
0.0393701
144
2.0
145
0.0
146
0.71
147
1.5
 71
     0
 72
     0
 73
     0
 74
     0
 75
     1
 76
     1
 77
     3
 78
     8
170
     0
171
     2
172
     1
173
     1
174
     0
175
     0
176
   256
177
   256
178
     2
270
     2
271
     2
272
     2
273
     2
274
     2
340
6B
275
     0
280
     0
281
     0
282
     0
283
     0
284
     0
285
     0
286
     0
287
     3
288
     0
  0
DIMSTYLE
105
B34
330
A
100
AcDbSymbolTableRecord
100
AcDbDimStyleTableRecord
  2
AM_JIS$2
 70
     0
  3

  4
"
  5
OPEN30
  6

  7

 40
0.5
 41
2.5
 42
1.0
 43
12.0
 44
1.0
 45
0.0
 46
0.0
 47
0.1
 48
0.1
140
3.2
141
0.0
142
0.0
143
0.0393701
144
1.0
145
0.0
146
0.71
147
1.5
 71
     0
 72
     0
 73
     0
 74
     0
 75
     0
 76
     0
 77
     3
 78
     8
170
     0
171
     2
172
     1
173
     0
174
     0
175
     0
176
   256
177
   256
178
     2
270
     2
271
     3
272
     3
273
     2
274
     2
340
6B
275
     0
280
     0
281
     0
282
     0
283
     0
284
     0
285
     0
286
     0
287
     3
288
     0
  0
ENDTAB
  0
TABLE
  2
BLOCK_RECORD
  5
1
330
0
100
AcDbSymbolTable
 70
     9
  0
BLOCK_RECORD
  5
1F
102
{ACAD_XDICTIONARY
360
74
102
}
330
1
100
AcDbSymbolTableRecord
100
AcDbBlockTableRecord
  2
*MODEL_SPACE
  0
BLOCK_RECORD
  5
101
102
{ACAD_XDICTIONARY
360
AD89
102
}
330
1
100
AcDbSymbolTableRecord
100
AcDbBlockTableRecord
  2
*PAPER_SPACE
  0
BLOCK_RECORD
  5
59
330
1
100
AcDbSymbolTableRecord
100
AcDbBlockTableRecord
  2
_OPEN30
  0
BLOCK_RECORD
  5
64
330
1
100
AcDbSymbolTableRecord
100
AcDbBlockTableRecord
  2
GENAXEH
  0
BLOCK_RECORD
  5
A216
330
1
100
AcDbSymbolTableRecord
100
AcDbBlockTableRecord
  2
*D5
  0
BLOCK_RECORD
  5
A2A2
330
1
100
AcDbSymbolTableRecord
100
AcDbBlockTableRecord
  2
*D6
  0
BLOCK_RECORD
  5
A7E8
330
1
100
AcDbSymbolTableRecord
100
AcDbBlockTableRecord
  2
*D7
  0
BLOCK_RECORD
  5
AB46
330
1
100
AcDbSymbolTableRecord
100
AcDbBlockTableRecord
  2
*D8
  0
ENDTAB
  0
ENDSEC
  0
SECTION
  2
BLOCKS
  0
BLOCK
  5
20
330
1F
100
AcDbEntity
  8
0
100
AcDbBlockBegin
  2
*MODEL_SPACE
 70
     0
 10
0.0
 20
0.0
 30
0.0
  3
*MODEL_SPACE
  1

  0
ENDBLK
  5
21
330
1F
100
AcDbEntity
  8
0
100
AcDbBlockEnd
  0
BLOCK
  5
103
330
101
100
AcDbEntity
 67
     1
  8
0
100
AcDbBlockBegin
  2
*PAPER_SPACE
 70
     0
 10
0.0
 20
0.0
 30
0.0
  3
*PAPER_SPACE
  1

  0
ENDBLK
  5
104
330
101
100
AcDbEntity
 67
     1
  8
0
100
AcDbBlockEnd
  0
BLOCK
  5
5D
330
59
100
AcDbEntity
  8
0
100
AcDbBlockBegin
  2
_OPEN30
 70
     0
 10
0.0
 20
0.0
 30
0.0
  3
_OPEN30
  1

  0
LINE
  5
5A
330
59
100
AcDbEntity
  8
0
 62
     0
100
AcDbLine
 10
-1.0
 20
0.26794919
 30
0.0
 11
0.0
 21
0.0
 31
0.0
  0
LINE
  5
5B
330
59
100
AcDbEntity
  8
0
 62
     0
100
AcDbLine
 10
0.0
 20
0.0
 30
0.0
 11
-1.0
 21
-0.26794919
 31
0.0
  0
LINE
  5
5C
330
59
100
AcDbEntity
  8
0
 62
     0
100
AcDbLine
 10
0.0
 20
0.0
 30
0.0
 11
-1.0
 21
0.0
 31
0.0
  0
ENDBLK
  5
5E
330
59
100
AcDbEntity
  8
0
100
AcDbBlockEnd
  0
BLOCK
  5
66
330
64
100
AcDbEntity
  8
0
100
AcDbBlockBegin
  2
GENAXEH
 70
     0
 10
0.0
 20
0.0
 30
0.0
  3
GENAXEH
  1

  0
LINE
  5
65
330
64
100
AcDbEntity
  8
0
100
AcDbLine
 10
-1.0
 20
0.0
 30
0.0
 11
1.0
 21
0.0
 31
0.0
  0
ENDBLK
  5
67
330
64
100
AcDbEntity
  8
0
100
AcDbBlockEnd
  0
BLOCK
  5
A220
330
A216
100
AcDbEntity
  8
0
100
AcDbBlockBegin
  2
*D5
 70
     1
 10
0.0
 20
0.0
 30
0.0
  3
*D5
  1

  0
LINE
  5
ACF1
330
A216
100
AcDbEntity
  8
AM_5
100
AcDbLine
 10
-0.0000000000007461
 20
-6.5
 30
0.0
 11
-0.0000000000007469
 21
-19.50000100000013
 31
0.0
  0
LINE
  5
ACF2
330
A216
100
AcDbEntity
  8
AM_5
100
AcDbLine
 10
-75.0
 20
-6.000000000000052
 30
0.0
 11
-75.0
 21
-19.50000100000013
 31
0.0
  0
LINE
  5
ACF3
330
A216
100
AcDbEntity
  8
AM_5
100
AcDbLine
 10
-1.250000000000746
 20
-19.00000100000013
 30
0.0
 11
-73.75
 21
-19.00000100000013
 31
0.0
  0
INSERT
  5
ACF4
330
A216
100
AcDbEntity
  8
AM_5
100
AcDbBlockReference
  2
_OPEN30
 10
-0.0000000000007469
 20
-19.00000100000013
 30
0.0
 41
1.25
 42
1.25
 43
1.25
  0
INSERT
  5
ACF5
330
A216
100
AcDbEntity
  8
AM_5
100
AcDbBlockReference
  2
_OPEN30
 10
-75.0
 20
-19.00000100000013
 30
0.0
 41
1.25
 42
1.25
 43
1.25
 50
180.0
  0
MTEXT
  5
ACF6
330
A216
100
AcDbEntity
  8
AM_5
 62
     2
100
AcDbMText
 10
-37.50000000000037
 20
-17.45000100000013
 30
0.0
 40
1.6
 41
0.0
 71
     5
 72
     1
  1
75
  7
ASAMI
1001
ACAD
1000
MTEXTBEGIN
1070
    73
1070
     1
1070
    44
1040
1.0
1070
    74
1070
     0
1000
MTEXTEND
  0
POINT
  5
ACF7
330
A216
100
AcDbEntity
  8
DEFPOINTS
 62
     0
100
AcDbPoint
 10
-0.0000000000007461
 20
-6.0
 30
0.0
  0
POINT
  5
ACF8
330
A216
100
AcDbEntity
  8
DEFPOINTS
 62
     0
100
AcDbPoint
 10
-75.0
 20
-5.500000000000052
 30
0.0
  0
POINT
  5
ACF9
330
A216
100
AcDbEntity
  8
DEFPOINTS
 62
     0
100
AcDbPoint
 10
-75.0
 20
-19.00000100000013
 30
0.0
  0
ENDBLK
  5
A221
330
A216
100
AcDbEntity
  8
0
100
AcDbBlockEnd
  0
BLOCK
  5
A2AC
330
A2A2
100
AcDbEntity
  8
0
100
AcDbBlockBegin
  2
*D6
 70
     1
 10
0.0
 20
0.0
 30
0.0
  3
*D6
  1

  0
LINE
  5
ACE8
330
A2A2
100
AcDbEntity
  8
AM_5
100
AcDbLine
 10
-0.0000000000007461
 20
-6.5
 30
0.0
 11
-0.0000000000007465
 21
-13.50000099999999
 31
0.0
  0
LINE
  5
ACE9
330
A2A2
100
AcDbEntity
  8
AM_5
100
AcDbLine
 10
-24.99974000259998
 20
-6.500000000000019
 30
0.0
 11
-24.99974000259998
 21
-13.50000099999999
 31
0.0
  0
LINE
  5
ACEA
330
A2A2
100
AcDbEntity
  8
AM_5
100
AcDbLine
 10
-1.250000000000746
 20
-13.00000099999999
 30
0.0
 11
-23.74974000259997
 21
-13.00000099999999
 31
0.0
  0
INSERT
  5
ACEB
330
A2A2
100
AcDbEntity
  8
AM_5
100
AcDbBlockReference
  2
_OPEN30
 10
-0.0000000000007465
 20
-13.00000099999999
 30
0.0
 41
1.25
 42
1.25
 43
1.25
  0
INSERT
  5
ACEC
330
A2A2
100
AcDbEntity
  8
AM_5
100
AcDbBlockReference
  2
_OPEN30
 10
-24.99974000259998
 20
-13.00000099999999
 30
0.0
 41
1.25
 42
1.25
 43
1.25
 50
180.0
  0
MTEXT
  5
ACED
330
A2A2
100
AcDbEntity
  8
AM_5
 62
     2
100
AcDbMText
 10
-12.49987000130036
 20
-11.45000099999999
 30
0.0
 40
1.6
 41
0.0
 71
     5
 72
     1
  1
25
  7
ASAMI
1001
ACAD
1000
MTEXTBEGIN
1070
    73
1070
     1
1070
    44
1040
1.0
1070
    74
1070
     0
1000
MTEXTEND
  0
POINT
  5
ACEE
330
A2A2
100
AcDbEntity
  8
DEFPOINTS
 62
     0
100
AcDbPoint
 10
-0.0000000000007461
 20
-6.0
 30
0.0
  0
POINT
  5
ACEF
330
A2A2
100
AcDbEntity
  8
DEFPOINTS
 62
     0
100
AcDbPoint
 10
-24.99974000259998
 20
-6.000000000000019
 30
0.0
  0
POINT
  5
ACF0
330
A2A2
100
AcDbEntity
  8
DEFPOINTS
 62
     0
100
AcDbPoint
 10
-24.99974000259998
 20
-13.00000099999999
 30
0.0
  0
ENDBLK
  5
A2AD
330
A2A2
100
AcDbEntity
  8
0
100
AcDbBlockEnd
  0
BLOCK
  5
A7F2
330
A7E8
100
AcDbEntity
  8
0
100
AcDbBlockBegin
  2
*D7
 70
     1
 10
0.0
 20
0.0
 30
0.0
  3
*D7
  1

  0
LINE
  5
A7F5
330
A7E8
100
AcDbEntity
  8
AM_5
100
AcDbLine
 10
-75.0
 20
5.999999999999924
 30
0.0
 11
-85.81099700121461
 21
5.999999999999927
 31
0.0
  0
LINE
  5
A7F6
330
A7E8
100
AcDbEntity
  8
AM_5
100
AcDbLine
 10
-75.0
 20
-6.000000000000066
 30
0.0
 11
-85.81099700121461
 21
-6.000000000000063
 31
0.0
  0
LINE
  5
A7F7
330
A7E8
100
AcDbEntity
  8
AM_5
100
AcDbLine
 10
-85.31099700121462
 20
4.749999999999927
 30
0.0
 11
-85.31099700121462
 21
-4.750000000000063
 31
0.0
  0
INSERT
  5
A7F8
330
A7E8
100
AcDbEntity
  8
AM_5
100
AcDbBlockReference
  2
_OPEN30
 10
-85.31099700121462
 20
5.999999999999927
 30
0.0
 41
1.25
 42
1.25
 43
1.25
 50
90.0
  0
INSERT
  5
A7F9
330
A7E8
100
AcDbEntity
  8
AM_5
100
AcDbBlockReference
  2
_OPEN30
 10
-85.31099700121462
 20
-6.000000000000063
 30
0.0
 41
1.25
 42
1.25
 43
1.25
 50
270.0
  0
MTEXT
  5
A7FA
330
A7E8
100
AcDbEntity
  8
AM_5
 62
     2
100
AcDbMText
 10
-86.86099700121461
 20
-0.0000000000000816
 30
0.0
 40
1.6
 41
0.0
 71
     5
 72
     1
  1
%%c12
  7
ASAMI
 11
0.0000000000000001
 21
1.0
 31
0.0
1001
ACAD
1000
MTEXTBEGIN
1070
    73
1070
     1
1070
    44
1040
1.0
1070
    74
1070
     0
1000
MTEXTEND
  0
POINT
  5
A7FB
330
A7E8
100
AcDbEntity
  8
DEFPOINTS
 62
     0
100
AcDbPoint
 10
-74.5
 20
5.999999999999924
 30
0.0
  0
POINT
  5
A7FC
330
A7E8
100
AcDbEntity
  8
DEFPOINTS
 62
     0
100
AcDbPoint
 10
-74.5
 20
-6.000000000000066
 30
0.0
  0
POINT
  5
A7FD
330
A7E8
100
AcDbEntity
  8
DEFPOINTS
 62
     0
100
AcDbPoint
 10
-85.31099700121462
 20
-6.000000000000063
 30
0.0
  0
ENDBLK
  5
A7F3
330
A7E8
100
AcDbEntity
  8
0
100
AcDbBlockEnd
  0
BLOCK
  5
AB50
330
AB46
100
AcDbEntity
  8
0
100
AcDbBlockBegin
  2
*D8
 70
     1
 10
0.0
 20
0.0
 30
0.0
  3
*D8
  1

  0
LINE
  5
AC95
330
AB46
100
AcDbEntity
  8
AM_5
100
AcDbLine
 10
0.4999999999999961
 20
6.0
 30
0.0
 11
12.05776903085518
 21
5.999999999999996
 31
0.0
  0
LINE
  5
AC96
330
AB46
100
AcDbEntity
  8
AM_5
100
AcDbLine
 10
0.5000000000000046
 20
-6.0
 30
0.0
 11
12.05776903085517
 21
-6.000000000000003
 31
0.0
  0
LINE
  5
AC97
330
AB46
100
AcDbEntity
  8
AM_5
100
AcDbLine
 10
11.55776903085518
 20
4.749999999999996
 30
0.0
 11
11.55776903085517
 21
-4.750000000000003
 31
0.0
  0
INSERT
  5
AC98
330
AB46
100
AcDbEntity
  8
AM_5
100
AcDbBlockReference
  2
_OPEN30
 10
11.55776903085518
 20
5.999999999999996
 30
0.0
 41
1.25
 42
1.25
 43
1.25
 50
90.0
  0
INSERT
  5
AC99
330
AB46
100
AcDbEntity
  8
AM_5
100
AcDbBlockReference
  2
_OPEN30
 10
11.55776903085517
 20
-6.000000000000003
 30
0.0
 41
1.25
 42
1.25
 43
1.25
 50
270.0
  0
MTEXT
  5
AC9A
330
AB46
100
AcDbEntity
  8
AM_5
 62
     2
100
AcDbMText
 10
10.00776903085517
 20
-0.0000000000000014
 30
0.0
 40
1.6
 41
0.0
 71
     5
 72
     1
  1
%%c12
  7
ASAMI
 11
0.0000000000000001
 21
1.0
 31
0.0
1001
ACAD
1000
MTEXTBEGIN
1070
    73
1070
     1
1070
    44
1040
1.0
1070
    74
1070
     0
1000
MTEXTEND
  0
POINT
  5
AC9B
330
AB46
100
AcDbEntity
  8
DEFPOINTS
 62
     0
100
AcDbPoint
 10
-0.0000000000000039
 20
6.0
 30
0.0
  0
POINT
  5
AC9C
330
AB46
100
AcDbEntity
  8
DEFPOINTS
 62
     0
100
AcDbPoint
 10
0.0000000000000046
 20
-6.0
 30
0.0
  0
POINT
  5
AC9D
330
AB46
100
AcDbEntity
  8
DEFPOINTS
 62
     0
100
AcDbPoint
 10
11.55776903085517
 20
-6.000000000000003
 30
0.0
  0
ENDBLK
  5
AB51
330
AB46
100
AcDbEntity
  8
0
100
AcDbBlockEnd
  0
ENDSEC
  0
SECTION
  2
ENTITIES
  0
TEXT
  5
1500
330
1F
100
AcDbEntity
  8
AM_6
100
AcDbText
 10
-47.97619047619046
 20
-30.25000100000013
 30
0.0
 40
2.5
  1
USM4120ZX
 72
     4
 11
-37.49999999999999
 21
-29.00000100000013
 31
0.0
100
AcDbText
  0
LINE
  5
9FF0
330
1F
100
AcDbEntity
  8
AM_7
  6
AM_ISO08W050X2
100
AcDbLine
 10
4.557768030855186
 20
0.0
 30
0.0
 11
-78.31099600121461
 21
-0.0000000000000604
 31
0.0
1001
GENIUS_GENODEF_13
1002
{
1000
HIER
1070
     0
1002
}
1002
{
1000
MANEDIT
1070
     0
1002
}
1002
{
1000
NOSEL
1070
     0
1002
}
1002
{
1000
BEHIND
1070
     0
1002
}
1002
{
1000
REACTOR
1002
}
1001
GENIUS_GENOBJ-N-CEN_13
1002
{
1000
OWNER
1000
GEN
1002
}
  0
DIMENSION
  5
A215
330
1F
100
AcDbEntity
  8
AM_5
100
AcDbDimension
  2
*D5
 10
-75.0
 20
-19.00000100000013
 30
0.0
 11
-37.50000000000037
 21
-17.45000100000013
 31
0.0
 70
    32
  1
<>
  3
AM_JIS
100
AcDbAlignedDimension
 13
-0.0000000000007461
 23
-6.0
 33
0.0
 14
-75.0
 24
-5.500000000000052
 34
0.0
 50
0.0000000000001641
100
AcDbRotatedDimension
1001
GENIUS_GENDTOL_13
1000

1000
h7
1000

1040
0.0
  0
DIMENSION
  5
A2A1
330
1F
100
AcDbEntity
  8
AM_5
100
AcDbDimension
  2
*D6
 10
-24.99974000259998
 20
-13.00000099999999
 30
0.0
 11
-12.49987000130036
 21
-11.45000099999999
 31
0.0
 70
    32
  1
<>
  3
AM_JIS
100
AcDbAlignedDimension
 13
-0.0000000000007461
 23
-6.0
 33
0.0
 14
-24.99974000259998
 24
-6.000000000000019
 34
0.0
 50
0.0000000000001641
100
AcDbRotatedDimension
1001
GENIUS_GENDTOL_13
1000

1000
h7
1000

1040
0.0
  0
LINE
  5
A7E2
330
1F
100
AcDbEntity
  8
AM_0
100
AcDbLine
 10
-31.48921949384019
 20
-6.000000000000019
 30
0.0
 11
-74.49999999999999
 21
-6.000000000000065
 31
0.0
  0
LINE
  5
A7E4
330
1F
100
AcDbEntity
  8
AM_0
100
AcDbLine
 10
-74.5
 20
5.999999999999924
 30
0.0
 11
-74.5
 21
-6.000000000000066
 31
0.0
  0
LINE
  5
A7E5
330
1F
100
AcDbEntity
  8
AM_0
100
AcDbLine
 10
-75.0
 20
5.499999999999924
 30
0.0
 11
-74.99999999999999
 21
-5.500000000000066
 31
0.0
  0
DIMENSION
  5
A7E7
330
1F
100
AcDbEntity
  8
AM_5
100
AcDbDimension
  2
*D7
 10
-85.31099700121462
 20
-6.000000000000063
 30
0.0
 11
-86.86099700121461
 21
-0.0000000000000816
 31
0.0
 70
    32
  1
%%c<>
  3
AM_JIS
100
AcDbAlignedDimension
 13
-74.5
 23
5.999999999999924
 33
0.0
 14
-74.5
 24
-6.000000000000066
 34
0.0
 50
270.0
100
AcDbRotatedDimension
1001
GENIUS_GENDTOL_13
1000

1000
h7
1000

1040
0.0
  0
LINE
  5
A7F4
330
1F
100
AcDbEntity
  8
AM_0
100
AcDbLine
 10
-29.90356278994402
 20
5.999999999999977
 30
0.0
 11
-74.5
 21
5.999999999999925
 31
0.0
  0
LINE
  5
A800
330
1F
100
AcDbEntity
  8
AM_0
100
AcDbLine
 10
-74.5
 20
5.999999999999925
 30
0.0
 11
-75.0
 21
5.499999999999924
 31
0.0
1001
GENIUS_GENFIL_13
1070
     0
1040
0.5
1040
0.5
1040
20.0
1040
0.0
1002
{
1002
}
1001
GENIUS_GENODEF_13
1002
{
1000
HIER
1070
     0
1002
}
1002
{
1000
MANEDIT
1070
     0
1002
}
1002
{
1000
NOSEL
1070
     0
1002
}
1002
{
1000
BEHIND
1070
     0
1002
}
1002
{
1000
REACTOR
1002
}
1001
GENIUS_GENOBJ-N-CHA_13
1002
{
1000
OWNER
1000
GEN
1002
}
  0
LINE
  5
A803
330
1F
100
AcDbEntity
  8
AM_0
100
AcDbLine
 10
-74.99999999999999
 20
-5.500000000000066
 30
0.0
 11
-74.49999999999999
 21
-6.000000000000065
 31
0.0
1001
GENIUS_GENFIL_13
1070
     0
1040
0.5
1040
0.5
1040
20.0
1040
0.0
1002
{
1002
}
1001
GENIUS_GENODEF_13
1002
{
1000
HIER
1070
     0
1002
}
1002
{
1000
MANEDIT
1070
     0
1002
}
1002
{
1000
NOSEL
1070
     0
1002
}
1002
{
1000
BEHIND
1070
     0
1002
}
1002
{
1000
REACTOR
1002
}
1001
GENIUS_GENOBJ-N-CHA_13
1002
{
1000
OWNER
1000
GEN
1002
}
  0
DIMENSION
  5
AB45
330
1F
100
AcDbEntity
  8
AM_5
100
AcDbDimension
  2
*D8
 10
11.55776903085517
 20
-6.000000000000003
 30
0.0
 11
10.00776903085517
 21
-0.0000000000000014
 31
0.0
 70
    32
  1
%%c<>
  3
AM_JIS
100
AcDbAlignedDimension
 13
-0.0000000000000039
 23
6.0
 33
0.0
 14
0.0000000000000046
 24
-6.0
 34
0.0
 50
90.00000000000003
100
AcDbRotatedDimension
1001
GENIUS_GENDTOL_13
1000

1000
h7
1000

1040
0.0
  0
LINE
  5
AC34
330
1F
100
AcDbEntity
  8
AM_0
100
AcDbLine
 10
-0.1240896681942473
 20
-1.592277425475829
 30
0.0
 11
-0.075394324809245
 21
-1.438339678572718
 31
0.0
  0
LINE
  5
AC35
330
1F
100
AcDbEntity
  8
AM_0
100
AcDbLine
 10
-0.075394324809245
 20
-1.438339678572718
 30
0.0
 11
-0.075394324809245
 21
0.0
 31
0.0
  0
LINE
  5
AC36
330
1F
100
AcDbEntity
  8
AM_0
100
AcDbLine
 10
0.0
 20
0.0
 30
0.0
 11
-0.124089668194251
 21
1.200000000000265
 31
0.0
  0
LINE
  5
AC37
330
1F
100
AcDbEntity
  8
AM_0
100
AcDbLine
 10
-0.124089668194251
 20
1.200000000000265
 30
0.0
 11
-1.261606890358219
 21
3.200568976812603
 31
0.0
  0
LINE
  5
AC38
330
1F
100
AcDbEntity
  8
AM_0
100
AcDbLine
 10
0.0
 20
0.0
 30
0.0
 11
-0.0000000000000037
 21
6.0
 31
0.0
  0
LINE
  5
AC39
330
1F
100
AcDbEntity
  8
AM_0
100
AcDbLine
 10
-3.328697842734924
 20
-0.0000000000000078
 30
0.0
 11
-3.328697842734924
 21
-1.200000000000007
 31
0.0
  0
LINE
  5
AC3A
330
1F
100
AcDbEntity
  8
AM_0
100
AcDbLine
 10
0.0
 20
0.0
 30
0.0
 11
-3.328697842734924
 21
-0.0000000000000078
 31
0.0
  0
LINE
  5
AC3B
330
1F
100
AcDbEntity
  8
AM_0
100
AcDbLine
 10
-1.261606890358219
 20
3.200568976812603
 30
0.0
 11
-3.272045166758101
 21
3.7475573794295
 31
0.0
  0
LINE
  5
AC3C
330
1F
100
AcDbEntity
  8
AM_0
100
AcDbLine
 10
0.0000000000000037
 20
-6.0
 30
0.0
 11
-0.1240896681942436
 21
-5.680129389146266
 31
0.0
  0
LINE
  5
AC3D
330
1F
100
AcDbEntity
  8
AM_0
100
AcDbLine
 10
-0.1240896681942436
 20
-5.680129389145995
 30
0.0
 11
-0.8095373591723308
 21
-4.797139986554164
 31
0.0
  0
LINE
  5
AC3E
330
1F
100
AcDbEntity
  8
AM_0
100
AcDbLine
 10
-1.211131935137845
 20
-2.539579651000537
 30
0.0
 11
-0.1240896681942473
 21
-1.592277425475829
 31
0.0
  0
LINE
  5
AC3F
330
1F
100
AcDbEntity
  8
AM_0
100
AcDbLine
 10
-1.211131935137845
 20
-2.539579651000537
 30
0.0
 11
-3.328697842734924
 21
-1.200000000000007
 31
0.0
  0
LINE
  5
AC40
330
1F
100
AcDbEntity
  8
AM_0
100
AcDbLine
 10
-0.1240896681942436
 20
-5.680129389146266
 30
0.0
 11
-0.1240896681942473
 21
-1.592277425475829
 31
0.0
  0
LINE
  5
AC41
330
1F
100
AcDbEntity
  8
AM_0
100
AcDbLine
 10
0.0000000000000037
 20
-6.0
 30
0.0
 11
0.0
 21
0.0
 31
0.0
  0
LINE
  5
AC42
330
1F
100
AcDbEntity
  8
AM_0
100
AcDbLine
 10
-24.99974000259998
 20
-3.8145031047132
 30
0.0
 11
-24.99974000259998
 21
-2.693869816945657
 31
0.0
  0
POLYLINE
  5
AC43
330
1F
100
AcDbEntity
  8
AM_0
100
AcDb2dPolyline
 66
     1
 10
0.0
 20
0.0
 30
0.0
 70
     2
  0
VERTEX
  5
AC44
330
AC43
100
AcDbEntity
  8
AM_0
100
AcDbVertex
100
AcDb2dVertex
 10
-25.99974000259997
 20
-3.362011723852401
 30
0.0
 42
0.0520389030992593
  0
VERTEX
  5
AC45
330
AC43
100
AcDbEntity
  8
AM_0
100
AcDbVertex
100
AcDb2dVertex
 10
-26.36611785290008
 20
-3.225857972811113
 30
0.0
 42
0.0620736703120521
 70
     1
  0
VERTEX
  5
AC46
330
AC43
100
AcDbEntity
  8
AM_0
100
AcDbVertex
100
AcDb2dVertex
 10
-26.69109672539638
 20
-3.185106774291015
 30
0.0
 42
0.0596620020802711
  0
VERTEX
  5
AC47
330
AC43
100
AcDbEntity
  8
AM_0
100
AcDbVertex
100
AcDb2dVertex
 10
-27.30957040996807
 20
-3.261019754878297
 30
0.0
 42
0.1107428676984588
 70
     1
  0
VERTEX
  5
AC48
330
AC43
100
AcDbEntity
  8
AM_0
100
AcDbVertex
100
AcDb2dVertex
 10
-27.61290568912492
 20
-3.413646363906864
 30
0.0
 42
0.0919321010959952
  0
VERTEX
  5
AC49
330
AC43
100
AcDbEntity
  8
AM_0
100
AcDbVertex
100
AcDb2dVertex
 10
-27.79228744047264
 20
-3.626936931514858
 30
0.0
 42
0.1306625885944883
 70
     1
  0
VERTEX
  5
AC4A
330
AC43
100
AcDbEntity
  8
AM_0
100
AcDbVertex
100
AcDb2dVertex
 10
-27.84335793005706
 20
-3.8190909030841
 30
0.0
 42
0.1055421366890948
  0
VERTEX
  5
AC4B
330
AC43
100
AcDbEntity
  8
AM_0
100
AcDbVertex
100
AcDb2dVertex
 10
-27.79860451593748
 20
-4.035941014351813
 30
0.0
 42
0.064249691717919
 70
     1
  0
VERTEX
  5
AC4C
330
AC43
100
AcDbEntity
  8
AM_0
100
AcDbVertex
100
AcDb2dVertex
 10
-27.61401340608753
 20
-4.344973470891165
 30
0.0
 42
0.0621419645227973
  0
VERTEX
  5
AC4D
330
AC43
100
AcDbEntity
  8
AM_0
100
AcDbVertex
100
AcDb2dVertex
 10
-27.27294774241123
 20
-4.682910389031739
 30
0.0
 42
0.0430349623912406
 70
     1
  0
VERTEX
  5
AC4E
330
AC43
100
AcDbEntity
  8
AM_0
100
AcDbVertex
100
AcDb2dVertex
 10
-26.69220444235899
 20
-5.055090932958399
 30
0.0
 42
0.0552392510866287
  0
VERTEX
  5
AC4F
330
AC43
100
AcDbEntity
  8
AM_0
100
AcDbVertex
100
AcDb2dVertex
 10
-26.42101127028638
 20
-5.160829376969132
 30
0.0
 42
0.0374044438261813
 70
     1
  0
VERTEX
  5
AC50
330
AC43
100
AcDbEntity
  8
AM_0
100
AcDbVertex
100
AcDb2dVertex
 10
-25.99974000259997
 20
-5.23932582721857
 30
0.0
  0
SEQEND
  5
AC51
330
AC43
100
AcDbEntity
  8
AM_0
  0
LINE
  5
AC52
330
1F
100
AcDbEntity
  8
AM_0
100
AcDbLine
 10
-24.99974000259998
 20
-3.8145031047132
 30
0.0
 11
-24.99974000259998
 21
-2.693869816945657
 31
0.0
  0
LINE
  5
AC54
330
1F
100
AcDbEntity
  8
AM_11
100
AcDbLine
 10
-24.99974000259998
 20
-6.000000000000019
 30
0.0
 11
0.0000000000000037
 21
-6.0
 31
0.0
  0
LINE
  5
AC55
330
1F
100
AcDbEntity
  8
AM_11
100
AcDbLine
 10
-0.0000000000010789
 20
6.0
 30
0.0
 11
-24.99974000259998
 21
5.999999999999985
 31
0.0
  0
SPLINE
  5
AC56
330
1F
100
AcDbEntity
  8
AM_0
100
AcDbSpline
210
0.0
220
0.0
230
1.0
 70
     8
 71
     3
 72
     8
 73
     4
 74
     0
 42
0.0000000001
 43
0.0000000001
 40
0.3581103616548037
 40
0.3581103616548037
 40
0.3581103616548037
 40
0.3581103616548037
 40
14.43901837670146
 40
14.43901837670146
 40
14.43901837670146
 40
14.43901837670146
 10
-29.90356278994371
 20
5.99999999999996
 30
0.0
 10
-24.13675679098277
 20
5.675986809663911
 30
0.0
 10
-19.07327042993782
 20
2.837993404832089
 30
0.0
 10
-14.00978406889341
 20
-0.0000000000000155
 30
0.0
  0
SPLINE
  5
AC57
330
1F
100
AcDbEntity
  8
AM_0
100
AcDbSpline
210
0.0
220
0.0
230
1.0
 70
     8
 71
     3
 72
     8
 73
     4
 74
     0
 42
0.0000000001
 43
0.0000000001
 40
0.0
 40
0.0
 40
0.0
 40
0.0
 40
14.4899965493443
 40
14.4899965493443
 40
14.4899965493443
 40
14.4899965493443
 10
-16.07256654706223
 20
6.000000000000254
 30
0.0
 10
-10.36444316946341
 20
6.000000000000259
 30
0.0
 10
-5.182221584731706
 20
3.000000000000267
 30
0.0
 10
0.0
 20
0.0000000000002732
 30
0.0
  0
SPLINE
  5
AC58
330
1F
100
AcDbEntity
  8
AM_0
100
AcDbSpline
210
0.0
220
0.0
230
1.0
 70
     8
 71
     3
 72
     8
 73
     4
 74
     0
 42
0.0000000001
 43
0.0000000001
 40
0.3581103616548037
 40
0.3581103616548037
 40
0.3581103616548037
 40
0.3581103616548037
 40
12.40023413887867
 40
12.40023413887867
 40
12.40023413887867
 40
12.40023413887867
 10
-13.58747428809247
 20
5.815014507423332
 30
0.0
 10
-8.863910293099808
 20
5.696116724475534
 30
0.0
 10
-4.47663449874184
 20
3.603241354182129
 30
0.0
 10
-0.1380501014216579
 20
1.224552427930749
 30
0.0
  0
SPLINE
  5
AC59
330
1F
100
AcDbEntity
  8
AM_0
100
AcDbSpline
210
0.0
220
0.0
230
1.0
 70
     8
 71
     3
 72
     8
 73
     4
 74
     0
 42
0.0000000001
 43
0.0000000001
 40
0.0
 40
0.0
 40
0.0
 40
0.0
 40
3.891555268760223
 40
3.891555268760223
 40
3.891555268760223
 40
3.891555268760223
 10
-0.2435507764157086
 20
5.998183393800074
 30
0.0
 10
0.1924278483599272
 20
4.505837059347325
 30
0.0
 10
-2.919031108194804
 20
4.308392937388991
 30
0.0
 10
-4.49245924762989
 20
4.204285215222163
 30
0.0
  0
SPLINE
  5
AC5A
330
1F
100
AcDbEntity
  8
AM_0
100
AcDbSpline
210
0.0
220
0.0
230
1.0
 70
     8
 71
     3
 72
     8
 73
     4
 74
     0
 42
0.0000000001
 43
0.0000000001
 40
1.870660592686466
 40
1.870660592686466
 40
1.870660592686466
 40
1.870660592686466
 40
14.43901837670146
 40
14.43901837670146
 40
14.43901837670146
 40
14.43901837670146
 10
-0.1240896681942436
 20
-5.680129389145995
 30
0.0
 10
-4.970635719640799
 20
-5.06628073452185
 30
0.0
 10
-9.490209894267108
 20
-2.533140367260792
 30
0.0
 10
-14.00978406889341
 20
-0.0000000000000155
 30
0.0
  0
SPLINE
  5
AC5B
330
1F
100
AcDbEntity
  8
AM_0
100
AcDbSpline
210
0.0
220
0.0
230
1.0
 70
     8
 71
     3
 72
     8
 73
     4
 74
     0
 42
0.0000000001
 43
0.0000000001
 40
0.0
 40
0.0
 40
0.0
 40
0.0
 40
14.4899965493443
 40
14.4899965493443
 40
14.4899965493443
 40
14.4899965493443
 10
0.0000000000000037
 20
-6.0
 30
0.0
 10
-5.708123377598824
 20
-6.000000000000003
 30
0.0
 10
-10.89034496233052
 20
-3.000000000000009
 30
0.0
 10
-16.07256654706223
 20
-0.0000000000000155
 30
0.0
  0
SPLINE
  5
AC5C
330
1F
100
AcDbEntity
  8
AM_0
100
AcDbSpline
210
0.0
220
0.0
230
1.0
 70
     8
 71
     3
 72
     8
 73
     4
 74
     0
 42
0.0000000001
 43
0.0000000001
 40
4.542668862435135
 40
4.542668862435135
 40
4.542668862435135
 40
4.542668862435135
 40
14.36247867694493
 40
14.36247867694493
 40
14.36247867694493
 40
14.36247867694493
 10
-0.80953735917072
 20
-4.79713998654789
 30
0.0
 10
-4.513861941301209
 20
-3.78840682388737
 30
0.0
 10
-8.074185668436628
 20
-1.894203411943551
 30
0.0
 10
-11.63450939557204
 20
-0.0000000000000155
 30
0.0
  0
SPLINE
  5
AC5D
330
1F
100
AcDbEntity
  8
AM_0
100
AcDbSpline
210
0.0
220
0.0
230
1.0
 70
     8
 71
     3
 72
     8
 73
     4
 74
     0
 42
0.0000000001
 43
0.0000000001
 40
0.7142832446738512
 40
0.7142832446738512
 40
0.7142832446738512
 40
0.7142832446738512
 40
9.361146747480315
 40
9.361146747480315
 40
9.361146747480315
 40
9.361146747480315
 10
-10.79365257639504
 20
5.520717347789278
 30
0.0
 10
-7.413655721672415
 20
5.358940126765893
 30
0.0
 10
-4.188843345096377
 20
4.242923859359682
 30
0.0
 10
-1.02089776013088
 20
2.7772301393772
 30
0.0
  0
SPLINE
  5
AC5E
330
1F
100
AcDbEntity
  8
AM_0
100
AcDbSpline
210
0.0
220
0.0
230
1.0
 70
     8
 71
     3
 72
     8
 73
     4
 74
     0
 42
0.0000000001
 43
0.0000000001
 40
0.0
 40
0.0
 40
0.0
 40
0.0
 40
5.635889483499127
 40
5.635889483499127
 40
5.635889483499127
 40
5.635889483499127
 10
-0.0000000000000037
 20
6.0
 30
0.0
 10
-2.22017668567246
 20
5.999999999999992
 30
0.0
 10
-4.360793692051321
 20
5.546152834774957
 30
0.0
 10
-6.452795785639804
 20
4.814982526045416
 30
0.0
  0
SPLINE
  5
AC5F
330
1F
100
AcDbEntity
  8
AM_0
100
AcDbSpline
210
0.0
220
0.0
230
1.0
 70
     8
 71
     3
 72
     8
 73
     4
 74
     0
 42
0.0000000001
 43
0.0000000001
 40
0.0
 40
0.0
 40
0.0
 40
0.0
 40
5.635889483499305
 40
5.635889483499305
 40
5.635889483499305
 40
5.635889483499305
 10
-16.07256654706223
 20
6.000000000000254
 30
0.0
 10
-18.2927432327347
 20
6.000000000000254
 30
0.0
 10
-20.43336023911355
 20
5.546152834775225
 30
0.0
 10
-22.52536233270203
 20
4.814982526045672
 30
0.0
  0
SPLINE
  5
AC60
330
1F
100
AcDbEntity
  8
AM_0
100
AcDbSpline
210
0.0
220
0.0
230
1.0
 70
     8
 71
     3
 72
     8
 73
     4
 74
     0
 42
0.0000000001
 43
0.0000000001
 40
0.0
 40
0.0
 40
0.0
 40
0.0
 40
7.010133154738189
 40
7.010133154738189
 40
7.010133154738189
 40
7.010133154738189
 10
-16.10616787782665
 20
-5.995334350065256
 30
0.0
 10
-19.55809286659166
 20
-5.995334350065256
 30
0.0
 10
-22.81699486420805
 20
-4.895618458450393
 30
0.0
 10
-25.99974000259998
 20
-3.362011723852397
 30
0.0
  0
SPLINE
  5
AC61
330
1F
100
AcDbEntity
  8
AM_0
100
AcDbSpline
210
0.0
220
0.0
230
1.0
 70
     8
 71
     3
 72
     8
 73
     4
 74
     0
 42
0.0000000001
 43
0.0000000001
 40
0.0
 40
0.0
 40
0.0
 40
0.0
 40
6.989916286582607
 40
6.989916286582607
 40
6.989916286582607
 40
6.989916286582607
 10
-13.96599768091785
 20
-5.69355398069112
 30
0.0
 10
-17.40796749324922
 20
-5.69355398069112
 30
0.0
 10
-20.67546430494964
 20
-4.646889194638795
 30
0.0
 10
-24.99974000259998
 20
-2.706272441692344
 30
0.0
  0
SPLINE
  5
AC62
330
1F
100
AcDbEntity
  8
AM_0
100
AcDbSpline
210
0.0
220
0.0
230
1.0
 70
     8
 71
     3
 72
     8
 73
     4
 74
     0
 42
0.0000000001
 43
0.0000000001
 40
0.0
 40
0.0
 40
0.0
 40
0.0
 40
13.08755554126225
 40
13.08755554126225
 40
13.08755554126225
 40
13.08755554126225
 10
-10.00316766081567
 20
-5.246679453402165
 30
0.0
 10
-15.15881980236727
 20
-5.246679453402168
 30
0.0
 10
-20.08713724706632
 20
-3.42421233733684
 30
0.0
 10
-26.12514348281881
 20
-0.8860248247267463
 30
0.0
  0
SPLINE
  5
AC63
330
1F
100
AcDbEntity
  8
AM_0
100
AcDbSpline
210
0.0
220
0.0
230
1.0
 70
     8
 71
     3
 72
     8
 73
     4
 74
     0
 42
0.0000000001
 43
0.0000000001
 40
0.0
 40
0.0
 40
0.0
 40
0.0
 40
9.637195575647414
 40
9.637195575647414
 40
9.637195575647414
 40
9.637195575647414
 10
-10.00316766081567
 20
-5.246679453402165
 30
0.0
 10
-8.762101954430187
 20
-5.239674311354435
 30
0.0
 10
-7.517075982394004
 20
-5.107197160829316
 30
0.0
 10
-6.28790780704616
 20
-4.871999999999943
 30
0.0
  0
SPLINE
  5
AC64
330
1F
100
AcDbEntity
  8
AM_0
100
AcDbSpline
210
0.0
220
0.0
230
1.0
 70
     8
 71
     3
 72
     8
 73
     4
 74
     0
 42
0.0000000001
 43
0.0000000001
 40
0.0
 40
0.0
 40
0.0
 40
0.0
 40
9.964098609850829
 40
9.964098609850829
 40
9.964098609850829
 40
9.964098609850829
 10
-13.96599768091785
 20
-5.69355398069112
 30
0.0
 10
-12.64520591976709
 20
-5.66521496101997
 30
0.0
 10
-11.36201349348765
 20
-5.513971314217194
 30
0.0
 10
-10.09821833144882
 20
-5.246363339680292
 30
0.0
  0
SPLINE
  5
AC65
330
1F
100
AcDbEntity
  8
AM_0
100
AcDbSpline
210
0.0
220
0.0
230
1.0
 70
     8
 71
     3
 72
     8
 73
     4
 74
     0
 42
0.0000000001
 43
0.0000000001
 40
0.0
 40
0.0
 40
0.0
 40
0.0
 40
9.637195575647414
 40
9.637195575647414
 40
9.637195575647414
 40
9.637195575647414
 10
-26.11222924179445
 20
-5.239674311354455
 30
0.0
 10
-24.84675160009281
 20
-5.239674311354455
 30
0.0
 10
-23.60172562805717
 20
-5.107197160829335
 30
0.0
 10
-22.37255745270932
 20
-4.871999999999958
 30
0.0
  0
SPLINE
  5
AC66
330
1F
100
AcDbEntity
  8
AM_0
100
AcDbSpline
210
0.0
220
0.0
230
1.0
 70
     8
 71
     3
 72
     8
 73
     4
 74
     0
 42
0.0000000001
 43
0.0000000001
 40
4.041712701031851
 40
4.041712701031851
 40
4.041712701031851
 40
4.041712701031851
 40
9.964098609850829
 40
9.964098609850829
 40
9.964098609850829
 40
9.964098609850829
 10
-28.42192295889508
 20
-5.656587582258539
 30
0.0
 10
-27.69205072190894
 20
-5.523371934941338
 30
0.0
 10
-26.93403303000382
 20
-5.40542215267899
 30
0.0
 10
-26.11222924179445
 20
-5.239674311354455
 30
0.0
  0
SPLINE
  5
AC67
330
1F
100
AcDbEntity
  8
AM_0
100
AcDbSpline
210
0.0
220
0.0
230
1.0
 70
     8
 71
     3
 72
     8
 73
     4
 74
     0
 42
0.0000000001
 43
0.0000000001
 40
10.47580489465071
 40
10.47580489465071
 40
10.47580489465071
 40
10.47580489465071
 40
10.85199757529305
 40
10.85199757529305
 40
10.85199757529305
 40
10.85199757529305
 10
-24.99974000259997
 20
-3.269513659288216
 30
0.0
 10
-25.67684714238323
 20
-2.989393604503019
 30
0.0
 10
-25.95023671725177
 20
-2.769488422137912
 30
0.0
 10
-26.12514348281881
 20
-2.674814692221567
 30
0.0
  0
SPLINE
  5
AC68
330
1F
100
AcDbEntity
  8
AM_0
100
AcDbSpline
210
0.0
220
0.0
230
1.0
 70
     8
 71
     3
 72
     8
 73
     4
 74
     0
 42
0.0000000001
 43
0.0000000001
 40
0.0
 40
0.0
 40
0.0
 40
0.0
 40
9.318135693055936
 40
9.318135693055936
 40
9.318135693055936
 40
9.318135693055936
 10
-16.10616787782665
 20
-5.995334350065256
 30
0.0
 10
-14.80448010285525
 20
-5.988427287496866
 30
0.0
 10
-13.60405746791812
 20
-5.850157491183431
 30
0.0
 10
-12.42376055541376
 20
-5.603463363051057
 30
0.0
  0
SPLINE
  5
AC69
330
1F
100
AcDbEntity
  8
AM_0
100
AcDbSpline
210
0.0
220
0.0
230
1.0
 70
     8
 71
     3
 72
     8
 73
     4
 74
     0
 42
0.0000000001
 43
0.0000000001
 40
1.075450793972863
 40
1.075450793972863
 40
1.075450793972863
 40
1.075450793972863
 40
14.36247867694493
 40
14.36247867694493
 40
14.36247867694493
 40
14.36247867694493
 10
-26.44349076670744
 20
5.49549542234036
 30
0.0
 10
-21.26934378207012
 20
5.126032790029928
 30
0.0
 10
-16.45192658882083
 20
2.563016395015075
 30
0.0
 10
-11.63450939557204
 20
-0.0000000000000155
 30
0.0
  0
SPLINE
  5
AC6A
330
1F
100
AcDbEntity
  8
AM_0
100
AcDbSpline
210
0.0
220
0.0
230
1.0
 70
     8
 71
     3
 72
     8
 73
     4
 74
     0
 42
0.0000000001
 43
0.0000000001
 40
5.36015685099278
 40
5.36015685099278
 40
5.36015685099278
 40
5.36015685099278
 40
14.48999654934388
 40
14.48999654934388
 40
14.48999654934388
 40
14.48999654934388
 10
-25.99974000259998
 20
4.920286705984224
 30
0.0
 10
-22.60834349150905
 20
3.888740599453484
 30
0.0
 10
-19.33777452615427
 20
1.89023641253366
 30
0.0
 10
-16.07256654706223
 20
0.0000000000002558
 30
0.0
  0
ELLIPSE
  5
AC6B
330
1F
100
AcDbEntity
  8
AM_0
100
AcDbEllipse
 10
8.786015147705061
 20
-1.871630726065635
 30
0.0
 11
0.0000000000013649
 21
10.1730029602938
 31
0.0
210
0.0
220
0.0
230
1.0
 40
0.984838636462123
 41
1.636502568454586
 42
1.862491058463829
  0
SPLINE
  5
AC6C
330
1F
100
AcDbEntity
  8
AM_0
100
AcDbSpline
210
0.0
220
0.0
230
1.0
 70
     8
 71
     3
 72
     8
 73
     4
 74
     0
 42
0.0000000001
 43
0.0000000001
 40
0.0
 40
0.0
 40
0.0
 40
0.0
 40
9.450452127946082
 40
9.450452127946082
 40
9.450452127946082
 40
9.450452127946082
 10
-31.48921949385082
 20
-6.000000000000034
 30
0.0
 10
-30.87064593465234
 20
-5.988329208017809
 30
0.0
 10
-29.65463581085937
 20
-5.846204173830145
 30
0.0
 10
-28.42192295889562
 20
-5.656587582258539
 30
0.0
  0
LINE
  5
AC85
330
1F
100
AcDbEntity
  8
AM_11
100
AcDbLine
 10
-24.99974000259998
 20
6.0
 30
0.0
 11
-24.99974000259998
 21
-6.000000000000024
 31
0.0
  0
LINE
  5
ACE7
330
1F
100
AcDbEntity
  8
AM_11
100
AcDbLine
 10
-0.0000000000000037
 20
6.0
 30
0.0
 11
0.000000000000007
 21
-6.0
 31
0.0
  0
LINE
  5
AD26
330
1F
100
AcDbEntity
  8
AM_0
100
AcDbLine
 10
-26.12514348281881
 20
-2.674814692221567
 30
0.0
 11
-26.12514348281881
 21
-0.8860248247267463
 31
0.0
  0
SPLINE
  5
AD27
330
1F
100
AcDbEntity
  8
AM_0
100
AcDbSpline
210
0.0
220
0.0
230
1.0
 70
     8
 71
     3
 72
    12
 73
     8
 74
     6
 42
0.0000000001
 43
0.0000000001
 44
0.0000000001
 40
0.0
 40
0.0
 40
0.0
 40
0.0
 40
5.118246523019085
 40
7.263555467353279
 40
10.22036076449902
 40
13.20361297012193
 40
16.038568322098
 40
16.038568322098
 40
16.038568322098
 40
16.038568322098
 10
-25.99974000259998
 20
4.920286705984224
 30
0.0
 10
-27.55727077674618
 20
4.95826535923364
 30
0.0
 10
-29.7676393315315
 20
5.012162734674986
 30
0.0
 10
-34.07425991635033
 20
3.378458337231074
 30
0.0
 10
-30.66984595681284
 20
1.059517931215533
 30
0.0
 10
-28.78945756864789
 20
-0.6405006764720249
 30
0.0
 10
-26.99802794782853
 20
-1.529874760500026
 30
0.0
 10
-26.12514348281881
 20
-1.96322743732761
 30
0.0
 11
-25.99974000259998
 21
4.920286705984224
 31
0.0
 11
-31.09454191391367
 21
4.430959663127047
 31
0.0
 11
-32.97239754875179
 21
3.393651280172868
 31
0.0
 11
-30.98530958280674
 21
1.204089912952148
 31
0.0
 11
-28.61448658240691
 21
-0.6067088122321641
 31
0.0
 11
-26.12514348281881
 21
-1.96322743732761
 31
0.0
  0
VIEWPORT
  5
110
330
101
100
AcDbEntity
 67
     1
  8
0
100
AcDbViewport
 10
420.5
 20
297.0
 30
0.0
 40
948.9782706766916
 41
628.452
 68
     1
 69
     1
1001
ACAD
1000
MVIEW
1002
{
1070
    16
1010
0.0
1020
0.0
1030
0.0
1010
0.0
1020
0.0
1030
1.0
1040
0.0
1040
628.452
1040
420.5
1040
297.0
1040
50.0
1040
0.0
1040
0.0
1070
     0
1070
   100
1070
     1
1070
     1
1070
     0
1070
     0
1070
     0
1070
     0
1040
0.0
1040
0.0
1040
0.0
1040
10.0
1040
10.0
1040
10.0
1040
10.0
1070
     0
1002
{
1002
}
1002
}
  0
ENDSEC
  0
SECTION
  2
OBJECTS
  0
DICTIONARY
  5
C
330
0
100
AcDbDictionary
  3
ACAD_GROUP
350
D
  3
ACAD_LAYOUT
350
1A
  3
ACAD_MLINESTYLE
350
17
  3
ACAD_PLOTSETTINGS
350
19
  3
ACAD_PLOTSTYLENAME
350
E
  3
ACDBVARIABLEDICTIONARY
350
34
  3
ACMDICTIONARY
350
43
  3
AMG
350
2B
  3
AMGSNAPSETTINGS
350
6E
  3
ASE_INDEX_DICTIONARY
350
151A
  3
DWGPROPS
350
AD55
  3
ACDBHEADERROUNDTRIPXREC
350
AD61
  0
DICTIONARY
  5
74
330
1F
100
AcDbDictionary
280
     1
  3
ACAD_INDEX
360
AD57
  3
ACAD_LAYOUTSELFREF
360
AD84
  0
DICTIONARY
  5
AD89
330
101
100
AcDbDictionary
280
     1
  3
ACAD_LAYOUTSELFREF
360
AD8A
  0
DICTIONARY
  5
D
102
{ACAD_REACTORS
330
C
102
}
330
C
100
AcDbDictionary
  0
DICTIONARY
  5
1A
102
{ACAD_REACTORS
330
C
102
}
330
C
100
AcDbDictionary
  0
DICTIONARY
  5
17
102
{ACAD_REACTORS
330
C
102
}
330
C
100
AcDbDictionary
  3
STANDARD
350
18
  0
DICTIONARY
  5
19
102
{ACAD_REACTORS
330
C
102
}
330
C
100
AcDbDictionary
  0
ACDBDICTIONARYWDFLT
  5
E
102
{ACAD_REACTORS
330
C
102
}
330
C
100
AcDbDictionary
281
     1
  3
Normal
350
F
100
AcDbDictionaryWithDefault
340
F
  0
DICTIONARY
  5
34
102
{ACAD_REACTORS
330
C
102
}
330
C
100
AcDbDictionary
  3
INDEXCTL
350
35
  3
SORTENTS
350
B5E
  0
DICTIONARY
  5
43
102
{ACAD_REACTORS
330
C
102
}
330
C
100
AcDbDictionary
  3
ACMSTDDICTIONARY
350
260
  0
DICTIONARY
  5
2B
102
{ACAD_REACTORS
330
C
102
}
330
C
100
AcDbDictionary
  3
ACMGSETTINGS
350
2C
  0
DICTIONARY
  5
6E
102
{ACAD_REACTORS
330
C
102
}
330
C
100
AcDbDictionary
  0
DICTIONARY
  5
151A
102
{ACAD_REACTORS
330
C
102
}
330
C
100
AcDbDictionary
  3
ASEBLOCKHIERARCHYINDEXRECORD
350
151C
1001
DCO15
1040
1471862535.906
  0
XRECORD
  5
AD55
102
{ACAD_REACTORS
330
C
102
}
330
C
100
AcDbXrecord
  1
DWGPROPS COOKIE
  2

  3

  4

  6

  7

  8

  9

300
AmdtFileType=82
301
=
302
=
303
=
304
=
305
=
306
=
307
=
308
=
309
=
 40
0.4889508333333334
 41
2452838.430434386
 42
2453054.445269074
  1

 90
        1
  0
DICTIONARY
  5
AD61
102
{ACAD_REACTORS
330
C
102
}
330
C
100
AcDbDictionary
  3
TSTACKALIGN
350
AD62
  3
TSTACKSIZE
350
AD63
  3
HYPERLINKBASE
350
AD64
  3
STYLESHEET
350
AD65
  3
LAYOUTDICT
350
AD66
  3
PLOTSETDICT
350
AD67
  3
PLOTSTYLNAMDICT
350
AD68
  3
LWETCUNION
350
AD69
  3
INSUNITS
350
AD6A
  3
CEPSNTYPE
350
AD6B
  3
FINGERPRINTGUID
350
AD6C
  3
VERSIONGUID
350
AD6D
  3
PSVPSCALE
350
AD6E
  3
DIMSTYLEDATA
350
AD6F
  3
PUCSORTHOREF
350
AD70
  3
PUCSORTHOVIEW
350
AD71
  3
PUCSBASE
350
AD72
  3
PUCSORGTOP
350
AD73
  3
PUCSORGBOTTOM
350
AD74
  3
PUCSORGLEFT
350
AD75
  3
PUCSORGRIGHT
350
AD76
  3
PUCSORGFRONT
350
AD77
  3
PUCSORGBACK
350
AD78
  3
UCSORTHOREF
350
AD79
  3
UCSORTHOVIEW
350
AD7A
  3
UCSBASE
350
AD7B
  3
UCSORGTOP
350
AD7C
  3
UCSORGBOTTOM
350
AD7D
  3
UCSORGLEFT
350
AD7E
  3
UCSORGRIGHT
350
AD7F
  3
UCSORGFRONT
350
AD80
  3
UCSORGBACK
350
AD81
  0
DICTIONARY
  5
AD57
102
{ACAD_REACTORS
330
74
102
}
330
74
100
AcDbDictionary
  3
*A1
350
AD58
  0
XRECORD
  5
AD84
102
{ACAD_REACTORS
330
74
102
}
330
74
100
AcDbXrecord
340
1F
  0
XRECORD
  5
AD8A
102
{ACAD_REACTORS
330
AD89
102
}
330
AD89
100
AcDbXrecord
340
101
  0
MLINESTYLE
  5
18
102
{ACAD_REACTORS
330
17
102
}
330
17
100
AcDbMlineStyle
  2
STANDARD
 70
     0
  3

 62
   256
 51
90.0
 52
90.0
 71
     2
 49
0.5
 62
   256
  6
BYLAYER
 49
-0.5
 62
   256
  6
BYLAYER
  0
ACDBPLACEHOLDER
  5
F
102
{ACAD_REACTORS
330
E
102
}
330
E
100
AcDbPlaceHolder
280
     0
  0
DICTIONARYVAR
  5
35
102
{ACAD_REACTORS
330
34
102
}
330
34
100
DictionaryVariables
280
     0
  1
1
  0
DICTIONARYVAR
  5
B5E
102
{ACAD_REACTORS
330
34
102
}
330
34
100
DictionaryVariables
280
     0
  1
96
  0
DICTIONARY
  5
260
102
{ACAD_REACTORS
330
43
102
}
330
43
100
AcDbDictionary
  0
DICTIONARY
  5
2C
102
{ACAD_REACTORS
330
2B
102
}
330
2B
100
AcDbDictionary
  3
DWGSETTINGS
350
2D
  0
XRECORD
  5
151C
102
{ACAD_REACTORS
330
151A
102
}
330
151A
100
AcDbXrecord
330
0
330
0
330
0
330
0
330
0
330
0
330
0
330
0
  0
XRECORD
  5
AD62
102
{ACAD_REACTORS
330
AD61
102
}
330
AD61
100
AcDbXrecord
 90
        1
  0
XRECORD
  5
AD63
102
{ACAD_REACTORS
330
AD61
102
}
330
AD61
100
AcDbXrecord
 90
       70
  0
XRECORD
  5
AD64
102
{ACAD_REACTORS
330
AD61
102
}
330
AD61
100
AcDbXrecord
  1

  0
XRECORD
  5
AD65
102
{ACAD_REACTORS
330
AD61
102
}
330
AD61
100
AcDbXrecord
  1
ASAMI.ctb
  0
XRECORD
  5
AD66
102
{ACAD_REACTORS
330
AD61
102
}
330
AD61
100
AcDbXrecord
340
1A
  0
XRECORD
  5
AD67
102
{ACAD_REACTORS
330
AD61
102
}
330
AD61
100
AcDbXrecord
340
19
  0
XRECORD
  5
AD68
102
{ACAD_REACTORS
330
AD61
102
}
330
AD61
100
AcDbXrecord
340
E
  0
XRECORD
  5
AD69
102
{ACAD_REACTORS
330
AD61
102
}
330
AD61
100
AcDbXrecord
 90
    10781
  0
XRECORD
  5
AD6A
102
{ACAD_REACTORS
330
AD61
102
}
330
AD61
100
AcDbXrecord
 90
        4
  0
XRECORD
  5
AD6B
102
{ACAD_REACTORS
330
AD61
102
}
330
AD61
100
AcDbXrecord
 90
        0
  0
XRECORD
  5
AD6C
102
{ACAD_REACTORS
330
AD61
102
}
330
AD61
100
AcDbXrecord
  1
{AFB28963-8C59-40AE-9337-C84526B81ACE}
  0
XRECORD
  5
AD6D
102
{ACAD_REACTORS
330
AD61
102
}
330
AD61
100
AcDbXrecord
  1
{593DE8D1-0F83-4197-B076-F819FD1F9C3D}
  0
XRECORD
  5
AD6E
102
{ACAD_REACTORS
330
AD61
102
}
330
AD61
100
AcDbXrecord
 40
0.0
  0
XRECORD
  5
AD6F
102
{ACAD_REACTORS
330
AD61
102
}
330
AD61
100
AcDbXrecord
1000
DSTYLE
1002
{
1070
    79
 70
     2
1070
   341
340
59
1070
   342
340
59
1070
   371
 70
    -1
1070
   372
 70
    -1
1002
}
  0
XRECORD
  5
AD70
102
{ACAD_REACTORS
330
AD61
102
}
330
AD61
100
AcDbXrecord
340
0
  0
XRECORD
  5
AD71
102
{ACAD_REACTORS
330
AD61
102
}
330
AD61
100
AcDbXrecord
 70
     0
  0
XRECORD
  5
AD72
102
{ACAD_REACTORS
330
AD61
102
}
330
AD61
100
AcDbXrecord
340
0
  0
XRECORD
  5
AD73
102
{ACAD_REACTORS
330
AD61
102
}
330
AD61
100
AcDbXrecord
 10
0.0
 20
0.0
 30
0.0
  0
XRECORD
  5
AD74
102
{ACAD_REACTORS
330
AD61
102
}
330
AD61
100
AcDbXrecord
 10
0.0
 20
0.0
 30
0.0
  0
XRECORD
  5
AD75
102
{ACAD_REACTORS
330
AD61
102
}
330
AD61
100
AcDbXrecord
 10
0.0
 20
0.0
 30
0.0
  0
XRECORD
  5
AD76
102
{ACAD_REACTORS
330
AD61
102
}
330
AD61
100
AcDbXrecord
 10
0.0
 20
0.0
 30
0.0
  0
XRECORD
  5
AD77
102
{ACAD_REACTORS
330
AD61
102
}
330
AD61
100
AcDbXrecord
 10
0.0
 20
0.0
 30
0.0
  0
XRECORD
  5
AD78
102
{ACAD_REACTORS
330
AD61
102
}
330
AD61
100
AcDbXrecord
 10
0.0
 20
0.0
 30
0.0
  0
XRECORD
  5
AD79
102
{ACAD_REACTORS
330
AD61
102
}
330
AD61
100
AcDbXrecord
340
0
  0
XRECORD
  5
AD7A
102
{ACAD_REACTORS
330
AD61
102
}
330
AD61
100
AcDbXrecord
 70
     0
  0
XRECORD
  5
AD7B
102
{ACAD_REACTORS
330
AD61
102
}
330
AD61
100
AcDbXrecord
340
0
  0
XRECORD
  5
AD7C
102
{ACAD_REACTORS
330
AD61
102
}
330
AD61
100
AcDbXrecord
 10
0.0
 20
0.0
 30
0.0
  0
XRECORD
  5
AD7D
102
{ACAD_REACTORS
330
AD61
102
}
330
AD61
100
AcDbXrecord
 10
0.0
 20
0.0
 30
0.0
  0
XRECORD
  5
AD7E
102
{ACAD_REACTORS
330
AD61
102
}
330
AD61
100
AcDbXrecord
 10
0.0
 20
0.0
 30
0.0
  0
XRECORD
  5
AD7F
102
{ACAD_REACTORS
330
AD61
102
}
330
AD61
100
AcDbXrecord
 10
0.0
 20
0.0
 30
0.0
  0
XRECORD
  5
AD80
102
{ACAD_REACTORS
330
AD61
102
}
330
AD61
100
AcDbXrecord
 10
0.0
 20
0.0
 30
0.0
  0
XRECORD
  5
AD81
102
{ACAD_REACTORS
330
AD61
102
}
330
AD61
100
AcDbXrecord
 10
0.0
 20
0.0
 30
0.0
  0
LAYER_INDEX
  5
AD58
102
{ACAD_REACTORS
330
AD57
102
}
330
AD57
100
AcDbIndex
 40
2453151.729575
100
AcDbLayerIndex
  8
0
360
AD59
 90
        0
  8
AM_0
360
AD5A
 90
       48
  8
AM_11
360
AD5B
 90
        4
  8
AM_7
360
AD5C
 90
        1
  8
AM_5
360
AD5D
 90
        4
  8
Defpoints
360
AD5E
 90
        0
  8
AM_6
360
AD5F
 90
        1
  0
XRECORD
  5
2D
102
{ACAD_REACTORS
330
2C
102
}
330
2C
100
AcDbXrecord
  1
VERSION
140
15.0
  1
PRODUCT
  2
AutoCAD Mechanical 2000
  0
IDBUFFER
  5
AD59
330
0
100
AcDbIdBuffer
  0
IDBUFFER
  5
AD5A
330
0
100
AcDbIdBuffer
330
AC3E
330
AC3F
330
AC40
330
AC41
330
AC42
330
AC43
330
AC52
330
AC56
330
AC57
330
AC58
330
AC59
330
AC5A
330
AC5B
330
AC5C
330
AC5D
330
AC5E
330
AC5F
330
AC60
330
AC61
330
AC62
330
AC63
330
AC64
330
AC65
330
AC66
330
AC67
330
AC68
330
AC69
330
AC6A
330
AC6B
330
AC6C
330
AD26
330
AD27
330
A7E2
330
A7E4
330
A7E5
330
A7F4
330
A800
330
A803
330
AC34
330
AC35
330
AC36
330
AC37
330
AC38
330
AC39
330
AC3A
330
AC3B
330
AC3C
330
AC3D
  0
IDBUFFER
  5
AD5B
330
0
100
AcDbIdBuffer
330
AC54
330
AC55
330
AC85
330
ACE7
  0
IDBUFFER
  5
AD5C
330
0
100
AcDbIdBuffer
330
9FF0
  0
IDBUFFER
  5
AD5D
330
0
100
AcDbIdBuffer
330
A215
330
A2A1
330
A7E7
330
AB45
  0
IDBUFFER
  5
AD5E
330
0
100
AcDbIdBuffer
  0
IDBUFFER
  5
AD5F
330
0
100
AcDbIdBuffer
330
1500
  0
ENDSEC
  0
EOF
