  0
SECTION
  2
HEADER
  9
$ACADVER
  1
AC1014
  9
$ACADMAINTVER
 70
     9
  9
$DWGCODEPAGE
  3
ANSI_932
  9
$INSBASE
 10
0.0
 20
0.0
 30
0.0
  9
$EXTMIN
 10
-128.0109970012146
 20
-58.50000100000016
 30
-0.00000001
  9
$EXTMAX
 10
19.55776903085517
 20
10.90205879132672
 30
0.00000001
  9
$LIMMIN
 10
-135.7514663227261
 20
-70.40973362960148
  9
$LIMMAX
 10
27.03869128219099
 20
27.86769758673944
  9
$ORTHOMODE
 70
     0
  9
$REGENMODE
 70
     1
  9
$FILLMODE
 70
     1
  9
$QTEXTMODE
 70
     0
  9
$MIRRTEXT
 70
     0
  9
$DRAGMODE
 70
     2
  9
$LTSCALE
 40
1.0
  9
$OSMODE
 70
    55
  9
$ATTMODE
 70
     1
  9
$TEXTSIZE
 40
2.5
  9
$TRACEWID
 40
1.0
  9
$TEXTSTYLE
  7
STANDARD
  9
$CLAYER
  8
AM_0
  9
$CELTYPE
  6
BYLAYER
  9
$CECOLOR
 62
   256
  9
$CELTSCALE
 40
1.0
  9
$DELOBJ
 70
     1
  9
$DISPSILH
 70
     0
  9
$DIMSCALE
 40
1.0
  9
$DIMASZ
 40
2.5
  9
$DIMEXO
 40
1.0
  9
$DIMDLI
 40
12.0
  9
$DIMRND
 40
0.0
  9
$DIMDLE
 40
0.0
  9
$DIMEXE
 40
1.0
  9
$DIMTP
 40
0.1
  9
$DIMTM
 40
0.1
  9
$DIMTXT
 40
3.2
  9
$DIMCEN
 40
0.0
  9
$DIMTSZ
 40
0.0
  9
$DIMTOL
 70
     0
  9
$DIMLIM
 70
     0
  9
$DIMTIH
 70
     0
  9
$DIMTOH
 70
     0
  9
$DIMSE1
 70
     0
  9
$DIMSE2
 70
     0
  9
$DIMTAD
 70
     3
  9
$DIMZIN
 70
     8
  9
$DIMBLK
  1
OPEN30
  9
$DIMASO
 70
     1
  9
$DIMSHO
 70
     1
  9
$DIMPOST
  1

  9
$DIMAPOST
  1
"
  9
$DIMALT
 70
     0
  9
$DIMALTD
 70
     2
  9
$DIMALTF
 40
0.0393701
  9
$DIMLFAC
 40
1.0
  9
$DIMTOFL
 70
     1
  9
$DIMTVP
 40
0.0
  9
$DIMTIX
 70
     0
  9
$DIMSOXD
 70
     0
  9
$DIMSAH
 70
     0
  9
$DIMBLK1
  1

  9
$DIMBLK2
  1

  9
$DIMSTYLE
  2
AM_JIS
  9
$DIMCLRD
 70
   256
  9
$DIMCLRE
 70
   256
  9
$DIMCLRT
 70
     2
  9
$DIMTFAC
 40
0.71
  9
$DIMGAP
 40
1.5
  9
$DIMJUST
 70
     0
  9
$DIMSD1
 70
     0
  9
$DIMSD2
 70
     0
  9
$DIMTOLJ
 70
     0
  9
$DIMTZIN
 70
     0
  9
$DIMALTZ
 70
     0
  9
$DIMALTTZ
 70
     0
  9
$DIMFIT
 70
     3
  9
$DIMUPT
 70
     0
  9
$DIMUNIT
 70
     2
  9
$DIMDEC
 70
     3
  9
$DIMTDEC
 70
     3
  9
$DIMALTU
 70
     2
  9
$DIMALTTD
 70
     2
  9
$DIMTXSTY
  7
ASAMI
  9
$DIMAUNIT
 70
     0
  9
$LUNITS
 70
     2
  9
$LUPREC
 70
     2
  9
$SKETCHINC
 40
1.0
  9
$FILLETRAD
 40
2.5
  9
$AUNITS
 70
     0
  9
$AUPREC
 70
     0
  9
$MENU
  1
.
  9
$ELEVATION
 40
0.0
  9
$PELEVATION
 40
0.0
  9
$THICKNESS
 40
0.0
  9
$LIMCHECK
 70
     0
  9
$BLIPMODE
 70
     0
  9
$CHAMFERA
 40
1.0
  9
$CHAMFERB
 40
1.0
  9
$CHAMFERC
 40
20.0
  9
$CHAMFERD
 40
0.0
  9
$SKPOLY
 70
     0
  9
$TDCREATE
 40
2452838.430434386
  9
$TDUPDATE
 40
2453151.730678148
  9
$TDINDWG
 40
0.4467972454
  9
$TDUSRTIMER
 40
0.4467972454
  9
$USRTIMER
 70
     1
  9
$ANGBASE
 50
0.0
  9
$ANGDIR
 70
     0
  9
$PDMODE
 70
     0
  9
$PDSIZE
 40
0.0
  9
$PLINEWID
 40
0.0
  9
$COORDS
 70
     1
  9
$SPLFRAME
 70
     0
  9
$SPLINETYPE
 70
     6
  9
$SPLINESEGS
 70
     8
  9
$ATTDIA
 70
     1
  9
$ATTREQ
 70
     1
  9
$HANDLING
 70
 12289
  9
$HANDSEED
  5
B194
  9
$SURFTAB1
 70
     6
  9
$SURFTAB2
 70
     6
  9
$SURFTYPE
 70
     6
  9
$SURFU
 70
     6
  9
$SURFV
 70
     6
  9
$UCSNAME
  2

  9
$UCSORG
 10
0.0
 20
0.0
 30
0.0
  9
$UCSXDIR
 10
1.0
 20
0.0
 30
0.0
  9
$UCSYDIR
 10
0.0
 20
1.0
 30
0.0
  9
$PUCSNAME
  2

  9
$PUCSORG
 10
0.0
 20
0.0
 30
0.0
  9
$PUCSXDIR
 10
1.0
 20
0.0
 30
0.0
  9
$PUCSYDIR
 10
0.0
 20
1.0
 30
0.0
  9
$USERI1
 70
     0
  9
$USERI2
 70
     0
  9
$USERI3
 70
     0
  9
$USERI4
 70
     0
  9
$USERI5
 70
     0
  9
$USERR1
 40
0.0
  9
$USERR2
 40
0.0
  9
$USERR3
 40
0.0
  9
$USERR4
 40
0.0
  9
$USERR5
 40
0.0
  9
$WORLDVIEW
 70
     1
  9
$SHADEDGE
 70
     3
  9
$SHADEDIF
 70
    70
  9
$TILEMODE
 70
     1
  9
$MAXACTVP
 70
    64
  9
$PINSBASE
 10
0.0
 20
0.0
 30
0.0
  9
$PLIMCHECK
 70
     0
  9
$PEXTMIN
 10
1.000000000000000E+20
 20
1.000000000000000E+20
 30
1.000000000000000E+20
  9
$PEXTMAX
 10
-1.000000000000000E+20
 20
-1.000000000000000E+20
 30
-1.000000000000000E+20
  9
$PLIMMIN
 10
0.0
 20
0.0
  9
$PLIMMAX
 10
841.0
 20
594.0
  9
$UNITMODE
 70
     0
  9
$VISRETAIN
 70
     1
  9
$PLINEGEN
 70
     0
  9
$PSLTSCALE
 70
     0
  9
$TREEDEPTH
 70
  3020
  9
$PICKSTYLE
 70
     0
  9
$CMLSTYLE
  2
STANDARD
  9
$CMLJUST
 70
     0
  9
$CMLSCALE
 40
20.0
  9
$PROXYGRAPHICS
 70
     1
  9
$MEASUREMENT
 70
     1
  0
ENDSEC
  0
SECTION
  2
CLASSES
  0
CLASS
  1
ACDBDICTIONARYWDFLT
  2
AcDbDictionaryWithDefault
  3
AutoCAD 2000
 90
        0
280
     0
281
     0
  0
CLASS
  1
ACDBPLACEHOLDER
  2
AcDbPlaceHolder
  3
AutoCAD 2000
 90
        0
280
     0
281
     0
  0
CLASS
  1
LAYOUT
  2
AcDbLayout
  3
AutoCAD 2000
 90
        0
280
     0
281
     0
  0
CLASS
  1
AMGSETTINGSOBJ
  2
AmgSettingsObj
  3
"AcadM|Product Description: AutoCAD Mechanical 2000|Company: Autodesk"
 90
        0
280
     0
281
     0
  0
CLASS
  1
ACME_DOCUMENT
  2
AcMeDbDoc
  3
AcMeServices
 90
        0
280
     0
281
     0
  0
CLASS
  1
ACMESCOPE
  2
AcMeScope
  3
AcMeServices
 90
        0
280
     0
281
     0
  0
CLASS
  1
ACMECOMMANDHISTORY
  2
AcMeCommandHistory
  3
AcMeServices
 90
        0
280
     0
281
     0
  0
CLASS
  1
DICTIONARYVAR
  2
AcDbDictionaryVar
  3
AutoCAD 2000
 90
        0
280
     0
281
     0
  0
CLASS
  1
ACIMSYSVARMAN
  2
AcImSysVarManager
  3
AcMeServices
 90
        0
280
     0
281
     0
  0
CLASS
  1
ACIMREALSYSVAR
  2
AcImRealSysVar
  3
AcMeServices
 90
        0
280
     0
281
     0
  0
CLASS
  1
ACIMINTSYSVAR
  2
AcImIntSysVar
  3
AcMeServices
 90
        0
280
     0
281
     0
  0
CLASS
  1
ACMEDRAWINGMAN
  2
AcMeDrawingMan
  3
AcMeServices
 90
        0
280
     0
281
     0
  0
CLASS
  1
ACMEVIEW
  2
AcMeView
  3
AcMeServices
 90
        0
280
     0
281
     0
  0
CLASS
  1
ACDBENTITYCACHE
  2
AcMeEntityCache
  3
AcMeServices
 90
        0
280
     0
281
     0
  0
CLASS
  1
GSMANAGER
  2
AcMeGSManager
  3
AcMeServices
 90
        0
280
     0
281
     0
  0
CLASS
  1
AmdtInternalReactor
  2
AmdtInternalReactor
  3
AcMeServices
 90
        0
280
     0
281
     0
  0
CLASS
  1
ACMESTATEMGR
  2
AcMeStateMgr
  3
AcMeServices
 90
        0
280
     0
281
     0
  0
CLASS
  1
ACME_DATABASE
  2
AcMeDbDatabase
  3
AcMeServices
 90
        0
280
     0
281
     0
  0
CLASS
  1
ACRFINSADJUSTERMGR
  2
AcRfInsAdjusterMgr
  3
AcMeServices
 90
        0
280
     0
281
     0
  0
CLASS
  1
ACMDATADICTIONARY
  2
AcmDataDictionary
  3
"AcmSymBB|Product Description: AutoCAD Mechanical 2000|Company: Autodesk"
 90
        0
280
     0
281
     0
  0
CLASS
  1
ACMDATAENTRYBLOCK
  2
AcmDataEntryBlock
  3
"AcmSymBB|Product Description: AutoCAD Mechanical 2000|Company: Autodesk"
 90
        0
280
     0
281
     0
  0
CLASS
  1
AMGOBJPROPCFG
  2
AmgObjPropCfg
  3
"AmgLay|Product Description: AutoCAD Mechanical 2000|Company: Autodesk"
 90
        1
280
     0
281
     0
  0
CLASS
  1
ACAMGFILTERDAT
  2
AcAmgFilterDat
  3
"AcadM|Product Description: AutoCAD Mechanical 2000|Company: Autodesk"
 90
        0
280
     0
281
     0
  0
CLASS
  1
LAYER_INDEX
  2
AcDbLayerIndex
  3
AutoCAD 2000
 90
        0
280
     0
281
     0
  0
CLASS
  1
IDBUFFER
  2
AcDbIdBuffer
  3
AutoCAD 2000
 90
        0
280
     0
281
     0
  0
CLASS
  1
ACIMSTRSYSVAR
  2
AcImStrSysVar
  3
AcMeServices
 90
        0
280
     0
281
     0
  0
CLASS
  1
ACMSTANDARDJIS
  2
AcmStandardJIS
  3
"AcmSymBB|Product Description: AutoCAD Mechanical 2000|Company: Autodesk"
 90
        0
280
     0
281
     0
  0
CLASS
  1
ACMSURFSTANDARDJIS
  2
AcmSurfTextStdJIS
  3
"AcmSymBB|Product Description: AutoCAD Mechanical 2000|Company: Autodesk"
 90
        0
280
     0
281
     0
  0
CLASS
  1
ACMFCFSTANDARDJIS
  2
AcmFCFStdJIS
  3
"AcmSymBB|Product Description: AutoCAD Mechanical 2000|Company: Autodesk"
 90
        0
280
     0
281
     0
  0
CLASS
  1
ACMWELDSTANDARDJIS
  2
AcmWeldingStdJIS
  3
"AcmSymBB|Product Description: AutoCAD Mechanical 2000|Company: Autodesk"
 90
        0
280
     0
281
     0
  0
CLASS
  1
ACMIDSTANDARDJIS
  2
AcmIdStdJIS
  3
"AcmSymBB|Product Description: AutoCAD Mechanical 2000|Company: Autodesk"
 90
        0
280
     0
281
     0
  0
CLASS
  1
ACMDATUMSTANDARDJIS
  2
AcmDatumStdJIS
  3
"AcmSymBB|Product Description: AutoCAD Mechanical 2000|Company: Autodesk"
 90
        0
280
     0
281
     0
  0
CLASS
  1
ACMBOMSTANDARDJIS
  2
AcmBOMStdJIS
  3
"AcmSymBB|Product Description: AutoCAD Mechanical 2000|Company: Autodesk"
 90
        0
280
     0
281
     0
  0
CLASS
  1
ACMSTANDARDANSI
  2
AcmStandardANSI
  3
"AcmSymBB|Product Description: AutoCAD Mechanical 2000|Company: Autodesk"
 90
        0
280
     0
281
     0
  0
CLASS
  1
ACMSURFSTANDARDANSI
  2
AcmSurfTextStdANSI
  3
"AcmSymBB|Product Description: AutoCAD Mechanical 2000|Company: Autodesk"
 90
        0
280
     0
281
     0
  0
CLASS
  1
ACMFCFSTANDARDANSI
  2
AcmFCFStdANSI
  3
"AcmSymBB|Product Description: AutoCAD Mechanical 2000|Company: Autodesk"
 90
        0
280
     0
281
     0
  0
CLASS
  1
ACMWELDSTANDARDANSI
  2
AcmWeldingStdANSI
  3
"AcmSymBB|Product Description: AutoCAD Mechanical 2000|Company: Autodesk"
 90
        0
280
     0
281
     0
  0
CLASS
  1
ACMIDSTANDARDANSI
  2
AcmIdStdANSI
  3
"AcmSymBB|Product Description: AutoCAD Mechanical 2000|Company: Autodesk"
 90
        0
280
     0
281
     0
  0
CLASS
  1
ACMDATUMSTANDARDANSI
  2
AcmDatumStdANSI
  3
"AcmSymBB|Product Description: AutoCAD Mechanical 2000|Company: Autodesk"
 90
        0
280
     0
281
     0
  0
CLASS
  1
ACMBOMSTANDARDANSI
  2
AcmBOMStdANSI
  3
"AcmSymBB|Product Description: AutoCAD Mechanical 2000|Company: Autodesk"
 90
        0
280
     0
281
     0
  0
CLASS
  1
ACMSTANDARDBSI
  2
AcmStandardBSI
  3
"AcmSymBB|Product Description: AutoCAD Mechanical 2000|Company: Autodesk"
 90
        0
280
     0
281
     0
  0
CLASS
  1
ACMSURFSTANDARDBSI
  2
AcmSurfTextStdBSI
  3
"AcmSymBB|Product Description: AutoCAD Mechanical 2000|Company: Autodesk"
 90
        0
280
     0
281
     0
  0
CLASS
  1
ACMFCFSTANDARDBSI
  2
AcmFCFStdBSI
  3
"AcmSymBB|Product Description: AutoCAD Mechanical 2000|Company: Autodesk"
 90
        0
280
     0
281
     0
  0
CLASS
  1
ACMWELDSTANDARDBSI
  2
AcmWeldingStdBSI
  3
"AcmSymBB|Product Description: AutoCAD Mechanical 2000|Company: Autodesk"
 90
        0
280
     0
281
     0
  0
CLASS
  1
ACMIDSTANDARDBSI
  2
AcmIdStdBSI
  3
"AcmSymBB|Product Description: AutoCAD Mechanical 2000|Company: Autodesk"
 90
        0
280
     0
281
     0
  0
CLASS
  1
ACMDATUMSTANDARDBSI
  2
AcmDatumStdBSI
  3
"AcmSymBB|Product Description: AutoCAD Mechanical 2000|Company: Autodesk"
 90
        0
280
     0
281
     0
  0
CLASS
  1
ACMBOMSTANDARDBSI
  2
AcmBOMStdBSI
  3
"AcmSymBB|Product Description: AutoCAD Mechanical 2000|Company: Autodesk"
 90
        0
280
     0
281
     0
  0
CLASS
  1
LONG_TRANSACTION
  2
AcDbLongTransaction
  3
AutoCAD 2000
 90
        0
280
     0
281
     0
  0
CLASS
  1
LWPOLYLINE
  2
AcDbPolyline
  3
AutoCAD 2000
 90
        0
280
     0
281
     1
  0
CLASS
  1
HATCH
  2
AcDbHatch
  3
AutoCAD 2000
 90
        0
280
     0
281
     1
  0
CLASS
  1
XRECORD
  2
AcDbXrecord
  3
AutoCAD 2000
 90
        0
280
     0
281
     0
  0
ENDSEC
  0
SECTION
  2
TABLES
  0
TABLE
  2
VPORT
  5
8
330
0
100
AcDbSymbolTable
 70
     3
  0
VPORT
  5
B169
330
8
100
AcDbSymbolTableRecord
100
AcDbViewportTableRecord
  2
*ACTIVE
 70
     0
 10
0.0
 20
0.0
 11
1.0
 21
1.0
 12
-52.97232333856796
 22
-17.6434839793776
 13
0.0
 23
0.0
 14
2.5
 24
2.5
 15
10.0
 25
10.0
 16
0.0
 26
0.0
 36
1.0
 17
0.0
 27
0.0
 37
0.0
 40
103.6330543572367
 41
1.56570841889117
 42
50.0
 43
0.0
 44
0.0
 50
0.0
 51
0.0
 71
     0
 72
   100
 73
     1
 74
     3
 75
     0
 76
     0
 77
     0
 78
     0
  0
ENDTAB
  0
TABLE
  2
LTYPE
  5
5
330
0
100
AcDbSymbolTable
 70
    10
  0
LTYPE
  5
14
330
5
100
AcDbSymbolTableRecord
100
AcDbLinetypeTableRecord
  2
BYBLOCK
 70
     0
  3

 72
    65
 73
     0
 40
0.0
  0
LTYPE
  5
15
330
5
100
AcDbSymbolTableRecord
100
AcDbLinetypeTableRecord
  2
BYLAYER
 70
     0
  3

 72
    65
 73
     0
 40
0.0
  0
LTYPE
  5
16
330
5
100
AcDbSymbolTableRecord
100
AcDbLinetypeTableRecord
  2
CONTINUOUS
 70
     0
  3
Solid line
 72
    65
 73
     0
 40
0.0
  0
LTYPE
  5
4B
330
5
100
AcDbSymbolTableRecord
100
AcDbLinetypeTableRecord
  2
AM_ISO02W050
 70
     0
  3
__ __ __ __ __ __ __ __ __ __ __ __ __ __ __
 72
    65
 73
     2
 40
7.5
 49
6.0
 74
     0
 49
-1.5
 74
     0
  0
LTYPE
  5
4C
330
5
100
AcDbSymbolTableRecord
100
AcDbLinetypeTableRecord
  2
AM_ISO08W050
 70
     0
  3
____ . ____ . ____ . ____ . ____ . ____ . ____
 72
    65
 73
     4
 40
18.0
 49
12.0
 74
     0
 49
-1.5
 74
     0
 49
3.0
 74
     0
 49
-1.5
 74
     0
  0
LTYPE
  5
4D
330
5
100
AcDbSymbolTableRecord
100
AcDbLinetypeTableRecord
  2
AM_ISO09W050
 70
     0
  3
_____ . . _____ . . _____ . . ____ .. ____
 72
    65
 73
     6
 40
22.5
 49
12.0
 74
     0
 49
-1.5
 74
     0
 49
3.0
 74
     0
 49
-1.5
 74
     0
 49
3.0
 74
     0
 49
-1.5
 74
     0
  0
LTYPE
  5
4E
330
5
100
AcDbSymbolTableRecord
100
AcDbLinetypeTableRecord
  2
AMCONSTR
 70
     0
  3
_______________________
 72
    65
 73
     2
 40
9999.0
 49
9999.0
 74
     0
 49
0.0
 74
     0
  0
LTYPE
  5
4F
330
5
100
AcDbSymbolTableRecord
100
AcDbLinetypeTableRecord
  2
AM_ISO02W050X2
 70
     0
  3
 _ _ _ _ _ _ _ _ _ _ _ _
 72
    65
 73
     2
 40
3.75
 49
3.0
 74
     0
 49
-0.75
 74
     0
  0
LTYPE
  5
50
330
5
100
AcDbSymbolTableRecord
100
AcDbLinetypeTableRecord
  2
AM_ISO08W050X2
 70
     0
  3
__ . __ . __ . __ . __ . __
 72
    65
 73
     4
 40
9.0
 49
6.0
 74
     0
 49
-0.75
 74
     0
 49
1.5
 74
     0
 49
-0.75
 74
     0
  0
LTYPE
  5
53
330
5
100
AcDbSymbolTableRecord
100
AcDbLinetypeTableRecord
  2
AMZIGZAG
 70
     0
  3
/\/-/\/-/\/-/\/-/\/-/\/
 72
    65
 73
     2
 40
11.00009999999999
 49
0.0001
 74
     4
 75
   135
340
52
 46
0.04
 50
0.0
 44
0.0
 45
0.0
 49
-11.0
 74
     0
  0
LTYPE
  5
166
330
5
100
AcDbSymbolTableRecord
100
AcDbLinetypeTableRecord
  2
ACJISTGL
 70
     0
  3
_ _ _ _ _
 72
    65
 73
     2
 40
3.0
 49
2.0
 74
     0
 49
-1.0
 74
     0
  0
LTYPE
  5
26A
330
5
100
AcDbSymbolTableRecord
100
AcDbLinetypeTableRecord
  2
ACJISTGB
 70
     0
  3
__ . . __ . .
 72
    65
 73
     6
 40
9.0
 49
4.0
 74
     0
 49
-1.0
 74
     0
 49
1.0
 74
     0
 49
-1.0
 74
     0
 49
1.0
 74
     0
 49
-1.0
 74
     0
  0
ENDTAB
  0
TABLE
  2
LAYER
  5
2
330
0
100
AcDbSymbolTable
 70
     7
  0
LAYER
  5
10
330
2
100
AcDbSymbolTableRecord
100
AcDbLayerTableRecord
  2
0
 70
     0
 62
     7
  6
CONTINUOUS
  0
LAYER
  5
3F9
330
2
100
AcDbSymbolTableRecord
100
AcDbLayerTableRecord
  2
AM_0
 70
     0
 62
     7
  6
CONTINUOUS
  0
LAYER
  5
BDD
330
2
100
AcDbSymbolTableRecord
100
AcDbLayerTableRecord
  2
AM_11
 70
     0
 62
     3
  6
AM_ISO09W050
  0
LAYER
  5
BDE
330
2
100
AcDbSymbolTableRecord
100
AcDbLayerTableRecord
  2
AM_7
 70
     0
 62
     4
  6
AM_ISO08W050
  0
LAYER
  5
BDF
330
2
100
AcDbSymbolTableRecord
100
AcDbLayerTableRecord
  2
AM_5
 70
     0
 62
     3
  6
CONTINUOUS
  0
LAYER
  5
BE0
330
2
100
AcDbSymbolTableRecord
100
AcDbLayerTableRecord
  2
DEFPOINTS
 70
     0
 62
     7
  6
CONTINUOUS
  0
LAYER
  5
14FF
330
2
100
AcDbSymbolTableRecord
100
AcDbLayerTableRecord
  2
AM_6
 70
     0
 62
     2
  6
CONTINUOUS
  0
ENDTAB
  0
TABLE
  2
STYLE
  5
3
330
0
100
AcDbSymbolTable
 70
     5
  0
STYLE
  5
11
330
3
100
AcDbSymbolTableRecord
100
AcDbTextStyleTableRecord
  2
STANDARD
 70
     0
 40
0.0
 41
1.0
 50
0.0
 71
     0
 42
2.5
  3
simplex.shx
  4
EXTFONT.SHX
  0
STYLE
  5
52
330
3
100
AcDbSymbolTableRecord
100
AcDbTextStyleTableRecord
  2

 70
     1
 40
0.0
 41
1.0
 50
0.0
 71
     0
 42
2.5
  3
ltypeshp.shx
  4

  0
STYLE
  5
6B
330
3
100
AcDbSymbolTableRecord
100
AcDbTextStyleTableRecord
  2
ASAMI
 70
     0
 40
0.0
 41
1.0
 50
0.0
 71
     0
 42
2.5
  3
simplex.shx
  4
EXTFONT.SHX
  0
STYLE
  5
262
330
3
100
AcDbSymbolTableRecord
100
AcDbTextStyleTableRecord
  2
ACJISTS
 70
     0
 40
1.0
 41
1.0
 50
0.0
 71
     0
 42
2.5
  3
simplex.shx
  4
bigfont.shx
  0
STYLE
  5
269
330
3
100
AcDbSymbolTableRecord
100
AcDbTextStyleTableRecord
  2
ACJISGDT
 70
     0
 40
0.0
 41
1.0
 50
0.0
 71
     0
 42
2.5
  3
amgdtans.shx
  4

  0
ENDTAB
  0
TABLE
  2
VIEW
  5
6
330
0
100
AcDbSymbolTable
 70
     0
  0
ENDTAB
  0
TABLE
  2
UCS
  5
7
330
0
100
AcDbSymbolTable
 70
     0
  0
ENDTAB
  0
TABLE
  2
APPID
  5
9
330
0
100
AcDbSymbolTable
 70
    13
  0
APPID
  5
12
330
9
100
AcDbSymbolTableRecord
100
AcDbRegAppTableRecord
  2
ACAD
 70
     0
  0
APPID
  5
30
330
9
100
AcDbSymbolTableRecord
100
AcDbRegAppTableRecord
  2
MCAD_NO_VIS
 70
     0
  0
APPID
  5
31
330
9
100
AcDbSymbolTableRecord
100
AcDbRegAppTableRecord
  2
ACAD_TEMP_GRAPHIC
 70
     0
  0
APPID
  5
2C2
330
9
100
AcDbSymbolTableRecord
100
AcDbRegAppTableRecord
  2
GENIUS_GENDTOL_13
 70
     0
  0
APPID
  5
339
330
9
100
AcDbSymbolTableRecord
100
AcDbRegAppTableRecord
  2
GENIUS_GENODEF_13
 70
     0
  0
APPID
  5
33A
330
9
100
AcDbSymbolTableRecord
100
AcDbRegAppTableRecord
  2
GENIUS_GENOBJ-N-RSBK_13
 70
     0
  0
APPID
  5
33B
330
9
100
AcDbSymbolTableRecord
100
AcDbRegAppTableRecord
  2
GENIUS_GENOBJ-N-LIB_13
 70
     0
  0
APPID
  5
33C
330
9
100
AcDbSymbolTableRecord
100
AcDbRegAppTableRecord
  2
GENIUS_GENSCALE_13
 70
     0
  0
APPID
  5
378
330
9
100
AcDbSymbolTableRecord
100
AcDbRegAppTableRecord
  2
GENIUS_GENDIMSH_14
 70
     0
  0
APPID
  5
BE1
330
9
100
AcDbSymbolTableRecord
100
AcDbRegAppTableRecord
  2
GENIUS_GENFIL_13
 70
     0
  0
APPID
  5
BE2
330
9
100
AcDbSymbolTableRecord
100
AcDbRegAppTableRecord
  2
GENIUS_GENOBJ-N-CHA_13
 70
     0
  0
APPID
  5
151B
330
9
100
AcDbSymbolTableRecord
100
AcDbRegAppTableRecord
  2
DCO15
 70
     0
  0
APPID
  5
1860
330
9
100
AcDbSymbolTableRecord
100
AcDbRegAppTableRecord
  2
GENIUS_GENOBJ-N-CEN_13
 70
     0
  0
ENDTAB
  0
TABLE
  2
DIMSTYLE
  5
A
330
0
100
AcDbSymbolTable
 70
     8
  0
DIMSTYLE
105
58
102
{ACAD_REACTORS
330
A215
330
A2A1
330
AE16
330
A391
102
}
330
A
100
AcDbSymbolTableRecord
100
AcDbDimStyleTableRecord
  2
AM_JIS
 70
     0
  3

  4
"
  5
OPEN30
  6

  7

 40
1.0
 41
2.5
 42
1.0
 43
12.0
 44
1.0
 45
0.0
 46
0.0
 47
0.1
 48
0.1
140
3.2
141
0.0
142
0.0
143
0.0393701
144
1.0
145
0.0
146
0.71
147
1.5
 71
     0
 72
     0
 73
     0
 74
     0
 75
     0
 76
     0
 77
     3
 78
     8
170
     0
171
     2
172
     1
173
     0
174
     0
175
     0
176
   256
177
   256
178
     2
270
     2
271
     3
272
     3
273
     2
274
     2
340
6B
275
     0
280
     0
281
     0
282
     0
283
     0
284
     0
285
     0
286
     0
287
     3
288
     0
  0
DIMSTYLE
105
5F
330
A
100
AcDbSymbolTableRecord
100
AcDbDimStyleTableRecord
  2
AM_JIS$3
 70
     0
  3

  4
"
  5
OPEN30
  6

  7

 40
1.0
 41
2.5
 42
1.0
 43
10.0
 44
1.0
 45
0.0
 46
0.0
 47
0.1
 48
0.1
140
3.2
141
0.0
142
0.0
143
0.0393701
144
1.0
145
0.0
146
0.71
147
1.5
 71
     0
 72
     0
 73
     0
 74
     1
 75
     0
 76
     0
 77
     3
 78
     8
170
     0
171
     2
172
     0
173
     0
174
     0
175
     0
176
   256
177
   256
178
     2
270
     2
271
     2
272
     3
273
     2
274
     2
340
6B
275
     0
280
     0
281
     0
282
     0
283
     0
284
     0
285
     0
286
     0
287
     0
288
     1
  0
DIMSTYLE
105
60
330
A
100
AcDbSymbolTableRecord
100
AcDbDimStyleTableRecord
  2
AM_JIS$4
 70
     0
  3

  4
"
  5
OPEN30
  6

  7

 40
1.0
 41
2.5
 42
1.0
 43
10.0
 44
1.0
 45
0.0
 46
0.0
 47
0.1
 48
0.1
140
3.2
141
0.0
142
0.0
143
0.0393701
144
1.0
145
0.0
146
0.71
147
1.5
 71
     0
 72
     0
 73
     0
 74
     1
 75
     0
 76
     0
 77
     3
 78
     8
170
     0
171
     2
172
     0
173
     0
174
     0
175
     0
176
   256
177
   256
178
     2
270
     2
271
     2
272
     3
273
     2
274
     2
340
6B
275
     0
280
     0
281
     0
282
     0
283
     0
284
     0
285
     0
286
     0
287
     0
288
     1
  0
DIMSTYLE
105
61
330
A
100
AcDbSymbolTableRecord
100
AcDbDimStyleTableRecord
  2
AM_JIS$6
 70
     0
  3

  4
"
  5
OPEN30
  6

  7

 40
1.0
 41
2.5
 42
1.0
 43
10.0
 44
1.0
 45
0.0
 46
0.0
 47
0.1
 48
0.1
140
3.2
141
0.0
142
0.0
143
0.0393701
144
1.0
145
0.0
146
0.71
147
1.5
 71
     0
 72
     0
 73
     0
 74
     0
 75
     0
 76
     0
 77
     0
 78
     8
170
     0
171
     2
172
     1
173
     0
174
     0
175
     0
176
   256
177
   256
178
     2
270
     2
271
     2
272
     2
273
     2
274
     2
340
6B
275
     0
280
     0
281
     0
282
     0
283
     0
284
     0
285
     0
286
     0
287
     3
288
     0
  0
DIMSTYLE
105
62
330
A
100
AcDbSymbolTableRecord
100
AcDbDimStyleTableRecord
  2
AM_JIS$7
 70
     0
  3

  4
"
  5
OPEN30
  6

  7

 40
1.0
 41
2.5
 42
1.0
 43
10.0
 44
1.0
 45
0.0
 46
0.0
 47
0.1
 48
0.1
140
3.2
141
0.0
142
0.0
143
0.0393701
144
1.0
145
0.0
146
0.71
147
1.5
 71
     0
 72
     0
 73
     0
 74
     0
 75
     0
 76
     0
 77
     3
 78
     8
170
     0
171
     2
172
     1
173
     0
174
     0
175
     0
176
   256
177
   256
178
     2
270
     2
271
     2
272
     3
273
     2
274
     2
340
6B
275
     0
280
     0
281
     0
282
     0
283
     0
284
     0
285
     0
286
     0
287
     3
288
     0
  0
DIMSTYLE
105
63
330
A
100
AcDbSymbolTableRecord
100
AcDbDimStyleTableRecord
  2
AM_JIS$SF
 70
     0
  3

  4
"
  5
OPEN30
  6

  7

 40
1.0
 41
2.5
 42
1.0
 43
10.0
 44
1.0
 45
0.0
 46
0.0
 47
0.1
 48
0.1
140
3.2
141
0.0
142
0.0
143
0.0393701
144
1.0
145
0.0
146
0.71
147
1.5
 71
     0
 72
     0
 73
     0
 74
     0
 75
     1
 76
     1
 77
     3
 78
     8
170
     0
171
     2
172
     1
173
     0
174
     0
175
     0
176
   256
177
   256
178
     2
270
     2
271
     2
272
     2
273
     2
274
     2
340
6B
275
     0
280
     0
281
     0
282
     0
283
     0
284
     0
285
     0
286
     0
287
     3
288
     0
  0
DIMSTYLE
105
68
330
A
100
AcDbSymbolTableRecord
100
AcDbDimStyleTableRecord
  2
AM_JIS$SH
 70
     0
  3

  4
"
  5

  6
GENAXEH
  7
OPEN30
 40
1.0
 41
2.5
 42
1.0
 43
10.0
 44
1.0
 45
0.0
 46
0.0
 47
0.1
 48
0.1
140
3.2
141
0.0
142
0.0
143
0.0393701
144
2.0
145
0.0
146
0.71
147
1.5
 71
     0
 72
     0
 73
     0
 74
     0
 75
     1
 76
     1
 77
     3
 78
     8
170
     0
171
     2
172
     1
173
     1
174
     0
175
     0
176
   256
177
   256
178
     2
270
     2
271
     2
272
     2
273
     2
274
     2
340
6B
275
     0
280
     0
281
     0
282
     0
283
     0
284
     0
285
     0
286
     0
287
     3
288
     0
  0
DIMSTYLE
105
B34
330
A
100
AcDbSymbolTableRecord
100
AcDbDimStyleTableRecord
  2
AM_JIS$2
 70
     0
  3

  4
"
  5
OPEN30
  6

  7

 40
1.0
 41
2.5
 42
1.0
 43
12.0
 44
1.0
 45
0.0
 46
0.0
 47
0.1
 48
0.1
140
3.2
141
0.0
142
0.0
143
0.0393701
144
1.0
145
0.0
146
0.71
147
1.5
 71
     0
 72
     0
 73
     0
 74
     0
 75
     0
 76
     0
 77
     3
 78
     8
170
     0
171
     2
172
     1
173
     0
174
     0
175
     0
176
   256
177
   256
178
     2
270
     2
271
     3
272
     3
273
     2
274
     2
340
6B
275
     0
280
     0
281
     0
282
     0
283
     0
284
     0
285
     0
286
     0
287
     3
288
     0
  0
ENDTAB
  0
TABLE
  2
BLOCK_RECORD
  5
1
330
0
100
AcDbSymbolTable
 70
     9
  0
BLOCK_RECORD
  5
1F
102
{ACAD_XDICTIONARY
360
74
102
}
330
1
100
AcDbSymbolTableRecord
100
AcDbBlockTableRecord
  2
*MODEL_SPACE
  0
BLOCK_RECORD
  5
101
102
{ACAD_XDICTIONARY
360
B192
102
}
330
1
100
AcDbSymbolTableRecord
100
AcDbBlockTableRecord
  2
*PAPER_SPACE
  0
BLOCK_RECORD
  5
59
330
1
100
AcDbSymbolTableRecord
100
AcDbBlockTableRecord
  2
_OPEN30
  0
BLOCK_RECORD
  5
64
330
1
100
AcDbSymbolTableRecord
100
AcDbBlockTableRecord
  2
GENAXEH
  0
BLOCK_RECORD
  5
A216
330
1
100
AcDbSymbolTableRecord
100
AcDbBlockTableRecord
  2
*D5
  0
BLOCK_RECORD
  5
A2A2
330
1
100
AcDbSymbolTableRecord
100
AcDbBlockTableRecord
  2
*D6
  0
BLOCK_RECORD
  5
A392
330
1
100
AcDbSymbolTableRecord
100
AcDbBlockTableRecord
  2
*D7
  0
BLOCK_RECORD
  5
AE17
330
1
100
AcDbSymbolTableRecord
100
AcDbBlockTableRecord
  2
*D8
  0
ENDTAB
  0
ENDSEC
  0
SECTION
  2
BLOCKS
  0
BLOCK
  5
20
330
1F
100
AcDbEntity
  8
0
100
AcDbBlockBegin
  2
*MODEL_SPACE
 70
     0
 10
0.0
 20
0.0
 30
0.0
  3
*MODEL_SPACE
  1

  0
ENDBLK
  5
21
330
1F
100
AcDbEntity
  8
0
100
AcDbBlockEnd
  0
BLOCK
  5
103
330
101
100
AcDbEntity
 67
     1
  8
0
100
AcDbBlockBegin
  2
*PAPER_SPACE
 70
     0
 10
0.0
 20
0.0
 30
0.0
  3
*PAPER_SPACE
  1

  0
ENDBLK
  5
104
330
101
100
AcDbEntity
 67
     1
  8
0
100
AcDbBlockEnd
  0
BLOCK
  5
5D
330
59
100
AcDbEntity
  8
0
100
AcDbBlockBegin
  2
_OPEN30
 70
     0
 10
0.0
 20
0.0
 30
0.0
  3
_OPEN30
  1

  0
LINE
  5
5A
330
59
100
AcDbEntity
  8
0
 62
     0
100
AcDbLine
 10
-1.0
 20
0.26794919
 30
0.0
 11
0.0
 21
0.0
 31
0.0
  0
LINE
  5
5B
330
59
100
AcDbEntity
  8
0
 62
     0
100
AcDbLine
 10
0.0
 20
0.0
 30
0.0
 11
-1.0
 21
-0.26794919
 31
0.0
  0
LINE
  5
5C
330
59
100
AcDbEntity
  8
0
 62
     0
100
AcDbLine
 10
0.0
 20
0.0
 30
0.0
 11
-1.0
 21
0.0
 31
0.0
  0
ENDBLK
  5
5E
330
59
100
AcDbEntity
  8
0
100
AcDbBlockEnd
  0
BLOCK
  5
66
330
64
100
AcDbEntity
  8
0
100
AcDbBlockBegin
  2
GENAXEH
 70
     0
 10
0.0
 20
0.0
 30
0.0
  3
GENAXEH
  1

  0
LINE
  5
65
330
64
100
AcDbEntity
  8
0
100
AcDbLine
 10
-1.0
 20
0.0
 30
0.0
 11
1.0
 21
0.0
 31
0.0
  0
ENDBLK
  5
67
330
64
100
AcDbEntity
  8
0
100
AcDbBlockEnd
  0
BLOCK
  5
A220
330
A216
100
AcDbEntity
  8
0
100
AcDbBlockBegin
  2
*D5
 70
     1
 10
0.0
 20
0.0
 30
0.0
  3
*D5
  1

  0
LINE
  5
AEA2
330
A216
100
AcDbEntity
  8
AM_5
100
AcDbLine
 10
0.000000000002977
 20
-10.0
 30
0.0
 11
0.0000000000029754
 21
-37.00000100000016
 31
0.0
  0
LINE
  5
AEA3
330
A216
100
AcDbEntity
  8
AM_5
100
AcDbLine
 10
-106.0
 20
-10.00000000000008
 30
0.0
 11
-106.0
 21
-37.00000100000016
 31
0.0
  0
LINE
  5
AEA4
330
A216
100
AcDbEntity
  8
AM_5
100
AcDbLine
 10
-2.499999999997024
 20
-36.00000100000016
 30
0.0
 11
-103.5
 21
-36.00000100000016
 31
0.0
  0
INSERT
  5
AEA5
330
A216
100
AcDbEntity
  8
AM_5
100
AcDbBlockReference
  2
_OPEN30
 10
0.0000000000029754
 20
-36.00000100000016
 30
0.0
 41
2.5
 42
2.5
 43
2.5
  0
INSERT
  5
AEA6
330
A216
100
AcDbEntity
  8
AM_5
100
AcDbBlockReference
  2
_OPEN30
 10
-106.0
 20
-36.00000100000016
 30
0.0
 41
2.5
 42
2.5
 43
2.5
 50
180.0
  0
MTEXT
  5
AEA7
330
A216
100
AcDbEntity
  8
AM_5
 62
     2
100
AcDbMText
 10
-52.99999999999852
 20
-32.90000100000016
 30
0.0
 40
3.2
 41
0.0
 71
     5
 72
     1
  1
106
  7
ASAMI
1001
ACAD
1000
MTEXTBEGIN
1070
    73
1070
     1
1070
    44
1040
1.0
1070
    74
1070
     0
1000
MTEXTEND
  0
POINT
  5
AEA8
330
A216
100
AcDbEntity
  8
DEFPOINTS
 62
     0
100
AcDbPoint
 10
0.0000000000029771
 20
-9.000000000000007
 30
0.0
  0
POINT
  5
AEA9
330
A216
100
AcDbEntity
  8
DEFPOINTS
 62
     0
100
AcDbPoint
 10
-106.0
 20
-9.000000000000088
 30
0.0
  0
POINT
  5
AEAA
330
A216
100
AcDbEntity
  8
DEFPOINTS
 62
     0
100
AcDbPoint
 10
-106.0
 20
-36.00000100000016
 30
0.0
  0
ENDBLK
  5
A221
330
A216
100
AcDbEntity
  8
0
100
AcDbBlockEnd
  0
BLOCK
  5
A2AC
330
A2A2
100
AcDbEntity
  8
0
100
AcDbBlockBegin
  2
*D6
 70
     1
 10
0.0
 20
0.0
 30
0.0
  3
*D6
  1

  0
LINE
  5
AE99
330
A2A2
100
AcDbEntity
  8
AM_5
100
AcDbLine
 10
0.0000000000014992
 20
-9.999999999999978
 30
0.0
 11
0.0000000000014983
 21
-25.00000099999997
 31
0.0
  0
LINE
  5
AE9A
330
A2A2
100
AcDbEntity
  8
AM_5
100
AcDbLine
 10
-40.00000000000075
 20
-10.00000000000002
 30
0.0
 11
-40.00000000000075
 21
-25.00000099999997
 31
0.0
  0
LINE
  5
AE9B
330
A2A2
100
AcDbEntity
  8
AM_5
100
AcDbLine
 10
-2.499999999998501
 20
-24.00000099999997
 30
0.0
 11
-37.50000000000075
 21
-24.00000099999997
 31
0.0
  0
INSERT
  5
AE9C
330
A2A2
100
AcDbEntity
  8
AM_5
100
AcDbBlockReference
  2
_OPEN30
 10
0.0000000000014983
 20
-24.00000099999997
 30
0.0
 41
2.5
 42
2.5
 43
2.5
  0
INSERT
  5
AE9D
330
A2A2
100
AcDbEntity
  8
AM_5
100
AcDbBlockReference
  2
_OPEN30
 10
-40.00000000000075
 20
-24.00000099999997
 30
0.0
 41
2.5
 42
2.5
 43
2.5
 50
180.0
  0
MTEXT
  5
AE9E
330
A2A2
100
AcDbEntity
  8
AM_5
 62
     2
100
AcDbMText
 10
-19.99999999999962
 20
-20.90000099999997
 30
0.0
 40
3.2
 41
0.0
 71
     5
 72
     1
  1
40
  7
ASAMI
1001
ACAD
1000
MTEXTBEGIN
1070
    73
1070
     1
1070
    44
1040
1.0
1070
    74
1070
     0
1000
MTEXTEND
  0
POINT
  5
AE9F
330
A2A2
100
AcDbEntity
  8
DEFPOINTS
 62
     0
100
AcDbPoint
 10
0.0000000000014992
 20
-8.999999999999978
 30
0.0
  0
POINT
  5
AEA0
330
A2A2
100
AcDbEntity
  8
DEFPOINTS
 62
     0
100
AcDbPoint
 10
-40.00000000000075
 20
-9.000000000000021
 30
0.0
  0
POINT
  5
AEA1
330
A2A2
100
AcDbEntity
  8
DEFPOINTS
 62
     0
100
AcDbPoint
 10
-40.00000000000075
 20
-24.00000099999997
 30
0.0
  0
ENDBLK
  5
A2AD
330
A2A2
100
AcDbEntity
  8
0
100
AcDbBlockEnd
  0
BLOCK
  5
A39C
330
A392
100
AcDbEntity
  8
0
100
AcDbBlockBegin
  2
*D7
 70
     1
 10
0.0
 20
0.0
 30
0.0
  3
*D7
  1

  0
LINE
  5
AE6C
330
A392
100
AcDbEntity
  8
AM_5
100
AcDbLine
 10
0.9999999999992397
 20
9.000000000000021
 30
0.0
 11
19.55776903085517
 21
9.000000000000015
 31
0.0
  0
LINE
  5
AE6D
330
A392
100
AcDbEntity
  8
AM_5
100
AcDbLine
 10
1.000000000000023
 20
-8.999999999999978
 30
0.0
 11
19.55776903085516
 21
-8.999999999999984
 31
0.0
  0
LINE
  5
AE6E
330
A392
100
AcDbEntity
  8
AM_5
100
AcDbLine
 10
18.55776903085517
 20
6.500000000000015
 30
0.0
 11
18.55776903085517
 21
-6.499999999999984
 31
0.0
  0
INSERT
  5
AE6F
330
A392
100
AcDbEntity
  8
AM_5
100
AcDbBlockReference
  2
_OPEN30
 10
18.55776903085517
 20
9.000000000000015
 30
0.0
 41
2.5
 42
2.5
 43
2.5
 50
90.0
  0
INSERT
  5
AE70
330
A392
100
AcDbEntity
  8
AM_5
100
AcDbBlockReference
  2
_OPEN30
 10
18.55776903085516
 20
-8.999999999999984
 30
0.0
 41
2.5
 42
2.5
 43
2.5
 50
270.0
  0
MTEXT
  5
AE71
330
A392
100
AcDbEntity
  8
AM_5
 62
     2
100
AcDbMText
 10
15.45776903085516
 20
0.0000000000000188
 30
0.0
 40
3.2
 41
0.0
 71
     5
 72
     1
  1
%%c18
  7
ASAMI
 11
0.0000000000000001
 21
1.0
 31
0.0
1001
ACAD
1000
MTEXTBEGIN
1070
    73
1070
     1
1070
    44
1040
1.0
1070
    74
1070
     0
1000
MTEXTEND
  0
POINT
  5
AE72
330
A392
100
AcDbEntity
  8
DEFPOINTS
 62
     0
100
AcDbPoint
 10
-0.0000000000007603
 20
9.000000000000021
 30
0.0
  0
POINT
  5
AE73
330
A392
100
AcDbEntity
  8
DEFPOINTS
 62
     0
100
AcDbPoint
 10
0.0000000000000239
 20
-8.999999999999978
 30
0.0
  0
POINT
  5
AE74
330
A392
100
AcDbEntity
  8
DEFPOINTS
 62
     0
100
AcDbPoint
 10
18.55776903085516
 20
-8.999999999999984
 30
0.0
  0
ENDBLK
  5
A39D
330
A392
100
AcDbEntity
  8
0
100
AcDbBlockEnd
  0
BLOCK
  5
AE21
330
AE17
100
AcDbEntity
  8
0
100
AcDbBlockBegin
  2
*D8
 70
     1
 10
0.0
 20
0.0
 30
0.0
  3
*D8
  1

  0
LINE
  5
AE24
330
AE17
100
AcDbEntity
  8
AM_5
100
AcDbLine
 10
-106.0
 20
9.999999999999896
 30
0.0
 11
-124.3109970012145
 21
9.999999999999904
 31
0.0
  0
LINE
  5
AE25
330
AE17
100
AcDbEntity
  8
AM_5
100
AcDbLine
 10
-106.0
 20
-10.00000000000008
 30
0.0
 11
-124.3109970012145
 21
-10.00000000000008
 31
0.0
  0
LINE
  5
AE26
330
AE17
100
AcDbEntity
  8
AM_5
100
AcDbLine
 10
-123.3109970012145
 20
7.499999999999903
 30
0.0
 11
-123.3109970012145
 21
-7.500000000000082
 31
0.0
  0
INSERT
  5
AE27
330
AE17
100
AcDbEntity
  8
AM_5
100
AcDbBlockReference
  2
_OPEN30
 10
-123.3109970012145
 20
9.999999999999902
 30
0.0
 41
2.5
 42
2.5
 43
2.5
 50
90.0
  0
INSERT
  5
AE28
330
AE17
100
AcDbEntity
  8
AM_5
100
AcDbBlockReference
  2
_OPEN30
 10
-123.3109970012145
 20
-10.00000000000008
 30
0.0
 41
2.5
 42
2.5
 43
2.5
 50
270.0
  0
MTEXT
  5
AE29
330
AE17
100
AcDbEntity
  8
AM_5
 62
     2
100
AcDbMText
 10
-126.4109970012145
 20
-0.0000000000001093
 30
0.0
 40
3.2
 41
0.0
 71
     5
 72
     1
  1
%%c20
  7
ASAMI
 11
0.0000000000000001
 21
1.0
 31
0.0
1001
ACAD
1000
MTEXTBEGIN
1070
    73
1070
     1
1070
    44
1040
1.0
1070
    74
1070
     0
1000
MTEXTEND
  0
POINT
  5
AE2A
330
AE17
100
AcDbEntity
  8
DEFPOINTS
 62
     0
100
AcDbPoint
 10
-105.0
 20
9.999999999999896
 30
0.0
  0
POINT
  5
AE2B
330
AE17
100
AcDbEntity
  8
DEFPOINTS
 62
     0
100
AcDbPoint
 10
-105.0
 20
-10.00000000000008
 30
0.0
  0
POINT
  5
AE2C
330
AE17
100
AcDbEntity
  8
DEFPOINTS
 62
     0
100
AcDbPoint
 10
-123.3109970012145
 20
-10.00000000000008
 30
0.0
  0
ENDBLK
  5
AE22
330
AE17
100
AcDbEntity
  8
0
100
AcDbBlockEnd
  0
ENDSEC
  0
SECTION
  2
ENTITIES
  0
TEXT
  5
1500
330
1F
100
AcDbEntity
  8
AM_6
100
AcDbText
 10
-73.95238095237946
 20
-58.50000100000016
 30
0.0
 40
5.0
  1
USM4180ZX
 72
     4
 11
-52.99999999999851
 21
-56.00000100000016
 31
0.0
100
AcDbText
  0
LINE
  5
9FF0
330
1F
100
AcDbEntity
  8
AM_7
  6
AM_ISO08W050X2
100
AcDbLine
 10
4.557768030855186
 20
0.0
 30
0.0
 11
-109.3109960012146
 21
-0.0000000000000835
 31
0.0
1001
GENIUS_GENODEF_13
1002
{
1000
HIER
1070
     0
1002
}
1002
{
1000
MANEDIT
1070
     0
1002
}
1002
{
1000
NOSEL
1070
     0
1002
}
1002
{
1000
BEHIND
1070
     0
1002
}
1002
{
1000
REACTOR
1002
}
1001
GENIUS_GENOBJ-N-CEN_13
1002
{
1000
OWNER
1000
GEN
1002
}
  0
DIMENSION
  5
A215
330
1F
100
AcDbEntity
  8
AM_5
100
AcDbDimension
  2
*D5
 10
-106.0
 20
-36.00000100000016
 30
0.0
 11
-52.99999999999852
 21
-32.90000100000016
 31
0.0
 70
    32
  1
<>
  3
AM_JIS
100
AcDbAlignedDimension
 13
0.0000000000029771
 23
-9.000000000000007
 33
0.0
 14
-106.0
 24
-9.000000000000088
 34
0.0
 50
0.0000000000001641
100
AcDbRotatedDimension
1001
GENIUS_GENDTOL_13
1000

1000
h7
1000

1040
0.0
  0
DIMENSION
  5
A2A1
330
1F
100
AcDbEntity
  8
AM_5
100
AcDbDimension
  2
*D6
 10
-40.00000000000075
 20
-24.00000099999997
 30
0.0
 11
-19.99999999999962
 21
-20.90000099999997
 31
0.0
 70
    32
  1
<>
  3
AM_JIS
100
AcDbAlignedDimension
 13
0.0000000000014992
 23
-8.999999999999978
 33
0.0
 14
-40.00000000000075
 24
-9.000000000000021
 34
0.0
 50
0.0000000000001641
100
AcDbRotatedDimension
1001
GENIUS_GENDTOL_13
1000

1000
h7
1000

1040
0.0
  0
DIMENSION
  5
A391
330
1F
100
AcDbEntity
  8
AM_5
100
AcDbDimension
  2
*D7
 10
18.55776903085516
 20
-8.999999999999984
 30
0.0
 11
15.45776903085516
 21
0.0000000000000188
 31
0.0
 70
    32
  1
%%c<>
  3
AM_JIS
100
AcDbAlignedDimension
 13
-0.0000000000007603
 23
9.000000000000021
 33
0.0
 14
0.0000000000000239
 24
-8.999999999999978
 34
0.0
 50
90.00000000000003
100
AcDbRotatedDimension
1001
GENIUS_GENDTOL_13
1000

1000
h7
1000

1040
0.0
  0
LINE
  5
A925
330
1F
100
AcDbEntity
  8
AM_0
100
AcDbLine
 10
-51.25252258054544
 20
9.000000000000012
 30
0.0
 11
-53.99999999999999
 21
9.999999999999982
 31
0.0
  0
LINE
  5
A926
330
1F
100
AcDbEntity
  8
AM_0
100
AcDbLine
 10
-54.00000000000002
 20
-10.00000000000001
 30
0.0
 11
-51.25252258054543
 21
-9.000000000000028
 31
0.0
  0
SPLINE
  5
AD87
330
1F
100
AcDbEntity
  8
AM_0
100
AcDbSpline
210
0.0
220
0.0
230
1.0
 70
     8
 71
     3
 72
     8
 73
     4
 74
     0
 42
0.0000000001
 43
0.0000000001
 40
0.0
 40
0.0
 40
0.0
 40
0.0
 40
3.891555268760223
 40
3.891555268760223
 40
3.891555268760223
 40
3.891555268760223
 10
-0.3709502766226578
 20
8.997275090700135
 30
0.0
 10
0.2930853460177474
 20
6.758755589020999
 30
0.0
 10
-4.445953377725103
 20
6.462589406083502
 30
0.0
 10
-6.842429431539436
 20
6.306427822833263
 30
0.0
  0
SPLINE
  5
AD88
330
1F
100
AcDbEntity
  8
AM_0
100
AcDbSpline
210
0.0
220
0.0
230
1.0
 70
     8
 71
     3
 72
     8
 73
     4
 74
     0
 42
0.0000000001
 43
0.0000000001
 40
1.870660592686466
 40
1.870660592686466
 40
1.870660592686466
 40
1.870660592686466
 40
14.43901837670146
 40
14.43901837670146
 40
14.43901837670146
 40
14.43901837670146
 10
-0.1890000000007923
 20
-8.520194083718969
 30
0.0
 10
-7.570736264213095
 20
-7.599421101782759
 30
0.0
 10
-14.45446422831213
 20
-3.79971055089117
 30
0.0
 10
-21.33819219241116
 20
-0.0000000000000071
 30
0.0
  0
SPLINE
  5
AD89
330
1F
100
AcDbEntity
  8
AM_0
100
AcDbSpline
210
0.0
220
0.0
230
1.0
 70
     8
 71
     3
 72
     8
 73
     4
 74
     2
 42
0.0000000001
 43
0.0000000001
 44
0.0000000001
 12
-1.0
 22
-0.0000000000000008
 32
0.0
 40
0.0
 40
0.0
 40
0.0
 40
0.0
 40
26.08199378881974
 40
26.08199378881974
 40
26.08199378881974
 40
26.08199378881974
 10
-0.0000000000007603
 20
-8.999999999999978
 30
0.0
 10
-8.693997929607341
 20
-8.999999999999985
 30
0.0
 10
-16.58699896480437
 20
-4.499999999999996
 30
0.0
 10
-24.48000000000142
 20
-0.0000000000000071
 30
0.0
 11
-0.0000000000007603
 21
-8.999999999999978
 31
0.0
 11
-24.48000000000142
 21
-0.0000000000000071
 31
0.0
  0
SPLINE
  5
AD8A
330
1F
100
AcDbEntity
  8
AM_0
100
AcDbSpline
210
0.0
220
0.0
230
1.0
 70
     8
 71
     3
 72
     8
 73
     4
 74
     0
 42
0.0000000001
 43
0.0000000001
 40
4.542668862435135
 40
4.542668862435135
 40
4.542668862435135
 40
4.542668862435135
 40
14.36247867694493
 40
14.36247867694493
 40
14.36247867694493
 40
14.36247867694493
 10
-1.232999999999023
 20
-7.19570997982182
 30
0.0
 10
-6.875027706341406
 20
-5.682610235831042
 30
0.0
 10
-12.29772884029365
 20
-2.841305117915304
 30
0.0
 10
-17.7204299742459
 20
-0.0000000000000071
 30
0.0
  0
SPLINE
  5
AD8B
330
1F
100
AcDbEntity
  8
AM_0
100
AcDbSpline
210
0.0
220
0.0
230
1.0
 70
     8
 71
     3
 72
     8
 73
     4
 74
     0
 42
0.0000000001
 43
0.0000000001
 40
0.7142832446738512
 40
0.7142832446738512
 40
0.7142832446738512
 40
0.7142832446738512
 40
9.361146747480315
 40
9.361146747480315
 40
9.361146747480315
 40
9.361146747480315
 10
-16.43972755044937
 20
8.281076021683936
 30
0.0
 10
-11.29168086099665
 20
8.038410190148859
 30
0.0
 10
-6.379994432607723
 20
6.364385789039538
 30
0.0
 10
-1.554921368335214
 20
4.165845209065814
 30
0.0
  0
SPLINE
  5
AD8C
330
1F
100
AcDbEntity
  8
AM_0
100
AcDbSpline
210
0.0
220
0.0
230
1.0
 70
     8
 71
     3
 72
     8
 73
     4
 74
     0
 42
0.0000000001
 43
0.0000000001
 40
0.0
 40
0.0
 40
0.0
 40
0.0
 40
5.635889483499127
 40
5.635889483499127
 40
5.635889483499127
 40
5.635889483499127
 10
-0.0000000000007603
 20
9.000000000000021
 30
0.0
 10
-3.381533690100638
 20
9.000000000000007
 30
0.0
 10
-6.641890656905921
 20
8.31922925216245
 30
0.0
 10
-9.828202631480266
 20
7.222473789068139
 30
0.0
  0
SPLINE
  5
AD8D
330
1F
100
AcDbEntity
  8
AM_0
100
AcDbSpline
210
0.0
220
0.0
230
1.0
 70
     8
 71
     3
 72
     8
 73
     4
 74
     0
 42
0.0000000001
 43
0.0000000001
 40
0.0
 40
0.0
 40
0.0
 40
0.0
 40
5.635889483499305
 40
5.635889483499305
 40
5.635889483499305
 40
5.635889483499305
 10
-24.48000000000142
 20
9.000000000000405
 30
0.0
 10
-27.8615336901013
 20
9.000000000000405
 30
0.0
 10
-31.12189065690658
 20
8.319229252162848
 30
0.0
 10
-34.30820263148092
 20
7.222473789068523
 30
0.0
  0
SPLINE
  5
AD8E
330
1F
100
AcDbEntity
  8
AM_0
100
AcDbSpline
210
0.0
220
0.0
230
1.0
 70
     8
 71
     3
 72
     8
 73
     4
 74
     0
 42
0.0000000001
 43
0.0000000001
 40
0.0
 40
0.0
 40
0.0
 40
0.0
 40
7.010133154738189
 40
7.010133154738189
 40
7.010133154738189
 40
7.010133154738189
 10
-24.5311779232475
 20
-8.993001525097874
 30
0.0
 10
-29.78877778930095
 20
-8.993001525097874
 30
0.0
 10
-34.75238585202402
 20
-7.343427687675578
 30
0.0
 10
-39.60000000000076
 20
-5.043017585778578
 30
0.0
  0
SPLINE
  5
AD8F
330
1F
100
AcDbEntity
  8
AM_0
100
AcDbSpline
210
0.0
220
0.0
230
1.0
 70
     8
 71
     3
 72
     8
 73
     4
 74
     0
 42
0.0000000001
 43
0.0000000001
 40
0.0
 40
0.0
 40
0.0
 40
0.0
 40
7.390401555569563
 40
7.390401555569563
 40
7.390401555569563
 40
7.390401555569563
 10
-21.27150148844032
 20
-8.540330971036659
 30
0.0
 10
-26.81430265511778
 20
-8.540330971036659
 30
0.0
 10
-32.06004220892478
 20
-6.785274901360573
 30
0.0
 10
-40.00000000000075
 20
-3.120010900121549
 30
0.0
  0
SPLINE
  5
AD90
330
1F
100
AcDbEntity
  8
AM_0
100
AcDbSpline
210
0.0
220
0.0
230
1.0
 70
     8
 71
     3
 72
     8
 73
     4
 74
     0
 42
0.0000000001
 43
0.0000000001
 40
0.0
 40
0.0
 40
0.0
 40
0.0
 40
13.975715519579
 40
13.975715519579
 40
13.975715519579
 40
13.975715519579
 10
-15.23574617779671
 20
-7.870019180103234
 30
0.0
 10
-23.6211754895441
 20
-7.870019180103234
 30
0.0
 10
-31.61176317335251
 20
-4.752694857790224
 30
0.0
 10
-42.40073435312095
 20
-0.5285108757521395
 30
0.0
  0
SPLINE
  5
AD91
330
1F
100
AcDbEntity
  8
AM_0
100
AcDbSpline
210
0.0
220
0.0
230
1.0
 70
     8
 71
     3
 72
     8
 73
     4
 74
     0
 42
0.0000000001
 43
0.0000000001
 40
0.0
 40
0.0
 40
0.0
 40
0.0
 40
9.637195575647414
 40
9.637195575647414
 40
9.637195575647414
 40
9.637195575647414
 10
-15.23574617779671
 20
-7.870019180103234
 30
0.0
 10
-13.34548873799343
 20
-7.85951146703163
 30
0.0
 10
-11.44919944865044
 20
-7.660795741243951
 30
0.0
 10
-9.577063045020743
 20
-7.3079999999999
 30
0.0
  0
SPLINE
  5
AD92
330
1F
100
AcDbEntity
  8
AM_0
100
AcDbSpline
210
0.0
220
0.0
230
1.0
 70
     8
 71
     3
 72
     8
 73
     4
 74
     0
 42
0.0000000001
 43
0.0000000001
 40
0.0
 40
0.0
 40
0.0
 40
0.0
 40
9.964098609850829
 40
9.964098609850829
 40
9.964098609850829
 40
9.964098609850829
 10
-21.27150148844032
 20
-8.540330971036659
 30
0.0
 10
-19.25981392016695
 20
-8.49782244152994
 30
0.0
 10
-17.30539360382594
 20
-8.27095697132578
 30
0.0
 10
-15.38051710845587
 20
-7.869545009520415
 30
0.0
  0
SPLINE
  5
AD93
330
1F
100
AcDbEntity
  8
AM_0
100
AcDbSpline
210
0.0
220
0.0
230
1.0
 70
     8
 71
     3
 72
     8
 73
     4
 74
     0
 42
0.0000000001
 43
0.0000000001
 40
0.0
 40
0.0
 40
0.0
 40
0.0
 40
9.637195575647414
 40
9.637195575647414
 40
9.637195575647414
 40
9.637195575647414
 10
-39.77133147761
 20
-7.859511467031659
 30
0.0
 10
-37.8438924106665
 20
-7.859511467031659
 30
0.0
 10
-35.94760312132433
 20
-7.66079574124398
 30
0.0
 10
-34.07546671769464
 20
-7.307999999999914
 30
0.0
  0
SPLINE
  5
AD94
330
1F
100
AcDbEntity
  8
AM_0
100
AcDbSpline
210
0.0
220
0.0
230
1.0
 70
     8
 71
     3
 72
     8
 73
     4
 74
     0
 42
0.0000000001
 43
0.0000000001
 40
4.041712701031851
 40
4.041712701031851
 40
4.041712701031851
 40
4.041712701031851
 40
9.964098609850829
 40
9.964098609850829
 40
9.964098609850829
 40
9.964098609850829
 10
-43.28920785591373
 20
-8.484881373387786
 30
0.0
 10
-42.17754517845
 20
-8.285057902411985
 30
0.0
 10
-41.02301437943274
 20
-8.10813322901847
 30
0.0
 10
-39.77133147761
 20
-7.859511467031659
 30
0.0
  0
SPLINE
  5
AD95
330
1F
100
AcDbEntity
  8
AM_0
100
AcDbSpline
210
0.0
220
0.0
230
1.0
 70
     8
 71
     3
 72
     8
 73
     4
 74
     0
 42
0.0000000001
 43
0.0000000001
 40
0.0
 40
0.0
 40
0.0
 40
0.0
 40
9.450452127946082
 40
9.450452127946082
 40
9.450452127946082
 40
9.450452127946082
 10
-47.9609831418243
 20
-9.000000000000035
 30
0.0
 10
-47.0188386072324
 20
-8.982493812026696
 30
0.0
 10
-45.16674312868585
 20
-8.769306260745203
 30
0.0
 10
-43.28920785591454
 20
-8.484881373387786
 30
0.0
  0
SPLINE
  5
AD96
330
1F
100
AcDbEntity
  8
AM_0
100
AcDbSpline
210
0.0
220
0.0
230
1.0
 70
     8
 71
     3
 72
     8
 73
     4
 74
     0
 42
0.0000000001
 43
0.0000000001
 40
10.62319756791741
 40
10.62319756791741
 40
10.62319756791741
 40
10.62319756791741
 40
11.52168190905409
 40
11.52168190905409
 40
11.52168190905409
 40
11.52168190905409
 10
-40.00000000000075
 20
-3.884609118433402
 30
0.0
 10
-40.63201084319405
 20
-3.636724071466698
 30
0.0
 10
-41.32956955417
 20
-3.400470803869856
 30
0.0
 10
-42.40073435312095
 20
-2.780894709612917
 30
0.0
  0
SPLINE
  5
AD97
330
1F
100
AcDbEntity
  8
AM_0
100
AcDbSpline
210
0.0
220
0.0
230
1.0
 70
     8
 71
     3
 72
     8
 73
     4
 74
     0
 42
0.0000000001
 43
0.0000000001
 40
0.0
 40
0.0
 40
0.0
 40
0.0
 40
9.318135693056014
 40
9.318135693056014
 40
9.318135693056014
 40
9.318135693056014
 10
-24.5311779232475
 20
-8.993001525097874
 30
0.0
 10
-22.54858748643108
 20
-8.982640931245276
 30
0.0
 10
-20.720233189859
 20
-8.775236236775128
 30
0.0
 10
-18.92253222321475
 20
-8.405195044576565
 30
0.0
  0
SPLINE
  5
AD98
330
1F
100
AcDbEntity
  8
AM_0
100
AcDbSpline
210
0.0
220
0.0
230
1.0
 70
     8
 71
     3
 72
     8
 73
     4
 74
     0
 42
0.0000000001
 43
0.0000000001
 40
0.3581103616548037
 40
0.3581103616548037
 40
0.3581103616548037
 40
0.3581103616548037
 40
14.43901837670146
 40
14.43901837670146
 40
14.43901837670146
 40
14.43901837670146
 10
-45.54588185740985
 20
8.99999999999995
 30
0.0
 10
-36.76250488763947
 20
8.51398021449588
 30
0.0
 10
-29.05034854002491
 20
4.256990107248149
 30
0.0
 10
-21.33819219241116
 20
-0.0000000000000071
 30
0.0
  0
SPLINE
  5
AD99
330
1F
100
AcDbEntity
  8
AM_0
100
AcDbSpline
210
0.0
220
0.0
230
1.0
 70
     8
 71
     3
 72
     8
 73
     4
 74
     0
 42
0.0000000001
 43
0.0000000001
 40
1.075450793972863
 40
1.075450793972863
 40
1.075450793972863
 40
1.075450793972863
 40
14.36247867694493
 40
14.36247867694493
 40
14.36247867694493
 40
14.36247867694493
 10
-40.27587330707608
 20
8.243243133510553
 30
0.0
 10
-32.39517063192824
 20
7.689049185044915
 30
0.0
 10
-25.05780030308669
 20
3.844524592522624
 30
0.0
 10
-17.7204299742459
 20
-0.0000000000000071
 30
0.0
  0
SPLINE
  5
AD9A
330
1F
100
AcDbEntity
  8
AM_0
100
AcDbSpline
210
0.0
220
0.0
230
1.0
 70
     8
 71
     3
 72
     8
 73
     4
 74
     0
 42
0.0000000001
 43
0.0000000001
 40
5.36015685099278
 40
5.36015685099278
 40
5.36015685099278
 40
5.36015685099278
 40
14.48999654934388
 40
14.48999654934388
 40
14.48999654934388
 40
14.48999654934388
 10
-41.72495926770261
 20
7.971914540084128
 30
0.0
 10
-34.40365466957377
 20
5.961201108317595
 30
0.0
 10
-29.45321265363236
 20
2.835354618800515
 30
0.0
 10
-24.48000000000142
 20
0.000000000000405
 30
0.0
  0
SPLINE
  5
AD9B
330
1F
100
AcDbEntity
  8
AM_0
100
AcDbSpline
210
0.0
220
0.0
230
1.0
 70
     8
 71
     3
 72
     8
 73
     4
 74
     2
 42
0.0000000001
 43
0.0000000001
 44
0.0000000001
 12
1.0
 22
0.0000000000000006
 32
0.0
 40
0.0
 40
0.0
 40
0.0
 40
0.0
 40
26.08199378881974
 40
26.08199378881974
 40
26.08199378881974
 40
26.08199378881974
 10
-24.48000000000142
 20
9.000000000000405
 30
0.0
 10
-15.78600207039483
 20
9.00000000000041
 30
0.0
 10
-7.893001035197798
 20
4.500000000000421
 30
0.0
 10
-0.0000000000007603
 20
0.0000000000004334
 30
0.0
 11
-24.48000000000142
 21
9.000000000000405
 31
0.0
 11
-0.0000000000007603
 21
0.0000000000004334
 31
0.0
  0
SPLINE
  5
AD9C
330
1F
100
AcDbEntity
  8
AM_0
100
AcDbSpline
210
0.0
220
0.0
230
1.0
 70
     8
 71
     3
 72
     8
 73
     4
 74
     0
 42
0.0000000001
 43
0.0000000001
 40
0.3581103616548037
 40
0.3581103616548037
 40
0.3581103616548037
 40
0.3581103616548037
 40
12.40023413887867
 40
12.40023413887867
 40
12.40023413887867
 40
12.40023413887867
 10
-20.69497547878075
 20
8.72252176113502
 30
0.0
 10
-13.50055221981723
 20
8.544175086713316
 30
0.0
 10
-6.818326880671463
 20
5.404862031273218
 30
0.0
 10
-0.210263026313747
 20
1.83682864189614
 30
0.0
  0
LINE
  5
AD9E
330
1F
100
AcDbEntity
  8
AM_11
100
AcDbLine
 10
-40.00000000000075
 20
-9.000000000000021
 30
0.0
 11
-0.0000000000007603
 21
-8.999999999999978
 31
0.0
  0
LINE
  5
AD9F
330
1F
100
AcDbEntity
  8
AM_11
100
AcDbLine
 10
-0.0000000000023981
 20
9.000000000000021
 30
0.0
 11
-40.00000000000074
 21
8.999999999999992
 31
0.0
  0
LINE
  5
ADB0
330
1F
100
AcDbEntity
  8
AM_0
100
AcDbLine
 10
-40.00000000000075
 20
-3.830859562185247
 30
0.0
 11
-40.00000000000075
 21
-3.120010900121549
 31
0.0
  0
POLYLINE
  5
ADB1
330
1F
100
AcDbEntity
  8
AM_0
100
AcDb2dPolyline
 66
     1
 10
0.0
 20
0.0
 30
0.0
 70
     2
  0
VERTEX
  5
ADB2
330
ADB1
100
AcDbEntity
  8
AM_0
100
AcDbVertex
100
AcDb2dVertex
 10
-39.60000000000075
 20
-5.043017585778578
 30
0.0
 42
0.0520389030992593
  0
VERTEX
  5
ADB3
330
ADB1
100
AcDbEntity
  8
AM_0
100
AcDbVertex
100
AcDb2dVertex
 10
-40.15802722913587
 20
-4.838786959216655
 30
0.0
 42
0.0620736703120521
 70
     1
  0
VERTEX
  5
ADB4
330
ADB1
100
AcDbEntity
  8
AM_0
100
AcDbVertex
100
AcDb2dVertex
 10
-40.65300000000076
 20
-4.777660161436507
 30
0.0
 42
0.0596620020802711
  0
VERTEX
  5
ADB5
330
ADB1
100
AcDbEntity
  8
AM_0
100
AcDbVertex
100
AcDb2dVertex
 10
-41.59499241633223
 20
-4.891529632317435
 30
0.0
 42
0.1107428676984588
 70
     1
  0
VERTEX
  5
ADB6
330
ADB1
100
AcDbEntity
  8
AM_0
100
AcDbVertex
100
AcDb2dVertex
 10
-42.05700000000076
 20
-5.120469545860281
 30
0.0
 42
0.0919321010959952
  0
VERTEX
  5
ADB7
330
ADB1
100
AcDbEntity
  8
AM_0
100
AcDbVertex
100
AcDb2dVertex
 10
-42.33021493802165
 20
-5.440405397272272
 30
0.0
 42
0.1306625885944883
 70
     1
  0
VERTEX
  5
ADB8
330
ADB1
100
AcDbEntity
  8
AM_0
100
AcDbVertex
100
AcDb2dVertex
 10
-42.40800000000076
 20
-5.728636354626125
 30
0.0
 42
0.1055421366890948
  0
VERTEX
  5
ADB9
330
ADB1
100
AcDbEntity
  8
AM_0
100
AcDbVertex
100
AcDb2dVertex
 10
-42.33983642609739
 20
-6.053911521527695
 30
0.0
 42
0.064249691717919
 70
     1
  0
VERTEX
  5
ADBA
330
ADB1
100
AcDbEntity
  8
AM_0
100
AcDbVertex
100
AcDb2dVertex
 10
-42.05868715501519
 20
-6.517460206336721
 30
0.0
 42
0.0621419645227973
  0
VERTEX
  5
ADBB
330
ADB1
100
AcDbEntity
  8
AM_0
100
AcDbVertex
100
AcDb2dVertex
 10
-41.53921271872348
 20
-7.024365583547591
 30
0.0
 42
0.0430349623912406
 70
     1
  0
VERTEX
  5
ADBC
330
ADB1
100
AcDbEntity
  8
AM_0
100
AcDbVertex
100
AcDb2dVertex
 10
-40.65468715501519
 20
-7.582636399437575
 30
0.0
 42
0.0552392510866287
  0
VERTEX
  5
ADBD
330
ADB1
100
AcDbEntity
  8
AM_0
100
AcDbVertex
100
AcDb2dVertex
 10
-40.24163496245476
 20
-7.741244065453678
 30
0.0
 42
0.0374044438261813
 70
     1
  0
VERTEX
  5
ADBE
330
ADB1
100
AcDbEntity
  8
AM_0
100
AcDbVertex
100
AcDb2dVertex
 10
-39.77133147761
 20
-7.858988740827832
 30
0.0
  0
SEQEND
  5
ADBF
330
ADB1
100
AcDbEntity
  8
AM_0
  0
LINE
  5
ADC0
330
1F
100
AcDbEntity
  8
AM_0
100
AcDbLine
 10
-40.00000000000075
 20
-4.899899246049526
 30
0.0
 11
-40.00000000000075
 21
-3.12001090012155
 31
0.0
  0
LINE
  5
ADC1
330
1F
100
AcDbEntity
  8
AM_0
100
AcDbLine
 10
-1.844665547681721
 20
-3.809369476500791
 30
0.0
 11
-5.069913566794944
 21
-1.79999999999999
 31
0.0
  0
LINE
  5
ADC2
330
1F
100
AcDbEntity
  8
AM_0
100
AcDbLine
 10
-0.1890000000007923
 20
-2.388416138213727
 30
0.0
 11
-0.1148325045622514
 21
-2.157509517859061
 31
0.0
  0
LINE
  5
ADC3
330
1F
100
AcDbEntity
  8
AM_0
100
AcDbLine
 10
-0.0000000000007603
 20
-8.999999999999978
 30
0.0
 11
-0.0000000000007603
 21
0.0000000000000213
 31
0.0
  0
LINE
  5
ADC4
330
1F
100
AcDbEntity
  8
AM_0
100
AcDbLine
 10
-0.1890000000007923
 20
-8.520194083719381
 30
0.0
 11
-0.1890000000007923
 21
-2.388416138213727
 31
0.0
  0
ARC
  5
ADC5
330
1F
100
AcDbEntity
  8
AM_0
100
AcDbCircle
 10
13.38191073504227
 20
-2.807446089098441
 30
0.0
 40
15.25950444044076
100
AcDbArc
 50
183.7646903347593
 51
196.7128770308232
  0
LINE
  5
ADC6
330
1F
100
AcDbEntity
  8
AM_0
100
AcDbLine
 10
-0.0000000000007603
 20
-8.999999999999978
 30
0.0
 11
-0.1890000000007923
 21
-8.520194083719381
 31
0.0
  0
LINE
  5
ADC7
330
1F
100
AcDbEntity
  8
AM_0
100
AcDbLine
 10
-0.1890000000007923
 20
-8.520194083718969
 30
0.0
 11
-1.233000000001482
 21
-7.195709979831228
 31
0.0
  0
LINE
  5
ADC8
330
1F
100
AcDbEntity
  8
AM_0
100
AcDbLine
 10
-1.844665547681721
 20
-3.809369476500791
 30
0.0
 11
-0.1890000000007923
 21
-2.388416138213727
 31
0.0
  0
LINE
  5
ADC9
330
1F
100
AcDbEntity
  8
AM_0
100
AcDbLine
 10
-1.921543555943603
 20
4.800853465218921
 30
0.0
 11
-4.983626320520247
 21
5.62133606914427
 31
0.0
  0
LINE
  5
ADCA
330
1F
100
AcDbEntity
  8
AM_0
100
AcDbLine
 10
-0.0000000000007603
 20
0.0000000000000213
 30
0.0
 11
-5.069913566794944
 21
0.0000000000000071
 31
0.0
  0
LINE
  5
ADCB
330
1F
100
AcDbEntity
  8
AM_0
100
AcDbLine
 10
-5.069913566794944
 20
0.0000000000000071
 30
0.0
 11
-5.069913566794944
 21
-1.79999999999999
 31
0.0
  0
LINE
  5
ADCC
330
1F
100
AcDbEntity
  8
AM_0
100
AcDbLine
 10
-0.0000000000007603
 20
0.0000000000000213
 30
0.0
 11
-0.0000000000007603
 21
9.000000000000021
 31
0.0
  0
LINE
  5
ADCD
330
1F
100
AcDbEntity
  8
AM_0
100
AcDbLine
 10
-0.0000000000007603
 20
0.0000000000000213
 30
0.0
 11
-0.1890000000007923
 21
1.800000000000416
 31
0.0
  0
LINE
  5
ADCE
330
1F
100
AcDbEntity
  8
AM_0
100
AcDbLine
 10
-0.1148325045622514
 20
-2.157509517859061
 30
0.0
 11
-0.1148325045622514
 21
0.0000000000000213
 31
0.0
  0
LINE
  5
ADCF
330
1F
100
AcDbEntity
  8
AM_0
100
AcDbLine
 10
-0.1890000000007923
 20
1.800000000000416
 30
0.0
 11
-1.921543555943603
 21
4.800853465218921
 31
0.0
  0
LINE
  5
AE11
330
1F
100
AcDbEntity
  8
AM_0
100
AcDbLine
 10
-54.00000000000002
 20
-10.00000000000001
 30
0.0
 11
-105.0
 21
-10.00000000000008
 31
0.0
  0
LINE
  5
AE13
330
1F
100
AcDbEntity
  8
AM_0
100
AcDbLine
 10
-105.9999999999999
 20
8.999999999999895
 30
0.0
 11
-106.0
 21
-9.000000000000088
 31
0.0
  0
LINE
  5
AE14
330
1F
100
AcDbEntity
  8
AM_0
100
AcDbLine
 10
-105.0
 20
9.999999999999896
 30
0.0
 11
-105.0
 21
-10.00000000000008
 31
0.0
  0
DIMENSION
  5
AE16
330
1F
100
AcDbEntity
  8
AM_5
100
AcDbDimension
  2
*D8
 10
-123.3109970012145
 20
-10.00000000000008
 30
0.0
 11
-126.4109970012145
 21
-0.0000000000001093
 31
0.0
 70
    32
  1
%%c<>
  3
AM_JIS
100
AcDbAlignedDimension
 13
-105.0
 23
9.999999999999896
 33
0.0
 14
-105.0
 24
-10.00000000000008
 34
0.0
 50
270.0
100
AcDbRotatedDimension
1001
GENIUS_GENDTOL_13
1000

1000
h7
1000

1040
0.0
  0
LINE
  5
AE23
330
1F
100
AcDbEntity
  8
AM_0
100
AcDbLine
 10
-54.00000000000001
 20
9.999999999999982
 30
0.0
 11
-104.9999999999999
 21
9.999999999999896
 31
0.0
  0
LINE
  5
AE2F
330
1F
100
AcDbEntity
  8
AM_0
100
AcDbLine
 10
-104.9999999999999
 20
9.999999999999896
 30
0.0
 11
-105.9999999999999
 21
8.999999999999895
 31
0.0
1001
GENIUS_GENFIL_13
1070
     0
1040
1.0
1040
1.0
1040
20.0
1040
0.0
1002
{
1002
}
1001
GENIUS_GENODEF_13
1002
{
1000
HIER
1070
     0
1002
}
1002
{
1000
MANEDIT
1070
     0
1002
}
1002
{
1000
NOSEL
1070
     0
1002
}
1002
{
1000
BEHIND
1070
     0
1002
}
1002
{
1000
REACTOR
1002
}
1001
GENIUS_GENOBJ-N-CHA_13
1002
{
1000
OWNER
1000
GEN
1002
}
  0
LINE
  5
AE32
330
1F
100
AcDbEntity
  8
AM_0
100
AcDbLine
 10
-106.0
 20
-9.000000000000088
 30
0.0
 11
-105.0
 21
-10.00000000000008
 31
0.0
1001
GENIUS_GENFIL_13
1070
     0
1040
1.0
1040
1.0
1040
20.0
1040
0.0
1002
{
1002
}
1001
GENIUS_GENODEF_13
1002
{
1000
HIER
1070
     0
1002
}
1002
{
1000
MANEDIT
1070
     0
1002
}
1002
{
1000
NOSEL
1070
     0
1002
}
1002
{
1000
BEHIND
1070
     0
1002
}
1002
{
1000
REACTOR
1002
}
1001
GENIUS_GENOBJ-N-CHA_13
1002
{
1000
OWNER
1000
GEN
1002
}
  0
LINE
  5
AE44
330
1F
100
AcDbEntity
  8
AM_0
100
AcDbLine
 10
-53.99999999999999
 20
9.999999999999982
 30
0.0
 11
-54.00000000000002
 21
-10.00000000000001
 31
0.0
  0
LINE
  5
AE79
330
1F
100
AcDbEntity
  8
AM_11
100
AcDbLine
 10
-40.00000000000075
 20
9.000000000000021
 30
0.0
 11
-40.00000000000075
 21
-9.000000000000021
 31
0.0
  0
LINE
  5
AE94
330
1F
100
AcDbEntity
  8
AM_0
100
AcDbLine
 10
-45.54588185741106
 20
9.000000000000017
 30
0.0
 11
-51.25252258054544
 21
9.000000000000012
 31
0.0
  0
LINE
  5
AE95
330
1F
100
AcDbEntity
  8
AM_0
100
AcDbLine
 10
-47.96098314180897
 20
-9.000000000000028
 30
0.0
 11
-51.25252258054541
 21
-9.00000000000003
 31
0.0
  0
LINE
  5
AE96
330
1F
100
AcDbEntity
  8
AM_0
100
AcDbLine
 10
-51.25252258054544
 20
9.000000000000012
 30
0.0
 11
-51.25252258054542
 21
-9.000000000000024
 31
0.0
  0
LINE
  5
B106
330
1F
100
AcDbEntity
  8
AM_11
100
AcDbLine
 10
-0.0000000000007603
 20
9.000000000000021
 30
0.0
 11
-0.0000000000020819
 21
-8.999999999999978
 31
0.0
  0
LINE
  5
B132
330
1F
100
AcDbEntity
  8
AM_0
100
AcDbLine
 10
-42.40073435312095
 20
-2.780894709612917
 30
0.0
 11
-42.40073435312095
 21
-0.5285108757521391
 31
0.0
  0
SPLINE
  5
B133
330
1F
100
AcDbEntity
  8
AM_0
100
AcDbSpline
210
0.0
220
0.0
230
1.0
 70
     8
 71
     3
 72
    13
 73
     9
 74
     7
 42
0.0000000001
 43
0.0000000001
 44
0.0000000001
 40
0.0
 40
0.0
 40
0.0
 40
0.0
 40
3.153836377894963
 40
7.469499961983689
 40
9.180171950409016
 40
11.44442133739248
 40
13.67810742846989
 40
19.60891217992162
 40
19.60891217992162
 40
19.60891217992162
 40
19.60891217992162
 10
-41.71177850903575
 20
7.967748349935163
 30
0.0
 10
-42.7873842424039
 20
7.91952834011665
 30
0.0
 10
-45.3348331337967
 20
7.805324773935884
 30
0.0
 10
-47.8776237377684
 20
6.742068211586024
 30
0.0
 10
-50.96086572313469
 20
5.055084083062405
 30
0.0
 10
-48.75816453815715
 20
3.140283446778797
 30
0.0
 10
-46.38654751508543
 20
1.070775859611409
 30
0.0
 10
-44.07782437807028
 20
-0.5267927471639461
 30
0.0
 10
-42.40073435312095
 20
-1.687289790589906
 30
0.0
 11
-41.71177850903575
 21
7.967748349935163
 31
0.0
 11
-44.85329149184429
 21
7.689216345707563
 31
0.0
 11
-48.89250000000072
 21
6.169431229756554
 31
0.0
 11
-50.22000000000076
 21
5.090476920259184
 31
0.0
 11
-48.89250000000077
 21
3.256200758811566
 31
0.0
 11
-47.19348191006775
 21
1.806134869428241
 31
0.0
 11
-42.40073435312095
 21
-1.687289790589906
 31
0.0
  0
VIEWPORT
  5
110
330
101
100
AcDbEntity
 67
     1
  8
0
100
AcDbViewport
 10
420.5
 20
297.0
 30
0.0
 40
948.9782706766916
 41
628.452
 68
     1
 69
     1
1001
ACAD
1000
MVIEW
1002
{
1070
    16
1010
0.0
1020
0.0
1030
0.0
1010
0.0
1020
0.0
1030
1.0
1040
0.0
1040
628.452
1040
420.5
1040
297.0
1040
50.0
1040
0.0
1040
0.0
1070
     0
1070
   100
1070
     1
1070
     1
1070
     0
1070
     0
1070
     0
1070
     0
1040
0.0
1040
0.0
1040
0.0
1040
10.0
1040
10.0
1040
10.0
1040
10.0
1070
     0
1002
{
1002
}
1002
}
  0
ENDSEC
  0
SECTION
  2
OBJECTS
  0
DICTIONARY
  5
C
330
0
100
AcDbDictionary
  3
ACAD_GROUP
350
D
  3
ACAD_LAYOUT
350
1A
  3
ACAD_MLINESTYLE
350
17
  3
ACAD_PLOTSETTINGS
350
19
  3
ACAD_PLOTSTYLENAME
350
E
  3
ACDBVARIABLEDICTIONARY
350
34
  3
ACMDICTIONARY
350
43
  3
AMG
350
2B
  3
AMGSNAPSETTINGS
350
6E
  3
ASE_INDEX_DICTIONARY
350
151A
  3
DWGPROPS
350
B15E
  3
ACDBHEADERROUNDTRIPXREC
350
B16A
  0
DICTIONARY
  5
74
330
1F
100
AcDbDictionary
280
     1
  3
ACAD_INDEX
360
B160
  3
ACAD_LAYOUTSELFREF
360
B18D
  0
DICTIONARY
  5
B192
330
101
100
AcDbDictionary
280
     1
  3
ACAD_LAYOUTSELFREF
360
B193
  0
DICTIONARY
  5
D
102
{ACAD_REACTORS
330
C
102
}
330
C
100
AcDbDictionary
  0
DICTIONARY
  5
1A
102
{ACAD_REACTORS
330
C
102
}
330
C
100
AcDbDictionary
  0
DICTIONARY
  5
17
102
{ACAD_REACTORS
330
C
102
}
330
C
100
AcDbDictionary
  3
STANDARD
350
18
  0
DICTIONARY
  5
19
102
{ACAD_REACTORS
330
C
102
}
330
C
100
AcDbDictionary
  0
ACDBDICTIONARYWDFLT
  5
E
102
{ACAD_REACTORS
330
C
102
}
330
C
100
AcDbDictionary
281
     1
  3
Normal
350
F
100
AcDbDictionaryWithDefault
340
F
  0
DICTIONARY
  5
34
102
{ACAD_REACTORS
330
C
102
}
330
C
100
AcDbDictionary
  3
INDEXCTL
350
35
  3
SORTENTS
350
B5E
  0
DICTIONARY
  5
43
102
{ACAD_REACTORS
330
C
102
}
330
C
100
AcDbDictionary
  3
ACMSTDDICTIONARY
350
260
  0
DICTIONARY
  5
2B
102
{ACAD_REACTORS
330
C
102
}
330
C
100
AcDbDictionary
  3
ACMGSETTINGS
350
2C
  0
DICTIONARY
  5
6E
102
{ACAD_REACTORS
330
C
102
}
330
C
100
AcDbDictionary
  0
DICTIONARY
  5
151A
102
{ACAD_REACTORS
330
C
102
}
330
C
100
AcDbDictionary
  3
ASEBLOCKHIERARCHYINDEXRECORD
350
151C
1001
DCO15
1040
1471862535.906
  0
XRECORD
  5
B15E
102
{ACAD_REACTORS
330
C
102
}
330
C
100
AcDbXrecord
  1
DWGPROPS COOKIE
  2

  3

  4

  6

  7

  8

  9

300
AmdtFileType=82
301
=
302
=
303
=
304
=
305
=
306
=
307
=
308
=
309
=
 40
0.4466185648148148
 41
2452838.430434386
 42
2453054.446000555
  1

 90
        1
  0
DICTIONARY
  5
B16A
102
{ACAD_REACTORS
330
C
102
}
330
C
100
AcDbDictionary
  3
TSTACKALIGN
350
B16B
  3
TSTACKSIZE
350
B16C
  3
HYPERLINKBASE
350
B16D
  3
STYLESHEET
350
B16E
  3
LAYOUTDICT
350
B16F
  3
PLOTSETDICT
350
B170
  3
PLOTSTYLNAMDICT
350
B171
  3
LWETCUNION
350
B172
  3
INSUNITS
350
B173
  3
CEPSNTYPE
350
B174
  3
FINGERPRINTGUID
350
B175
  3
VERSIONGUID
350
B176
  3
PSVPSCALE
350
B177
  3
DIMSTYLEDATA
350
B178
  3
PUCSORTHOREF
350
B179
  3
PUCSORTHOVIEW
350
B17A
  3
PUCSBASE
350
B17B
  3
PUCSORGTOP
350
B17C
  3
PUCSORGBOTTOM
350
B17D
  3
PUCSORGLEFT
350
B17E
  3
PUCSORGRIGHT
350
B17F
  3
PUCSORGFRONT
350
B180
  3
PUCSORGBACK
350
B181
  3
UCSORTHOREF
350
B182
  3
UCSORTHOVIEW
350
B183
  3
UCSBASE
350
B184
  3
UCSORGTOP
350
B185
  3
UCSORGBOTTOM
350
B186
  3
UCSORGLEFT
350
B187
  3
UCSORGRIGHT
350
B188
  3
UCSORGFRONT
350
B189
  3
UCSORGBACK
350
B18A
  0
DICTIONARY
  5
B160
102
{ACAD_REACTORS
330
74
102
}
330
74
100
AcDbDictionary
  3
*A1
350
B161
  0
XRECORD
  5
B18D
102
{ACAD_REACTORS
330
74
102
}
330
74
100
AcDbXrecord
340
1F
  0
XRECORD
  5
B193
102
{ACAD_REACTORS
330
B192
102
}
330
B192
100
AcDbXrecord
340
101
  0
MLINESTYLE
  5
18
102
{ACAD_REACTORS
330
17
102
}
330
17
100
AcDbMlineStyle
  2
STANDARD
 70
     0
  3

 62
   256
 51
90.0
 52
90.0
 71
     2
 49
0.5
 62
   256
  6
BYLAYER
 49
-0.5
 62
   256
  6
BYLAYER
  0
ACDBPLACEHOLDER
  5
F
102
{ACAD_REACTORS
330
E
102
}
330
E
100
AcDbPlaceHolder
280
     0
  0
DICTIONARYVAR
  5
35
102
{ACAD_REACTORS
330
34
102
}
330
34
100
DictionaryVariables
280
     0
  1
1
  0
DICTIONARYVAR
  5
B5E
102
{ACAD_REACTORS
330
34
102
}
330
34
100
DictionaryVariables
280
     0
  1
96
  0
DICTIONARY
  5
260
102
{ACAD_REACTORS
330
43
102
}
330
43
100
AcDbDictionary
  0
DICTIONARY
  5
2C
102
{ACAD_REACTORS
330
2B
102
}
330
2B
100
AcDbDictionary
  3
DWGSETTINGS
350
2D
  0
XRECORD
  5
151C
102
{ACAD_REACTORS
330
151A
102
}
330
151A
100
AcDbXrecord
330
0
330
0
330
0
330
0
330
0
330
0
330
0
330
0
  0
XRECORD
  5
B16B
102
{ACAD_REACTORS
330
B16A
102
}
330
B16A
100
AcDbXrecord
 90
        1
  0
XRECORD
  5
B16C
102
{ACAD_REACTORS
330
B16A
102
}
330
B16A
100
AcDbXrecord
 90
       70
  0
XRECORD
  5
B16D
102
{ACAD_REACTORS
330
B16A
102
}
330
B16A
100
AcDbXrecord
  1

  0
XRECORD
  5
B16E
102
{ACAD_REACTORS
330
B16A
102
}
330
B16A
100
AcDbXrecord
  1
ASAMI.ctb
  0
XRECORD
  5
B16F
102
{ACAD_REACTORS
330
B16A
102
}
330
B16A
100
AcDbXrecord
340
1A
  0
XRECORD
  5
B170
102
{ACAD_REACTORS
330
B16A
102
}
330
B16A
100
AcDbXrecord
340
19
  0
XRECORD
  5
B171
102
{ACAD_REACTORS
330
B16A
102
}
330
B16A
100
AcDbXrecord
340
E
  0
XRECORD
  5
B172
102
{ACAD_REACTORS
330
B16A
102
}
330
B16A
100
AcDbXrecord
 90
    10781
  0
XRECORD
  5
B173
102
{ACAD_REACTORS
330
B16A
102
}
330
B16A
100
AcDbXrecord
 90
        4
  0
XRECORD
  5
B174
102
{ACAD_REACTORS
330
B16A
102
}
330
B16A
100
AcDbXrecord
 90
        0
  0
XRECORD
  5
B175
102
{ACAD_REACTORS
330
B16A
102
}
330
B16A
100
AcDbXrecord
  1
{AFB28963-8C59-40AE-9337-C84526B81ACE}
  0
XRECORD
  5
B176
102
{ACAD_REACTORS
330
B16A
102
}
330
B16A
100
AcDbXrecord
  1
{C98ACE4C-0DA3-4E1F-BBF0-FEAFF845A061}
  0
XRECORD
  5
B177
102
{ACAD_REACTORS
330
B16A
102
}
330
B16A
100
AcDbXrecord
 40
0.0
  0
XRECORD
  5
B178
102
{ACAD_REACTORS
330
B16A
102
}
330
B16A
100
AcDbXrecord
1000
DSTYLE
1002
{
1070
    79
 70
     2
1070
   341
340
59
1070
   342
340
59
1070
   371
 70
    -1
1070
   372
 70
    -1
1002
}
  0
XRECORD
  5
B179
102
{ACAD_REACTORS
330
B16A
102
}
330
B16A
100
AcDbXrecord
340
0
  0
XRECORD
  5
B17A
102
{ACAD_REACTORS
330
B16A
102
}
330
B16A
100
AcDbXrecord
 70
     0
  0
XRECORD
  5
B17B
102
{ACAD_REACTORS
330
B16A
102
}
330
B16A
100
AcDbXrecord
340
0
  0
XRECORD
  5
B17C
102
{ACAD_REACTORS
330
B16A
102
}
330
B16A
100
AcDbXrecord
 10
0.0
 20
0.0
 30
0.0
  0
XRECORD
  5
B17D
102
{ACAD_REACTORS
330
B16A
102
}
330
B16A
100
AcDbXrecord
 10
0.0
 20
0.0
 30
0.0
  0
XRECORD
  5
B17E
102
{ACAD_REACTORS
330
B16A
102
}
330
B16A
100
AcDbXrecord
 10
0.0
 20
0.0
 30
0.0
  0
XRECORD
  5
B17F
102
{ACAD_REACTORS
330
B16A
102
}
330
B16A
100
AcDbXrecord
 10
0.0
 20
0.0
 30
0.0
  0
XRECORD
  5
B180
102
{ACAD_REACTORS
330
B16A
102
}
330
B16A
100
AcDbXrecord
 10
0.0
 20
0.0
 30
0.0
  0
XRECORD
  5
B181
102
{ACAD_REACTORS
330
B16A
102
}
330
B16A
100
AcDbXrecord
 10
0.0
 20
0.0
 30
0.0
  0
XRECORD
  5
B182
102
{ACAD_REACTORS
330
B16A
102
}
330
B16A
100
AcDbXrecord
340
0
  0
XRECORD
  5
B183
102
{ACAD_REACTORS
330
B16A
102
}
330
B16A
100
AcDbXrecord
 70
     0
  0
XRECORD
  5
B184
102
{ACAD_REACTORS
330
B16A
102
}
330
B16A
100
AcDbXrecord
340
0
  0
XRECORD
  5
B185
102
{ACAD_REACTORS
330
B16A
102
}
330
B16A
100
AcDbXrecord
 10
0.0
 20
0.0
 30
0.0
  0
XRECORD
  5
B186
102
{ACAD_REACTORS
330
B16A
102
}
330
B16A
100
AcDbXrecord
 10
0.0
 20
0.0
 30
0.0
  0
XRECORD
  5
B187
102
{ACAD_REACTORS
330
B16A
102
}
330
B16A
100
AcDbXrecord
 10
0.0
 20
0.0
 30
0.0
  0
XRECORD
  5
B188
102
{ACAD_REACTORS
330
B16A
102
}
330
B16A
100
AcDbXrecord
 10
0.0
 20
0.0
 30
0.0
  0
XRECORD
  5
B189
102
{ACAD_REACTORS
330
B16A
102
}
330
B16A
100
AcDbXrecord
 10
0.0
 20
0.0
 30
0.0
  0
XRECORD
  5
B18A
102
{ACAD_REACTORS
330
B16A
102
}
330
B16A
100
AcDbXrecord
 10
0.0
 20
0.0
 30
0.0
  0
LAYER_INDEX
  5
B161
102
{ACAD_REACTORS
330
B160
102
}
330
B160
100
AcDbIndex
 40
2453151.730678148
100
AcDbLayerIndex
  8
0
360
B162
 90
        0
  8
AM_0
360
B163
 90
       54
  8
AM_11
360
B164
 90
        4
  8
AM_7
360
B165
 90
        1
  8
AM_5
360
B166
 90
        4
  8
Defpoints
360
B167
 90
        0
  8
AM_6
360
B168
 90
        1
  0
XRECORD
  5
2D
102
{ACAD_REACTORS
330
2C
102
}
330
2C
100
AcDbXrecord
  1
VERSION
140
15.0
  1
PRODUCT
  2
AutoCAD Mechanical 2000
  0
IDBUFFER
  5
B162
330
0
100
AcDbIdBuffer
  0
IDBUFFER
  5
B163
330
0
100
AcDbIdBuffer
330
AE44
330
AE94
330
AE95
330
AE96
330
B132
330
B133
330
A925
330
A926
330
AD87
330
AD88
330
AD89
330
AD8A
330
AD8B
330
AD8C
330
AD8D
330
AD8E
330
AD8F
330
AD90
330
AD91
330
AD92
330
AD93
330
AD94
330
AD95
330
AD96
330
AD97
330
AD98
330
AD99
330
AD9A
330
AD9B
330
AD9C
330
ADB0
330
ADB1
330
ADC0
330
ADC1
330
ADC2
330
ADC3
330
ADC4
330
ADC5
330
ADC6
330
ADC7
330
ADC8
330
ADC9
330
ADCA
330
ADCB
330
ADCC
330
ADCD
330
ADCE
330
ADCF
330
AE11
330
AE13
330
AE14
330
AE23
330
AE2F
330
AE32
  0
IDBUFFER
  5
B164
330
0
100
AcDbIdBuffer
330
AD9E
330
AD9F
330
AE79
330
B106
  0
IDBUFFER
  5
B165
330
0
100
AcDbIdBuffer
330
9FF0
  0
IDBUFFER
  5
B166
330
0
100
AcDbIdBuffer
330
A215
330
A2A1
330
A391
330
AE16
  0
IDBUFFER
  5
B167
330
0
100
AcDbIdBuffer
  0
IDBUFFER
  5
B168
330
0
100
AcDbIdBuffer
330
1500
  0
ENDSEC
  0
EOF
