  0
SECTION
  2
HEADER
  9
$ACADVER
  1
AC1014
  9
$ACADMAINTVER
 70
     9
  9
$DWGCODEPAGE
  3
ANSI_932
  9
$INSBASE
 10
0.0
 20
0.0
 30
0.0
  9
$EXTMIN
 10
-142.0109970012145
 20
-61.00000100000016
 30
-0.00000001
  9
$EXTMAX
 10
19.55776903085516
 20
15.13266517172097
 30
0.00000001
  9
$LIMMIN
 10
-152.043068143924
 20
-89.25658427507249
  9
$LIMMAX
 10
47.69108104373856
 20
46.54145765134649
  9
$ORTHOMODE
 70
     0
  9
$REGENMODE
 70
     1
  9
$FILLMODE
 70
     1
  9
$QTEXTMODE
 70
     0
  9
$MIRRTEXT
 70
     0
  9
$DRAGMODE
 70
     2
  9
$LTSCALE
 40
1.0
  9
$OSMODE
 70
    55
  9
$ATTMODE
 70
     1
  9
$TEXTSIZE
 40
2.5
  9
$TRACEWID
 40
1.0
  9
$TEXTSTYLE
  7
STANDARD
  9
$CLAYER
  8
AM_0
  9
$CELTYPE
  6
BYLAYER
  9
$CECOLOR
 62
   256
  9
$CELTSCALE
 40
1.0
  9
$DELOBJ
 70
     1
  9
$DISPSILH
 70
     0
  9
$DIMSCALE
 40
1.0
  9
$DIMASZ
 40
2.5
  9
$DIMEXO
 40
1.0
  9
$DIMDLI
 40
12.0
  9
$DIMRND
 40
0.0
  9
$DIMDLE
 40
0.0
  9
$DIMEXE
 40
1.0
  9
$DIMTP
 40
0.1
  9
$DIMTM
 40
0.1
  9
$DIMTXT
 40
3.2
  9
$DIMCEN
 40
0.0
  9
$DIMTSZ
 40
0.0
  9
$DIMTOL
 70
     0
  9
$DIMLIM
 70
     0
  9
$DIMTIH
 70
     0
  9
$DIMTOH
 70
     0
  9
$DIMSE1
 70
     0
  9
$DIMSE2
 70
     0
  9
$DIMTAD
 70
     3
  9
$DIMZIN
 70
     8
  9
$DIMBLK
  1
OPEN30
  9
$DIMASO
 70
     1
  9
$DIMSHO
 70
     1
  9
$DIMPOST
  1

  9
$DIMAPOST
  1
"
  9
$DIMALT
 70
     0
  9
$DIMALTD
 70
     2
  9
$DIMALTF
 40
0.0393701
  9
$DIMLFAC
 40
1.0
  9
$DIMTOFL
 70
     1
  9
$DIMTVP
 40
0.0
  9
$DIMTIX
 70
     0
  9
$DIMSOXD
 70
     0
  9
$DIMSAH
 70
     0
  9
$DIMBLK1
  1

  9
$DIMBLK2
  1

  9
$DIMSTYLE
  2
AM_JIS
  9
$DIMCLRD
 70
   256
  9
$DIMCLRE
 70
   256
  9
$DIMCLRT
 70
     2
  9
$DIMTFAC
 40
0.71
  9
$DIMGAP
 40
1.5
  9
$DIMJUST
 70
     0
  9
$DIMSD1
 70
     0
  9
$DIMSD2
 70
     0
  9
$DIMTOLJ
 70
     0
  9
$DIMTZIN
 70
     0
  9
$DIMALTZ
 70
     0
  9
$DIMALTTZ
 70
     0
  9
$DIMFIT
 70
     3
  9
$DIMUPT
 70
     0
  9
$DIMUNIT
 70
     2
  9
$DIMDEC
 70
     3
  9
$DIMTDEC
 70
     3
  9
$DIMALTU
 70
     2
  9
$DIMALTTD
 70
     2
  9
$DIMTXSTY
  7
ASAMI
  9
$DIMAUNIT
 70
     0
  9
$LUNITS
 70
     2
  9
$LUPREC
 70
     2
  9
$SKETCHINC
 40
1.0
  9
$FILLETRAD
 40
2.5
  9
$AUNITS
 70
     0
  9
$AUPREC
 70
     0
  9
$MENU
  1
.
  9
$ELEVATION
 40
0.0
  9
$PELEVATION
 40
0.0
  9
$THICKNESS
 40
0.0
  9
$LIMCHECK
 70
     0
  9
$BLIPMODE
 70
     0
  9
$CHAMFERA
 40
1.0
  9
$CHAMFERB
 40
1.0
  9
$CHAMFERC
 40
20.0
  9
$CHAMFERD
 40
0.0
  9
$SKPOLY
 70
     0
  9
$TDCREATE
 40
2452838.430434386
  9
$TDUPDATE
 40
2453151.731132257
  9
$TDINDWG
 40
0.5541094792
  9
$TDUSRTIMER
 40
0.5541094792
  9
$USRTIMER
 70
     1
  9
$ANGBASE
 50
0.0
  9
$ANGDIR
 70
     0
  9
$PDMODE
 70
     0
  9
$PDSIZE
 40
0.0
  9
$PLINEWID
 40
0.0
  9
$COORDS
 70
     1
  9
$SPLFRAME
 70
     0
  9
$SPLINETYPE
 70
     6
  9
$SPLINESEGS
 70
     8
  9
$ATTDIA
 70
     1
  9
$ATTREQ
 70
     1
  9
$HANDLING
 70
 12289
  9
$HANDSEED
  5
B0C1
  9
$SURFTAB1
 70
     6
  9
$SURFTAB2
 70
     6
  9
$SURFTYPE
 70
     6
  9
$SURFU
 70
     6
  9
$SURFV
 70
     6
  9
$UCSNAME
  2

  9
$UCSORG
 10
0.0
 20
0.0
 30
0.0
  9
$UCSXDIR
 10
1.0
 20
0.0
 30
0.0
  9
$UCSYDIR
 10
0.0
 20
1.0
 30
0.0
  9
$PUCSNAME
  2

  9
$PUCSORG
 10
0.0
 20
0.0
 30
0.0
  9
$PUCSXDIR
 10
1.0
 20
0.0
 30
0.0
  9
$PUCSYDIR
 10
0.0
 20
1.0
 30
0.0
  9
$USERI1
 70
     0
  9
$USERI2
 70
     0
  9
$USERI3
 70
     0
  9
$USERI4
 70
     0
  9
$USERI5
 70
     0
  9
$USERR1
 40
0.0
  9
$USERR2
 40
0.0
  9
$USERR3
 40
0.0
  9
$USERR4
 40
0.0
  9
$USERR5
 40
0.0
  9
$WORLDVIEW
 70
     1
  9
$SHADEDGE
 70
     3
  9
$SHADEDIF
 70
    70
  9
$TILEMODE
 70
     1
  9
$MAXACTVP
 70
    64
  9
$PINSBASE
 10
0.0
 20
0.0
 30
0.0
  9
$PLIMCHECK
 70
     0
  9
$PEXTMIN
 10
1.000000000000000E+20
 20
1.000000000000000E+20
 30
1.000000000000000E+20
  9
$PEXTMAX
 10
-1.000000000000000E+20
 20
-1.000000000000000E+20
 30
-1.000000000000000E+20
  9
$PLIMMIN
 10
0.0
 20
0.0
  9
$PLIMMAX
 10
841.0
 20
594.0
  9
$UNITMODE
 70
     0
  9
$VISRETAIN
 70
     1
  9
$PLINEGEN
 70
     0
  9
$PSLTSCALE
 70
     0
  9
$TREEDEPTH
 70
  3020
  9
$PICKSTYLE
 70
     0
  9
$CMLSTYLE
  2
STANDARD
  9
$CMLJUST
 70
     0
  9
$CMLSCALE
 40
20.0
  9
$PROXYGRAPHICS
 70
     1
  9
$MEASUREMENT
 70
     1
  0
ENDSEC
  0
SECTION
  2
CLASSES
  0
CLASS
  1
ACDBDICTIONARYWDFLT
  2
AcDbDictionaryWithDefault
  3
AutoCAD 2000
 90
        0
280
     0
281
     0
  0
CLASS
  1
ACDBPLACEHOLDER
  2
AcDbPlaceHolder
  3
AutoCAD 2000
 90
        0
280
     0
281
     0
  0
CLASS
  1
LAYOUT
  2
AcDbLayout
  3
AutoCAD 2000
 90
        0
280
     0
281
     0
  0
CLASS
  1
AMGSETTINGSOBJ
  2
AmgSettingsObj
  3
"AcadM|Product Description: AutoCAD Mechanical 2000|Company: Autodesk"
 90
        0
280
     0
281
     0
  0
CLASS
  1
ACME_DOCUMENT
  2
AcMeDbDoc
  3
AcMeServices
 90
        0
280
     0
281
     0
  0
CLASS
  1
ACMESCOPE
  2
AcMeScope
  3
AcMeServices
 90
        0
280
     0
281
     0
  0
CLASS
  1
ACMECOMMANDHISTORY
  2
AcMeCommandHistory
  3
AcMeServices
 90
        0
280
     0
281
     0
  0
CLASS
  1
DICTIONARYVAR
  2
AcDbDictionaryVar
  3
AutoCAD 2000
 90
        0
280
     0
281
     0
  0
CLASS
  1
ACIMSYSVARMAN
  2
AcImSysVarManager
  3
AcMeServices
 90
        0
280
     0
281
     0
  0
CLASS
  1
ACIMREALSYSVAR
  2
AcImRealSysVar
  3
AcMeServices
 90
        0
280
     0
281
     0
  0
CLASS
  1
ACIMINTSYSVAR
  2
AcImIntSysVar
  3
AcMeServices
 90
        0
280
     0
281
     0
  0
CLASS
  1
ACMEDRAWINGMAN
  2
AcMeDrawingMan
  3
AcMeServices
 90
        0
280
     0
281
     0
  0
CLASS
  1
ACMEVIEW
  2
AcMeView
  3
AcMeServices
 90
        0
280
     0
281
     0
  0
CLASS
  1
ACDBENTITYCACHE
  2
AcMeEntityCache
  3
AcMeServices
 90
        0
280
     0
281
     0
  0
CLASS
  1
GSMANAGER
  2
AcMeGSManager
  3
AcMeServices
 90
        0
280
     0
281
     0
  0
CLASS
  1
AmdtInternalReactor
  2
AmdtInternalReactor
  3
AcMeServices
 90
        0
280
     0
281
     0
  0
CLASS
  1
ACMESTATEMGR
  2
AcMeStateMgr
  3
AcMeServices
 90
        0
280
     0
281
     0
  0
CLASS
  1
ACME_DATABASE
  2
AcMeDbDatabase
  3
AcMeServices
 90
        0
280
     0
281
     0
  0
CLASS
  1
ACRFINSADJUSTERMGR
  2
AcRfInsAdjusterMgr
  3
AcMeServices
 90
        0
280
     0
281
     0
  0
CLASS
  1
ACMDATADICTIONARY
  2
AcmDataDictionary
  3
"AcmSymBB|Product Description: AutoCAD Mechanical 2000|Company: Autodesk"
 90
        0
280
     0
281
     0
  0
CLASS
  1
ACMDATAENTRYBLOCK
  2
AcmDataEntryBlock
  3
"AcmSymBB|Product Description: AutoCAD Mechanical 2000|Company: Autodesk"
 90
        0
280
     0
281
     0
  0
CLASS
  1
AMGOBJPROPCFG
  2
AmgObjPropCfg
  3
"AmgLay|Product Description: AutoCAD Mechanical 2000|Company: Autodesk"
 90
        1
280
     0
281
     0
  0
CLASS
  1
ACAMGFILTERDAT
  2
AcAmgFilterDat
  3
"AcadM|Product Description: AutoCAD Mechanical 2000|Company: Autodesk"
 90
        0
280
     0
281
     0
  0
CLASS
  1
LAYER_INDEX
  2
AcDbLayerIndex
  3
AutoCAD 2000
 90
        0
280
     0
281
     0
  0
CLASS
  1
IDBUFFER
  2
AcDbIdBuffer
  3
AutoCAD 2000
 90
        0
280
     0
281
     0
  0
CLASS
  1
ACIMSTRSYSVAR
  2
AcImStrSysVar
  3
AcMeServices
 90
        0
280
     0
281
     0
  0
CLASS
  1
ACMSTANDARDJIS
  2
AcmStandardJIS
  3
"AcmSymBB|Product Description: AutoCAD Mechanical 2000|Company: Autodesk"
 90
        0
280
     0
281
     0
  0
CLASS
  1
ACMSURFSTANDARDJIS
  2
AcmSurfTextStdJIS
  3
"AcmSymBB|Product Description: AutoCAD Mechanical 2000|Company: Autodesk"
 90
        0
280
     0
281
     0
  0
CLASS
  1
ACMFCFSTANDARDJIS
  2
AcmFCFStdJIS
  3
"AcmSymBB|Product Description: AutoCAD Mechanical 2000|Company: Autodesk"
 90
        0
280
     0
281
     0
  0
CLASS
  1
ACMWELDSTANDARDJIS
  2
AcmWeldingStdJIS
  3
"AcmSymBB|Product Description: AutoCAD Mechanical 2000|Company: Autodesk"
 90
        0
280
     0
281
     0
  0
CLASS
  1
ACMIDSTANDARDJIS
  2
AcmIdStdJIS
  3
"AcmSymBB|Product Description: AutoCAD Mechanical 2000|Company: Autodesk"
 90
        0
280
     0
281
     0
  0
CLASS
  1
ACMDATUMSTANDARDJIS
  2
AcmDatumStdJIS
  3
"AcmSymBB|Product Description: AutoCAD Mechanical 2000|Company: Autodesk"
 90
        0
280
     0
281
     0
  0
CLASS
  1
ACMBOMSTANDARDJIS
  2
AcmBOMStdJIS
  3
"AcmSymBB|Product Description: AutoCAD Mechanical 2000|Company: Autodesk"
 90
        0
280
     0
281
     0
  0
CLASS
  1
ACMSTANDARDANSI
  2
AcmStandardANSI
  3
"AcmSymBB|Product Description: AutoCAD Mechanical 2000|Company: Autodesk"
 90
        0
280
     0
281
     0
  0
CLASS
  1
ACMSURFSTANDARDANSI
  2
AcmSurfTextStdANSI
  3
"AcmSymBB|Product Description: AutoCAD Mechanical 2000|Company: Autodesk"
 90
        0
280
     0
281
     0
  0
CLASS
  1
ACMFCFSTANDARDANSI
  2
AcmFCFStdANSI
  3
"AcmSymBB|Product Description: AutoCAD Mechanical 2000|Company: Autodesk"
 90
        0
280
     0
281
     0
  0
CLASS
  1
ACMWELDSTANDARDANSI
  2
AcmWeldingStdANSI
  3
"AcmSymBB|Product Description: AutoCAD Mechanical 2000|Company: Autodesk"
 90
        0
280
     0
281
     0
  0
CLASS
  1
ACMIDSTANDARDANSI
  2
AcmIdStdANSI
  3
"AcmSymBB|Product Description: AutoCAD Mechanical 2000|Company: Autodesk"
 90
        0
280
     0
281
     0
  0
CLASS
  1
ACMDATUMSTANDARDANSI
  2
AcmDatumStdANSI
  3
"AcmSymBB|Product Description: AutoCAD Mechanical 2000|Company: Autodesk"
 90
        0
280
     0
281
     0
  0
CLASS
  1
ACMBOMSTANDARDANSI
  2
AcmBOMStdANSI
  3
"AcmSymBB|Product Description: AutoCAD Mechanical 2000|Company: Autodesk"
 90
        0
280
     0
281
     0
  0
CLASS
  1
ACMSTANDARDBSI
  2
AcmStandardBSI
  3
"AcmSymBB|Product Description: AutoCAD Mechanical 2000|Company: Autodesk"
 90
        0
280
     0
281
     0
  0
CLASS
  1
ACMSURFSTANDARDBSI
  2
AcmSurfTextStdBSI
  3
"AcmSymBB|Product Description: AutoCAD Mechanical 2000|Company: Autodesk"
 90
        0
280
     0
281
     0
  0
CLASS
  1
ACMFCFSTANDARDBSI
  2
AcmFCFStdBSI
  3
"AcmSymBB|Product Description: AutoCAD Mechanical 2000|Company: Autodesk"
 90
        0
280
     0
281
     0
  0
CLASS
  1
ACMWELDSTANDARDBSI
  2
AcmWeldingStdBSI
  3
"AcmSymBB|Product Description: AutoCAD Mechanical 2000|Company: Autodesk"
 90
        0
280
     0
281
     0
  0
CLASS
  1
ACMIDSTANDARDBSI
  2
AcmIdStdBSI
  3
"AcmSymBB|Product Description: AutoCAD Mechanical 2000|Company: Autodesk"
 90
        0
280
     0
281
     0
  0
CLASS
  1
ACMDATUMSTANDARDBSI
  2
AcmDatumStdBSI
  3
"AcmSymBB|Product Description: AutoCAD Mechanical 2000|Company: Autodesk"
 90
        0
280
     0
281
     0
  0
CLASS
  1
ACMBOMSTANDARDBSI
  2
AcmBOMStdBSI
  3
"AcmSymBB|Product Description: AutoCAD Mechanical 2000|Company: Autodesk"
 90
        0
280
     0
281
     0
  0
CLASS
  1
LONG_TRANSACTION
  2
AcDbLongTransaction
  3
AutoCAD 2000
 90
        0
280
     0
281
     0
  0
CLASS
  1
LWPOLYLINE
  2
AcDbPolyline
  3
AutoCAD 2000
 90
        0
280
     0
281
     1
  0
CLASS
  1
HATCH
  2
AcDbHatch
  3
AutoCAD 2000
 90
        0
280
     0
281
     1
  0
CLASS
  1
XRECORD
  2
AcDbXrecord
  3
AutoCAD 2000
 90
        0
280
     0
281
     0
  0
ENDSEC
  0
SECTION
  2
TABLES
  0
TABLE
  2
VPORT
  5
8
330
0
100
AcDbSymbolTable
 70
     3
  0
VPORT
  5
B096
330
8
100
AcDbSymbolTableRecord
100
AcDbViewportTableRecord
  2
*ACTIVE
 70
     0
 10
0.0
 20
0.0
 11
1.0
 21
1.0
 12
-58.74843955988449
 22
-15.44909420188668
 13
0.0
 23
0.0
 14
2.5
 24
2.5
 15
10.0
 25
10.0
 16
0.0
 26
0.0
 36
1.0
 17
0.0
 27
0.0
 37
0.0
 40
116.5804744343716
 41
1.56570841889117
 42
50.0
 43
0.0
 44
0.0
 50
0.0
 51
0.0
 71
     0
 72
   100
 73
     1
 74
     3
 75
     0
 76
     0
 77
     0
 78
     0
  0
ENDTAB
  0
TABLE
  2
LTYPE
  5
5
330
0
100
AcDbSymbolTable
 70
    10
  0
LTYPE
  5
14
330
5
100
AcDbSymbolTableRecord
100
AcDbLinetypeTableRecord
  2
BYBLOCK
 70
     0
  3

 72
    65
 73
     0
 40
0.0
  0
LTYPE
  5
15
330
5
100
AcDbSymbolTableRecord
100
AcDbLinetypeTableRecord
  2
BYLAYER
 70
     0
  3

 72
    65
 73
     0
 40
0.0
  0
LTYPE
  5
16
330
5
100
AcDbSymbolTableRecord
100
AcDbLinetypeTableRecord
  2
CONTINUOUS
 70
     0
  3
Solid line
 72
    65
 73
     0
 40
0.0
  0
LTYPE
  5
4B
330
5
100
AcDbSymbolTableRecord
100
AcDbLinetypeTableRecord
  2
AM_ISO02W050
 70
     0
  3
__ __ __ __ __ __ __ __ __ __ __ __ __ __ __
 72
    65
 73
     2
 40
7.5
 49
6.0
 74
     0
 49
-1.5
 74
     0
  0
LTYPE
  5
4C
330
5
100
AcDbSymbolTableRecord
100
AcDbLinetypeTableRecord
  2
AM_ISO08W050
 70
     0
  3
____ . ____ . ____ . ____ . ____ . ____ . ____
 72
    65
 73
     4
 40
18.0
 49
12.0
 74
     0
 49
-1.5
 74
     0
 49
3.0
 74
     0
 49
-1.5
 74
     0
  0
LTYPE
  5
4D
330
5
100
AcDbSymbolTableRecord
100
AcDbLinetypeTableRecord
  2
AM_ISO09W050
 70
     0
  3
_____ . . _____ . . _____ . . ____ .. ____
 72
    65
 73
     6
 40
22.5
 49
12.0
 74
     0
 49
-1.5
 74
     0
 49
3.0
 74
     0
 49
-1.5
 74
     0
 49
3.0
 74
     0
 49
-1.5
 74
     0
  0
LTYPE
  5
4E
330
5
100
AcDbSymbolTableRecord
100
AcDbLinetypeTableRecord
  2
AMCONSTR
 70
     0
  3
_______________________
 72
    65
 73
     2
 40
9999.0
 49
9999.0
 74
     0
 49
0.0
 74
     0
  0
LTYPE
  5
4F
330
5
100
AcDbSymbolTableRecord
100
AcDbLinetypeTableRecord
  2
AM_ISO02W050X2
 70
     0
  3
 _ _ _ _ _ _ _ _ _ _ _ _
 72
    65
 73
     2
 40
3.75
 49
3.0
 74
     0
 49
-0.75
 74
     0
  0
LTYPE
  5
50
330
5
100
AcDbSymbolTableRecord
100
AcDbLinetypeTableRecord
  2
AM_ISO08W050X2
 70
     0
  3
__ . __ . __ . __ . __ . __
 72
    65
 73
     4
 40
9.0
 49
6.0
 74
     0
 49
-0.75
 74
     0
 49
1.5
 74
     0
 49
-0.75
 74
     0
  0
LTYPE
  5
53
330
5
100
AcDbSymbolTableRecord
100
AcDbLinetypeTableRecord
  2
AMZIGZAG
 70
     0
  3
/\/-/\/-/\/-/\/-/\/-/\/
 72
    65
 73
     2
 40
11.00009999999999
 49
0.0001
 74
     4
 75
   135
340
52
 46
0.04
 50
0.0
 44
0.0
 45
0.0
 49
-11.0
 74
     0
  0
LTYPE
  5
166
330
5
100
AcDbSymbolTableRecord
100
AcDbLinetypeTableRecord
  2
ACJISTGL
 70
     0
  3
_ _ _ _ _
 72
    65
 73
     2
 40
3.0
 49
2.0
 74
     0
 49
-1.0
 74
     0
  0
LTYPE
  5
26A
330
5
100
AcDbSymbolTableRecord
100
AcDbLinetypeTableRecord
  2
ACJISTGB
 70
     0
  3
__ . . __ . .
 72
    65
 73
     6
 40
9.0
 49
4.0
 74
     0
 49
-1.0
 74
     0
 49
1.0
 74
     0
 49
-1.0
 74
     0
 49
1.0
 74
     0
 49
-1.0
 74
     0
  0
ENDTAB
  0
TABLE
  2
LAYER
  5
2
330
0
100
AcDbSymbolTable
 70
     7
  0
LAYER
  5
10
330
2
100
AcDbSymbolTableRecord
100
AcDbLayerTableRecord
  2
0
 70
     0
 62
     7
  6
CONTINUOUS
  0
LAYER
  5
3F9
330
2
100
AcDbSymbolTableRecord
100
AcDbLayerTableRecord
  2
AM_0
 70
     0
 62
     7
  6
CONTINUOUS
  0
LAYER
  5
BDD
330
2
100
AcDbSymbolTableRecord
100
AcDbLayerTableRecord
  2
AM_11
 70
     0
 62
     3
  6
AM_ISO09W050
  0
LAYER
  5
BDE
330
2
100
AcDbSymbolTableRecord
100
AcDbLayerTableRecord
  2
AM_7
 70
     0
 62
     4
  6
AM_ISO08W050
  0
LAYER
  5
BDF
330
2
100
AcDbSymbolTableRecord
100
AcDbLayerTableRecord
  2
AM_5
 70
     0
 62
     3
  6
CONTINUOUS
  0
LAYER
  5
BE0
330
2
100
AcDbSymbolTableRecord
100
AcDbLayerTableRecord
  2
DEFPOINTS
 70
     0
 62
     7
  6
CONTINUOUS
  0
LAYER
  5
14FF
330
2
100
AcDbSymbolTableRecord
100
AcDbLayerTableRecord
  2
AM_6
 70
     0
 62
     2
  6
CONTINUOUS
  0
ENDTAB
  0
TABLE
  2
STYLE
  5
3
330
0
100
AcDbSymbolTable
 70
     5
  0
STYLE
  5
11
330
3
100
AcDbSymbolTableRecord
100
AcDbTextStyleTableRecord
  2
STANDARD
 70
     0
 40
0.0
 41
1.0
 50
0.0
 71
     0
 42
2.5
  3
simplex.shx
  4
EXTFONT.SHX
  0
STYLE
  5
52
330
3
100
AcDbSymbolTableRecord
100
AcDbTextStyleTableRecord
  2

 70
     1
 40
0.0
 41
1.0
 50
0.0
 71
     0
 42
2.5
  3
ltypeshp.shx
  4

  0
STYLE
  5
6B
330
3
100
AcDbSymbolTableRecord
100
AcDbTextStyleTableRecord
  2
ASAMI
 70
     0
 40
0.0
 41
1.0
 50
0.0
 71
     0
 42
2.5
  3
simplex.shx
  4
EXTFONT.SHX
  0
STYLE
  5
262
330
3
100
AcDbSymbolTableRecord
100
AcDbTextStyleTableRecord
  2
ACJISTS
 70
     0
 40
1.0
 41
1.0
 50
0.0
 71
     0
 42
2.5
  3
simplex.shx
  4
bigfont.shx
  0
STYLE
  5
269
330
3
100
AcDbSymbolTableRecord
100
AcDbTextStyleTableRecord
  2
ACJISGDT
 70
     0
 40
0.0
 41
1.0
 50
0.0
 71
     0
 42
2.5
  3
amgdtans.shx
  4

  0
ENDTAB
  0
TABLE
  2
VIEW
  5
6
330
0
100
AcDbSymbolTable
 70
     0
  0
ENDTAB
  0
TABLE
  2
UCS
  5
7
330
0
100
AcDbSymbolTable
 70
     0
  0
ENDTAB
  0
TABLE
  2
APPID
  5
9
330
0
100
AcDbSymbolTable
 70
    13
  0
APPID
  5
12
330
9
100
AcDbSymbolTableRecord
100
AcDbRegAppTableRecord
  2
ACAD
 70
     0
  0
APPID
  5
30
330
9
100
AcDbSymbolTableRecord
100
AcDbRegAppTableRecord
  2
MCAD_NO_VIS
 70
     0
  0
APPID
  5
31
330
9
100
AcDbSymbolTableRecord
100
AcDbRegAppTableRecord
  2
ACAD_TEMP_GRAPHIC
 70
     0
  0
APPID
  5
2C2
330
9
100
AcDbSymbolTableRecord
100
AcDbRegAppTableRecord
  2
GENIUS_GENDTOL_13
 70
     0
  0
APPID
  5
339
330
9
100
AcDbSymbolTableRecord
100
AcDbRegAppTableRecord
  2
GENIUS_GENODEF_13
 70
     0
  0
APPID
  5
33A
330
9
100
AcDbSymbolTableRecord
100
AcDbRegAppTableRecord
  2
GENIUS_GENOBJ-N-RSBK_13
 70
     0
  0
APPID
  5
33B
330
9
100
AcDbSymbolTableRecord
100
AcDbRegAppTableRecord
  2
GENIUS_GENOBJ-N-LIB_13
 70
     0
  0
APPID
  5
33C
330
9
100
AcDbSymbolTableRecord
100
AcDbRegAppTableRecord
  2
GENIUS_GENSCALE_13
 70
     0
  0
APPID
  5
378
330
9
100
AcDbSymbolTableRecord
100
AcDbRegAppTableRecord
  2
GENIUS_GENDIMSH_14
 70
     0
  0
APPID
  5
BE1
330
9
100
AcDbSymbolTableRecord
100
AcDbRegAppTableRecord
  2
GENIUS_GENFIL_13
 70
     0
  0
APPID
  5
BE2
330
9
100
AcDbSymbolTableRecord
100
AcDbRegAppTableRecord
  2
GENIUS_GENOBJ-N-CHA_13
 70
     0
  0
APPID
  5
151B
330
9
100
AcDbSymbolTableRecord
100
AcDbRegAppTableRecord
  2
DCO15
 70
     0
  0
APPID
  5
1860
330
9
100
AcDbSymbolTableRecord
100
AcDbRegAppTableRecord
  2
GENIUS_GENOBJ-N-CEN_13
 70
     0
  0
ENDTAB
  0
TABLE
  2
DIMSTYLE
  5
A
330
0
100
AcDbSymbolTable
 70
     8
  0
DIMSTYLE
105
58
102
{ACAD_REACTORS
330
A215
330
A2A1
330
AB45
330
ACE7
102
}
330
A
100
AcDbSymbolTableRecord
100
AcDbDimStyleTableRecord
  2
AM_JIS
 70
     0
  3

  4
"
  5
OPEN30
  6

  7

 40
1.0
 41
2.5
 42
1.0
 43
12.0
 44
1.0
 45
0.0
 46
0.0
 47
0.1
 48
0.1
140
3.2
141
0.0
142
0.0
143
0.0393701
144
1.0
145
0.0
146
0.71
147
1.5
 71
     0
 72
     0
 73
     0
 74
     0
 75
     0
 76
     0
 77
     3
 78
     8
170
     0
171
     2
172
     1
173
     0
174
     0
175
     0
176
   256
177
   256
178
     2
270
     2
271
     3
272
     3
273
     2
274
     2
340
6B
275
     0
280
     0
281
     0
282
     0
283
     0
284
     0
285
     0
286
     0
287
     3
288
     0
  0
DIMSTYLE
105
5F
330
A
100
AcDbSymbolTableRecord
100
AcDbDimStyleTableRecord
  2
AM_JIS$3
 70
     0
  3

  4
"
  5
OPEN30
  6

  7

 40
1.0
 41
2.5
 42
1.0
 43
10.0
 44
1.0
 45
0.0
 46
0.0
 47
0.1
 48
0.1
140
3.2
141
0.0
142
0.0
143
0.0393701
144
1.0
145
0.0
146
0.71
147
1.5
 71
     0
 72
     0
 73
     0
 74
     1
 75
     0
 76
     0
 77
     3
 78
     8
170
     0
171
     2
172
     0
173
     0
174
     0
175
     0
176
   256
177
   256
178
     2
270
     2
271
     2
272
     3
273
     2
274
     2
340
6B
275
     0
280
     0
281
     0
282
     0
283
     0
284
     0
285
     0
286
     0
287
     0
288
     1
  0
DIMSTYLE
105
60
330
A
100
AcDbSymbolTableRecord
100
AcDbDimStyleTableRecord
  2
AM_JIS$4
 70
     0
  3

  4
"
  5
OPEN30
  6

  7

 40
1.0
 41
2.5
 42
1.0
 43
10.0
 44
1.0
 45
0.0
 46
0.0
 47
0.1
 48
0.1
140
3.2
141
0.0
142
0.0
143
0.0393701
144
1.0
145
0.0
146
0.71
147
1.5
 71
     0
 72
     0
 73
     0
 74
     1
 75
     0
 76
     0
 77
     3
 78
     8
170
     0
171
     2
172
     0
173
     0
174
     0
175
     0
176
   256
177
   256
178
     2
270
     2
271
     2
272
     3
273
     2
274
     2
340
6B
275
     0
280
     0
281
     0
282
     0
283
     0
284
     0
285
     0
286
     0
287
     0
288
     1
  0
DIMSTYLE
105
61
330
A
100
AcDbSymbolTableRecord
100
AcDbDimStyleTableRecord
  2
AM_JIS$6
 70
     0
  3

  4
"
  5
OPEN30
  6

  7

 40
1.0
 41
2.5
 42
1.0
 43
10.0
 44
1.0
 45
0.0
 46
0.0
 47
0.1
 48
0.1
140
3.2
141
0.0
142
0.0
143
0.0393701
144
1.0
145
0.0
146
0.71
147
1.5
 71
     0
 72
     0
 73
     0
 74
     0
 75
     0
 76
     0
 77
     0
 78
     8
170
     0
171
     2
172
     1
173
     0
174
     0
175
     0
176
   256
177
   256
178
     2
270
     2
271
     2
272
     2
273
     2
274
     2
340
6B
275
     0
280
     0
281
     0
282
     0
283
     0
284
     0
285
     0
286
     0
287
     3
288
     0
  0
DIMSTYLE
105
62
330
A
100
AcDbSymbolTableRecord
100
AcDbDimStyleTableRecord
  2
AM_JIS$7
 70
     0
  3

  4
"
  5
OPEN30
  6

  7

 40
1.0
 41
2.5
 42
1.0
 43
10.0
 44
1.0
 45
0.0
 46
0.0
 47
0.1
 48
0.1
140
3.2
141
0.0
142
0.0
143
0.0393701
144
1.0
145
0.0
146
0.71
147
1.5
 71
     0
 72
     0
 73
     0
 74
     0
 75
     0
 76
     0
 77
     3
 78
     8
170
     0
171
     2
172
     1
173
     0
174
     0
175
     0
176
   256
177
   256
178
     2
270
     2
271
     2
272
     3
273
     2
274
     2
340
6B
275
     0
280
     0
281
     0
282
     0
283
     0
284
     0
285
     0
286
     0
287
     3
288
     0
  0
DIMSTYLE
105
63
330
A
100
AcDbSymbolTableRecord
100
AcDbDimStyleTableRecord
  2
AM_JIS$SF
 70
     0
  3

  4
"
  5
OPEN30
  6

  7

 40
1.0
 41
2.5
 42
1.0
 43
10.0
 44
1.0
 45
0.0
 46
0.0
 47
0.1
 48
0.1
140
3.2
141
0.0
142
0.0
143
0.0393701
144
1.0
145
0.0
146
0.71
147
1.5
 71
     0
 72
     0
 73
     0
 74
     0
 75
     1
 76
     1
 77
     3
 78
     8
170
     0
171
     2
172
     1
173
     0
174
     0
175
     0
176
   256
177
   256
178
     2
270
     2
271
     2
272
     2
273
     2
274
     2
340
6B
275
     0
280
     0
281
     0
282
     0
283
     0
284
     0
285
     0
286
     0
287
     3
288
     0
  0
DIMSTYLE
105
68
330
A
100
AcDbSymbolTableRecord
100
AcDbDimStyleTableRecord
  2
AM_JIS$SH
 70
     0
  3

  4
"
  5

  6
GENAXEH
  7
OPEN30
 40
1.0
 41
2.5
 42
1.0
 43
10.0
 44
1.0
 45
0.0
 46
0.0
 47
0.1
 48
0.1
140
3.2
141
0.0
142
0.0
143
0.0393701
144
2.0
145
0.0
146
0.71
147
1.5
 71
     0
 72
     0
 73
     0
 74
     0
 75
     1
 76
     1
 77
     3
 78
     8
170
     0
171
     2
172
     1
173
     1
174
     0
175
     0
176
   256
177
   256
178
     2
270
     2
271
     2
272
     2
273
     2
274
     2
340
6B
275
     0
280
     0
281
     0
282
     0
283
     0
284
     0
285
     0
286
     0
287
     3
288
     0
  0
DIMSTYLE
105
B34
330
A
100
AcDbSymbolTableRecord
100
AcDbDimStyleTableRecord
  2
AM_JIS$2
 70
     0
  3

  4
"
  5
OPEN30
  6

  7

 40
1.0
 41
2.5
 42
1.0
 43
12.0
 44
1.0
 45
0.0
 46
0.0
 47
0.1
 48
0.1
140
3.2
141
0.0
142
0.0
143
0.0393701
144
1.0
145
0.0
146
0.71
147
1.5
 71
     0
 72
     0
 73
     0
 74
     0
 75
     0
 76
     0
 77
     3
 78
     8
170
     0
171
     2
172
     1
173
     0
174
     0
175
     0
176
   256
177
   256
178
     2
270
     2
271
     3
272
     3
273
     2
274
     2
340
6B
275
     0
280
     0
281
     0
282
     0
283
     0
284
     0
285
     0
286
     0
287
     3
288
     0
  0
ENDTAB
  0
TABLE
  2
BLOCK_RECORD
  5
1
330
0
100
AcDbSymbolTable
 70
     9
  0
BLOCK_RECORD
  5
1F
102
{ACAD_XDICTIONARY
360
74
102
}
330
1
100
AcDbSymbolTableRecord
100
AcDbBlockTableRecord
  2
*MODEL_SPACE
  0
BLOCK_RECORD
  5
101
102
{ACAD_XDICTIONARY
360
B0BF
102
}
330
1
100
AcDbSymbolTableRecord
100
AcDbBlockTableRecord
  2
*PAPER_SPACE
  0
BLOCK_RECORD
  5
59
330
1
100
AcDbSymbolTableRecord
100
AcDbBlockTableRecord
  2
_OPEN30
  0
BLOCK_RECORD
  5
64
330
1
100
AcDbSymbolTableRecord
100
AcDbBlockTableRecord
  2
GENAXEH
  0
BLOCK_RECORD
  5
A216
330
1
100
AcDbSymbolTableRecord
100
AcDbBlockTableRecord
  2
*D5
  0
BLOCK_RECORD
  5
A2A2
330
1
100
AcDbSymbolTableRecord
100
AcDbBlockTableRecord
  2
*D6
  0
BLOCK_RECORD
  5
AB46
330
1
100
AcDbSymbolTableRecord
100
AcDbBlockTableRecord
  2
*D7
  0
BLOCK_RECORD
  5
ACE8
330
1
100
AcDbSymbolTableRecord
100
AcDbBlockTableRecord
  2
*D8
  0
ENDTAB
  0
ENDSEC
  0
SECTION
  2
BLOCKS
  0
BLOCK
  5
20
330
1F
100
AcDbEntity
  8
0
100
AcDbBlockBegin
  2
*MODEL_SPACE
 70
     0
 10
0.0
 20
0.0
 30
0.0
  3
*MODEL_SPACE
  1

  0
ENDBLK
  5
21
330
1F
100
AcDbEntity
  8
0
100
AcDbBlockEnd
  0
BLOCK
  5
103
330
101
100
AcDbEntity
 67
     1
  8
0
100
AcDbBlockBegin
  2
*PAPER_SPACE
 70
     0
 10
0.0
 20
0.0
 30
0.0
  3
*PAPER_SPACE
  1

  0
ENDBLK
  5
104
330
101
100
AcDbEntity
 67
     1
  8
0
100
AcDbBlockEnd
  0
BLOCK
  5
5D
330
59
100
AcDbEntity
  8
0
100
AcDbBlockBegin
  2
_OPEN30
 70
     0
 10
0.0
 20
0.0
 30
0.0
  3
_OPEN30
  1

  0
LINE
  5
5A
330
59
100
AcDbEntity
  8
0
 62
     0
100
AcDbLine
 10
-1.0
 20
0.26794919
 30
0.0
 11
0.0
 21
0.0
 31
0.0
  0
LINE
  5
5B
330
59
100
AcDbEntity
  8
0
 62
     0
100
AcDbLine
 10
0.0
 20
0.0
 30
0.0
 11
-1.0
 21
-0.26794919
 31
0.0
  0
LINE
  5
5C
330
59
100
AcDbEntity
  8
0
 62
     0
100
AcDbLine
 10
0.0
 20
0.0
 30
0.0
 11
-1.0
 21
0.0
 31
0.0
  0
ENDBLK
  5
5E
330
59
100
AcDbEntity
  8
0
100
AcDbBlockEnd
  0
BLOCK
  5
66
330
64
100
AcDbEntity
  8
0
100
AcDbBlockBegin
  2
GENAXEH
 70
     0
 10
0.0
 20
0.0
 30
0.0
  3
GENAXEH
  1

  0
LINE
  5
65
330
64
100
AcDbEntity
  8
0
100
AcDbLine
 10
-1.0
 20
0.0
 30
0.0
 11
1.0
 21
0.0
 31
0.0
  0
ENDBLK
  5
67
330
64
100
AcDbEntity
  8
0
100
AcDbBlockEnd
  0
BLOCK
  5
A220
330
A216
100
AcDbEntity
  8
0
100
AcDbBlockBegin
  2
*D5
 70
     1
 10
0.0
 20
0.0
 30
0.0
  3
*D5
  1

  0
LINE
  5
AD91
330
A216
100
AcDbEntity
  8
AM_5
100
AcDbLine
 10
-0.0000000000015633
 20
-13.5
 30
0.0
 11
-0.0000000000015648
 21
-39.50000100000016
 31
0.0
  0
LINE
  5
AD92
330
A216
100
AcDbEntity
  8
AM_5
100
AcDbLine
 10
-120.0
 20
-12.5000000000001
 30
0.0
 11
-120.0
 21
-39.50000100000016
 31
0.0
  0
LINE
  5
AD93
330
A216
100
AcDbEntity
  8
AM_5
100
AcDbLine
 10
-2.500000000001564
 20
-38.50000100000016
 30
0.0
 11
-117.5
 21
-38.50000100000016
 31
0.0
  0
INSERT
  5
AD94
330
A216
100
AcDbEntity
  8
AM_5
100
AcDbBlockReference
  2
_OPEN30
 10
-0.0000000000015648
 20
-38.50000100000016
 30
0.0
 41
2.5
 42
2.5
 43
2.5
  0
INSERT
  5
AD95
330
A216
100
AcDbEntity
  8
AM_5
100
AcDbBlockReference
  2
_OPEN30
 10
-120.0
 20
-38.50000100000016
 30
0.0
 41
2.5
 42
2.5
 43
2.5
 50
180.0
  0
MTEXT
  5
AD96
330
A216
100
AcDbEntity
  8
AM_5
 62
     2
100
AcDbMText
 10
-60.00000000000078
 20
-35.40000100000016
 30
0.0
 40
3.2
 41
0.0
 71
     5
 72
     1
  1
120
  7
ASAMI
1001
ACAD
1000
MTEXTBEGIN
1070
    73
1070
     1
1070
    44
1040
1.0
1070
    74
1070
     0
1000
MTEXTEND
  0
POINT
  5
AD97
330
A216
100
AcDbEntity
  8
DEFPOINTS
 62
     0
100
AcDbPoint
 10
-0.0000000000015632
 20
-12.5
 30
0.0
  0
POINT
  5
AD98
330
A216
100
AcDbEntity
  8
DEFPOINTS
 62
     0
100
AcDbPoint
 10
-120.0
 20
-11.5000000000001
 30
0.0
  0
POINT
  5
AD99
330
A216
100
AcDbEntity
  8
DEFPOINTS
 62
     0
100
AcDbPoint
 10
-120.0
 20
-38.50000100000016
 30
0.0
  0
ENDBLK
  5
A221
330
A216
100
AcDbEntity
  8
0
100
AcDbBlockEnd
  0
BLOCK
  5
A2AC
330
A2A2
100
AcDbEntity
  8
0
100
AcDbBlockBegin
  2
*D6
 70
     1
 10
0.0
 20
0.0
 30
0.0
  3
*D6
  1

  0
LINE
  5
AFB4
330
A2A2
100
AcDbEntity
  8
AM_5
100
AcDbLine
 10
-0.0000000000015633
 20
-13.5
 30
0.0
 11
-0.0000000000015641
 21
-27.50000099999989
 31
0.0
  0
LINE
  5
AFB5
330
A2A2
100
AcDbEntity
  8
AM_5
100
AcDbLine
 10
-50.00000000000224
 20
-13.50000000000005
 30
0.0
 11
-50.00000000000224
 21
-27.50000099999989
 31
0.0
  0
LINE
  5
AFB6
330
A2A2
100
AcDbEntity
  8
AM_5
100
AcDbLine
 10
-2.500000000001564
 20
-26.50000099999989
 30
0.0
 11
-47.50000000000224
 21
-26.50000099999989
 31
0.0
  0
INSERT
  5
AFB7
330
A2A2
100
AcDbEntity
  8
AM_5
100
AcDbBlockReference
  2
_OPEN30
 10
-0.0000000000015641
 20
-26.50000099999989
 30
0.0
 41
2.5
 42
2.5
 43
2.5
  0
INSERT
  5
AFB8
330
A2A2
100
AcDbEntity
  8
AM_5
100
AcDbBlockReference
  2
_OPEN30
 10
-50.00000000000224
 20
-26.50000099999989
 30
0.0
 41
2.5
 42
2.5
 43
2.5
 50
180.0
  0
MTEXT
  5
AFB9
330
A2A2
100
AcDbEntity
  8
AM_5
 62
     2
100
AcDbMText
 10
-25.0000000000019
 20
-23.40000099999989
 30
0.0
 40
3.2
 41
0.0
 71
     5
 72
     1
  1
50
  7
ASAMI
1001
ACAD
1000
MTEXTBEGIN
1070
    73
1070
     1
1070
    44
1040
1.0
1070
    74
1070
     0
1000
MTEXTEND
  0
POINT
  5
AFBA
330
A2A2
100
AcDbEntity
  8
DEFPOINTS
 62
     0
100
AcDbPoint
 10
-0.0000000000015632
 20
-12.5
 30
0.0
  0
POINT
  5
AFBB
330
A2A2
100
AcDbEntity
  8
DEFPOINTS
 62
     0
100
AcDbPoint
 10
-50.00000000000224
 20
-12.50000000000005
 30
0.0
  0
POINT
  5
AFBC
330
A2A2
100
AcDbEntity
  8
DEFPOINTS
 62
     0
100
AcDbPoint
 10
-50.00000000000224
 20
-26.50000099999989
 30
0.0
  0
ENDBLK
  5
A2AD
330
A2A2
100
AcDbEntity
  8
0
100
AcDbBlockEnd
  0
BLOCK
  5
AB50
330
AB46
100
AcDbEntity
  8
0
100
AcDbBlockBegin
  2
*D7
 70
     1
 10
0.0
 20
0.0
 30
0.0
  3
*D7
  1

  0
LINE
  5
AFCA
330
AB46
100
AcDbEntity
  8
AM_5
100
AcDbLine
 10
0.9999999999999918
 20
12.5
 30
0.0
 11
19.55776903085516
 21
12.49999999999999
 31
0.0
  0
LINE
  5
AFCB
330
AB46
100
AcDbEntity
  8
AM_5
100
AcDbLine
 10
1.000000000000009
 20
-12.5
 30
0.0
 11
19.55776903085515
 21
-12.5
 31
0.0
  0
LINE
  5
AFCC
330
AB46
100
AcDbEntity
  8
AM_5
100
AcDbLine
 10
18.55776903085516
 20
9.999999999999994
 30
0.0
 11
18.55776903085516
 21
-10.0
 31
0.0
  0
INSERT
  5
AFCD
330
AB46
100
AcDbEntity
  8
AM_5
100
AcDbBlockReference
  2
_OPEN30
 10
18.55776903085516
 20
12.49999999999999
 30
0.0
 41
2.5
 42
2.5
 43
2.5
 50
90.0
  0
INSERT
  5
AFCE
330
AB46
100
AcDbEntity
  8
AM_5
100
AcDbBlockReference
  2
_OPEN30
 10
18.55776903085516
 20
-12.5
 30
0.0
 41
2.5
 42
2.5
 43
2.5
 50
270.0
  0
MTEXT
  5
AFCF
330
AB46
100
AcDbEntity
  8
AM_5
 62
     2
100
AcDbMText
 10
15.45776903085516
 20
-0.0000000000000025
 30
0.0
 40
3.2
 41
0.0
 71
     5
 72
     1
  1
%%c25
  7
ASAMI
 11
0.0000000000000001
 21
1.0
 31
0.0
1001
ACAD
1000
MTEXTBEGIN
1070
    73
1070
     1
1070
    44
1040
1.0
1070
    74
1070
     0
1000
MTEXTEND
  0
POINT
  5
AFD0
330
AB46
100
AcDbEntity
  8
DEFPOINTS
 62
     0
100
AcDbPoint
 10
-0.0000000000000081
 20
12.5
 30
0.0
  0
POINT
  5
AFD1
330
AB46
100
AcDbEntity
  8
DEFPOINTS
 62
     0
100
AcDbPoint
 10
0.0000000000000095
 20
-12.5
 30
0.0
  0
POINT
  5
AFD2
330
AB46
100
AcDbEntity
  8
DEFPOINTS
 62
     0
100
AcDbPoint
 10
18.55776903085516
 20
-12.5
 30
0.0
  0
ENDBLK
  5
AB51
330
AB46
100
AcDbEntity
  8
0
100
AcDbBlockEnd
  0
BLOCK
  5
ACF2
330
ACE8
100
AcDbEntity
  8
0
100
AcDbBlockBegin
  2
*D8
 70
     1
 10
0.0
 20
0.0
 30
0.0
  3
*D8
  1

  0
LINE
  5
AD62
330
ACE8
100
AcDbEntity
  8
AM_5
100
AcDbLine
 10
-120.0
 20
12.49999999999987
 30
0.0
 11
-138.3109970012145
 21
12.49999999999987
 31
0.0
  0
LINE
  5
AD63
330
ACE8
100
AcDbEntity
  8
AM_5
100
AcDbLine
 10
-120.0
 20
-12.50000000000011
 30
0.0
 11
-138.3109970012145
 21
-12.5000000000001
 31
0.0
  0
LINE
  5
AD64
330
ACE8
100
AcDbEntity
  8
AM_5
100
AcDbLine
 10
-137.3109970012145
 20
9.999999999999877
 30
0.0
 11
-137.3109970012145
 21
-10.0000000000001
 31
0.0
  0
INSERT
  5
AD65
330
ACE8
100
AcDbEntity
  8
AM_5
100
AcDbBlockReference
  2
_OPEN30
 10
-137.3109970012145
 20
12.49999999999987
 30
0.0
 41
2.5
 42
2.5
 43
2.5
 50
90.0
  0
INSERT
  5
AD66
330
ACE8
100
AcDbEntity
  8
AM_5
100
AcDbBlockReference
  2
_OPEN30
 10
-137.3109970012145
 20
-12.5000000000001
 30
0.0
 41
2.5
 42
2.5
 43
2.5
 50
270.0
  0
MTEXT
  5
AD67
330
ACE8
100
AcDbEntity
  8
AM_5
 62
     2
100
AcDbMText
 10
-140.4109970012145
 20
-0.0000000000001351
 30
0.0
 40
3.2
 41
0.0
 71
     5
 72
     1
  1
%%c25
  7
ASAMI
 11
0.0000000000000001
 21
1.0
 31
0.0
1001
ACAD
1000
MTEXTBEGIN
1070
    73
1070
     1
1070
    44
1040
1.0
1070
    74
1070
     0
1000
MTEXTEND
  0
POINT
  5
AD68
330
ACE8
100
AcDbEntity
  8
DEFPOINTS
 62
     0
100
AcDbPoint
 10
-119.0
 20
12.49999999999987
 30
0.0
  0
POINT
  5
AD69
330
ACE8
100
AcDbEntity
  8
DEFPOINTS
 62
     0
100
AcDbPoint
 10
-119.0
 20
-12.50000000000011
 30
0.0
  0
POINT
  5
AD6A
330
ACE8
100
AcDbEntity
  8
DEFPOINTS
 62
     0
100
AcDbPoint
 10
-137.3109970012145
 20
-12.5000000000001
 30
0.0
  0
ENDBLK
  5
ACF3
330
ACE8
100
AcDbEntity
  8
0
100
AcDbBlockEnd
  0
ENDSEC
  0
SECTION
  2
ENTITIES
  0
TEXT
  5
1500
330
1F
100
AcDbEntity
  8
AM_6
100
AcDbText
 10
-81.4285714285722
 20
-61.00000100000016
 30
0.0
 40
5.0
  1
USM4250ZX
 72
     4
 11
-60.00000000000077
 21
-58.50000100000016
 31
0.0
100
AcDbText
  0
LINE
  5
9FF0
330
1F
100
AcDbEntity
  8
AM_7
  6
AM_ISO08W050X2
100
AcDbLine
 10
4.557768030855186
 20
0.0
 30
0.0
 11
-123.3109960012146
 21
-0.0000000000001084
 31
0.0
1001
GENIUS_GENODEF_13
1002
{
1000
HIER
1070
     0
1002
}
1002
{
1000
MANEDIT
1070
     0
1002
}
1002
{
1000
NOSEL
1070
     0
1002
}
1002
{
1000
BEHIND
1070
     0
1002
}
1002
{
1000
REACTOR
1002
}
1001
GENIUS_GENOBJ-N-CEN_13
1002
{
1000
OWNER
1000
GEN
1002
}
  0
DIMENSION
  5
A215
330
1F
100
AcDbEntity
  8
AM_5
100
AcDbDimension
  2
*D5
 10
-120.0
 20
-38.50000100000016
 30
0.0
 11
-60.00000000000078
 21
-35.40000100000016
 31
0.0
 70
    32
  1
<>
  3
AM_JIS
100
AcDbAlignedDimension
 13
-0.0000000000015632
 23
-12.5
 33
0.0
 14
-120.0
 24
-11.5000000000001
 34
0.0
 50
0.0000000000001641
100
AcDbRotatedDimension
1001
GENIUS_GENDTOL_13
1000

1000
h7
1000

1040
0.0
  0
DIMENSION
  5
A2A1
330
1F
100
AcDbEntity
  8
AM_5
100
AcDbDimension
  2
*D6
 10
-50.00000000000224
 20
-26.50000099999989
 30
0.0
 11
-25.0000000000019
 21
-23.40000099999989
 31
0.0
 70
    32
  1
<>
  3
AM_JIS
100
AcDbAlignedDimension
 13
-0.0000000000015632
 23
-12.5
 33
0.0
 14
-50.00000000000224
 24
-12.50000000000005
 34
0.0
 50
0.0000000000001641
100
AcDbRotatedDimension
1001
GENIUS_GENDTOL_13
1000

1000
h7
1000

1040
0.0
  0
DIMENSION
  5
AB45
330
1F
100
AcDbEntity
  8
AM_5
100
AcDbDimension
  2
*D7
 10
18.55776903085516
 20
-12.5
 30
0.0
 11
15.45776903085516
 21
-0.0000000000000025
 31
0.0
 70
    32
  1
%%c<>
  3
AM_JIS
100
AcDbAlignedDimension
 13
-0.0000000000000081
 23
12.5
 33
0.0
 14
0.0000000000000095
 24
-12.5
 34
0.0
 50
90.00000000000003
100
AcDbRotatedDimension
1001
GENIUS_GENDTOL_13
1000

1000
h7
1000

1040
0.0
  0
LINE
  5
AC34
330
1F
100
AcDbEntity
  8
AM_0
100
AcDbLine
 10
-0.2585201420713485
 20
-3.317244636407977
 30
0.0
 11
-0.1570715100192605
 21
-2.996540997026496
 31
0.0
  0
LINE
  5
AC35
330
1F
100
AcDbEntity
  8
AM_0
100
AcDbLine
 10
-0.1570715100192605
 20
-2.996540997026496
 30
0.0
 11
-0.1570715100192605
 21
0.0
 31
0.0
  0
LINE
  5
AC36
330
1F
100
AcDbEntity
  8
AM_0
100
AcDbLine
 10
0.0
 20
0.0
 30
0.0
 11
-0.2585201420713563
 21
2.500000000000552
 31
0.0
  0
LINE
  5
AC37
330
1F
100
AcDbEntity
  8
AM_0
100
AcDbLine
 10
-0.2585201420713563
 20
2.500000000000552
 30
0.0
 11
-2.628347688246289
 21
6.667852035026257
 31
0.0
  0
LINE
  5
AC38
330
1F
100
AcDbEntity
  8
AM_0
100
AcDbLine
 10
0.0
 20
0.0
 30
0.0
 11
-0.0000000000000077
 21
12.5
 31
0.0
  0
LINE
  5
AC39
330
1F
100
AcDbEntity
  8
AM_0
100
AcDbLine
 10
-6.934787172364426
 20
-0.0000000000000161
 30
0.0
 11
-6.934787172364426
 21
-2.500000000000015
 31
0.0
  0
LINE
  5
AC3A
330
1F
100
AcDbEntity
  8
AM_0
100
AcDbLine
 10
0.0
 20
0.0
 30
0.0
 11
-6.934787172364426
 21
-0.0000000000000161
 31
0.0
  0
LINE
  5
AC3B
330
1F
100
AcDbEntity
  8
AM_0
100
AcDbLine
 10
-2.628347688246289
 20
6.667852035026257
 30
0.0
 11
-6.816760764079378
 21
7.807411207144793
 31
0.0
  0
LINE
  5
AC3C
330
1F
100
AcDbEntity
  8
AM_0
100
AcDbLine
 10
0.0000000000000077
 20
-12.5
 30
0.0
 11
-0.2585201420713408
 21
-11.83360289405472
 31
0.0
  0
LINE
  5
AC3D
330
1F
100
AcDbEntity
  8
AM_0
100
AcDbLine
 10
-0.2585201420713408
 20
-11.83360289405415
 30
0.0
 11
-1.686536164942356
 21
-9.994041638654509
 31
0.0
  0
LINE
  5
AC3E
330
1F
100
AcDbEntity
  8
AM_0
100
AcDbLine
 10
-2.523191531537178
 20
-5.290790939584454
 30
0.0
 11
-0.2585201420713485
 21
-3.317244636407977
 31
0.0
  0
LINE
  5
AC3F
330
1F
100
AcDbEntity
  8
AM_0
100
AcDbLine
 10
-2.523191531537178
 20
-5.290790939584454
 30
0.0
 11
-6.934787172364426
 21
-2.500000000000015
 31
0.0
  0
LINE
  5
AC40
330
1F
100
AcDbEntity
  8
AM_0
100
AcDbLine
 10
-0.2585201420713408
 20
-11.83360289405472
 30
0.0
 11
-0.2585201420713485
 21
-3.317244636407977
 31
0.0
  0
LINE
  5
AC41
330
1F
100
AcDbEntity
  8
AM_0
100
AcDbLine
 10
0.0000000000000077
 20
-12.5
 30
0.0
 11
0.0
 21
0.0
 31
0.0
  0
LINE
  5
AC42
330
1F
100
AcDbEntity
  8
AM_0
100
AcDbLine
 10
-50.00000000000211
 20
-8.818696952746874
 30
0.0
 11
-50.00000000000211
 21
-6.598936809972224
 31
0.0
  0
POLYLINE
  5
AC43
330
1F
100
AcDbEntity
  8
AM_0
100
AcDb2dPolyline
 66
     1
 10
0.0
 20
0.0
 30
0.0
 70
     2
  0
VERTEX
  5
AC44
330
AC43
100
AcDbEntity
  8
AM_0
100
AcDbVertex
100
AcDb2dVertex
 10
-54.16612500541662
 20
-7.004191091359171
 30
0.0
 42
0.0520389030992593
  0
VERTEX
  5
AC45
330
AC43
100
AcDbEntity
  8
AM_0
100
AcDbVertex
100
AcDb2dVertex
 10
-54.92941219354184
 20
-6.720537443356487
 30
0.0
 42
0.0620736703120521
 70
     1
  0
VERTEX
  5
AC46
330
AC43
100
AcDbEntity
  8
AM_0
100
AcDbVertex
100
AcDb2dVertex
 10
-55.60645151124246
 20
-6.635639113106282
 30
0.0
 42
0.0596620020802711
  0
VERTEX
  5
AC47
330
AC43
100
AcDbEntity
  8
AM_0
100
AcDbVertex
100
AcDb2dVertex
 10
-56.89493835410015
 20
-6.793791155996453
 30
0.0
 42
0.1107428676984588
 70
     1
  0
VERTEX
  5
AC48
330
AC43
100
AcDbEntity
  8
AM_0
100
AcDbVertex
100
AcDb2dVertex
 10
-57.5268868523436
 20
-7.111763258139301
 30
0.0
 42
0.0919321010959952
  0
VERTEX
  5
AC49
330
AC43
100
AcDbEntity
  8
AM_0
100
AcDbVertex
100
AcDb2dVertex
 10
-57.90059883431802
 20
-7.556118607322622
 30
0.0
 42
0.1306625885944883
 70
     1
  0
VERTEX
  5
AC4A
330
AC43
100
AcDbEntity
  8
AM_0
100
AcDbVertex
100
AcDb2dVertex
 10
-58.00699568761888
 20
-7.956439381425209
 30
0.0
 42
0.1055421366890948
  0
VERTEX
  5
AC4B
330
AC43
100
AcDbEntity
  8
AM_0
100
AcDbVertex
100
AcDb2dVertex
 10
-57.9137594082031
 20
-8.408210446566277
 30
0.0
 42
0.064249691717919
 70
     1
  0
VERTEX
  5
AC4C
330
AC43
100
AcDbEntity
  8
AM_0
100
AcDbVertex
100
AcDb2dVertex
 10
-57.52919459601571
 20
-9.052028064356596
 30
0.0
 42
0.0621419645227973
  0
VERTEX
  5
AC4D
330
AC43
100
AcDbEntity
  8
AM_0
100
AcDbVertex
100
AcDb2dVertex
 10
-56.8186411300234
 20
-9.756063310482792
 30
0.0
 42
0.0430349623912406
 70
     1
  0
VERTEX
  5
AC4E
330
AC43
100
AcDbEntity
  8
AM_0
100
AcDbVertex
100
AcDb2dVertex
 10
-55.60875925491457
 20
-10.53143944366333
 30
0.0
 42
0.0552392510866287
  0
VERTEX
  5
AC4F
330
AC43
100
AcDbEntity
  8
AM_0
100
AcDbVertex
100
AcDb2dVertex
 10
-55.04377347976331
 20
-10.75172786868569
 30
0.0
 42
0.0374044438261813
 70
     1
  0
VERTEX
  5
AC50
330
AC43
100
AcDbEntity
  8
AM_0
100
AcDbVertex
100
AcDb2dVertex
 10
-54.16612500541662
 20
-10.91526214003869
 30
0.0
  0
SEQEND
  5
AC51
330
AC43
100
AcDbEntity
  8
AM_0
  0
LINE
  5
AC54
330
1F
100
AcDbEntity
  8
AM_11
100
AcDbLine
 10
-50.00000000000225
 20
-12.50000000000003
 30
0.0
 11
0.0000000000000077
 21
-12.5
 31
0.0
  0
LINE
  5
AC55
330
1F
100
AcDbEntity
  8
AM_11
100
AcDbLine
 10
-0.0000000000022477
 20
12.5
 30
0.0
 11
-50.00000000000225
 21
12.49999999999997
 31
0.0
  0
SPLINE
  5
AC56
330
1F
100
AcDbEntity
  8
AM_0
100
AcDbSpline
210
0.0
220
0.0
230
1.0
 70
     8
 71
     3
 72
     8
 73
     4
 74
     0
 42
0.0000000001
 43
0.0000000001
 40
0.3581103616548037
 40
0.3581103616548037
 40
0.3581103616548037
 40
0.3581103616548037
 40
14.43901837670146
 40
14.43901837670146
 40
14.43901837670146
 40
14.43901837670146
 10
-62.29908914571608
 20
12.49999999999992
 30
0.0
 10
-50.2849099812141
 20
11.82497252013314
 30
0.0
 10
-39.73598006237047
 20
5.912486260066852
 30
0.0
 10
-29.18705014352795
 20
-0.0000000000000323
 30
0.0
  0
SPLINE
  5
AC57
330
1F
100
AcDbEntity
  8
AM_0
100
AcDbSpline
210
0.0
220
0.0
230
1.0
 70
     8
 71
     3
 72
     8
 73
     4
 74
     0
 42
0.0000000001
 43
0.0000000001
 40
0.0
 40
0.0
 40
0.0
 40
0.0
 40
14.4899965493443
 40
14.4899965493443
 40
14.4899965493443
 40
14.4899965493443
 10
-33.484513639713
 20
12.50000000000053
 30
0.0
 10
-21.5925899363821
 20
12.50000000000054
 30
0.0
 10
-10.79629496819105
 20
6.250000000000557
 30
0.0
 10
0.0
 20
0.0000000000005692
 30
0.0
  0
SPLINE
  5
AC58
330
1F
100
AcDbEntity
  8
AM_0
100
AcDbSpline
210
0.0
220
0.0
230
1.0
 70
     8
 71
     3
 72
     8
 73
     4
 74
     0
 42
0.0000000001
 43
0.0000000001
 40
0.3581103616548037
 40
0.3581103616548037
 40
0.3581103616548037
 40
0.3581103616548037
 40
12.40023413887867
 40
12.40023413887867
 40
12.40023413887867
 40
12.40023413887867
 10
-28.30723810019266
 20
12.11461355713194
 30
0.0
 10
-18.46647977729126
 20
11.86690984265736
 30
0.0
 10
-9.326321872378834
 20
7.50675282121277
 30
0.0
 10
-0.2876043779617873
 20
2.551150891522394
 30
0.0
  0
SPLINE
  5
AC59
330
1F
100
AcDbEntity
  8
AM_0
100
AcDbSpline
210
0.0
220
0.0
230
1.0
 70
     8
 71
     3
 72
     8
 73
     4
 74
     0
 42
0.0000000001
 43
0.0000000001
 40
0.0
 40
0.0
 40
0.0
 40
0.0
 40
3.891555268760223
 40
3.891555268760223
 40
3.891555268760223
 40
3.891555268760223
 10
-0.5073974508660596
 20
12.49621540375015
 30
0.0
 10
0.4008913507498484
 20
9.387160540306929
 30
0.0
 10
-6.081314808739176
 20
8.975818619560399
 30
0.0
 10
-9.359290099228937
 20
8.75892753171284
 30
0.0
  0
SPLINE
  5
AC5A
330
1F
100
AcDbEntity
  8
AM_0
100
AcDbSpline
210
0.0
220
0.0
230
1.0
 70
     8
 71
     3
 72
     8
 73
     4
 74
     0
 42
0.0000000001
 43
0.0000000001
 40
1.870660592686466
 40
1.870660592686466
 40
1.870660592686466
 40
1.870660592686466
 40
14.43901837670146
 40
14.43901837670146
 40
14.43901837670146
 40
14.43901837670146
 10
-0.2585201420713408
 20
-11.83360289405415
 30
0.0
 10
-10.35549108258499
 20
-10.55475153025385
 30
0.0
 10
-19.77127061305647
 20
-5.277375765126651
 30
0.0
 10
-29.18705014352795
 20
-0.0000000000000323
 30
0.0
  0
SPLINE
  5
AC5B
330
1F
100
AcDbEntity
  8
AM_0
100
AcDbSpline
210
0.0
220
0.0
230
1.0
 70
     8
 71
     3
 72
     8
 73
     4
 74
     0
 42
0.0000000001
 43
0.0000000001
 40
0.0
 40
0.0
 40
0.0
 40
0.0
 40
14.4899965493443
 40
14.4899965493443
 40
14.4899965493443
 40
14.4899965493443
 10
0.0000000000000077
 20
-12.5
 30
0.0
 10
-11.89192370333088
 20
-12.5
 30
0.0
 10
-22.68821867152194
 20
-6.250000000000019
 30
0.0
 10
-33.48451363971298
 20
-0.0000000000000323
 30
0.0
  0
SPLINE
  5
AC5C
330
1F
100
AcDbEntity
  8
AM_0
100
AcDbSpline
210
0.0
220
0.0
230
1.0
 70
     8
 71
     3
 72
     8
 73
     4
 74
     0
 42
0.0000000001
 43
0.0000000001
 40
4.542668862435135
 40
4.542668862435135
 40
4.542668862435135
 40
4.542668862435135
 40
14.36247867694493
 40
14.36247867694493
 40
14.36247867694493
 40
14.36247867694493
 10
-1.686536164939
 20
-9.994041638641437
 30
0.0
 10
-9.40387904437752
 20
-7.892514216432022
 30
0.0
 10
-16.82122014257631
 20
-3.946257108215732
 30
0.0
 10
-24.2385612407751
 20
-0.0000000000000323
 30
0.0
  0
SPLINE
  5
AC5D
330
1F
100
AcDbEntity
  8
AM_0
100
AcDbSpline
210
0.0
220
0.0
230
1.0
 70
     8
 71
     3
 72
     8
 73
     4
 74
     0
 42
0.0000000001
 43
0.0000000001
 40
0.7142832446738512
 40
0.7142832446738512
 40
0.7142832446738512
 40
0.7142832446738512
 40
9.361146747480315
 40
9.361146747480315
 40
9.361146747480315
 40
9.361146747480315
 10
-22.486776200823
 20
11.50149447456099
 30
0.0
 10
-15.44511608681753
 20
11.16445859742894
 30
0.0
 10
-8.726756968950788
 20
8.839424706999338
 30
0.0
 10
-2.126870333606001
 20
5.7858961237025
 30
0.0
  0
SPLINE
  5
AC5E
330
1F
100
AcDbEntity
  8
AM_0
100
AcDbSpline
210
0.0
220
0.0
230
1.0
 70
     8
 71
     3
 72
     8
 73
     4
 74
     0
 42
0.0000000001
 43
0.0000000001
 40
0.0
 40
0.0
 40
0.0
 40
0.0
 40
5.635889483499127
 40
5.635889483499127
 40
5.635889483499127
 40
5.635889483499127
 10
-0.0000000000000077
 20
12.5
 30
0.0
 10
-4.625368095150959
 20
12.49999999999998
 30
0.0
 10
-9.084986858440252
 20
11.55448507244782
 30
0.0
 10
-13.44332455341626
 20
10.03121359592795
 30
0.0
  0
SPLINE
  5
AC5F
330
1F
100
AcDbEntity
  8
AM_0
100
AcDbSpline
210
0.0
220
0.0
230
1.0
 70
     8
 71
     3
 72
     8
 73
     4
 74
     0
 42
0.0000000001
 43
0.0000000001
 40
0.0
 40
0.0
 40
0.0
 40
0.0
 40
5.635889483499305
 40
5.635889483499305
 40
5.635889483499305
 40
5.635889483499305
 10
-33.484513639713
 20
12.50000000000053
 30
0.0
 10
-38.10988173486396
 20
12.50000000000053
 30
0.0
 10
-42.56950049815324
 20
11.55448507244838
 30
0.0
 10
-46.92783819312924
 20
10.03121359592848
 30
0.0
  0
SPLINE
  5
AC60
330
1F
100
AcDbEntity
  8
AM_0
100
AcDbSpline
210
0.0
220
0.0
230
1.0
 70
     8
 71
     3
 72
     8
 73
     4
 74
     0
 42
0.0000000001
 43
0.0000000001
 40
0.0
 40
0.0
 40
0.0
 40
0.0
 40
7.010133154738189
 40
7.010133154738189
 40
7.010133154738189
 40
7.010133154738189
 10
-33.38948397843914
 20
-12.47568585003708
 30
0.0
 10
-40.74602680539929
 20
-12.49027989596928
 30
0.0
 10
-47.53540596710011
 20
-10.19920512177165
 30
0.0
 10
-54.16612500541663
 20
-7.004191091359162
 30
0.0
  0
SPLINE
  5
AC61
330
1F
100
AcDbEntity
  8
AM_0
100
AcDbSpline
210
0.0
220
0.0
230
1.0
 70
     8
 71
     3
 72
     8
 73
     4
 74
     0
 42
0.0000000001
 43
0.0000000001
 40
0.0
 40
0.0
 40
0.0
 40
0.0
 40
6.263439010185004
 40
6.263439010185004
 40
6.263439010185004
 40
6.263439010185004
 10
-29.0958285019122
 20
-11.8615707931065
 30
0.0
 10
-35.52132510019821
 20
-11.8615707931065
 30
0.0
 10
-41.6549656154652
 20
-10.11072405128127
 30
0.0
 10
-50.00000000000224
 20
-6.598936809972171
 30
0.0
  0
SPLINE
  5
AC62
330
1F
100
AcDbEntity
  8
AM_0
100
AcDbSpline
210
0.0
220
0.0
230
1.0
 70
     8
 71
     3
 72
     8
 73
     4
 74
     0
 42
0.0000000001
 43
0.0000000001
 40
0.0
 40
0.0
 40
0.0
 40
0.0
 40
12.20001166758032
 40
12.20001166758032
 40
12.20001166758032
 40
12.20001166758032
 10
-20.83993262669933
 20
-10.93058219458784
 30
0.0
 10
-30.85246833963413
 20
-10.93058219458785
 30
0.0
 10
-40.45344903210434
 20
-8.464068104017352
 30
0.0
 10
-52.34459058379134
 20
-2.397937907259694
 30
0.0
  0
SPLINE
  5
AC63
330
1F
100
AcDbEntity
  8
AM_0
100
AcDbSpline
210
0.0
220
0.0
230
1.0
 70
     8
 71
     3
 72
     8
 73
     4
 74
     0
 42
0.0000000001
 43
0.0000000001
 40
0.0
 40
0.0
 40
0.0
 40
0.0
 40
9.637195575647414
 40
9.637195575647414
 40
9.637195575647414
 40
9.637195575647414
 10
-20.83993262669933
 20
-10.93058219458784
 30
0.0
 10
-18.25437907172956
 20
-10.91598814865507
 30
0.0
 10
-15.66057496332084
 20
-10.63999408506107
 30
0.0
 10
-13.09980793134617
 20
-10.14999999999988
 30
0.0
  0
SPLINE
  5
AC64
330
1F
100
AcDbEntity
  8
AM_0
100
AcDbSpline
210
0.0
220
0.0
230
1.0
 70
     8
 71
     3
 72
     8
 73
     4
 74
     0
 42
0.0000000001
 43
0.0000000001
 40
0.0
 40
0.0
 40
0.0
 40
0.0
 40
9.964098609850829
 40
9.964098609850829
 40
9.964098609850829
 40
9.964098609850829
 10
-29.0958285019122
 20
-11.8615707931065
 30
0.0
 10
-26.34417899951477
 20
-11.8025311687916
 30
0.0
 10
-23.67086144476594
 20
-11.48744023795248
 30
0.0
 10
-21.03795485718505
 20
-10.92992362433394
 30
0.0
  0
SPLINE
  5
AC65
330
1F
100
AcDbEntity
  8
AM_0
100
AcDbSpline
210
0.0
220
0.0
230
1.0
 70
     8
 71
     3
 72
     8
 73
     4
 74
     0
 42
0.0000000001
 43
0.0000000001
 40
0.2856890368132185
 40
0.2856890368132185
 40
0.2856890368132185
 40
0.2856890368132185
 40
9.637195575647414
 40
9.637195575647414
 40
9.637195575647414
 40
9.637195575647414
 10
-54.16612500541663
 20
-10.91526214003865
 30
0.0
 10
-51.61031124907356
 20
-10.89943672148445
 30
0.0
 10
-49.0943492813874
 20
-10.62546849645948
 30
0.0
 10
-46.60949469314443
 20
-10.14999999999991
 30
0.0
  0
SPLINE
  5
AC66
330
1F
100
AcDbEntity
  8
AM_0
100
AcDbSpline
210
0.0
220
0.0
230
1.0
 70
     8
 71
     3
 72
     8
 73
     4
 74
     0
 42
0.0000000001
 43
0.0000000001
 40
4.041712701031851
 40
4.041712701031851
 40
4.041712701031851
 40
4.041712701031851
 40
9.964098609850829
 40
9.964098609850829
 40
9.964098609850829
 40
9.964098609850829
 10
-59.2123394976981
 20
-11.78455746303862
 30
0.0
 10
-57.6917723373103
 20
-11.50702486446112
 30
0.0
 10
-56.11256881250795
 20
-11.26129615141456
 30
0.0
 10
-54.16612500541662
 20
-10.91526214003869
 30
0.0
  0
SPLINE
  5
AC67
330
1F
100
AcDbEntity
  8
AM_0
100
AcDbSpline
210
0.0
220
0.0
230
1.0
 70
     8
 71
     3
 72
     8
 73
     4
 74
     0
 42
0.0000000001
 43
0.0000000001
 40
10.52089085168291
 40
10.52089085168291
 40
10.52089085168291
 40
10.52089085168291
 40
10.85199757529305
 40
10.85199757529305
 40
10.85199757529305
 40
10.85199757529305
 10
-50.00000000000211
 20
-7.921202368542553
 30
0.0
 10
-51.23150198478182
 20
-7.381589275398578
 30
0.0
 10
-51.86815729952544
 20
-7.0738020722587
 30
0.0
 10
-52.34459058379134
 20
-6.78334301318636
 30
0.0
  0
SPLINE
  5
AC68
330
1F
100
AcDbEntity
  8
AM_0
100
AcDbSpline
210
0.0
220
0.0
230
1.0
 70
     8
 71
     3
 72
     8
 73
     4
 74
     0
 42
0.0000000001
 43
0.0000000001
 40
0.0
 40
0.0
 40
0.0
 40
0.0
 40
9.318135730491695
 40
9.318135730491695
 40
9.318135730491695
 40
9.318135730491695
 10
-33.38948397843914
 20
-12.47568585003708
 30
0.0
 10
-30.84035624017101
 20
-12.47568585003708
 30
0.0
 10
-28.34175402012155
 20
-12.18782524344922
 30
0.0
 10
-25.88283400785632
 20
-11.6738819601068
 30
0.0
  0
SPLINE
  5
AC69
330
1F
100
AcDbEntity
  8
AM_0
100
AcDbSpline
210
0.0
220
0.0
230
1.0
 70
     8
 71
     3
 72
     8
 73
     4
 74
     0
 42
0.0000000001
 43
0.0000000001
 40
1.075450793972863
 40
1.075450793972863
 40
1.075450793972863
 40
1.075450793972863
 40
14.36247867694493
 40
14.36247867694493
 40
14.36247867694493
 40
14.36247867694493
 10
-55.09060576397384
 20
11.44894879654241
 30
0.0
 10
-44.31113287931276
 20
10.67923497922901
 30
0.0
 10
-34.2748470600434
 20
5.33961748961474
 30
0.0
 10
-24.2385612407751
 20
-0.0000000000000323
 30
0.0
  0
SPLINE
  5
AC6A
330
1F
100
AcDbEntity
  8
AM_0
100
AcDbSpline
210
0.0
220
0.0
230
1.0
 70
     8
 71
     3
 72
     8
 73
     4
 74
     0
 42
0.0000000001
 43
0.0000000001
 40
7.164700612756051
 40
7.164700612756051
 40
7.164700612756051
 40
7.164700612756051
 40
14.48999654934388
 40
14.48999654934388
 40
14.48999654934388
 40
14.48999654934388
 10
-52.40351971568054
 20
8.834371133718832
 30
0.0
 10
-44.40046595086405
 20
6.319269911178939
 30
0.0
 10
-38.94248979528852
 20
3.159634955589728
 30
0.0
 10
-33.48451363971298
 20
0.0000000000005329
 30
0.0
  0
ELLIPSE
  5
AC6B
330
1F
100
AcDbEntity
  8
AM_0
100
AcDbEllipse
 10
18.30419822438554
 20
-3.899230679303408
 30
0.0
 11
0.0000000000028435
 21
21.19375616727876
 31
0.0
210
0.0
220
0.0
230
1.0
 40
0.984838636462123
 41
1.636502568454586
 42
1.862491058463829
  0
SPLINE
  5
AC6C
330
1F
100
AcDbEntity
  8
AM_0
100
AcDbSpline
210
0.0
220
0.0
230
1.0
 70
     8
 71
     3
 72
     8
 73
     4
 74
     0
 42
0.0000000001
 43
0.0000000001
 40
0.0
 40
0.0
 40
0.0
 40
0.0
 40
9.450452127946082
 40
9.450452127946082
 40
9.450452127946082
 40
9.450452127946082
 10
-65.60254061218921
 20
-12.50000000000007
 30
0.0
 10
-64.31384569719238
 20
-12.4756858500371
 30
0.0
 10
-61.78049127262369
 20
-12.1795920288128
 30
0.0
 10
-59.21233949769921
 20
-11.78455746303862
 30
0.0
  0
LINE
  5
ACE2
330
1F
100
AcDbEntity
  8
AM_0
100
AcDbLine
 10
-65.60254061216422
 20
-12.49999999999998
 30
0.0
 11
-119.0
 21
-12.5000000000001
 31
0.0
  0
LINE
  5
ACE5
330
1F
100
AcDbEntity
  8
AM_0
100
AcDbLine
 10
-120.0
 20
11.49999999999987
 30
0.0
 11
-120.0
 21
-11.5000000000001
 31
0.0
  0
LINE
  5
ACE6
330
1F
100
AcDbEntity
  8
AM_0
100
AcDbLine
 10
-119.0
 20
12.49999999999987
 30
0.0
 11
-119.0
 21
-12.5000000000001
 31
0.0
  0
DIMENSION
  5
ACE7
330
1F
100
AcDbEntity
  8
AM_5
100
AcDbDimension
  2
*D8
 10
-137.3109970012145
 20
-12.5000000000001
 30
0.0
 11
-140.4109970012145
 21
-0.0000000000001351
 31
0.0
 70
    32
  1
%%c<>
  3
AM_JIS
100
AcDbAlignedDimension
 13
-119.0
 23
12.49999999999987
 33
0.0
 14
-119.0
 24
-12.50000000000011
 34
0.0
 50
270.0
100
AcDbRotatedDimension
1001
GENIUS_GENDTOL_13
1000

1000
h7
1000

1040
0.0
  0
LINE
  5
ACF4
330
1F
100
AcDbEntity
  8
AM_0
100
AcDbLine
 10
-62.29908914571764
 20
12.5
 30
0.0
 11
-119.0
 21
12.49999999999987
 31
0.0
  0
LINE
  5
AD00
330
1F
100
AcDbEntity
  8
AM_0
100
AcDbLine
 10
-119.0
 20
12.49999999999987
 30
0.0
 11
-120.0
 21
11.49999999999987
 31
0.0
1001
GENIUS_GENFIL_13
1070
     0
1040
1.0
1040
1.0
1040
20.0
1040
0.0
1002
{
1002
}
1001
GENIUS_GENODEF_13
1002
{
1000
HIER
1070
     0
1002
}
1002
{
1000
MANEDIT
1070
     0
1002
}
1002
{
1000
NOSEL
1070
     0
1002
}
1002
{
1000
BEHIND
1070
     0
1002
}
1002
{
1000
REACTOR
1002
}
1001
GENIUS_GENOBJ-N-CHA_13
1002
{
1000
OWNER
1000
GEN
1002
}
  0
LINE
  5
AD03
330
1F
100
AcDbEntity
  8
AM_0
100
AcDbLine
 10
-120.0
 20
-11.5000000000001
 30
0.0
 11
-119.0
 21
-12.5000000000001
 31
0.0
1001
GENIUS_GENFIL_13
1070
     0
1040
1.0
1040
1.0
1040
20.0
1040
0.0
1002
{
1002
}
1001
GENIUS_GENODEF_13
1002
{
1000
HIER
1070
     0
1002
}
1002
{
1000
MANEDIT
1070
     0
1002
}
1002
{
1000
NOSEL
1070
     0
1002
}
1002
{
1000
BEHIND
1070
     0
1002
}
1002
{
1000
REACTOR
1002
}
1001
GENIUS_GENOBJ-N-CHA_13
1002
{
1000
OWNER
1000
GEN
1002
}
  0
LINE
  5
ADB8
330
1F
100
AcDbEntity
  8
AM_11
100
AcDbLine
 10
-50.00000000000224
 20
12.5
 30
0.0
 11
-50.00000000000224
 21
-12.50000000000004
 31
0.0
  0
LINE
  5
B038
330
1F
100
AcDbEntity
  8
AM_11
100
AcDbLine
 10
-0.0000000000000077
 20
12.5
 30
0.0
 11
-0.1292600710356666
 21
-12.16680144702736
 31
0.0
  0
SPLINE
  5
B066
330
1F
100
AcDbEntity
  8
AM_0
100
AcDbSpline
210
0.0
220
0.0
230
1.0
 70
     8
 71
     3
 72
    13
 73
     9
 74
     7
 42
0.0000000001
 43
0.0000000001
 44
0.0000000001
 40
0.0
 40
0.0
 40
0.0
 40
0.0
 40
2.912616340992096
 40
9.242448933008265
 40
12.16796746459729
 40
15.48234342500722
 40
21.61991237764888
 40
24.99681107467234
 40
24.99681107467234
 40
24.99681107467234
 40
24.99681107467234
 10
-52.40351971568054
 20
8.834371133718832
 30
0.0
 10
-53.34775872039807
 20
8.974907009821198
 30
0.0
 10
-56.34406161784172
 20
9.420861954127136
 30
0.0
 10
-61.12393034351804
 20
8.572478299088096
 30
0.0
 10
-62.6328149994485
 20
4.039249135434426
 30
0.0
 10
-59.89812794630333
 20
0.4174135489878323
 30
0.0
 10
-56.02460154759323
 20
-1.365585831675957
 30
0.0
 10
-53.30857096372112
 20
-3.010070084658878
 30
0.0
 10
-52.34459058379134
 20
-3.593734556035695
 30
0.0
 11
-52.40351971568054
 21
8.834371133718832
 31
0.0
 11
-55.29923416475964
 21
9.147694894721325
 31
0.0
 11
-61.28033900215979
 21
7.07569934284902
 31
0.0
 11
-62.1184441396365
 21
4.272801118295376
 31
0.0
 11
-60.42775031984177
 21
1.422074471517191
 31
0.0
 11
-55.25627839041646
 21
-1.883319715504512
 31
0.0
 11
-52.34459058379134
 21
-3.593734556035695
 31
0.0
  0
LINE
  5
B067
330
1F
100
AcDbEntity
  8
AM_0
100
AcDbLine
 10
-52.34459058379134
 20
-6.78334301318636
 30
0.0
 11
-52.34459058379134
 21
-2.397937907259695
 31
0.0
  0
VIEWPORT
  5
110
330
101
100
AcDbEntity
 67
     1
  8
0
100
AcDbViewport
 10
420.5
 20
297.0
 30
0.0
 40
948.9782706766916
 41
628.452
 68
     1
 69
     1
1001
ACAD
1000
MVIEW
1002
{
1070
    16
1010
0.0
1020
0.0
1030
0.0
1010
0.0
1020
0.0
1030
1.0
1040
0.0
1040
628.452
1040
420.5
1040
297.0
1040
50.0
1040
0.0
1040
0.0
1070
     0
1070
   100
1070
     1
1070
     1
1070
     0
1070
     0
1070
     0
1070
     0
1040
0.0
1040
0.0
1040
0.0
1040
10.0
1040
10.0
1040
10.0
1040
10.0
1070
     0
1002
{
1002
}
1002
}
  0
ENDSEC
  0
SECTION
  2
OBJECTS
  0
DICTIONARY
  5
C
330
0
100
AcDbDictionary
  3
ACAD_GROUP
350
D
  3
ACAD_LAYOUT
350
1A
  3
ACAD_MLINESTYLE
350
17
  3
ACAD_PLOTSETTINGS
350
19
  3
ACAD_PLOTSTYLENAME
350
E
  3
ACDBVARIABLEDICTIONARY
350
34
  3
ACMDICTIONARY
350
43
  3
AMG
350
2B
  3
AMGSNAPSETTINGS
350
6E
  3
ASE_INDEX_DICTIONARY
350
151A
  3
DWGPROPS
350
B08B
  3
ACDBHEADERROUNDTRIPXREC
350
B097
  0
DICTIONARY
  5
74
330
1F
100
AcDbDictionary
280
     1
  3
ACAD_INDEX
360
B08D
  3
ACAD_LAYOUTSELFREF
360
B0BA
  0
DICTIONARY
  5
B0BF
330
101
100
AcDbDictionary
280
     1
  3
ACAD_LAYOUTSELFREF
360
B0C0
  0
DICTIONARY
  5
D
102
{ACAD_REACTORS
330
C
102
}
330
C
100
AcDbDictionary
  0
DICTIONARY
  5
1A
102
{ACAD_REACTORS
330
C
102
}
330
C
100
AcDbDictionary
  0
DICTIONARY
  5
17
102
{ACAD_REACTORS
330
C
102
}
330
C
100
AcDbDictionary
  3
STANDARD
350
18
  0
DICTIONARY
  5
19
102
{ACAD_REACTORS
330
C
102
}
330
C
100
AcDbDictionary
  0
ACDBDICTIONARYWDFLT
  5
E
102
{ACAD_REACTORS
330
C
102
}
330
C
100
AcDbDictionary
281
     1
  3
Normal
350
F
100
AcDbDictionaryWithDefault
340
F
  0
DICTIONARY
  5
34
102
{ACAD_REACTORS
330
C
102
}
330
C
100
AcDbDictionary
  3
INDEXCTL
350
35
  3
SORTENTS
350
B5E
  0
DICTIONARY
  5
43
102
{ACAD_REACTORS
330
C
102
}
330
C
100
AcDbDictionary
  3
ACMSTDDICTIONARY
350
260
  0
DICTIONARY
  5
2B
102
{ACAD_REACTORS
330
C
102
}
330
C
100
AcDbDictionary
  3
ACMGSETTINGS
350
2C
  0
DICTIONARY
  5
6E
102
{ACAD_REACTORS
330
C
102
}
330
C
100
AcDbDictionary
  0
DICTIONARY
  5
151A
102
{ACAD_REACTORS
330
C
102
}
330
C
100
AcDbDictionary
  3
ASEBLOCKHIERARCHYINDEXRECORD
350
151C
1001
DCO15
1040
1471862535.906
  0
XRECORD
  5
B08B
102
{ACAD_REACTORS
330
C
102
}
330
C
100
AcDbXrecord
  1
DWGPROPS COOKIE
  2

  3

  4

  6

  7

  8

  9

300
AmdtFileType=82
301
=
302
=
303
=
304
=
305
=
306
=
307
=
308
=
309
=
 40
0.5539268171296297
 41
2452838.430434386
 42
2453054.446347708
  1

 90
        1
  0
DICTIONARY
  5
B097
102
{ACAD_REACTORS
330
C
102
}
330
C
100
AcDbDictionary
  3
TSTACKALIGN
350
B098
  3
TSTACKSIZE
350
B099
  3
HYPERLINKBASE
350
B09A
  3
STYLESHEET
350
B09B
  3
LAYOUTDICT
350
B09C
  3
PLOTSETDICT
350
B09D
  3
PLOTSTYLNAMDICT
350
B09E
  3
LWETCUNION
350
B09F
  3
INSUNITS
350
B0A0
  3
CEPSNTYPE
350
B0A1
  3
FINGERPRINTGUID
350
B0A2
  3
VERSIONGUID
350
B0A3
  3
PSVPSCALE
350
B0A4
  3
DIMSTYLEDATA
350
B0A5
  3
PUCSORTHOREF
350
B0A6
  3
PUCSORTHOVIEW
350
B0A7
  3
PUCSBASE
350
B0A8
  3
PUCSORGTOP
350
B0A9
  3
PUCSORGBOTTOM
350
B0AA
  3
PUCSORGLEFT
350
B0AB
  3
PUCSORGRIGHT
350
B0AC
  3
PUCSORGFRONT
350
B0AD
  3
PUCSORGBACK
350
B0AE
  3
UCSORTHOREF
350
B0AF
  3
UCSORTHOVIEW
350
B0B0
  3
UCSBASE
350
B0B1
  3
UCSORGTOP
350
B0B2
  3
UCSORGBOTTOM
350
B0B3
  3
UCSORGLEFT
350
B0B4
  3
UCSORGRIGHT
350
B0B5
  3
UCSORGFRONT
350
B0B6
  3
UCSORGBACK
350
B0B7
  0
DICTIONARY
  5
B08D
102
{ACAD_REACTORS
330
74
102
}
330
74
100
AcDbDictionary
  3
*A1
350
B08E
  0
XRECORD
  5
B0BA
102
{ACAD_REACTORS
330
74
102
}
330
74
100
AcDbXrecord
340
1F
  0
XRECORD
  5
B0C0
102
{ACAD_REACTORS
330
B0BF
102
}
330
B0BF
100
AcDbXrecord
340
101
  0
MLINESTYLE
  5
18
102
{ACAD_REACTORS
330
17
102
}
330
17
100
AcDbMlineStyle
  2
STANDARD
 70
     0
  3

 62
   256
 51
90.0
 52
90.0
 71
     2
 49
0.5
 62
   256
  6
BYLAYER
 49
-0.5
 62
   256
  6
BYLAYER
  0
ACDBPLACEHOLDER
  5
F
102
{ACAD_REACTORS
330
E
102
}
330
E
100
AcDbPlaceHolder
280
     0
  0
DICTIONARYVAR
  5
35
102
{ACAD_REACTORS
330
34
102
}
330
34
100
DictionaryVariables
280
     0
  1
1
  0
DICTIONARYVAR
  5
B5E
102
{ACAD_REACTORS
330
34
102
}
330
34
100
DictionaryVariables
280
     0
  1
96
  0
DICTIONARY
  5
260
102
{ACAD_REACTORS
330
43
102
}
330
43
100
AcDbDictionary
  0
DICTIONARY
  5
2C
102
{ACAD_REACTORS
330
2B
102
}
330
2B
100
AcDbDictionary
  3
DWGSETTINGS
350
2D
  0
XRECORD
  5
151C
102
{ACAD_REACTORS
330
151A
102
}
330
151A
100
AcDbXrecord
330
0
330
0
330
0
330
0
330
0
330
0
330
0
330
0
  0
XRECORD
  5
B098
102
{ACAD_REACTORS
330
B097
102
}
330
B097
100
AcDbXrecord
 90
        1
  0
XRECORD
  5
B099
102
{ACAD_REACTORS
330
B097
102
}
330
B097
100
AcDbXrecord
 90
       70
  0
XRECORD
  5
B09A
102
{ACAD_REACTORS
330
B097
102
}
330
B097
100
AcDbXrecord
  1

  0
XRECORD
  5
B09B
102
{ACAD_REACTORS
330
B097
102
}
330
B097
100
AcDbXrecord
  1
ASAMI.ctb
  0
XRECORD
  5
B09C
102
{ACAD_REACTORS
330
B097
102
}
330
B097
100
AcDbXrecord
340
1A
  0
XRECORD
  5
B09D
102
{ACAD_REACTORS
330
B097
102
}
330
B097
100
AcDbXrecord
340
19
  0
XRECORD
  5
B09E
102
{ACAD_REACTORS
330
B097
102
}
330
B097
100
AcDbXrecord
340
E
  0
XRECORD
  5
B09F
102
{ACAD_REACTORS
330
B097
102
}
330
B097
100
AcDbXrecord
 90
    10781
  0
XRECORD
  5
B0A0
102
{ACAD_REACTORS
330
B097
102
}
330
B097
100
AcDbXrecord
 90
        4
  0
XRECORD
  5
B0A1
102
{ACAD_REACTORS
330
B097
102
}
330
B097
100
AcDbXrecord
 90
        0
  0
XRECORD
  5
B0A2
102
{ACAD_REACTORS
330
B097
102
}
330
B097
100
AcDbXrecord
  1
{AFB28963-8C59-40AE-9337-C84526B81ACE}
  0
XRECORD
  5
B0A3
102
{ACAD_REACTORS
330
B097
102
}
330
B097
100
AcDbXrecord
  1
{BB82FE0E-C24F-4E31-8FA6-D948CCDB30A2}
  0
XRECORD
  5
B0A4
102
{ACAD_REACTORS
330
B097
102
}
330
B097
100
AcDbXrecord
 40
0.0
  0
XRECORD
  5
B0A5
102
{ACAD_REACTORS
330
B097
102
}
330
B097
100
AcDbXrecord
1000
DSTYLE
1002
{
1070
    79
 70
     2
1070
   341
340
59
1070
   342
340
59
1070
   371
 70
    -1
1070
   372
 70
    -1
1002
}
  0
XRECORD
  5
B0A6
102
{ACAD_REACTORS
330
B097
102
}
330
B097
100
AcDbXrecord
340
0
  0
XRECORD
  5
B0A7
102
{ACAD_REACTORS
330
B097
102
}
330
B097
100
AcDbXrecord
 70
     0
  0
XRECORD
  5
B0A8
102
{ACAD_REACTORS
330
B097
102
}
330
B097
100
AcDbXrecord
340
0
  0
XRECORD
  5
B0A9
102
{ACAD_REACTORS
330
B097
102
}
330
B097
100
AcDbXrecord
 10
0.0
 20
0.0
 30
0.0
  0
XRECORD
  5
B0AA
102
{ACAD_REACTORS
330
B097
102
}
330
B097
100
AcDbXrecord
 10
0.0
 20
0.0
 30
0.0
  0
XRECORD
  5
B0AB
102
{ACAD_REACTORS
330
B097
102
}
330
B097
100
AcDbXrecord
 10
0.0
 20
0.0
 30
0.0
  0
XRECORD
  5
B0AC
102
{ACAD_REACTORS
330
B097
102
}
330
B097
100
AcDbXrecord
 10
0.0
 20
0.0
 30
0.0
  0
XRECORD
  5
B0AD
102
{ACAD_REACTORS
330
B097
102
}
330
B097
100
AcDbXrecord
 10
0.0
 20
0.0
 30
0.0
  0
XRECORD
  5
B0AE
102
{ACAD_REACTORS
330
B097
102
}
330
B097
100
AcDbXrecord
 10
0.0
 20
0.0
 30
0.0
  0
XRECORD
  5
B0AF
102
{ACAD_REACTORS
330
B097
102
}
330
B097
100
AcDbXrecord
340
0
  0
XRECORD
  5
B0B0
102
{ACAD_REACTORS
330
B097
102
}
330
B097
100
AcDbXrecord
 70
     0
  0
XRECORD
  5
B0B1
102
{ACAD_REACTORS
330
B097
102
}
330
B097
100
AcDbXrecord
340
0
  0
XRECORD
  5
B0B2
102
{ACAD_REACTORS
330
B097
102
}
330
B097
100
AcDbXrecord
 10
0.0
 20
0.0
 30
0.0
  0
XRECORD
  5
B0B3
102
{ACAD_REACTORS
330
B097
102
}
330
B097
100
AcDbXrecord
 10
0.0
 20
0.0
 30
0.0
  0
XRECORD
  5
B0B4
102
{ACAD_REACTORS
330
B097
102
}
330
B097
100
AcDbXrecord
 10
0.0
 20
0.0
 30
0.0
  0
XRECORD
  5
B0B5
102
{ACAD_REACTORS
330
B097
102
}
330
B097
100
AcDbXrecord
 10
0.0
 20
0.0
 30
0.0
  0
XRECORD
  5
B0B6
102
{ACAD_REACTORS
330
B097
102
}
330
B097
100
AcDbXrecord
 10
0.0
 20
0.0
 30
0.0
  0
XRECORD
  5
B0B7
102
{ACAD_REACTORS
330
B097
102
}
330
B097
100
AcDbXrecord
 10
0.0
 20
0.0
 30
0.0
  0
LAYER_INDEX
  5
B08E
102
{ACAD_REACTORS
330
B08D
102
}
330
B08D
100
AcDbIndex
 40
2453151.731132257
100
AcDbLayerIndex
  8
0
360
B08F
 90
        0
  8
AM_0
360
B090
 90
       47
  8
AM_11
360
B091
 90
        4
  8
AM_7
360
B092
 90
        1
  8
AM_5
360
B093
 90
        4
  8
Defpoints
360
B094
 90
        0
  8
AM_6
360
B095
 90
        1
  0
XRECORD
  5
2D
102
{ACAD_REACTORS
330
2C
102
}
330
2C
100
AcDbXrecord
  1
VERSION
140
15.0
  1
PRODUCT
  2
AutoCAD Mechanical 2000
  0
IDBUFFER
  5
B08F
330
0
100
AcDbIdBuffer
  0
IDBUFFER
  5
B090
330
0
100
AcDbIdBuffer
330
AC56
330
AC57
330
AC58
330
AC59
330
AC5A
330
AC5B
330
AC5C
330
AC5D
330
AC5E
330
AC5F
330
AC60
330
AC61
330
AC62
330
AC63
330
AC64
330
AC65
330
AC66
330
AC67
330
AC68
330
AC69
330
AC6A
330
AC6B
330
AC6C
330
ACE2
330
ACE5
330
ACE6
330
ACF4
330
AD00
330
AD03
330
B066
330
B067
330
AC34
330
AC35
330
AC36
330
AC37
330
AC38
330
AC39
330
AC3A
330
AC3B
330
AC3C
330
AC3D
330
AC3E
330
AC3F
330
AC40
330
AC41
330
AC42
330
AC43
  0
IDBUFFER
  5
B091
330
0
100
AcDbIdBuffer
330
AC54
330
AC55
330
ADB8
330
B038
  0
IDBUFFER
  5
B092
330
0
100
AcDbIdBuffer
330
9FF0
  0
IDBUFFER
  5
B093
330
0
100
AcDbIdBuffer
330
A215
330
A2A1
330
AB45
330
ACE7
  0
IDBUFFER
  5
B094
330
0
100
AcDbIdBuffer
  0
IDBUFFER
  5
B095
330
0
100
AcDbIdBuffer
330
1500
  0
ENDSEC
  0
EOF
