  0
SECTION
  2
HEADER
  9
$ACADVER
  1
AC1015
  9
$ACADMAINTVER
 70
    20
  9
$DWGCODEPAGE
  3
ANSI_932
  9
$INSBASE
 10
0.0
 20
0.0
 30
0.0
  9
$EXTMIN
 10
-153.2309522755578
 20
-64.49725100999632
 30
0.0
  9
$EXTMAX
 10
17.12893990686985
 20
26.69725133540126
 30
0.0
  9
$LIMMIN
 10
-156.7784581429804
 20
-76.37517004656945
  9
$LIMMAX
 10
57.21914367721876
 20
60.71012882690665
  9
$ORTHOMODE
 70
     0
  9
$REGENMODE
 70
     1
  9
$FILLMODE
 70
     1
  9
$QTEXTMODE
 70
     0
  9
$MIRRTEXT
 70
     0
  9
$LTSCALE
 40
1.0
  9
$ATTMODE
 70
     1
  9
$TEXTSIZE
 40
2.5
  9
$TRACEWID
 40
1.0
  9
$TEXTSTYLE
  7
STANDARD
  9
$CLAYER
  8
AM_0
  9
$CELTYPE
  6
BYLAYER
  9
$CECOLOR
 62
   256
  9
$CELTSCALE
 40
1.0
  9
$DISPSILH
 70
     0
  9
$DIMSCALE
 40
0.5
  9
$DIMASZ
 40
2.5
  9
$DIMEXO
 40
1.0
  9
$DIMDLI
 40
12.0
  9
$DIMRND
 40
0.0
  9
$DIMDLE
 40
0.0
  9
$DIMEXE
 40
1.0
  9
$DIMTP
 40
0.1
  9
$DIMTM
 40
0.1
  9
$DIMTXT
 40
3.2
  9
$DIMCEN
 40
0.0
  9
$DIMTSZ
 40
0.0
  9
$DIMTOL
 70
     0
  9
$DIMLIM
 70
     0
  9
$DIMTIH
 70
     0
  9
$DIMTOH
 70
     0
  9
$DIMSE1
 70
     0
  9
$DIMSE2
 70
     0
  9
$DIMTAD
 70
     3
  9
$DIMZIN
 70
     8
  9
$DIMBLK
  1
Open30
  9
$DIMASO
 70
     1
  9
$DIMSHO
 70
     1
  9
$DIMPOST
  1

  9
$DIMAPOST
  1
"
  9
$DIMALT
 70
     0
  9
$DIMALTD
 70
     2
  9
$DIMALTF
 40
0.0393701
  9
$DIMLFAC
 40
1.0
  9
$DIMTOFL
 70
     1
  9
$DIMTVP
 40
0.0
  9
$DIMTIX
 70
     0
  9
$DIMSOXD
 70
     0
  9
$DIMSAH
 70
     0
  9
$DIMBLK1
  1

  9
$DIMBLK2
  1

  9
$DIMSTYLE
  2
AM_JIS
  9
$DIMCLRD
 70
   256
  9
$DIMCLRE
 70
   256
  9
$DIMCLRT
 70
     2
  9
$DIMTFAC
 40
0.71
  9
$DIMGAP
 40
1.5
  9
$DIMJUST
 70
     0
  9
$DIMSD1
 70
     0
  9
$DIMSD2
 70
     0
  9
$DIMTOLJ
 70
     0
  9
$DIMTZIN
 70
     0
  9
$DIMALTZ
 70
     0
  9
$DIMALTTZ
 70
     0
  9
$DIMUPT
 70
     0
  9
$DIMDEC
 70
     3
  9
$DIMTDEC
 70
     3
  9
$DIMALTU
 70
     2
  9
$DIMALTTD
 70
     2
  9
$DIMTXSTY
  7
ASAMI
  9
$DIMAUNIT
 70
     0
  9
$DIMADEC
 70
     0
  9
$DIMALTRND
 40
0.0
  9
$DIMAZIN
 70
     2
  9
$DIMDSEP
 70
    46
  9
$DIMATFIT
 70
     3
  9
$DIMFRAC
 70
     0
  9
$DIMLDRBLK
  1
Open30
  9
$DIMLUNIT
 70
     2
  9
$DIMLWD
 70
    -1
  9
$DIMLWE
 70
    -1
  9
$DIMTMOVE
 70
     0
  9
$LUNITS
 70
     2
  9
$LUPREC
 70
     2
  9
$SKETCHINC
 40
1.0
  9
$FILLETRAD
 40
0.4
  9
$AUNITS
 70
     0
  9
$AUPREC
 70
     0
  9
$MENU
  1
.
  9
$ELEVATION
 40
0.0
  9
$PELEVATION
 40
0.0
  9
$THICKNESS
 40
0.0
  9
$LIMCHECK
 70
     1
  9
$CHAMFERA
 40
1.0
  9
$CHAMFERB
 40
1.0
  9
$CHAMFERC
 40
20.0
  9
$CHAMFERD
 40
0.0
  9
$SKPOLY
 70
     0
  9
$TDCREATE
 40
2452802.716478762
  9
$TDUCREATE
 40
2452802.341478762
  9
$TDUPDATE
 40
2453691.772953738
  9
$TDUUPDATE
 40
2453691.397953738
  9
$TDINDWG
 40
0.9724137037
  9
$TDUSRTIMER
 40
0.9724135301
  9
$USRTIMER
 70
     1
  9
$ANGBASE
 50
0.0
  9
$ANGDIR
 70
     0
  9
$PDMODE
 70
     0
  9
$PDSIZE
 40
0.0
  9
$PLINEWID
 40
0.0
  9
$SPLFRAME
 70
     0
  9
$SPLINETYPE
 70
     6
  9
$SPLINESEGS
 70
     8
  9
$HANDSEED
  5
874A
  9
$SURFTAB1
 70
     6
  9
$SURFTAB2
 70
     6
  9
$SURFTYPE
 70
     6
  9
$SURFU
 70
     6
  9
$SURFV
 70
     6
  9
$UCSBASE
  2

  9
$UCSNAME
  2

  9
$UCSORG
 10
-0.0000000000002682
 20
0.000000000000161
 30
0.0
  9
$UCSXDIR
 10
1.0
 20
0.000000000000002
 30
0.0
  9
$UCSYDIR
 10
-0.000000000000002
 20
1.0
 30
0.0
  9
$UCSORTHOREF
  2

  9
$UCSORTHOVIEW
 70
     0
  9
$UCSORGTOP
 10
0.0
 20
0.0
 30
0.0
  9
$UCSORGBOTTOM
 10
0.0
 20
0.0
 30
0.0
  9
$UCSORGLEFT
 10
0.0
 20
0.0
 30
0.0
  9
$UCSORGRIGHT
 10
0.0
 20
0.0
 30
0.0
  9
$UCSORGFRONT
 10
0.0
 20
0.0
 30
0.0
  9
$UCSORGBACK
 10
0.0
 20
0.0
 30
0.0
  9
$PUCSBASE
  2

  9
$PUCSNAME
  2

  9
$PUCSORG
 10
0.0
 20
0.0
 30
0.0
  9
$PUCSXDIR
 10
1.0
 20
0.0
 30
0.0
  9
$PUCSYDIR
 10
0.0
 20
1.0
 30
0.0
  9
$PUCSORTHOREF
  2

  9
$PUCSORTHOVIEW
 70
     0
  9
$PUCSORGTOP
 10
0.0
 20
0.0
 30
0.0
  9
$PUCSORGBOTTOM
 10
0.0
 20
0.0
 30
0.0
  9
$PUCSORGLEFT
 10
0.0
 20
0.0
 30
0.0
  9
$PUCSORGRIGHT
 10
0.0
 20
0.0
 30
0.0
  9
$PUCSORGFRONT
 10
0.0
 20
0.0
 30
0.0
  9
$PUCSORGBACK
 10
0.0
 20
0.0
 30
0.0
  9
$USERI1
 70
     0
  9
$USERI2
 70
     0
  9
$USERI3
 70
     0
  9
$USERI4
 70
     0
  9
$USERI5
 70
     0
  9
$USERR1
 40
0.0
  9
$USERR2
 40
0.0
  9
$USERR3
 40
0.0
  9
$USERR4
 40
0.0
  9
$USERR5
 40
0.0
  9
$WORLDVIEW
 70
     1
  9
$SHADEDGE
 70
     3
  9
$SHADEDIF
 70
    70
  9
$TILEMODE
 70
     1
  9
$MAXACTVP
 70
    64
  9
$PINSBASE
 10
0.0
 20
0.0
 30
0.0
  9
$PLIMCHECK
 70
     0
  9
$PEXTMIN
 10
1.000000000000000E+20
 20
1.000000000000000E+20
 30
1.000000000000000E+20
  9
$PEXTMAX
 10
-1.000000000000000E+20
 20
-1.000000000000000E+20
 30
-1.000000000000000E+20
  9
$PLIMMIN
 10
0.0
 20
0.0
  9
$PLIMMAX
 10
841.0
 20
594.0
  9
$UNITMODE
 70
     0
  9
$VISRETAIN
 70
     1
  9
$PLINEGEN
 70
     0
  9
$PSLTSCALE
 70
     0
  9
$TREEDEPTH
 70
  3020
  9
$CMLSTYLE
  2
STANDARD
  9
$CMLJUST
 70
     0
  9
$CMLSCALE
 40
20.0
  9
$PROXYGRAPHICS
 70
     1
  9
$MEASUREMENT
 70
     1
  9
$CELWEIGHT
370
    -1
  9
$ENDCAPS
280
     0
  9
$JOINSTYLE
280
     0
  9
$LWDISPLAY
290
     0
  9
$INSUNITS
 70
     4
  9
$HYPERLINKBASE
  1

  9
$STYLESHEET
  1
ASAMI.ctb
  9
$XEDIT
290
     1
  9
$CEPSNTYPE
380
     0
  9
$PSTYLEMODE
290
     1
  9
$FINGERPRINTGUID
  2
{AFB28963-8C59-40AE-9337-C84526B81ACE}
  9
$VERSIONGUID
  2
{4A783432-7698-4DC0-9403-C5B5FA42F720}
  9
$EXTNAMES
290
     1
  9
$PSVPSCALE
 40
0.0
  9
$OLESTARTUP
290
     0
  0
ENDSEC
  0
SECTION
  2
CLASSES
  0
CLASS
  1
ACDBDICTIONARYWDFLT
  2
AcDbDictionaryWithDefault
  3
ObjectDBX Classes
 90
        0
280
     0
281
     0
  0
CLASS
  1
ACDBPLACEHOLDER
  2
AcDbPlaceHolder
  3
ObjectDBX Classes
 90
        0
280
     0
281
     0
  0
CLASS
  1
LAYOUT
  2
AcDbLayout
  3
ObjectDBX Classes
 90
        0
280
     0
281
     0
  0
CLASS
  1
AMGSETTINGSOBJ
  2
AmgSettingsObj
  3
"AcadM|Product Description: AutoCAD Mechanical 2000|Company: Autodesk"
 90
        0
280
     0
281
     0
  0
CLASS
  1
ACME_DOCUMENT
  2
AcMeDbDoc
  3
AcMeServices
 90
        0
280
     0
281
     0
  0
CLASS
  1
ACMESCOPE
  2
AcMeScope
  3
AcMeServices
 90
        0
280
     0
281
     0
  0
CLASS
  1
ACMECOMMANDHISTORY
  2
AcMeCommandHistory
  3
AcMeServices
 90
        0
280
     0
281
     0
  0
CLASS
  1
DICTIONARYVAR
  2
AcDbDictionaryVar
  3
ObjectDBX Classes
 90
        0
280
     0
281
     0
  0
CLASS
  1
ACIMSYSVARMAN
  2
AcImSysVarManager
  3
AcMeServices
 90
        0
280
     0
281
     0
  0
CLASS
  1
ACIMREALSYSVAR
  2
AcImRealSysVar
  3
AcMeServices
 90
        0
280
     0
281
     0
  0
CLASS
  1
ACIMINTSYSVAR
  2
AcImIntSysVar
  3
AcMeServices
 90
        0
280
     0
281
     0
  0
CLASS
  1
ACMEDRAWINGMAN
  2
AcMeDrawingMan
  3
AcMeServices
 90
        0
280
     0
281
     0
  0
CLASS
  1
ACMEVIEW
  2
AcMeView
  3
AcMeServices
 90
        0
280
     0
281
     0
  0
CLASS
  1
ACDBENTITYCACHE
  2
AcMeEntityCache
  3
AcMeServices
 90
        0
280
     0
281
     0
  0
CLASS
  1
GSMANAGER
  2
AcMeGSManager
  3
AcMeServices
 90
        0
280
     0
281
     0
  0
CLASS
  1
AMDTINTERNALREACTOR
  2
AmdtInternalReactor
  3
AcMeServices
 90
        0
280
     0
281
     0
  0
CLASS
  1
ACMESTATEMGR
  2
AcMeStateMgr
  3
AcMeServices
 90
        0
280
     0
281
     0
  0
CLASS
  1
ACME_DATABASE
  2
AcMeDbDatabase
  3
AcMeServices
 90
        0
280
     0
281
     0
  0
CLASS
  1
ACRFINSADJUSTERMGR
  2
AcRfInsAdjusterMgr
  3
AcMeServices
 90
        0
280
     0
281
     0
  0
CLASS
  1
ACMDATADICTIONARY
  2
AcmDataDictionary
  3
"AcmSymBB|Product Description: AutoCAD Mechanical 2004 DX|Company: Autodesk"
 90
        0
280
     0
281
     0
  0
CLASS
  1
ACMDATAENTRYBLOCK
  2
AcmDataEntryBlock
  3
"AcmSymBB|Product Description: AutoCAD Mechanical 2004 DX|Company: Autodesk"
 90
    32768
280
     0
281
     0
  0
CLASS
  1
AMGOBJPROPCFG
  2
AmgObjPropCfg
  3
"AmgLay|Product Description: AutoCAD Mechanical 2000|Company: Autodesk"
 90
        1
280
     0
281
     0
  0
CLASS
  1
ACAMGFILTERDAT
  2
AcAmgFilterDat
  3
"AcadM|Product Description: AutoCAD Mechanical 2000|Company: Autodesk"
 90
    32768
280
     0
281
     0
  0
CLASS
  1
LAYER_INDEX
  2
AcDbLayerIndex
  3
ObjectDBX Classes
 90
        0
280
     0
281
     0
  0
CLASS
  1
IDBUFFER
  2
AcDbIdBuffer
  3
ObjectDBX Classes
 90
        0
280
     0
281
     0
  0
CLASS
  1
ACIMSTRSYSVAR
  2
AcImStrSysVar
  3
AcMeServices
 90
        0
280
     0
281
     0
  0
CLASS
  1
ACMSTANDARDJIS
  2
AcmStandardJIS
  3
"Amdt_StdImp|Product Description: AutoCAD Mechanical 2004 DX|Company: Autodesk"
 90
        0
280
     0
281
     0
  0
CLASS
  1
ACMSURFSTANDARDJIS
  2
AcmSurfTextStdJIS
  3
"Amdt_StdImp|Product Description: AutoCAD Mechanical 2004 DX|Company: Autodesk"
 90
        0
280
     0
281
     0
  0
CLASS
  1
ACMFCFSTANDARDJIS
  2
AcmFCFStdJIS
  3
"Amdt_StdImp|Product Description: AutoCAD Mechanical 2004 DX|Company: Autodesk"
 90
    32768
280
     0
281
     0
  0
CLASS
  1
ACMWELDSTANDARDJIS
  2
AcmWeldingStdJIS
  3
"Amdt_StdImp|Product Description: AutoCAD Mechanical 2004 DX|Company: Autodesk"
 90
        0
280
     0
281
     0
  0
CLASS
  1
ACMIDSTANDARDJIS
  2
AcmIdStdJIS
  3
"Amdt_StdImp|Product Description: AutoCAD Mechanical 2004 DX|Company: Autodesk"
 90
        0
280
     0
281
     0
  0
CLASS
  1
ACMDATUMSTANDARDJIS
  2
AcmDatumStdJIS
  3
"Amdt_StdImp|Product Description: AutoCAD Mechanical 2004 DX|Company: Autodesk"
 90
        0
280
     0
281
     0
  0
CLASS
  1
ACMBOMSTANDARDJIS
  2
AcmBOMStdJIS
  3
"Amdt_StdImp|Product Description: AutoCAD Mechanical 2004 DX|Company: Autodesk"
 90
        0
280
     0
281
     0
  0
CLASS
  1
ACMSTANDARDANSI
  2
AcmStandardANSI
  3
"Amdt_StdImp|Product Description: AutoCAD Mechanical 2004 DX|Company: Autodesk"
 90
    32768
280
     0
281
     0
  0
CLASS
  1
ACMSURFSTANDARDANSI
  2
AcmSurfTextStdANSI
  3
"Amdt_StdImp|Product Description: AutoCAD Mechanical 2004 DX|Company: Autodesk"
 90
    32768
280
     0
281
     0
  0
CLASS
  1
ACMFCFSTANDARDANSI
  2
AcmFCFStdANSI
  3
"Amdt_StdImp|Product Description: AutoCAD Mechanical 2004 DX|Company: Autodesk"
 90
    32768
280
     0
281
     0
  0
CLASS
  1
ACMWELDSTANDARDANSI
  2
AcmWeldingStdANSI
  3
"Amdt_StdImp|Product Description: AutoCAD Mechanical 2004 DX|Company: Autodesk"
 90
    32768
280
     0
281
     0
  0
CLASS
  1
ACMIDSTANDARDANSI
  2
AcmIdStdANSI
  3
"Amdt_StdImp|Product Description: AutoCAD Mechanical 2004 DX|Company: Autodesk"
 90
    32768
280
     0
281
     0
  0
CLASS
  1
ACMDATUMSTANDARDANSI
  2
AcmDatumStdANSI
  3
"Amdt_StdImp|Product Description: AutoCAD Mechanical 2004 DX|Company: Autodesk"
 90
    32768
280
     0
281
     0
  0
CLASS
  1
ACMBOMSTANDARDANSI
  2
AcmBOMStdANSI
  3
"Amdt_StdImp|Product Description: AutoCAD Mechanical 2004 DX|Company: Autodesk"
 90
    32768
280
     0
281
     0
  0
CLASS
  1
ACMSTANDARDBSI
  2
AcmStandardBSI
  3
"Amdt_StdImp|Product Description: AutoCAD Mechanical 2004 DX|Company: Autodesk"
 90
    32768
280
     0
281
     0
  0
CLASS
  1
ACMSURFSTANDARDBSI
  2
AcmSurfTextStdBSI
  3
"Amdt_StdImp|Product Description: AutoCAD Mechanical 2004 DX|Company: Autodesk"
 90
    32768
280
     0
281
     0
  0
CLASS
  1
ACMFCFSTANDARDBSI
  2
AcmFCFStdBSI
  3
"Amdt_StdImp|Product Description: AutoCAD Mechanical 2004 DX|Company: Autodesk"
 90
    32768
280
     0
281
     0
  0
CLASS
  1
ACMWELDSTANDARDBSI
  2
AcmWeldingStdBSI
  3
"Amdt_StdImp|Product Description: AutoCAD Mechanical 2004 DX|Company: Autodesk"
 90
    32768
280
     0
281
     0
  0
CLASS
  1
ACMIDSTANDARDBSI
  2
AcmIdStdBSI
  3
"Amdt_StdImp|Product Description: AutoCAD Mechanical 2004 DX|Company: Autodesk"
 90
    32768
280
     0
281
     0
  0
CLASS
  1
ACMDATUMSTANDARDBSI
  2
AcmDatumStdBSI
  3
"Amdt_StdImp|Product Description: AutoCAD Mechanical 2004 DX|Company: Autodesk"
 90
    32768
280
     0
281
     0
  0
CLASS
  1
ACMBOMSTANDARDBSI
  2
AcmBOMStdBSI
  3
"Amdt_StdImp|Product Description: AutoCAD Mechanical 2004 DX|Company: Autodesk"
 90
    32768
280
     0
281
     0
  0
CLASS
  1
STDPART2D
  2
AmgStdPart
  3
"AmgStdPart|Product Description: AutoCAD Mechanical 2000|Company: Autodesk"
 90
    33791
280
     0
281
     1
  0
CLASS
  1
PLOTSETTINGS
  2
AcDbPlotSettings
  3
ObjectDBX Classes
 90
        0
280
     0
281
     0
  0
CLASS
  1
TABLESTYLE
  2
AcDbTableStyle
  3
ObjectDBX Classes
 90
     2047
280
     0
281
     0
  0
CLASS
  1
ACGREFMASTER
  2
AcGrefMaster
  3
AcAttribServices
 90
        0
280
     0
281
     0
  0
CLASS
  1
AM_DRAWING_MGR
  2
AcDmDwgMgr
  3
AcMechDwgViewMgmt
 90
        0
280
     0
281
     0
  0
CLASS
  1
AM_DWG_DOCUMENT
  2
AcDmDwgDocument
  3
AcMechDwgViewMgmt
 90
        0
280
     0
281
     0
  0
CLASS
  1
AM_DWG_SHEET
  2
AcDmSheet
  3
AcMechDwgViewMgmt
 90
        0
280
     0
281
     0
  0
CLASS
  1
AM_VIEWDIMPARMAP
  2
AcDmViewDimParMap
  3
AcMechDwgViewMgmt
 90
        0
280
     0
281
     0
  0
CLASS
  1
AM_DWGMGR_NAME
  2
AcDmDwgMgrName
  3
AcMechDwgViewMgmt
 90
        0
280
     0
281
     0
  0
CLASS
  1
ACGREFACADMASTER
  2
AcGrefacadMaster
  3
AcGrefServices
 90
        0
280
     0
281
     0
  0
CLASS
  1
AMDTMENUSTATEMGR
  2
AmdtMenuStateMgr
  3
McadcomServices
 90
        0
280
     0
281
     0
  0
CLASS
  1
AMDTMCOMMENUSTATE
  2
AmdtMcomMenuState
  3
McadcomServices
 90
        0
280
     0
281
     0
  0
CLASS
  1
AMIMASTER
  2
AmiMaster
  3
AmiServices
 90
        0
280
     0
281
     0
  0
CLASS
  1
MAPIAMMOUDLE
  2
MApiAmModule
  3
MApiAmServices
 90
        0
280
     0
281
     0
  0
CLASS
  1
AMDTADMENUSTATE
  2
AmdtAdMenuState
  3
DesignerServices
 90
        0
280
     0
281
     0
  0
CLASS
  1
ADAPPL
  2
AcAdAppl
  3
DesignerServices
 90
        0
280
     0
281
     0
  0
CLASS
  1
DEPMGR
  2
AcAdDepMgr
  3
DesignerServices
 90
        0
280
     0
281
     0
  0
CLASS
  1
PARAMMGR
  2
AcAdParamMgr
  3
DesignerServices
 90
        0
280
     0
281
     0
  0
CLASS
  1
PARAMSCOPE
  2
AcAdParamScope
  3
DesignerServices
 90
        0
280
     0
281
     0
  0
CLASS
  1
NAMEDAPPL
  2
AcAdNamedAppl
  3
DesignerServices
 90
        0
280
     0
281
     0
  0
CLASS
  1
AMDTDMMENUSTATE
  2
AmdtDmMenuState
  3
AcMechDwgViewMgmt
 90
        0
280
     0
281
     0
  0
CLASS
  1
AMDTAMMENUSTATE
  2
AmdtAmMenuState
  3
DesignerAssemblies
 90
        0
280
     0
281
     0
  0
CLASS
  1
ACAMPROJECT
  2
AcAmProject
  3
DesignerAssemblies
 90
        0
280
     0
281
     0
  0
CLASS
  1
ACAMGRCOMPDEF
  2
AcAmGrCompDef
  3
DesignerAssemblies
 90
        0
280
     0
281
     0
  0
CLASS
  1
ACCMCONTEXT
  2
AcCmContext
  3
DesignerAssemblies
 90
        0
280
     0
281
     0
  0
CLASS
  1
ACAMCOMPDEF
  2
AcAmCompDef
  3
DesignerAssemblies
 90
        0
280
     0
281
     0
  0
CLASS
  1
ACAMCOMPDEFMGR
  2
AcAmCompDefMgr
  3
DesignerAssemblies
 90
        0
280
     0
281
     0
  0
CLASS
  1
AMCONTEXTMGR
  2
AcAmContextMgr
  3
DesignerAssemblies
 90
        0
280
     0
281
     0
  0
CLASS
  1
ACAMCONTEXTMODELER
  2
AcAmContextModeler
  3
DesignerAssemblies
 90
        0
280
     0
281
     0
  0
CLASS
  1
CATALOGSTATE
  2
AcAmCatalogState
  3
DesignerAssemblies
 90
        0
280
     0
281
     0
  0
CLASS
  1
ACAMGRCOMPDEFSET
  2
AcAmGrCompDefSet
  3
DesignerAssemblies
 90
        0
280
     0
281
     0
  0
CLASS
  1
AMDTBROWSERDBTAB
  2
AmdtBrowserDbTab
  3
McadcomServices
 90
        0
280
     0
281
     0
  0
CLASS
  1
CBROWSERAPPOBJECT
  2
CBrowserAppObject
  3
McadcomServices
 90
        0
280
     0
281
     0
  0
CLASS
  1
DM_PLACEHOLDER
  2
AcDmSelsetPlaceholder
  3
AcMechDwgViewMgmt
 90
        0
280
     0
281
     0
  0
CLASS
  1
ACMSTANDARDISO
  2
AcmStandardISO
  3
"Amdt_StdImp|Product Description: AutoCAD Mechanical 2004 DX|Company: Autodesk"
 90
        0
280
     0
281
     0
  0
CLASS
  1
AMDTEDGESTANDARDISO
  2
AmdtEdgeStdISO
  3
"Amdt_StdImp|Product Description: AutoCAD Mechanical 2004 DX|Company: Autodesk"
 90
        0
280
     0
281
     0
  0
CLASS
  1
ACMSURFSTANDARDISO
  2
AcmSurfTextStdISO
  3
"Amdt_StdImp|Product Description: AutoCAD Mechanical 2004 DX|Company: Autodesk"
 90
        0
280
     0
281
     0
  0
CLASS
  1
ACMFCFSTANDARDISO
  2
AcmFCFStdISO
  3
"Amdt_StdImp|Product Description: AutoCAD Mechanical 2004 DX|Company: Autodesk"
 90
        0
280
     0
281
     0
  0
CLASS
  1
ACMWELDSTANDARDISO
  2
AcmWeldingStdISO
  3
"Amdt_StdImp|Product Description: AutoCAD Mechanical 2004 DX|Company: Autodesk"
 90
        0
280
     0
281
     0
  0
CLASS
  1
ACMIDSTANDARDISO
  2
AcmIdStdISO
  3
"Amdt_StdImp|Product Description: AutoCAD Mechanical 2004 DX|Company: Autodesk"
 90
        0
280
     0
281
     0
  0
CLASS
  1
ACMDATUMSTANDARDISO
  2
AcmDatumStdISO
  3
"Amdt_StdImp|Product Description: AutoCAD Mechanical 2004 DX|Company: Autodesk"
 90
        0
280
     0
281
     0
  0
CLASS
  1
ACMBOMSTANDARDISO
  2
AcmBOMStdISO
  3
"Amdt_StdImp|Product Description: AutoCAD Mechanical 2004 DX|Company: Autodesk"
 90
        0
280
     0
281
     0
  0
CLASS
  1
ACMDETAILSTANDARDISO
  2
AmdtDetailSymStdISO
  3
"Amdt_StdImp|Product Description: AutoCAD Mechanical 2004 DX|Company: Autodesk"
 90
        0
280
     0
281
     0
  0
CLASS
  1
ACMSECTIONSTANDARDISO
  2
AmdtSectionSymStdISO
  3
"Amdt_StdImp|Product Description: AutoCAD Mechanical 2004 DX|Company: Autodesk"
 90
        0
280
     0
281
     0
  0
CLASS
  1
ACMCENTERLINESTANDARDISO
  2
AmdtCenterLineStdISO
  3
"Amdt_StdImp|Product Description: AutoCAD Mechanical 2004 DX|Company: Autodesk"
 90
        0
280
     0
281
     0
  0
CLASS
  1
ACMNOTESTANDARDISO
  2
AmdtNoteStdISO
  3
"Amdt_StdImp|Product Description: AutoCAD Mechanical 2004 DX|Company: Autodesk"
 90
        0
280
     0
281
     0
  0
CLASS
  1
AMDTNOTETEMPLATEDB
  2
AmdtNoteTemplateDB
  3
AMDT_STDIMP_MODULE_NAME
 90
        0
280
     0
281
     0
  0
CLASS
  1
ACAMGLAYSTD
  2
AcAmgLayStd
  3
"AcAmgLayStd|Product Description: AutoCAD Mechanical 2000|Company: Autodesk"
 90
        0
280
     0
281
     0
  0
CLASS
  1
ACAMGDIMSTD
  2
AcAmgDimStd
  3
"AcAmgDimStd|Product Description: AutoCAD Mechanical 2000|Company: Autodesk"
 90
        0
280
     0
281
     0
  0
CLASS
  1
ACAMGHOLECHARTSTDISO
  2
AcAmgHoleChartStdISO
  3
ACMSYMBB_MODULE_NAME
 90
        0
280
     0
281
     0
  0
CLASS
  1
ACAMGTITLESTD
  2
AcAmgTitleStd
  3
"TITLEAPP"
 90
        0
280
     0
281
     0
  0
CLASS
  1
ACMTHREADLINESTANDARDISO
  2
AmdtThreadLineStdISO
  3
"Amdt_StdImp|Product Description: AutoCAD Mechanical 2004 DX|Company: Autodesk"
 90
        0
280
     0
281
     0
  0
CLASS
  1
ACMFCFSTANDARDJIS98
  2
AcmFCFStdJIS98
  3
"Amdt_StdImp|Product Description: AutoCAD Mechanical 2004 DX|Company: Autodesk"
 90
        0
280
     0
281
     0
  0
CLASS
  1
ACMDETAILSTANDARDJIS
  2
AmdtDetailSymStdJIS
  3
"Amdt_StdImp|Product Description: AutoCAD Mechanical 2004 DX|Company: Autodesk"
 90
        0
280
     0
281
     0
  0
CLASS
  1
ACMSECTIONSTANDARDJIS
  2
AmdtSectionSymStdJIS
  3
"Amdt_StdImp|Product Description: AutoCAD Mechanical 2004 DX|Company: Autodesk"
 90
        0
280
     0
281
     0
  0
CLASS
  1
ACMCENTERLINESTANDARDJIS
  2
AmdtCenterLineStdJIS
  3
"Amdt_StdImp|Product Description: AutoCAD Mechanical 2004 DX|Company: Autodesk"
 90
        0
280
     0
281
     0
  0
CLASS
  1
ACMTHREADLINESTANDARDJIS
  2
AmdtThreadLineStdJIS
  3
"Amdt_StdImp|Product Description: AutoCAD Mechanical 2004 DX|Company: Autodesk"
 90
        0
280
     0
281
     0
  0
CLASS
  1
ACMNOTESTANDARDJIS
  2
AmdtNoteStdJIS
  3
"Amdt_StdImp|Product Description: AutoCAD Mechanical 2004 DX|Company: Autodesk"
 90
        0
280
     0
281
     0
  0
CLASS
  1
ACAMGHOLECHARTSTDJIS
  2
AcAmgHoleChartStdJIS
  3
ACMSYMBB_MODULE_NAME
 90
        0
280
     0
281
     0
  0
ENDSEC
  0
SECTION
  2
TABLES
  0
TABLE
  2
VPORT
  5
8
330
0
100
AcDbSymbolTable
 70
     3
  0
VPORT
  5
873F
330
8
100
AcDbSymbolTableRecord
100
AcDbViewportTableRecord
  2
*Active
 70
     0
 10
0.0
 20
0.0
 11
1.0
 21
1.0
 12
-68.04925792447676
 22
-18.43783112171756
 13
0.0
 23
0.0
 14
2.5
 24
2.5
 15
10.0
 25
10.0
 16
0.0
 26
0.0
 36
1.0
 17
0.0
 27
0.0
 37
0.0
 40
110.2148046411365
 41
1.552631578947368
 42
50.0
 43
0.0
 44
0.0
 50
0.0
 51
0.0
 71
     0
 72
   100
 73
     1
 74
     3
 75
     0
 76
     0
 77
     0
 78
     0
281
     0
 65
     1
110
-0.0000000000002682
120
0.000000000000161
130
0.0
111
1.0
121
0.000000000000002
131
0.0
112
-0.000000000000002
122
1.0
132
0.0
 79
     0
146
0.0
  0
ENDTAB
  0
TABLE
  2
LTYPE
  5
5
330
0
100
AcDbSymbolTable
 70
    17
  0
LTYPE
  5
14
330
5
100
AcDbSymbolTableRecord
100
AcDbLinetypeTableRecord
  2
BYBLOCK
 70
     0
  3

 72
    65
 73
     0
 40
0.0
  0
LTYPE
  5
15
330
5
100
AcDbSymbolTableRecord
100
AcDbLinetypeTableRecord
  2
BYLAYER
 70
     0
  3

 72
    65
 73
     0
 40
0.0
  0
LTYPE
  5
16
330
5
100
AcDbSymbolTableRecord
100
AcDbLinetypeTableRecord
  2
CONTINUOUS
 70
     0
  3
Solid line
 72
    65
 73
     0
 40
0.0
  0
LTYPE
  5
4B
330
5
100
AcDbSymbolTableRecord
100
AcDbLinetypeTableRecord
  2
AM_ISO02W050
 70
     0
  3
__ __ __ __ __ __ __ __ __ __ __ __ __ __ __
 72
    65
 73
     2
 40
7.5
 49
6.0
 74
     0
 49
-1.5
 74
     0
  0
LTYPE
  5
4C
330
5
100
AcDbSymbolTableRecord
100
AcDbLinetypeTableRecord
  2
AM_ISO08W050
 70
     0
  3
____ . ____ . ____ . ____ . ____ . ____ . ____
 72
    65
 73
     4
 40
18.0
 49
12.0
 74
     0
 49
-1.5
 74
     0
 49
3.0
 74
     0
 49
-1.5
 74
     0
  0
LTYPE
  5
4D
330
5
100
AcDbSymbolTableRecord
100
AcDbLinetypeTableRecord
  2
AM_ISO09W050
 70
     0
  3
_____ . . _____ . . _____ . . ____ .. ____
 72
    65
 73
     6
 40
22.5
 49
12.0
 74
     0
 49
-1.5
 74
     0
 49
3.0
 74
     0
 49
-1.5
 74
     0
 49
3.0
 74
     0
 49
-1.5
 74
     0
  0
LTYPE
  5
4E
330
5
100
AcDbSymbolTableRecord
100
AcDbLinetypeTableRecord
  2
Amconstr
 70
     0
  3
_______________________
 72
    65
 73
     2
 40
9999.0
 49
9999.0
 74
     0
 49
0.0
 74
     0
  0
LTYPE
  5
4F
330
5
100
AcDbSymbolTableRecord
100
AcDbLinetypeTableRecord
  2
AM_ISO02W050x2
 70
     0
  3
 _ _ _ _ _ _ _ _ _ _ _ _
 72
    65
 73
     2
 40
3.75
 49
3.0
 74
     0
 49
-0.75
 74
     0
  0
LTYPE
  5
50
330
5
100
AcDbSymbolTableRecord
100
AcDbLinetypeTableRecord
  2
AM_ISO08W050x2
 70
     0
  3
__ . __ . __ . __ . __ . __
 72
    65
 73
     4
 40
9.0
 49
6.0
 74
     0
 49
-0.75
 74
     0
 49
1.5
 74
     0
 49
-0.75
 74
     0
  0
LTYPE
  5
53
330
5
100
AcDbSymbolTableRecord
100
AcDbLinetypeTableRecord
  2
Amzigzag
 70
     0
  3
/\/-/\/-/\/-/\/-/\/-/\/
 72
    65
 73
     2
 40
11.0001
 49
0.0001
 74
     4
 75
   135
340
52
 46
0.04
 50
0.0
 44
0.0
 45
0.0
 49
-11.0
 74
     0
  0
LTYPE
  5
166
330
5
100
AcDbSymbolTableRecord
100
AcDbLinetypeTableRecord
  2
ACJISTGL
 70
     0
  3
_ _ _ _ _
 72
    65
 73
     2
 40
3.0
 49
2.0
 74
     0
 49
-1.0
 74
     0
  0
LTYPE
  5
26A
330
5
100
AcDbSymbolTableRecord
100
AcDbLinetypeTableRecord
  2
ACJISTGB
 70
     0
  3
__ . . __ . .
 72
    65
 73
     6
 40
9.0
 49
4.0
 74
     0
 49
-1.0
 74
     0
 49
1.0
 74
     0
 49
-1.0
 74
     0
 49
1.0
 74
     0
 49
-1.0
 74
     0
  0
LTYPE
  5
86B7
330
5
100
AcDbSymbolTableRecord
100
AcDbLinetypeTableRecord
  2
HIDDEN
 70
     0
  3
Hidden __ __ __ __ __ __ __ __ __ __ __ __ __ _
 72
    65
 73
     2
 40
9.524999999999998
 49
6.349999999999999
 74
     0
 49
-3.174999999999999
 74
     0
  0
LTYPE
  5
86B8
330
5
100
AcDbSymbolTableRecord
100
AcDbLinetypeTableRecord
  2
PHANTOM2
 70
     0
  3
Phantom (.5x) ___ _ _ ___ _ _ ___ _ _ ___ _ _
 72
    65
 73
     6
 40
31.75
 49
15.875
 74
     0
 49
-3.174999999999999
 74
     0
 49
3.174999999999999
 74
     0
 49
-3.174999999999999
 74
     0
 49
3.174999999999999
 74
     0
 49
-3.174999999999999
 74
     0
  0
LTYPE
  5
86B9
330
5
100
AcDbSymbolTableRecord
100
AcDbLinetypeTableRecord
  2
CENTER
 70
     0
  3
__ . __
 72
    65
 73
     4
 40
7.0
 49
4.0
 74
     0
 49
-1.0
 74
     0
 49
1.0
 74
     0
 49
-1.0
 74
     0
  0
LTYPE
  5
86EA
330
5
100
AcDbSymbolTableRecord
100
AcDbLinetypeTableRecord
  2
ACISOWELD
 70
     0
  3
_ _ _ _ _
 72
    65
 73
     2
 40
2.0
 49
2.0
 74
     0
 49
-1.0
 74
     0
  0
LTYPE
  5
86ED
330
5
100
AcDbSymbolTableRecord
100
AcDbLinetypeTableRecord
  2
ACISOTGB
 70
     0
  3
__ . . __ . .
 72
    65
 73
     6
 40
9.0
 49
4.0
 74
     0
 49
-1.0
 74
     0
 49
1.0
 74
     0
 49
-1.0
 74
     0
 49
1.0
 74
     0
 49
-1.0
 74
     0
  0
LTYPE
  5
86EE
330
5
100
AcDbSymbolTableRecord
100
AcDbLinetypeTableRecord
  2
ACISOTGL
 70
     0
  3
_ _ _ _ _
 72
    65
 73
     2
 40
3.0
 49
2.0
 74
     0
 49
-1.0
 74
     0
  0
LTYPE
  5
8717
330
5
100
AcDbSymbolTableRecord
100
AcDbLinetypeTableRecord
  2
ACJISWELD
 70
     0
  3
_ _ _ _ _
 72
    65
 73
     2
 40
2.0
 49
2.0
 74
     0
 49
-1.0
 74
     0
  0
ENDTAB
  0
TABLE
  2
LAYER
  5
2
330
0
100
AcDbSymbolTable
 70
     7
  0
LAYER
  5
10
330
2
100
AcDbSymbolTableRecord
100
AcDbLayerTableRecord
  2
0
 70
     0
 62
     7
  6
CONTINUOUS
370
    -3
390
F
  0
LAYER
  5
3F9
330
2
100
AcDbSymbolTableRecord
100
AcDbLayerTableRecord
  2
AM_0
 70
     0
 62
     7
  6
CONTINUOUS
370
    -3
390
F
  0
LAYER
  5
BA4
330
2
100
AcDbSymbolTableRecord
100
AcDbLayerTableRecord
  2
AM_5
 70
     0
 62
     3
  6
CONTINUOUS
370
    -3
390
F
  0
LAYER
  5
BA6
330
2
100
AcDbSymbolTableRecord
100
AcDbLayerTableRecord
  2
AM_7
 70
     0
 62
     4
  6
AM_ISO08W050
370
    -3
390
F
  0
LAYER
  5
E64
330
2
100
AcDbSymbolTableRecord
100
AcDbLayerTableRecord
  2
AM_6
 70
     0
 62
     2
  6
CONTINUOUS
370
    -3
390
F
  0
LAYER
  5
F4D
330
2
100
AcDbSymbolTableRecord
100
AcDbLayerTableRecord
  2
DEFPOINTS
 70
     0
 62
     7
  6
CONTINUOUS
290
     0
370
    -3
390
F
  0
LAYER
  5
4E80
330
2
100
AcDbSymbolTableRecord
100
AcDbLayerTableRecord
  2
AM_11
 70
     0
 62
     3
  6
AM_ISO09W050
370
    -3
390
F
  0
ENDTAB
  0
TABLE
  2
STYLE
  5
3
330
0
100
AcDbSymbolTable
 70
     7
  0
STYLE
  5
11
330
3
100
AcDbSymbolTableRecord
100
AcDbTextStyleTableRecord
  2
STANDARD
 70
     0
 40
0.0
 41
1.0
 50
0.0
 71
     0
 42
2.5
  3
simplex.shx
  4
EXTFONT.SHX
  0
STYLE
  5
52
330
3
100
AcDbSymbolTableRecord
100
AcDbTextStyleTableRecord
  2

 70
     1
 40
0.0
 41
1.0
 50
0.0
 71
     0
 42
2.5
  3
ltypeshp.shx
  4

  0
STYLE
  5
6B
330
3
100
AcDbSymbolTableRecord
100
AcDbTextStyleTableRecord
  2
ASAMI
 70
     0
 40
0.0
 41
1.0
 50
0.0
 71
     0
 42
2.5
  3
simplex.shx
  4
EXTFONT.SHX
  0
STYLE
  5
262
330
3
100
AcDbSymbolTableRecord
100
AcDbTextStyleTableRecord
  2
ACJISTS
 70
     0
 40
1.0
 41
1.0
 50
0.0
 71
     0
 42
1.0
  3
isocp.shx
  4
extfont.shx
  0
STYLE
  5
269
330
3
100
AcDbSymbolTableRecord
100
AcDbTextStyleTableRecord
  2
ACJISGDT
 70
     0
 40
0.0
 41
1.0
 50
0.0
 71
     0
 42
1.0
  3
amgdt.shx
  4

  0
STYLE
  5
86E4
330
3
100
AcDbSymbolTableRecord
100
AcDbTextStyleTableRecord
  2
ACISOTS
 70
     0
 40
3.799999999999999
 41
1.0
 50
0.0
 71
     0
 42
3.799999999999999
  3
isocp.shx
  4
extfont.shx
  0
STYLE
  5
86E8
330
3
100
AcDbSymbolTableRecord
100
AcDbTextStyleTableRecord
  2
ACISOGDT
 70
     0
 40
0.0
 41
1.0
 50
0.0
 71
     0
 42
2.5
  3
amgdt.shx
  4
extfont.shx
  0
ENDTAB
  0
TABLE
  2
VIEW
  5
6
330
0
100
AcDbSymbolTable
 70
     0
  0
ENDTAB
  0
TABLE
  2
UCS
  5
7
330
0
100
AcDbSymbolTable
 70
     0
  0
ENDTAB
  0
TABLE
  2
APPID
  5
9
330
0
100
AcDbSymbolTable
 70
    33
  0
APPID
  5
12
330
9
100
AcDbSymbolTableRecord
100
AcDbRegAppTableRecord
  2
ACAD
 70
     0
  0
APPID
  5
30
330
9
100
AcDbSymbolTableRecord
100
AcDbRegAppTableRecord
  2
MCAD_NO_VIS
 70
     0
  0
APPID
  5
31
330
9
100
AcDbSymbolTableRecord
100
AcDbRegAppTableRecord
  2
ACAD_TEMP_GRAPHIC
 70
     0
  0
APPID
  5
2C2
330
9
100
AcDbSymbolTableRecord
100
AcDbRegAppTableRecord
  2
GENIUS_GENDTOL_13
 70
     0
  0
APPID
  5
339
330
9
100
AcDbSymbolTableRecord
100
AcDbRegAppTableRecord
  2
GENIUS_GENODEF_13
 70
     0
  0
APPID
  5
33A
330
9
100
AcDbSymbolTableRecord
100
AcDbRegAppTableRecord
  2
GENIUS_GENOBJ-N-RSBK_13
 70
     0
  0
APPID
  5
33B
330
9
100
AcDbSymbolTableRecord
100
AcDbRegAppTableRecord
  2
GENIUS_GENOBJ-N-LIB_13
 70
     0
  0
APPID
  5
33C
330
9
100
AcDbSymbolTableRecord
100
AcDbRegAppTableRecord
  2
GENIUS_GENSCALE_13
 70
     0
  0
APPID
  5
378
330
9
100
AcDbSymbolTableRecord
100
AcDbRegAppTableRecord
  2
GENIUS_GENDIMSH_14
 70
     0
  0
APPID
  5
BB0
330
9
100
AcDbSymbolTableRecord
100
AcDbRegAppTableRecord
  2
GENIUS_GENOBJ-N-CEN_13
 70
     0
  0
APPID
  5
BB1
330
9
100
AcDbSymbolTableRecord
100
AcDbRegAppTableRecord
  2
GENIUS_GENFIL_13
 70
     0
  0
APPID
  5
BB2
330
9
100
AcDbSymbolTableRecord
100
AcDbRegAppTableRecord
  2
GENIUS_GENOBJ-N-CHA_13
 70
     0
  0
APPID
  5
1FAF
330
9
100
AcDbSymbolTableRecord
100
AcDbRegAppTableRecord
  2
GENIUS_GENOBJ-N-CRS_13
 70
     0
  0
APPID
  5
1FB0
330
9
100
AcDbSymbolTableRecord
100
AcDbRegAppTableRecord
  2
GENIUS_GENOENT_13
 70
     0
  0
APPID
  5
1FB1
330
9
100
AcDbSymbolTableRecord
100
AcDbRegAppTableRecord
  2
GENIUS_GENOREF_13
 70
     0
  0
APPID
  5
1FB2
330
9
100
AcDbSymbolTableRecord
100
AcDbRegAppTableRecord
  2
GENIUS_GENOLIS_13
 70
     0
  0
APPID
  5
1FB7
330
9
100
AcDbSymbolTableRecord
100
AcDbRegAppTableRecord
  2
GENIUS_GENOBJ-N-FIL_13
 70
     0
  0
APPID
  5
22A8
330
9
100
AcDbSymbolTableRecord
100
AcDbRegAppTableRecord
  2
GEVID1056506048
 70
     0
  0
APPID
  5
22A9
330
9
100
AcDbSymbolTableRecord
100
AcDbRegAppTableRecord
  2
GEVDC
 70
     0
  0
APPID
  5
22AC
330
9
100
AcDbSymbolTableRecord
100
AcDbRegAppTableRecord
  2
GENIUS_GENBH_13
 70
     0
  0
APPID
  5
22B8
330
9
100
AcDbSymbolTableRecord
100
AcDbRegAppTableRecord
  2
GENIUS_GENOBJ-NBEHI-BHF_13
 70
     0
  0
APPID
  5
22BA
330
9
100
AcDbSymbolTableRecord
100
AcDbRegAppTableRecord
  2
GENIUS_GENOBJ-NBEHI-BHB_13
 70
     0
  0
APPID
  5
35C9
330
9
100
AcDbSymbolTableRecord
100
AcDbRegAppTableRecord
  2
GENIUS_GENREC_14
 70
     0
  0
APPID
  5
35CA
330
9
100
AcDbSymbolTableRecord
100
AcDbRegAppTableRecord
  2
GENIUS_GENOBJ-N-REC_13
 70
     0
  0
APPID
  5
8680
330
9
100
AcDbSymbolTableRecord
100
AcDbRegAppTableRecord
  2
ACATTRIBSERVICES
 70
     0
  0
APPID
  5
8681
330
9
100
AcDbSymbolTableRecord
100
AcDbRegAppTableRecord
  2
AD_DRAW
 70
     0
  0
APPID
  5
8682
330
9
100
AcDbSymbolTableRecord
100
AcDbRegAppTableRecord
  2
DESIGNERASSEMBLIES
 70
     0
  0
APPID
  5
8683
330
9
100
AcDbSymbolTableRecord
100
AcDbRegAppTableRecord
  2
ACADM_DIM_EDIT
 70
     0
  0
APPID
  5
8684
330
9
100
AcDbSymbolTableRecord
100
AcDbRegAppTableRecord
  2
AMDT_DM_ADJ
 70
     0
  0
APPID
  5
8685
330
9
100
AcDbSymbolTableRecord
100
AcDbRegAppTableRecord
  2
ACAD_DSTYLE_DIMTEXT_FILL
 70
     0
  0
APPID
  5
8686
330
9
100
AcDbSymbolTableRecord
100
AcDbRegAppTableRecord
  2
ACAD_PSEXT
 70
     0
  0
APPID
  5
8739
330
9
100
AcDbSymbolTableRecord
100
AcDbRegAppTableRecord
  2
GENIUS_GENSCREG_15
 70
     0
  0
APPID
  5
873A
330
9
100
AcDbSymbolTableRecord
100
AcDbRegAppTableRecord
  2
GENIUS_GENOBJ-N-SDF_13
 70
     0
  0
ENDTAB
  0
TABLE
  2
DIMSTYLE
  5
A
330
0
100
AcDbSymbolTable
 70
    16
100
AcDbDimStyleTable
 71
     0
  0
DIMSTYLE
105
58
330
A
100
AcDbSymbolTableRecord
100
AcDbDimStyleTableRecord
  2
AM_JIS
 70
     0
  4
"
 41
2.5
 42
1.0
 43
10.0
 44
1.0
 47
0.1
 48
0.1000000001
 73
     0
 74
     0
 77
     3
 78
     8
 79
     2
140
3.799999999999999
141
0.0
143
0.0393701
146
0.71
147
1.5
172
     1
176
   256
177
   256
178
     2
271
     2
272
     2
275
     1
283
     0
284
     8
340
11
341
59
342
59
371
    -1
372
    -1
  0
DIMSTYLE
105
5F
330
A
100
AcDbSymbolTableRecord
100
AcDbDimStyleTableRecord
  2
AM_JIS$3
 70
     0
  4
"
 41
2.5
 42
1.0
 43
10.0
 44
1.0
 47
0.1
 48
0.1000000001
 73
     0
 77
     3
 78
     8
 79
     2
140
3.799999999999999
141
0.0
143
0.0393701
146
0.71
147
1.5
176
   256
177
   256
178
     2
271
     2
272
     2
275
     1
283
     0
284
     8
288
     1
289
     0
340
11
341
59
342
59
371
    -1
372
    -1
  0
DIMSTYLE
105
60
330
A
100
AcDbSymbolTableRecord
100
AcDbDimStyleTableRecord
  2
AM_JIS$4
 70
     0
  4
"
 41
2.5
 42
1.0
 43
10.0
 44
1.0
 47
0.1
 48
0.1000000001
 73
     0
 77
     3
 78
     8
 79
     2
140
3.799999999999999
141
0.0
143
0.0393701
146
0.71
147
1.5
176
   256
177
   256
178
     2
271
     2
272
     2
275
     1
283
     0
284
     8
288
     1
289
     0
340
11
341
59
342
59
371
    -1
372
    -1
  0
DIMSTYLE
105
61
330
A
100
AcDbSymbolTableRecord
100
AcDbDimStyleTableRecord
  2
AM_JIS$6
 70
     0
  4
"
 41
2.5
 42
1.0
 43
10.0
 44
1.0
 47
0.1
 48
0.1000000001
 73
     0
 74
     0
 78
     8
 79
     2
140
3.799999999999999
141
0.0
143
0.0393701
146
0.71
147
1.5
172
     1
176
   256
177
   256
178
     2
271
     2
272
     2
275
     1
283
     0
284
     8
340
11
341
59
342
59
371
    -1
372
    -1
  0
DIMSTYLE
105
62
330
A
100
AcDbSymbolTableRecord
100
AcDbDimStyleTableRecord
  2
AM_JIS$7
 70
     0
  4
"
 41
2.5
 42
1.0
 43
10.0
 44
1.0
 47
0.1
 48
0.1000000001
 73
     0
 74
     0
 77
     3
 78
     8
 79
     2
140
5.0
141
0.0
143
0.0393701
146
0.71
147
1.5
172
     1
176
   256
177
   256
178
     2
271
     2
272
     2
275
     1
283
     0
284
     8
340
11
341
59
342
59
371
    -1
372
    -1
  0
DIMSTYLE
105
63
330
A
100
AcDbSymbolTableRecord
100
AcDbDimStyleTableRecord
  2
AM_JIS$SF
 70
     0
  4
"
 41
2.5
 42
1.0
 43
10.0
 44
1.0
 47
0.1
 48
0.1
 73
     0
 74
     0
 75
     1
 76
     1
 77
     3
 78
     8
 79
     2
140
3.5
141
0.0
143
0.0393701
146
0.71
147
1.5
172
     1
176
   256
177
   256
178
     2
271
     2
272
     3
274
     4
283
     0
284
     8
340
11
341
59
342
59
343
59
344
59
371
    -1
372
    -1
  0
DIMSTYLE
105
68
330
A
100
AcDbSymbolTableRecord
100
AcDbDimStyleTableRecord
  2
AM_JIS$SH
 70
     0
  4
"
 41
2.5
 42
1.0
 43
10.0
 44
1.0
 47
0.1
 48
0.1
 73
     0
 74
     0
 75
     1
 76
     1
 77
     3
 78
     8
 79
     2
140
3.5
141
0.0
143
0.0393701
144
2.0
146
0.71
147
1.5
172
     1
173
     1
176
   256
177
   256
178
     2
271
     2
272
     3
274
     4
283
     0
284
     8
340
11
341
59
342
59
343
64
344
59
371
    -1
372
    -1
  0
DIMSTYLE
105
B34
330
A
100
AcDbSymbolTableRecord
100
AcDbDimStyleTableRecord
  2
AM_JIS$2
 70
     0
  4
"
 41
2.5
 42
1.0
 43
12.0
 44
1.0
 47
0.1
 48
0.1
 73
     0
 74
     0
 77
     3
 78
     8
140
3.2
141
0.0
143
0.0393701
146
0.71
147
1.5
172
     1
176
   256
177
   256
178
     2
271
     3
272
     3
283
     0
340
6B
341
59
342
59
  0
DIMSTYLE
105
3B48
102
{ACAD_REACTORS
330
7EC4
330
7F63
330
80A8
330
801C
330
814F
330
8286
330
8331
102
}
330
A
100
AcDbSymbolTableRecord
100
AcDbDimStyleTableRecord
  2
AM_JIS$0
 70
     0
  4
"
 41
2.5
 42
0.0
 43
10.0
 44
1.0
 47
0.1
 48
0.1000000001
 73
     0
 74
     0
 77
     3
 78
     1
140
3.799999999999998
141
0.0
143
0.0393701
146
0.71
147
1.5
172
     1
176
     3
177
     3
178
     2
271
     2
272
     2
275
     1
283
     0
284
     8
340
11
341
59
342
59
  0
DIMSTYLE
105
8703
330
A
100
AcDbSymbolTableRecord
100
AcDbDimStyleTableRecord
  2
AM_ISO
 70
     0
  4
"
 41
2.5
 42
1.0
 43
10.0
 44
1.0
 47
0.1
 48
0.1
 73
     0
 74
     0
 77
     1
 78
     8
 79
     2
140
3.5
141
0.0
143
0.0393701
146
0.71
147
1.5
172
     1
176
   256
177
   256
178
     2
271
     2
272
     3
274
     4
283
     0
284
     8
340
11
371
    -1
372
    -1
  0
DIMSTYLE
105
8704
330
A
100
AcDbSymbolTableRecord
100
AcDbDimStyleTableRecord
  2
AM_ISO$3
 70
     0
  4
"
 41
2.5
 42
1.0
 43
10.0
 44
1.0
 47
0.1
 48
0.1
 73
     0
 77
     1
 78
     8
 79
     2
140
3.5
141
0.0
143
0.0393701
146
0.71
147
1.5
176
   256
177
   256
178
     2
271
     2
272
     3
274
     4
283
     0
284
     8
288
     1
289
     0
340
11
371
    -1
372
    -1
  0
DIMSTYLE
105
8705
330
A
100
AcDbSymbolTableRecord
100
AcDbDimStyleTableRecord
  2
AM_ISO$4
 70
     0
  4
"
 41
2.5
 42
1.0
 43
10.0
 44
1.0
 47
0.1
 48
0.1
 73
     0
 77
     1
 78
     8
 79
     2
140
3.5
141
0.0
143
0.0393701
146
0.71
147
1.5
176
   256
177
   256
178
     2
271
     2
272
     3
274
     4
283
     0
284
     8
288
     1
289
     0
340
11
371
    -1
372
    -1
  0
DIMSTYLE
105
8706
330
A
100
AcDbSymbolTableRecord
100
AcDbDimStyleTableRecord
  2
AM_ISO$6
 70
     0
  4
"
 41
2.5
 42
1.0
 43
10.0
 44
1.0
 47
0.1
 48
0.1
 73
     0
 74
     0
 78
     8
 79
     2
140
3.5
141
0.0
143
0.0393701
146
0.71
147
1.5
172
     1
176
   256
177
   256
178
     2
271
     2
272
     3
274
     4
283
     0
284
     8
340
11
371
    -1
372
    -1
  0
DIMSTYLE
105
8707
330
A
100
AcDbSymbolTableRecord
100
AcDbDimStyleTableRecord
  2
AM_ISO$7
 70
     0
  4
"
 41
2.5
 42
1.0
 43
10.0
 44
1.0
 47
0.1
 48
0.1
 73
     0
 74
     0
 77
     1
 78
     8
 79
     2
140
5.0
141
0.0
143
0.0393701
146
0.71
147
1.5
172
     1
176
   256
177
   256
178
     2
271
     2
272
     3
274
     4
283
     0
284
     8
340
11
371
    -1
372
    -1
  0
DIMSTYLE
105
8708
330
A
100
AcDbSymbolTableRecord
100
AcDbDimStyleTableRecord
  2
AM_ISO$SF
 70
     0
  4
"
 41
2.5
 42
1.0
 43
10.0
 44
1.0
 47
0.1
 48
0.1
 73
     0
 74
     0
 75
     1
 76
     1
 77
     1
 78
     8
 79
     2
140
3.5
141
0.0
143
0.0393701
146
0.71
147
1.5
172
     1
176
   256
177
   256
178
     2
271
     2
272
     3
274
     4
283
     0
284
     8
340
11
371
    -1
372
    -1
  0
DIMSTYLE
105
8709
330
A
100
AcDbSymbolTableRecord
100
AcDbDimStyleTableRecord
  2
AM_ISO$SH
 70
     0
  4
"
 41
2.5
 42
1.0
 43
10.0
 44
1.0
 47
0.1
 48
0.1
 73
     0
 74
     0
 75
     1
 76
     1
 77
     1
 78
     8
 79
     2
140
3.5
141
0.0
143
0.0393701
144
2.0
146
0.71
147
1.5
172
     1
173
     1
176
   256
177
   256
178
     2
271
     2
272
     3
274
     4
283
     0
284
     8
340
11
343
64
371
    -1
372
    -1
  0
ENDTAB
  0
TABLE
  2
BLOCK_RECORD
  5
1
330
0
100
AcDbSymbolTable
 70
    10
  0
BLOCK_RECORD
  5
1F
102
{ACAD_XDICTIONARY
360
74
102
}
330
1
100
AcDbSymbolTableRecord
100
AcDbBlockTableRecord
  2
*MODEL_SPACE
340
867B
  0
BLOCK_RECORD
  5
101
102
{ACAD_XDICTIONARY
360
8630
102
}
330
1
100
AcDbSymbolTableRecord
100
AcDbBlockTableRecord
  2
*PAPER_SPACE
340
867C
  0
BLOCK_RECORD
  5
59
330
1
100
AcDbSymbolTableRecord
100
AcDbBlockTableRecord
  2
_Open30
340
0
  0
BLOCK_RECORD
  5
64
330
1
100
AcDbSymbolTableRecord
100
AcDbBlockTableRecord
  2
GENAXEH
340
0
  0
BLOCK_RECORD
  5
7EC5
330
1
100
AcDbSymbolTableRecord
100
AcDbBlockTableRecord
  2
*D2
340
0
  0
BLOCK_RECORD
  5
7F64
330
1
100
AcDbSymbolTableRecord
100
AcDbBlockTableRecord
  2
*D3
340
0
  0
BLOCK_RECORD
  5
801D
330
1
100
AcDbSymbolTableRecord
100
AcDbBlockTableRecord
  2
*D4
340
0
  0
BLOCK_RECORD
  5
80A9
330
1
100
AcDbSymbolTableRecord
100
AcDbBlockTableRecord
  2
*D5
340
0
  0
BLOCK_RECORD
  5
8150
330
1
100
AcDbSymbolTableRecord
100
AcDbBlockTableRecord
  2
*D6
340
0
  0
BLOCK_RECORD
  5
8287
330
1
100
AcDbSymbolTableRecord
100
AcDbBlockTableRecord
  2
*D7
340
0
  0
BLOCK_RECORD
  5
8332
330
1
100
AcDbSymbolTableRecord
100
AcDbBlockTableRecord
  2
*D8
340
0
  0
ENDTAB
  0
ENDSEC
  0
SECTION
  2
BLOCKS
  0
BLOCK
  5
20
330
1F
100
AcDbEntity
  8
0
100
AcDbBlockBegin
  2
*MODEL_SPACE
 70
     0
 10
0.0
 20
0.0
 30
0.0
  3
*MODEL_SPACE
  1

  0
ENDBLK
  5
21
330
1F
100
AcDbEntity
  8
0
100
AcDbBlockEnd
  0
BLOCK
  5
103
330
101
100
AcDbEntity
 67
     1
  8
0
100
AcDbBlockBegin
  2
*PAPER_SPACE
 70
     0
 10
0.0
 20
0.0
 30
0.0
  3
*PAPER_SPACE
  1

  0
ENDBLK
  5
104
330
101
100
AcDbEntity
 67
     1
  8
0
100
AcDbBlockEnd
  0
BLOCK
  5
872B
330
59
100
AcDbEntity
  8
0
100
AcDbBlockBegin
  2
_Open30
 70
     0
 10
0.0
 20
0.0
 30
0.0
  3
_Open30
  1

  0
LINE
  5
872C
330
59
100
AcDbEntity
  8
0
  6
ByBlock
 62
     0
370
    -2
100
AcDbLine
 10
-1.0
 20
0.26794919
 30
0.0
 11
0.0
 21
0.0
 31
0.0
  0
LINE
  5
872D
330
59
100
AcDbEntity
  8
0
  6
ByBlock
 62
     0
370
    -2
100
AcDbLine
 10
0.0
 20
0.0
 30
0.0
 11
-1.0
 21
-0.26794919
 31
0.0
  0
LINE
  5
872E
330
59
100
AcDbEntity
  8
0
  6
ByBlock
 62
     0
370
    -2
100
AcDbLine
 10
0.0
 20
0.0
 30
0.0
 11
-1.0
 21
0.0
 31
0.0
  0
ENDBLK
  5
872F
330
59
100
AcDbEntity
  8
0
100
AcDbBlockEnd
  0
BLOCK
  5
870B
330
64
100
AcDbEntity
  8
0
100
AcDbBlockBegin
  2
GENAXEH
 70
     0
 10
0.0
 20
0.0
 30
0.0
  3
GENAXEH
  1

  0
LINE
  5
870C
330
64
100
AcDbEntity
  8
0
100
AcDbLine
 10
-1.0
 20
0.0
 30
0.0
 11
1.0
 21
0.0
 31
0.0
  0
ENDBLK
  5
870D
330
64
100
AcDbEntity
  8
0
100
AcDbBlockEnd
  0
BLOCK
  5
7ECF
330
7EC5
100
AcDbEntity
  8
0
100
AcDbBlockBegin
  2
*D2
 70
     1
 10
0.0
 20
0.0
 30
0.0
  3
*D2
  1

  0
LINE
  5
8632
330
7EC5
100
AcDbEntity
  8
AM_5
100
AcDbLine
 10
-8.000000202214936
 20
4.779089922455379
 30
0.0
 11
17.12893990686982
 21
4.779089922455428
 31
0.0
  0
LINE
  5
8633
330
7EC5
100
AcDbEntity
  8
AM_5
100
AcDbLine
 10
-8.000000202214902
 20
-4.779089922447401
 30
0.0
 11
17.12893990686985
 21
-4.779089922447352
 31
0.0
  0
LINE
  5
8634
330
7EC5
100
AcDbEntity
  8
AM_5
100
AcDbLine
 10
16.12893990686983
 20
2.279089922455426
 30
0.0
 11
16.12893990686984
 21
-2.279089922447353
 31
0.0
  0
INSERT
  5
8635
330
7EC5
100
AcDbEntity
  8
AM_5
100
AcDbBlockReference
  2
_Open30
 10
16.12893990686982
 20
4.779089922455425
 30
0.0
 41
2.5
 42
2.5
 43
2.5
 50
90.0000000000001
  0
INSERT
  5
8636
330
7EC5
100
AcDbEntity
  8
AM_5
100
AcDbBlockReference
  2
_Open30
 10
16.12893990686985
 20
-4.779089922447353
 30
0.0
 41
2.5
 42
2.5
 43
2.5
 50
270.0000000000001
  0
MTEXT
  5
8637
330
7EC5
100
AcDbEntity
  8
AM_5
 62
     2
100
AcDbMText
 10
13.02893990686983
 20
0.0000000000040296
 30
0.0
 40
3.2
 41
0.0
 71
     5
 72
     1
  1
%%c10
  7
ASAMI
 11
-0.000000000000002
 21
1.0
 31
0.0
 73
     1
 44
1.0
1001
ACAD
1000
MTEXTBEGIN
1070
    73
1070
     1
1070
    44
1040
1.0
1070
    74
1070
     0
1000
MTEXTEND
  0
POINT
  5
8638
330
7EC5
100
AcDbEntity
  8
DEFPOINTS
 62
     0
100
AcDbPoint
 10
-9.000000202214927
 20
4.779089922455398
 30
0.0
  0
POINT
  5
8639
330
7EC5
100
AcDbEntity
  8
DEFPOINTS
 62
     0
100
AcDbPoint
 10
-9.000000202214911
 20
-4.779089922447382
 30
0.0
  0
POINT
  5
863A
330
7EC5
100
AcDbEntity
  8
DEFPOINTS
 62
     0
100
AcDbPoint
 10
16.12893990686983
 20
-4.779089922447389
 30
0.0
  0
ENDBLK
  5
7ED0
330
7EC5
100
AcDbEntity
  8
0
100
AcDbBlockEnd
  0
BLOCK
  5
7F6E
330
7F64
100
AcDbEntity
  8
0
100
AcDbBlockBegin
  2
*D3
 70
     1
 10
0.0
 20
0.0
 30
0.0
  3
*D3
  1

  0
LINE
  5
863B
330
7F64
100
AcDbEntity
  8
AM_5
100
AcDbLine
 10
-9.000000202214939
 20
5.779089922455365
 30
0.0
 11
-9.00000020221497
 21
22.99725133540126
 31
0.0
  0
LINE
  5
863C
330
7F64
100
AcDbEntity
  8
AM_5
100
AcDbLine
 10
-0.0000002022149294
 20
1.00000000000405
 30
0.0
 11
-0.0000002022149725
 21
22.99725133540127
 31
0.0
  0
LINE
  5
863D
330
7F64
100
AcDbEntity
  8
AM_5
100
AcDbLine
 10
-6.500000202214969
 20
21.99725133540126
 30
0.0
 11
-2.50000020221497
 21
21.99725133540127
 31
0.0
  0
INSERT
  5
863E
330
7F64
100
AcDbEntity
  8
AM_5
100
AcDbBlockReference
  2
_Open30
 10
-9.00000020221497
 20
21.99725133540125
 30
0.0
 41
2.5
 42
2.5
 43
2.5
 50
180.0000000000001
  0
INSERT
  5
863F
330
7F64
100
AcDbEntity
  8
AM_5
100
AcDbBlockReference
  2
_Open30
 10
-0.0000002022149706
 20
21.99725133540127
 30
0.0
 41
2.5
 42
2.5
 43
2.5
 50
0.0000000000001018
  0
MTEXT
  5
8640
330
7F64
100
AcDbEntity
  8
AM_5
 62
     2
100
AcDbMText
 10
-4.500000202214976
 20
25.09725133540126
 30
0.0
 40
3.2
 41
0.0
 71
     5
 72
     1
  1
9
  7
ASAMI
 73
     1
 44
1.0
1001
ACAD
1000
MTEXTBEGIN
1070
    73
1070
     1
1070
    44
1040
1.0
1070
    74
1070
     0
1000
MTEXTEND
  0
POINT
  5
8641
330
7F64
100
AcDbEntity
  8
DEFPOINTS
 62
     0
100
AcDbPoint
 10
-9.000000202214927
 20
4.779089922455383
 30
0.0
  0
POINT
  5
8642
330
7F64
100
AcDbEntity
  8
DEFPOINTS
 62
     0
100
AcDbPoint
 10
-0.0000002022149275
 20
0.0000000000040501
 30
0.0
  0
POINT
  5
8643
330
7F64
100
AcDbEntity
  8
DEFPOINTS
 62
     0
100
AcDbPoint
 10
-0.0000002022149261
 20
21.99725133540127
 30
0.0
  0
ENDBLK
  5
7F6F
330
7F64
100
AcDbEntity
  8
0
100
AcDbBlockEnd
  0
BLOCK
  5
8027
330
801D
100
AcDbEntity
  8
0
100
AcDbBlockBegin
  2
*D4
 70
     1
 10
0.0
 20
0.0
 30
0.0
  3
*D4
  1

  0
LINE
  5
8644
330
801D
100
AcDbEntity
  8
AM_5
100
AcDbLine
 10
-130.0000000000001
 20
-7.997249999996505
 30
0.0
 11
-130.0
 21
-32.99725100999632
 31
0.0
  0
LINE
  5
8645
330
801D
100
AcDbEntity
  8
AM_5
100
AcDbLine
 10
-35.00000000000017
 20
-8.997249999996126
 30
0.0
 11
-35.00000000000012
 21
-32.99725100999613
 31
0.0
  0
LINE
  5
8646
330
801D
100
AcDbEntity
  8
AM_5
100
AcDbLine
 10
-127.5
 20
-31.99725100999632
 30
0.0
 11
-37.50000000000012
 21
-31.99725100999613
 31
0.0
  0
INSERT
  5
8647
330
801D
100
AcDbEntity
  8
AM_5
100
AcDbBlockReference
  2
_Open30
 10
-130.0
 20
-31.99725100999632
 30
0.0
 41
2.5
 42
2.5
 43
2.5
 50
180.0000000000001
  0
INSERT
  5
8648
330
801D
100
AcDbEntity
  8
AM_5
100
AcDbBlockReference
  2
_Open30
 10
-35.00000000000012
 20
-31.99725100999613
 30
0.0
 41
2.5
 42
2.5
 43
2.5
 50
0.0000000000001018
  0
MTEXT
  5
8649
330
801D
100
AcDbEntity
  8
AM_5
 62
     2
100
AcDbMText
 10
-82.50000000000012
 20
-28.89725100999623
 30
0.0
 40
3.2
 41
0.0
 71
     5
 72
     1
  1
95
  7
ASAMI
 73
     1
 44
1.0
1001
ACAD
1000
MTEXTBEGIN
1070
    73
1070
     1
1070
    44
1040
1.0
1070
    74
1070
     0
1000
MTEXTEND
  0
POINT
  5
864A
330
801D
100
AcDbEntity
  8
DEFPOINTS
 62
     0
100
AcDbPoint
 10
-130.0000000000001
 20
-6.997249999996242
 30
0.0
  0
POINT
  5
864B
330
801D
100
AcDbEntity
  8
DEFPOINTS
 62
     0
100
AcDbPoint
 10
-35.00000000000019
 20
-7.997249999996057
 30
0.0
  0
POINT
  5
864C
330
801D
100
AcDbEntity
  8
DEFPOINTS
 62
     0
100
AcDbPoint
 10
-35.00000000000019
 20
-31.99725100999606
 30
0.0
  0
ENDBLK
  5
8028
330
801D
100
AcDbEntity
  8
0
100
AcDbBlockEnd
  0
BLOCK
  5
80B3
330
80A9
100
AcDbEntity
  8
0
100
AcDbBlockBegin
  2
*D5
 70
     1
 10
0.0
 20
0.0
 30
0.0
  3
*D5
  1

  0
LINE
  5
864D
330
80A9
100
AcDbEntity
  8
AM_5
100
AcDbLine
 10
-35.00000000000015
 20
-8.997249999996126
 30
0.0
 11
-35.00000000000011
 21
-32.99725100999613
 31
0.0
  0
LINE
  5
864E
330
80A9
100
AcDbEntity
  8
AM_5
100
AcDbLine
 10
-0.0000002022149184
 20
-0.9999999999959355
 30
0.0
 11
-0.0000002022148557
 21
-32.99725100999606
 31
0.0
  0
LINE
  5
864F
330
80A9
100
AcDbEntity
  8
AM_5
100
AcDbLine
 10
-32.50000000000011
 20
-31.99725100999613
 30
0.0
 11
-2.500000202214856
 21
-31.99725100999606
 31
0.0
  0
INSERT
  5
8650
330
80A9
100
AcDbEntity
  8
AM_5
100
AcDbBlockReference
  2
_Open30
 10
-35.00000000000011
 20
-31.99725100999613
 30
0.0
 41
2.5
 42
2.5
 43
2.5
 50
180.0000000000001
  0
INSERT
  5
8651
330
80A9
100
AcDbEntity
  8
AM_5
100
AcDbBlockReference
  2
_Open30
 10
-0.0000002022148576
 20
-31.99725100999606
 30
0.0
 41
2.5
 42
2.5
 43
2.5
 50
0.0000000000001018
  0
MTEXT
  5
8652
330
80A9
100
AcDbEntity
  8
AM_5
 62
     2
100
AcDbMText
 10
-17.50000010110749
 20
-28.89725100999609
 30
0.0
 40
3.2
 41
0.0
 71
     5
 72
     1
  1
35
  7
ASAMI
 73
     1
 44
1.0
1001
ACAD
1000
MTEXTBEGIN
1070
    73
1070
     1
1070
    44
1040
1.0
1070
    74
1070
     0
1000
MTEXTEND
  0
POINT
  5
8653
330
80A9
100
AcDbEntity
  8
DEFPOINTS
 62
     0
100
AcDbPoint
 10
-35.00000000000017
 20
-7.997249999996057
 30
0.0
  0
POINT
  5
8654
330
80A9
100
AcDbEntity
  8
DEFPOINTS
 62
     0
100
AcDbPoint
 10
-0.0000002022149204
 20
0.0000000000040643
 30
0.0
  0
POINT
  5
8655
330
80A9
100
AcDbEntity
  8
DEFPOINTS
 62
     0
100
AcDbPoint
 10
-0.0000002022149223
 20
-31.99725100999606
 30
0.0
  0
ENDBLK
  5
80B4
330
80A9
100
AcDbEntity
  8
0
100
AcDbBlockEnd
  0
BLOCK
  5
815A
330
8150
100
AcDbEntity
  8
0
100
AcDbBlockBegin
  2
*D6
 70
     1
 10
0.0
 20
0.0
 30
0.0
  3
*D6
  1

  0
LINE
  5
8656
330
8150
100
AcDbEntity
  8
AM_5
100
AcDbLine
 10
0.0000027747661042
 20
-0.9999963631483268
 30
0.0
 11
0.0000027747661473
 21
-22.99725100999606
 31
0.0
  0
LINE
  5
8657
330
8150
100
AcDbEntity
  8
AM_5
100
AcDbLine
 10
-17.00000000000015
 20
-5.249999999996041
 30
0.0
 11
-17.00000000000011
 21
-22.9972510099961
 31
0.0
  0
LINE
  5
8658
330
8150
100
AcDbEntity
  8
AM_5
100
AcDbLine
 10
-2.499997225233854
 20
-21.99725100999605
 30
0.0
 11
-14.50000000000011
 21
-21.99725100999609
 31
0.0
  0
INSERT
  5
8659
330
8150
100
AcDbEntity
  8
AM_5
100
AcDbBlockReference
  2
_Open30
 10
0.0000027747661453
 20
-21.99725100999605
 30
0.0
 41
2.5
 42
2.5
 43
2.5
 50
0.0000000000001018
  0
INSERT
  5
865A
330
8150
100
AcDbEntity
  8
AM_5
100
AcDbBlockReference
  2
_Open30
 10
-17.00000000000011
 20
-21.99725100999609
 30
0.0
 41
2.5
 42
2.5
 43
2.5
 50
180.0000000000001
  0
MTEXT
  5
865B
330
8150
100
AcDbEntity
  8
AM_5
 62
     2
100
AcDbMText
 10
-8.499998612616991
 20
-18.89725100999608
 30
0.0
 40
3.2
 41
0.0
 71
     5
 72
     1
  1
17
  7
ASAMI
 73
     1
 44
1.0
1001
ACAD
1000
MTEXTBEGIN
1070
    73
1070
     1
1070
    44
1040
1.0
1070
    74
1070
     0
1000
MTEXTEND
  0
POINT
  5
865C
330
8150
100
AcDbEntity
  8
DEFPOINTS
 62
     0
100
AcDbPoint
 10
0.0000027747661022
 20
0.0000036368516731
 30
0.0
  0
POINT
  5
865D
330
8150
100
AcDbEntity
  8
DEFPOINTS
 62
     0
100
AcDbPoint
 10
-17.00000000000016
 20
-4.249999999996006
 30
0.0
  0
POINT
  5
865E
330
8150
100
AcDbEntity
  8
DEFPOINTS
 62
     0
100
AcDbPoint
 10
-17.00000000000016
 20
-21.99725100999605
 30
0.0
  0
ENDBLK
  5
815B
330
8150
100
AcDbEntity
  8
0
100
AcDbBlockEnd
  0
BLOCK
  5
8291
330
8287
100
AcDbEntity
  8
0
100
AcDbBlockBegin
  2
*D7
 70
     1
 10
0.0
 20
0.0
 30
0.0
  3
*D7
  1

  0
LINE
  5
865F
330
8287
100
AcDbEntity
  8
AM_5
100
AcDbLine
 10
-130.0000000000002
 20
7.997250000003485
 30
0.0
 11
-149.5309522755579
 21
7.997250000003447
 31
0.0
  0
LINE
  5
8660
330
8287
100
AcDbEntity
  8
AM_5
100
AcDbLine
 10
-130.0000000000001
 20
-7.99724999999653
 30
0.0
 11
-149.5309522755578
 21
-7.997249999996568
 31
0.0
  0
LINE
  5
8661
330
8287
100
AcDbEntity
  8
AM_5
100
AcDbLine
 10
-148.5309522755578
 20
5.497250000003448
 30
0.0
 11
-148.5309522755578
 21
-5.497249999996566
 31
0.0
  0
INSERT
  5
8662
330
8287
100
AcDbEntity
  8
AM_5
100
AcDbBlockReference
  2
_Open30
 10
-148.5309522755579
 20
7.997250000003448
 30
0.0
 41
2.5
 42
2.5
 43
2.5
 50
90.0000000000001
  0
INSERT
  5
8663
330
8287
100
AcDbEntity
  8
AM_5
100
AcDbBlockReference
  2
_Open30
 10
-148.5309522755578
 20
-7.997249999996566
 30
0.0
 41
2.5
 42
2.5
 43
2.5
 50
270.0000000000001
  0
MTEXT
  5
8664
330
8287
100
AcDbEntity
  8
AM_5
 62
     2
100
AcDbMText
 10
-151.6309522755578
 20
0.0000000000034413
 30
0.0
 40
3.2
 41
0.0
 71
     5
 72
     1
  1
%%c16
  7
ASAMI
 11
-0.000000000000002
 21
1.0
 31
0.0
 73
     1
 44
1.0
1001
ACAD
1000
MTEXTBEGIN
1070
    73
1070
     1
1070
    44
1040
1.0
1070
    74
1070
     0
1000
MTEXTEND
  0
POINT
  5
8665
330
8287
100
AcDbEntity
  8
DEFPOINTS
 62
     0
100
AcDbPoint
 10
-129.0000000000001
 20
7.997250000003773
 30
0.0
  0
POINT
  5
8666
330
8287
100
AcDbEntity
  8
DEFPOINTS
 62
     0
100
AcDbPoint
 10
-129.0000000000001
 20
-7.997249999996242
 30
0.0
  0
POINT
  5
8667
330
8287
100
AcDbEntity
  8
DEFPOINTS
 62
     0
100
AcDbPoint
 10
-148.5309522755578
 20
-7.997249999996236
 30
0.0
  0
ENDBLK
  5
8292
330
8287
100
AcDbEntity
  8
0
100
AcDbBlockEnd
  0
BLOCK
  5
833C
330
8332
100
AcDbEntity
  8
0
100
AcDbBlockBegin
  2
*D8
 70
     1
 10
0.0
 20
0.0
 30
0.0
  3
*D8
  1

  0
LINE
  5
8668
330
8332
100
AcDbEntity
  8
AM_5
100
AcDbLine
 10
-0.0000002022149113
 20
-0.9999999999959213
 30
0.0
 11
-0.000000202214829
 21
-42.99725100999606
 31
0.0
  0
LINE
  5
8669
330
8332
100
AcDbEntity
  8
AM_5
100
AcDbLine
 10
-130.0000000000001
 20
-7.997249999996505
 30
0.0
 11
-130.0
 21
-42.99725100999633
 31
0.0
  0
LINE
  5
866A
330
8332
100
AcDbEntity
  8
AM_5
100
AcDbLine
 10
-2.500000202214831
 20
-41.99725100999606
 30
0.0
 11
-127.5
 21
-41.99725100999631
 31
0.0
  0
INSERT
  5
866B
330
8332
100
AcDbEntity
  8
AM_5
100
AcDbBlockReference
  2
_Open30
 10
-0.0000002022148309
 20
-41.99725100999606
 30
0.0
 41
2.5
 42
2.5
 43
2.5
 50
0.0000000000001018
  0
INSERT
  5
866C
330
8332
100
AcDbEntity
  8
AM_5
100
AcDbBlockReference
  2
_Open30
 10
-130.0
 20
-41.99725100999631
 30
0.0
 41
2.5
 42
2.5
 43
2.5
 50
180.0000000000001
  0
MTEXT
  5
866D
330
8332
100
AcDbEntity
  8
AM_5
 62
     2
100
AcDbMText
 10
-65.00000010110746
 20
-38.89725100999618
 30
0.0
 40
3.2
 41
0.0
 71
     5
 72
     1
  1
130
  7
ASAMI
 73
     1
 44
1.0
1001
ACAD
1000
MTEXTBEGIN
1070
    73
1070
     1
1070
    44
1040
1.0
1070
    74
1070
     0
1000
MTEXTEND
  0
POINT
  5
866E
330
8332
100
AcDbEntity
  8
DEFPOINTS
 62
     0
100
AcDbPoint
 10
-0.0000002022149133
 20
0.0000000000040785
 30
0.0
  0
POINT
  5
866F
330
8332
100
AcDbEntity
  8
DEFPOINTS
 62
     0
100
AcDbPoint
 10
-130.0000000000001
 20
-6.997249999996242
 30
0.0
  0
POINT
  5
8670
330
8332
100
AcDbEntity
  8
DEFPOINTS
 62
     0
100
AcDbPoint
 10
-130.0000000000001
 20
-41.99725100999606
 30
0.0
  0
ENDBLK
  5
833D
330
8332
100
AcDbEntity
  8
0
100
AcDbBlockEnd
  0
ENDSEC
  0
SECTION
  2
ENTITIES
  0
TEXT
  5
388D
330
1F
100
AcDbEntity
  8
AM_6
100
AcDbText
 10
-85.83333343444074
 20
-64.49725100999609
 30
0.0
 40
5.0
  1
WBMF1100M
 50
359.9999999999997
 51
359.9999999999998
 72
     4
 11
-65.0000001011074
 21
-61.99725100999618
 31
0.0
100
AcDbText
  0
LINE
  5
7AF4
330
1F
100
AcDbEntity
  8
AM_0
  6
Continuous
100
AcDbLine
 10
-35.0000000000002
 20
7.997250000004024
 30
0.0
 11
-129.0000000000001
 21
7.997250000003798
 31
0.0
  0
LINE
  5
7AF5
330
1F
100
AcDbEntity
  8
AM_0
  6
Continuous
100
AcDbLine
 10
-35.0000000000002
 20
7.997250000004024
 30
0.0
 11
-129.0000000000001
 21
7.997250000003798
 31
0.0
  0
LINE
  5
7AF6
330
1F
100
AcDbEntity
  8
AM_0
  6
Continuous
100
AcDbLine
 10
-35.0000000000002
 20
7.997250000004024
 30
0.0
 11
-129.0000000000001
 21
7.997250000003798
 31
0.0
  0
LINE
  5
7AF7
330
1F
100
AcDbEntity
  8
AM_0
  6
Continuous
100
AcDbLine
 10
-129.0000000000002
 20
-7.997249999996216
 30
0.0
 11
-35.00000000000016
 21
-7.997249999995989
 31
0.0
  0
LINE
  5
7AF8
330
1F
100
AcDbEntity
  8
AM_0
  6
Continuous
100
AcDbLine
 10
-129.0000000000002
 20
-7.997249999996216
 30
0.0
 11
-35.00000000000016
 21
-7.997249999995989
 31
0.0
  0
LINE
  5
7AF9
330
1F
100
AcDbEntity
  8
AM_0
  6
Continuous
100
AcDbLine
 10
-129.0000000000002
 20
-7.997249999996216
 30
0.0
 11
-35.00000000000016
 21
-7.997249999995989
 31
0.0
  0
LINE
  5
7AFA
330
1F
100
AcDbEntity
  8
AM_7
100
AcDbLine
 10
2.12893890686984
 20
0.0000000000040643
 30
0.0
 11
-134.5309512755578
 21
0.0000000000037659
 31
0.0
1001
GENIUS_GENODEF_13
1002
{
1000
HIER
1070
     0
1002
}
1002
{
1000
MANEDIT
1070
     0
1002
}
1002
{
1000
NOSEL
1070
     0
1002
}
1002
{
1000
BEHIND
1070
     0
1002
}
1002
{
1000
REACTOR
1002
}
1001
GENIUS_GENOBJ-N-CEN_13
1002
{
1000
OWNER
1000
GEN
1002
}
  0
LINE
  5
7BEC
330
1F
100
AcDbEntity
  8
AM_0
  6
Continuous
100
AcDbLine
 10
-3.632809000000181
 20
-1.077817999995925
 30
0.0
 11
-2.93481700000018
 21
-1.403296999995923
 31
0.0
  0
LINE
  5
7BED
330
1F
100
AcDbEntity
  8
AM_0
  6
Continuous
100
AcDbLine
 10
-3.632809000000181
 20
-1.077817999995925
 30
0.0
 11
-2.93481700000018
 21
-1.403296999995923
 31
0.0
  0
LINE
  5
7BEE
330
1F
100
AcDbEntity
  8
AM_0
  6
Continuous
100
AcDbLine
 10
-3.632809000000181
 20
-1.077817999995925
 30
0.0
 11
-2.93481700000018
 21
-1.403296999995923
 31
0.0
  0
LINE
  5
7BEF
330
1F
100
AcDbEntity
  8
AM_0
  6
Continuous
100
AcDbLine
 10
-3.119802000000162
 20
-1.799999999995927
 30
0.0
 11
-3.727335000000151
 21
-1.516702999995924
 31
0.0
  0
LINE
  5
7BF0
330
1F
100
AcDbEntity
  8
AM_0
  6
Continuous
100
AcDbLine
 10
-3.119802000000162
 20
-1.799999999995927
 30
0.0
 11
-3.727335000000151
 21
-1.516702999995924
 31
0.0
  0
LINE
  5
7BF1
330
1F
100
AcDbEntity
  8
AM_0
  6
Continuous
100
AcDbLine
 10
-3.119802000000162
 20
-1.799999999995927
 30
0.0
 11
-3.727335000000151
 21
-1.516702999995924
 31
0.0
  0
LINE
  5
7BF2
330
1F
100
AcDbEntity
  8
AM_0
  6
Continuous
100
AcDbLine
 10
-2.93481700000018
 20
-1.403296999995923
 30
0.0
 11
-5.550322000000164
 21
1.713740000004088
 31
0.0
  0
LINE
  5
7BF3
330
1F
100
AcDbEntity
  8
AM_0
  6
Continuous
100
AcDbLine
 10
-2.93481700000018
 20
-1.403296999995923
 30
0.0
 11
-5.550322000000164
 21
1.713740000004088
 31
0.0
  0
LINE
  5
7BF4
330
1F
100
AcDbEntity
  8
AM_0
  6
Continuous
100
AcDbLine
 10
-2.93481700000018
 20
-1.403296999995923
 30
0.0
 11
-5.550322000000164
 21
1.713740000004088
 31
0.0
  0
LINE
  5
7BF5
330
1F
100
AcDbEntity
  8
AM_0
  6
Continuous
100
AcDbLine
 10
-2.723769000000169
 20
-2.71270599999591
 30
0.0
 11
-5.000000000000163
 21
0.00000000000409
 31
0.0
  0
LINE
  5
7BF6
330
1F
100
AcDbEntity
  8
AM_0
  6
Continuous
100
AcDbLine
 10
-2.723769000000169
 20
-2.71270599999591
 30
0.0
 11
-5.000000000000163
 21
0.00000000000409
 31
0.0
  0
LINE
  5
7BF7
330
1F
100
AcDbEntity
  8
AM_0
  6
Continuous
100
AcDbLine
 10
-2.723769000000169
 20
-2.71270599999591
 30
0.0
 11
-5.000000000000163
 21
0.00000000000409
 31
0.0
  0
ARC
  5
7BF8
330
1F
100
AcDbEntity
  8
AM_0
  6
Continuous
100
AcDbCircle
 10
-5.000000000000163
 20
0.00000000000409
 30
0.0
 40
4.060632
100
AcDbArc
 50
270.0000000000002
 51
310.0000059326896
  0
ARC
  5
7BF9
330
1F
100
AcDbEntity
  8
AM_0
  6
Continuous
100
AcDbCircle
 10
-5.000000000000163
 20
0.00000000000409
 30
0.0
 40
4.060632
100
AcDbArc
 50
270.0000000000002
 51
310.0000059326896
  0
ARC
  5
7BFA
330
1F
100
AcDbEntity
  8
AM_0
  6
Continuous
100
AcDbCircle
 10
-5.000000000000163
 20
0.00000000000409
 30
0.0
 40
4.060632
100
AcDbArc
 50
270.0000000000002
 51
310.0000059326896
  0
ELLIPSE
  5
7BFB
330
1F
100
AcDbEntity
  8
AM_0
  6
Continuous
100
AcDbEllipse
 10
-9.907967000000139
 20
-8.247519999995938
 30
0.0
 11
-0.0000040271850282
 21
12.323280999999
 31
0.0
210
0.0
220
0.0
230
1.0
 40
0.9377554565216799
 41
5.41801310916315
 42
6.119072973779909
  0
ELLIPSE
  5
7BFC
330
1F
100
AcDbEntity
  8
AM_0
  6
Continuous
100
AcDbEllipse
 10
-9.907967000000139
 20
-8.247519999995938
 30
0.0
 11
-0.0000040271850282
 21
12.323280999999
 31
0.0
210
0.0
220
0.0
230
1.0
 40
0.9377554565216799
 41
5.41801310916315
 42
6.119072973779909
  0
ELLIPSE
  5
7BFD
330
1F
100
AcDbEntity
  8
AM_0
  6
Continuous
100
AcDbEllipse
 10
-9.907967000000139
 20
-8.247519999995938
 30
0.0
 11
-0.0000040271850282
 21
12.323280999999
 31
0.0
210
0.0
220
0.0
230
1.0
 40
0.9377554565216799
 41
5.41801310916315
 42
6.119072973779909
  0
ELLIPSE
  5
7BFE
330
1F
100
AcDbEntity
  8
AM_0
  6
Continuous
100
AcDbEllipse
 10
-9.90796700000013
 20
-7.161554999995923
 30
0.0
 11
-12.5
 21
-0.0000000000000287
 31
0.0
210
0.0
220
0.0
230
1.0
 40
0.9396926399999999
 41
3.79726598553286
 42
4.62433885015791
  0
ELLIPSE
  5
7BFF
330
1F
100
AcDbEntity
  8
AM_0
  6
Continuous
100
AcDbEllipse
 10
-9.90796700000013
 20
-7.161554999995923
 30
0.0
 11
-12.5
 21
-0.0000000000000287
 31
0.0
210
0.0
220
0.0
230
1.0
 40
0.9396926399999999
 41
3.79726598553286
 42
4.62433885015791
  0
ELLIPSE
  5
7C00
330
1F
100
AcDbEntity
  8
AM_0
  6
Continuous
100
AcDbEllipse
 10
-9.90796700000013
 20
-7.161554999995923
 30
0.0
 11
-12.5
 21
-0.0000000000000287
 31
0.0
210
0.0
220
0.0
230
1.0
 40
0.9396926399999999
 41
3.79726598553286
 42
4.62433885015791
  0
SPLINE
  5
7C01
330
1F
100
AcDbEntity
  8
AM_0
  6
Continuous
100
AcDbSpline
210
0.0
220
0.0
230
1.0
 70
     8
 71
     3
 72
    11
 73
     7
 74
     5
 42
0.0000000001
 43
0.0000000001
 44
0.0000000001
 40
0.0
 40
0.0
 40
0.0
 40
0.0
 40
1.181275653354889
 40
2.355298179806562
 40
3.513463635180269
 40
4.650184998908421
 40
4.650184998908421
 40
4.650184998908421
 40
4.650184998908421
 10
-5.00000000000017
 20
-4.751899999995915
 30
0.0
 10
-4.605377907133425
 20
-4.723437284800399
 30
0.0
 10
-3.818556732583012
 20
-4.666686617755025
 30
0.0
 10
-2.710626490680883
 20
-4.249357220536159
 30
0.0
 10
-1.718616709256323
 20
-3.627374274787444
 30
0.0
 10
-1.221290516094469
 20
-3.040743542048733
 30
0.0
 10
-0.9749510000001983
 20
-2.750168999995906
 30
0.0
 11
-5.00000000000017
 21
-4.751899999995915
 31
0.0
 11
-3.827228000000161
 21
-4.610414999995906
 31
0.0
 11
-2.722982000000174
 21
-4.211704999995908
 31
0.0
 11
-1.752967000000174
 21
-3.578918999995921
 31
0.0
 11
-0.9749510000001983
 21
-2.750168999995906
 31
0.0
  0
SPLINE
  5
7C02
330
1F
100
AcDbEntity
  8
AM_0
  6
Continuous
100
AcDbSpline
210
0.0
220
0.0
230
1.0
 70
     8
 71
     3
 72
    11
 73
     7
 74
     5
 42
0.0000000001
 43
0.0000000001
 44
0.0000000001
 40
0.0
 40
0.0
 40
0.0
 40
0.0
 40
1.181275653354889
 40
2.355298179806562
 40
3.513463635180269
 40
4.650184998908421
 40
4.650184998908421
 40
4.650184998908421
 40
4.650184998908421
 10
-5.00000000000017
 20
-4.751899999995915
 30
0.0
 10
-4.605377907133425
 20
-4.723437284800399
 30
0.0
 10
-3.818556732583012
 20
-4.666686617755025
 30
0.0
 10
-2.710626490680883
 20
-4.249357220536159
 30
0.0
 10
-1.718616709256323
 20
-3.627374274787444
 30
0.0
 10
-1.221290516094469
 20
-3.040743542048733
 30
0.0
 10
-0.9749510000001983
 20
-2.750168999995906
 30
0.0
 11
-5.00000000000017
 21
-4.751899999995915
 31
0.0
 11
-3.827228000000161
 21
-4.610414999995906
 31
0.0
 11
-2.722982000000174
 21
-4.211704999995908
 31
0.0
 11
-1.752967000000174
 21
-3.578918999995921
 31
0.0
 11
-0.9749510000001983
 21
-2.750168999995906
 31
0.0
  0
SPLINE
  5
7C03
330
1F
100
AcDbEntity
  8
AM_0
  6
Continuous
100
AcDbSpline
210
0.0
220
0.0
230
1.0
 70
     8
 71
     3
 72
    11
 73
     7
 74
     5
 42
0.0000000001
 43
0.0000000001
 44
0.0000000001
 40
0.0
 40
0.0
 40
0.0
 40
0.0
 40
1.181275653354889
 40
2.355298179806562
 40
3.513463635180269
 40
4.650184998908421
 40
4.650184998908421
 40
4.650184998908421
 40
4.650184998908421
 10
-5.00000000000017
 20
-4.751899999995915
 30
0.0
 10
-4.605377907133425
 20
-4.723437284800399
 30
0.0
 10
-3.818556732583012
 20
-4.666686617755025
 30
0.0
 10
-2.710626490680883
 20
-4.249357220536159
 30
0.0
 10
-1.718616709256323
 20
-3.627374274787444
 30
0.0
 10
-1.221290516094469
 20
-3.040743542048733
 30
0.0
 10
-0.9749510000001983
 20
-2.750168999995906
 30
0.0
 11
-5.00000000000017
 21
-4.751899999995915
 31
0.0
 11
-3.827228000000161
 21
-4.610414999995906
 31
0.0
 11
-2.722982000000174
 21
-4.211704999995908
 31
0.0
 11
-1.752967000000174
 21
-3.578918999995921
 31
0.0
 11
-0.9749510000001983
 21
-2.750168999995906
 31
0.0
  0
SPLINE
  5
7C04
330
1F
100
AcDbEntity
  8
AM_0
  6
Continuous
100
AcDbSpline
210
0.0
220
0.0
230
1.0
 70
     8
 71
     3
 72
    11
 73
     7
 74
     5
 42
0.0000000001
 43
0.0000000001
 44
0.0000000001
 40
0.0
 40
0.0
 40
0.0
 40
0.0
 40
0.7391493389673842
 40
1.47819992030132
 40
2.21705159180382
 40
2.956390669115423
 40
2.956390669115423
 40
2.956390669115423
 40
2.956390669115423
 10
-2.267276000000199
 20
-3.567877999995919
 30
0.0
 10
-2.465975549343118
 20
-3.714494961386666
 30
0.0
 10
-2.863348099811668
 20
-4.007709294697715
 30
0.0
 10
-3.539944493178229
 20
-4.317008287303415
 30
0.0
 10
-4.259721552272944
 20
-4.506614802920618
 30
0.0
 10
-4.753186280496544
 20
-4.527939923783945
 30
0.0
 10
-5.000000000000171
 20
-4.538605999995896
 30
0.0
 11
-2.267276000000199
 21
-3.567877999995919
 31
0.0
 11
-2.876812000000145
 21
-3.985977999995902
 31
0.0
 11
-3.547193000000164
 21
-4.297080999995908
 31
0.0
 11
-4.262962000000187
 21
-4.480319999995926
 31
0.0
 11
-5.000000000000171
 21
-4.538605999995896
 31
0.0
  0
SPLINE
  5
7C05
330
1F
100
AcDbEntity
  8
AM_0
  6
Continuous
100
AcDbSpline
210
0.0
220
0.0
230
1.0
 70
     8
 71
     3
 72
    11
 73
     7
 74
     5
 42
0.0000000001
 43
0.0000000001
 44
0.0000000001
 40
0.0
 40
0.0
 40
0.0
 40
0.0
 40
0.7391493389673842
 40
1.47819992030132
 40
2.21705159180382
 40
2.956390669115423
 40
2.956390669115423
 40
2.956390669115423
 40
2.956390669115423
 10
-2.267276000000199
 20
-3.567877999995919
 30
0.0
 10
-2.465975549343118
 20
-3.714494961386666
 30
0.0
 10
-2.863348099811668
 20
-4.007709294697715
 30
0.0
 10
-3.539944493178229
 20
-4.317008287303415
 30
0.0
 10
-4.259721552272944
 20
-4.506614802920618
 30
0.0
 10
-4.753186280496544
 20
-4.527939923783945
 30
0.0
 10
-5.000000000000171
 20
-4.538605999995896
 30
0.0
 11
-2.267276000000199
 21
-3.567877999995919
 31
0.0
 11
-2.876812000000145
 21
-3.985977999995902
 31
0.0
 11
-3.547193000000164
 21
-4.297080999995908
 31
0.0
 11
-4.262962000000187
 21
-4.480319999995926
 31
0.0
 11
-5.000000000000171
 21
-4.538605999995896
 31
0.0
  0
SPLINE
  5
7C06
330
1F
100
AcDbEntity
  8
AM_0
  6
Continuous
100
AcDbSpline
210
0.0
220
0.0
230
1.0
 70
     8
 71
     3
 72
    11
 73
     7
 74
     5
 42
0.0000000001
 43
0.0000000001
 44
0.0000000001
 40
0.0
 40
0.0
 40
0.0
 40
0.0
 40
0.7391493389673842
 40
1.47819992030132
 40
2.21705159180382
 40
2.956390669115423
 40
2.956390669115423
 40
2.956390669115423
 40
2.956390669115423
 10
-2.267276000000199
 20
-3.567877999995919
 30
0.0
 10
-2.465975549343118
 20
-3.714494961386666
 30
0.0
 10
-2.863348099811668
 20
-4.007709294697715
 30
0.0
 10
-3.539944493178229
 20
-4.317008287303415
 30
0.0
 10
-4.259721552272944
 20
-4.506614802920618
 30
0.0
 10
-4.753186280496544
 20
-4.527939923783945
 30
0.0
 10
-5.000000000000171
 20
-4.538605999995896
 30
0.0
 11
-2.267276000000199
 21
-3.567877999995919
 31
0.0
 11
-2.876812000000145
 21
-3.985977999995902
 31
0.0
 11
-3.547193000000164
 21
-4.297080999995908
 31
0.0
 11
-4.262962000000187
 21
-4.480319999995926
 31
0.0
 11
-5.000000000000171
 21
-4.538605999995896
 31
0.0
  0
SPLINE
  5
7C07
330
1F
100
AcDbEntity
  8
AM_0
  6
Continuous
100
AcDbSpline
210
0.0
220
0.0
230
1.0
 70
     8
 71
     3
 72
    11
 73
     7
 74
     5
 42
0.0000000001
 43
0.0000000001
 44
0.0000000001
 40
0.0
 40
0.0
 40
0.0
 40
0.0
 40
1.181275653354893
 40
2.355298179806567
 40
3.513463635180262
 40
4.650184998908405
 40
4.650184998908405
 40
4.650184998908405
 40
4.650184998908405
 10
-5.000000000000183
 20
4.751900000004095
 30
0.0
 10
-4.605377907133438
 20
4.723437284808571
 30
0.0
 10
-3.818556732583028
 20
4.66668661776318
 30
0.0
 10
-2.710626490680896
 20
4.249357220544339
 30
0.0
 10
-1.718616709256339
 20
3.627374274795625
 30
0.0
 10
-1.22129051609449
 20
3.040743542056917
 30
0.0
 10
-0.9749510000002224
 20
2.750169000004091
 30
0.0
 11
-5.000000000000183
 21
4.751900000004095
 31
0.0
 11
-3.827228000000173
 21
4.610415000004069
 31
0.0
 11
-2.722982000000183
 21
4.211705000004081
 31
0.0
 11
-1.75296700000019
 21
3.578919000004102
 31
0.0
 11
-0.9749510000002224
 21
2.750169000004091
 31
0.0
  0
SPLINE
  5
7C08
330
1F
100
AcDbEntity
  8
AM_0
  6
Continuous
100
AcDbSpline
210
0.0
220
0.0
230
1.0
 70
     8
 71
     3
 72
    11
 73
     7
 74
     5
 42
0.0000000001
 43
0.0000000001
 44
0.0000000001
 40
0.0
 40
0.0
 40
0.0
 40
0.0
 40
1.181275653354893
 40
2.355298179806567
 40
3.513463635180262
 40
4.650184998908405
 40
4.650184998908405
 40
4.650184998908405
 40
4.650184998908405
 10
-5.000000000000183
 20
4.751900000004095
 30
0.0
 10
-4.605377907133438
 20
4.723437284808571
 30
0.0
 10
-3.818556732583028
 20
4.66668661776318
 30
0.0
 10
-2.710626490680896
 20
4.249357220544339
 30
0.0
 10
-1.718616709256339
 20
3.627374274795625
 30
0.0
 10
-1.22129051609449
 20
3.040743542056917
 30
0.0
 10
-0.9749510000002224
 20
2.750169000004091
 30
0.0
 11
-5.000000000000183
 21
4.751900000004095
 31
0.0
 11
-3.827228000000173
 21
4.610415000004069
 31
0.0
 11
-2.722982000000183
 21
4.211705000004081
 31
0.0
 11
-1.75296700000019
 21
3.578919000004102
 31
0.0
 11
-0.9749510000002224
 21
2.750169000004091
 31
0.0
  0
SPLINE
  5
7C09
330
1F
100
AcDbEntity
  8
AM_0
  6
Continuous
100
AcDbSpline
210
0.0
220
0.0
230
1.0
 70
     8
 71
     3
 72
    11
 73
     7
 74
     5
 42
0.0000000001
 43
0.0000000001
 44
0.0000000001
 40
0.0
 40
0.0
 40
0.0
 40
0.0
 40
1.181275653354893
 40
2.355298179806567
 40
3.513463635180262
 40
4.650184998908405
 40
4.650184998908405
 40
4.650184998908405
 40
4.650184998908405
 10
-5.000000000000183
 20
4.751900000004095
 30
0.0
 10
-4.605377907133438
 20
4.723437284808571
 30
0.0
 10
-3.818556732583028
 20
4.66668661776318
 30
0.0
 10
-2.710626490680896
 20
4.249357220544339
 30
0.0
 10
-1.718616709256339
 20
3.627374274795625
 30
0.0
 10
-1.22129051609449
 20
3.040743542056917
 30
0.0
 10
-0.9749510000002224
 20
2.750169000004091
 30
0.0
 11
-5.000000000000183
 21
4.751900000004095
 31
0.0
 11
-3.827228000000173
 21
4.610415000004069
 31
0.0
 11
-2.722982000000183
 21
4.211705000004081
 31
0.0
 11
-1.75296700000019
 21
3.578919000004102
 31
0.0
 11
-0.9749510000002224
 21
2.750169000004091
 31
0.0
  0
SPLINE
  5
7C0E
330
1F
100
AcDbEntity
  8
AM_0
  6
Continuous
100
AcDbSpline
210
0.0
220
0.0
230
1.0
 70
     8
 71
     3
 72
    11
 73
     7
 74
     5
 42
0.0000000001
 43
0.0000000001
 44
0.0000000001
 40
0.0
 40
0.0
 40
0.0
 40
0.0
 40
0.4406498704867717
 40
0.8827862207792843
 40
1.327009052290688
 40
1.773828428380173
 40
1.773828428380173
 40
1.773828428380173
 40
1.773828428380173
 10
-0.0000000000001634
 20
0.0000000000040834
 30
0.0
 10
-0.0043436632592396
 20
0.1469664473749571
 30
0.0
 10
-0.013045642607564
 20
0.4413951159062146
 30
0.0
 10
-0.0847866162606229
 20
0.878930105617856
 30
0.0
 10
-0.1956641361274263
 20
1.310295437451116
 30
0.0
 10
-0.3063864950868972
 20
1.586209136734902
 30
0.0
 10
-0.3619090000001397
 20
1.724568000004086
 30
0.0
 11
-0.0000000000001634
 21
0.0000000000040834
 31
0.0
 11
-0.0227540000001289
 21
0.4400620000040951
 31
0.0
 11
-0.091093000000168
 21
0.87688500000407
 31
0.0
 11
-0.204549000000155
 21
1.306375000004084
 31
0.0
 11
-0.3619090000001397
 21
1.724568000004086
 31
0.0
  0
SPLINE
  5
7C0F
330
1F
100
AcDbEntity
  8
AM_0
  6
Continuous
100
AcDbSpline
210
0.0
220
0.0
230
1.0
 70
     8
 71
     3
 72
    11
 73
     7
 74
     5
 42
0.0000000001
 43
0.0000000001
 44
0.0000000001
 40
0.0
 40
0.0
 40
0.0
 40
0.0
 40
0.4406498704867717
 40
0.8827862207792843
 40
1.327009052290688
 40
1.773828428380173
 40
1.773828428380173
 40
1.773828428380173
 40
1.773828428380173
 10
-0.0000000000001634
 20
0.0000000000040834
 30
0.0
 10
-0.0043436632592396
 20
0.1469664473749571
 30
0.0
 10
-0.013045642607564
 20
0.4413951159062146
 30
0.0
 10
-0.0847866162606229
 20
0.878930105617856
 30
0.0
 10
-0.1956641361274263
 20
1.310295437451116
 30
0.0
 10
-0.3063864950868972
 20
1.586209136734902
 30
0.0
 10
-0.3619090000001397
 20
1.724568000004086
 30
0.0
 11
-0.0000000000001634
 21
0.0000000000040834
 31
0.0
 11
-0.0227540000001289
 21
0.4400620000040951
 31
0.0
 11
-0.091093000000168
 21
0.87688500000407
 31
0.0
 11
-0.204549000000155
 21
1.306375000004084
 31
0.0
 11
-0.3619090000001397
 21
1.724568000004086
 31
0.0
  0
SPLINE
  5
7C10
330
1F
100
AcDbEntity
  8
AM_0
  6
Continuous
100
AcDbSpline
210
0.0
220
0.0
230
1.0
 70
     8
 71
     3
 72
    11
 73
     7
 74
     5
 42
0.0000000001
 43
0.0000000001
 44
0.0000000001
 40
0.0
 40
0.0
 40
0.0
 40
0.0
 40
0.4406498704867717
 40
0.8827862207792843
 40
1.327009052290688
 40
1.773828428380173
 40
1.773828428380173
 40
1.773828428380173
 40
1.773828428380173
 10
-0.0000000000001634
 20
0.0000000000040834
 30
0.0
 10
-0.0043436632592396
 20
0.1469664473749571
 30
0.0
 10
-0.013045642607564
 20
0.4413951159062146
 30
0.0
 10
-0.0847866162606229
 20
0.878930105617856
 30
0.0
 10
-0.1956641361274263
 20
1.310295437451116
 30
0.0
 10
-0.3063864950868972
 20
1.586209136734902
 30
0.0
 10
-0.3619090000001397
 20
1.724568000004086
 30
0.0
 11
-0.0000000000001634
 21
0.0000000000040834
 31
0.0
 11
-0.0227540000001289
 21
0.4400620000040951
 31
0.0
 11
-0.091093000000168
 21
0.87688500000407
 31
0.0
 11
-0.204549000000155
 21
1.306375000004084
 31
0.0
 11
-0.3619090000001397
 21
1.724568000004086
 31
0.0
  0
LINE
  5
7C11
330
1F
100
AcDbEntity
  8
AM_0
  6
Continuous
100
AcDbLine
 10
-3.090117000000145
 20
4.295202000004072
 30
0.0
 11
-3.102162000000202
 21
4.299914000004084
 31
0.0
  0
LINE
  5
7C12
330
1F
100
AcDbEntity
  8
AM_0
  6
Continuous
100
AcDbLine
 10
-1.458050000000191
 20
3.269478000004083
 30
0.0
 11
-1.464783000000188
 21
3.275778000004093
 31
0.0
  0
LINE
  5
7C13
330
1F
100
AcDbEntity
  8
AM_0
  6
Continuous
100
AcDbLine
 10
-1.458050000000191
 20
3.269478000004083
 30
0.0
 11
-1.464783000000188
 21
3.275778000004093
 31
0.0
  0
LINE
  5
7C14
330
1F
100
AcDbEntity
  8
AM_0
  6
Continuous
100
AcDbLine
 10
-1.458050000000191
 20
3.269478000004083
 30
0.0
 11
-1.464783000000188
 21
3.275778000004093
 31
0.0
  0
SPLINE
  5
7C15
330
1F
100
AcDbEntity
  8
AM_0
  6
Continuous
100
AcDbSpline
210
0.0
220
0.0
230
1.0
 70
     8
 71
     3
 72
    11
 73
     7
 74
     5
 42
0.0000000001
 43
0.0000000001
 44
0.0000000001
 40
0.0
 40
0.0
 40
0.0
 40
0.0
 40
0.2407749272038528
 40
0.482480575863511
 40
0.725150880649681
 40
0.9688164756215568
 40
0.9688164756215568
 40
0.9688164756215568
 40
0.9688164756215568
 10
-0.379467000000148
 20
1.76443600000407
 30
0.0
 10
-0.4132985906098151
 20
1.837238850542292
 30
0.0
 10
-0.4810925486821635
 20
1.983125972844053
 30
0.0
 10
-0.5977839031326391
 20
2.194980631338061
 30
0.0
 10
-0.7244796419999565
 20
2.402133697909282
 30
0.0
 10
-0.8182206001344789
 20
2.534446306379812
 30
0.0
 10
-0.8651870000001807
 20
2.6007380000041
 30
0.0
 11
-0.379467000000148
 21
1.76443600000407
 31
0.0
 11
-0.4834140000002252
 21
1.981617000004081
 31
0.0
 11
-0.5992090000001607
 21
2.193780000004083
 31
0.0
 11
-0.7265740000002161
 21
2.40034000000408
 31
0.0
 11
-0.8651870000001807
 21
2.6007380000041
 31
0.0
  0
SPLINE
  5
7C16
330
1F
100
AcDbEntity
  8
AM_0
  6
Continuous
100
AcDbSpline
210
0.0
220
0.0
230
1.0
 70
     8
 71
     3
 72
    11
 73
     7
 74
     5
 42
0.0000000001
 43
0.0000000001
 44
0.0000000001
 40
0.0
 40
0.0
 40
0.0
 40
0.0
 40
0.2407749272038528
 40
0.482480575863511
 40
0.725150880649681
 40
0.9688164756215568
 40
0.9688164756215568
 40
0.9688164756215568
 40
0.9688164756215568
 10
-0.379467000000148
 20
1.76443600000407
 30
0.0
 10
-0.4132985906098151
 20
1.837238850542292
 30
0.0
 10
-0.4810925486821635
 20
1.983125972844053
 30
0.0
 10
-0.5977839031326391
 20
2.194980631338061
 30
0.0
 10
-0.7244796419999565
 20
2.402133697909282
 30
0.0
 10
-0.8182206001344789
 20
2.534446306379812
 30
0.0
 10
-0.8651870000001807
 20
2.6007380000041
 30
0.0
 11
-0.379467000000148
 21
1.76443600000407
 31
0.0
 11
-0.4834140000002252
 21
1.981617000004081
 31
0.0
 11
-0.5992090000001607
 21
2.193780000004083
 31
0.0
 11
-0.7265740000002161
 21
2.40034000000408
 31
0.0
 11
-0.8651870000001807
 21
2.6007380000041
 31
0.0
  0
SPLINE
  5
7C17
330
1F
100
AcDbEntity
  8
AM_0
  6
Continuous
100
AcDbSpline
210
0.0
220
0.0
230
1.0
 70
     8
 71
     3
 72
    11
 73
     7
 74
     5
 42
0.0000000001
 43
0.0000000001
 44
0.0000000001
 40
0.0
 40
0.0
 40
0.0
 40
0.0
 40
0.2407749272038528
 40
0.482480575863511
 40
0.725150880649681
 40
0.9688164756215568
 40
0.9688164756215568
 40
0.9688164756215568
 40
0.9688164756215568
 10
-0.379467000000148
 20
1.76443600000407
 30
0.0
 10
-0.4132985906098151
 20
1.837238850542292
 30
0.0
 10
-0.4810925486821635
 20
1.983125972844053
 30
0.0
 10
-0.5977839031326391
 20
2.194980631338061
 30
0.0
 10
-0.7244796419999565
 20
2.402133697909282
 30
0.0
 10
-0.8182206001344789
 20
2.534446306379812
 30
0.0
 10
-0.8651870000001807
 20
2.6007380000041
 30
0.0
 11
-0.379467000000148
 21
1.76443600000407
 31
0.0
 11
-0.4834140000002252
 21
1.981617000004081
 31
0.0
 11
-0.5992090000001607
 21
2.193780000004083
 31
0.0
 11
-0.7265740000002161
 21
2.40034000000408
 31
0.0
 11
-0.8651870000001807
 21
2.6007380000041
 31
0.0
  0
LINE
  5
7C18
330
1F
100
AcDbEntity
  8
AM_0
  6
Continuous
100
AcDbLine
 10
-0.3626830000001751
 20
1.726347000004085
 30
0.0
 11
-0.379467000000148
 21
1.76443600000407
 31
0.0
  0
LINE
  5
7C19
330
1F
100
AcDbEntity
  8
AM_0
  6
Continuous
100
AcDbLine
 10
-0.3626830000001751
 20
1.726347000004085
 30
0.0
 11
-0.379467000000148
 21
1.76443600000407
 31
0.0
  0
LINE
  5
7C1A
330
1F
100
AcDbEntity
  8
AM_0
  6
Continuous
100
AcDbLine
 10
-0.3626830000001751
 20
1.726347000004085
 30
0.0
 11
-0.379467000000148
 21
1.76443600000407
 31
0.0
  0
SPLINE
  5
7C1B
330
1F
100
AcDbEntity
  8
AM_0
  6
Continuous
100
AcDbSpline
210
0.0
220
0.0
230
1.0
 70
     8
 71
     3
 72
    11
 73
     7
 74
     5
 42
0.0000000001
 43
0.0000000001
 44
0.0000000001
 40
0.0
 40
0.0
 40
0.0
 40
0.0
 40
0.2224487658068457
 40
0.4457527676071104
 40
0.6699148803759741
 40
0.8949156584035069
 40
0.8949156584035069
 40
0.8949156584035069
 40
0.8949156584035069
 10
-0.8651870000001807
 20
2.6007380000041
 30
0.0
 10
-0.9097670483539408
 20
2.660009227791403
 30
0.0
 10
-0.9990985394128848
 20
2.778779560051204
 30
0.0
 10
-1.143955487041105
 20
2.94886721750668
 30
0.0
 10
-1.296074960529491
 20
3.113644710205562
 30
0.0
 10
-1.40399115407406
 20
3.217468950764714
 30
0.0
 10
-1.458050000000191
 20
3.269478000004083
 30
0.0
 11
-0.8651870000001807
 21
2.6007380000041
 31
0.0
 11
-1.000684000000167
 21
2.777158000004078
 31
0.0
 11
-1.144882000000185
 21
2.9476620000041
 31
0.0
 11
-1.297457000000199
 21
3.111886000004089
 31
0.0
 11
-1.458050000000191
 21
3.269478000004083
 31
0.0
  0
SPLINE
  5
7C1C
330
1F
100
AcDbEntity
  8
AM_0
  6
Continuous
100
AcDbSpline
210
0.0
220
0.0
230
1.0
 70
     8
 71
     3
 72
    11
 73
     7
 74
     5
 42
0.0000000001
 43
0.0000000001
 44
0.0000000001
 40
0.0
 40
0.0
 40
0.0
 40
0.0
 40
0.2224487658068457
 40
0.4457527676071104
 40
0.6699148803759741
 40
0.8949156584035069
 40
0.8949156584035069
 40
0.8949156584035069
 40
0.8949156584035069
 10
-0.8651870000001807
 20
2.6007380000041
 30
0.0
 10
-0.9097670483539408
 20
2.660009227791403
 30
0.0
 10
-0.9990985394128848
 20
2.778779560051204
 30
0.0
 10
-1.143955487041105
 20
2.94886721750668
 30
0.0
 10
-1.296074960529491
 20
3.113644710205562
 30
0.0
 10
-1.40399115407406
 20
3.217468950764714
 30
0.0
 10
-1.458050000000191
 20
3.269478000004083
 30
0.0
 11
-0.8651870000001807
 21
2.6007380000041
 31
0.0
 11
-1.000684000000167
 21
2.777158000004078
 31
0.0
 11
-1.144882000000185
 21
2.9476620000041
 31
0.0
 11
-1.297457000000199
 21
3.111886000004089
 31
0.0
 11
-1.458050000000191
 21
3.269478000004083
 31
0.0
  0
SPLINE
  5
7C1D
330
1F
100
AcDbEntity
  8
AM_0
  6
Continuous
100
AcDbSpline
210
0.0
220
0.0
230
1.0
 70
     8
 71
     3
 72
    11
 73
     7
 74
     5
 42
0.0000000001
 43
0.0000000001
 44
0.0000000001
 40
0.0
 40
0.0
 40
0.0
 40
0.0
 40
0.2224487658068457
 40
0.4457527676071104
 40
0.6699148803759741
 40
0.8949156584035069
 40
0.8949156584035069
 40
0.8949156584035069
 40
0.8949156584035069
 10
-0.8651870000001807
 20
2.6007380000041
 30
0.0
 10
-0.9097670483539408
 20
2.660009227791403
 30
0.0
 10
-0.9990985394128848
 20
2.778779560051204
 30
0.0
 10
-1.143955487041105
 20
2.94886721750668
 30
0.0
 10
-1.296074960529491
 20
3.113644710205562
 30
0.0
 10
-1.40399115407406
 20
3.217468950764714
 30
0.0
 10
-1.458050000000191
 20
3.269478000004083
 30
0.0
 11
-0.8651870000001807
 21
2.6007380000041
 31
0.0
 11
-1.000684000000167
 21
2.777158000004078
 31
0.0
 11
-1.144882000000185
 21
2.9476620000041
 31
0.0
 11
-1.297457000000199
 21
3.111886000004089
 31
0.0
 11
-1.458050000000191
 21
3.269478000004083
 31
0.0
  0
LINE
  5
7C1E
330
1F
100
AcDbEntity
  8
AM_0
  6
Continuous
100
AcDbLine
 10
-3.534588000000154
 20
-1.746409999995915
 30
0.0
 11
-3.22853900000018
 21
-1.799999999995927
 31
0.0
  0
LINE
  5
7C1F
330
1F
100
AcDbEntity
  8
AM_0
  6
Continuous
100
AcDbLine
 10
-3.534588000000154
 20
-1.746409999995915
 30
0.0
 11
-3.22853900000018
 21
-1.799999999995927
 31
0.0
  0
LINE
  5
7C20
330
1F
100
AcDbEntity
  8
AM_0
  6
Continuous
100
AcDbLine
 10
-3.534588000000154
 20
-1.746409999995915
 30
0.0
 11
-3.22853900000018
 21
-1.799999999995927
 31
0.0
  0
LINE
  5
7C21
330
1F
100
AcDbEntity
  8
AM_0
  6
Continuous
100
AcDbLine
 10
-2.137555000000181
 20
-3.411329999995903
 30
0.0
 11
-2.246041000000154
 21
-3.282039999995906
 31
0.0
  0
LINE
  5
7C22
330
1F
100
AcDbEntity
  8
AM_0
  6
Continuous
100
AcDbLine
 10
-2.137555000000181
 20
-3.411329999995903
 30
0.0
 11
-2.246041000000154
 21
-3.282039999995906
 31
0.0
  0
LINE
  5
7C23
330
1F
100
AcDbEntity
  8
AM_0
  6
Continuous
100
AcDbLine
 10
-2.137555000000181
 20
-3.411329999995903
 30
0.0
 11
-2.246041000000154
 21
-3.282039999995906
 31
0.0
  0
LINE
  5
7C24
330
1F
100
AcDbEntity
  8
AM_0
  6
Continuous
100
AcDbLine
 10
-2.246041000000154
 20
-3.282039999995906
 30
0.0
 11
-2.389227000000167
 21
-3.111397999995919
 31
0.0
  0
LINE
  5
7C25
330
1F
100
AcDbEntity
  8
AM_0
  6
Continuous
100
AcDbLine
 10
-2.246041000000154
 20
-3.282039999995906
 30
0.0
 11
-2.389227000000167
 21
-3.111397999995919
 31
0.0
  0
LINE
  5
7C26
330
1F
100
AcDbEntity
  8
AM_0
  6
Continuous
100
AcDbLine
 10
-2.246041000000154
 20
-3.282039999995906
 30
0.0
 11
-2.389227000000167
 21
-3.111397999995919
 31
0.0
  0
LINE
  5
7C27
330
1F
100
AcDbEntity
  8
AM_0
  6
Continuous
100
AcDbLine
 10
-2.389227000000167
 20
-3.111397999995919
 30
0.0
 11
-2.723769000000169
 21
-2.71270599999591
 31
0.0
  0
LINE
  5
7C28
330
1F
100
AcDbEntity
  8
AM_0
  6
Continuous
100
AcDbLine
 10
-2.389227000000167
 20
-3.111397999995919
 30
0.0
 11
-2.723769000000169
 21
-2.71270599999591
 31
0.0
  0
LINE
  5
7C29
330
1F
100
AcDbEntity
  8
AM_0
  6
Continuous
100
AcDbLine
 10
-2.389227000000167
 20
-3.111397999995919
 30
0.0
 11
-2.723769000000169
 21
-2.71270599999591
 31
0.0
  0
LINE
  5
7C2A
330
1F
100
AcDbEntity
  8
AM_0
  6
Continuous
100
AcDbLine
 10
-2.267276000000199
 20
-3.567877999995919
 30
0.0
 11
-2.546253000000141
 21
-3.235406999995921
 31
0.0
  0
LINE
  5
7C2B
330
1F
100
AcDbEntity
  8
AM_0
  6
Continuous
100
AcDbLine
 10
-2.267276000000199
 20
-3.567877999995919
 30
0.0
 11
-2.546253000000141
 21
-3.235406999995921
 31
0.0
  0
LINE
  5
7C2C
330
1F
100
AcDbEntity
  8
AM_0
  6
Continuous
100
AcDbLine
 10
-2.267276000000199
 20
-3.567877999995919
 30
0.0
 11
-2.546253000000141
 21
-3.235406999995921
 31
0.0
  0
LINE
  5
7C2D
330
1F
100
AcDbEntity
  8
AM_0
  6
Continuous
100
AcDbLine
 10
-0.0000000000001634
 20
0.0000000000040834
 30
0.0
 11
-0.1383970000001601
 21
-0.233890999995917
 31
0.0
  0
LINE
  5
7C2E
330
1F
100
AcDbEntity
  8
AM_0
  6
Continuous
100
AcDbLine
 10
-0.0000000000001634
 20
0.0000000000040834
 30
0.0
 11
-0.1383970000001601
 21
-0.233890999995917
 31
0.0
  0
LINE
  5
7C2F
330
1F
100
AcDbEntity
  8
AM_0
  6
Continuous
100
AcDbLine
 10
-0.0000000000001634
 20
0.0000000000040834
 30
0.0
 11
-0.1383970000001601
 21
-0.233890999995917
 31
0.0
  0
ELLIPSE
  5
7C30
330
1F
100
AcDbEntity
  8
AM_0
  6
Continuous
100
AcDbEllipse
 10
-3.156983000000137
 20
-1.54118099999591
 30
0.0
 11
-0.2682789261200003
 21
0.1251004155419993
 31
0.0
210
0.0
220
0.0
230
1.0
 40
0.84455750254212
 41
2.07527645293939
 42
4.20790857044512
  0
ELLIPSE
  5
7C31
330
1F
100
AcDbEntity
  8
AM_0
  6
Continuous
100
AcDbEllipse
 10
-3.156983000000137
 20
-1.54118099999591
 30
0.0
 11
-0.2682789261200003
 21
0.1251004155419993
 31
0.0
210
0.0
220
0.0
230
1.0
 40
0.84455750254212
 41
2.07527645293939
 42
4.20790857044512
  0
ELLIPSE
  5
7C32
330
1F
100
AcDbEntity
  8
AM_0
  6
Continuous
100
AcDbEllipse
 10
-3.156983000000137
 20
-1.54118099999591
 30
0.0
 11
-0.2682789261200003
 21
0.1251004155419993
 31
0.0
210
0.0
220
0.0
230
1.0
 40
0.84455750254212
 41
2.07527645293939
 42
4.20790857044512
  0
SPLINE
  5
7C33
330
1F
100
AcDbEntity
  8
AM_0
  6
Continuous
100
AcDbSpline
210
0.0
220
0.0
230
1.0
 70
     8
 71
     3
 72
    11
 73
     7
 74
     5
 42
0.0000000001
 43
0.0000000001
 44
0.0000000001
 40
0.0
 40
0.0
 40
0.0
 40
0.0
 40
0.2337218984712016
 40
0.4736127138873114
 40
0.7202068621410903
 40
0.974428377398941
 40
0.974428377398941
 40
0.974428377398941
 40
0.974428377398941
 10
-0.1385470000001794
 20
-0.1985789999959123
 30
0.0
 10
-0.2163007642062384
 20
-0.2034683243268505
 30
0.0
 10
-0.3738605458161894
 20
-0.213376023094479
 30
0.0
 10
-0.6134732912209384
 20
-0.2281615024805378
 30
0.0
 10
-0.8599307204836515
 20
-0.2430116256810503
 30
0.0
 10
-1.026655838476779
 20
-0.2514696038677521
 30
0.0
 10
-1.111288000000163
 20
-0.255762999995909
 30
0.0
 11
-0.1385470000001794
 21
-0.1985789999959123
 31
0.0
 11
-0.3718110000001422
 21
-0.2132019999959136
 31
0.0
 11
-0.6112470000001541
 21
-0.227966999995926
 31
0.0
 11
-0.857414000000168
 21
-0.2424749999959192
 31
0.0
 11
-1.111288000000163
 21
-0.255762999995909
 31
0.0
  0
SPLINE
  5
7C34
330
1F
100
AcDbEntity
  8
AM_0
  6
Continuous
100
AcDbSpline
210
0.0
220
0.0
230
1.0
 70
     8
 71
     3
 72
    11
 73
     7
 74
     5
 42
0.0000000001
 43
0.0000000001
 44
0.0000000001
 40
0.0
 40
0.0
 40
0.0
 40
0.0
 40
0.2337218984712016
 40
0.4736127138873114
 40
0.7202068621410903
 40
0.974428377398941
 40
0.974428377398941
 40
0.974428377398941
 40
0.974428377398941
 10
-0.1385470000001794
 20
-0.1985789999959123
 30
0.0
 10
-0.2163007642062384
 20
-0.2034683243268505
 30
0.0
 10
-0.3738605458161894
 20
-0.213376023094479
 30
0.0
 10
-0.6134732912209384
 20
-0.2281615024805378
 30
0.0
 10
-0.8599307204836515
 20
-0.2430116256810503
 30
0.0
 10
-1.026655838476779
 20
-0.2514696038677521
 30
0.0
 10
-1.111288000000163
 20
-0.255762999995909
 30
0.0
 11
-0.1385470000001794
 21
-0.1985789999959123
 31
0.0
 11
-0.3718110000001422
 21
-0.2132019999959136
 31
0.0
 11
-0.6112470000001541
 21
-0.227966999995926
 31
0.0
 11
-0.857414000000168
 21
-0.2424749999959192
 31
0.0
 11
-1.111288000000163
 21
-0.255762999995909
 31
0.0
  0
SPLINE
  5
7C35
330
1F
100
AcDbEntity
  8
AM_0
  6
Continuous
100
AcDbSpline
210
0.0
220
0.0
230
1.0
 70
     8
 71
     3
 72
    11
 73
     7
 74
     5
 42
0.0000000001
 43
0.0000000001
 44
0.0000000001
 40
0.0
 40
0.0
 40
0.0
 40
0.0
 40
0.2337218984712016
 40
0.4736127138873114
 40
0.7202068621410903
 40
0.974428377398941
 40
0.974428377398941
 40
0.974428377398941
 40
0.974428377398941
 10
-0.1385470000001794
 20
-0.1985789999959123
 30
0.0
 10
-0.2163007642062384
 20
-0.2034683243268505
 30
0.0
 10
-0.3738605458161894
 20
-0.213376023094479
 30
0.0
 10
-0.6134732912209384
 20
-0.2281615024805378
 30
0.0
 10
-0.8599307204836515
 20
-0.2430116256810503
 30
0.0
 10
-1.026655838476779
 20
-0.2514696038677521
 30
0.0
 10
-1.111288000000163
 20
-0.255762999995909
 30
0.0
 11
-0.1385470000001794
 21
-0.1985789999959123
 31
0.0
 11
-0.3718110000001422
 21
-0.2132019999959136
 31
0.0
 11
-0.6112470000001541
 21
-0.227966999995926
 31
0.0
 11
-0.857414000000168
 21
-0.2424749999959192
 31
0.0
 11
-1.111288000000163
 21
-0.255762999995909
 31
0.0
  0
SPLINE
  5
7C36
330
1F
100
AcDbEntity
  8
AM_0
  6
Continuous
100
AcDbSpline
210
0.0
220
0.0
230
1.0
 70
     8
 71
     3
 72
    11
 73
     7
 74
     5
 42
0.0000000001
 43
0.0000000001
 44
0.0000000001
 40
0.0
 40
0.0
 40
0.0
 40
0.0
 40
0.0088280045876684
 40
0.0176560489917194
 40
0.0264841741041312
 40
0.0353124208156758
 40
0.0353124208156758
 40
0.0353124208156758
 40
0.0353124208156758
 10
-0.1383970000001601
 20
-0.233890999995917
 30
0.0
 10
-0.1383986428657542
 20
-0.2309483309720578
 30
0.0
 10
-0.1384019286043519
 20
-0.2250629796522081
 30
0.0
 10
-0.1384312858534707
 20
-0.2162349615634281
 30
0.0
 10
-0.1384769290364947
 20
-0.2074069319471236
 30
0.0
 10
-0.1385236429050453
 20
-0.2015216574902444
 30
0.0
 10
-0.1385470000001794
 20
-0.1985789999959123
 30
0.0
 11
-0.1383970000001601
 21
-0.233890999995917
 31
0.0
 11
-0.1384060000001942
 21
-0.225062999995923
 31
0.0
 11
-0.1384340000001805
 21
-0.2162349999959289
 31
0.0
 11
-0.1384810000001755
 21
-0.2074069999959064
 31
0.0
 11
-0.1385470000001794
 21
-0.1985789999959123
 31
0.0
  0
SPLINE
  5
7C37
330
1F
100
AcDbEntity
  8
AM_0
  6
Continuous
100
AcDbSpline
210
0.0
220
0.0
230
1.0
 70
     8
 71
     3
 72
    11
 73
     7
 74
     5
 42
0.0000000001
 43
0.0000000001
 44
0.0000000001
 40
0.0
 40
0.0
 40
0.0
 40
0.0
 40
0.0088280045876684
 40
0.0176560489917194
 40
0.0264841741041312
 40
0.0353124208156758
 40
0.0353124208156758
 40
0.0353124208156758
 40
0.0353124208156758
 10
-0.1383970000001601
 20
-0.233890999995917
 30
0.0
 10
-0.1383986428657542
 20
-0.2309483309720578
 30
0.0
 10
-0.1384019286043519
 20
-0.2250629796522081
 30
0.0
 10
-0.1384312858534707
 20
-0.2162349615634281
 30
0.0
 10
-0.1384769290364947
 20
-0.2074069319471236
 30
0.0
 10
-0.1385236429050453
 20
-0.2015216574902444
 30
0.0
 10
-0.1385470000001794
 20
-0.1985789999959123
 30
0.0
 11
-0.1383970000001601
 21
-0.233890999995917
 31
0.0
 11
-0.1384060000001942
 21
-0.225062999995923
 31
0.0
 11
-0.1384340000001805
 21
-0.2162349999959289
 31
0.0
 11
-0.1384810000001755
 21
-0.2074069999959064
 31
0.0
 11
-0.1385470000001794
 21
-0.1985789999959123
 31
0.0
  0
SPLINE
  5
7C38
330
1F
100
AcDbEntity
  8
AM_0
  6
Continuous
100
AcDbSpline
210
0.0
220
0.0
230
1.0
 70
     8
 71
     3
 72
    11
 73
     7
 74
     5
 42
0.0000000001
 43
0.0000000001
 44
0.0000000001
 40
0.0
 40
0.0
 40
0.0
 40
0.0
 40
0.0088280045876684
 40
0.0176560489917194
 40
0.0264841741041312
 40
0.0353124208156758
 40
0.0353124208156758
 40
0.0353124208156758
 40
0.0353124208156758
 10
-0.1383970000001601
 20
-0.233890999995917
 30
0.0
 10
-0.1383986428657542
 20
-0.2309483309720578
 30
0.0
 10
-0.1384019286043519
 20
-0.2250629796522081
 30
0.0
 10
-0.1384312858534707
 20
-0.2162349615634281
 30
0.0
 10
-0.1384769290364947
 20
-0.2074069319471236
 30
0.0
 10
-0.1385236429050453
 20
-0.2015216574902444
 30
0.0
 10
-0.1385470000001794
 20
-0.1985789999959123
 30
0.0
 11
-0.1383970000001601
 21
-0.233890999995917
 31
0.0
 11
-0.1384060000001942
 21
-0.225062999995923
 31
0.0
 11
-0.1384340000001805
 21
-0.2162349999959289
 31
0.0
 11
-0.1384810000001755
 21
-0.2074069999959064
 31
0.0
 11
-0.1385470000001794
 21
-0.1985789999959123
 31
0.0
  0
SPLINE
  5
7C39
330
1F
100
AcDbEntity
  8
AM_0
  6
Continuous
100
AcDbSpline
210
0.0
220
0.0
230
1.0
 70
     8
 71
     3
 72
    11
 73
     7
 74
     5
 42
0.0000000001
 43
0.0000000001
 44
0.0000000001
 40
0.0
 40
0.0
 40
0.0
 40
0.0
 40
0.2088034901839632
 40
0.4176105964614937
 40
0.6264193648142489
 40
0.8352247663200733
 40
0.8352247663200733
 40
0.8352247663200733
 40
0.8352247663200733
 10
-1.111288000000163
 20
-0.255762999995909
 30
0.0
 10
-1.11368053382081
 20
-0.325335703104506
 30
0.0
 10
-1.118465642896401
 20
-0.4644823141933424
 30
0.0
 10
-1.137466007735849
 20
-0.6725127153192668
 30
0.0
 10
-1.164062716331136
 20
-0.8796907677036323
 30
0.0
 10
-1.188770305175501
 20
-1.016705957441846
 30
0.0
 10
-1.201124000000165
 20
-1.085212999995917
 30
0.0
 11
-1.111288000000163
 21
-0.255762999995909
 31
0.0
 11
-1.120436000000158
 21
-0.4643659999959199
 31
0.0
 11
-1.138732000000179
 21
-0.6723699999959082
 31
0.0
 11
-1.165807000000146
 21
-0.8794159999958994
 31
0.0
 11
-1.201124000000165
 21
-1.085212999995917
 31
0.0
  0
SPLINE
  5
7C3A
330
1F
100
AcDbEntity
  8
AM_0
  6
Continuous
100
AcDbSpline
210
0.0
220
0.0
230
1.0
 70
     8
 71
     3
 72
    11
 73
     7
 74
     5
 42
0.0000000001
 43
0.0000000001
 44
0.0000000001
 40
0.0
 40
0.0
 40
0.0
 40
0.0
 40
0.2088034901839632
 40
0.4176105964614937
 40
0.6264193648142489
 40
0.8352247663200733
 40
0.8352247663200733
 40
0.8352247663200733
 40
0.8352247663200733
 10
-1.111288000000163
 20
-0.255762999995909
 30
0.0
 10
-1.11368053382081
 20
-0.325335703104506
 30
0.0
 10
-1.118465642896401
 20
-0.4644823141933424
 30
0.0
 10
-1.137466007735849
 20
-0.6725127153192668
 30
0.0
 10
-1.164062716331136
 20
-0.8796907677036323
 30
0.0
 10
-1.188770305175501
 20
-1.016705957441846
 30
0.0
 10
-1.201124000000165
 20
-1.085212999995917
 30
0.0
 11
-1.111288000000163
 21
-0.255762999995909
 31
0.0
 11
-1.120436000000158
 21
-0.4643659999959199
 31
0.0
 11
-1.138732000000179
 21
-0.6723699999959082
 31
0.0
 11
-1.165807000000146
 21
-0.8794159999958994
 31
0.0
 11
-1.201124000000165
 21
-1.085212999995917
 31
0.0
  0
SPLINE
  5
7C3B
330
1F
100
AcDbEntity
  8
AM_0
  6
Continuous
100
AcDbSpline
210
0.0
220
0.0
230
1.0
 70
     8
 71
     3
 72
    11
 73
     7
 74
     5
 42
0.0000000001
 43
0.0000000001
 44
0.0000000001
 40
0.0
 40
0.0
 40
0.0
 40
0.0
 40
0.2088034901839632
 40
0.4176105964614937
 40
0.6264193648142489
 40
0.8352247663200733
 40
0.8352247663200733
 40
0.8352247663200733
 40
0.8352247663200733
 10
-1.111288000000163
 20
-0.255762999995909
 30
0.0
 10
-1.11368053382081
 20
-0.325335703104506
 30
0.0
 10
-1.118465642896401
 20
-0.4644823141933424
 30
0.0
 10
-1.137466007735849
 20
-0.6725127153192668
 30
0.0
 10
-1.164062716331136
 20
-0.8796907677036323
 30
0.0
 10
-1.188770305175501
 20
-1.016705957441846
 30
0.0
 10
-1.201124000000165
 20
-1.085212999995917
 30
0.0
 11
-1.111288000000163
 21
-0.255762999995909
 31
0.0
 11
-1.120436000000158
 21
-0.4643659999959199
 31
0.0
 11
-1.138732000000179
 21
-0.6723699999959082
 31
0.0
 11
-1.165807000000146
 21
-0.8794159999958994
 31
0.0
 11
-1.201124000000165
 21
-1.085212999995917
 31
0.0
  0
SPLINE
  5
7C3C
330
1F
100
AcDbEntity
  8
AM_0
  6
Continuous
100
AcDbSpline
210
0.0
220
0.0
230
1.0
 70
     8
 71
     3
 72
    11
 73
     7
 74
     5
 42
0.0000000001
 43
0.0000000001
 44
0.0000000001
 40
0.0
 40
0.0
 40
0.0
 40
0.0
 40
0.0771518339704348
 40
0.142569722846537
 40
0.1872680911612819
 40
0.2077978775459363
 40
0.2077978775459363
 40
0.2077978775459363
 40
0.2077978775459363
 10
-2.267276000000199
 20
-3.567877999995919
 30
0.0
 10
-2.247439264971359
 20
-3.551261009980683
 30
0.0
 10
-2.210782744060582
 20
-3.520554291305355
 30
0.0
 10
-2.170425707245097
 20
-3.474465553699521
 30
0.0
 10
-2.13902840259312
 20
-3.440408575373862
 30
0.0
 10
-2.137907721160569
 20
-3.418291185552987
 30
0.0
 10
-2.137555000000181
 20
-3.411329999995903
 30
0.0
 11
-2.267276000000199
 21
-3.567877999995919
 31
0.0
 11
-2.209503000000202
 21
-3.5167439999959
 31
0.0
 11
-2.164996000000135
 21
-3.468799999995899
 31
0.0
 11
-2.140055000000123
 21
-3.431706999995899
 31
0.0
 11
-2.137555000000181
 21
-3.411329999995903
 31
0.0
  0
SPLINE
  5
7C3D
330
1F
100
AcDbEntity
  8
AM_0
  6
Continuous
100
AcDbSpline
210
0.0
220
0.0
230
1.0
 70
     8
 71
     3
 72
    11
 73
     7
 74
     5
 42
0.0000000001
 43
0.0000000001
 44
0.0000000001
 40
0.0
 40
0.0
 40
0.0
 40
0.0
 40
0.0771518339704348
 40
0.142569722846537
 40
0.1872680911612819
 40
0.2077978775459363
 40
0.2077978775459363
 40
0.2077978775459363
 40
0.2077978775459363
 10
-2.267276000000199
 20
-3.567877999995919
 30
0.0
 10
-2.247439264971359
 20
-3.551261009980683
 30
0.0
 10
-2.210782744060582
 20
-3.520554291305355
 30
0.0
 10
-2.170425707245097
 20
-3.474465553699521
 30
0.0
 10
-2.13902840259312
 20
-3.440408575373862
 30
0.0
 10
-2.137907721160569
 20
-3.418291185552987
 30
0.0
 10
-2.137555000000181
 20
-3.411329999995903
 30
0.0
 11
-2.267276000000199
 21
-3.567877999995919
 31
0.0
 11
-2.209503000000202
 21
-3.5167439999959
 31
0.0
 11
-2.164996000000135
 21
-3.468799999995899
 31
0.0
 11
-2.140055000000123
 21
-3.431706999995899
 31
0.0
 11
-2.137555000000181
 21
-3.411329999995903
 31
0.0
  0
SPLINE
  5
7C3E
330
1F
100
AcDbEntity
  8
AM_0
  6
Continuous
100
AcDbSpline
210
0.0
220
0.0
230
1.0
 70
     8
 71
     3
 72
    11
 73
     7
 74
     5
 42
0.0000000001
 43
0.0000000001
 44
0.0000000001
 40
0.0
 40
0.0
 40
0.0
 40
0.0
 40
0.0771518339704348
 40
0.142569722846537
 40
0.1872680911612819
 40
0.2077978775459363
 40
0.2077978775459363
 40
0.2077978775459363
 40
0.2077978775459363
 10
-2.267276000000199
 20
-3.567877999995919
 30
0.0
 10
-2.247439264971359
 20
-3.551261009980683
 30
0.0
 10
-2.210782744060582
 20
-3.520554291305355
 30
0.0
 10
-2.170425707245097
 20
-3.474465553699521
 30
0.0
 10
-2.13902840259312
 20
-3.440408575373862
 30
0.0
 10
-2.137907721160569
 20
-3.418291185552987
 30
0.0
 10
-2.137555000000181
 20
-3.411329999995903
 30
0.0
 11
-2.267276000000199
 21
-3.567877999995919
 31
0.0
 11
-2.209503000000202
 21
-3.5167439999959
 31
0.0
 11
-2.164996000000135
 21
-3.468799999995899
 31
0.0
 11
-2.140055000000123
 21
-3.431706999995899
 31
0.0
 11
-2.137555000000181
 21
-3.411329999995903
 31
0.0
  0
SPLINE
  5
7C3F
330
1F
100
AcDbEntity
  8
AM_0
  6
Continuous
100
AcDbSpline
210
0.0
220
0.0
230
1.0
 70
     8
 71
     3
 72
    11
 73
     7
 74
     5
 42
0.0000000001
 43
0.0000000001
 44
0.0000000001
 40
0.0
 40
0.0
 40
0.0
 40
0.0
 40
0.0532000791822666
 40
0.1062063297288058
 40
0.1590414987169141
 40
0.2117247685470613
 40
0.2117247685470613
 40
0.2117247685470613
 40
0.2117247685470613
 10
-2.137391000000143
 20
-3.100379999995912
 30
0.0
 10
-2.145972012589856
 20
-3.115899710114994
 30
0.0
 10
-2.163102773793945
 20
-3.146882585996729
 30
0.0
 10
-2.189925211431819
 20
-3.192615481732168
 30
0.0
 10
-2.21743642585559
 20
-3.23773590434241
 30
0.0
 10
-2.236515296953648
 20
-3.267286147804074
 30
0.0
 10
-2.246041000000154
 20
-3.282039999995906
 30
0.0
 11
-2.137391000000143
 21
-3.100379999995912
 31
0.0
 11
-2.163330000000136
 21
-3.146827999995909
 31
0.0
 11
-2.190084000000176
 21
-3.192586999995914
 31
0.0
 11
-2.217655000000198
 21
-3.237657999995922
 31
0.0
 11
-2.246041000000154
 21
-3.282039999995906
 31
0.0
  0
SPLINE
  5
7C40
330
1F
100
AcDbEntity
  8
AM_0
  6
Continuous
100
AcDbSpline
210
0.0
220
0.0
230
1.0
 70
     8
 71
     3
 72
    11
 73
     7
 74
     5
 42
0.0000000001
 43
0.0000000001
 44
0.0000000001
 40
0.0
 40
0.0
 40
0.0
 40
0.0
 40
0.0532000791822666
 40
0.1062063297288058
 40
0.1590414987169141
 40
0.2117247685470613
 40
0.2117247685470613
 40
0.2117247685470613
 40
0.2117247685470613
 10
-2.137391000000143
 20
-3.100379999995912
 30
0.0
 10
-2.145972012589856
 20
-3.115899710114994
 30
0.0
 10
-2.163102773793945
 20
-3.146882585996729
 30
0.0
 10
-2.189925211431819
 20
-3.192615481732168
 30
0.0
 10
-2.21743642585559
 20
-3.23773590434241
 30
0.0
 10
-2.236515296953648
 20
-3.267286147804074
 30
0.0
 10
-2.246041000000154
 20
-3.282039999995906
 30
0.0
 11
-2.137391000000143
 21
-3.100379999995912
 31
0.0
 11
-2.163330000000136
 21
-3.146827999995909
 31
0.0
 11
-2.190084000000176
 21
-3.192586999995914
 31
0.0
 11
-2.217655000000198
 21
-3.237657999995922
 31
0.0
 11
-2.246041000000154
 21
-3.282039999995906
 31
0.0
  0
SPLINE
  5
7C41
330
1F
100
AcDbEntity
  8
AM_0
  6
Continuous
100
AcDbSpline
210
0.0
220
0.0
230
1.0
 70
     8
 71
     3
 72
    11
 73
     7
 74
     5
 42
0.0000000001
 43
0.0000000001
 44
0.0000000001
 40
0.0
 40
0.0
 40
0.0
 40
0.0
 40
0.0532000791822666
 40
0.1062063297288058
 40
0.1590414987169141
 40
0.2117247685470613
 40
0.2117247685470613
 40
0.2117247685470613
 40
0.2117247685470613
 10
-2.137391000000143
 20
-3.100379999995912
 30
0.0
 10
-2.145972012589856
 20
-3.115899710114994
 30
0.0
 10
-2.163102773793945
 20
-3.146882585996729
 30
0.0
 10
-2.189925211431819
 20
-3.192615481732168
 30
0.0
 10
-2.21743642585559
 20
-3.23773590434241
 30
0.0
 10
-2.236515296953648
 20
-3.267286147804074
 30
0.0
 10
-2.246041000000154
 20
-3.282039999995906
 30
0.0
 11
-2.137391000000143
 21
-3.100379999995912
 31
0.0
 11
-2.163330000000136
 21
-3.146827999995909
 31
0.0
 11
-2.190084000000176
 21
-3.192586999995914
 31
0.0
 11
-2.217655000000198
 21
-3.237657999995922
 31
0.0
 11
-2.246041000000154
 21
-3.282039999995906
 31
0.0
  0
SPLINE
  5
7C42
330
1F
100
AcDbEntity
  8
AM_0
  6
Continuous
100
AcDbSpline
210
0.0
220
0.0
230
1.0
 70
     8
 71
     3
 72
    11
 73
     7
 74
     5
 42
0.0000000001
 43
0.0000000001
 44
0.0000000001
 40
0.0
 40
0.0
 40
0.0
 40
0.0
 40
0.561697272388768
 40
1.123273685103005
 40
1.684823747202564
 40
2.24637818005836
 40
2.24637818005836
 40
2.24637818005836
 40
2.24637818005836
 10
-1.201124000000165
 20
-1.085212999995917
 30
0.0
 10
-1.241480507488766
 20
-1.26827856835824
 30
0.0
 10
-1.322184839008525
 20
-1.634370315101667
 30
0.0
 10
-1.52448629508753
 20
-2.160273611197319
 30
0.0
 10
-1.790388527834898
 20
-2.657694786274623
 30
0.0
 10
-2.021723209185362
 20
-2.952817879247888
 30
0.0
 10
-2.137391000000143
 20
-3.100379999995912
 30
0.0
 11
-1.201124000000165
 21
-1.085212999995917
 31
0.0
 11
-1.335739000000159
 21
-1.630540999995901
 31
0.0
 11
-1.535093000000129
 21
-2.155541999995905
 31
0.0
 11
-1.803905000000151
 21
-2.648571999995911
 31
0.0
 11
-2.137391000000143
 21
-3.100379999995912
 31
0.0
  0
SPLINE
  5
7C43
330
1F
100
AcDbEntity
  8
AM_0
  6
Continuous
100
AcDbSpline
210
0.0
220
0.0
230
1.0
 70
     8
 71
     3
 72
    11
 73
     7
 74
     5
 42
0.0000000001
 43
0.0000000001
 44
0.0000000001
 40
0.0
 40
0.0
 40
0.0
 40
0.0
 40
0.561697272388768
 40
1.123273685103005
 40
1.684823747202564
 40
2.24637818005836
 40
2.24637818005836
 40
2.24637818005836
 40
2.24637818005836
 10
-1.201124000000165
 20
-1.085212999995917
 30
0.0
 10
-1.241480507488766
 20
-1.26827856835824
 30
0.0
 10
-1.322184839008525
 20
-1.634370315101667
 30
0.0
 10
-1.52448629508753
 20
-2.160273611197319
 30
0.0
 10
-1.790388527834898
 20
-2.657694786274623
 30
0.0
 10
-2.021723209185362
 20
-2.952817879247888
 30
0.0
 10
-2.137391000000143
 20
-3.100379999995912
 30
0.0
 11
-1.201124000000165
 21
-1.085212999995917
 31
0.0
 11
-1.335739000000159
 21
-1.630540999995901
 31
0.0
 11
-1.535093000000129
 21
-2.155541999995905
 31
0.0
 11
-1.803905000000151
 21
-2.648571999995911
 31
0.0
 11
-2.137391000000143
 21
-3.100379999995912
 31
0.0
  0
SPLINE
  5
7C44
330
1F
100
AcDbEntity
  8
AM_0
  6
Continuous
100
AcDbSpline
210
0.0
220
0.0
230
1.0
 70
     8
 71
     3
 72
    11
 73
     7
 74
     5
 42
0.0000000001
 43
0.0000000001
 44
0.0000000001
 40
0.0
 40
0.0
 40
0.0
 40
0.0
 40
0.561697272388768
 40
1.123273685103005
 40
1.684823747202564
 40
2.24637818005836
 40
2.24637818005836
 40
2.24637818005836
 40
2.24637818005836
 10
-1.201124000000165
 20
-1.085212999995917
 30
0.0
 10
-1.241480507488766
 20
-1.26827856835824
 30
0.0
 10
-1.322184839008525
 20
-1.634370315101667
 30
0.0
 10
-1.52448629508753
 20
-2.160273611197319
 30
0.0
 10
-1.790388527834898
 20
-2.657694786274623
 30
0.0
 10
-2.021723209185362
 20
-2.952817879247888
 30
0.0
 10
-2.137391000000143
 20
-3.100379999995912
 30
0.0
 11
-1.201124000000165
 21
-1.085212999995917
 31
0.0
 11
-1.335739000000159
 21
-1.630540999995901
 31
0.0
 11
-1.535093000000129
 21
-2.155541999995905
 31
0.0
 11
-1.803905000000151
 21
-2.648571999995911
 31
0.0
 11
-2.137391000000143
 21
-3.100379999995912
 31
0.0
  0
SPLINE
  5
7C45
330
1F
100
AcDbEntity
  8
AM_0
  6
Continuous
100
AcDbSpline
210
0.0
220
0.0
230
1.0
 70
     8
 71
     3
 72
    11
 73
     7
 74
     5
 42
0.0000000001
 43
0.0000000001
 44
0.0000000001
 40
0.0
 40
0.0
 40
0.0
 40
0.0
 40
0.0604719091975686
 40
0.1209842138057972
 40
0.181538802500638
 40
0.2421340357867746
 40
0.2421340357867746
 40
0.2421340357867746
 40
0.2421340357867746
 10
-0.0000000000001634
 20
0.0000000000040834
 30
0.0
 10
-0.0115365846624757
 20
-0.0165294912587684
 30
0.0
 10
-0.0346174604591006
 20
-0.0495995155325567
 30
0.0
 10
-0.069246165673149
 20
-0.0992247912849973
 30
0.0
 10
-0.1038917885677973
 20
-0.148888388273423
 30
0.0
 10
-0.1269926794810365
 20
-0.1820117585651634
 30
0.0
 10
-0.1385470000001794
 20
-0.1985789999959123
 30
0.0
 11
-0.0000000000001634
 21
0.0000000000040834
 31
0.0
 11
-0.0346090000001522
 21
-0.0495889999959142
 31
0.0
 11
-0.0692370000001499
 21
-0.0992139999959062
 31
0.0
 11
-0.1038830000001589
 21
-0.1488779999959133
 31
0.0
 11
-0.1385470000001794
 21
-0.1985789999959123
 31
0.0
  0
SPLINE
  5
7C46
330
1F
100
AcDbEntity
  8
AM_0
  6
Continuous
100
AcDbSpline
210
0.0
220
0.0
230
1.0
 70
     8
 71
     3
 72
    11
 73
     7
 74
     5
 42
0.0000000001
 43
0.0000000001
 44
0.0000000001
 40
0.0
 40
0.0
 40
0.0
 40
0.0
 40
0.0604719091975686
 40
0.1209842138057972
 40
0.181538802500638
 40
0.2421340357867746
 40
0.2421340357867746
 40
0.2421340357867746
 40
0.2421340357867746
 10
-0.0000000000001634
 20
0.0000000000040834
 30
0.0
 10
-0.0115365846624757
 20
-0.0165294912587684
 30
0.0
 10
-0.0346174604591006
 20
-0.0495995155325567
 30
0.0
 10
-0.069246165673149
 20
-0.0992247912849973
 30
0.0
 10
-0.1038917885677973
 20
-0.148888388273423
 30
0.0
 10
-0.1269926794810365
 20
-0.1820117585651634
 30
0.0
 10
-0.1385470000001794
 20
-0.1985789999959123
 30
0.0
 11
-0.0000000000001634
 21
0.0000000000040834
 31
0.0
 11
-0.0346090000001522
 21
-0.0495889999959142
 31
0.0
 11
-0.0692370000001499
 21
-0.0992139999959062
 31
0.0
 11
-0.1038830000001589
 21
-0.1488779999959133
 31
0.0
 11
-0.1385470000001794
 21
-0.1985789999959123
 31
0.0
  0
SPLINE
  5
7C47
330
1F
100
AcDbEntity
  8
AM_0
  6
Continuous
100
AcDbSpline
210
0.0
220
0.0
230
1.0
 70
     8
 71
     3
 72
    11
 73
     7
 74
     5
 42
0.0000000001
 43
0.0000000001
 44
0.0000000001
 40
0.0
 40
0.0
 40
0.0
 40
0.0
 40
0.0604719091975686
 40
0.1209842138057972
 40
0.181538802500638
 40
0.2421340357867746
 40
0.2421340357867746
 40
0.2421340357867746
 40
0.2421340357867746
 10
-0.0000000000001634
 20
0.0000000000040834
 30
0.0
 10
-0.0115365846624757
 20
-0.0165294912587684
 30
0.0
 10
-0.0346174604591006
 20
-0.0495995155325567
 30
0.0
 10
-0.069246165673149
 20
-0.0992247912849973
 30
0.0
 10
-0.1038917885677973
 20
-0.148888388273423
 30
0.0
 10
-0.1269926794810365
 20
-0.1820117585651634
 30
0.0
 10
-0.1385470000001794
 20
-0.1985789999959123
 30
0.0
 11
-0.0000000000001634
 21
0.0000000000040834
 31
0.0
 11
-0.0346090000001522
 21
-0.0495889999959142
 31
0.0
 11
-0.0692370000001499
 21
-0.0992139999959062
 31
0.0
 11
-0.1038830000001589
 21
-0.1488779999959133
 31
0.0
 11
-0.1385470000001794
 21
-0.1985789999959123
 31
0.0
  0
SPLINE
  5
7C48
330
1F
100
AcDbEntity
  8
AM_0
  6
Continuous
100
AcDbSpline
210
0.0
220
0.0
230
1.0
 70
     8
 71
     3
 72
    11
 73
     7
 74
     5
 42
0.0000000001
 43
0.0000000001
 44
0.0000000001
 40
0.0
 40
0.0
 40
0.0
 40
0.0
 40
0.2437767702817335
 40
0.4865655250563099
 40
0.7283894565871028
 40
0.9692747052346792
 40
0.9692747052346792
 40
0.9692747052346792
 40
0.9692747052346792
 10
-0.8655080000001433
 20
-2.600433999995912
 30
0.0
 10
-0.8185180467178323
 20
-2.534113883740488
 30
0.0
 10
-0.724728588170345
 20
-2.401742443466165
 30
0.0
 10
-0.5978625071442351
 20
-2.194561069035478
 30
0.0
 10
-0.4809510329216307
 20
-1.98269312208041
 30
0.0
 10
-0.4131023644906639
 20
-1.836746437383405
 30
0.0
 10
-0.3792440000001414
 20
-1.763914999995915
 30
0.0
 11
-0.8655080000001433
 21
-2.600433999995912
 31
0.0
 11
-0.7268080000001726
 21
-2.399960999995909
 31
0.0
 11
-0.5992790000001924
 21
-2.193362999995923
 31
0.0
 11
-0.4832940000001699
 21
-1.981168999995913
 31
0.0
 11
-0.3792440000001414
 21
-1.763914999995915
 31
0.0
  0
SPLINE
  5
7C49
330
1F
100
AcDbEntity
  8
AM_0
  6
Continuous
100
AcDbSpline
210
0.0
220
0.0
230
1.0
 70
     8
 71
     3
 72
    11
 73
     7
 74
     5
 42
0.0000000001
 43
0.0000000001
 44
0.0000000001
 40
0.0
 40
0.0
 40
0.0
 40
0.0
 40
0.2437767702817335
 40
0.4865655250563099
 40
0.7283894565871028
 40
0.9692747052346792
 40
0.9692747052346792
 40
0.9692747052346792
 40
0.9692747052346792
 10
-0.8655080000001433
 20
-2.600433999995912
 30
0.0
 10
-0.8185180467178323
 20
-2.534113883740488
 30
0.0
 10
-0.724728588170345
 20
-2.401742443466165
 30
0.0
 10
-0.5978625071442351
 20
-2.194561069035478
 30
0.0
 10
-0.4809510329216307
 20
-1.98269312208041
 30
0.0
 10
-0.4131023644906639
 20
-1.836746437383405
 30
0.0
 10
-0.3792440000001414
 20
-1.763914999995915
 30
0.0
 11
-0.8655080000001433
 21
-2.600433999995912
 31
0.0
 11
-0.7268080000001726
 21
-2.399960999995909
 31
0.0
 11
-0.5992790000001924
 21
-2.193362999995923
 31
0.0
 11
-0.4832940000001699
 21
-1.981168999995913
 31
0.0
 11
-0.3792440000001414
 21
-1.763914999995915
 31
0.0
  0
SPLINE
  5
7C4A
330
1F
100
AcDbEntity
  8
AM_0
  6
Continuous
100
AcDbSpline
210
0.0
220
0.0
230
1.0
 70
     8
 71
     3
 72
    11
 73
     7
 74
     5
 42
0.0000000001
 43
0.0000000001
 44
0.0000000001
 40
0.0
 40
0.0
 40
0.0
 40
0.0
 40
0.2437767702817335
 40
0.4865655250563099
 40
0.7283894565871028
 40
0.9692747052346792
 40
0.9692747052346792
 40
0.9692747052346792
 40
0.9692747052346792
 10
-0.8655080000001433
 20
-2.600433999995912
 30
0.0
 10
-0.8185180467178323
 20
-2.534113883740488
 30
0.0
 10
-0.724728588170345
 20
-2.401742443466165
 30
0.0
 10
-0.5978625071442351
 20
-2.194561069035478
 30
0.0
 10
-0.4809510329216307
 20
-1.98269312208041
 30
0.0
 10
-0.4131023644906639
 20
-1.836746437383405
 30
0.0
 10
-0.3792440000001414
 20
-1.763914999995915
 30
0.0
 11
-0.8655080000001433
 21
-2.600433999995912
 31
0.0
 11
-0.7268080000001726
 21
-2.399960999995909
 31
0.0
 11
-0.5992790000001924
 21
-2.193362999995923
 31
0.0
 11
-0.4832940000001699
 21
-1.981168999995913
 31
0.0
 11
-0.3792440000001414
 21
-1.763914999995915
 31
0.0
  0
LINE
  5
7C4B
330
1F
100
AcDbEntity
  8
AM_0
  6
Continuous
100
AcDbLine
 10
-0.9749540000001907
 20
-2.750172999995895
 30
0.0
 11
-0.8655560000001358
 21
-2.600499999995916
 31
0.0
  0
LINE
  5
7C4C
330
1F
100
AcDbEntity
  8
AM_0
  6
Continuous
100
AcDbLine
 10
-0.9749540000001907
 20
-2.750172999995895
 30
0.0
 11
-0.8655560000001358
 21
-2.600499999995916
 31
0.0
  0
LINE
  5
7C4D
330
1F
100
AcDbEntity
  8
AM_0
  6
Continuous
100
AcDbLine
 10
-0.9749540000001907
 20
-2.750172999995895
 30
0.0
 11
-0.8655560000001358
 21
-2.600499999995916
 31
0.0
  0
SPLINE
  5
7C4E
330
1F
100
AcDbEntity
  8
AM_0
  6
Continuous
100
AcDbSpline
210
0.0
220
0.0
230
1.0
 70
     8
 71
     3
 72
    11
 73
     7
 74
     5
 42
0.0000000001
 43
0.0000000001
 44
0.0000000001
 40
0.0
 40
0.0
 40
0.0
 40
0.0
 40
0.4470487233154544
 40
0.8915081530961865
 40
1.33390057189424
 40
1.774794356030514
 40
1.774794356030514
 40
1.774794356030514
 40
1.774794356030514
 10
-0.3623500000001623
 20
-1.725554999995903
 30
0.0
 10
-0.3068451815579134
 20
-1.587104036348357
 30
0.0
 10
-0.1961570270086578
 20
-1.31100401311059
 30
0.0
 10
-0.0855673314473149
 20
-0.8793294900870412
 30
0.0
 10
-0.0132912974920066
 20
-0.4416440924237633
 30
0.0
 10
-0.0044254183756695
 20
-0.1470480879093324
 30
0.0
 10
-0.0000000000001634
 20
0.0000000000040834
 30
0.0
 11
-0.3623500000001623
 21
-1.725554999995903
 31
0.0
 11
-0.2050830000001738
 21
-1.307081999995925
 31
0.0
 11
-0.0917380000001378
 21
-0.8773179999959193
 31
0.0
 11
-0.0230470000001953
 21
-0.4402909999959188
 31
0.0
 11
-0.0000000000001634
 21
0.0000000000040834
 31
0.0
  0
SPLINE
  5
7C4F
330
1F
100
AcDbEntity
  8
AM_0
  6
Continuous
100
AcDbSpline
210
0.0
220
0.0
230
1.0
 70
     8
 71
     3
 72
    11
 73
     7
 74
     5
 42
0.0000000001
 43
0.0000000001
 44
0.0000000001
 40
0.0
 40
0.0
 40
0.0
 40
0.0
 40
0.4470487233154544
 40
0.8915081530961865
 40
1.33390057189424
 40
1.774794356030514
 40
1.774794356030514
 40
1.774794356030514
 40
1.774794356030514
 10
-0.3623500000001623
 20
-1.725554999995903
 30
0.0
 10
-0.3068451815579134
 20
-1.587104036348357
 30
0.0
 10
-0.1961570270086578
 20
-1.31100401311059
 30
0.0
 10
-0.0855673314473149
 20
-0.8793294900870412
 30
0.0
 10
-0.0132912974920066
 20
-0.4416440924237633
 30
0.0
 10
-0.0044254183756695
 20
-0.1470480879093324
 30
0.0
 10
-0.0000000000001634
 20
0.0000000000040834
 30
0.0
 11
-0.3623500000001623
 21
-1.725554999995903
 31
0.0
 11
-0.2050830000001738
 21
-1.307081999995925
 31
0.0
 11
-0.0917380000001378
 21
-0.8773179999959193
 31
0.0
 11
-0.0230470000001953
 21
-0.4402909999959188
 31
0.0
 11
-0.0000000000001634
 21
0.0000000000040834
 31
0.0
  0
SPLINE
  5
7C50
330
1F
100
AcDbEntity
  8
AM_0
  6
Continuous
100
AcDbSpline
210
0.0
220
0.0
230
1.0
 70
     8
 71
     3
 72
    11
 73
     7
 74
     5
 42
0.0000000001
 43
0.0000000001
 44
0.0000000001
 40
0.0
 40
0.0
 40
0.0
 40
0.0
 40
0.4470487233154544
 40
0.8915081530961865
 40
1.33390057189424
 40
1.774794356030514
 40
1.774794356030514
 40
1.774794356030514
 40
1.774794356030514
 10
-0.3623500000001623
 20
-1.725554999995903
 30
0.0
 10
-0.3068451815579134
 20
-1.587104036348357
 30
0.0
 10
-0.1961570270086578
 20
-1.31100401311059
 30
0.0
 10
-0.0855673314473149
 20
-0.8793294900870412
 30
0.0
 10
-0.0132912974920066
 20
-0.4416440924237633
 30
0.0
 10
-0.0044254183756695
 20
-0.1470480879093324
 30
0.0
 10
-0.0000000000001634
 20
0.0000000000040834
 30
0.0
 11
-0.3623500000001623
 21
-1.725554999995903
 31
0.0
 11
-0.2050830000001738
 21
-1.307081999995925
 31
0.0
 11
-0.0917380000001378
 21
-0.8773179999959193
 31
0.0
 11
-0.0230470000001953
 21
-0.4402909999959188
 31
0.0
 11
-0.0000000000001634
 21
0.0000000000040834
 31
0.0
  0
LINE
  5
7C51
330
1F
100
AcDbEntity
  8
AM_0
  6
Continuous
100
AcDbLine
 10
-0.3792440000001414
 20
-1.763913999995917
 30
0.0
 11
-0.3623520000001573
 21
-1.725553999995906
 31
0.0
  0
LINE
  5
7C52
330
1F
100
AcDbEntity
  8
AM_0
  6
Continuous
100
AcDbLine
 10
-0.3792440000001414
 20
-1.763913999995917
 30
0.0
 11
-0.3623520000001573
 21
-1.725553999995906
 31
0.0
  0
LINE
  5
7C53
330
1F
100
AcDbEntity
  8
AM_0
  6
Continuous
100
AcDbLine
 10
-0.3792440000001414
 20
-1.763913999995917
 30
0.0
 11
-0.3623520000001573
 21
-1.725553999995906
 31
0.0
  0
LINE
  5
7C54
330
1F
100
AcDbEntity
  8
AM_0
  6
Continuous
100
AcDbLine
 10
-3.119802000000162
 20
-1.799999999995927
 30
0.0
 11
-3.22853900000018
 21
-1.799999999995927
 31
0.0
  0
LINE
  5
7C55
330
1F
100
AcDbEntity
  8
AM_0
  6
Continuous
100
AcDbLine
 10
-3.119802000000162
 20
-1.799999999995927
 30
0.0
 11
-3.22853900000018
 21
-1.799999999995927
 31
0.0
  0
LINE
  5
7C56
330
1F
100
AcDbEntity
  8
AM_0
  6
Continuous
100
AcDbLine
 10
-3.119802000000162
 20
-1.799999999995927
 30
0.0
 11
-3.22853900000018
 21
-1.799999999995927
 31
0.0
  0
LINE
  5
7C57
330
1F
100
AcDbEntity
  8
AM_0
  6
Continuous
100
AcDbLine
 10
-3.22853900000018
 20
-1.799999999995927
 30
0.0
 11
-2.137391000000143
 21
-3.100379999995912
 31
0.0
  0
LINE
  5
7C58
330
1F
100
AcDbEntity
  8
AM_0
  6
Continuous
100
AcDbLine
 10
-3.22853900000018
 20
-1.799999999995927
 30
0.0
 11
-2.137391000000143
 21
-3.100379999995912
 31
0.0
  0
LINE
  5
7C59
330
1F
100
AcDbEntity
  8
AM_0
  6
Continuous
100
AcDbLine
 10
-3.22853900000018
 20
-1.799999999995927
 30
0.0
 11
-2.137391000000143
 21
-3.100379999995912
 31
0.0
  0
LINE
  5
7C5B
330
1F
100
AcDbEntity
  8
AM_0
  6
Continuous
100
AcDbLine
 10
-33.99617900000019
 20
-7.318754999995988
 30
0.0
 11
-17.00000000000017
 21
-4.249999999995948
 31
0.0
  0
LINE
  5
7C5C
330
1F
100
AcDbEntity
  8
AM_0
  6
Continuous
100
AcDbLine
 10
-33.99617900000019
 20
-7.318754999995988
 30
0.0
 11
-17.00000000000017
 21
-4.249999999995948
 31
0.0
  0
LINE
  5
7C5D
330
1F
100
AcDbEntity
  8
AM_0
  6
Continuous
100
AcDbLine
 10
-33.99617900000019
 20
-7.318754999995988
 30
0.0
 11
-17.00000000000017
 21
-4.249999999995948
 31
0.0
  0
LINE
  5
7C5E
330
1F
100
AcDbEntity
  8
AM_0
  6
Continuous
100
AcDbLine
 10
-17.00000000000018
 20
4.250000000004051
 30
0.0
 11
-33.99617900000022
 21
7.31875500000403
 31
0.0
  0
LINE
  5
7C5F
330
1F
100
AcDbEntity
  8
AM_0
  6
Continuous
100
AcDbLine
 10
-17.00000000000018
 20
4.250000000004051
 30
0.0
 11
-33.99617900000022
 21
7.31875500000403
 31
0.0
  0
LINE
  5
7C60
330
1F
100
AcDbEntity
  8
AM_0
  6
Continuous
100
AcDbLine
 10
-17.00000000000018
 20
4.250000000004051
 30
0.0
 11
-33.99617900000022
 21
7.31875500000403
 31
0.0
  0
LINE
  5
7C61
330
1F
100
AcDbEntity
  8
AM_0
  6
Continuous
100
AcDbLine
 10
-5.702095000000155
 20
1.388261000004086
 30
0.0
 11
-3.632809000000181
 21
-1.077817999995925
 31
0.0
  0
LINE
  5
7C62
330
1F
100
AcDbEntity
  8
AM_0
  6
Continuous
100
AcDbLine
 10
-5.702095000000155
 20
1.388261000004086
 30
0.0
 11
-3.632809000000181
 21
-1.077817999995925
 31
0.0
  0
LINE
  5
7C63
330
1F
100
AcDbEntity
  8
AM_0
  6
Continuous
100
AcDbLine
 10
-5.702095000000155
 20
1.388261000004086
 30
0.0
 11
-3.632809000000181
 21
-1.077817999995925
 31
0.0
  0
LINE
  5
7C64
330
1F
100
AcDbEntity
  8
AM_0
  6
Continuous
100
AcDbLine
 10
-3.817795000000161
 20
-1.233038999995909
 30
0.0
 11
-5.887080000000137
 21
1.233039000004076
 31
0.0
  0
LINE
  5
7C65
330
1F
100
AcDbEntity
  8
AM_0
  6
Continuous
100
AcDbLine
 10
-3.817795000000161
 20
-1.233038999995909
 30
0.0
 11
-5.887080000000137
 21
1.233039000004076
 31
0.0
  0
LINE
  5
7C66
330
1F
100
AcDbEntity
  8
AM_0
  6
Continuous
100
AcDbLine
 10
-3.817795000000161
 20
-1.233038999995909
 30
0.0
 11
-5.887080000000137
 21
1.233039000004076
 31
0.0
  0
LINE
  5
7C67
330
1F
100
AcDbEntity
  8
AM_0
  6
Continuous
100
AcDbLine
 10
-17.00000000000018
 20
4.250000000004051
 30
0.0
 11
-17.00000000000017
 21
-4.249999999995948
 31
0.0
  0
LINE
  5
7C68
330
1F
100
AcDbEntity
  8
AM_0
  6
Continuous
100
AcDbLine
 10
-17.00000000000018
 20
4.250000000004051
 30
0.0
 11
-17.00000000000017
 21
-4.249999999995948
 31
0.0
  0
LINE
  5
7C69
330
1F
100
AcDbEntity
  8
AM_0
  6
Continuous
100
AcDbLine
 10
-17.00000000000018
 20
4.250000000004051
 30
0.0
 11
-17.00000000000017
 21
-4.249999999995948
 31
0.0
  0
LINE
  5
7C6A
330
1F
100
AcDbEntity
  8
AM_0
  6
Continuous
100
AcDbLine
 10
-7.971408000000175
 20
3.541186000004086
 30
0.0
 11
-5.000000000000163
 21
0.00000000000409
 31
0.0
  0
LINE
  5
7C6B
330
1F
100
AcDbEntity
  8
AM_0
  6
Continuous
100
AcDbLine
 10
-7.971408000000175
 20
3.541186000004086
 30
0.0
 11
-5.000000000000163
 21
0.00000000000409
 31
0.0
  0
LINE
  5
7C6C
330
1F
100
AcDbEntity
  8
AM_0
  6
Continuous
100
AcDbLine
 10
-7.971408000000175
 20
3.541186000004086
 30
0.0
 11
-5.000000000000163
 21
0.00000000000409
 31
0.0
  0
CIRCLE
  5
7C6D
330
1F
100
AcDbEntity
  8
AM_0
  6
Continuous
100
AcDbCircle
 10
-10.28000000000013
 20
0.0000000000040669
 30
0.0
 40
2.85
  0
CIRCLE
  5
7C6E
330
1F
100
AcDbEntity
  8
AM_0
  6
Continuous
100
AcDbCircle
 10
-10.28000000000013
 20
0.0000000000040669
 30
0.0
 40
2.85
  0
CIRCLE
  5
7C6F
330
1F
100
AcDbEntity
  8
AM_0
  6
Continuous
100
AcDbCircle
 10
-10.28000000000013
 20
0.0000000000040669
 30
0.0
 40
2.85
  0
CIRCLE
  5
7C70
330
1F
100
AcDbEntity
  8
AM_0
  6
Continuous
100
AcDbCircle
 10
-10.28000000000013
 20
0.0000000000040669
 30
0.0
 40
2.25
  0
CIRCLE
  5
7C71
330
1F
100
AcDbEntity
  8
AM_0
  6
Continuous
100
AcDbCircle
 10
-10.28000000000013
 20
0.0000000000040669
 30
0.0
 40
2.25
  0
CIRCLE
  5
7C72
330
1F
100
AcDbEntity
  8
AM_0
  6
Continuous
100
AcDbCircle
 10
-10.28000000000013
 20
0.0000000000040669
 30
0.0
 40
2.25
  0
LINE
  5
7C73
330
1F
100
AcDbEntity
  8
AM_0
  6
Continuous
100
AcDbLine
 10
-9.500000000000184
 20
4.50000000000407
 30
0.0
 11
-14.83000000000016
 21
4.50000000000406
 31
0.0
  0
LINE
  5
7C74
330
1F
100
AcDbEntity
  8
AM_0
  6
Continuous
100
AcDbLine
 10
-9.500000000000184
 20
4.50000000000407
 30
0.0
 11
-14.83000000000016
 21
4.50000000000406
 31
0.0
  0
LINE
  5
7C75
330
1F
100
AcDbEntity
  8
AM_0
  6
Continuous
100
AcDbLine
 10
-9.500000000000184
 20
4.50000000000407
 30
0.0
 11
-14.83000000000016
 21
4.50000000000406
 31
0.0
  0
LINE
  5
7C76
330
1F
100
AcDbEntity
  8
AM_0
  6
Continuous
100
AcDbLine
 10
-8.407275000000208
 20
4.060632000004074
 30
0.0
 11
-16.08000000000016
 21
4.060632000004053
 31
0.0
  0
LINE
  5
7C77
330
1F
100
AcDbEntity
  8
AM_0
  6
Continuous
100
AcDbLine
 10
-8.407275000000208
 20
4.060632000004074
 30
0.0
 11
-16.08000000000016
 21
4.060632000004053
 31
0.0
  0
LINE
  5
7C78
330
1F
100
AcDbEntity
  8
AM_0
  6
Continuous
100
AcDbLine
 10
-8.407275000000208
 20
4.060632000004074
 30
0.0
 11
-16.08000000000016
 21
4.060632000004053
 31
0.0
  0
LINE
  5
7C79
330
1F
100
AcDbEntity
  8
AM_0
  6
Continuous
100
AcDbLine
 10
-8.019951000000173
 20
3.910183000004065
 30
0.0
 11
-6.24929800000018
 21
1.800000000004095
 31
0.0
  0
LINE
  5
7C7A
330
1F
100
AcDbEntity
  8
AM_0
  6
Continuous
100
AcDbLine
 10
-8.019951000000173
 20
3.910183000004065
 30
0.0
 11
-6.24929800000018
 21
1.800000000004095
 31
0.0
  0
LINE
  5
7C7B
330
1F
100
AcDbEntity
  8
AM_0
  6
Continuous
100
AcDbLine
 10
-8.019951000000173
 20
3.910183000004065
 30
0.0
 11
-6.24929800000018
 21
1.800000000004095
 31
0.0
  0
SPLINE
  5
7C7C
330
1F
100
AcDbEntity
  8
AM_0
  6
Continuous
100
AcDbSpline
210
0.0
220
0.0
230
1.0
 70
     8
 71
     3
 72
    11
 73
     7
 74
     5
 42
0.0000000001
 43
0.0000000001
 44
0.0000000001
 40
0.0
 40
0.0
 40
0.0
 40
0.0
 40
1.012693901473716
 40
2.0255256547279
 40
3.03846751832965
 40
4.051484864096743
 40
4.051484864096743
 40
4.051484864096743
 40
4.051484864096743
 10
-5.000000000000183
 20
4.751900000004095
 30
0.0
 10
-5.337545427192765
 20
4.755516715863313
 30
0.0
 10
-6.012682229556934
 20
4.762750639902989
 30
0.0
 10
-7.025475424509601
 20
4.77060669571128
 30
0.0
 10
-8.038390100445067
 20
4.776450816460717
 30
0.0
 10
-8.713707646601751
 20
4.778304249138207
 30
0.0
 10
-9.051379000000181
 20
4.779231000004081
 30
0.0
 11
-5.000000000000183
 21
4.751900000004095
 31
0.0
 11
-6.012641000000212
 21
4.762251000004076
 31
0.0
 11
-7.025441000000184
 21
4.770271000004088
 31
0.0
 11
-8.038367000000178
 21
4.775940000004067
 31
0.0
 11
-9.051379000000181
 21
4.779231000004081
 31
0.0
  0
SPLINE
  5
7C7D
330
1F
100
AcDbEntity
  8
AM_0
  6
Continuous
100
AcDbSpline
210
0.0
220
0.0
230
1.0
 70
     8
 71
     3
 72
    11
 73
     7
 74
     5
 42
0.0000000001
 43
0.0000000001
 44
0.0000000001
 40
0.0
 40
0.0
 40
0.0
 40
0.0
 40
1.012693901473716
 40
2.0255256547279
 40
3.03846751832965
 40
4.051484864096743
 40
4.051484864096743
 40
4.051484864096743
 40
4.051484864096743
 10
-5.000000000000183
 20
4.751900000004095
 30
0.0
 10
-5.337545427192765
 20
4.755516715863313
 30
0.0
 10
-6.012682229556934
 20
4.762750639902989
 30
0.0
 10
-7.025475424509601
 20
4.77060669571128
 30
0.0
 10
-8.038390100445067
 20
4.776450816460717
 30
0.0
 10
-8.713707646601751
 20
4.778304249138207
 30
0.0
 10
-9.051379000000181
 20
4.779231000004081
 30
0.0
 11
-5.000000000000183
 21
4.751900000004095
 31
0.0
 11
-6.012641000000212
 21
4.762251000004076
 31
0.0
 11
-7.025441000000184
 21
4.770271000004088
 31
0.0
 11
-8.038367000000178
 21
4.775940000004067
 31
0.0
 11
-9.051379000000181
 21
4.779231000004081
 31
0.0
  0
SPLINE
  5
7C7E
330
1F
100
AcDbEntity
  8
AM_11
100
AcDbSpline
210
0.0
220
0.0
230
1.0
 70
     8
 71
     3
 72
    11
 73
     7
 74
     5
 42
0.0000000001
 43
0.0000000001
 44
0.0000000001
 40
0.0
 40
0.0
 40
0.0
 40
0.0
 40
1.012693901473716
 40
2.0255256547279
 40
3.03846751832965
 40
4.051484864096743
 40
4.051484864096743
 40
4.051484864096743
 40
4.051484864096743
 10
-5.000000000000183
 20
4.751900000004095
 30
0.0
 10
-5.337545427192765
 20
4.755516715863313
 30
0.0
 10
-6.012682229556934
 20
4.762750639902989
 30
0.0
 10
-7.025475424509601
 20
4.77060669571128
 30
0.0
 10
-8.038390100445067
 20
4.776450816460717
 30
0.0
 10
-8.713707646601751
 20
4.778304249138207
 30
0.0
 10
-9.051379000000181
 20
4.779231000004081
 30
0.0
 11
-5.000000000000183
 21
4.751900000004095
 31
0.0
 11
-6.012641000000212
 21
4.762251000004076
 31
0.0
 11
-7.025441000000184
 21
4.770271000004088
 31
0.0
 11
-8.038367000000178
 21
4.775940000004067
 31
0.0
 11
-9.051379000000181
 21
4.779231000004081
 31
0.0
  0
LINE
  5
7C7F
330
1F
100
AcDbEntity
  8
AM_0
  6
Continuous
100
AcDbLine
 10
-5.887080000000138
 20
1.474521000004095
 30
0.0
 11
-5.735307000000204
 21
1.800000000004097
 31
0.0
  0
LINE
  5
7C80
330
1F
100
AcDbEntity
  8
AM_0
  6
Continuous
100
AcDbLine
 10
-5.887080000000138
 20
1.474521000004095
 30
0.0
 11
-5.735307000000204
 21
1.800000000004097
 31
0.0
  0
LINE
  5
7C81
330
1F
100
AcDbEntity
  8
AM_0
  6
Continuous
100
AcDbLine
 10
-5.887080000000138
 20
1.474521000004095
 30
0.0
 11
-5.735307000000204
 21
1.800000000004097
 31
0.0
  0
LINE
  5
7C82
330
1F
100
AcDbEntity
  8
AM_0
  6
Continuous
100
AcDbLine
 10
-6.237270000000136
 20
1.474521000004093
 30
0.0
 11
-5.887080000000138
 21
1.474521000004095
 31
0.0
  0
LINE
  5
7C83
330
1F
100
AcDbEntity
  8
AM_0
  6
Continuous
100
AcDbLine
 10
-6.237270000000136
 20
1.474521000004093
 30
0.0
 11
-5.887080000000138
 21
1.474521000004095
 31
0.0
  0
LINE
  5
7C84
330
1F
100
AcDbEntity
  8
AM_0
  6
Continuous
100
AcDbLine
 10
-6.237270000000136
 20
1.474521000004093
 30
0.0
 11
-5.887080000000138
 21
1.474521000004095
 31
0.0
  0
LINE
  5
7C85
330
1F
100
AcDbEntity
  8
AM_0
  6
Continuous
100
AcDbLine
 10
-6.24929800000018
 20
1.800000000004095
 30
0.0
 11
-6.465412000000185
 21
1.74641000000408
 31
0.0
  0
LINE
  5
7C86
330
1F
100
AcDbEntity
  8
AM_0
  6
Continuous
100
AcDbLine
 10
-6.24929800000018
 20
1.800000000004095
 30
0.0
 11
-6.465412000000185
 21
1.74641000000408
 31
0.0
  0
LINE
  5
7C87
330
1F
100
AcDbEntity
  8
AM_0
  6
Continuous
100
AcDbLine
 10
-6.24929800000018
 20
1.800000000004095
 30
0.0
 11
-6.465412000000185
 21
1.74641000000408
 31
0.0
  0
LINE
  5
7C88
330
1F
100
AcDbEntity
  8
AM_0
  6
Continuous
100
AcDbLine
 10
-5.735307000000204
 20
1.800000000004097
 30
0.0
 11
-6.24929800000018
 21
1.800000000004095
 31
0.0
  0
LINE
  5
7C89
330
1F
100
AcDbEntity
  8
AM_0
  6
Continuous
100
AcDbLine
 10
-5.735307000000204
 20
1.800000000004097
 30
0.0
 11
-6.24929800000018
 21
1.800000000004095
 31
0.0
  0
LINE
  5
7C8A
330
1F
100
AcDbEntity
  8
AM_0
  6
Continuous
100
AcDbLine
 10
-5.735307000000204
 20
1.800000000004097
 30
0.0
 11
-6.24929800000018
 21
1.800000000004095
 31
0.0
  0
LINE
  5
7C8B
330
1F
100
AcDbEntity
  8
AM_0
  6
Continuous
100
AcDbLine
 10
-5.550322000000164
 20
1.713740000004088
 30
0.0
 11
-5.702095000000155
 21
1.388261000004086
 31
0.0
  0
LINE
  5
7C8C
330
1F
100
AcDbEntity
  8
AM_0
  6
Continuous
100
AcDbLine
 10
-5.550322000000164
 20
1.713740000004088
 30
0.0
 11
-5.702095000000155
 21
1.388261000004086
 31
0.0
  0
LINE
  5
7C8D
330
1F
100
AcDbEntity
  8
AM_0
  6
Continuous
100
AcDbLine
 10
-5.550322000000164
 20
1.713740000004088
 30
0.0
 11
-5.702095000000155
 21
1.388261000004086
 31
0.0
  0
LINE
  5
7C8E
330
1F
100
AcDbEntity
  8
AM_0
  6
Continuous
100
AcDbLine
 10
-5.887080000000137
 20
1.233039000004076
 30
0.0
 11
-5.887080000000138
 21
1.474521000004095
 31
0.0
  0
LINE
  5
7C8F
330
1F
100
AcDbEntity
  8
AM_0
  6
Continuous
100
AcDbLine
 10
-5.887080000000137
 20
1.233039000004076
 30
0.0
 11
-5.887080000000138
 21
1.474521000004095
 31
0.0
  0
LINE
  5
7C90
330
1F
100
AcDbEntity
  8
AM_0
  6
Continuous
100
AcDbLine
 10
-5.887080000000137
 20
1.233039000004076
 30
0.0
 11
-5.887080000000138
 21
1.474521000004095
 31
0.0
  0
LINE
  5
7C91
330
1F
100
AcDbEntity
  8
AM_0
  6
Continuous
100
AcDbLine
 10
-5.887080000000137
 20
1.233039000004076
 30
0.0
 11
-6.034643000000185
 21
1.233039000004075
 31
0.0
  0
LINE
  5
7C92
330
1F
100
AcDbEntity
  8
AM_0
  6
Continuous
100
AcDbLine
 10
-5.887080000000137
 20
1.233039000004076
 30
0.0
 11
-6.034643000000185
 21
1.233039000004075
 31
0.0
  0
LINE
  5
7C93
330
1F
100
AcDbEntity
  8
AM_0
  6
Continuous
100
AcDbLine
 10
-5.887080000000137
 20
1.233039000004076
 30
0.0
 11
-6.034643000000185
 21
1.233039000004075
 31
0.0
  0
LINE
  5
7C94
330
1F
100
AcDbEntity
  8
AM_0
  6
Continuous
100
AcDbLine
 10
-5.887080000000137
 20
1.233039000004076
 30
0.0
 11
-5.702095000000155
 21
1.388261000004086
 31
0.0
  0
LINE
  5
7C95
330
1F
100
AcDbEntity
  8
AM_0
  6
Continuous
100
AcDbLine
 10
-5.887080000000137
 20
1.233039000004076
 30
0.0
 11
-5.702095000000155
 21
1.388261000004086
 31
0.0
  0
LINE
  5
7C96
330
1F
100
AcDbEntity
  8
AM_0
  6
Continuous
100
AcDbLine
 10
-5.887080000000137
 20
1.233039000004076
 30
0.0
 11
-5.702095000000155
 21
1.388261000004086
 31
0.0
  0
ELLIPSE
  5
7C97
330
1F
100
AcDbEntity
  8
AM_0
  6
Continuous
100
AcDbEllipse
 10
-5.887080000000137
 20
1.233039000004076
 30
0.0
 11
0.2265769107740003
 21
-0.1056546426049995
 31
0.0
210
0.0
220
0.0
230
1.0
 40
0.9589680000000001
 41
1.150294872883879
 42
1.991298117740839
  0
ELLIPSE
  5
7C98
330
1F
100
AcDbEntity
  8
AM_0
  6
Continuous
100
AcDbEllipse
 10
-5.887080000000137
 20
1.233039000004076
 30
0.0
 11
0.2265769107740003
 21
-0.1056546426049995
 31
0.0
210
0.0
220
0.0
230
1.0
 40
0.9589680000000001
 41
1.150294872883879
 42
1.991298117740839
  0
ELLIPSE
  5
7C99
330
1F
100
AcDbEntity
  8
AM_0
  6
Continuous
100
AcDbEllipse
 10
-5.887080000000137
 20
1.233039000004076
 30
0.0
 11
0.2265769107740003
 21
-0.1056546426049995
 31
0.0
210
0.0
220
0.0
230
1.0
 40
0.9589680000000001
 41
1.150294872883879
 42
1.991298117740839
  0
ELLIPSE
  5
7C9A
330
1F
100
AcDbEntity
  8
AM_0
  6
Continuous
100
AcDbEllipse
 10
-5.743392000000142
 20
1.541181000004081
 30
0.0
 11
-0.1101753162409994
 21
-0.2362717196370003
 31
0.0
210
0.0
220
0.0
230
0.9999999999999996
 40
0.9589676904605699
 41
2.7210920251843
 42
3.562092965962758
  0
ELLIPSE
  5
7C9B
330
1F
100
AcDbEntity
  8
AM_0
  6
Continuous
100
AcDbEllipse
 10
-5.743392000000142
 20
1.541181000004081
 30
0.0
 11
-0.1101753162409994
 21
-0.2362717196370003
 31
0.0
210
0.0
220
0.0
230
0.9999999999999996
 40
0.9589676904605699
 41
2.7210920251843
 42
3.562092965962758
  0
ELLIPSE
  5
7C9C
330
1F
100
AcDbEntity
  8
AM_0
  6
Continuous
100
AcDbEllipse
 10
-5.743392000000142
 20
1.541181000004081
 30
0.0
 11
-0.1101753162409994
 21
-0.2362717196370003
 31
0.0
210
0.0
220
0.0
230
0.9999999999999996
 40
0.9589676904605699
 41
2.7210920251843
 42
3.562092965962758
  0
LINE
  5
7C9D
330
1F
100
AcDbEntity
  8
AM_0
  6
Continuous
100
AcDbLine
 10
-7.971408000000175
 20
3.541186000004086
 30
0.0
 11
-8.407924000000161
 21
4.061405000004083
 31
0.0
  0
LINE
  5
7C9E
330
1F
100
AcDbEntity
  8
AM_0
  6
Continuous
100
AcDbLine
 10
-7.971408000000175
 20
3.541186000004086
 30
0.0
 11
-8.407924000000161
 21
4.061405000004083
 31
0.0
  0
LINE
  5
7C9F
330
1F
100
AcDbEntity
  8
AM_0
  6
Continuous
100
AcDbLine
 10
-7.971408000000175
 20
3.541186000004086
 30
0.0
 11
-8.407924000000161
 21
4.061405000004083
 31
0.0
  0
LINE
  5
7CA0
330
1F
100
AcDbEntity
  8
AM_0
  6
Continuous
100
AcDbLine
 10
-8.407924000000161
 20
4.061405000004083
 30
0.0
 11
-8.432509000000161
 21
4.090705000004089
 31
0.0
  0
LINE
  5
7CA1
330
1F
100
AcDbEntity
  8
AM_0
  6
Continuous
100
AcDbLine
 10
-8.407924000000161
 20
4.061405000004083
 30
0.0
 11
-8.432509000000161
 21
4.090705000004089
 31
0.0
  0
LINE
  5
7CA2
330
1F
100
AcDbEntity
  8
AM_0
  6
Continuous
100
AcDbLine
 10
-8.407924000000161
 20
4.061405000004083
 30
0.0
 11
-8.432509000000161
 21
4.090705000004089
 31
0.0
  0
LINE
  5
7CA3
330
1F
100
AcDbEntity
  8
AM_0
  6
Continuous
100
AcDbLine
 10
-8.668356000000198
 20
4.060632000004072
 30
0.0
 11
-9.15383800000019
 21
4.63920700000407
 31
0.0
  0
LINE
  5
7CA4
330
1F
100
AcDbEntity
  8
AM_0
  6
Continuous
100
AcDbLine
 10
-8.668356000000198
 20
4.060632000004072
 30
0.0
 11
-9.15383800000019
 21
4.63920700000407
 31
0.0
  0
LINE
  5
7CA5
330
1F
100
AcDbEntity
  8
AM_0
  6
Continuous
100
AcDbLine
 10
-8.668356000000198
 20
4.060632000004072
 30
0.0
 11
-9.15383800000019
 21
4.63920700000407
 31
0.0
  0
LINE
  5
7CA6
330
1F
100
AcDbEntity
  8
AM_0
  6
Continuous
100
AcDbLine
 10
-8.808756000000199
 20
4.539099000004067
 30
0.0
 11
-8.432509000000161
 21
4.090705000004089
 31
0.0
  0
LINE
  5
7CA7
330
1F
100
AcDbEntity
  8
AM_0
  6
Continuous
100
AcDbLine
 10
-8.808756000000199
 20
4.539099000004067
 30
0.0
 11
-8.432509000000161
 21
4.090705000004089
 31
0.0
  0
LINE
  5
7CA8
330
1F
100
AcDbEntity
  8
AM_0
  6
Continuous
100
AcDbLine
 10
-8.808756000000199
 20
4.539099000004067
 30
0.0
 11
-8.432509000000161
 21
4.090705000004089
 31
0.0
  0
ARC
  5
7CA9
330
1F
100
AcDbEntity
  8
AM_0
  6
Continuous
100
AcDbCircle
 10
-9.500000000000186
 20
5.00000000000407
 30
0.0
 40
0.5
100
AcDbArc
 50
270.0000000000002
 51
313.8143872017807
  0
ARC
  5
7CAA
330
1F
100
AcDbEntity
  8
AM_0
  6
Continuous
100
AcDbCircle
 10
-9.500000000000186
 20
5.00000000000407
 30
0.0
 40
0.5
100
AcDbArc
 50
270.0000000000002
 51
313.8143872017807
  0
ARC
  5
7CAB
330
1F
100
AcDbEntity
  8
AM_0
  6
Continuous
100
AcDbCircle
 10
-9.500000000000186
 20
5.00000000000407
 30
0.0
 40
0.5
100
AcDbArc
 50
270.0000000000002
 51
313.8143872017807
  0
ELLIPSE
  5
7CAC
330
1F
100
AcDbEntity
  8
AM_0
  6
Continuous
100
AcDbEllipse
 10
-11.44777000000014
 20
-6.263028999995926
 30
0.0
 11
11.94936283581201
 21
-7.475438158952976
 31
0.0
210
0.0
220
0.0
230
1.0
 40
0.7527011500165101
 41
1.748347612019188
 42
1.78055740470875
  0
ELLIPSE
  5
7CAD
330
1F
100
AcDbEntity
  8
AM_0
  6
Continuous
100
AcDbEllipse
 10
-11.44777000000014
 20
-6.263028999995926
 30
0.0
 11
11.94936283581201
 21
-7.475438158952976
 31
0.0
210
0.0
220
0.0
230
1.0
 40
0.7527011500165101
 41
1.748347612019188
 42
1.78055740470875
  0
ELLIPSE
  5
7CAE
330
1F
100
AcDbEntity
  8
AM_0
  6
Continuous
100
AcDbEllipse
 10
-11.44777000000014
 20
-6.263028999995926
 30
0.0
 11
11.94936283581201
 21
-7.475438158952976
 31
0.0
210
0.0
220
0.0
230
1.0
 40
0.7527011500165101
 41
1.748347612019188
 42
1.78055740470875
  0
SPLINE
  5
7CAF
330
1F
100
AcDbEntity
  8
AM_0
  6
Continuous
100
AcDbSpline
210
0.0
220
0.0
230
1.0
 70
     8
 71
     3
 72
    11
 73
     7
 74
     5
 42
0.0000000001
 43
0.0000000001
 44
0.0000000001
 40
0.0
 40
0.0
 40
0.0
 40
0.0
 40
0.0125078580900296
 40
0.0342919486609204
 40
0.0633726726202534
 40
0.0978168074040081
 40
0.0978168074040081
 40
0.0978168074040081
 40
0.0978168074040081
 10
-8.970708000000186
 20
4.73210600000406
 30
0.0
 10
-8.974298380989093
 20
4.734273517984673
 30
0.0
 10
-8.984141885740946
 20
4.740216055450144
 30
0.0
 10
-9.005275883777889
 20
4.744008808736267
 30
0.0
 10
-9.033153428667148
 20
4.748912177890322
 30
0.0
 10
-9.054247485054055
 20
4.7510894501862
 30
0.0
 10
-9.065685000000215
 20
4.752270000004081
 30
0.0
 11
-8.970708000000186
 21
4.73210600000406
 31
0.0
 11
-8.981691000000196
 21
4.738091000004068
 31
0.0
 11
-9.002780000000214
 21
4.743550000004071
 31
0.0
 11
-9.031471000000193
 21
4.748295000004085
 31
0.0
 11
-9.065685000000215
 21
4.752270000004081
 31
0.0
  0
SPLINE
  5
7CB0
330
1F
100
AcDbEntity
  8
AM_0
  6
Continuous
100
AcDbSpline
210
0.0
220
0.0
230
1.0
 70
     8
 71
     3
 72
    11
 73
     7
 74
     5
 42
0.0000000001
 43
0.0000000001
 44
0.0000000001
 40
0.0
 40
0.0
 40
0.0
 40
0.0
 40
0.0125078580900296
 40
0.0342919486609204
 40
0.0633726726202534
 40
0.0978168074040081
 40
0.0978168074040081
 40
0.0978168074040081
 40
0.0978168074040081
 10
-8.970708000000186
 20
4.73210600000406
 30
0.0
 10
-8.974298380989093
 20
4.734273517984673
 30
0.0
 10
-8.984141885740946
 20
4.740216055450144
 30
0.0
 10
-9.005275883777889
 20
4.744008808736267
 30
0.0
 10
-9.033153428667148
 20
4.748912177890322
 30
0.0
 10
-9.054247485054055
 20
4.7510894501862
 30
0.0
 10
-9.065685000000215
 20
4.752270000004081
 30
0.0
 11
-8.970708000000186
 21
4.73210600000406
 31
0.0
 11
-8.981691000000196
 21
4.738091000004068
 31
0.0
 11
-9.002780000000214
 21
4.743550000004071
 31
0.0
 11
-9.031471000000193
 21
4.748295000004085
 31
0.0
 11
-9.065685000000215
 21
4.752270000004081
 31
0.0
  0
SPLINE
  5
7CB1
330
1F
100
AcDbEntity
  8
AM_0
  6
Continuous
100
AcDbSpline
210
0.0
220
0.0
230
1.0
 70
     8
 71
     3
 72
    11
 73
     7
 74
     5
 42
0.0000000001
 43
0.0000000001
 44
0.0000000001
 40
0.0
 40
0.0
 40
0.0
 40
0.0
 40
0.0125078580900296
 40
0.0342919486609204
 40
0.0633726726202534
 40
0.0978168074040081
 40
0.0978168074040081
 40
0.0978168074040081
 40
0.0978168074040081
 10
-8.970708000000186
 20
4.73210600000406
 30
0.0
 10
-8.974298380989093
 20
4.734273517984673
 30
0.0
 10
-8.984141885740946
 20
4.740216055450144
 30
0.0
 10
-9.005275883777889
 20
4.744008808736267
 30
0.0
 10
-9.033153428667148
 20
4.748912177890322
 30
0.0
 10
-9.054247485054055
 20
4.7510894501862
 30
0.0
 10
-9.065685000000215
 20
4.752270000004081
 30
0.0
 11
-8.970708000000186
 21
4.73210600000406
 31
0.0
 11
-8.981691000000196
 21
4.738091000004068
 31
0.0
 11
-9.002780000000214
 21
4.743550000004071
 31
0.0
 11
-9.031471000000193
 21
4.748295000004085
 31
0.0
 11
-9.065685000000215
 21
4.752270000004081
 31
0.0
  0
LINE
  5
7CB2
330
1F
100
AcDbEntity
  8
AM_0
  6
Continuous
100
AcDbLine
 10
-9.051379000000181
 20
4.779231000004081
 30
0.0
 11
-9.065685000000215
 21
4.752270000004081
 31
0.0
  0
LINE
  5
7CB3
330
1F
100
AcDbEntity
  8
AM_0
  6
Continuous
100
AcDbLine
 10
-9.051379000000181
 20
4.779231000004081
 30
0.0
 11
-9.065685000000215
 21
4.752270000004081
 31
0.0
  0
LINE
  5
7CB4
330
1F
100
AcDbEntity
  8
AM_0
  6
Continuous
100
AcDbLine
 10
-9.051379000000181
 20
4.779231000004081
 30
0.0
 11
-9.065685000000215
 21
4.752270000004081
 31
0.0
  0
LINE
  5
7CB5
330
1F
100
AcDbEntity
  8
AM_0
  6
Continuous
100
AcDbLine
 10
-8.938488000000191
 20
4.693707000004062
 30
0.0
 11
-8.970708000000186
 21
4.73210600000406
 31
0.0
  0
LINE
  5
7CB6
330
1F
100
AcDbEntity
  8
AM_0
  6
Continuous
100
AcDbLine
 10
-8.938488000000191
 20
4.693707000004062
 30
0.0
 11
-8.970708000000186
 21
4.73210600000406
 31
0.0
  0
LINE
  5
7CB7
330
1F
100
AcDbEntity
  8
AM_0
  6
Continuous
100
AcDbLine
 10
-8.938488000000191
 20
4.693707000004062
 30
0.0
 11
-8.970708000000186
 21
4.73210600000406
 31
0.0
  0
LINE
  5
7CB8
330
1F
100
AcDbEntity
  8
AM_0
  6
Continuous
100
AcDbLine
 10
-8.938488000000191
 20
4.693707000004062
 30
0.0
 11
-8.808756000000199
 21
4.539099000004067
 31
0.0
  0
LINE
  5
7CB9
330
1F
100
AcDbEntity
  8
AM_0
  6
Continuous
100
AcDbLine
 10
-8.938488000000191
 20
4.693707000004062
 30
0.0
 11
-8.808756000000199
 21
4.539099000004067
 31
0.0
  0
LINE
  5
7CBA
330
1F
100
AcDbEntity
  8
AM_0
  6
Continuous
100
AcDbLine
 10
-8.938488000000191
 20
4.693707000004062
 30
0.0
 11
-8.808756000000199
 21
4.539099000004067
 31
0.0
  0
SPLINE
  5
7CBB
330
1F
100
AcDbEntity
  8
AM_0
  6
Continuous
100
AcDbSpline
210
0.0
220
0.0
230
1.0
 70
     8
 71
     3
 72
    11
 73
     7
 74
     5
 42
0.0000000001
 43
0.0000000001
 44
0.0000000001
 40
0.0
 40
0.0
 40
0.0
 40
0.0
 40
0.0393566167880456
 40
0.0772829612071977
 40
0.1124725897360507
 40
0.1438311538932333
 40
0.1438311538932333
 40
0.1438311538932333
 40
0.1438311538932333
 10
-9.15383800000019
 20
4.63920700000407
 30
0.0
 10
-9.144572398197379
 20
4.648504844024293
 30
0.0
 10
-9.126377919018834
 20
4.666762635912126
 30
0.0
 10
-9.102653114493218
 20
4.695856119501018
 30
0.0
 10
-9.082379388159722
 20
4.724213521876143
 30
0.0
 10
-9.071032047119782
 20
4.74328378804316
 30
0.0
 10
-9.065685000000215
 20
4.752270000004081
 30
0.0
 11
-9.15383800000019
 21
4.63920700000407
 31
0.0
 11
-9.126532000000178
 21
4.667550000004077
 31
0.0
 11
-9.102408000000153
 21
4.696815000004058
 31
0.0
 11
-9.082074000000217
 21
4.72553500000408
 31
0.0
 11
-9.065685000000215
 21
4.752270000004081
 31
0.0
  0
SPLINE
  5
7CBC
330
1F
100
AcDbEntity
  8
AM_0
  6
Continuous
100
AcDbSpline
210
0.0
220
0.0
230
1.0
 70
     8
 71
     3
 72
    11
 73
     7
 74
     5
 42
0.0000000001
 43
0.0000000001
 44
0.0000000001
 40
0.0
 40
0.0
 40
0.0
 40
0.0
 40
0.0393566167880456
 40
0.0772829612071977
 40
0.1124725897360507
 40
0.1438311538932333
 40
0.1438311538932333
 40
0.1438311538932333
 40
0.1438311538932333
 10
-9.15383800000019
 20
4.63920700000407
 30
0.0
 10
-9.144572398197379
 20
4.648504844024293
 30
0.0
 10
-9.126377919018834
 20
4.666762635912126
 30
0.0
 10
-9.102653114493218
 20
4.695856119501018
 30
0.0
 10
-9.082379388159722
 20
4.724213521876143
 30
0.0
 10
-9.071032047119782
 20
4.74328378804316
 30
0.0
 10
-9.065685000000215
 20
4.752270000004081
 30
0.0
 11
-9.15383800000019
 21
4.63920700000407
 31
0.0
 11
-9.126532000000178
 21
4.667550000004077
 31
0.0
 11
-9.102408000000153
 21
4.696815000004058
 31
0.0
 11
-9.082074000000217
 21
4.72553500000408
 31
0.0
 11
-9.065685000000215
 21
4.752270000004081
 31
0.0
  0
SPLINE
  5
7CBD
330
1F
100
AcDbEntity
  8
AM_0
  6
Continuous
100
AcDbSpline
210
0.0
220
0.0
230
1.0
 70
     8
 71
     3
 72
    11
 73
     7
 74
     5
 42
0.0000000001
 43
0.0000000001
 44
0.0000000001
 40
0.0
 40
0.0
 40
0.0
 40
0.0
 40
0.0393566167880456
 40
0.0772829612071977
 40
0.1124725897360507
 40
0.1438311538932333
 40
0.1438311538932333
 40
0.1438311538932333
 40
0.1438311538932333
 10
-9.15383800000019
 20
4.63920700000407
 30
0.0
 10
-9.144572398197379
 20
4.648504844024293
 30
0.0
 10
-9.126377919018834
 20
4.666762635912126
 30
0.0
 10
-9.102653114493218
 20
4.695856119501018
 30
0.0
 10
-9.082379388159722
 20
4.724213521876143
 30
0.0
 10
-9.071032047119782
 20
4.74328378804316
 30
0.0
 10
-9.065685000000215
 20
4.752270000004081
 30
0.0
 11
-9.15383800000019
 21
4.63920700000407
 31
0.0
 11
-9.126532000000178
 21
4.667550000004077
 31
0.0
 11
-9.102408000000153
 21
4.696815000004058
 31
0.0
 11
-9.082074000000217
 21
4.72553500000408
 31
0.0
 11
-9.065685000000215
 21
4.752270000004081
 31
0.0
  0
LINE
  5
7CBE
330
1F
100
AcDbEntity
  8
AM_0
  6
Continuous
100
AcDbLine
 10
-15.26936800000016
 20
4.060632000004057
 30
0.0
 11
-14.83000000000016
 21
4.50000000000406
 31
0.0
  0
LINE
  5
7CBF
330
1F
100
AcDbEntity
  8
AM_0
  6
Continuous
100
AcDbLine
 10
-15.26936800000016
 20
4.060632000004057
 30
0.0
 11
-14.83000000000016
 21
4.50000000000406
 31
0.0
  0
LINE
  5
7CC0
330
1F
100
AcDbEntity
  8
AM_0
  6
Continuous
100
AcDbLine
 10
-15.26936800000016
 20
4.060632000004057
 30
0.0
 11
-14.83000000000016
 21
4.50000000000406
 31
0.0
  0
LINE
  5
7CC1
330
1F
100
AcDbEntity
  8
AM_0
  6
Continuous
100
AcDbLine
 10
-16.08000000000016
 20
4.250000000004056
 30
0.0
 11
-17.00000000000018
 21
4.250000000004051
 31
0.0
  0
LINE
  5
7CC2
330
1F
100
AcDbEntity
  8
AM_0
  6
Continuous
100
AcDbLine
 10
-16.08000000000016
 20
4.250000000004056
 30
0.0
 11
-17.00000000000018
 21
4.250000000004051
 31
0.0
  0
LINE
  5
7CC3
330
1F
100
AcDbEntity
  8
AM_0
  6
Continuous
100
AcDbLine
 10
-16.08000000000016
 20
4.250000000004056
 30
0.0
 11
-17.00000000000018
 21
4.250000000004051
 31
0.0
  0
LINE
  5
7CC4
330
1F
100
AcDbEntity
  8
AM_0
  6
Continuous
100
AcDbLine
 10
-16.08000000000016
 20
4.060632000004053
 30
0.0
 11
-16.08000000000016
 21
4.250000000004056
 31
0.0
  0
LINE
  5
7CC5
330
1F
100
AcDbEntity
  8
AM_0
  6
Continuous
100
AcDbLine
 10
-16.08000000000016
 20
4.060632000004053
 30
0.0
 11
-16.08000000000016
 21
4.250000000004056
 31
0.0
  0
LINE
  5
7CC6
330
1F
100
AcDbEntity
  8
AM_0
  6
Continuous
100
AcDbLine
 10
-16.08000000000016
 20
4.060632000004053
 30
0.0
 11
-16.08000000000016
 21
4.250000000004056
 31
0.0
  0
LINE
  5
7CC7
330
1F
100
AcDbEntity
  8
AM_0
  6
Continuous
100
AcDbLine
 10
-11.90680900000018
 20
-4.499999999995939
 30
0.0
 11
-9.500000000000174
 21
-4.499999999995928
 31
0.0
  0
LINE
  5
7CC8
330
1F
100
AcDbEntity
  8
AM_0
  6
Continuous
100
AcDbLine
 10
-11.90680900000018
 20
-4.499999999995939
 30
0.0
 11
-9.500000000000174
 21
-4.499999999995928
 31
0.0
  0
LINE
  5
7CC9
330
1F
100
AcDbEntity
  8
AM_0
  6
Continuous
100
AcDbLine
 10
-11.90680900000018
 20
-4.499999999995939
 30
0.0
 11
-9.500000000000174
 21
-4.499999999995928
 31
0.0
  0
LINE
  5
7CCA
330
1F
100
AcDbEntity
  8
AM_0
  6
Continuous
100
AcDbLine
 10
-16.08000000000015
 20
-4.060631999995941
 30
0.0
 11
-5.000000000000173
 21
-4.060631999995907
 31
0.0
  0
LINE
  5
7CCB
330
1F
100
AcDbEntity
  8
AM_0
  6
Continuous
100
AcDbLine
 10
-16.08000000000015
 20
-4.060631999995941
 30
0.0
 11
-5.000000000000173
 21
-4.060631999995907
 31
0.0
  0
LINE
  5
7CCC
330
1F
100
AcDbEntity
  8
AM_0
  6
Continuous
100
AcDbLine
 10
-16.08000000000015
 20
-4.060631999995941
 30
0.0
 11
-5.000000000000173
 21
-4.060631999995907
 31
0.0
  0
SPLINE
  5
7CCD
330
1F
100
AcDbEntity
  8
AM_0
  6
Continuous
100
AcDbSpline
210
0.0
220
0.0
230
1.0
 70
     8
 71
     3
 72
    11
 73
     7
 74
     5
 42
0.0000000001
 43
0.0000000001
 44
0.0000000001
 40
0.0
 40
0.0
 40
0.0
 40
0.0
 40
1.01269390147372
 40
2.0255256547279
 40
3.038467518329649
 40
4.051484864096742
 40
4.051484864096742
 40
4.051484864096742
 40
4.051484864096742
 10
-5.00000000000017
 20
-4.751899999995915
 30
0.0
 10
-5.337545427192753
 20
-4.755516715855135
 30
0.0
 10
-6.012682229556923
 20
-4.762750639894818
 30
0.0
 10
-7.025475424509589
 20
-4.770606695703119
 30
0.0
 10
-8.038390100445052
 20
-4.776450816452562
 30
0.0
 10
-8.713707646601735
 20
-4.778304249130058
 30
0.0
 10
-9.051379000000165
 20
-4.779230999995936
 30
0.0
 11
-5.00000000000017
 21
-4.751899999995915
 31
0.0
 11
-6.012641000000202
 21
-4.762250999995905
 31
0.0
 11
-7.025441000000171
 21
-4.770270999995926
 31
0.0
 11
-8.038367000000162
 21
-4.775939999995913
 31
0.0
 11
-9.051379000000165
 21
-4.779230999995936
 31
0.0
  0
SPLINE
  5
7CCE
330
1F
100
AcDbEntity
  8
AM_0
  6
Continuous
100
AcDbSpline
210
0.0
220
0.0
230
1.0
 70
     8
 71
     3
 72
    11
 73
     7
 74
     5
 42
0.0000000001
 43
0.0000000001
 44
0.0000000001
 40
0.0
 40
0.0
 40
0.0
 40
0.0
 40
1.01269390147372
 40
2.0255256547279
 40
3.038467518329649
 40
4.051484864096742
 40
4.051484864096742
 40
4.051484864096742
 40
4.051484864096742
 10
-5.00000000000017
 20
-4.751899999995915
 30
0.0
 10
-5.337545427192753
 20
-4.755516715855135
 30
0.0
 10
-6.012682229556923
 20
-4.762750639894818
 30
0.0
 10
-7.025475424509589
 20
-4.770606695703119
 30
0.0
 10
-8.038390100445052
 20
-4.776450816452562
 30
0.0
 10
-8.713707646601735
 20
-4.778304249130058
 30
0.0
 10
-9.051379000000165
 20
-4.779230999995936
 30
0.0
 11
-5.00000000000017
 21
-4.751899999995915
 31
0.0
 11
-6.012641000000202
 21
-4.762250999995905
 31
0.0
 11
-7.025441000000171
 21
-4.770270999995926
 31
0.0
 11
-8.038367000000162
 21
-4.775939999995913
 31
0.0
 11
-9.051379000000165
 21
-4.779230999995936
 31
0.0
  0
SPLINE
  5
7CCF
330
1F
100
AcDbEntity
  8
AM_11
100
AcDbSpline
210
0.0
220
0.0
230
1.0
 70
     8
 71
     3
 72
    11
 73
     7
 74
     5
 42
0.0000000001
 43
0.0000000001
 44
0.0000000001
 40
0.0
 40
0.0
 40
0.0
 40
0.0
 40
1.01269390147372
 40
2.0255256547279
 40
3.038467518329649
 40
4.051484864096742
 40
4.051484864096742
 40
4.051484864096742
 40
4.051484864096742
 10
-5.00000000000017
 20
-4.751899999995915
 30
0.0
 10
-5.337545427192753
 20
-4.755516715855135
 30
0.0
 10
-6.012682229556923
 20
-4.762750639894818
 30
0.0
 10
-7.025475424509589
 20
-4.770606695703119
 30
0.0
 10
-8.038390100445052
 20
-4.776450816452562
 30
0.0
 10
-8.713707646601735
 20
-4.778304249130058
 30
0.0
 10
-9.051379000000165
 20
-4.779230999995936
 30
0.0
 11
-5.00000000000017
 21
-4.751899999995915
 31
0.0
 11
-6.012641000000202
 21
-4.762250999995905
 31
0.0
 11
-7.025441000000171
 21
-4.770270999995926
 31
0.0
 11
-8.038367000000162
 21
-4.775939999995913
 31
0.0
 11
-9.051379000000165
 21
-4.779230999995936
 31
0.0
  0
SPLINE
  5
7CD0
330
1F
100
AcDbEntity
  8
AM_0
  6
Continuous
100
AcDbSpline
210
0.0
220
0.0
230
1.0
 70
     8
 71
     3
 72
    11
 73
     7
 74
     5
 42
0.0000000001
 43
0.0000000001
 44
0.0000000001
 40
0.0
 40
0.0
 40
0.0
 40
0.0
 40
0.845512138228646
 40
1.691023827289223
 40
2.536536556303337
 40
3.382048859614195
 40
3.382048859614195
 40
3.382048859614195
 40
3.382048859614195
 10
-5.000000000000171
 20
-4.538605999995896
 30
0.0
 10
-5.281812920699008
 20
-4.54233111248753
 30
0.0
 10
-5.845438612386987
 20
-4.549781335491877
 30
0.0
 10
-6.690908849099452
 20
-4.55830864929692
 30
0.0
 10
-7.536394126063948
 20
-4.565182086731856
 30
0.0
 10
-8.100062089321191
 20
-4.568060029149406
 30
0.0
 10
-8.381896000000155
 20
-4.56949899999593
 30
0.0
 11
-5.000000000000171
 21
-4.538605999995896
 31
0.0
 11
-5.845444000000157
 21
-4.549339999995913
 31
0.0
 11
-6.690911000000199
 21
-4.558032999995911
 31
0.0
 11
-7.536397000000137
 21
-4.564755999995908
 31
0.0
 11
-8.381896000000155
 21
-4.56949899999593
 31
0.0
  0
SPLINE
  5
7CD1
330
1F
100
AcDbEntity
  8
AM_0
  6
Continuous
100
AcDbSpline
210
0.0
220
0.0
230
1.0
 70
     8
 71
     3
 72
    11
 73
     7
 74
     5
 42
0.0000000001
 43
0.0000000001
 44
0.0000000001
 40
0.0
 40
0.0
 40
0.0
 40
0.0
 40
0.845512138228646
 40
1.691023827289223
 40
2.536536556303337
 40
3.382048859614195
 40
3.382048859614195
 40
3.382048859614195
 40
3.382048859614195
 10
-5.000000000000171
 20
-4.538605999995896
 30
0.0
 10
-5.281812920699008
 20
-4.54233111248753
 30
0.0
 10
-5.845438612386987
 20
-4.549781335491877
 30
0.0
 10
-6.690908849099452
 20
-4.55830864929692
 30
0.0
 10
-7.536394126063948
 20
-4.565182086731856
 30
0.0
 10
-8.100062089321191
 20
-4.568060029149406
 30
0.0
 10
-8.381896000000155
 20
-4.56949899999593
 30
0.0
 11
-5.000000000000171
 21
-4.538605999995896
 31
0.0
 11
-5.845444000000157
 21
-4.549339999995913
 31
0.0
 11
-6.690911000000199
 21
-4.558032999995911
 31
0.0
 11
-7.536397000000137
 21
-4.564755999995908
 31
0.0
 11
-8.381896000000155
 21
-4.56949899999593
 31
0.0
  0
SPLINE
  5
7CD2
330
1F
100
AcDbEntity
  8
AM_0
  6
Continuous
100
AcDbSpline
210
0.0
220
0.0
230
1.0
 70
     8
 71
     3
 72
    11
 73
     7
 74
     5
 42
0.0000000001
 43
0.0000000001
 44
0.0000000001
 40
0.0
 40
0.0
 40
0.0
 40
0.0
 40
0.845512138228646
 40
1.691023827289223
 40
2.536536556303337
 40
3.382048859614195
 40
3.382048859614195
 40
3.382048859614195
 40
3.382048859614195
 10
-5.000000000000171
 20
-4.538605999995896
 30
0.0
 10
-5.281812920699008
 20
-4.54233111248753
 30
0.0
 10
-5.845438612386987
 20
-4.549781335491877
 30
0.0
 10
-6.690908849099452
 20
-4.55830864929692
 30
0.0
 10
-7.536394126063948
 20
-4.565182086731856
 30
0.0
 10
-8.100062089321191
 20
-4.568060029149406
 30
0.0
 10
-8.381896000000155
 20
-4.56949899999593
 30
0.0
 11
-5.000000000000171
 21
-4.538605999995896
 31
0.0
 11
-5.845444000000157
 21
-4.549339999995913
 31
0.0
 11
-6.690911000000199
 21
-4.558032999995911
 31
0.0
 11
-7.536397000000137
 21
-4.564755999995908
 31
0.0
 11
-8.381896000000155
 21
-4.56949899999593
 31
0.0
  0
LINE
  5
7CD3
330
1F
100
AcDbEntity
  8
AM_0
  6
Continuous
100
AcDbLine
 10
-5.00000000000017
 20
-4.751899999995915
 30
0.0
 11
-5.000000000000171
 21
-4.538605999995896
 31
0.0
  0
LINE
  5
7CD4
330
1F
100
AcDbEntity
  8
AM_0
  6
Continuous
100
AcDbLine
 10
-5.00000000000017
 20
-4.751899999995915
 30
0.0
 11
-5.000000000000171
 21
-4.538605999995896
 31
0.0
  0
LINE
  5
7CD5
330
1F
100
AcDbEntity
  8
AM_0
  6
Continuous
100
AcDbLine
 10
-5.00000000000017
 20
-4.751899999995915
 30
0.0
 11
-5.000000000000171
 21
-4.538605999995896
 31
0.0
  0
LINE
  5
7CD6
330
1F
100
AcDbEntity
  8
AM_0
  6
Continuous
100
AcDbLine
 10
-3.965357000000155
 20
-1.233038999995909
 30
0.0
 11
-3.817795000000161
 21
-1.233038999995909
 31
0.0
  0
LINE
  5
7CD7
330
1F
100
AcDbEntity
  8
AM_0
  6
Continuous
100
AcDbLine
 10
-3.965357000000155
 20
-1.233038999995909
 30
0.0
 11
-3.817795000000161
 21
-1.233038999995909
 31
0.0
  0
LINE
  5
7CD8
330
1F
100
AcDbEntity
  8
AM_0
  6
Continuous
100
AcDbLine
 10
-3.965357000000155
 20
-1.233038999995909
 30
0.0
 11
-3.817795000000161
 21
-1.233038999995909
 31
0.0
  0
LINE
  5
7CD9
330
1F
100
AcDbEntity
  8
AM_0
  6
Continuous
100
AcDbLine
 10
-3.817795000000161
 20
-1.233038999995909
 30
0.0
 11
-3.81779500000016
 21
-1.408896999995914
 31
0.0
  0
LINE
  5
7CDA
330
1F
100
AcDbEntity
  8
AM_0
  6
Continuous
100
AcDbLine
 10
-3.817795000000161
 20
-1.233038999995909
 30
0.0
 11
-3.81779500000016
 21
-1.408896999995914
 31
0.0
  0
LINE
  5
7CDB
330
1F
100
AcDbEntity
  8
AM_0
  6
Continuous
100
AcDbLine
 10
-3.817795000000161
 20
-1.233038999995909
 30
0.0
 11
-3.81779500000016
 21
-1.408896999995914
 31
0.0
  0
LINE
  5
7CDC
330
1F
100
AcDbEntity
  8
AM_0
  6
Continuous
100
AcDbLine
 10
-3.817795000000161
 20
-1.233038999995909
 30
0.0
 11
-3.632809000000181
 21
-1.077817999995925
 31
0.0
  0
LINE
  5
7CDD
330
1F
100
AcDbEntity
  8
AM_0
  6
Continuous
100
AcDbLine
 10
-3.817795000000161
 20
-1.233038999995909
 30
0.0
 11
-3.632809000000181
 21
-1.077817999995925
 31
0.0
  0
LINE
  5
7CDE
330
1F
100
AcDbEntity
  8
AM_0
  6
Continuous
100
AcDbLine
 10
-3.817795000000161
 20
-1.233038999995909
 30
0.0
 11
-3.632809000000181
 21
-1.077817999995925
 31
0.0
  0
ELLIPSE
  5
7CDF
330
1F
100
AcDbEntity
  8
AM_0
  6
Continuous
100
AcDbEllipse
 10
-3.817795000000161
 20
-1.233038999995909
 30
0.0
 11
-0.1056545685609995
 21
-0.2265769453020002
 31
0.0
210
0.0
220
0.0
230
1.0
 40
0.844556
 41
0.712895523366816
 42
2.637112540252458
  0
ELLIPSE
  5
7CE0
330
1F
100
AcDbEntity
  8
AM_0
  6
Continuous
100
AcDbEllipse
 10
-3.817795000000161
 20
-1.233038999995909
 30
0.0
 11
-0.1056545685609995
 21
-0.2265769453020002
 31
0.0
210
0.0
220
0.0
230
1.0
 40
0.844556
 41
0.712895523366816
 42
2.637112540252458
  0
ELLIPSE
  5
7CE1
330
1F
100
AcDbEntity
  8
AM_0
  6
Continuous
100
AcDbEllipse
 10
-3.817795000000161
 20
-1.233038999995909
 30
0.0
 11
-0.1056545685609995
 21
-0.2265769453020002
 31
0.0
210
0.0
220
0.0
230
1.0
 40
0.844556
 41
0.712895523366816
 42
2.637112540252458
  0
LINE
  5
7CE2
330
1F
100
AcDbEntity
  8
AM_0
  6
Continuous
100
AcDbLine
 10
-8.808886000000203
 20
-4.060631999995923
 30
0.0
 11
-8.381896000000155
 21
-4.56949899999593
 31
0.0
  0
LINE
  5
7CE3
330
1F
100
AcDbEntity
  8
AM_0
  6
Continuous
100
AcDbLine
 10
-8.808886000000203
 20
-4.060631999995923
 30
0.0
 11
-8.381896000000155
 21
-4.56949899999593
 31
0.0
  0
LINE
  5
7CE4
330
1F
100
AcDbEntity
  8
AM_0
  6
Continuous
100
AcDbLine
 10
-8.808886000000203
 20
-4.060631999995923
 30
0.0
 11
-8.381896000000155
 21
-4.56949899999593
 31
0.0
  0
LINE
  5
7CE5
330
1F
100
AcDbEntity
  8
AM_0
  6
Continuous
100
AcDbLine
 10
-8.634759000000203
 20
-4.579292999995931
 30
0.0
 11
-9.069968000000189
 21
-4.060631999995925
 31
0.0
  0
LINE
  5
7CE6
330
1F
100
AcDbEntity
  8
AM_0
  6
Continuous
100
AcDbLine
 10
-8.634759000000203
 20
-4.579292999995931
 30
0.0
 11
-9.069968000000189
 21
-4.060631999995925
 31
0.0
  0
LINE
  5
7CE7
330
1F
100
AcDbEntity
  8
AM_0
  6
Continuous
100
AcDbLine
 10
-8.634759000000203
 20
-4.579292999995931
 30
0.0
 11
-9.069968000000189
 21
-4.060631999995925
 31
0.0
  0
ARC
  5
7CE8
330
1F
100
AcDbEntity
  8
AM_0
  6
Continuous
100
AcDbCircle
 10
-9.500000000000172
 20
-4.999999999995928
 30
0.0
 40
0.500000345448882
100
AcDbArc
 50
56.90699914651655
 51
90.00000000000026
  0
ARC
  5
7CE9
330
1F
100
AcDbEntity
  8
AM_0
  6
Continuous
100
AcDbCircle
 10
-9.500000000000172
 20
-4.999999999995928
 30
0.0
 40
0.500000345448882
100
AcDbArc
 50
56.90699914651655
 51
90.00000000000026
  0
ARC
  5
7CEA
330
1F
100
AcDbEntity
  8
AM_0
  6
Continuous
100
AcDbCircle
 10
-9.500000000000172
 20
-4.999999999995928
 30
0.0
 40
0.500000345448882
100
AcDbArc
 50
56.90699914651655
 51
90.00000000000026
  0
SPLINE
  5
7CEB
330
1F
100
AcDbEntity
  8
AM_0
  6
Continuous
100
AcDbSpline
210
0.0
220
0.0
230
1.0
 70
     8
 71
     3
 72
    11
 73
     7
 74
     5
 42
0.0000000001
 43
0.0000000001
 44
0.0000000001
 40
0.0
 40
0.0
 40
0.0
 40
0.0
 40
0.0806186779164485
 40
0.1491406161625492
 40
0.2106759861541229
 40
0.2677392984747357
 40
0.2677392984747357
 40
0.2677392984747357
 40
0.2677392984747357
 10
-9.227000000000147
 20
-4.581106999995929
 30
0.0
 10
-9.205130317375342
 20
-4.596834124212477
 30
0.0
 10
-9.164672472788467
 20
-4.625928535789799
 30
0.0
 10
-9.116412367134582
 20
-4.677380704958843
 30
0.0
 10
-9.078980469113361
 20
-4.727506560591479
 30
0.0
 10
-9.060345260777328
 20
-4.762428459147444
 30
0.0
 10
-9.051379000000165
 20
-4.779230999995936
 30
0.0
 11
-9.227000000000147
 21
-4.581106999995929
 31
0.0
 11
-9.163230000000169
 21
-4.630429999995917
 31
0.0
 11
-9.115860000000166
 21
-4.679940999995941
 31
0.0
 11
-9.079456000000162
 21
-4.729552999995936
 31
0.0
 11
-9.051379000000165
 21
-4.779230999995936
 31
0.0
  0
SPLINE
  5
7CEC
330
1F
100
AcDbEntity
  8
AM_0
  6
Continuous
100
AcDbSpline
210
0.0
220
0.0
230
1.0
 70
     8
 71
     3
 72
    11
 73
     7
 74
     5
 42
0.0000000001
 43
0.0000000001
 44
0.0000000001
 40
0.0
 40
0.0
 40
0.0
 40
0.0
 40
0.0806186779164485
 40
0.1491406161625492
 40
0.2106759861541229
 40
0.2677392984747357
 40
0.2677392984747357
 40
0.2677392984747357
 40
0.2677392984747357
 10
-9.227000000000147
 20
-4.581106999995929
 30
0.0
 10
-9.205130317375342
 20
-4.596834124212477
 30
0.0
 10
-9.164672472788467
 20
-4.625928535789799
 30
0.0
 10
-9.116412367134582
 20
-4.677380704958843
 30
0.0
 10
-9.078980469113361
 20
-4.727506560591479
 30
0.0
 10
-9.060345260777328
 20
-4.762428459147444
 30
0.0
 10
-9.051379000000165
 20
-4.779230999995936
 30
0.0
 11
-9.227000000000147
 21
-4.581106999995929
 31
0.0
 11
-9.163230000000169
 21
-4.630429999995917
 31
0.0
 11
-9.115860000000166
 21
-4.679940999995941
 31
0.0
 11
-9.079456000000162
 21
-4.729552999995936
 31
0.0
 11
-9.051379000000165
 21
-4.779230999995936
 31
0.0
  0
SPLINE
  5
7CED
330
1F
100
AcDbEntity
  8
AM_0
  6
Continuous
100
AcDbSpline
210
0.0
220
0.0
230
1.0
 70
     8
 71
     3
 72
    11
 73
     7
 74
     5
 42
0.0000000001
 43
0.0000000001
 44
0.0000000001
 40
0.0
 40
0.0
 40
0.0
 40
0.0
 40
0.0806186779164485
 40
0.1491406161625492
 40
0.2106759861541229
 40
0.2677392984747357
 40
0.2677392984747357
 40
0.2677392984747357
 40
0.2677392984747357
 10
-9.227000000000147
 20
-4.581106999995929
 30
0.0
 10
-9.205130317375342
 20
-4.596834124212477
 30
0.0
 10
-9.164672472788467
 20
-4.625928535789799
 30
0.0
 10
-9.116412367134582
 20
-4.677380704958843
 30
0.0
 10
-9.078980469113361
 20
-4.727506560591479
 30
0.0
 10
-9.060345260777328
 20
-4.762428459147444
 30
0.0
 10
-9.051379000000165
 20
-4.779230999995936
 30
0.0
 11
-9.227000000000147
 21
-4.581106999995929
 31
0.0
 11
-9.163230000000169
 21
-4.630429999995917
 31
0.0
 11
-9.115860000000166
 21
-4.679940999995941
 31
0.0
 11
-9.079456000000162
 21
-4.729552999995936
 31
0.0
 11
-9.051379000000165
 21
-4.779230999995936
 31
0.0
  0
LINE
  5
7CEE
330
1F
100
AcDbEntity
  8
AM_0
  6
Continuous
100
AcDbLine
 10
-9.227000000000147
 20
-4.581106999995929
 30
0.0
 11
-8.634759000000203
 21
-4.579292999995931
 31
0.0
  0
LINE
  5
7CEF
330
1F
100
AcDbEntity
  8
AM_0
  6
Continuous
100
AcDbLine
 10
-9.227000000000147
 20
-4.581106999995929
 30
0.0
 11
-8.634759000000203
 21
-4.579292999995931
 31
0.0
  0
LINE
  5
7CF0
330
1F
100
AcDbEntity
  8
AM_0
  6
Continuous
100
AcDbLine
 10
-9.227000000000147
 20
-4.581106999995929
 30
0.0
 11
-8.634759000000203
 21
-4.579292999995931
 31
0.0
  0
SPLINE
  5
7CF1
330
1F
100
AcDbEntity
  8
AM_0
  6
Continuous
100
AcDbSpline
210
0.0
220
0.0
230
1.0
 70
     8
 71
     3
 72
    11
 73
     7
 74
     5
 42
0.0000000001
 43
0.0000000001
 44
0.0000000001
 40
0.0
 40
0.0
 40
0.0
 40
0.0
 40
0.0696523563492601
 40
0.1371687890897586
 40
0.1997203875025828
 40
0.2531274323187922
 40
0.2531274323187922
 40
0.2531274323187922
 40
0.2531274323187922
 10
-8.634759000000203
 20
-4.579292999995931
 30
0.0
 10
-8.611541457149826
 20
-4.579114741103548
 30
0.0
 10
-8.565818348767725
 20
-4.578763689714994
 30
0.0
 10
-8.499270762820692
 20
-4.576873460240438
 30
0.0
 10
-8.438154701475722
 20
-4.574270717082991
 30
0.0
 10
-8.39963637602133
 20
-4.571003692659836
 30
0.0
 10
-8.381896000000155
 20
-4.56949899999593
 30
0.0
 11
-8.634759000000203
 21
-4.579292999995931
 31
0.0
 11
-8.565111000000172
 21
-4.578513999995937
 31
0.0
 11
-8.497620000000155
 21
-4.576660999995925
 31
0.0
 11
-8.435140000000162
 21
-4.573668999995918
 31
0.0
 11
-8.381896000000155
 21
-4.56949899999593
 31
0.0
  0
SPLINE
  5
7CF2
330
1F
100
AcDbEntity
  8
AM_0
  6
Continuous
100
AcDbSpline
210
0.0
220
0.0
230
1.0
 70
     8
 71
     3
 72
    11
 73
     7
 74
     5
 42
0.0000000001
 43
0.0000000001
 44
0.0000000001
 40
0.0
 40
0.0
 40
0.0
 40
0.0
 40
0.0696523563492601
 40
0.1371687890897586
 40
0.1997203875025828
 40
0.2531274323187922
 40
0.2531274323187922
 40
0.2531274323187922
 40
0.2531274323187922
 10
-8.634759000000203
 20
-4.579292999995931
 30
0.0
 10
-8.611541457149826
 20
-4.579114741103548
 30
0.0
 10
-8.565818348767725
 20
-4.578763689714994
 30
0.0
 10
-8.499270762820692
 20
-4.576873460240438
 30
0.0
 10
-8.438154701475722
 20
-4.574270717082991
 30
0.0
 10
-8.39963637602133
 20
-4.571003692659836
 30
0.0
 10
-8.381896000000155
 20
-4.56949899999593
 30
0.0
 11
-8.634759000000203
 21
-4.579292999995931
 31
0.0
 11
-8.565111000000172
 21
-4.578513999995937
 31
0.0
 11
-8.497620000000155
 21
-4.576660999995925
 31
0.0
 11
-8.435140000000162
 21
-4.573668999995918
 31
0.0
 11
-8.381896000000155
 21
-4.56949899999593
 31
0.0
  0
SPLINE
  5
7CF3
330
1F
100
AcDbEntity
  8
AM_0
  6
Continuous
100
AcDbSpline
210
0.0
220
0.0
230
1.0
 70
     8
 71
     3
 72
    11
 73
     7
 74
     5
 42
0.0000000001
 43
0.0000000001
 44
0.0000000001
 40
0.0
 40
0.0
 40
0.0
 40
0.0
 40
0.0696523563492601
 40
0.1371687890897586
 40
0.1997203875025828
 40
0.2531274323187922
 40
0.2531274323187922
 40
0.2531274323187922
 40
0.2531274323187922
 10
-8.634759000000203
 20
-4.579292999995931
 30
0.0
 10
-8.611541457149826
 20
-4.579114741103548
 30
0.0
 10
-8.565818348767725
 20
-4.578763689714994
 30
0.0
 10
-8.499270762820692
 20
-4.576873460240438
 30
0.0
 10
-8.438154701475722
 20
-4.574270717082991
 30
0.0
 10
-8.39963637602133
 20
-4.571003692659836
 30
0.0
 10
-8.381896000000155
 20
-4.56949899999593
 30
0.0
 11
-8.634759000000203
 21
-4.579292999995931
 31
0.0
 11
-8.565111000000172
 21
-4.578513999995937
 31
0.0
 11
-8.497620000000155
 21
-4.576660999995925
 31
0.0
 11
-8.435140000000162
 21
-4.573668999995918
 31
0.0
 11
-8.381896000000155
 21
-4.56949899999593
 31
0.0
  0
LINE
  5
7CF4
330
1F
100
AcDbEntity
  8
AM_0
  6
Continuous
100
AcDbLine
 10
-12.16789100000017
 20
-4.49999999999594
 30
0.0
 11
-12.53656400000017
 21
-4.06063199999594
 31
0.0
  0
LINE
  5
7CF5
330
1F
100
AcDbEntity
  8
AM_0
  6
Continuous
100
AcDbLine
 10
-12.16789100000017
 20
-4.49999999999594
 30
0.0
 11
-12.53656400000017
 21
-4.06063199999594
 31
0.0
  0
LINE
  5
7CF6
330
1F
100
AcDbEntity
  8
AM_0
  6
Continuous
100
AcDbLine
 10
-12.16789100000017
 20
-4.49999999999594
 30
0.0
 11
-12.53656400000017
 21
-4.06063199999594
 31
0.0
  0
LINE
  5
7CF7
330
1F
100
AcDbEntity
  8
AM_0
  6
Continuous
100
AcDbLine
 10
-12.16789100000017
 20
-4.49999999999594
 30
0.0
 11
-14.83000000000015
 21
-4.499999999995938
 31
0.0
  0
LINE
  5
7CF8
330
1F
100
AcDbEntity
  8
AM_0
  6
Continuous
100
AcDbLine
 10
-12.16789100000017
 20
-4.49999999999594
 30
0.0
 11
-14.83000000000015
 21
-4.499999999995938
 31
0.0
  0
LINE
  5
7CF9
330
1F
100
AcDbEntity
  8
AM_0
  6
Continuous
100
AcDbLine
 10
-12.16789100000017
 20
-4.49999999999594
 30
0.0
 11
-14.83000000000015
 21
-4.499999999995938
 31
0.0
  0
LINE
  5
7CFA
330
1F
100
AcDbEntity
  8
AM_0
  6
Continuous
100
AcDbLine
 10
-14.83000000000015
 20
-4.499999999995938
 30
0.0
 11
-15.26936800000015
 21
-4.060631999995938
 31
0.0
  0
LINE
  5
7CFB
330
1F
100
AcDbEntity
  8
AM_0
  6
Continuous
100
AcDbLine
 10
-14.83000000000015
 20
-4.499999999995938
 30
0.0
 11
-15.26936800000015
 21
-4.060631999995938
 31
0.0
  0
LINE
  5
7CFC
330
1F
100
AcDbEntity
  8
AM_0
  6
Continuous
100
AcDbLine
 10
-14.83000000000015
 20
-4.499999999995938
 30
0.0
 11
-15.26936800000015
 21
-4.060631999995938
 31
0.0
  0
LINE
  5
7CFD
330
1F
100
AcDbEntity
  8
AM_0
  6
Continuous
100
AcDbLine
 10
-12.27548300000018
 20
-4.060631999995938
 30
0.0
 11
-11.90680900000018
 21
-4.499999999995939
 31
0.0
  0
LINE
  5
7CFE
330
1F
100
AcDbEntity
  8
AM_0
  6
Continuous
100
AcDbLine
 10
-12.27548300000018
 20
-4.060631999995938
 30
0.0
 11
-11.90680900000018
 21
-4.499999999995939
 31
0.0
  0
LINE
  5
7CFF
330
1F
100
AcDbEntity
  8
AM_0
  6
Continuous
100
AcDbLine
 10
-12.27548300000018
 20
-4.060631999995938
 30
0.0
 11
-11.90680900000018
 21
-4.499999999995939
 31
0.0
  0
LINE
  5
7D00
330
1F
100
AcDbEntity
  8
AM_0
  6
Continuous
100
AcDbLine
 10
-11.90680900000018
 20
-4.499999999995939
 30
0.0
 11
-12.16789100000017
 21
-4.49999999999594
 31
0.0
  0
LINE
  5
7D01
330
1F
100
AcDbEntity
  8
AM_0
  6
Continuous
100
AcDbLine
 10
-11.90680900000018
 20
-4.499999999995939
 30
0.0
 11
-12.16789100000017
 21
-4.49999999999594
 31
0.0
  0
LINE
  5
7D02
330
1F
100
AcDbEntity
  8
AM_0
  6
Continuous
100
AcDbLine
 10
-11.90680900000018
 20
-4.499999999995939
 30
0.0
 11
-12.16789100000017
 21
-4.49999999999594
 31
0.0
  0
LINE
  5
7D03
330
1F
100
AcDbEntity
  8
AM_0
  6
Continuous
100
AcDbLine
 10
-16.08000000000015
 20
-4.249999999995943
 30
0.0
 11
-16.08000000000015
 21
-4.060631999995941
 31
0.0
  0
LINE
  5
7D04
330
1F
100
AcDbEntity
  8
AM_0
  6
Continuous
100
AcDbLine
 10
-16.08000000000015
 20
-4.249999999995943
 30
0.0
 11
-16.08000000000015
 21
-4.060631999995941
 31
0.0
  0
LINE
  5
7D05
330
1F
100
AcDbEntity
  8
AM_0
  6
Continuous
100
AcDbLine
 10
-16.08000000000015
 20
-4.249999999995943
 30
0.0
 11
-16.08000000000015
 21
-4.060631999995941
 31
0.0
  0
LINE
  5
7D06
330
1F
100
AcDbEntity
  8
AM_0
  6
Continuous
100
AcDbLine
 10
-17.00000000000017
 20
-4.249999999995948
 30
0.0
 11
-16.08000000000015
 21
-4.249999999995943
 31
0.0
  0
LINE
  5
7D07
330
1F
100
AcDbEntity
  8
AM_0
  6
Continuous
100
AcDbLine
 10
-17.00000000000017
 20
-4.249999999995948
 30
0.0
 11
-16.08000000000015
 21
-4.249999999995943
 31
0.0
  0
LINE
  5
7D08
330
1F
100
AcDbEntity
  8
AM_0
  6
Continuous
100
AcDbLine
 10
-17.00000000000017
 20
-4.249999999995948
 30
0.0
 11
-16.08000000000015
 21
-4.249999999995943
 31
0.0
  0
LINE
  5
7D09
330
1F
100
AcDbEntity
  8
AM_0
  6
Continuous
100
AcDbLine
 10
-35.0000000000002
 20
7.997250000004024
 30
0.0
 11
-35.00000000000016
 21
-7.997249999995989
 31
0.0
  0
LINE
  5
7D0A
330
1F
100
AcDbEntity
  8
AM_0
  6
Continuous
100
AcDbLine
 10
-35.0000000000002
 20
7.997250000004024
 30
0.0
 11
-35.00000000000016
 21
-7.997249999995989
 31
0.0
  0
LINE
  5
7D0B
330
1F
100
AcDbEntity
  8
AM_0
  6
Continuous
100
AcDbLine
 10
-35.0000000000002
 20
7.997250000004024
 30
0.0
 11
-35.00000000000016
 21
-7.997249999995989
 31
0.0
  0
LINE
  5
7D0C
330
1F
100
AcDbEntity
  8
AM_0
  6
Continuous
100
AcDbLine
 10
-33.99617900000022
 20
7.31875500000403
 30
0.0
 11
-33.99617900000019
 21
-7.318754999995988
 31
0.0
  0
ARC
  5
7D0D
330
1F
100
AcDbEntity
  8
AM_0
  6
Continuous
100
AcDbCircle
 10
-33.72965500000021
 20
8.794886000004012
 30
0.0
 40
1.49999986917366
100
AcDbArc
 50
212.1242709681414
 51
259.7651841847007
  0
ARC
  5
7D0E
330
1F
100
AcDbEntity
  8
AM_0
  6
Continuous
100
AcDbCircle
 10
-33.72965500000021
 20
8.794886000004012
 30
0.0
 40
1.49999986917366
100
AcDbArc
 50
212.1242709681414
 51
259.7651841847007
  0
ARC
  5
7D0F
330
1F
100
AcDbEntity
  8
AM_0
  6
Continuous
100
AcDbCircle
 10
-33.72965500000021
 20
8.794886000004012
 30
0.0
 40
1.49999986917366
100
AcDbArc
 50
212.1242709681414
 51
259.7651841847007
  0
ARC
  5
7D10
330
1F
100
AcDbEntity
  8
AM_0
  6
Continuous
100
AcDbCircle
 10
-33.72965500000017
 20
-8.794885999995969
 30
0.0
 40
1.49999925724548
100
AcDbArc
 50
100.2348158152998
 51
147.8757290318587
  0
ARC
  5
7D11
330
1F
100
AcDbEntity
  8
AM_0
  6
Continuous
100
AcDbCircle
 10
-33.72965500000017
 20
-8.794885999995969
 30
0.0
 40
1.49999925724548
100
AcDbArc
 50
100.2348158152998
 51
147.8757290318587
  0
ARC
  5
7D12
330
1F
100
AcDbEntity
  8
AM_0
  6
Continuous
100
AcDbCircle
 10
-33.72965500000017
 20
-8.794885999995969
 30
0.0
 40
1.49999925724548
100
AcDbArc
 50
100.2348158152998
 51
147.8757290318587
  0
LINE
  5
7D17
330
1F
100
AcDbEntity
  8
AM_0
  6
Continuous
100
AcDbLine
 10
-129.0000000000001
 20
7.997250000003798
 30
0.0
 11
-129.0000000000002
 21
-7.997249999996216
 31
0.0
  0
LINE
  5
7D18
330
1F
100
AcDbEntity
  8
AM_0
  6
Continuous
100
AcDbLine
 10
-129.0000000000001
 20
7.997250000003798
 30
0.0
 11
-129.0000000000002
 21
-7.997249999996216
 31
0.0
  0
LINE
  5
7D19
330
1F
100
AcDbEntity
  8
AM_0
  6
Continuous
100
AcDbLine
 10
-129.0000000000001
 20
7.997250000003798
 30
0.0
 11
-129.0000000000002
 21
-7.997249999996216
 31
0.0
  0
LINE
  5
7D1A
330
1F
100
AcDbEntity
  8
AM_0
  6
Continuous
100
AcDbLine
 10
-130.0000000000001
 20
6.997250000003794
 30
0.0
 11
-130.0000000000002
 21
-6.99724999999622
 31
0.0
  0
LINE
  5
7D1B
330
1F
100
AcDbEntity
  8
AM_0
  6
Continuous
100
AcDbLine
 10
-130.0000000000001
 20
6.997250000003794
 30
0.0
 11
-130.0000000000002
 21
-6.99724999999622
 31
0.0
  0
LINE
  5
7D1C
330
1F
100
AcDbEntity
  8
AM_0
  6
Continuous
100
AcDbLine
 10
-130.0000000000001
 20
6.997250000003794
 30
0.0
 11
-130.0000000000002
 21
-6.99724999999622
 31
0.0
  0
LINE
  5
7D1D
330
1F
100
AcDbEntity
  8
AM_0
  6
Continuous
100
AcDbLine
 10
-129.0000000000001
 20
7.997250000003798
 30
0.0
 11
-130.0000000000001
 21
6.997250000003794
 31
0.0
  0
LINE
  5
7D1E
330
1F
100
AcDbEntity
  8
AM_0
  6
Continuous
100
AcDbLine
 10
-129.0000000000001
 20
7.997250000003798
 30
0.0
 11
-130.0000000000001
 21
6.997250000003794
 31
0.0
  0
LINE
  5
7D1F
330
1F
100
AcDbEntity
  8
AM_0
  6
Continuous
100
AcDbLine
 10
-129.0000000000001
 20
7.997250000003798
 30
0.0
 11
-130.0000000000001
 21
6.997250000003794
 31
0.0
  0
LINE
  5
7D20
330
1F
100
AcDbEntity
  8
AM_0
  6
Continuous
100
AcDbLine
 10
-130.0000000000002
 20
-6.99724999999622
 30
0.0
 11
-129.0000000000002
 21
-7.997249999996216
 31
0.0
  0
LINE
  5
7D21
330
1F
100
AcDbEntity
  8
AM_0
  6
Continuous
100
AcDbLine
 10
-130.0000000000002
 20
-6.99724999999622
 30
0.0
 11
-129.0000000000002
 21
-7.997249999996216
 31
0.0
  0
LINE
  5
7D22
330
1F
100
AcDbEntity
  8
AM_0
  6
Continuous
100
AcDbLine
 10
-130.0000000000002
 20
-6.99724999999622
 30
0.0
 11
-129.0000000000002
 21
-7.997249999996216
 31
0.0
  0
LINE
  5
7EBC
330
1F
100
AcDbEntity
  8
AM_11
100
AcDbLine
 10
-9.000000202214932
 20
4.779089922455463
 30
0.0
 11
-9.000000202214906
 21
-4.779089922447302
 31
0.0
  0
DIMENSION
  5
7EC4
330
1F
100
AcDbEntity
  8
AM_5
100
AcDbDimension
  2
*D2
 10
16.12893990686983
 20
-4.779089922447389
 30
0.0
 11
16.12893990686983
 21
0.0000000000040029
 31
0.0
 70
   160
  1
%%c<>
 71
     5
 42
-1.0
 51
359.9999999999998
  3
AM_JIS$0
100
AcDbAlignedDimension
 13
-9.000000202214927
 23
4.779089922455398
 33
0.0
 14
-9.000000202214911
 24
-4.779089922447382
 34
0.0
 50
270.0
100
AcDbRotatedDimension
1001
GENIUS_GENDTOL_13
1000

1000
h7
1000

1040
0.0
1001
ACAD
1000
DSTYLE
1002
{
1070
   287
1070
     3
1070
    40
1040
1.0
1070
    42
1040
1.0
1070
    43
1040
12.0
1070
    48
1040
0.1
1070
    78
1070
     8
1070
   140
1040
3.2
1070
   176
1070
   256
1070
   177
1070
   256
1070
   271
1070
     0
1070
   272
1070
     3
1070
   275
1070
     0
1070
   284
1070
     0
1070
   289
1070
     3
1070
   340
1005
6B
1070
   371
1070
    -1
1070
   372
1070
    -1
1002
}
  0
DIMENSION
  5
7F63
330
1F
100
AcDbEntity
  8
AM_5
100
AcDbDimension
  2
*D3
 10
-0.0000002022149261
 20
21.99725133540127
 30
0.0
 11
-4.500000202214924
 21
25.09725133540127
 31
0.0
 70
    32
  1
<>
 71
     5
 42
-1.0
 51
359.9999999999998
  3
AM_JIS$0
100
AcDbAlignedDimension
 13
-9.000000202214927
 23
4.779089922455383
 33
0.0
 14
-0.0000002022149275
 24
0.0000000000040501
 34
0.0
100
AcDbRotatedDimension
1001
GENIUS_GENDTOL_13
1000

1000
h7
1000

1040
0.0
1001
ACAD
1000
DSTYLE
1002
{
1070
   287
1070
     3
1070
    40
1040
1.0
1070
    42
1040
1.0
1070
    43
1040
12.0
1070
    48
1040
0.1
1070
    78
1070
     8
1070
   140
1040
3.2
1070
   176
1070
   256
1070
   177
1070
   256
1070
   271
1070
     0
1070
   272
1070
     3
1070
   275
1070
     0
1070
   284
1070
     0
1070
   289
1070
     3
1070
   340
1005
6B
1070
   371
1070
    -1
1070
   372
1070
    -1
1002
}
  0
DIMENSION
  5
801C
330
1F
100
AcDbEntity
  8
AM_5
100
AcDbDimension
  2
*D4
 10
-35.00000000000019
 20
-31.99725100999606
 30
0.0
 11
-82.50000000000017
 21
-28.89725100999606
 31
0.0
 70
    32
  1
<>
 71
     5
 42
-1.0
 51
359.9999999999998
  3
AM_JIS$0
100
AcDbAlignedDimension
 13
-130.0000000000001
 23
-6.997249999996242
 33
0.0
 14
-35.00000000000019
 24
-7.997249999996057
 34
0.0
100
AcDbRotatedDimension
1001
GENIUS_GENDTOL_13
1000

1000
h7
1000

1040
0.0
1001
ACAD
1000
DSTYLE
1002
{
1070
   287
1070
     3
1070
    40
1040
1.0
1070
    42
1040
1.0
1070
    43
1040
12.0
1070
    48
1040
0.1
1070
    78
1070
     8
1070
   140
1040
3.2
1070
   176
1070
   256
1070
   177
1070
   256
1070
   271
1070
     0
1070
   272
1070
     3
1070
   275
1070
     0
1070
   284
1070
     0
1070
   289
1070
     3
1070
   340
1005
6B
1070
   371
1070
    -1
1070
   372
1070
    -1
1002
}
  0
DIMENSION
  5
80A8
330
1F
100
AcDbEntity
  8
AM_5
100
AcDbDimension
  2
*D5
 10
-0.0000002022149223
 20
-31.99725100999606
 30
0.0
 11
-17.50000010110754
 21
-28.89725100999606
 31
0.0
 70
    32
  1
<>
 71
     5
 42
-1.0
 51
359.9999999999998
  3
AM_JIS$0
100
AcDbAlignedDimension
 13
-35.00000000000017
 23
-7.997249999996057
 33
0.0
 14
-0.0000002022149204
 24
0.0000000000040643
 34
0.0
100
AcDbRotatedDimension
1001
GENIUS_GENDTOL_13
1000

1000
h7
1000

1040
0.0
1001
ACAD
1000
DSTYLE
1002
{
1070
   287
1070
     3
1070
    40
1040
1.0
1070
    42
1040
1.0
1070
    43
1040
12.0
1070
    48
1040
0.1
1070
    78
1070
     8
1070
   140
1040
3.2
1070
   176
1070
   256
1070
   177
1070
   256
1070
   271
1070
     0
1070
   272
1070
     3
1070
   275
1070
     0
1070
   284
1070
     0
1070
   289
1070
     3
1070
   340
1005
6B
1070
   371
1070
    -1
1070
   372
1070
    -1
1002
}
  0
DIMENSION
  5
814F
330
1F
100
AcDbEntity
  8
AM_5
100
AcDbDimension
  2
*D6
 10
-17.00000000000016
 20
-21.99725100999605
 30
0.0
 11
-8.49999861261703
 21
-18.89725100999606
 31
0.0
 70
    32
  1
<>
 71
     5
 42
-1.0
 51
359.9999999999998
  3
AM_JIS$0
100
AcDbAlignedDimension
 13
0.0000027747661022
 23
0.0000036368516731
 33
0.0
 14
-17.00000000000016
 24
-4.249999999996006
 34
0.0
100
AcDbRotatedDimension
1001
GENIUS_GENDTOL_13
1000

1000
h7
1000

1040
0.0
1001
ACAD
1000
DSTYLE
1002
{
1070
   287
1070
     3
1070
    40
1040
1.0
1070
    42
1040
1.0
1070
    43
1040
12.0
1070
    48
1040
0.1
1070
    78
1070
     8
1070
   140
1040
3.2
1070
   176
1070
   256
1070
   177
1070
   256
1070
   271
1070
     0
1070
   272
1070
     3
1070
   275
1070
     0
1070
   284
1070
     0
1070
   289
1070
     3
1070
   340
1005
6B
1070
   371
1070
    -1
1070
   372
1070
    -1
1002
}
  0
DIMENSION
  5
8286
330
1F
100
AcDbEntity
  8
AM_5
100
AcDbDimension
  2
*D7
 10
-148.5309522755578
 20
-7.997249999996236
 30
0.0
 11
-151.6309522755578
 21
0.0000000000037478
 31
0.0
 70
    32
  1
%%c<>
 71
     5
 42
-1.0
 51
359.9999999999998
  3
AM_JIS$0
100
AcDbAlignedDimension
 13
-129.0000000000001
 23
7.997250000003773
 33
0.0
 14
-129.0000000000001
 24
-7.997249999996242
 34
0.0
 50
270.0
100
AcDbRotatedDimension
1001
GENIUS_GENDTOL_13
1000

1000
h7
1000

1040
0.0
1001
ACAD
1000
DSTYLE
1002
{
1070
   287
1070
     3
1070
    40
1040
1.0
1070
    42
1040
1.0
1070
    43
1040
12.0
1070
    48
1040
0.1
1070
    78
1070
     8
1070
   140
1040
3.2
1070
   176
1070
   256
1070
   177
1070
   256
1070
   271
1070
     0
1070
   272
1070
     3
1070
   275
1070
     0
1070
   284
1070
     0
1070
   289
1070
     3
1070
   340
1005
6B
1070
   371
1070
    -1
1070
   372
1070
    -1
1002
}
  0
DIMENSION
  5
8331
330
1F
100
AcDbEntity
  8
AM_5
100
AcDbDimension
  2
*D8
 10
-130.0000000000001
 20
-41.99725100999606
 30
0.0
 11
-65.00000010110753
 21
-38.89725100999606
 31
0.0
 70
    32
  1
<>
 71
     5
 42
-1.0
 51
359.9999999999998
  3
AM_JIS$0
100
AcDbAlignedDimension
 13
-0.0000002022149133
 23
0.0000000000040785
 33
0.0
 14
-130.0000000000001
 24
-6.997249999996242
 34
0.0
100
AcDbRotatedDimension
1001
GENIUS_GENDTOL_13
1000

1000
h7
1000

1040
0.0
1001
ACAD
1000
DSTYLE
1002
{
1070
   287
1070
     3
1070
    40
1040
1.0
1070
    42
1040
1.0
1070
    43
1040
12.0
1070
    48
1040
0.1
1070
    78
1070
     8
1070
   140
1040
3.2
1070
   176
1070
   256
1070
   177
1070
   256
1070
   271
1070
     0
1070
   272
1070
     3
1070
   275
1070
     0
1070
   284
1070
     0
1070
   289
1070
     3
1070
   340
1005
6B
1070
   371
1070
    -1
1070
   372
1070
    -1
1002
}
  0
VIEWPORT
  5
110
102
{ACAD_XDICTIONARY
360
8742
102
}
330
101
100
AcDbEntity
 67
     1
  8
0
100
AcDbViewport
 10
420.5
 20
297.0
 30
0.0
 40
948.9782706766916
 41
628.452
 68
     1
 69
     1
 12
420.5
 22
297.0
 13
0.0
 23
0.0
 14
10.0
 24
10.0
 15
10.0
 25
10.0
 16
0.0
 26
0.0
 36
1.0
 17
0.0
 27
0.0
 37
0.0
 42
50.0
 43
0.0
 44
0.0
 45
628.452
 50
0.0
 51
0.0
 72
   100
 90
    32800
  1

281
     0
 71
     1
 74
     0
110
-0.0000000000002682
120
0.000000000000161
130
0.0
111
1.0
121
0.000000000000002
131
0.0
112
-0.000000000000002
122
1.0
132
0.0
 79
     0
146
0.0
1001
GENIUS_GENSCREG_15
1000
PF
1040
1.0
1000
DF
1040
1.0
1000
MIN
1011
-53.98913533834582
1021
-17.226
1031
0.0
1000
MAX
1011
894.9891353383458
1021
611.226
1031
0.0
1000
FLAGS
1070
     4
1001
GENIUS_GENOBJ-N-SDF_13
1002
{
1000
OWNER
1000
GEN
1002
}
1001
GENIUS_GENODEF_13
1002
{
1000
HIER
1070
     0
1002
}
1002
{
1000
MANEDIT
1070
     0
1002
}
1002
{
1000
NOSEL
1070
     0
1002
}
1002
{
1000
BEHIND
1070
     0
1002
}
1002
{
1000
OTHER
1070
     0
1002
}
1002
{
1000
REACTOR
1002
}
  0
ENDSEC
  0
SECTION
  2
OBJECTS
  0
DICTIONARY
  5
C
330
0
100
AcDbDictionary
281
     1
  3
ACAD_COLOR
350
8678
  3
ACAD_GROUP
350
D
  3
ACAD_LAYOUT
350
1A
  3
ACAD_MATERIAL
350
8677
  3
ACAD_MLINESTYLE
350
17
  3
ACAD_PLOTSETTINGS
350
19
  3
ACAD_PLOTSTYLENAME
350
E
  3
ACAD_TABLESTYLE
350
8679
  3
ACDBHEADERROUNDTRIPXREC
350
8741
  3
ACDBVARIABLEDICTIONARY
350
34
  3
ACMDICTIONARY
350
43
  3
AMG
350
2B
  3
AMGSNAPSETTINGS
350
6E
  3
DWGPROPS
350
8740
  0
DICTIONARY
  5
74
330
1F
100
AcDbDictionary
280
     1
281
     1
  3
ACAD_INDEX
360
85FE
  3
ACAD_LAYOUTSELFREF
360
862B
  0
DICTIONARY
  5
8630
330
101
100
AcDbDictionary
280
     1
281
     1
  3
ACAD_LAYOUTSELFREF
360
8631
  0
DICTIONARY
  5
8742
330
110
100
AcDbDictionary
280
     1
281
     1
  3
ACAD_XREC_ROUNDTRIP
360
8743
  0
DICTIONARY
  5
8678
102
{ACAD_REACTORS
330
C
102
}
330
C
100
AcDbDictionary
281
     1
  0
DICTIONARY
  5
D
102
{ACAD_REACTORS
330
C
102
}
330
C
100
AcDbDictionary
281
     1
  0
DICTIONARY
  5
1A
102
{ACAD_REACTORS
330
C
102
}
330
C
100
AcDbDictionary
281
     1
  3
Model
350
867B
  3
レイアウト1
350
867C
  0
DICTIONARY
  5
8677
102
{ACAD_REACTORS
330
C
102
}
330
C
100
AcDbDictionary
281
     1
  0
DICTIONARY
  5
17
102
{ACAD_REACTORS
330
C
102
}
330
C
100
AcDbDictionary
281
     1
  3
STANDARD
350
18
  0
DICTIONARY
  5
19
102
{ACAD_REACTORS
330
C
102
}
330
C
100
AcDbDictionary
281
     1
  3
ASAMI
350
399D
  0
ACDBDICTIONARYWDFLT
  5
E
102
{ACAD_REACTORS
330
C
102
}
330
C
100
AcDbDictionary
281
     1
  3
Normal
350
F
100
AcDbDictionaryWithDefault
340
F
  0
DICTIONARY
  5
8679
102
{ACAD_REACTORS
330
C
102
}
330
C
100
AcDbDictionary
281
     1
  3
Standard
350
867A
  0
DICTIONARY
  5
8741
102
{ACAD_REACTORS
330
C
102
}
330
C
100
AcDbDictionary
281
     1
  0
DICTIONARY
  5
34
102
{ACAD_REACTORS
330
C
102
}
330
C
100
AcDbDictionary
281
     1
  3
CTABLESTYLE
350
873C
  3
DIMASSOC
350
873D
  3
INDEXCTL
350
35
  3
PROJECTNAME
350
873E
  3
SORTENTS
350
B5E
  0
DICTIONARY
  5
43
102
{ACAD_REACTORS
330
C
102
}
330
C
100
AcDbDictionary
281
     1
  3
ACMSTDDICTIONARY
350
260
  0
DICTIONARY
  5
2B
102
{ACAD_REACTORS
330
C
102
}
330
C
100
AcDbDictionary
281
     1
  0
DICTIONARY
  5
6E
102
{ACAD_REACTORS
330
C
102
}
330
C
100
AcDbDictionary
281
     1
  0
XRECORD
  5
8740
102
{ACAD_REACTORS
330
C
102
}
330
C
100
AcDbXrecord
280
     1
  1
DWGPROPS COOKIE
  2

  3

  4

  6

  7

  8

  9

300
AmdtFileType=82
301
=
302
=
303
=
304
=
305
=
306
=
307
=
308
=
309
=
 40
0.9724086342592592
 41
2452802.716478762
 42
2453691.772953738
  1

 90
        1
  0
DICTIONARY
  5
85FE
102
{ACAD_REACTORS
330
74
102
}
330
74
100
AcDbDictionary
281
     1
  3
*A1
350
85FF
  0
XRECORD
  5
862B
102
{ACAD_REACTORS
330
74
102
}
330
74
100
AcDbXrecord
280
     1
340
1F
  0
XRECORD
  5
8631
102
{ACAD_REACTORS
330
8630
102
}
330
8630
100
AcDbXrecord
280
     1
340
101
  0
XRECORD
  5
8743
102
{ACAD_REACTORS
330
8742
102
}
330
8742
100
AcDbXrecord
280
     1
102
SHADEPLOT
 70
     0
  0
LAYOUT
  5
867B
102
{ACAD_XDICTIONARY
360
8746
102
}
102
{ACAD_REACTORS
330
1A
102
}
330
1A
100
AcDbPlotSettings
  1

  2
Canon LBP-1710 LIPS4
  4

  6

 40
0.0
 41
0.0
 42
0.0
 43
0.0
 44
0.0
 45
0.0
 46
0.0
 47
0.0
 48
0.0
 49
0.0
140
0.0
141
0.0
142
1.0
143
1.0
 70
  1712
 72
     0
 73
     0
 74
     0
  7
sei_cad.ctb
 75
     0
147
1.0
148
0.0
149
0.0
100
AcDbLayout
  1
Model
 70
     1
 71
     0
 10
0.0
 20
0.0
 11
12.0
 21
9.0
 12
0.0
 22
0.0
 32
0.0
 14
0.0
 24
0.0
 34
0.0
 15
0.0
 25
0.0
 35
0.0
146
0.0
 13
0.0
 23
0.0
 33
0.0
 16
1.0
 26
0.0
 36
0.0
 17
0.0
 27
1.0
 37
0.0
 76
     0
330
1F
  0
LAYOUT
  5
867C
102
{ACAD_XDICTIONARY
360
8748
102
}
102
{ACAD_REACTORS
330
1A
102
}
330
1A
100
AcDbPlotSettings
  1

  2
Canon LBP-1710 LIPS4
  4

  6

 40
0.0
 41
0.0
 42
0.0
 43
0.0
 44
0.0
 45
0.0
 46
0.0
 47
0.0
 48
0.0
 49
0.0
140
0.0
141
0.0
142
1.0
143
1.0
 70
   688
 72
     0
 73
     0
 74
     5
  7
sei_cad.ctb
 75
    16
147
1.0
148
0.0
149
0.0
100
AcDbLayout
  1
レイアウト1
 70
     0
 71
     1
 10
0.0
 20
0.0
 11
841.0
 21
594.0
 12
0.0
 22
0.0
 32
0.0
 14
1.000000000000000E+20
 24
1.000000000000000E+20
 34
1.000000000000000E+20
 15
-1.000000000000000E+20
 25
-1.000000000000000E+20
 35
-1.000000000000000E+20
146
0.0
 13
0.0
 23
0.0
 33
0.0
 16
1.0
 26
0.0
 36
0.0
 17
0.0
 27
1.0
 37
0.0
 76
     0
330
101
331
110
  0
MLINESTYLE
  5
18
102
{ACAD_REACTORS
330
17
102
}
330
17
100
AcDbMlineStyle
  2
STANDARD
 70
     0
  3

 62
   256
 51
90.0
 52
90.0
 71
     2
 49
0.5
 62
   256
  6
BYLAYER
 49
-0.5
 62
   256
  6
BYLAYER
  0
PLOTSETTINGS
  5
399D
102
{ACAD_XDICTIONARY
360
8744
102
}
102
{ACAD_REACTORS
330
19
102
}
330
19
100
AcDbPlotSettings
  1
asami
  2
RICOH imagio MF1540
  4
A4
  6

 40
5.831416606903076
 41
7.651742935180664
 42
4.90008544921875
 43
5.789077758789062
 44
296.9683227539062
 45
209.9733276367186
 46
0.0
 47
0.0
 48
-156.6707931774246
 49
-74.57609991074048
140
58.59973180214831
141
60.61068161925597
142
1.0
143
1.095343097833084
 70
  1712
 72
     1
 73
     1
 74
     4
  7
asami.ctb
 75
     0
147
0.9129559514076438
148
156.6707931774246
149
74.57609991074048
  0
ACDBPLACEHOLDER
  5
F
102
{ACAD_REACTORS
330
E
102
}
330
E
  0
TABLESTYLE
  5
867A
102
{ACAD_REACTORS
330
8679
102
}
330
8679
100
AcDbTableStyle
  3
Standard
 70
     0
 71
     0
 40
1.5
 41
1.5
280
     0
281
     0
  7
STANDARD
140
4.5
170
     2
 62
     0
 63
     7
283
     0
274
    -2
284
     1
 64
     0
275
    -2
285
     1
 65
     0
276
    -2
286
     1
 66
     0
277
    -2
287
     1
 67
     0
278
    -2
288
     1
 68
     0
279
    -2
289
     1
 69
     0
  7
STANDARD
140
6.0
170
     5
 62
     0
 63
     7
283
     0
274
    -2
284
     1
 64
     0
275
    -2
285
     1
 65
     0
276
    -2
286
     1
 66
     0
277
    -2
287
     1
 67
     0
278
    -2
288
     1
 68
     0
279
    -2
289
     1
 69
     0
  7
STANDARD
140
4.5
170
     5
 62
     0
 63
     7
283
     0
274
    -2
284
     1
 64
     0
275
    -2
285
     1
 65
     0
276
    -2
286
     1
 66
     0
277
    -2
287
     1
 67
     0
278
    -2
288
     1
 68
     0
279
    -2
289
     1
 69
     0
  0
DICTIONARYVAR
  5
873C
102
{ACAD_REACTORS
330
34
102
}
330
34
100
DictionaryVariables
280
     0
  1
STANDARD
  0
DICTIONARYVAR
  5
873D
102
{ACAD_REACTORS
330
34
102
}
330
34
100
DictionaryVariables
280
     0
  1
1
  0
DICTIONARYVAR
  5
35
102
{ACAD_REACTORS
330
34
102
}
330
34
100
DictionaryVariables
280
     0
  1
1
  0
DICTIONARYVAR
  5
873E
102
{ACAD_REACTORS
330
34
102
}
330
34
100
DictionaryVariables
280
     0
  1

  0
DICTIONARYVAR
  5
B5E
102
{ACAD_REACTORS
330
34
102
}
330
34
100
DictionaryVariables
280
     0
  1
96
  0
DICTIONARY
  5
260
102
{ACAD_REACTORS
330
43
102
}
330
43
100
AcDbDictionary
281
     1
  0
LAYER_INDEX
  5
85FF
102
{ACAD_REACTORS
330
85FE
102
}
330
85FE
100
AcDbIndex
 40
2453691.772953738
100
AcDbLayerIndex
  8
0
360
8600
 90
        0
  8
AM_0
360
8601
 90
      306
  8
AM_5
360
8602
 90
        7
  8
AM_7
360
8603
 90
        1
  8
AM_6
360
8604
 90
        1
  8
DEFPOINTS
360
8605
 90
        0
  8
AM_11
360
8606
 90
        3
  0
DICTIONARY
  5
8746
330
867B
100
AcDbDictionary
280
     1
281
     1
  3
ACAD_XREC_ROUNDTRIP
360
8747
  0
DICTIONARY
  5
8748
330
867C
100
AcDbDictionary
280
     1
281
     1
  3
ACAD_XREC_ROUNDTRIP
360
8749
  0
DICTIONARY
  5
8744
330
399D
100
AcDbDictionary
280
     1
281
     1
  3
ACAD_XREC_ROUNDTRIP
360
8745
  0
IDBUFFER
  5
8600
330
0
100
AcDbIdBuffer
  0
IDBUFFER
  5
8601
330
0
100
AcDbIdBuffer
330
7AF4
330
7AF5
330
7AF6
330
7AF7
330
7AF8
330
7AF9
330
7BEC
330
7BED
330
7BEE
330
7BEF
330
7BF0
330
7BF1
330
7BF2
330
7BF3
330
7BF4
330
7BF5
330
7BF6
330
7BF7
330
7BF8
330
7BF9
330
7BFA
330
7BFB
330
7BFC
330
7BFD
330
7BFE
330
7BFF
330
7C00
330
7C01
330
7C02
330
7C03
330
7C04
330
7C05
330
7C06
330
7C07
330
7C08
330
7C09
330
7C0E
330
7C0F
330
7C10
330
7C11
330
7C12
330
7C13
330
7C14
330
7C15
330
7C16
330
7C17
330
7C18
330
7C19
330
7C1A
330
7C1B
330
7C1C
330
7C1D
330
7C1E
330
7C1F
330
7C20
330
7C21
330
7C22
330
7C23
330
7C24
330
7C25
330
7C26
330
7C27
330
7C28
330
7C29
330
7C2A
330
7C2B
330
7C2C
330
7C2D
330
7C2E
330
7C2F
330
7C30
330
7C31
330
7C32
330
7C33
330
7C34
330
7C35
330
7C36
330
7C37
330
7C38
330
7C39
330
7C3A
330
7C3B
330
7C3C
330
7C3D
330
7C3E
330
7C3F
330
7C40
330
7C41
330
7C42
330
7C43
330
7C44
330
7C45
330
7C46
330
7C47
330
7C48
330
7C49
330
7C4A
330
7C4B
330
7C4C
330
7C4D
330
7C4E
330
7C4F
330
7C50
330
7C51
330
7C52
330
7C53
330
7C54
330
7C55
330
7C56
330
7C57
330
7C58
330
7C59
330
7C5B
330
7C5C
330
7C5D
330
7C5E
330
7C5F
330
7C60
330
7C61
330
7C62
330
7C63
330
7C64
330
7C65
330
7C66
330
7C67
330
7C68
330
7C69
330
7C6A
330
7C6B
330
7C6C
330
7C6D
330
7C6E
330
7C6F
330
7C70
330
7C71
330
7C72
330
7C73
330
7C74
330
7C75
330
7C76
330
7C77
330
7C78
330
7C79
330
7C7A
330
7C7B
330
7C7C
330
7C7D
330
7C7F
330
7C80
330
7C81
330
7C82
330
7C83
330
7C84
330
7C85
330
7C86
330
7C87
330
7C88
330
7C89
330
7C8A
330
7C8B
330
7C8C
330
7C8D
330
7C8E
330
7C8F
330
7C90
330
7C91
330
7C92
330
7C93
330
7C94
330
7C95
330
7C96
330
7C97
330
7C98
330
7C99
330
7C9A
330
7C9B
330
7C9C
330
7C9D
330
7C9E
330
7C9F
330
7CA0
330
7CA1
330
7CA2
330
7CA3
330
7CA4
330
7CA5
330
7CA6
330
7CA7
330
7CA8
330
7CA9
330
7CAA
330
7CAB
330
7CAC
330
7CAD
330
7CAE
330
7CAF
330
7CB0
330
7CB1
330
7CB2
330
7CB3
330
7CB4
330
7CB5
330
7CB6
330
7CB7
330
7CB8
330
7CB9
330
7CBA
330
7CBB
330
7CBC
330
7CBD
330
7CBE
330
7CBF
330
7CC0
330
7CC1
330
7CC2
330
7CC3
330
7CC4
330
7CC5
330
7CC6
330
7CC7
330
7CC8
330
7CC9
330
7CCA
330
7CCB
330
7CCC
330
7CCD
330
7CCE
330
7CD0
330
7CD1
330
7CD2
330
7CD3
330
7CD4
330
7CD5
330
7CD6
330
7CD7
330
7CD8
330
7CD9
330
7CDA
330
7CDB
330
7CDC
330
7CDD
330
7CDE
330
7CDF
330
7CE0
330
7CE1
330
7CE2
330
7CE3
330
7CE4
330
7CE5
330
7CE6
330
7CE7
330
7CE8
330
7CE9
330
7CEA
330
7CEB
330
7CEC
330
7CED
330
7CEE
330
7CEF
330
7CF0
330
7CF1
330
7CF2
330
7CF3
330
7CF4
330
7CF5
330
7CF6
330
7CF7
330
7CF8
330
7CF9
330
7CFA
330
7CFB
330
7CFC
330
7CFD
330
7CFE
330
7CFF
330
7D00
330
7D01
330
7D02
330
7D03
330
7D04
330
7D05
330
7D06
330
7D07
330
7D08
330
7D09
330
7D0A
330
7D0B
330
7D0C
330
7D0D
330
7D0E
330
7D0F
330
7D10
330
7D11
330
7D12
330
7D17
330
7D18
330
7D19
330
7D1A
330
7D1B
330
7D1C
330
7D1D
330
7D1E
330
7D1F
330
7D20
330
7D21
330
7D22
  0
IDBUFFER
  5
8602
330
0
100
AcDbIdBuffer
330
7EC4
330
7F63
330
801C
330
80A8
330
814F
330
8286
330
8331
  0
IDBUFFER
  5
8603
330
0
100
AcDbIdBuffer
330
7AFA
  0
IDBUFFER
  5
8604
330
0
100
AcDbIdBuffer
330
388D
  0
IDBUFFER
  5
8605
330
0
100
AcDbIdBuffer
  0
IDBUFFER
  5
8606
330
0
100
AcDbIdBuffer
330
7C7E
330
7CCF
330
7EBC
  0
XRECORD
  5
8747
102
{ACAD_REACTORS
330
8746
102
}
330
8746
100
AcDbXrecord
280
     1
102
SHADEPLOT
 70
     0
102
SHADEPLOTRESLEVEL
 70
     2
102
SHADEPLOTCUSTOMDPI
 70
   300
  0
XRECORD
  5
8749
102
{ACAD_REACTORS
330
8748
102
}
330
8748
100
AcDbXrecord
280
     1
102
SHADEPLOT
 70
     0
102
SHADEPLOTRESLEVEL
 70
     2
102
SHADEPLOTCUSTOMDPI
 70
   300
  0
XRECORD
  5
8745
102
{ACAD_REACTORS
330
8744
102
}
330
8744
100
AcDbXrecord
280
     1
102
SHADEPLOT
 70
     0
102
SHADEPLOTRESLEVEL
 70
     2
102
SHADEPLOTCUSTOMDPI
 70
   300
  0
ENDSEC
  0
EOF
