  0
SECTION
  2
HEADER
  9
$ACADVER
  1
AC1015
  9
$ACADMAINTVER
 70
    20
  9
$DWGCODEPAGE
  3
ANSI_932
  9
$INSBASE
 10
0.0
 20
0.0
 30
0.0
  9
$EXTMIN
 10
-173.0872272678383
 20
-72.7924472587697
 30
0.0
  9
$EXTMAX
 10
18.11293940995382
 20
34.99244894070201
 30
0.0
  9
$LIMMIN
 10
-194.1867245881094
 20
-103.6248221404971
  9
$LIMMAX
 10
107.675844097957
 20
96.96856787598939
  9
$ORTHOMODE
 70
     0
  9
$REGENMODE
 70
     1
  9
$FILLMODE
 70
     1
  9
$QTEXTMODE
 70
     0
  9
$MIRRTEXT
 70
     0
  9
$LTSCALE
 40
1.0
  9
$ATTMODE
 70
     1
  9
$TEXTSIZE
 40
2.5
  9
$TRACEWID
 40
1.0
  9
$TEXTSTYLE
  7
STANDARD
  9
$CLAYER
  8
AM_0
  9
$CELTYPE
  6
BYLAYER
  9
$CECOLOR
 62
   256
  9
$CELTSCALE
 40
1.0
  9
$DISPSILH
 70
     0
  9
$DIMSCALE
 40
0.5
  9
$DIMASZ
 40
2.5
  9
$DIMEXO
 40
1.0
  9
$DIMDLI
 40
12.0
  9
$DIMRND
 40
0.0
  9
$DIMDLE
 40
0.0
  9
$DIMEXE
 40
1.0
  9
$DIMTP
 40
0.1
  9
$DIMTM
 40
0.1
  9
$DIMTXT
 40
3.2
  9
$DIMCEN
 40
0.0
  9
$DIMTSZ
 40
0.0
  9
$DIMTOL
 70
     0
  9
$DIMLIM
 70
     0
  9
$DIMTIH
 70
     0
  9
$DIMTOH
 70
     0
  9
$DIMSE1
 70
     0
  9
$DIMSE2
 70
     0
  9
$DIMTAD
 70
     3
  9
$DIMZIN
 70
     8
  9
$DIMBLK
  1
Open30
  9
$DIMASO
 70
     1
  9
$DIMSHO
 70
     1
  9
$DIMPOST
  1

  9
$DIMAPOST
  1
"
  9
$DIMALT
 70
     0
  9
$DIMALTD
 70
     2
  9
$DIMALTF
 40
0.0393701
  9
$DIMLFAC
 40
1.0
  9
$DIMTOFL
 70
     1
  9
$DIMTVP
 40
0.0
  9
$DIMTIX
 70
     0
  9
$DIMSOXD
 70
     0
  9
$DIMSAH
 70
     0
  9
$DIMBLK1
  1

  9
$DIMBLK2
  1

  9
$DIMSTYLE
  2
AM_JIS
  9
$DIMCLRD
 70
   256
  9
$DIMCLRE
 70
   256
  9
$DIMCLRT
 70
     2
  9
$DIMTFAC
 40
0.71
  9
$DIMGAP
 40
1.5
  9
$DIMJUST
 70
     0
  9
$DIMSD1
 70
     0
  9
$DIMSD2
 70
     0
  9
$DIMTOLJ
 70
     0
  9
$DIMTZIN
 70
     0
  9
$DIMALTZ
 70
     0
  9
$DIMALTTZ
 70
     0
  9
$DIMUPT
 70
     0
  9
$DIMDEC
 70
     3
  9
$DIMTDEC
 70
     3
  9
$DIMALTU
 70
     2
  9
$DIMALTTD
 70
     2
  9
$DIMTXSTY
  7
ASAMI
  9
$DIMAUNIT
 70
     0
  9
$DIMADEC
 70
     0
  9
$DIMALTRND
 40
0.0
  9
$DIMAZIN
 70
     2
  9
$DIMDSEP
 70
    46
  9
$DIMATFIT
 70
     3
  9
$DIMFRAC
 70
     0
  9
$DIMLDRBLK
  1
Open30
  9
$DIMLUNIT
 70
     2
  9
$DIMLWD
 70
    -1
  9
$DIMLWE
 70
    -1
  9
$DIMTMOVE
 70
     0
  9
$LUNITS
 70
     2
  9
$LUPREC
 70
     2
  9
$SKETCHINC
 40
1.0
  9
$FILLETRAD
 40
0.4
  9
$AUNITS
 70
     0
  9
$AUPREC
 70
     0
  9
$MENU
  1
.
  9
$ELEVATION
 40
0.0
  9
$PELEVATION
 40
0.0
  9
$THICKNESS
 40
0.0
  9
$LIMCHECK
 70
     1
  9
$CHAMFERA
 40
1.0
  9
$CHAMFERB
 40
1.0
  9
$CHAMFERC
 40
20.0
  9
$CHAMFERD
 40
0.0
  9
$SKPOLY
 70
     0
  9
$TDCREATE
 40
2452802.716478762
  9
$TDUCREATE
 40
2452802.341478762
  9
$TDUPDATE
 40
2453691.770450845
  9
$TDUUPDATE
 40
2453691.395450845
  9
$TDINDWG
 40
0.9158348264
  9
$TDUSRTIMER
 40
0.9158348264
  9
$USRTIMER
 70
     1
  9
$ANGBASE
 50
0.0
  9
$ANGDIR
 70
     0
  9
$PDMODE
 70
     0
  9
$PDSIZE
 40
0.0
  9
$PLINEWID
 40
0.0
  9
$SPLFRAME
 70
     0
  9
$SPLINETYPE
 70
     6
  9
$SPLINESEGS
 70
     8
  9
$HANDSEED
  5
9B6C
  9
$SURFTAB1
 70
     6
  9
$SURFTAB2
 70
     6
  9
$SURFTYPE
 70
     6
  9
$SURFU
 70
     6
  9
$SURFV
 70
     6
  9
$UCSBASE
  2

  9
$UCSNAME
  2

  9
$UCSORG
 10
-0.0000000000002682
 20
0.000000000000161
 30
0.0
  9
$UCSXDIR
 10
1.0
 20
0.000000000000002
 30
0.0
  9
$UCSYDIR
 10
-0.000000000000002
 20
1.0
 30
0.0
  9
$UCSORTHOREF
  2

  9
$UCSORTHOVIEW
 70
     0
  9
$UCSORGTOP
 10
0.0
 20
0.0
 30
0.0
  9
$UCSORGBOTTOM
 10
0.0
 20
0.0
 30
0.0
  9
$UCSORGLEFT
 10
0.0
 20
0.0
 30
0.0
  9
$UCSORGRIGHT
 10
0.0
 20
0.0
 30
0.0
  9
$UCSORGFRONT
 10
0.0
 20
0.0
 30
0.0
  9
$UCSORGBACK
 10
0.0
 20
0.0
 30
0.0
  9
$PUCSBASE
  2

  9
$PUCSNAME
  2

  9
$PUCSORG
 10
0.0
 20
0.0
 30
0.0
  9
$PUCSXDIR
 10
1.0
 20
0.0
 30
0.0
  9
$PUCSYDIR
 10
0.0
 20
1.0
 30
0.0
  9
$PUCSORTHOREF
  2

  9
$PUCSORTHOVIEW
 70
     0
  9
$PUCSORGTOP
 10
0.0
 20
0.0
 30
0.0
  9
$PUCSORGBOTTOM
 10
0.0
 20
0.0
 30
0.0
  9
$PUCSORGLEFT
 10
0.0
 20
0.0
 30
0.0
  9
$PUCSORGRIGHT
 10
0.0
 20
0.0
 30
0.0
  9
$PUCSORGFRONT
 10
0.0
 20
0.0
 30
0.0
  9
$PUCSORGBACK
 10
0.0
 20
0.0
 30
0.0
  9
$USERI1
 70
     0
  9
$USERI2
 70
     0
  9
$USERI3
 70
     0
  9
$USERI4
 70
     0
  9
$USERI5
 70
     0
  9
$USERR1
 40
0.0
  9
$USERR2
 40
0.0
  9
$USERR3
 40
0.0
  9
$USERR4
 40
0.0
  9
$USERR5
 40
0.0
  9
$WORLDVIEW
 70
     1
  9
$SHADEDGE
 70
     3
  9
$SHADEDIF
 70
    70
  9
$TILEMODE
 70
     1
  9
$MAXACTVP
 70
    64
  9
$PINSBASE
 10
0.0
 20
0.0
 30
0.0
  9
$PLIMCHECK
 70
     0
  9
$PEXTMIN
 10
1.000000000000000E+20
 20
1.000000000000000E+20
 30
1.000000000000000E+20
  9
$PEXTMAX
 10
-1.000000000000000E+20
 20
-1.000000000000000E+20
 30
-1.000000000000000E+20
  9
$PLIMMIN
 10
0.0
 20
0.0
  9
$PLIMMAX
 10
841.0
 20
594.0
  9
$UNITMODE
 70
     0
  9
$VISRETAIN
 70
     1
  9
$PLINEGEN
 70
     0
  9
$PSLTSCALE
 70
     0
  9
$TREEDEPTH
 70
  3020
  9
$CMLSTYLE
  2
STANDARD
  9
$CMLJUST
 70
     0
  9
$CMLSCALE
 40
20.0
  9
$PROXYGRAPHICS
 70
     1
  9
$MEASUREMENT
 70
     1
  9
$CELWEIGHT
370
    -1
  9
$ENDCAPS
280
     0
  9
$JOINSTYLE
280
     0
  9
$LWDISPLAY
290
     0
  9
$INSUNITS
 70
     4
  9
$HYPERLINKBASE
  1

  9
$STYLESHEET
  1
ASAMI.ctb
  9
$XEDIT
290
     1
  9
$CEPSNTYPE
380
     0
  9
$PSTYLEMODE
290
     1
  9
$FINGERPRINTGUID
  2
{AFB28963-8C59-40AE-9337-C84526B81ACE}
  9
$VERSIONGUID
  2
{301BE126-2F7A-43C2-948B-E340CDAD36C0}
  9
$EXTNAMES
290
     1
  9
$PSVPSCALE
 40
0.0
  9
$OLESTARTUP
290
     0
  0
ENDSEC
  0
SECTION
  2
CLASSES
  0
CLASS
  1
ACDBDICTIONARYWDFLT
  2
AcDbDictionaryWithDefault
  3
ObjectDBX Classes
 90
        0
280
     0
281
     0
  0
CLASS
  1
ACDBPLACEHOLDER
  2
AcDbPlaceHolder
  3
ObjectDBX Classes
 90
        0
280
     0
281
     0
  0
CLASS
  1
LAYOUT
  2
AcDbLayout
  3
ObjectDBX Classes
 90
        0
280
     0
281
     0
  0
CLASS
  1
AMGSETTINGSOBJ
  2
AmgSettingsObj
  3
"AcadM|Product Description: AutoCAD Mechanical 2000|Company: Autodesk"
 90
        0
280
     0
281
     0
  0
CLASS
  1
ACME_DOCUMENT
  2
AcMeDbDoc
  3
AcMeServices
 90
        0
280
     0
281
     0
  0
CLASS
  1
ACMESCOPE
  2
AcMeScope
  3
AcMeServices
 90
        0
280
     0
281
     0
  0
CLASS
  1
ACMECOMMANDHISTORY
  2
AcMeCommandHistory
  3
AcMeServices
 90
        0
280
     0
281
     0
  0
CLASS
  1
DICTIONARYVAR
  2
AcDbDictionaryVar
  3
ObjectDBX Classes
 90
        0
280
     0
281
     0
  0
CLASS
  1
ACIMSYSVARMAN
  2
AcImSysVarManager
  3
AcMeServices
 90
        0
280
     0
281
     0
  0
CLASS
  1
ACIMREALSYSVAR
  2
AcImRealSysVar
  3
AcMeServices
 90
        0
280
     0
281
     0
  0
CLASS
  1
ACIMINTSYSVAR
  2
AcImIntSysVar
  3
AcMeServices
 90
        0
280
     0
281
     0
  0
CLASS
  1
ACMEDRAWINGMAN
  2
AcMeDrawingMan
  3
AcMeServices
 90
        0
280
     0
281
     0
  0
CLASS
  1
ACMEVIEW
  2
AcMeView
  3
AcMeServices
 90
        0
280
     0
281
     0
  0
CLASS
  1
ACDBENTITYCACHE
  2
AcMeEntityCache
  3
AcMeServices
 90
        0
280
     0
281
     0
  0
CLASS
  1
GSMANAGER
  2
AcMeGSManager
  3
AcMeServices
 90
        0
280
     0
281
     0
  0
CLASS
  1
AMDTINTERNALREACTOR
  2
AmdtInternalReactor
  3
AcMeServices
 90
        0
280
     0
281
     0
  0
CLASS
  1
ACMESTATEMGR
  2
AcMeStateMgr
  3
AcMeServices
 90
        0
280
     0
281
     0
  0
CLASS
  1
ACME_DATABASE
  2
AcMeDbDatabase
  3
AcMeServices
 90
        0
280
     0
281
     0
  0
CLASS
  1
ACRFINSADJUSTERMGR
  2
AcRfInsAdjusterMgr
  3
AcMeServices
 90
        0
280
     0
281
     0
  0
CLASS
  1
ACMDATADICTIONARY
  2
AcmDataDictionary
  3
"AcmSymBB|Product Description: AutoCAD Mechanical 2004 DX|Company: Autodesk"
 90
        0
280
     0
281
     0
  0
CLASS
  1
ACMDATAENTRYBLOCK
  2
AcmDataEntryBlock
  3
"AcmSymBB|Product Description: AutoCAD Mechanical 2004 DX|Company: Autodesk"
 90
    32768
280
     0
281
     0
  0
CLASS
  1
AMGOBJPROPCFG
  2
AmgObjPropCfg
  3
"AmgLay|Product Description: AutoCAD Mechanical 2000|Company: Autodesk"
 90
        1
280
     0
281
     0
  0
CLASS
  1
ACAMGFILTERDAT
  2
AcAmgFilterDat
  3
"AcadM|Product Description: AutoCAD Mechanical 2000|Company: Autodesk"
 90
    32768
280
     0
281
     0
  0
CLASS
  1
LAYER_INDEX
  2
AcDbLayerIndex
  3
ObjectDBX Classes
 90
        0
280
     0
281
     0
  0
CLASS
  1
IDBUFFER
  2
AcDbIdBuffer
  3
ObjectDBX Classes
 90
        0
280
     0
281
     0
  0
CLASS
  1
ACIMSTRSYSVAR
  2
AcImStrSysVar
  3
AcMeServices
 90
        0
280
     0
281
     0
  0
CLASS
  1
ACMSTANDARDJIS
  2
AcmStandardJIS
  3
"Amdt_StdImp|Product Description: AutoCAD Mechanical 2004 DX|Company: Autodesk"
 90
        0
280
     0
281
     0
  0
CLASS
  1
ACMSURFSTANDARDJIS
  2
AcmSurfTextStdJIS
  3
"Amdt_StdImp|Product Description: AutoCAD Mechanical 2004 DX|Company: Autodesk"
 90
        0
280
     0
281
     0
  0
CLASS
  1
ACMFCFSTANDARDJIS
  2
AcmFCFStdJIS
  3
"Amdt_StdImp|Product Description: AutoCAD Mechanical 2004 DX|Company: Autodesk"
 90
    32768
280
     0
281
     0
  0
CLASS
  1
ACMWELDSTANDARDJIS
  2
AcmWeldingStdJIS
  3
"Amdt_StdImp|Product Description: AutoCAD Mechanical 2004 DX|Company: Autodesk"
 90
        0
280
     0
281
     0
  0
CLASS
  1
ACMIDSTANDARDJIS
  2
AcmIdStdJIS
  3
"Amdt_StdImp|Product Description: AutoCAD Mechanical 2004 DX|Company: Autodesk"
 90
        0
280
     0
281
     0
  0
CLASS
  1
ACMDATUMSTANDARDJIS
  2
AcmDatumStdJIS
  3
"Amdt_StdImp|Product Description: AutoCAD Mechanical 2004 DX|Company: Autodesk"
 90
        0
280
     0
281
     0
  0
CLASS
  1
ACMBOMSTANDARDJIS
  2
AcmBOMStdJIS
  3
"Amdt_StdImp|Product Description: AutoCAD Mechanical 2004 DX|Company: Autodesk"
 90
        0
280
     0
281
     0
  0
CLASS
  1
ACMSTANDARDANSI
  2
AcmStandardANSI
  3
"Amdt_StdImp|Product Description: AutoCAD Mechanical 2004 DX|Company: Autodesk"
 90
    32768
280
     0
281
     0
  0
CLASS
  1
ACMSURFSTANDARDANSI
  2
AcmSurfTextStdANSI
  3
"Amdt_StdImp|Product Description: AutoCAD Mechanical 2004 DX|Company: Autodesk"
 90
    32768
280
     0
281
     0
  0
CLASS
  1
ACMFCFSTANDARDANSI
  2
AcmFCFStdANSI
  3
"Amdt_StdImp|Product Description: AutoCAD Mechanical 2004 DX|Company: Autodesk"
 90
    32768
280
     0
281
     0
  0
CLASS
  1
ACMWELDSTANDARDANSI
  2
AcmWeldingStdANSI
  3
"Amdt_StdImp|Product Description: AutoCAD Mechanical 2004 DX|Company: Autodesk"
 90
    32768
280
     0
281
     0
  0
CLASS
  1
ACMIDSTANDARDANSI
  2
AcmIdStdANSI
  3
"Amdt_StdImp|Product Description: AutoCAD Mechanical 2004 DX|Company: Autodesk"
 90
    32768
280
     0
281
     0
  0
CLASS
  1
ACMDATUMSTANDARDANSI
  2
AcmDatumStdANSI
  3
"Amdt_StdImp|Product Description: AutoCAD Mechanical 2004 DX|Company: Autodesk"
 90
    32768
280
     0
281
     0
  0
CLASS
  1
ACMBOMSTANDARDANSI
  2
AcmBOMStdANSI
  3
"Amdt_StdImp|Product Description: AutoCAD Mechanical 2004 DX|Company: Autodesk"
 90
    32768
280
     0
281
     0
  0
CLASS
  1
ACMSTANDARDBSI
  2
AcmStandardBSI
  3
"Amdt_StdImp|Product Description: AutoCAD Mechanical 2004 DX|Company: Autodesk"
 90
    32768
280
     0
281
     0
  0
CLASS
  1
ACMSURFSTANDARDBSI
  2
AcmSurfTextStdBSI
  3
"Amdt_StdImp|Product Description: AutoCAD Mechanical 2004 DX|Company: Autodesk"
 90
    32768
280
     0
281
     0
  0
CLASS
  1
ACMFCFSTANDARDBSI
  2
AcmFCFStdBSI
  3
"Amdt_StdImp|Product Description: AutoCAD Mechanical 2004 DX|Company: Autodesk"
 90
    32768
280
     0
281
     0
  0
CLASS
  1
ACMWELDSTANDARDBSI
  2
AcmWeldingStdBSI
  3
"Amdt_StdImp|Product Description: AutoCAD Mechanical 2004 DX|Company: Autodesk"
 90
    32768
280
     0
281
     0
  0
CLASS
  1
ACMIDSTANDARDBSI
  2
AcmIdStdBSI
  3
"Amdt_StdImp|Product Description: AutoCAD Mechanical 2004 DX|Company: Autodesk"
 90
    32768
280
     0
281
     0
  0
CLASS
  1
ACMDATUMSTANDARDBSI
  2
AcmDatumStdBSI
  3
"Amdt_StdImp|Product Description: AutoCAD Mechanical 2004 DX|Company: Autodesk"
 90
    32768
280
     0
281
     0
  0
CLASS
  1
ACMBOMSTANDARDBSI
  2
AcmBOMStdBSI
  3
"Amdt_StdImp|Product Description: AutoCAD Mechanical 2004 DX|Company: Autodesk"
 90
    32768
280
     0
281
     0
  0
CLASS
  1
STDPART2D
  2
AmgStdPart
  3
"AmgStdPart|Product Description: AutoCAD Mechanical 2000|Company: Autodesk"
 90
    33791
280
     0
281
     1
  0
CLASS
  1
PLOTSETTINGS
  2
AcDbPlotSettings
  3
ObjectDBX Classes
 90
        0
280
     0
281
     0
  0
CLASS
  1
TABLESTYLE
  2
AcDbTableStyle
  3
ObjectDBX Classes
 90
     2047
280
     0
281
     0
  0
CLASS
  1
ACGREFMASTER
  2
AcGrefMaster
  3
AcAttribServices
 90
        0
280
     0
281
     0
  0
CLASS
  1
AM_DRAWING_MGR
  2
AcDmDwgMgr
  3
AcMechDwgViewMgmt
 90
        0
280
     0
281
     0
  0
CLASS
  1
AM_DWG_DOCUMENT
  2
AcDmDwgDocument
  3
AcMechDwgViewMgmt
 90
        0
280
     0
281
     0
  0
CLASS
  1
AM_DWG_SHEET
  2
AcDmSheet
  3
AcMechDwgViewMgmt
 90
        0
280
     0
281
     0
  0
CLASS
  1
AM_VIEWDIMPARMAP
  2
AcDmViewDimParMap
  3
AcMechDwgViewMgmt
 90
        0
280
     0
281
     0
  0
CLASS
  1
AM_DWGMGR_NAME
  2
AcDmDwgMgrName
  3
AcMechDwgViewMgmt
 90
        0
280
     0
281
     0
  0
CLASS
  1
ACGREFACADMASTER
  2
AcGrefacadMaster
  3
AcGrefServices
 90
        0
280
     0
281
     0
  0
CLASS
  1
AMDTMENUSTATEMGR
  2
AmdtMenuStateMgr
  3
McadcomServices
 90
        0
280
     0
281
     0
  0
CLASS
  1
AMDTMCOMMENUSTATE
  2
AmdtMcomMenuState
  3
McadcomServices
 90
        0
280
     0
281
     0
  0
CLASS
  1
AMIMASTER
  2
AmiMaster
  3
AmiServices
 90
        0
280
     0
281
     0
  0
CLASS
  1
MAPIAMMOUDLE
  2
MApiAmModule
  3
MApiAmServices
 90
        0
280
     0
281
     0
  0
CLASS
  1
AMDTADMENUSTATE
  2
AmdtAdMenuState
  3
DesignerServices
 90
        0
280
     0
281
     0
  0
CLASS
  1
ADAPPL
  2
AcAdAppl
  3
DesignerServices
 90
        0
280
     0
281
     0
  0
CLASS
  1
DEPMGR
  2
AcAdDepMgr
  3
DesignerServices
 90
        0
280
     0
281
     0
  0
CLASS
  1
PARAMMGR
  2
AcAdParamMgr
  3
DesignerServices
 90
        0
280
     0
281
     0
  0
CLASS
  1
PARAMSCOPE
  2
AcAdParamScope
  3
DesignerServices
 90
        0
280
     0
281
     0
  0
CLASS
  1
NAMEDAPPL
  2
AcAdNamedAppl
  3
DesignerServices
 90
        0
280
     0
281
     0
  0
CLASS
  1
AMDTDMMENUSTATE
  2
AmdtDmMenuState
  3
AcMechDwgViewMgmt
 90
        0
280
     0
281
     0
  0
CLASS
  1
AMDTAMMENUSTATE
  2
AmdtAmMenuState
  3
DesignerAssemblies
 90
        0
280
     0
281
     0
  0
CLASS
  1
ACAMPROJECT
  2
AcAmProject
  3
DesignerAssemblies
 90
        0
280
     0
281
     0
  0
CLASS
  1
ACAMGRCOMPDEF
  2
AcAmGrCompDef
  3
DesignerAssemblies
 90
        0
280
     0
281
     0
  0
CLASS
  1
ACCMCONTEXT
  2
AcCmContext
  3
DesignerAssemblies
 90
        0
280
     0
281
     0
  0
CLASS
  1
ACAMCOMPDEF
  2
AcAmCompDef
  3
DesignerAssemblies
 90
        0
280
     0
281
     0
  0
CLASS
  1
ACAMCOMPDEFMGR
  2
AcAmCompDefMgr
  3
DesignerAssemblies
 90
        0
280
     0
281
     0
  0
CLASS
  1
AMCONTEXTMGR
  2
AcAmContextMgr
  3
DesignerAssemblies
 90
        0
280
     0
281
     0
  0
CLASS
  1
ACAMCONTEXTMODELER
  2
AcAmContextModeler
  3
DesignerAssemblies
 90
        0
280
     0
281
     0
  0
CLASS
  1
CATALOGSTATE
  2
AcAmCatalogState
  3
DesignerAssemblies
 90
        0
280
     0
281
     0
  0
CLASS
  1
ACAMGRCOMPDEFSET
  2
AcAmGrCompDefSet
  3
DesignerAssemblies
 90
        0
280
     0
281
     0
  0
CLASS
  1
AMDTBROWSERDBTAB
  2
AmdtBrowserDbTab
  3
McadcomServices
 90
        0
280
     0
281
     0
  0
CLASS
  1
CBROWSERAPPOBJECT
  2
CBrowserAppObject
  3
McadcomServices
 90
        0
280
     0
281
     0
  0
CLASS
  1
DM_PLACEHOLDER
  2
AcDmSelsetPlaceholder
  3
AcMechDwgViewMgmt
 90
        0
280
     0
281
     0
  0
CLASS
  1
ACMSTANDARDISO
  2
AcmStandardISO
  3
"Amdt_StdImp|Product Description: AutoCAD Mechanical 2004 DX|Company: Autodesk"
 90
        0
280
     0
281
     0
  0
CLASS
  1
AMDTEDGESTANDARDISO
  2
AmdtEdgeStdISO
  3
"Amdt_StdImp|Product Description: AutoCAD Mechanical 2004 DX|Company: Autodesk"
 90
        0
280
     0
281
     0
  0
CLASS
  1
ACMSURFSTANDARDISO
  2
AcmSurfTextStdISO
  3
"Amdt_StdImp|Product Description: AutoCAD Mechanical 2004 DX|Company: Autodesk"
 90
        0
280
     0
281
     0
  0
CLASS
  1
ACMFCFSTANDARDISO
  2
AcmFCFStdISO
  3
"Amdt_StdImp|Product Description: AutoCAD Mechanical 2004 DX|Company: Autodesk"
 90
        0
280
     0
281
     0
  0
CLASS
  1
ACMWELDSTANDARDISO
  2
AcmWeldingStdISO
  3
"Amdt_StdImp|Product Description: AutoCAD Mechanical 2004 DX|Company: Autodesk"
 90
        0
280
     0
281
     0
  0
CLASS
  1
ACMIDSTANDARDISO
  2
AcmIdStdISO
  3
"Amdt_StdImp|Product Description: AutoCAD Mechanical 2004 DX|Company: Autodesk"
 90
        0
280
     0
281
     0
  0
CLASS
  1
ACMDATUMSTANDARDISO
  2
AcmDatumStdISO
  3
"Amdt_StdImp|Product Description: AutoCAD Mechanical 2004 DX|Company: Autodesk"
 90
        0
280
     0
281
     0
  0
CLASS
  1
ACMBOMSTANDARDISO
  2
AcmBOMStdISO
  3
"Amdt_StdImp|Product Description: AutoCAD Mechanical 2004 DX|Company: Autodesk"
 90
        0
280
     0
281
     0
  0
CLASS
  1
ACMDETAILSTANDARDISO
  2
AmdtDetailSymStdISO
  3
"Amdt_StdImp|Product Description: AutoCAD Mechanical 2004 DX|Company: Autodesk"
 90
        0
280
     0
281
     0
  0
CLASS
  1
ACMSECTIONSTANDARDISO
  2
AmdtSectionSymStdISO
  3
"Amdt_StdImp|Product Description: AutoCAD Mechanical 2004 DX|Company: Autodesk"
 90
        0
280
     0
281
     0
  0
CLASS
  1
ACMCENTERLINESTANDARDISO
  2
AmdtCenterLineStdISO
  3
"Amdt_StdImp|Product Description: AutoCAD Mechanical 2004 DX|Company: Autodesk"
 90
        0
280
     0
281
     0
  0
CLASS
  1
ACMNOTESTANDARDISO
  2
AmdtNoteStdISO
  3
"Amdt_StdImp|Product Description: AutoCAD Mechanical 2004 DX|Company: Autodesk"
 90
        0
280
     0
281
     0
  0
CLASS
  1
AMDTNOTETEMPLATEDB
  2
AmdtNoteTemplateDB
  3
AMDT_STDIMP_MODULE_NAME
 90
        0
280
     0
281
     0
  0
CLASS
  1
ACAMGLAYSTD
  2
AcAmgLayStd
  3
"AcAmgLayStd|Product Description: AutoCAD Mechanical 2000|Company: Autodesk"
 90
        0
280
     0
281
     0
  0
CLASS
  1
ACAMGDIMSTD
  2
AcAmgDimStd
  3
"AcAmgDimStd|Product Description: AutoCAD Mechanical 2000|Company: Autodesk"
 90
        0
280
     0
281
     0
  0
CLASS
  1
ACAMGHOLECHARTSTDISO
  2
AcAmgHoleChartStdISO
  3
ACMSYMBB_MODULE_NAME
 90
        0
280
     0
281
     0
  0
CLASS
  1
ACAMGTITLESTD
  2
AcAmgTitleStd
  3
"TITLEAPP"
 90
        0
280
     0
281
     0
  0
CLASS
  1
ACMTHREADLINESTANDARDISO
  2
AmdtThreadLineStdISO
  3
"Amdt_StdImp|Product Description: AutoCAD Mechanical 2004 DX|Company: Autodesk"
 90
        0
280
     0
281
     0
  0
CLASS
  1
ACMFCFSTANDARDJIS98
  2
AcmFCFStdJIS98
  3
"Amdt_StdImp|Product Description: AutoCAD Mechanical 2004 DX|Company: Autodesk"
 90
        0
280
     0
281
     0
  0
CLASS
  1
ACMDETAILSTANDARDJIS
  2
AmdtDetailSymStdJIS
  3
"Amdt_StdImp|Product Description: AutoCAD Mechanical 2004 DX|Company: Autodesk"
 90
        0
280
     0
281
     0
  0
CLASS
  1
ACMSECTIONSTANDARDJIS
  2
AmdtSectionSymStdJIS
  3
"Amdt_StdImp|Product Description: AutoCAD Mechanical 2004 DX|Company: Autodesk"
 90
        0
280
     0
281
     0
  0
CLASS
  1
ACMCENTERLINESTANDARDJIS
  2
AmdtCenterLineStdJIS
  3
"Amdt_StdImp|Product Description: AutoCAD Mechanical 2004 DX|Company: Autodesk"
 90
        0
280
     0
281
     0
  0
CLASS
  1
ACMTHREADLINESTANDARDJIS
  2
AmdtThreadLineStdJIS
  3
"Amdt_StdImp|Product Description: AutoCAD Mechanical 2004 DX|Company: Autodesk"
 90
        0
280
     0
281
     0
  0
CLASS
  1
ACMNOTESTANDARDJIS
  2
AmdtNoteStdJIS
  3
"Amdt_StdImp|Product Description: AutoCAD Mechanical 2004 DX|Company: Autodesk"
 90
        0
280
     0
281
     0
  0
CLASS
  1
ACAMGHOLECHARTSTDJIS
  2
AcAmgHoleChartStdJIS
  3
ACMSYMBB_MODULE_NAME
 90
        0
280
     0
281
     0
  0
ENDSEC
  0
SECTION
  2
TABLES
  0
TABLE
  2
VPORT
  5
8
330
0
100
AcDbSymbolTable
 70
     3
  0
VPORT
  5
9B61
330
8
100
AcDbSymbolTableRecord
100
AcDbViewportTableRecord
  2
*Active
 70
     0
 10
0.0
 20
0.0
 11
1.0
 21
1.0
 12
-77.48996017779262
 22
-18.38367397400677
 13
0.0
 23
0.0
 14
2.5
 24
2.5
 15
10.0
 25
10.0
 16
0.0
 26
0.0
 36
1.0
 17
0.0
 27
0.0
 37
0.0
 40
123.7134630529118
 41
1.552631578947368
 42
50.0
 43
0.0
 44
0.0
 50
0.0
 51
0.0
 71
     0
 72
   100
 73
     1
 74
     3
 75
     0
 76
     0
 77
     0
 78
     0
281
     0
 65
     1
110
-0.0000000000002682
120
0.000000000000161
130
0.0
111
1.0
121
0.000000000000002
131
0.0
112
-0.000000000000002
122
1.0
132
0.0
 79
     0
146
0.0
  0
ENDTAB
  0
TABLE
  2
LTYPE
  5
5
330
0
100
AcDbSymbolTable
 70
    17
  0
LTYPE
  5
14
330
5
100
AcDbSymbolTableRecord
100
AcDbLinetypeTableRecord
  2
BYBLOCK
 70
     0
  3

 72
    65
 73
     0
 40
0.0
  0
LTYPE
  5
15
330
5
100
AcDbSymbolTableRecord
100
AcDbLinetypeTableRecord
  2
BYLAYER
 70
     0
  3

 72
    65
 73
     0
 40
0.0
  0
LTYPE
  5
16
330
5
100
AcDbSymbolTableRecord
100
AcDbLinetypeTableRecord
  2
CONTINUOUS
 70
     0
  3
Solid line
 72
    65
 73
     0
 40
0.0
  0
LTYPE
  5
4B
330
5
100
AcDbSymbolTableRecord
100
AcDbLinetypeTableRecord
  2
AM_ISO02W050
 70
     0
  3
__ __ __ __ __ __ __ __ __ __ __ __ __ __ __
 72
    65
 73
     2
 40
7.5
 49
6.0
 74
     0
 49
-1.5
 74
     0
  0
LTYPE
  5
4C
330
5
100
AcDbSymbolTableRecord
100
AcDbLinetypeTableRecord
  2
AM_ISO08W050
 70
     0
  3
____ . ____ . ____ . ____ . ____ . ____ . ____
 72
    65
 73
     4
 40
18.0
 49
12.0
 74
     0
 49
-1.5
 74
     0
 49
3.0
 74
     0
 49
-1.5
 74
     0
  0
LTYPE
  5
4D
330
5
100
AcDbSymbolTableRecord
100
AcDbLinetypeTableRecord
  2
AM_ISO09W050
 70
     0
  3
_____ . . _____ . . _____ . . ____ .. ____
 72
    65
 73
     6
 40
22.5
 49
12.0
 74
     0
 49
-1.5
 74
     0
 49
3.0
 74
     0
 49
-1.5
 74
     0
 49
3.0
 74
     0
 49
-1.5
 74
     0
  0
LTYPE
  5
4E
330
5
100
AcDbSymbolTableRecord
100
AcDbLinetypeTableRecord
  2
Amconstr
 70
     0
  3
_______________________
 72
    65
 73
     2
 40
9999.0
 49
9999.0
 74
     0
 49
0.0
 74
     0
  0
LTYPE
  5
4F
330
5
100
AcDbSymbolTableRecord
100
AcDbLinetypeTableRecord
  2
AM_ISO02W050x2
 70
     0
  3
 _ _ _ _ _ _ _ _ _ _ _ _
 72
    65
 73
     2
 40
3.75
 49
3.0
 74
     0
 49
-0.75
 74
     0
  0
LTYPE
  5
50
330
5
100
AcDbSymbolTableRecord
100
AcDbLinetypeTableRecord
  2
AM_ISO08W050x2
 70
     0
  3
__ . __ . __ . __ . __ . __
 72
    65
 73
     4
 40
9.0
 49
6.0
 74
     0
 49
-0.75
 74
     0
 49
1.5
 74
     0
 49
-0.75
 74
     0
  0
LTYPE
  5
53
330
5
100
AcDbSymbolTableRecord
100
AcDbLinetypeTableRecord
  2
Amzigzag
 70
     0
  3
/\/-/\/-/\/-/\/-/\/-/\/
 72
    65
 73
     2
 40
11.0001
 49
0.0001
 74
     4
 75
   135
340
52
 46
0.04
 50
0.0
 44
0.0
 45
0.0
 49
-11.0
 74
     0
  0
LTYPE
  5
166
330
5
100
AcDbSymbolTableRecord
100
AcDbLinetypeTableRecord
  2
ACJISTGL
 70
     0
  3
_ _ _ _ _
 72
    65
 73
     2
 40
3.0
 49
2.0
 74
     0
 49
-1.0
 74
     0
  0
LTYPE
  5
26A
330
5
100
AcDbSymbolTableRecord
100
AcDbLinetypeTableRecord
  2
ACJISTGB
 70
     0
  3
__ . . __ . .
 72
    65
 73
     6
 40
9.0
 49
4.0
 74
     0
 49
-1.0
 74
     0
 49
1.0
 74
     0
 49
-1.0
 74
     0
 49
1.0
 74
     0
 49
-1.0
 74
     0
  0
LTYPE
  5
9AD9
330
5
100
AcDbSymbolTableRecord
100
AcDbLinetypeTableRecord
  2
HIDDEN
 70
     0
  3
Hidden __ __ __ __ __ __ __ __ __ __ __ __ __ _
 72
    65
 73
     2
 40
9.524999999999998
 49
6.349999999999999
 74
     0
 49
-3.174999999999999
 74
     0
  0
LTYPE
  5
9ADA
330
5
100
AcDbSymbolTableRecord
100
AcDbLinetypeTableRecord
  2
PHANTOM2
 70
     0
  3
Phantom (.5x) ___ _ _ ___ _ _ ___ _ _ ___ _ _
 72
    65
 73
     6
 40
31.75
 49
15.875
 74
     0
 49
-3.174999999999999
 74
     0
 49
3.174999999999999
 74
     0
 49
-3.174999999999999
 74
     0
 49
3.174999999999999
 74
     0
 49
-3.174999999999999
 74
     0
  0
LTYPE
  5
9ADB
330
5
100
AcDbSymbolTableRecord
100
AcDbLinetypeTableRecord
  2
CENTER
 70
     0
  3
__ . __
 72
    65
 73
     4
 40
7.0
 49
4.0
 74
     0
 49
-1.0
 74
     0
 49
1.0
 74
     0
 49
-1.0
 74
     0
  0
LTYPE
  5
9B0C
330
5
100
AcDbSymbolTableRecord
100
AcDbLinetypeTableRecord
  2
ACISOWELD
 70
     0
  3
_ _ _ _ _
 72
    65
 73
     2
 40
2.0
 49
2.0
 74
     0
 49
-1.0
 74
     0
  0
LTYPE
  5
9B0F
330
5
100
AcDbSymbolTableRecord
100
AcDbLinetypeTableRecord
  2
ACISOTGB
 70
     0
  3
__ . . __ . .
 72
    65
 73
     6
 40
9.0
 49
4.0
 74
     0
 49
-1.0
 74
     0
 49
1.0
 74
     0
 49
-1.0
 74
     0
 49
1.0
 74
     0
 49
-1.0
 74
     0
  0
LTYPE
  5
9B10
330
5
100
AcDbSymbolTableRecord
100
AcDbLinetypeTableRecord
  2
ACISOTGL
 70
     0
  3
_ _ _ _ _
 72
    65
 73
     2
 40
3.0
 49
2.0
 74
     0
 49
-1.0
 74
     0
  0
LTYPE
  5
9B39
330
5
100
AcDbSymbolTableRecord
100
AcDbLinetypeTableRecord
  2
ACJISWELD
 70
     0
  3
_ _ _ _ _
 72
    65
 73
     2
 40
2.0
 49
2.0
 74
     0
 49
-1.0
 74
     0
  0
ENDTAB
  0
TABLE
  2
LAYER
  5
2
330
0
100
AcDbSymbolTable
 70
     7
  0
LAYER
  5
10
330
2
100
AcDbSymbolTableRecord
100
AcDbLayerTableRecord
  2
0
 70
     0
 62
     7
  6
CONTINUOUS
370
    -3
390
F
  0
LAYER
  5
3F9
330
2
100
AcDbSymbolTableRecord
100
AcDbLayerTableRecord
  2
AM_0
 70
     0
 62
     7
  6
CONTINUOUS
370
    -3
390
F
  0
LAYER
  5
BA4
330
2
100
AcDbSymbolTableRecord
100
AcDbLayerTableRecord
  2
AM_5
 70
     0
 62
     3
  6
CONTINUOUS
370
    -3
390
F
  0
LAYER
  5
BA6
330
2
100
AcDbSymbolTableRecord
100
AcDbLayerTableRecord
  2
AM_7
 70
     0
 62
     4
  6
AM_ISO08W050
370
    -3
390
F
  0
LAYER
  5
E64
330
2
100
AcDbSymbolTableRecord
100
AcDbLayerTableRecord
  2
AM_6
 70
     0
 62
     2
  6
CONTINUOUS
370
    -3
390
F
  0
LAYER
  5
F4D
330
2
100
AcDbSymbolTableRecord
100
AcDbLayerTableRecord
  2
DEFPOINTS
 70
     0
 62
     7
  6
CONTINUOUS
290
     0
370
    -3
390
F
  0
LAYER
  5
4E80
330
2
100
AcDbSymbolTableRecord
100
AcDbLayerTableRecord
  2
AM_11
 70
     0
 62
     3
  6
AM_ISO09W050
370
    -3
390
F
  0
ENDTAB
  0
TABLE
  2
STYLE
  5
3
330
0
100
AcDbSymbolTable
 70
     7
  0
STYLE
  5
11
330
3
100
AcDbSymbolTableRecord
100
AcDbTextStyleTableRecord
  2
STANDARD
 70
     0
 40
0.0
 41
1.0
 50
0.0
 71
     0
 42
2.5
  3
simplex.shx
  4
EXTFONT.SHX
  0
STYLE
  5
52
330
3
100
AcDbSymbolTableRecord
100
AcDbTextStyleTableRecord
  2

 70
     1
 40
0.0
 41
1.0
 50
0.0
 71
     0
 42
2.5
  3
ltypeshp.shx
  4

  0
STYLE
  5
6B
330
3
100
AcDbSymbolTableRecord
100
AcDbTextStyleTableRecord
  2
ASAMI
 70
     0
 40
0.0
 41
1.0
 50
0.0
 71
     0
 42
2.5
  3
simplex.shx
  4
EXTFONT.SHX
  0
STYLE
  5
262
330
3
100
AcDbSymbolTableRecord
100
AcDbTextStyleTableRecord
  2
ACJISTS
 70
     0
 40
1.0
 41
1.0
 50
0.0
 71
     0
 42
1.0
  3
isocp.shx
  4
extfont.shx
  0
STYLE
  5
269
330
3
100
AcDbSymbolTableRecord
100
AcDbTextStyleTableRecord
  2
ACJISGDT
 70
     0
 40
0.0
 41
1.0
 50
0.0
 71
     0
 42
1.0
  3
amgdt.shx
  4

  0
STYLE
  5
9B06
330
3
100
AcDbSymbolTableRecord
100
AcDbTextStyleTableRecord
  2
ACISOTS
 70
     0
 40
3.799999999999999
 41
1.0
 50
0.0
 71
     0
 42
3.799999999999999
  3
isocp.shx
  4
extfont.shx
  0
STYLE
  5
9B0A
330
3
100
AcDbSymbolTableRecord
100
AcDbTextStyleTableRecord
  2
ACISOGDT
 70
     0
 40
0.0
 41
1.0
 50
0.0
 71
     0
 42
2.5
  3
amgdt.shx
  4
extfont.shx
  0
ENDTAB
  0
TABLE
  2
VIEW
  5
6
330
0
100
AcDbSymbolTable
 70
     0
  0
ENDTAB
  0
TABLE
  2
UCS
  5
7
330
0
100
AcDbSymbolTable
 70
     0
  0
ENDTAB
  0
TABLE
  2
APPID
  5
9
330
0
100
AcDbSymbolTable
 70
    33
  0
APPID
  5
12
330
9
100
AcDbSymbolTableRecord
100
AcDbRegAppTableRecord
  2
ACAD
 70
     0
  0
APPID
  5
30
330
9
100
AcDbSymbolTableRecord
100
AcDbRegAppTableRecord
  2
MCAD_NO_VIS
 70
     0
  0
APPID
  5
31
330
9
100
AcDbSymbolTableRecord
100
AcDbRegAppTableRecord
  2
ACAD_TEMP_GRAPHIC
 70
     0
  0
APPID
  5
2C2
330
9
100
AcDbSymbolTableRecord
100
AcDbRegAppTableRecord
  2
GENIUS_GENDTOL_13
 70
     0
  0
APPID
  5
339
330
9
100
AcDbSymbolTableRecord
100
AcDbRegAppTableRecord
  2
GENIUS_GENODEF_13
 70
     0
  0
APPID
  5
33A
330
9
100
AcDbSymbolTableRecord
100
AcDbRegAppTableRecord
  2
GENIUS_GENOBJ-N-RSBK_13
 70
     0
  0
APPID
  5
33B
330
9
100
AcDbSymbolTableRecord
100
AcDbRegAppTableRecord
  2
GENIUS_GENOBJ-N-LIB_13
 70
     0
  0
APPID
  5
33C
330
9
100
AcDbSymbolTableRecord
100
AcDbRegAppTableRecord
  2
GENIUS_GENSCALE_13
 70
     0
  0
APPID
  5
378
330
9
100
AcDbSymbolTableRecord
100
AcDbRegAppTableRecord
  2
GENIUS_GENDIMSH_14
 70
     0
  0
APPID
  5
BB0
330
9
100
AcDbSymbolTableRecord
100
AcDbRegAppTableRecord
  2
GENIUS_GENOBJ-N-CEN_13
 70
     0
  0
APPID
  5
BB1
330
9
100
AcDbSymbolTableRecord
100
AcDbRegAppTableRecord
  2
GENIUS_GENFIL_13
 70
     0
  0
APPID
  5
BB2
330
9
100
AcDbSymbolTableRecord
100
AcDbRegAppTableRecord
  2
GENIUS_GENOBJ-N-CHA_13
 70
     0
  0
APPID
  5
1FAF
330
9
100
AcDbSymbolTableRecord
100
AcDbRegAppTableRecord
  2
GENIUS_GENOBJ-N-CRS_13
 70
     0
  0
APPID
  5
1FB0
330
9
100
AcDbSymbolTableRecord
100
AcDbRegAppTableRecord
  2
GENIUS_GENOENT_13
 70
     0
  0
APPID
  5
1FB1
330
9
100
AcDbSymbolTableRecord
100
AcDbRegAppTableRecord
  2
GENIUS_GENOREF_13
 70
     0
  0
APPID
  5
1FB2
330
9
100
AcDbSymbolTableRecord
100
AcDbRegAppTableRecord
  2
GENIUS_GENOLIS_13
 70
     0
  0
APPID
  5
1FB7
330
9
100
AcDbSymbolTableRecord
100
AcDbRegAppTableRecord
  2
GENIUS_GENOBJ-N-FIL_13
 70
     0
  0
APPID
  5
22A8
330
9
100
AcDbSymbolTableRecord
100
AcDbRegAppTableRecord
  2
GEVID1056506048
 70
     0
  0
APPID
  5
22A9
330
9
100
AcDbSymbolTableRecord
100
AcDbRegAppTableRecord
  2
GEVDC
 70
     0
  0
APPID
  5
22AC
330
9
100
AcDbSymbolTableRecord
100
AcDbRegAppTableRecord
  2
GENIUS_GENBH_13
 70
     0
  0
APPID
  5
22B8
330
9
100
AcDbSymbolTableRecord
100
AcDbRegAppTableRecord
  2
GENIUS_GENOBJ-NBEHI-BHF_13
 70
     0
  0
APPID
  5
22BA
330
9
100
AcDbSymbolTableRecord
100
AcDbRegAppTableRecord
  2
GENIUS_GENOBJ-NBEHI-BHB_13
 70
     0
  0
APPID
  5
35C9
330
9
100
AcDbSymbolTableRecord
100
AcDbRegAppTableRecord
  2
GENIUS_GENREC_14
 70
     0
  0
APPID
  5
35CA
330
9
100
AcDbSymbolTableRecord
100
AcDbRegAppTableRecord
  2
GENIUS_GENOBJ-N-REC_13
 70
     0
  0
APPID
  5
9AA2
330
9
100
AcDbSymbolTableRecord
100
AcDbRegAppTableRecord
  2
ACATTRIBSERVICES
 70
     0
  0
APPID
  5
9AA3
330
9
100
AcDbSymbolTableRecord
100
AcDbRegAppTableRecord
  2
AD_DRAW
 70
     0
  0
APPID
  5
9AA4
330
9
100
AcDbSymbolTableRecord
100
AcDbRegAppTableRecord
  2
DESIGNERASSEMBLIES
 70
     0
  0
APPID
  5
9AA5
330
9
100
AcDbSymbolTableRecord
100
AcDbRegAppTableRecord
  2
ACADM_DIM_EDIT
 70
     0
  0
APPID
  5
9AA6
330
9
100
AcDbSymbolTableRecord
100
AcDbRegAppTableRecord
  2
AMDT_DM_ADJ
 70
     0
  0
APPID
  5
9AA7
330
9
100
AcDbSymbolTableRecord
100
AcDbRegAppTableRecord
  2
ACAD_DSTYLE_DIMTEXT_FILL
 70
     0
  0
APPID
  5
9AA8
330
9
100
AcDbSymbolTableRecord
100
AcDbRegAppTableRecord
  2
ACAD_PSEXT
 70
     0
  0
APPID
  5
9B5B
330
9
100
AcDbSymbolTableRecord
100
AcDbRegAppTableRecord
  2
GENIUS_GENSCREG_15
 70
     0
  0
APPID
  5
9B5C
330
9
100
AcDbSymbolTableRecord
100
AcDbRegAppTableRecord
  2
GENIUS_GENOBJ-N-SDF_13
 70
     0
  0
ENDTAB
  0
TABLE
  2
DIMSTYLE
  5
A
330
0
100
AcDbSymbolTable
 70
    16
100
AcDbDimStyleTable
 71
     0
  0
DIMSTYLE
105
58
330
A
100
AcDbSymbolTableRecord
100
AcDbDimStyleTableRecord
  2
AM_JIS
 70
     0
  4
"
 41
2.5
 42
1.0
 43
10.0
 44
1.0
 47
0.1
 48
0.1000000001
 73
     0
 74
     0
 77
     3
 78
     8
 79
     2
140
3.799999999999999
141
0.0
143
0.0393701
146
0.71
147
1.5
172
     1
176
   256
177
   256
178
     2
271
     2
272
     2
275
     1
283
     0
284
     8
340
11
341
59
342
59
371
    -1
372
    -1
  0
DIMSTYLE
105
5F
330
A
100
AcDbSymbolTableRecord
100
AcDbDimStyleTableRecord
  2
AM_JIS$3
 70
     0
  4
"
 41
2.5
 42
1.0
 43
10.0
 44
1.0
 47
0.1
 48
0.1000000001
 73
     0
 77
     3
 78
     8
 79
     2
140
3.799999999999999
141
0.0
143
0.0393701
146
0.71
147
1.5
176
   256
177
   256
178
     2
271
     2
272
     2
275
     1
283
     0
284
     8
288
     1
289
     0
340
11
341
59
342
59
371
    -1
372
    -1
  0
DIMSTYLE
105
60
330
A
100
AcDbSymbolTableRecord
100
AcDbDimStyleTableRecord
  2
AM_JIS$4
 70
     0
  4
"
 41
2.5
 42
1.0
 43
10.0
 44
1.0
 47
0.1
 48
0.1000000001
 73
     0
 77
     3
 78
     8
 79
     2
140
3.799999999999999
141
0.0
143
0.0393701
146
0.71
147
1.5
176
   256
177
   256
178
     2
271
     2
272
     2
275
     1
283
     0
284
     8
288
     1
289
     0
340
11
341
59
342
59
371
    -1
372
    -1
  0
DIMSTYLE
105
61
330
A
100
AcDbSymbolTableRecord
100
AcDbDimStyleTableRecord
  2
AM_JIS$6
 70
     0
  4
"
 41
2.5
 42
1.0
 43
10.0
 44
1.0
 47
0.1
 48
0.1000000001
 73
     0
 74
     0
 78
     8
 79
     2
140
3.799999999999999
141
0.0
143
0.0393701
146
0.71
147
1.5
172
     1
176
   256
177
   256
178
     2
271
     2
272
     2
275
     1
283
     0
284
     8
340
11
341
59
342
59
371
    -1
372
    -1
  0
DIMSTYLE
105
62
330
A
100
AcDbSymbolTableRecord
100
AcDbDimStyleTableRecord
  2
AM_JIS$7
 70
     0
  4
"
 41
2.5
 42
1.0
 43
10.0
 44
1.0
 47
0.1
 48
0.1000000001
 73
     0
 74
     0
 77
     3
 78
     8
 79
     2
140
5.0
141
0.0
143
0.0393701
146
0.71
147
1.5
172
     1
176
   256
177
   256
178
     2
271
     2
272
     2
275
     1
283
     0
284
     8
340
11
341
59
342
59
371
    -1
372
    -1
  0
DIMSTYLE
105
63
330
A
100
AcDbSymbolTableRecord
100
AcDbDimStyleTableRecord
  2
AM_JIS$SF
 70
     0
  4
"
 41
2.5
 42
1.0
 43
10.0
 44
1.0
 47
0.1
 48
0.1
 73
     0
 74
     0
 75
     1
 76
     1
 77
     3
 78
     8
 79
     2
140
3.5
141
0.0
143
0.0393701
146
0.71
147
1.5
172
     1
176
   256
177
   256
178
     2
271
     2
272
     3
274
     4
283
     0
284
     8
340
11
341
59
342
59
343
59
344
59
371
    -1
372
    -1
  0
DIMSTYLE
105
68
330
A
100
AcDbSymbolTableRecord
100
AcDbDimStyleTableRecord
  2
AM_JIS$SH
 70
     0
  4
"
 41
2.5
 42
1.0
 43
10.0
 44
1.0
 47
0.1
 48
0.1
 73
     0
 74
     0
 75
     1
 76
     1
 77
     3
 78
     8
 79
     2
140
3.5
141
0.0
143
0.0393701
144
2.0
146
0.71
147
1.5
172
     1
173
     1
176
   256
177
   256
178
     2
271
     2
272
     3
274
     4
283
     0
284
     8
340
11
341
59
342
59
343
64
344
59
371
    -1
372
    -1
  0
DIMSTYLE
105
B34
330
A
100
AcDbSymbolTableRecord
100
AcDbDimStyleTableRecord
  2
AM_JIS$2
 70
     0
  4
"
 41
2.5
 42
1.0
 43
12.0
 44
1.0
 47
0.1
 48
0.1
 73
     0
 74
     0
 77
     3
 78
     8
140
3.2
141
0.0
143
0.0393701
146
0.71
147
1.5
172
     1
176
   256
177
   256
178
     2
271
     3
272
     3
283
     0
340
6B
341
59
342
59
  0
DIMSTYLE
105
3B48
102
{ACAD_REACTORS
330
9327
330
949C
330
93CA
330
935B
330
9579
330
9632
330
96D0
102
}
330
A
100
AcDbSymbolTableRecord
100
AcDbDimStyleTableRecord
  2
AM_JIS$0
 70
     0
  4
"
 41
2.5
 42
0.0
 43
10.0
 44
1.0
 47
0.1
 48
0.1000000001
 73
     0
 74
     0
 77
     3
 78
     1
140
3.799999999999998
141
0.0
143
0.0393701
146
0.71
147
1.5
172
     1
176
     3
177
     3
178
     2
271
     2
272
     2
275
     1
283
     0
284
     8
340
11
341
59
342
59
  0
DIMSTYLE
105
9B25
330
A
100
AcDbSymbolTableRecord
100
AcDbDimStyleTableRecord
  2
AM_ISO
 70
     0
  4
"
 41
2.5
 42
1.0
 43
10.0
 44
1.0
 47
0.1
 48
0.1
 73
     0
 74
     0
 77
     1
 78
     8
 79
     2
140
3.5
141
0.0
143
0.0393701
146
0.71
147
1.5
172
     1
176
   256
177
   256
178
     2
271
     2
272
     3
274
     4
283
     0
284
     8
340
11
371
    -1
372
    -1
  0
DIMSTYLE
105
9B26
330
A
100
AcDbSymbolTableRecord
100
AcDbDimStyleTableRecord
  2
AM_ISO$3
 70
     0
  4
"
 41
2.5
 42
1.0
 43
10.0
 44
1.0
 47
0.1
 48
0.1
 73
     0
 77
     1
 78
     8
 79
     2
140
3.5
141
0.0
143
0.0393701
146
0.71
147
1.5
176
   256
177
   256
178
     2
271
     2
272
     3
274
     4
283
     0
284
     8
288
     1
289
     0
340
11
371
    -1
372
    -1
  0
DIMSTYLE
105
9B27
330
A
100
AcDbSymbolTableRecord
100
AcDbDimStyleTableRecord
  2
AM_ISO$4
 70
     0
  4
"
 41
2.5
 42
1.0
 43
10.0
 44
1.0
 47
0.1
 48
0.1
 73
     0
 77
     1
 78
     8
 79
     2
140
3.5
141
0.0
143
0.0393701
146
0.71
147
1.5
176
   256
177
   256
178
     2
271
     2
272
     3
274
     4
283
     0
284
     8
288
     1
289
     0
340
11
371
    -1
372
    -1
  0
DIMSTYLE
105
9B28
330
A
100
AcDbSymbolTableRecord
100
AcDbDimStyleTableRecord
  2
AM_ISO$6
 70
     0
  4
"
 41
2.5
 42
1.0
 43
10.0
 44
1.0
 47
0.1
 48
0.1
 73
     0
 74
     0
 78
     8
 79
     2
140
3.5
141
0.0
143
0.0393701
146
0.71
147
1.5
172
     1
176
   256
177
   256
178
     2
271
     2
272
     3
274
     4
283
     0
284
     8
340
11
371
    -1
372
    -1
  0
DIMSTYLE
105
9B29
330
A
100
AcDbSymbolTableRecord
100
AcDbDimStyleTableRecord
  2
AM_ISO$7
 70
     0
  4
"
 41
2.5
 42
1.0
 43
10.0
 44
1.0
 47
0.1
 48
0.1
 73
     0
 74
     0
 77
     1
 78
     8
 79
     2
140
5.0
141
0.0
143
0.0393701
146
0.71
147
1.5
172
     1
176
   256
177
   256
178
     2
271
     2
272
     3
274
     4
283
     0
284
     8
340
11
371
    -1
372
    -1
  0
DIMSTYLE
105
9B2A
330
A
100
AcDbSymbolTableRecord
100
AcDbDimStyleTableRecord
  2
AM_ISO$SF
 70
     0
  4
"
 41
2.5
 42
1.0
 43
10.0
 44
1.0
 47
0.1
 48
0.1
 73
     0
 74
     0
 75
     1
 76
     1
 77
     1
 78
     8
 79
     2
140
3.5
141
0.0
143
0.0393701
146
0.71
147
1.5
172
     1
176
   256
177
   256
178
     2
271
     2
272
     3
274
     4
283
     0
284
     8
340
11
371
    -1
372
    -1
  0
DIMSTYLE
105
9B2B
330
A
100
AcDbSymbolTableRecord
100
AcDbDimStyleTableRecord
  2
AM_ISO$SH
 70
     0
  4
"
 41
2.5
 42
1.0
 43
10.0
 44
1.0
 47
0.1
 48
0.1
 73
     0
 74
     0
 75
     1
 76
     1
 77
     1
 78
     8
 79
     2
140
3.5
141
0.0
143
0.0393701
144
2.0
146
0.71
147
1.5
172
     1
173
     1
176
   256
177
   256
178
     2
271
     2
272
     3
274
     4
283
     0
284
     8
340
11
343
64
371
    -1
372
    -1
  0
ENDTAB
  0
TABLE
  2
BLOCK_RECORD
  5
1
330
0
100
AcDbSymbolTable
 70
    10
  0
BLOCK_RECORD
  5
1F
102
{ACAD_XDICTIONARY
360
74
102
}
330
1
100
AcDbSymbolTableRecord
100
AcDbBlockTableRecord
  2
*MODEL_SPACE
340
9A9D
  0
BLOCK_RECORD
  5
101
102
{ACAD_XDICTIONARY
360
9A52
102
}
330
1
100
AcDbSymbolTableRecord
100
AcDbBlockTableRecord
  2
*PAPER_SPACE
340
9A9E
  0
BLOCK_RECORD
  5
59
330
1
100
AcDbSymbolTableRecord
100
AcDbBlockTableRecord
  2
_Open30
340
0
  0
BLOCK_RECORD
  5
64
330
1
100
AcDbSymbolTableRecord
100
AcDbBlockTableRecord
  2
GENAXEH
340
0
  0
BLOCK_RECORD
  5
9328
330
1
100
AcDbSymbolTableRecord
100
AcDbBlockTableRecord
  2
*D2
340
0
  0
BLOCK_RECORD
  5
935C
330
1
100
AcDbSymbolTableRecord
100
AcDbBlockTableRecord
  2
*D3
340
0
  0
BLOCK_RECORD
  5
93CB
330
1
100
AcDbSymbolTableRecord
100
AcDbBlockTableRecord
  2
*D4
340
0
  0
BLOCK_RECORD
  5
949D
330
1
100
AcDbSymbolTableRecord
100
AcDbBlockTableRecord
  2
*D5
340
0
  0
BLOCK_RECORD
  5
957A
330
1
100
AcDbSymbolTableRecord
100
AcDbBlockTableRecord
  2
*D6
340
0
  0
BLOCK_RECORD
  5
9633
330
1
100
AcDbSymbolTableRecord
100
AcDbBlockTableRecord
  2
*D7
340
0
  0
BLOCK_RECORD
  5
96D1
330
1
100
AcDbSymbolTableRecord
100
AcDbBlockTableRecord
  2
*D8
340
0
  0
ENDTAB
  0
ENDSEC
  0
SECTION
  2
BLOCKS
  0
BLOCK
  5
20
330
1F
100
AcDbEntity
  8
0
100
AcDbBlockBegin
  2
*MODEL_SPACE
 70
     0
 10
0.0
 20
0.0
 30
0.0
  3
*MODEL_SPACE
  1

  0
ENDBLK
  5
21
330
1F
100
AcDbEntity
  8
0
100
AcDbBlockEnd
  0
BLOCK
  5
103
330
101
100
AcDbEntity
 67
     1
  8
0
100
AcDbBlockBegin
  2
*PAPER_SPACE
 70
     0
 10
0.0
 20
0.0
 30
0.0
  3
*PAPER_SPACE
  1

  0
ENDBLK
  5
104
330
101
100
AcDbEntity
 67
     1
  8
0
100
AcDbBlockEnd
  0
BLOCK
  5
9B4D
330
59
100
AcDbEntity
  8
0
100
AcDbBlockBegin
  2
_Open30
 70
     0
 10
0.0
 20
0.0
 30
0.0
  3
_Open30
  1

  0
LINE
  5
9B4E
330
59
100
AcDbEntity
  8
0
  6
ByBlock
 62
     0
370
    -2
100
AcDbLine
 10
-1.0
 20
0.26794919
 30
0.0
 11
0.0
 21
0.0
 31
0.0
  0
LINE
  5
9B4F
330
59
100
AcDbEntity
  8
0
  6
ByBlock
 62
     0
370
    -2
100
AcDbLine
 10
0.0
 20
0.0
 30
0.0
 11
-1.0
 21
-0.26794919
 31
0.0
  0
LINE
  5
9B50
330
59
100
AcDbEntity
  8
0
  6
ByBlock
 62
     0
370
    -2
100
AcDbLine
 10
0.0
 20
0.0
 30
0.0
 11
-1.0
 21
0.0
 31
0.0
  0
ENDBLK
  5
9B51
330
59
100
AcDbEntity
  8
0
100
AcDbBlockEnd
  0
BLOCK
  5
9B2D
330
64
100
AcDbEntity
  8
0
100
AcDbBlockBegin
  2
GENAXEH
 70
     0
 10
0.0
 20
0.0
 30
0.0
  3
GENAXEH
  1

  0
LINE
  5
9B2E
330
64
100
AcDbEntity
  8
0
100
AcDbLine
 10
-1.0
 20
0.0
 30
0.0
 11
1.0
 21
0.0
 31
0.0
  0
ENDBLK
  5
9B2F
330
64
100
AcDbEntity
  8
0
100
AcDbBlockEnd
  0
BLOCK
  5
9332
330
9328
100
AcDbEntity
  8
0
100
AcDbBlockBegin
  2
*D2
 70
     1
 10
0.0
 20
0.0
 30
0.0
  3
*D2
  1

  0
LINE
  5
9A54
330
9328
100
AcDbEntity
  8
AM_5
100
AcDbLine
 10
-0.0000000165559911
 20
-1.000000024451509
 30
0.0
 11
-0.0000000165558478
 21
-51.29244725876944
 31
0.0
  0
LINE
  5
9A55
330
9328
100
AcDbEntity
  8
AM_5
100
AcDbLine
 10
-150.0000000165559
 20
-15.6627778356839
 30
0.0
 11
-150.0000000165558
 21
-51.29244725876986
 31
0.0
  0
LINE
  5
9A56
330
9328
100
AcDbEntity
  8
AM_5
100
AcDbLine
 10
-2.50000001655585
 20
-50.29244725876946
 30
0.0
 11
-147.5000000165558
 21
-50.29244725876986
 31
0.0
  0
INSERT
  5
9A57
330
9328
100
AcDbEntity
  8
AM_5
100
AcDbBlockReference
  2
_Open30
 10
-0.0000000165558507
 20
-50.29244725876943
 30
0.0
 41
2.5
 42
2.5
 43
2.5
 50
0.0000000000001527
  0
INSERT
  5
9A58
330
9328
100
AcDbEntity
  8
AM_5
100
AcDbBlockReference
  2
_Open30
 10
-150.0000000165558
 20
-50.29244725876989
 30
0.0
 41
2.5
 42
2.5
 43
2.5
 50
180.0000000000001
  0
MTEXT
  5
9A59
330
9328
100
AcDbEntity
  8
AM_5
 62
     2
100
AcDbMText
 10
-75.00000001655585
 20
-47.19244725876965
 30
0.0
 40
3.2
 41
0.0
 71
     5
 72
     1
  1
150
  7
ASAMI
 73
     1
 44
1.0
1001
ACAD
1000
MTEXTBEGIN
1070
    73
1070
     1
1070
    44
1040
1.0
1070
    74
1070
     0
1000
MTEXTEND
  0
POINT
  5
9A5A
330
9328
100
AcDbEntity
  8
DEFPOINTS
 62
     0
100
AcDbPoint
 10
-0.0000000165559939
 20
-0.0000000244515093
 30
0.0
  0
POINT
  5
9A5B
330
9328
100
AcDbEntity
  8
DEFPOINTS
 62
     0
100
AcDbPoint
 10
-150.000000016556
 20
-14.66277783568346
 30
0.0
  0
POINT
  5
9A5C
330
9328
100
AcDbEntity
  8
DEFPOINTS
 62
     0
100
AcDbPoint
 10
-150.000000016556
 20
-50.29244725876943
 30
0.0
  0
ENDBLK
  5
9333
330
9328
100
AcDbEntity
  8
0
100
AcDbBlockEnd
  0
BLOCK
  5
9366
330
935C
100
AcDbEntity
  8
0
100
AcDbBlockBegin
  2
*D3
 70
     1
 10
0.0
 20
0.0
 30
0.0
  3
*D3
  1

  0
LINE
  5
9A5D
330
935C
100
AcDbEntity
  8
AM_5
100
AcDbLine
 10
-149.3703316034699
 20
16.29244773720076
 30
0.0
 11
-169.3872272678384
 21
16.2924477372007
 31
0.0
  0
LINE
  5
9A5E
330
935C
100
AcDbEntity
  8
AM_5
100
AcDbLine
 10
-149.3703316034701
 20
-16.2924462487699
 30
0.0
 11
-169.3872272678383
 21
-16.29244624876996
 31
0.0
  0
LINE
  5
9A5F
330
935C
100
AcDbEntity
  8
AM_5
100
AcDbLine
 10
-168.3872272678384
 20
13.7924477372007
 30
0.0
 11
-168.3872272678383
 21
-13.79244624876996
 31
0.0
  0
INSERT
  5
9A60
330
935C
100
AcDbEntity
  8
AM_5
100
AcDbBlockReference
  2
_Open30
 10
-168.3872272678384
 20
16.2924477372007
 30
0.0
 41
2.5
 42
2.5
 43
2.5
 50
90.00000000000019
  0
INSERT
  5
9A61
330
935C
100
AcDbEntity
  8
AM_5
100
AcDbBlockReference
  2
_Open30
 10
-168.3872272678383
 20
-16.29244624876996
 30
0.0
 41
2.5
 42
2.5
 43
2.5
 50
270.0000000000001
  0
MTEXT
  5
9A62
330
935C
100
AcDbEntity
  8
AM_5
 62
     2
100
AcDbMText
 10
-171.4872272678384
 20
0.0000007442153722
 30
0.0
 40
3.2
 41
0.0
 71
     5
 72
     1
  1
%%c32
  7
ASAMI
 11
-0.0000000000000028
 21
1.0
 31
0.0
 73
     1
 44
1.0
1001
ACAD
1000
MTEXTBEGIN
1070
    73
1070
     1
1070
    44
1040
1.0
1070
    74
1070
     0
1000
MTEXTEND
  0
POINT
  5
9A63
330
935C
100
AcDbEntity
  8
DEFPOINTS
 62
     0
100
AcDbPoint
 10
-148.3703316034699
 20
16.29244773720122
 30
0.0
  0
POINT
  5
9A64
330
935C
100
AcDbEntity
  8
DEFPOINTS
 62
     0
100
AcDbPoint
 10
-148.3703316034701
 20
-16.29244624876944
 30
0.0
  0
POINT
  5
9A65
330
935C
100
AcDbEntity
  8
DEFPOINTS
 62
     0
100
AcDbPoint
 10
-168.3872272678383
 20
-16.29244624876943
 30
0.0
  0
ENDBLK
  5
9367
330
935C
100
AcDbEntity
  8
0
100
AcDbBlockEnd
  0
BLOCK
  5
93D5
330
93CB
100
AcDbEntity
  8
0
100
AcDbBlockBegin
  2
*D4
 70
     1
 10
0.0
 20
0.0
 30
0.0
  3
*D4
  1

  0
LINE
  5
9A66
330
93CB
100
AcDbEntity
  8
AM_5
100
AcDbLine
 10
-17.50000001655596
 20
12.4937376089363
 30
0.0
 11
18.11293940995377
 21
12.49373760893637
 31
0.0
  0
LINE
  5
9A67
330
93CB
100
AcDbEntity
  8
AM_5
100
AcDbLine
 10
-17.50000001655598
 20
-12.49373612050488
 30
0.0
 11
18.11293940995382
 21
-12.49373612050481
 31
0.0
  0
LINE
  5
9A68
330
93CB
100
AcDbEntity
  8
AM_5
100
AcDbLine
 10
17.11293940995377
 20
9.993737608936369
 30
0.0
 11
17.11293940995381
 21
-9.99373612050482
 31
0.0
  0
INSERT
  5
9A69
330
93CB
100
AcDbEntity
  8
AM_5
100
AcDbBlockReference
  2
_Open30
 10
17.11293940995377
 20
12.49373760893637
 30
0.0
 41
2.5
 42
2.5
 43
2.5
 50
90.0000000000001
  0
INSERT
  5
9A6A
330
93CB
100
AcDbEntity
  8
AM_5
100
AcDbBlockReference
  2
_Open30
 10
17.11293940995382
 20
-12.49373612050482
 30
0.0
 41
2.5
 42
2.5
 43
2.5
 50
270.0000000000001
  0
MTEXT
  5
9A6B
330
93CB
100
AcDbEntity
  8
AM_5
 62
     2
100
AcDbMText
 10
14.01293940995379
 20
0.0000007442157691
 30
0.0
 40
3.2
 41
0.0
 71
     5
 72
     1
  1
%%c25
  7
ASAMI
 11
-0.000000000000002
 21
1.0
 31
0.0
 73
     1
 44
1.0
1001
ACAD
1000
MTEXTBEGIN
1070
    73
1070
     1
1070
    44
1040
1.0
1070
    74
1070
     0
1000
MTEXTEND
  0
POINT
  5
9A6C
330
93CB
100
AcDbEntity
  8
DEFPOINTS
 62
     0
100
AcDbPoint
 10
-18.50000001655593
 20
12.49373760893634
 30
0.0
  0
POINT
  5
9A6D
330
93CB
100
AcDbEntity
  8
DEFPOINTS
 62
     0
100
AcDbPoint
 10
-18.50000001655601
 20
-12.49373612050485
 30
0.0
  0
POINT
  5
9A6E
330
93CB
100
AcDbEntity
  8
DEFPOINTS
 62
     0
100
AcDbPoint
 10
17.11293940995379
 20
-12.49373612050485
 30
0.0
  0
ENDBLK
  5
93D6
330
93CB
100
AcDbEntity
  8
0
100
AcDbBlockEnd
  0
BLOCK
  5
94A7
330
949D
100
AcDbEntity
  8
0
100
AcDbBlockBegin
  2
*D5
 70
     1
 10
0.0
 20
0.0
 30
0.0
  3
*D5
  1

  0
LINE
  5
9A6F
330
949D
100
AcDbEntity
  8
AM_5
100
AcDbLine
 10
0.0000000054984992
 20
1.000000744215795
 30
0.0
 11
0.0000000054984937
 21
31.29244894070201
 31
0.0
  0
LINE
  5
9A70
330
949D
100
AcDbEntity
  8
AM_5
100
AcDbLine
 10
-18.50000001655596
 20
13.4937376089363
 30
0.0
 11
-18.50000001655596
 21
31.29244894070201
 31
0.0
  0
LINE
  5
9A71
330
949D
100
AcDbEntity
  8
AM_5
100
AcDbLine
 10
-2.499999994501505
 20
30.29244894070201
 30
0.0
 11
-16.00000001655596
 21
30.29244894070201
 31
0.0
  0
INSERT
  5
9A72
330
949D
100
AcDbEntity
  8
AM_5
100
AcDbBlockReference
  2
_Open30
 10
0.0000000054984939
 20
30.29244894070201
 30
0.0
 41
2.5
 42
2.5
 43
2.5
  0
INSERT
  5
9A73
330
949D
100
AcDbEntity
  8
AM_5
100
AcDbBlockReference
  2
_Open30
 10
-18.50000001655596
 20
30.29244894070201
 30
0.0
 41
2.5
 42
2.5
 43
2.5
 50
180.0
  0
MTEXT
  5
9A74
330
949D
100
AcDbEntity
  8
AM_5
 62
     2
100
AcDbMText
 10
-9.250000005528738
 20
33.39244894070201
 30
0.0
 40
3.2
 41
0.0
 71
     5
 72
     1
  1
18.5
  7
ASAMI
 73
     1
 44
1.0
1001
ACAD
1000
MTEXTBEGIN
1070
    73
1070
     1
1070
    44
1040
1.0
1070
    74
1070
     0
1000
MTEXTEND
  0
POINT
  5
9A75
330
949D
100
AcDbEntity
  8
DEFPOINTS
 62
     0
100
AcDbPoint
 10
0.0000000054984994
 20
0.0000007442157965
 30
0.0
  0
POINT
  5
9A76
330
949D
100
AcDbEntity
  8
DEFPOINTS
 62
     0
100
AcDbPoint
 10
-18.50000001655593
 20
12.49373760893634
 30
0.0
  0
POINT
  5
9A77
330
949D
100
AcDbEntity
  8
DEFPOINTS
 62
     0
100
AcDbPoint
 10
-18.5000000165559
 20
30.29244894070204
 30
0.0
  0
ENDBLK
  5
94A8
330
949D
100
AcDbEntity
  8
0
100
AcDbBlockEnd
  0
BLOCK
  5
9584
330
957A
100
AcDbEntity
  8
0
100
AcDbBlockBegin
  2
*D6
 70
     1
 10
0.0
 20
0.0
 30
0.0
  3
*D6
  1

  0
LINE
  5
9A78
330
957A
100
AcDbEntity
  8
AM_5
100
AcDbLine
 10
0.0000000054985796
 20
-0.9999992557842743
 30
0.0
 11
0.0000000054986389
 21
-31.29244725876944
 31
0.0
  0
LINE
  5
9A79
330
957A
100
AcDbEntity
  8
AM_5
100
AcDbLine
 10
-36.00000001655605
 20
-12.40767814738583
 30
0.0
 11
-36.00000001655601
 21
-31.29244725876951
 31
0.0
  0
LINE
  5
9A7A
330
957A
100
AcDbEntity
  8
AM_5
100
AcDbLine
 10
-2.499999994501362
 20
-30.29244725876944
 30
0.0
 11
-33.50000001655601
 21
-30.29244725876952
 31
0.0
  0
INSERT
  5
9A7B
330
957A
100
AcDbEntity
  8
AM_5
100
AcDbBlockReference
  2
_Open30
 10
0.000000005498637
 20
-30.29244725876944
 30
0.0
 41
2.5
 42
2.5
 43
2.5
 50
0.0000000000001018
  0
INSERT
  5
9A7C
330
957A
100
AcDbEntity
  8
AM_5
100
AcDbBlockReference
  2
_Open30
 10
-36.00000001655601
 20
-30.29244725876952
 30
0.0
 41
2.5
 42
2.5
 43
2.5
 50
180.0000000000001
  0
MTEXT
  5
9A7D
330
957A
100
AcDbEntity
  8
AM_5
 62
     2
100
AcDbMText
 10
-18.00000000552869
 20
-27.19244725876947
 30
0.0
 40
3.2
 41
0.0
 71
     5
 72
     1
  1
36
  7
ASAMI
 73
     1
 44
1.0
1001
ACAD
1000
MTEXTBEGIN
1070
    73
1070
     1
1070
    44
1040
1.0
1070
    74
1070
     0
1000
MTEXTEND
  0
POINT
  5
9A7E
330
957A
100
AcDbEntity
  8
DEFPOINTS
 62
     0
100
AcDbPoint
 10
0.0000000054985776
 20
0.0000007442157255
 30
0.0
  0
POINT
  5
9A7F
330
957A
100
AcDbEntity
  8
DEFPOINTS
 62
     0
100
AcDbPoint
 10
-36.00000001655608
 20
-11.40767814738576
 30
0.0
  0
POINT
  5
9A80
330
957A
100
AcDbEntity
  8
DEFPOINTS
 62
     0
100
AcDbPoint
 10
-36.00000001655608
 20
-30.29244725876944
 30
0.0
  0
ENDBLK
  5
9585
330
957A
100
AcDbEntity
  8
0
100
AcDbBlockEnd
  0
BLOCK
  5
963D
330
9633
100
AcDbEntity
  8
0
100
AcDbBlockBegin
  2
*D7
 70
     1
 10
0.0
 20
0.0
 30
0.0
  3
*D7
  1

  0
LINE
  5
9A81
330
9633
100
AcDbEntity
  8
AM_5
100
AcDbLine
 10
-0.0000000165559991
 20
-1.000000020469825
 30
0.0
 11
-0.0000000165559201
 21
-41.29244725876943
 31
0.0
  0
LINE
  5
9A82
330
9633
100
AcDbEntity
  8
AM_5
100
AcDbLine
 10
-70.00000001655606
 20
-17.29244624876964
 30
0.0
 11
-70.000000016556
 21
-41.29244725876957
 31
0.0
  0
LINE
  5
9A83
330
9633
100
AcDbEntity
  8
AM_5
100
AcDbLine
 10
-2.500000016555921
 20
-40.29244725876945
 30
0.0
 11
-67.500000016556
 21
-40.29244725876957
 31
0.0
  0
INSERT
  5
9A84
330
9633
100
AcDbEntity
  8
AM_5
100
AcDbBlockReference
  2
_Open30
 10
-0.000000016555922
 20
-40.29244725876943
 30
0.0
 41
2.5
 42
2.5
 43
2.5
 50
0.0000000000001018
  0
INSERT
  5
9A85
330
9633
100
AcDbEntity
  8
AM_5
100
AcDbBlockReference
  2
_Open30
 10
-70.000000016556
 20
-40.29244725876957
 30
0.0
 41
2.5
 42
2.5
 43
2.5
 50
180.0000000000001
  0
MTEXT
  5
9A86
330
9633
100
AcDbEntity
  8
AM_5
 62
     2
100
AcDbMText
 10
-35.00000001655596
 20
-37.19244725876951
 30
0.0
 40
3.2
 41
0.0
 71
     5
 72
     1
  1
70
  7
ASAMI
 73
     1
 44
1.0
1001
ACAD
1000
MTEXTBEGIN
1070
    73
1070
     1
1070
    44
1040
1.0
1070
    74
1070
     0
1000
MTEXTEND
  0
POINT
  5
9A87
330
9633
100
AcDbEntity
  8
DEFPOINTS
 62
     0
100
AcDbPoint
 10
-0.000000016556001
 20
-0.0000000204698267
 30
0.0
  0
POINT
  5
9A88
330
9633
100
AcDbEntity
  8
DEFPOINTS
 62
     0
100
AcDbPoint
 10
-70.00000001655608
 20
-16.2924462487695
 30
0.0
  0
POINT
  5
9A89
330
9633
100
AcDbEntity
  8
DEFPOINTS
 62
     0
100
AcDbPoint
 10
-70.00000001655608
 20
-40.29244725876943
 30
0.0
  0
ENDBLK
  5
963E
330
9633
100
AcDbEntity
  8
0
100
AcDbBlockEnd
  0
BLOCK
  5
96DB
330
96D1
100
AcDbEntity
  8
0
100
AcDbBlockBegin
  2
*D8
 70
     1
 10
0.0
 20
0.0
 30
0.0
  3
*D8
  1

  0
LINE
  5
9A8A
330
96D1
100
AcDbEntity
  8
AM_5
100
AcDbLine
 10
-70.00000001655606
 20
-17.29244624876964
 30
0.0
 11
-70.000000016556
 21
-41.29244725876957
 31
0.0
  0
LINE
  5
9A8B
330
96D1
100
AcDbEntity
  8
AM_5
100
AcDbLine
 10
-150.0000000165559
 20
-15.66277783568377
 30
0.0
 11
-150.0000000165559
 21
-41.29244725876975
 31
0.0
  0
LINE
  5
9A8C
330
96D1
100
AcDbEntity
  8
AM_5
100
AcDbLine
 10
-72.500000016556
 20
-40.29244725876959
 30
0.0
 11
-147.5000000165558
 21
-40.29244725876973
 31
0.0
  0
INSERT
  5
9A8D
330
96D1
100
AcDbEntity
  8
AM_5
100
AcDbBlockReference
  2
_Open30
 10
-70.000000016556
 20
-40.29244725876957
 30
0.0
 41
2.5
 42
2.5
 43
2.5
 50
0.0000000000001018
  0
INSERT
  5
9A8E
330
96D1
100
AcDbEntity
  8
AM_5
100
AcDbBlockReference
  2
_Open30
 10
-150.0000000165559
 20
-40.29244725876973
 30
0.0
 41
2.5
 42
2.5
 43
2.5
 50
180.0000000000001
  0
MTEXT
  5
9A8F
330
96D1
100
AcDbEntity
  8
AM_5
 62
     2
100
AcDbMText
 10
-110.0000000165559
 20
-37.19244725876965
 30
0.0
 40
3.2
 41
0.0
 71
     5
 72
     1
  1
80
  7
ASAMI
 73
     1
 44
1.0
1001
ACAD
1000
MTEXTBEGIN
1070
    73
1070
     1
1070
    44
1040
1.0
1070
    74
1070
     0
1000
MTEXTEND
  0
POINT
  5
9A90
330
96D1
100
AcDbEntity
  8
DEFPOINTS
 62
     0
100
AcDbPoint
 10
-70.00000001655608
 20
-16.2924462487695
 30
0.0
  0
POINT
  5
9A91
330
96D1
100
AcDbEntity
  8
DEFPOINTS
 62
     0
100
AcDbPoint
 10
-150.000000016556
 20
-14.66277783568346
 30
0.0
  0
POINT
  5
9A92
330
96D1
100
AcDbEntity
  8
DEFPOINTS
 62
     0
100
AcDbPoint
 10
-150.000000016556
 20
-40.29244725876943
 30
0.0
  0
ENDBLK
  5
96DC
330
96D1
100
AcDbEntity
  8
0
100
AcDbBlockEnd
  0
ENDSEC
  0
SECTION
  2
ENTITIES
  0
TEXT
  5
388D
330
1F
100
AcDbEntity
  8
AM_6
100
AcDbText
 10
-96.07142858798439
 20
-72.79244725876964
 30
0.0
 40
5.0
  1
WBMF1250S
 51
359.9999999999998
 72
     4
 11
-75.00000001655582
 21
-70.29244725876964
 31
0.0
100
AcDbText
  0
LINE
  5
92DF
330
1F
100
AcDbEntity
  8
AM_0
  6
Continuous
100
AcDbLine
 10
-3.11349192758
 20
-7.940460818440807
 30
0.0
 11
-2.912818470396765
 21
-7.7069945215821
 31
0.0
  0
LINE
  5
92E0
330
1F
100
AcDbEntity
  8
AM_0
  6
Continuous
100
AcDbLine
 10
-5.743380410942601
 20
-8.692610155408065
 30
0.0
 11
-5.590011664719714
 21
-8.875388549680824
 31
0.0
  0
LINE
  5
92E1
330
1F
100
AcDbEntity
  8
AM_0
  6
Continuous
100
AcDbLine
 10
-5.588835695992844
 20
-8.471139521804404
 30
0.0
 11
-5.743380410942601
 21
-8.692610155408065
 31
0.0
  0
LINE
  5
92E2
330
1F
100
AcDbEntity
  8
AM_0
  6
Continuous
100
AcDbLine
 10
-5.743380410942601
 20
-8.692610155408065
 30
0.0
 11
-5.954728848098932
 21
-8.440735124155184
 31
0.0
  0
LINE
  5
92E3
330
1F
100
AcDbEntity
  8
AM_0
  6
Continuous
100
AcDbLine
 10
-13.03734729918896
 20
-12.44919531898493
 30
0.0
 11
-13.03734729918897
 21
-11.71317969930718
 31
0.0
  0
LINE
  5
92E4
330
1F
100
AcDbEntity
  8
AM_0
  6
Continuous
100
AcDbLine
 10
-15.90761969589009
 20
-11.76466157634395
 30
0.0
 11
-16.53474608714435
 21
-11.01727999728598
 31
0.0
  0
LINE
  5
92E5
330
1F
100
AcDbEntity
  8
AM_0
  6
Continuous
100
AcDbLine
 10
-16.19436571997887
 20
-11.01727999728598
 30
0.0
 11
-15.58365856392008
 21
-11.74509251803952
 31
0.0
  0
LINE
  5
92E6
330
1F
100
AcDbEntity
  8
AM_0
  6
Continuous
100
AcDbLine
 10
-13.03734729918897
 20
-11.71317969930718
 30
0.0
 11
-15.58365856392008
 21
-11.74509251803952
 31
0.0
  0
LINE
  5
92E7
330
1F
100
AcDbEntity
  8
AM_0
  6
Continuous
100
AcDbLine
 10
-5.954728848098932
 20
-8.440735124155184
 30
0.0
 11
-6.263330681209234
 21
-8.072958075363603
 31
0.0
  0
LINE
  5
92E8
330
1F
100
AcDbEntity
  8
AM_0
  6
Continuous
100
AcDbLine
 10
-5.756038371440728
 20
-9.08317518355351
 30
0.0
 11
-6.157303150519171
 21
-8.604967891887016
 31
0.0
  0
LINE
  5
92E9
330
1F
100
AcDbEntity
  8
AM_0
  6
Continuous
100
AcDbLine
 10
-22.83586161381061
 20
-11.73361183000302
 30
0.0
 11
-23.43693547394592
 21
-11.01727999728596
 31
0.0
  0
LINE
  5
92EA
330
1F
100
AcDbEntity
  8
AM_0
  6
Continuous
100
AcDbLine
 10
-22.49548124664514
 20
-11.73361183000302
 30
0.0
 11
-22.83586161381061
 21
-11.73361183000302
 31
0.0
  0
LINE
  5
92EB
330
1F
100
AcDbEntity
  8
AM_0
  6
Continuous
100
AcDbLine
 10
-23.09655510678044
 20
-11.01727999728596
 30
0.0
 11
-22.49548124664514
 21
-11.73361183000302
 31
0.0
  0
LINE
  5
92EC
330
1F
100
AcDbEntity
  8
AM_0
  6
Continuous
100
AcDbLine
 10
-26.87385690327469
 20
-11.40767814738582
 30
0.0
 11
-26.87385690327471
 21
-11.01727999728593
 31
0.0
  0
LINE
  5
92ED
330
1F
100
AcDbEntity
  8
AM_0
  6
Continuous
100
AcDbLine
 10
-24.5792837776497
 20
-11.733611830003
 30
0.0
 11
-25.29561561036678
 21
-11.01727999728593
 31
0.0
  0
LINE
  5
92EE
330
1F
100
AcDbEntity
  8
AM_0
  6
Continuous
100
AcDbLine
 10
-24.57928377764968
 20
-11.73361183000301
 30
0.0
 11
-22.83586161381061
 21
-11.73361183000302
 31
0.0
  0
LINE
  5
92EF
330
1F
100
AcDbEntity
  8
AM_0
  6
Continuous
100
AcDbLine
 10
-36.00000001655594
 20
-11.40767814738582
 30
0.0
 11
-26.87385690327469
 21
-11.40767814738582
 31
0.0
  0
LINE
  5
92F1
330
1F
100
AcDbEntity
  8
AM_0
  6
Continuous
100
AcDbLine
 10
-26.87385690327471
 20
-11.01727999728593
 30
0.0
 11
-13.03734729918898
 21
-11.01727999728599
 31
0.0
  0
LINE
  5
92F2
330
1F
100
AcDbEntity
  8
AM_0
  6
Continuous
100
AcDbLine
 10
-20.85975568200145
 20
-11.733611830003
 30
0.0
 11
-22.49548124664514
 21
-11.73361183000302
 31
0.0
  0
LINE
  5
92F3
330
1F
100
AcDbEntity
  8
AM_0
  6
Continuous
100
AcDbLine
 10
-150.0000000165559
 20
-14.66277783568347
 30
0.0
 11
-148.3703316034699
 21
-16.29244624876936
 31
0.0
  0
LINE
  5
92F4
330
1F
100
AcDbEntity
  8
AM_0
  6
Continuous
100
AcDbLine
 10
-148.3703316034699
 20
-16.29244624876938
 30
0.0
 11
-70.00000001655604
 21
-16.29244624876947
 31
0.0
  0
ELLIPSE
  5
92F5
330
1F
100
AcDbEntity
  8
AM_0
  6
Continuous
100
AcDbEllipse
 10
-20.85975568200145
 20
-13.03734656047175
 30
0.0
 11
-0.9218799056676147
 21
-0.9218799056676093
 31
0.0
210
0.0
220
0.0
230
-1.0
 40
0.9999999999999438
 41
2.356194490192312
 42
2.684380006156657
  0
ELLIPSE
  5
92F6
330
1F
100
AcDbEntity
  8
AM_0
  6
Continuous
100
AcDbEllipse
 10
-67.4510825860986
 20
-18.32377577629202
 30
0.0
 11
2.304699296303617
 21
-2.30469929630363
 31
0.0
210
0.0
220
0.0
230
-1.0
 40
0.9999999999999955
 41
3.029065656858587
 42
3.820255073316028
  0
SPLINE
  5
92F7
330
1F
100
AcDbEntity
  8
AM_0
  6
Continuous
100
AcDbSpline
210
0.0
220
0.0
230
1.0
 70
     8
 71
     3
 72
    11
 73
     7
 74
     0
 42
0.0000000001
 43
0.0000000001
 40
0.0
 40
0.0
 40
0.0
 40
0.0
 40
0.0537292960897698
 40
0.1057760617122575
 40
0.1538604519506046
 40
0.1946024943610741
 40
0.1946024943610741
 40
0.1946024943610741
 40
0.1946024943610741
 10
-15.90761969589009
 20
-11.76466157634391
 30
0.0
 10
-15.87773416169431
 20
-11.76417467844322
 30
0.0
 10
-15.81889895744903
 20
-11.76321612982754
 30
0.0
 10
-15.73339928954625
 20
-11.75932575203506
 30
0.0
 10
-15.65516879558475
 20
-11.75420618211067
 30
0.0
 10
-15.60614453429165
 20
-11.74795825592779
 30
0.0
 10
-15.58365856392017
 20
-11.74509251803957
 30
0.0
  0
SPLINE
  5
92F8
330
1F
100
AcDbEntity
  8
AM_0
  6
Continuous
100
AcDbSpline
210
0.0
220
0.0
230
1.0
 70
     8
 71
     3
 72
    11
 73
     7
 74
     0
 42
0.0000000001
 43
0.0000000001
 40
0.0
 40
0.0
 40
0.0
 40
0.0
 40
0.6789507747522982
 40
1.357900518160988
 40
2.03685006816823
 40
2.715801051898826
 40
2.715801051898826
 40
2.715801051898826
 40
2.715801051898826
 10
-15.90761969589009
 20
-11.76466157634391
 30
0.0
 10
-16.28527251993281
 20
-11.76859476432674
 30
0.0
 10
-17.04057759435392
 20
-11.77646113431779
 30
0.0
 10
-18.17355073234386
 20
-11.78663686186687
 30
0.0
 10
-19.30653320878954
 20
-11.79572807205748
 30
0.0
 10
-20.0618628579401
 20
-11.80070499313615
 30
0.0
 10
-20.43952808126834
 20
-11.80319345630289
 30
0.0
  0
SPLINE
  5
92F9
330
1F
100
AcDbEntity
  8
AM_0
  6
Continuous
100
AcDbSpline
210
0.0
220
0.0
230
1.0
 70
     8
 71
     3
 72
    11
 73
     7
 74
     0
 42
0.0000000001
 43
0.0000000001
 40
0.0
 40
0.0
 40
0.0
 40
0.0
 40
0.1206221672321808
 40
0.2544733739239038
 40
0.4133149856315235
 40
0.637748178741493
 40
0.637748178741493
 40
0.637748178741493
 40
0.637748178741493
 10
-19.67178477318991
 20
-12.50027173452045
 30
0.0
 10
-19.70219435572312
 20
-12.4402804828278
 30
0.0
 10
-19.76634864215665
 20
-12.31371853675725
 30
0.0
 10
-19.91103618454539
 20
-12.13346896223148
 30
0.0
 10
-20.12701072544773
 20
-11.93872326116805
 30
0.0
 10
-20.32411201251774
 20
-11.85324609173173
 30
0.0
 10
-20.43952808126834
 20
-11.80319345630289
 30
0.0
  0
SPLINE
  5
92FA
330
1F
100
AcDbEntity
  8
AM_0
  6
Continuous
100
AcDbSpline
210
0.0
220
0.0
230
1.0
 70
     8
 71
     3
 72
    11
 73
     7
 74
     0
 42
0.0000000001
 43
0.0000000001
 40
0.0
 40
0.0
 40
0.0
 40
0.0
 40
0.993806637775862
 40
1.987705416071293
 40
2.981687893707441
 40
3.975742436715903
 40
3.975742436715903
 40
3.975742436715903
 40
3.975742436715903
 10
-13.03734729918896
 20
-12.44919531898493
 30
0.0
 10
-13.59013503684556
 20
-12.45469766033023
 30
0.0
 10
-14.69576176372765
 20
-12.46570285316894
 30
0.0
 10
-16.35429991609781
 20
-12.47940792512994
 30
0.0
 10
-18.01299029493711
 20
-12.49125533913659
 30
0.0
 10
-19.11883991826916
 20
-12.49726619676227
 30
0.0
 10
-19.67178477318991
 20
-12.50027173452045
 30
0.0
  0
SPLINE
  5
92FB
330
1F
100
AcDbEntity
  8
AM_0
  6
Continuous
100
AcDbSpline
210
0.0
220
0.0
230
1.0
 70
     8
 71
     3
 72
    11
 73
     7
 74
     0
 42
0.0000000001
 43
0.0000000001
 40
0.0
 40
0.0
 40
0.0
 40
0.0
 40
0.1324103372370501
 40
0.264661455594825
 40
0.3967533709568403
 40
0.5286945963051126
 40
0.5286945963051126
 40
0.5286945963051126
 40
0.5286945963051126
 10
-2.912815862927274
 20
-7.706991914112659
 30
0.0
 10
-2.865083329613859
 20
-7.650894487795807
 30
0.0
 10
-2.769675659717655
 20
-7.538767090389083
 30
0.0
 10
-2.630479859836988
 20
-7.367481664666155
 30
0.0
 10
-2.494050698590632
 20
-7.194316359708293
 30
0.0
 10
-2.405803463841172
 20
-7.076907569512981
 30
0.0
 10
-2.361705028867759
 20
-7.018236678414423
 30
0.0
  0
SPLINE
  5
92FC
330
1F
100
AcDbEntity
  8
AM_0
  6
Continuous
100
AcDbSpline
210
0.0
220
0.0
230
1.0
 70
     8
 71
     3
 72
    11
 73
     7
 74
     0
 42
0.0000000001
 43
0.0000000001
 40
0.0
 40
0.0
 40
0.0
 40
0.0
 40
0.016769136780533
 40
0.0518695620764818
 40
0.1030756338621971
 40
0.1634146865148642
 40
0.1634146865148642
 40
0.1634146865148642
 40
0.1634146865148642
 10
-5.590011664719714
 20
-8.875388549680867
 30
0.0
 10
-5.589973330467824
 20
-8.884915936870372
 30
0.0
 10
-5.589854756632835
 20
-8.914385635145295
 30
0.0
 10
-5.63072236120308
 20
-8.960150289633563
 30
0.0
 10
-5.682726818383917
 20
-9.020803339603576
 30
0.0
 10
-5.7303027293659
 20
-9.061279869861269
 30
0.0
 10
-5.756038371440728
 20
-9.08317518355351
 30
0.0
  0
SPLINE
  5
92FD
330
1F
100
AcDbEntity
  8
AM_0
  6
Continuous
100
AcDbSpline
210
0.0
220
0.0
230
1.0
 70
     8
 71
     3
 72
    11
 73
     7
 74
     0
 42
0.0000000001
 43
0.0000000001
 40
0.0
 40
0.0
 40
0.0
 40
0.0
 40
1.182223476891235
 40
2.364363933741789
 40
3.546443885288575
 40
4.728738046649961
 40
4.728738046649961
 40
4.728738046649961
 40
4.728738046649961
 10
-5.756038371440728
 20
-9.08317518355351
 30
0.0
 10
-6.284091374020959
 20
-9.478108151782706
 30
0.0
 10
-7.340160297375292
 20
-10.26794635460888
 30
0.0
 10
-9.14840141487072
 20
-11.08657028000299
 30
0.0
 10
-11.06030686062608
 20
-11.62666027984849
 30
0.0
 10
-12.3782940169167
 20
-11.6843381509694
 30
0.0
 10
-13.03734729918897
 20
-11.71317969930718
 30
0.0
  0
SPLINE
  5
92FE
330
1F
100
AcDbEntity
  8
AM_0
  6
Continuous
100
AcDbSpline
210
0.0
220
0.0
230
1.0
 70
     8
 71
     3
 72
    11
 73
     7
 74
     0
 42
0.0000000001
 43
0.0000000001
 40
0.0
 40
0.0
 40
0.0
 40
0.0
 40
1.698361717055916
 40
3.390187935138208
 40
5.066181443365963
 40
6.719914833785343
 40
6.719914833785343
 40
6.719914833785343
 40
6.719914833785343
 10
-13.03734729918896
 20
-12.44919531898493
 30
0.0
 10
-12.09086569882692
 20
-12.38555489793285
 30
0.0
 10
-10.20154467247923
 20
-12.25851895177884
 30
0.0
 10
-7.514576761963613
 20
-11.3250394538729
 30
0.0
 10
-5.061211753017203
 20
-9.93025515204542
 30
0.0
 10
-3.759832715858098
 20
-8.600764667742064
 30
0.0
 10
-3.113493231314699
 20
-7.94046342591029
 30
0.0
  0
ELLIPSE
  5
92FF
330
1F
100
AcDbEntity
  8
AM_0
  6
Continuous
100
AcDbEllipse
 10
-13.03734729918898
 20
0.0000007442156868
 30
0.0
 11
7.790393922551726
 21
-7.790393922551769
 31
0.0
210
0.0
220
0.0
230
-1.0
 40
0.9999999999999944
 41
0.0872664138685283
 42
0.7853981633974481
  0
LINE
  5
9300
330
1F
100
AcDbEntity
  8
AM_0
  6
Continuous
100
AcDbLine
 10
-0.9038271337462417
 20
4.465228313069356
 30
0.0
 11
-0.9927692207935201
 21
4.672159696958797
 31
0.0
  0
LINE
  5
9301
330
1F
100
AcDbEntity
  8
AM_0
  6
Continuous
100
AcDbLine
 10
-10.18330900735157
 20
-3.172036700669285
 30
0.0
 11
-9.942137638235784
 21
-2.969669692071168
 31
0.0
  0
LINE
  5
9302
330
1F
100
AcDbEntity
  8
AM_0
  6
Continuous
100
AcDbLine
 10
-10.18330900735157
 20
-3.172036700669285
 30
0.0
 11
-10.18330900735157
 21
-3.401308882900057
 31
0.0
  0
LINE
  5
9303
330
1F
100
AcDbEntity
  8
AM_0
  6
Continuous
100
AcDbLine
 10
-10.37569201538364
 20
-3.172036700669284
 30
0.0
 11
-10.18330900735157
 21
-3.172036700669285
 31
0.0
  0
LINE
  5
9304
330
1F
100
AcDbEntity
  8
AM_0
  6
Continuous
100
AcDbLine
 10
-9.273312595362234
 20
-3.911203447190537
 30
0.0
 11
-9.415076798749169
 21
-3.911203447190536
 31
0.0
  0
LINE
  5
9305
330
1F
100
AcDbEntity
  8
AM_0
  6
Continuous
100
AcDbLine
 10
-9.273312595362234
 20
-3.911203447190537
 30
0.0
 11
-10.06537446736806
 21
-3.541859309252961
 31
0.0
  0
LINE
  5
9306
330
1F
100
AcDbEntity
  8
AM_0
  6
Continuous
100
AcDbLine
 10
-9.942137638235784
 20
-2.969669692071168
 30
0.0
 11
-9.032139922511731
 21
-3.394007968409418
 31
0.0
  0
LINE
  5
9307
330
1F
100
AcDbEntity
  8
AM_0
  6
Continuous
100
AcDbLine
 10
-9.814082205539678
 20
-3.841336302984719
 30
0.0
 11
-9.415076798749169
 21
-3.911203447190536
 31
0.0
  0
LINE
  5
9308
330
1F
100
AcDbEntity
  8
AM_0
  6
Continuous
100
AcDbLine
 10
-15.50662087869677
 20
3.172038189100629
 30
0.0
 11
-15.26544820584622
 21
3.37440650143345
 31
0.0
  0
LINE
  5
9309
330
1F
100
AcDbEntity
  8
AM_0
  6
Continuous
100
AcDbLine
 10
-15.06757647459884
 20
3.798744777771696
 30
0.0
 11
-15.26544820584622
 21
3.37440650143345
 31
0.0
  0
LINE
  5
930A
330
1F
100
AcDbEntity
  8
AM_0
  6
Continuous
100
AcDbLine
 10
-15.50662087869677
 20
3.172038189100629
 30
0.0
 11
-15.69900258299415
 21
3.172038189100629
 31
0.0
  0
LINE
  5
930B
330
1F
100
AcDbEntity
  8
AM_0
  6
Continuous
100
AcDbLine
 10
-15.50662087869677
 20
3.172038189100629
 30
0.0
 11
-15.50662087869677
 21
3.486866659283688
 31
0.0
  0
LINE
  5
930C
330
1F
100
AcDbEntity
  8
AM_0
  6
Continuous
100
AcDbLine
 10
-15.30874914744933
 20
3.911204935621934
 30
0.0
 11
-15.97885576156291
 21
3.911204935621936
 31
0.0
  0
LINE
  5
930D
330
1F
100
AcDbEntity
  8
AM_0
  6
Continuous
100
AcDbLine
 10
-15.96317444022483
 20
3.486866659283688
 30
0.0
 11
-15.50662087869677
 21
3.486866659283688
 31
0.0
  0
LINE
  5
930E
330
1F
100
AcDbEntity
  8
AM_0
  6
Continuous
100
AcDbLine
 10
-15.50662087869677
 20
3.486866659283688
 30
0.0
 11
-15.30874914744933
 21
3.911204935621934
 31
0.0
  0
LINE
  5
930F
330
1F
100
AcDbEntity
  8
AM_0
  6
Continuous
100
AcDbLine
 10
-15.97885576156291
 20
3.911204935621936
 30
0.0
 11
-16.26061239283814
 21
3.841337791416064
 31
0.0
  0
LINE
  5
9310
330
1F
100
AcDbEntity
  8
AM_0
  6
Continuous
100
AcDbLine
 10
-10.18330900735157
 20
-3.172036700669285
 30
0.0
 11
-15.50662087869677
 21
3.172038189100629
 31
0.0
  0
LINE
  5
9311
330
1F
100
AcDbEntity
  8
AM_0
  6
Continuous
100
AcDbLine
 10
-15.26544820584622
 20
3.37440650143345
 30
0.0
 11
-9.942137638235784
 21
-2.969669692071168
 31
0.0
  0
LINE
  5
9312
330
1F
100
AcDbEntity
  8
AM_0
  6
Continuous
100
AcDbLine
 10
-15.06757647459884
 20
3.798744777771696
 30
0.0
 11
-9.032139922511731
 21
-3.394007968409418
 31
0.0
  0
LINE
  5
9313
330
1F
100
AcDbEntity
  8
AM_0
  6
Continuous
100
AcDbLine
 10
-2.912818470396791
 20
7.706996010013427
 30
0.0
 11
-3.113491927580026
 21
7.940462306872137
 31
0.0
  0
LINE
  5
9314
330
1F
100
AcDbEntity
  8
AM_0
  6
Continuous
100
AcDbLine
 10
-13.03734729918898
 20
12.32380620850927
 30
0.0
 11
-13.03734729918898
 21
12.44919680741625
 31
0.0
  0
LINE
  5
9315
330
1F
100
AcDbEntity
  8
AM_0
  6
Continuous
100
AcDbLine
 10
-20.84700906754168
 20
11.73367589770154
 30
0.0
 11
-20.8597556820015
 21
11.73361331843449
 31
0.0
  0
LINE
  5
9316
330
1F
100
AcDbEntity
  8
AM_0
  6
Continuous
100
AcDbLine
 10
-22.28278996271654
 20
11.01829057639868
 30
0.0
 11
-22.86771315701072
 21
11.71537406955515
 31
0.0
  0
LINE
  5
9317
330
1F
100
AcDbEntity
  8
AM_0
  6
Continuous
100
AcDbLine
 10
-22.62232550977668
 20
11.0172814857173
 30
0.0
 11
-23.22339806617719
 21
11.73361331843447
 31
0.0
  0
LINE
  5
9318
330
1F
100
AcDbEntity
  8
AM_0
  6
Continuous
100
AcDbLine
 10
-23.22339806617719
 20
11.73361331843447
 30
0.0
 11
-22.8830176990117
 21
11.73361331843447
 31
0.0
  0
LINE
  5
9319
330
1F
100
AcDbEntity
  8
AM_0
  6
Continuous
100
AcDbLine
 10
-22.86771315701072
 20
11.71537406955515
 30
0.0
 11
-22.8830176990117
 21
11.73361331843447
 31
0.0
  0
LINE
  5
931A
330
1F
100
AcDbEntity
  8
AM_0
  6
Continuous
100
AcDbLine
 10
-21.88019928541722
 20
10.53850055076944
 30
0.0
 11
-22.28278996271654
 21
11.01829057639868
 31
0.0
  0
LINE
  5
931B
330
1F
100
AcDbEntity
  8
AM_0
  6
Continuous
100
AcDbLine
 10
-26.87385690327474
 20
11.01728148571732
 30
0.0
 11
-26.87385690327475
 21
11.4076796358173
 31
0.0
  0
LINE
  5
931C
330
1F
100
AcDbEntity
  8
AM_0
  6
Continuous
100
AcDbLine
 10
-24.57928377764974
 20
11.73361331843448
 30
0.0
 11
-25.29561561036682
 21
11.01728148571732
 31
0.0
  0
LINE
  5
931D
330
1F
100
AcDbEntity
  8
AM_0
  6
Continuous
100
AcDbLine
 10
-22.2819438388764
 20
11.01728148571733
 30
0.0
 11
-26.87385690327475
 21
11.01728148571732
 31
0.0
  0
LINE
  5
931E
330
1F
100
AcDbEntity
  8
AM_0
  6
Continuous
100
AcDbLine
 10
-24.57928377764976
 20
11.73361331843448
 30
0.0
 11
-23.22339806617719
 21
11.73361331843447
 31
0.0
  0
LINE
  5
931F
330
1F
100
AcDbEntity
  8
AM_0
  6
Continuous
100
AcDbLine
 10
-26.87385690327475
 20
11.4076796358173
 30
0.0
 11
-36.000000016556
 21
11.40767963581729
 31
0.0
  0
LINE
  5
9321
330
1F
100
AcDbEntity
  8
AM_0
  6
Continuous
100
AcDbLine
 10
-21.88019928541722
 20
10.53850055076944
 30
0.0
 11
-13.03734729918898
 21
0.0000007442156868
 31
0.0
  0
LINE
  5
9322
330
1F
100
AcDbEntity
  8
AM_0
  6
Continuous
100
AcDbLine
 10
-22.36375580068283
 20
11.52043313398189
 30
0.0
 11
-15.97885576156291
 21
3.911204935621936
 31
0.0
  0
LINE
  5
9323
330
1F
100
AcDbEntity
  8
AM_0
  6
Continuous
100
AcDbLine
 10
-22.8830176990117
 20
11.73361331843447
 30
0.0
 11
-20.8597556820015
 21
11.73361331843449
 31
0.0
  0
LINE
  5
9324
330
1F
100
AcDbEntity
  8
AM_0
  6
Continuous
100
AcDbLine
 10
-148.37033160347
 20
16.29244773720128
 30
0.0
 11
-150.0000000165559
 21
14.66277932411532
 31
0.0
  0
LINE
  5
9325
330
1F
100
AcDbEntity
  8
AM_0
  6
Continuous
100
AcDbLine
 10
-70.00000001655592
 20
16.29244773720113
 30
0.0
 11
-148.37033160347
 21
16.29244773720125
 31
0.0
  0
LINE
  5
9326
330
1F
100
AcDbEntity
  8
AM_7
100
AcDbLine
 10
-154.3872262678384
 20
0.000000744215938
 30
0.0
 11
3.112938409953791
 21
0.0000007442157113
 31
0.0
1001
GENIUS_GENOREF_13
1005
0
  0
DIMENSION
  5
9327
330
1F
100
AcDbEntity
  8
AM_5
100
AcDbDimension
  2
*D2
 10
-150.000000016556
 20
-50.29244725876943
 30
0.0
 11
-75.00000001655599
 21
-47.19244725876943
 31
0.0
 70
    32
  1
<>
 71
     5
 42
-1.0
 51
359.9999999999998
  3
AM_JIS$0
100
AcDbAlignedDimension
 13
-0.0000000165559939
 23
-0.0000000244515093
 33
0.0
 14
-150.000000016556
 24
-14.66277783568346
 34
0.0
100
AcDbRotatedDimension
1001
GENIUS_GENDTOL_13
1000

1000
h7
1000

1040
0.0
1001
ACAD
1000
DSTYLE
1002
{
1070
   287
1070
     3
1070
    40
1040
1.0
1070
    42
1040
1.0
1070
    43
1040
12.0
1070
    48
1040
0.1
1070
    78
1070
     8
1070
   140
1040
3.2
1070
   176
1070
   256
1070
   177
1070
   256
1070
   271
1070
     0
1070
   272
1070
     3
1070
   275
1070
     0
1070
   284
1070
     0
1070
   289
1070
     3
1070
   340
1005
6B
1070
   371
1070
    -1
1070
   372
1070
    -1
1002
}
  0
ELLIPSE
  5
9334
330
1F
100
AcDbEntity
  8
AM_0
  6
Continuous
100
AcDbEllipse
 10
-67.45108258609859
 20
18.32377726472351
 30
0.0
 11
2.304699515845166
 21
-2.30469951584518
 31
0.0
210
0.0
220
0.0
230
-1.0
 40
0.9999999999999985
 41
0.8921339070686606
 42
1.68332332352609
  0
ELLIPSE
  5
9335
330
1F
100
AcDbEntity
  8
AM_0
  6
Continuous
100
AcDbEllipse
 10
-21.62895917297799
 20
0.0000007442157541
 30
0.0
 11
3.13439087386176
 21
-3.134390873861778
 31
0.0
210
0.0
220
0.0
230
-1.0
 40
0.9999999999999943
 41
2.356194490192341
 42
8.639379797371926
  0
ELLIPSE
  5
9336
330
1F
100
AcDbEntity
  8
AM_0
  6
Continuous
100
AcDbEllipse
 10
-22.07321981973244
 20
0.0000007442157554
 30
0.0
 11
6.156091986453112
 21
-0.0000000000000823
 31
0.0
210
0.0
220
0.0
230
1.0
 40
0.8055036243983394
 41
0.0000000000000158
 42
6.283185307179602
  0
ELLIPSE
  5
9337
330
1F
100
AcDbEntity
  8
AM_0
  6
Continuous
100
AcDbEllipse
 10
-9.321785452641073
 20
-3.573772127985385
 30
0.0
 11
0.3497645534354846
 21
-0.1630977565382169
 31
0.0
210
0.0
220
0.0
230
1.0
 40
0.8445575025421325
 41
-1.066316200650296
 42
1.066315916855387
  0
ELLIPSE
  5
9338
330
1F
100
AcDbEntity
  8
AM_0
  6
Continuous
100
AcDbEllipse
 10
-10.18330900735157
 20
-3.172036700669285
 30
0.0
 11
-0.1377455304656681
 21
-0.2953962327137316
 31
0.0
210
0.0
220
0.0
230
1.0
 40
0.8445559999999906
 41
0.7128955233668158
 42
2.637112540252466
  0
SPLINE
  5
9339
330
1F
100
AcDbEntity
  8
AM_0
  6
Continuous
100
AcDbSpline
210
0.0
220
0.0
230
1.0
 70
     8
 71
     3
 72
    11
 73
     7
 74
     0
 42
0.0000000001
 43
0.0000000001
 40
0.0
 40
0.0
 40
0.0
 40
0.0
 40
0.0796442348618212
 40
0.1593302231478806
 40
0.2390665623213601
 40
0.3188645289910761
 40
0.3188645289910761
 40
0.3188645289910761
 40
0.3188645289910761
 10
-0.9038258300115472
 20
-4.465226824638039
 30
0.0
 10
-0.921064887971417
 20
-4.506038703954732
 30
0.0
 10
-0.9555520414530379
 20
-4.587683858182019
 30
0.0
 10
-1.009055927841379
 20
-4.70943288257327
 30
0.0
 10
-1.063755406937295
 20
-4.830743243094575
 30
0.0
 10
-1.101389960041302
 20
-4.911111586733598
 30
0.0
 10
-1.120214505635749
 20
-4.951311281545998
 30
0.0
  0
SPLINE
  5
933A
330
1F
100
AcDbEntity
  8
AM_0
  6
Continuous
100
AcDbSpline
210
0.0
220
0.0
230
1.0
 70
     8
 71
     3
 72
    11
 73
     7
 74
     0
 42
0.0000000001
 43
0.0000000001
 40
0.0
 40
0.0
 40
0.0
 40
0.0
 40
0.6831328426135959
 40
1.368196366877315
 40
2.055903732317676
 40
2.74686423620494
 40
2.74686423620494
 40
2.74686423620494
 40
2.74686423620494
 10
0.0000000054985065
 20
0.0000007442156351
 30
0.0
 10
-0.0109658745081032
 20
-0.3801959897402065
 30
0.0
 10
-0.0329286264777371
 20
-1.141663976123088
 30
0.0
 10
-0.2122025711074678
 20
-2.273665087519138
 30
0.0
 10
-0.4886279536825838
 20
-3.390332830799924
 30
0.0
 10
-0.7652133378037125
 20
-4.106363900233648
 30
0.0
 10
-0.9038323486851339
 20
-4.465224217168542
 30
0.0
  0
SPLINE
  5
933B
330
1F
100
AcDbEntity
  8
AM_0
  6
Continuous
100
AcDbSpline
210
0.0
220
0.0
230
1.0
 70
     8
 71
     3
 72
    11
 73
     7
 74
     0
 42
0.0000000001
 43
0.0000000001
 40
0.0
 40
0.0
 40
0.0
 40
0.0
 40
0.240447414228968
 40
0.4818071082694983
 40
0.7241602669372754
 40
0.9675815622298802
 40
0.9675815622298802
 40
0.9675815622298802
 40
0.9675815622298802
 10
-0.2707166000791342
 20
-0.3495983312289796
 30
0.0
 10
-0.4044749658316757
 20
-0.3493536360946519
 30
0.0
 10
-0.6724991889938689
 20
-0.3488633174299626
 30
0.0
 10
-1.075200975994939
 20
-0.3605816941488079
 30
0.0
 10
-1.479236573707687
 20
-0.3803362171018004
 30
0.0
 10
-1.74865953439857
 20
-0.4011991123169454
 30
0.0
 10
-1.883667222716177
 20
-0.4116534969298725
 30
0.0
  0
SPLINE
  5
933C
330
1F
100
AcDbEntity
  8
AM_0
  6
Continuous
100
AcDbSpline
210
0.0
220
0.0
230
1.0
 70
     8
 71
     3
 72
    11
 73
     7
 74
     0
 42
0.0000000001
 43
0.0000000001
 40
0.0
 40
0.0
 40
0.0
 40
0.0
 40
0.0661745709908548
 40
0.1323928432154537
 40
0.1986553111699786
 40
0.2649610347962172
 40
0.2649610347962172
 40
0.2649610347962172
 40
0.2649610347962172
 10
0.0000000054985065
 20
0.0000007442156351
 30
0.0
 10
-0.0225620721825238
 20
-0.029084461671024
 30
0.0
 10
-0.0677011273862721
 20
-0.0872740811151737
 30
0.0
 10
-0.1353759936421928
 20
-0.1746311367195452
 30
0.0
 10
-0.2030601051385056
 20
-0.26207330477006
 30
0.0
 10
-0.248159529935557
 20
-0.3204169767576177
 30
0.0
 10
-0.2707166000791342
 20
-0.3495983312289796
 30
0.0
  0
ELLIPSE
  5
933D
330
1F
100
AcDbEntity
  8
AM_0
  6
Continuous
100
AcDbEllipse
 10
-15.50662087869677
 20
3.172038189100629
 30
0.0
 11
0.2953961876983492
 21
-0.1377456269995682
 31
0.0
210
0.0
220
0.0
230
1.0
 40
0.9589679999998706
 41
1.150294872884432
 42
1.991298117741286
  0
ELLIPSE
  5
933E
330
1F
100
AcDbEntity
  8
AM_0
  6
Continuous
100
AcDbEllipse
 10
-15.31928853901045
 20
3.57377361641674
 30
0.0
 11
-0.1436393862236879
 21
-0.3080356467183712
 31
0.0
210
0.0
220
0.0
230
1.0
 40
0.9589676904605257
 41
2.721092025184011
 42
3.562092965962501
  0
ELLIPSE
  5
933F
330
1F
100
AcDbEntity
  8
AM_0
  6
Continuous
100
AcDbEllipse
 10
-29.93566850358723
 20
-16.38689531131837
 30
0.0
 11
31.61170448166907
 21
-19.08062203943531
 31
0.0
210
0.0
220
0.0
230
1.0
 40
0.7710748231290112
 41
1.787490800040749
 42
1.802273628083856
  0
SPLINE
  5
9340
330
1F
100
AcDbEntity
  8
AM_0
  6
Continuous
100
AcDbSpline
210
0.0
220
0.0
230
1.0
 70
     8
 71
     3
 72
    11
 73
     7
 74
     0
 42
0.0000000001
 43
0.0000000001
 40
0.0
 40
0.0
 40
0.0
 40
0.0
 40
0.0206716568039188
 40
0.0416051022193866
 40
0.0628298563663727
 40
0.0843671338472925
 40
0.0843671338472925
 40
0.0843671338472925
 40
0.0843671338472925
 10
-19.67178477318998
 20
12.5002732229519
 30
0.0
 10
-19.67660150570523
 20
12.48983104951881
 30
0.0
 10
-19.68629597047707
 20
12.46881446157918
 30
0.0
 10
-19.70200718250304
 20
12.43758906839895
 30
0.0
 10
-19.71868154371196
 20
12.40632018699357
 30
0.0
 10
-19.73059377908384
 20
12.38572921637105
 30
0.0
 10
-19.73659342664164
 20
12.37535848722148
 30
0.0
  0
SPLINE
  5
9341
330
1F
100
AcDbEntity
  8
AM_0
  6
Continuous
100
AcDbSpline
210
0.0
220
0.0
230
1.0
 70
     8
 71
     3
 72
    11
 73
     7
 74
     0
 42
0.0000000001
 43
0.0000000001
 40
0.0
 40
0.0
 40
0.0
 40
0.0
 40
0.1947168943656461
 40
0.3934081595498028
 40
0.595988422724549
 40
0.8012081575899975
 40
0.8012081575899975
 40
0.8012081575899975
 40
0.8012081575899975
 10
-19.73659342664164
 20
12.37535848722148
 30
0.0
 10
-19.79854125907613
 20
12.28574370219221
 30
0.0
 10
-19.92370134251702
 20
12.10468500278316
 30
0.0
 10
-20.19237047270677
 20
11.90263091673793
 30
0.0
 10
-20.50511796512632
 20
11.76326206091733
 30
0.0
 10
-20.73255467460072
 20
11.74358041503582
 30
0.0
 10
-20.84700906754168
 20
11.73367589770149
 30
0.0
  0
SPLINE
  5
9342
330
1F
100
AcDbEntity
  8
AM_0
  6
Continuous
100
AcDbSpline
210
0.0
220
0.0
230
1.0
 70
     8
 71
     3
 72
    11
 73
     7
 74
     0
 42
0.0000000001
 43
0.0000000001
 40
0.0
 40
0.0
 40
0.0
 40
0.0
 40
0.1324103372370501
 40
0.2646619490561087
 40
0.3967533817178731
 40
0.5286946070661679
 40
0.5286946070661679
 40
0.5286946070661679
 40
0.5286946070661679
 10
-2.912815862927301
 20
7.706993402543988
 30
0.0
 10
-2.865083443017026
 20
7.650895884527771
 30
0.0
 10
-2.76967582190356
 20
7.538768094770645
 30
0.0
 10
-2.630478327608073
 20
7.367484031292521
 30
0.0
 10
-2.494050878464328
 20
7.194317363351317
 30
0.0
 10
-2.405803577533234
 20
7.076908967930509
 30
0.0
 10
-2.361705028867775
 20
7.018238166845705
 30
0.0
  0
SPLINE
  5
9343
330
1F
100
AcDbEntity
  8
AM_0
  6
Continuous
100
AcDbSpline
210
0.0
220
0.0
230
1.0
 70
     8
 71
     3
 72
    11
 73
     7
 74
     0
 42
0.0000000001
 43
0.0000000001
 40
0.0
 40
0.0
 40
0.0
 40
0.0
 40
0.4099122500962053
 40
0.8183296368195762
 40
1.22530058948508
 40
1.630884526252561
 40
1.630884526252561
 40
1.630884526252561
 40
1.630884526252561
 10
-2.361705028867775
 20
7.018238166845705
 30
0.0
 10
-2.228497684047142
 20
6.833093891517222
 30
0.0
 10
-1.962568773449336
 20
6.463480522916412
 30
0.0
 10
-1.604789531578551
 20
5.882814330670923
 30
0.0
 10
-1.276377993277668
 20
5.287778732483371
 30
0.0
 10
-1.087197835965979
 20
4.877132386940144
 30
0.0
 10
-0.9927692207935201
 20
4.672159696958797
 30
0.0
  0
SPLINE
  5
9344
330
1F
100
AcDbEntity
  8
AM_0
  6
Continuous
100
AcDbSpline
210
0.0
220
0.0
230
1.0
 70
     8
 71
     3
 72
    11
 73
     7
 74
     0
 42
0.0000000001
 43
0.0000000001
 40
0.0
 40
0.0
 40
0.0
 40
0.0
 40
0.1972502528370182
 40
0.3941605169112261
 40
0.5907267883205626
 40
0.7869483625162134
 40
0.7869483625162134
 40
0.7869483625162134
 40
0.7869483625162134
 10
-3.818833276519238
 20
8.656891919694038
 30
0.0
 10
-3.739668278233953
 20
8.580908847662689
 30
0.0
 10
-3.581474733756277
 20
8.429073671192103
 30
0.0
 10
-3.352029943328287
 20
8.193781117430109
 30
0.0
 10
-3.128238016381919
 20
7.953886947720778
 30
0.0
 10
-2.984581224645607
 20
7.789243088991658
 30
0.0
 10
-2.912815862927301
 20
7.706993402543988
 30
0.0
  0
SPLINE
  5
9345
330
1F
100
AcDbEntity
  8
AM_0
  6
Continuous
100
AcDbSpline
210
0.0
220
0.0
230
1.0
 70
     8
 71
     3
 72
    11
 73
     7
 74
     0
 42
0.0000000001
 43
0.0000000001
 40
0.0
 40
0.0
 40
0.0
 40
0.0
 40
0.0544234747837936
 40
0.1088198046743597
 40
0.1631901118083987
 40
0.2175381251030655
 40
0.2175381251030655
 40
0.2175381251030655
 40
0.2175381251030655
 10
-4.08606630289704
 20
8.90258333712034
 30
0.0
 10
-4.063533936715957
 20
8.882364715839807
 30
0.0
 10
-4.018480442862137
 20
8.841937557756446
 30
0.0
 10
-3.951470114719976
 20
8.780699469625805
 30
0.0
 10
-3.884859214918175
 20
8.719088936627107
 30
0.0
 10
-3.84083891370972
 20
8.677621424221333
 30
0.0
 10
-3.818833276519238
 20
8.656891919694038
 30
0.0
  0
SPLINE
  5
9346
330
1F
100
AcDbEntity
  8
AM_0
  6
Continuous
100
AcDbSpline
210
0.0
220
0.0
230
1.0
 70
     8
 71
     3
 72
    11
 73
     7
 74
     0
 42
0.0000000001
 43
0.0000000001
 40
0.0
 40
0.0
 40
0.0
 40
0.0
 40
0.3225311427266949
 40
0.6442804150853301
 40
0.965212030458751
 40
1.28529351562562
 40
1.28529351562562
 40
1.28529351562562
 40
1.28529351562562
 10
-5.795326417543434
 20
10.19461052970952
 30
0.0
 10
-5.644989673697983
 20
10.09664463767662
 30
0.0
 10
-5.344680627853662
 20
9.90095033960185
 30
0.0
 10
-4.910618094343142
 20
9.584617107878317
 30
0.0
 10
-4.488935750513392
 20
9.254157267987785
 30
0.0
 10
-4.220237333552178
 20
9.019670986568703
 30
0.0
 10
-4.08606630289704
 20
8.90258333712034
 30
0.0
  0
SPLINE
  5
9347
330
1F
100
AcDbEntity
  8
AM_0
  6
Continuous
100
AcDbSpline
210
0.0
220
0.0
230
1.0
 70
     8
 71
     3
 72
    11
 73
     7
 74
     0
 42
0.0000000001
 43
0.0000000001
 40
0.0
 40
0.0
 40
0.0
 40
0.0
 40
0.3615693488608294
 40
0.7232219333364933
 40
1.084853469401307
 40
1.446363024973675
 40
1.446363024973675
 40
1.446363024973675
 40
1.446363024973675
 10
-13.03734729918898
 20
12.32380620850927
 30
0.0
 10
-12.83623702152929
 20
12.31923605365983
 30
0.0
 10
-12.43397016931649
 20
12.31009469188154
 30
0.0
 10
-11.83211674561858
 20
12.2628495338265
 30
0.0
 10
-11.2324517554871
 20
12.19341200947514
 30
0.0
 10
-10.83598804690926
 20
12.12498285912599
 30
0.0
 10
-10.63778963065822
 20
12.09077405531579
 30
0.0
  0
SPLINE
  5
9348
330
1F
100
AcDbEntity
  8
AM_0
  6
Continuous
100
AcDbSpline
210
0.0
220
0.0
230
1.0
 70
     8
 71
     3
 72
    11
 73
     7
 74
     0
 42
0.0000000001
 43
0.0000000001
 40
0.0
 40
0.0
 40
0.0
 40
0.0
 40
1.698353779101935
 40
3.3901827161033
 40
5.066178242994094
 40
6.719914374256839
 40
6.719914374256839
 40
6.719914374256839
 40
6.719914374256839
 10
-13.03734729918898
 20
12.44919680741625
 30
0.0
 10
-12.09087016047512
 20
12.38555678464875
 30
0.0
 10
-10.2015521182994
 20
12.25852123534595
 30
0.0
 10
-7.514585013270179
 20
11.32504523275541
 30
0.0
 10
-5.061214763842372
 20
9.93026105033986
 30
0.0
 10
-3.759834684530662
 20
8.600767720137955
 30
0.0
 10
-3.113494535049424
 20
7.940464914341577
 30
0.0
  0
SPLINE
  5
9349
330
1F
100
AcDbEntity
  8
AM_0
  6
Continuous
100
AcDbSpline
210
0.0
220
0.0
230
1.0
 70
     8
 71
     3
 72
    11
 73
     7
 74
     0
 42
0.0000000001
 43
0.0000000001
 40
0.0
 40
0.0
 40
0.0
 40
0.0
 40
0.7874186028482094
 40
1.572833574315369
 40
2.355347751055917
 40
3.134187001441173
 40
3.134187001441173
 40
3.134187001441173
 40
3.134187001441173
 10
-10.63778963065822
 20
12.09077405531579
 30
0.0
 10
-10.20907506185866
 20
11.99922653280992
 30
0.0
 10
-9.352736812842115
 20
11.81636443567146
 30
0.0
 10
-8.111679722837005
 20
11.38853471264463
 30
0.0
 10
-6.914192241000402
 20
10.86219324106512
 30
0.0
 10
-6.167696020951371
 20
10.41678865353622
 30
0.0
 10
-5.795326417543434
 20
10.19461052970952
 30
0.0
  0
SPLINE
  5
934A
330
1F
100
AcDbEntity
  8
AM_0
  6
Continuous
100
AcDbSpline
210
0.0
220
0.0
230
1.0
 70
     8
 71
     3
 72
    11
 73
     7
 74
     0
 42
0.0000000001
 43
0.0000000001
 40
0.0
 40
0.0
 40
0.0
 40
0.0
 40
1.003766259685337
 40
2.007459076438046
 40
3.011066190312426
 40
4.014579538385731
 40
4.014579538385731
 40
4.014579538385731
 40
4.014579538385731
 10
-19.73659342664164
 20
12.37535848722148
 30
0.0
 10
-19.17824631616086
 20
12.37234083628982
 30
0.0
 10
-18.06159294798632
 20
12.36630575522008
 30
0.0
 10
-16.38669869092763
 20
12.35436627459018
 30
0.0
 10
-14.71196033112697
 20
12.34046352415604
 30
0.0
 10
-13.59553425796612
 20
12.32935847412821
 30
0.0
 10
-13.03734729918898
 20
12.32380620850927
 30
0.0
  0
SPLINE
  5
934B
330
1F
100
AcDbEntity
  8
AM_0
  6
Continuous
100
AcDbSpline
210
0.0
220
0.0
230
1.0
 70
     8
 71
     3
 72
    11
 73
     7
 74
     0
 42
0.0000000001
 43
0.0000000001
 40
0.0
 40
0.0
 40
0.0
 40
0.0
 40
0.9938066377758618
 40
1.987705416071323
 40
2.98168789370747
 40
3.975742436715931
 40
3.975742436715931
 40
3.975742436715931
 40
3.975742436715931
 10
-13.03734729918898
 20
12.44919680741625
 30
0.0
 10
-13.59013503684558
 20
12.45469914876152
 30
0.0
 10
-14.6957617637277
 20
12.46570434160023
 30
0.0
 10
-16.35429991609785
 20
12.47940941356124
 30
0.0
 10
-18.01299029493717
 20
12.49125682756806
 30
0.0
 10
-19.11883991826922
 20
12.49726768519374
 30
0.0
 10
-19.67178477318998
 20
12.5002732229519
 30
0.0
  0
SPLINE
  5
934C
330
1F
100
AcDbEntity
  8
AM_0
  6
Continuous
100
AcDbSpline
210
0.0
220
0.0
230
1.0
 70
     8
 71
     3
 72
    11
 73
     7
 74
     0
 42
0.0000000001
 43
0.0000000001
 40
0.0
 40
0.0
 40
0.0
 40
0.0
 40
0.6909545638307933
 40
1.378657193915149
 40
2.063724930732671
 40
2.746864015483661
 40
2.746864015483661
 40
2.746864015483661
 40
2.746864015483661
 10
-0.9038310449504308
 20
4.465225705599917
 30
0.0
 10
-0.7652134341408779
 20
4.106368386011123
 30
0.0
 10
-0.4886306074982488
 20
3.390342686003786
 30
0.0
 10
-0.212206290978991
 20
2.273678553206772
 30
0.0
 10
-0.0329273221042039
 20
1.141674916574481
 30
0.0
 10
-0.0109654510695581
 20
0.3802010053156072
 30
0.0
 10
0.0000000054985065
 20
0.0000007442156351
 30
0.0
  0
ELLIPSE
  5
934D
330
1F
100
AcDbEntity
  8
AM_0
  6
Continuous
100
AcDbEllipse
 10
-25.83472136697799
 20
-20.54919229313927
 30
0.0
 11
0.0000105480580851
 21
-32.27730254727517
 31
0.0
210
0.0
220
0.0
230
1.0
 40
0.9494943546355504
 41
2.244508575603139
 42
3.028093477396805
  0
ELLIPSE
  5
934E
330
1F
100
AcDbEntity
  8
AM_0
  6
Continuous
100
AcDbEllipse
 10
-25.83472136697799
 20
-18.89935640750769
 30
0.0
 11
32.59336826171876
 21
-0.000000000000957
 31
0.0
210
0.0
220
0.0
230
1.0
 40
0.95105652
 41
0.6556736963066752
 42
1.417164249599944
  0
LINE
  5
934F
330
1F
100
AcDbEntity
  8
AM_0
  6
Continuous
100
AcDbLine
 10
-6.263330681209234
 20
-8.072958075363603
 30
0.0
 11
-13.03734729918898
 21
0.0000007442156868
 31
0.0
  0
LINE
  5
9350
330
1F
100
AcDbEntity
  8
AM_0
  6
Continuous
100
AcDbLine
 10
-9.415076798749169
 20
-3.911203447190536
 30
0.0
 11
-5.588835695992844
 21
-8.471139521804404
 31
0.0
  0
SPLINE
  5
9351
330
1F
100
AcDbEntity
  8
AM_0
  6
Continuous
100
AcDbSpline
210
0.0
220
0.0
230
1.0
 70
     8
 71
     3
 72
    11
 73
     7
 74
     0
 42
0.0000000001
 43
0.0000000001
 40
0.0
 40
0.0
 40
0.0
 40
0.0
 40
0.3634955936212287
 40
0.725816504262885
 40
1.086991083222719
 40
1.447055479889101
 40
1.447055479889101
 40
1.447055479889101
 40
1.447055479889101
 10
-2.361705028867759
 20
-7.018236678414423
 30
0.0
 10
-2.243295750218313
 20
-6.854279008918309
 30
0.0
 10
-2.006859847803586
 20
-6.52689352032074
 30
0.0
 10
-1.684418893558475
 20
-6.015017810571252
 30
0.0
 10
-1.384917708107153
 20
-5.491578574831494
 30
0.0
 10
-1.208365272358918
 20
-5.13121287167057
 30
0.0
 10
-1.120224935513611
 20
-4.951307370341766
 30
0.0
  0
SPLINE
  5
9352
330
1F
100
AcDbEntity
  8
AM_0
  6
Continuous
100
AcDbSpline
210
0.0
220
0.0
230
1.0
 70
     8
 71
     3
 72
    11
 73
     7
 74
     0
 42
0.0000000001
 43
0.0000000001
 40
0.0
 40
0.0
 40
0.0
 40
0.0
 40
1.257483889006024
 40
2.500995849379051
 40
3.732799926391915
 40
4.956459883313766
 40
4.956459883313766
 40
4.956459883313766
 40
4.956459883313766
 10
-3.113493231314699
 20
-7.94046342591029
 30
0.0
 10
-2.682792895181286
 20
-7.386735119066639
 30
0.0
 10
-1.826177742960697
 20
-6.285430991667921
 30
0.0
 10
-0.9418432633695543
 20
-4.391540420907732
 30
0.0
 10
-0.3662135261049355
 20
-2.400340956859471
 30
0.0
 10
-0.3024784446587775
 20
-1.031666029728217
 30
0.0
 10
-0.2707166000791342
 20
-0.3495983312289796
 30
0.0
  0
SPLINE
  5
9353
330
1F
100
AcDbEntity
  8
AM_0
  6
Continuous
100
AcDbSpline
210
0.0
220
0.0
230
1.0
 70
     8
 71
     3
 72
    11
 73
     7
 74
     0
 42
0.0000000001
 43
0.0000000001
 40
0.0
 40
0.0
 40
0.0
 40
0.0
 40
1.355404748620475
 40
2.709180748783781
 40
4.062927792025716
 40
5.41645887542319
 40
5.41645887542319
 40
5.41645887542319
 40
5.41645887542319
 10
-1.883667222716177
 20
-0.4116534969298725
 30
0.0
 10
-2.002036512994745
 20
-1.157383290033037
 30
0.0
 10
-2.238632852793841
 20
-2.647946755540927
 30
0.0
 10
-2.968498882441791
 20
-4.798128306448286
 30
0.0
 10
-4.059243767710907
 20
-6.799413989803305
 30
0.0
 10
-5.078998835219801
 20
-7.913927312750166
 30
0.0
 10
-5.588835695992844
 20
-8.471139521804449
 30
0.0
  0
LINE
  5
9354
330
1F
100
AcDbEntity
  8
AM_0
  6
Continuous
100
AcDbLine
 10
-36.000000016556
 20
11.40767963581729
 30
0.0
 11
-36.00000001655594
 21
-11.40767814738582
 31
0.0
  0
LINE
  5
9355
330
1F
100
AcDbEntity
  8
AM_0
  6
Continuous
100
AcDbLine
 10
-67.79831016806845
 20
15.08298867256196
 30
0.0
 11
-67.79831016806845
 21
-15.08298718413052
 31
0.0
  0
LINE
  5
9356
330
1F
100
AcDbEntity
  8
AM_0
  6
Continuous
100
AcDbLine
 10
-70.00000001655603
 20
16.29244773720112
 30
0.0
 11
-70.00000001655604
 21
-16.29244624876948
 31
0.0
  0
LINE
  5
9357
330
1F
100
AcDbEntity
  8
AM_0
  6
Continuous
100
AcDbLine
 10
-150.0000000165559
 20
14.66277932411532
 30
0.0
 11
-150.0000000165559
 21
-14.66277783568347
 31
0.0
  0
LINE
  5
9358
330
1F
100
AcDbEntity
  8
AM_0
  6
Continuous
100
AcDbLine
 10
-148.37033160347
 20
16.29244773720128
 30
0.0
 11
-148.3703316034699
 21
-16.29244624876936
 31
0.0
  0
DIMENSION
  5
935B
330
1F
100
AcDbEntity
  8
AM_5
100
AcDbDimension
  2
*D3
 10
-168.3872272678383
 20
-16.29244624876943
 30
0.0
 11
-171.4872272678384
 21
0.0000007442158712
 31
0.0
 70
    32
  1
%%c32
 71
     5
 42
-1.0
 51
359.9999999999998
  3
AM_JIS$0
100
AcDbAlignedDimension
 13
-148.3703316034699
 23
16.29244773720122
 33
0.0
 14
-148.3703316034701
 24
-16.29244624876944
 34
0.0
 50
270.0
100
AcDbRotatedDimension
1001
GENIUS_GENDTOL_13
1000

1000
h7
1000

1040
0.0
1001
ACAD
1000
DSTYLE
1002
{
1070
   287
1070
     3
1070
    40
1040
1.0
1070
    42
1040
1.0
1070
    43
1040
12.0
1070
    48
1040
0.1
1070
    78
1070
     8
1070
   140
1040
3.2
1070
   176
1070
   256
1070
   177
1070
   256
1070
   271
1070
     0
1070
   272
1070
     3
1070
   275
1070
     0
1070
   284
1070
     0
1070
   289
1070
     3
1070
   340
1005
6B
1070
   371
1070
    -1
1070
   372
1070
    -1
1002
}
  0
LINE
  5
9397
330
1F
100
AcDbEntity
  8
AM_11
100
AcDbLine
 10
-18.50000001655597
 20
12.49373760893632
 30
0.0
 11
-18.50000001655596
 21
-12.49373612050485
 31
0.0
  0
DIMENSION
  5
93CA
330
1F
100
AcDbEntity
  8
AM_5
100
AcDbDimension
  2
*D4
 10
17.11293940995379
 20
-12.49373612050485
 30
0.0
 11
14.01293940995379
 21
0.0000007442157408
 31
0.0
 70
    32
  1
%%c<>
 71
     5
 42
-1.0
 51
359.9999999999998
  3
AM_JIS$0
100
AcDbAlignedDimension
 13
-18.50000001655593
 23
12.49373760893634
 33
0.0
 14
-18.50000001655601
 24
-12.49373612050485
 34
0.0
 50
90.0
100
AcDbRotatedDimension
1001
GENIUS_GENDTOL_13
1000

1000
h7
1000

1040
0.0
1001
ACAD
1000
DSTYLE
1002
{
1070
   287
1070
     3
1070
    40
1040
1.0
1070
    42
1040
1.0
1070
    43
1040
12.0
1070
    48
1040
0.1
1070
    78
1070
     8
1070
   140
1040
3.2
1070
   176
1070
   256
1070
   177
1070
   256
1070
   271
1070
     0
1070
   272
1070
     3
1070
   275
1070
     0
1070
   284
1070
     0
1070
   289
1070
     3
1070
   340
1005
6B
1070
   371
1070
    -1
1070
   372
1070
    -1
1002
}
  0
DIMENSION
  5
949C
330
1F
100
AcDbEntity
  8
AM_5
100
AcDbDimension
  2
*D5
 10
-18.5000000165559
 20
30.29244894070204
 30
0.0
 11
-9.250000005528669
 21
33.39244894070203
 31
0.0
 70
    32
  1
<>
 71
     5
 42
-1.0
 51
359.9999999999998
  3
AM_JIS$0
100
AcDbAlignedDimension
 13
0.0000000054984994
 23
0.0000007442157965
 33
0.0
 14
-18.50000001655593
 24
12.49373760893634
 34
0.0
 50
180.0
100
AcDbRotatedDimension
1001
GENIUS_GENDTOL_13
1000

1000
h7
1000

1040
0.0
1001
ACAD
1000
DSTYLE
1002
{
1070
   287
1070
     3
1070
    40
1040
1.0
1070
    42
1040
1.0
1070
    43
1040
12.0
1070
    48
1040
0.1
1070
    78
1070
     8
1070
   140
1040
3.2
1070
   176
1070
   256
1070
   177
1070
   256
1070
   271
1070
     1
1070
   272
1070
     3
1070
   275
1070
     0
1070
   284
1070
     0
1070
   289
1070
     3
1070
   340
1005
6B
1070
   371
1070
    -1
1070
   372
1070
    -1
1002
}
  0
DIMENSION
  5
9579
330
1F
100
AcDbEntity
  8
AM_5
100
AcDbDimension
  2
*D6
 10
-36.00000001655608
 20
-30.29244725876944
 30
0.0
 11
-18.00000000552875
 21
-27.19244725876944
 31
0.0
 70
    32
  1
<>
 71
     5
 42
-1.0
 51
359.9999999999998
  3
AM_JIS$0
100
AcDbAlignedDimension
 13
0.0000000054985776
 23
0.0000007442157255
 33
0.0
 14
-36.00000001655608
 24
-11.40767814738576
 34
0.0
100
AcDbRotatedDimension
1001
GENIUS_GENDTOL_13
1000

1000
h7
1000

1040
0.0
1001
ACAD
1000
DSTYLE
1002
{
1070
   287
1070
     3
1070
    40
1040
1.0
1070
    42
1040
1.0
1070
    43
1040
12.0
1070
    48
1040
0.1
1070
    78
1070
     8
1070
   140
1040
3.2
1070
   176
1070
   256
1070
   177
1070
   256
1070
   271
1070
     0
1070
   272
1070
     3
1070
   275
1070
     0
1070
   284
1070
     0
1070
   289
1070
     3
1070
   340
1005
6B
1070
   371
1070
    -1
1070
   372
1070
    -1
1002
}
  0
DIMENSION
  5
9632
330
1F
100
AcDbEntity
  8
AM_5
100
AcDbDimension
  2
*D7
 10
-70.00000001655608
 20
-40.29244725876943
 30
0.0
 11
-35.00000001655604
 21
-37.19244725876944
 31
0.0
 70
    32
  1
<>
 71
     5
 42
-1.0
 51
359.9999999999998
  3
AM_JIS$0
100
AcDbAlignedDimension
 13
-0.000000016556001
 23
-0.0000000204698267
 33
0.0
 14
-70.00000001655608
 24
-16.2924462487695
 34
0.0
100
AcDbRotatedDimension
1001
GENIUS_GENDTOL_13
1000

1000
h7
1000

1040
0.0
1001
ACAD
1000
DSTYLE
1002
{
1070
   287
1070
     3
1070
    40
1040
1.0
1070
    42
1040
1.0
1070
    43
1040
12.0
1070
    48
1040
0.1
1070
    78
1070
     8
1070
   140
1040
3.2
1070
   176
1070
   256
1070
   177
1070
   256
1070
   271
1070
     0
1070
   272
1070
     3
1070
   275
1070
     0
1070
   284
1070
     0
1070
   289
1070
     3
1070
   340
1005
6B
1070
   371
1070
    -1
1070
   372
1070
    -1
1002
}
  0
DIMENSION
  5
96D0
330
1F
100
AcDbEntity
  8
AM_5
100
AcDbDimension
  2
*D8
 10
-150.000000016556
 20
-40.29244725876943
 30
0.0
 11
-110.000000016556
 21
-37.19244725876944
 31
0.0
 70
    32
  1
<>
 71
     5
 42
-1.0
 51
359.9999999999998
  3
AM_JIS$0
100
AcDbAlignedDimension
 13
-70.00000001655608
 23
-16.2924462487695
 33
0.0
 14
-150.000000016556
 24
-14.66277783568346
 34
0.0
100
AcDbRotatedDimension
1001
GENIUS_GENDTOL_13
1000

1000
h7
1000

1040
0.0
1001
ACAD
1000
DSTYLE
1002
{
1070
   287
1070
     3
1070
    40
1040
1.0
1070
    42
1040
1.0
1070
    43
1040
12.0
1070
    48
1040
0.1
1070
    78
1070
     8
1070
   140
1040
3.2
1070
   176
1070
   256
1070
   177
1070
   256
1070
   271
1070
     0
1070
   272
1070
     3
1070
   275
1070
     0
1070
   284
1070
     0
1070
   289
1070
     3
1070
   340
1005
6B
1070
   371
1070
    -1
1070
   372
1070
    -1
1002
}
  0
LINE
  5
9818
330
1F
100
AcDbEntity
  8
AM_0
100
AcDbLine
 10
-36.00000001655594
 20
-11.40767814738582
 30
0.0
 11
-67.79831016806845
 21
-15.08298718413052
 31
0.0
  0
LINE
  5
9819
330
1F
100
AcDbEntity
  8
AM_0
100
AcDbLine
 10
-36.000000016556
 20
11.40767963581729
 30
0.0
 11
-67.79831016806845
 21
15.08298867256196
 31
0.0
  0
VIEWPORT
  5
110
102
{ACAD_XDICTIONARY
360
9B64
102
}
330
101
100
AcDbEntity
 67
     1
  8
0
100
AcDbViewport
 10
420.5
 20
297.0
 30
0.0
 40
948.9782706766916
 41
628.452
 68
     1
 69
     1
 12
420.5
 22
297.0
 13
0.0
 23
0.0
 14
10.0
 24
10.0
 15
10.0
 25
10.0
 16
0.0
 26
0.0
 36
1.0
 17
0.0
 27
0.0
 37
0.0
 42
50.0
 43
0.0
 44
0.0
 45
628.452
 50
0.0
 51
0.0
 72
   100
 90
    32800
  1

281
     0
 71
     1
 74
     0
110
-0.0000000000002682
120
0.000000000000161
130
0.0
111
1.0
121
0.000000000000002
131
0.0
112
-0.000000000000002
122
1.0
132
0.0
 79
     0
146
0.0
1001
GENIUS_GENSCREG_15
1000
PF
1040
1.0
1000
DF
1040
1.0
1000
MIN
1011
-53.98913533834582
1021
-17.226
1031
0.0
1000
MAX
1011
894.9891353383458
1021
611.226
1031
0.0
1000
FLAGS
1070
     4
1001
GENIUS_GENODEF_13
1002
{
1000
HIER
1070
     0
1002
}
1002
{
1000
MANEDIT
1070
     0
1002
}
1002
{
1000
NOSEL
1070
     0
1002
}
1002
{
1000
BEHIND
1070
     0
1002
}
1002
{
1000
OTHER
1070
     0
1002
}
1002
{
1000
REACTOR
1002
}
1001
GENIUS_GENOBJ-N-SDF_13
1002
{
1000
OWNER
1000
GEN
1002
}
  0
ENDSEC
  0
SECTION
  2
OBJECTS
  0
DICTIONARY
  5
C
330
0
100
AcDbDictionary
281
     1
  3
ACAD_COLOR
350
9A9A
  3
ACAD_GROUP
350
D
  3
ACAD_LAYOUT
350
1A
  3
ACAD_MATERIAL
350
9A99
  3
ACAD_MLINESTYLE
350
17
  3
ACAD_PLOTSETTINGS
350
19
  3
ACAD_PLOTSTYLENAME
350
E
  3
ACAD_TABLESTYLE
350
9A9B
  3
ACDBHEADERROUNDTRIPXREC
350
9B63
  3
ACDBVARIABLEDICTIONARY
350
34
  3
ACMDICTIONARY
350
43
  3
AMG
350
2B
  3
AMGSNAPSETTINGS
350
6E
  3
DWGPROPS
350
9B62
  0
DICTIONARY
  5
74
330
1F
100
AcDbDictionary
280
     1
281
     1
  3
ACAD_INDEX
360
9A20
  3
ACAD_LAYOUTSELFREF
360
9A4D
  0
DICTIONARY
  5
9A52
330
101
100
AcDbDictionary
280
     1
281
     1
  3
ACAD_LAYOUTSELFREF
360
9A53
  0
DICTIONARY
  5
9B64
330
110
100
AcDbDictionary
280
     1
281
     1
  3
ACAD_XREC_ROUNDTRIP
360
9B65
  0
DICTIONARY
  5
9A9A
102
{ACAD_REACTORS
330
C
102
}
330
C
100
AcDbDictionary
281
     1
  0
DICTIONARY
  5
D
102
{ACAD_REACTORS
330
C
102
}
330
C
100
AcDbDictionary
281
     1
  0
DICTIONARY
  5
1A
102
{ACAD_REACTORS
330
C
102
}
330
C
100
AcDbDictionary
281
     1
  3
Model
350
9A9D
  3
レイアウト1
350
9A9E
  0
DICTIONARY
  5
9A99
102
{ACAD_REACTORS
330
C
102
}
330
C
100
AcDbDictionary
281
     1
  0
DICTIONARY
  5
17
102
{ACAD_REACTORS
330
C
102
}
330
C
100
AcDbDictionary
281
     1
  3
STANDARD
350
18
  0
DICTIONARY
  5
19
102
{ACAD_REACTORS
330
C
102
}
330
C
100
AcDbDictionary
281
     1
  3
ASAMI
350
399D
  0
ACDBDICTIONARYWDFLT
  5
E
102
{ACAD_REACTORS
330
C
102
}
330
C
100
AcDbDictionary
281
     1
  3
Normal
350
F
100
AcDbDictionaryWithDefault
340
F
  0
DICTIONARY
  5
9A9B
102
{ACAD_REACTORS
330
C
102
}
330
C
100
AcDbDictionary
281
     1
  3
Standard
350
9A9C
  0
DICTIONARY
  5
9B63
102
{ACAD_REACTORS
330
C
102
}
330
C
100
AcDbDictionary
281
     1
  0
DICTIONARY
  5
34
102
{ACAD_REACTORS
330
C
102
}
330
C
100
AcDbDictionary
281
     1
  3
CTABLESTYLE
350
9B5E
  3
DIMASSOC
350
9B5F
  3
INDEXCTL
350
35
  3
PROJECTNAME
350
9B60
  3
SORTENTS
350
B5E
  0
DICTIONARY
  5
43
102
{ACAD_REACTORS
330
C
102
}
330
C
100
AcDbDictionary
281
     1
  3
ACMSTDDICTIONARY
350
260
  0
DICTIONARY
  5
2B
102
{ACAD_REACTORS
330
C
102
}
330
C
100
AcDbDictionary
281
     1
  0
DICTIONARY
  5
6E
102
{ACAD_REACTORS
330
C
102
}
330
C
100
AcDbDictionary
281
     1
  0
XRECORD
  5
9B62
102
{ACAD_REACTORS
330
C
102
}
330
C
100
AcDbXrecord
280
     1
  1
DWGPROPS COOKIE
  2

  3

  4

  6

  7

  8

  9

300
AmdtFileType=82
301
=
302
=
303
=
304
=
305
=
306
=
307
=
308
=
309
=
 40
0.9158328356481481
 41
2452802.716478762
 42
2453691.770450845
  1

 90
        1
  0
DICTIONARY
  5
9A20
102
{ACAD_REACTORS
330
74
102
}
330
74
100
AcDbDictionary
281
     1
  3
*A1
350
9A21
  0
XRECORD
  5
9A4D
102
{ACAD_REACTORS
330
74
102
}
330
74
100
AcDbXrecord
280
     1
340
1F
  0
XRECORD
  5
9A53
102
{ACAD_REACTORS
330
9A52
102
}
330
9A52
100
AcDbXrecord
280
     1
340
101
  0
XRECORD
  5
9B65
102
{ACAD_REACTORS
330
9B64
102
}
330
9B64
100
AcDbXrecord
280
     1
102
SHADEPLOT
 70
     0
  0
LAYOUT
  5
9A9D
102
{ACAD_XDICTIONARY
360
9B68
102
}
102
{ACAD_REACTORS
330
1A
102
}
330
1A
100
AcDbPlotSettings
  1

  2
Canon LBP-1710 LIPS4
  4

  6

 40
0.0
 41
0.0
 42
0.0
 43
0.0
 44
0.0
 45
0.0
 46
0.0
 47
0.0
 48
0.0
 49
0.0
140
0.0
141
0.0
142
1.0
143
1.0
 70
  1712
 72
     0
 73
     0
 74
     0
  7
sei_cad.ctb
 75
     0
147
1.0
148
0.0
149
0.0
100
AcDbLayout
  1
Model
 70
     1
 71
     0
 10
0.0
 20
0.0
 11
12.0
 21
9.0
 12
0.0
 22
0.0
 32
0.0
 14
0.0
 24
0.0
 34
0.0
 15
0.0
 25
0.0
 35
0.0
146
0.0
 13
0.0
 23
0.0
 33
0.0
 16
1.0
 26
0.0
 36
0.0
 17
0.0
 27
1.0
 37
0.0
 76
     0
330
1F
  0
LAYOUT
  5
9A9E
102
{ACAD_XDICTIONARY
360
9B6A
102
}
102
{ACAD_REACTORS
330
1A
102
}
330
1A
100
AcDbPlotSettings
  1

  2
Canon LBP-1710 LIPS4
  4

  6

 40
0.0
 41
0.0
 42
0.0
 43
0.0
 44
0.0
 45
0.0
 46
0.0
 47
0.0
 48
0.0
 49
0.0
140
0.0
141
0.0
142
1.0
143
1.0
 70
   688
 72
     0
 73
     0
 74
     5
  7
sei_cad.ctb
 75
    16
147
1.0
148
0.0
149
0.0
100
AcDbLayout
  1
レイアウト1
 70
     0
 71
     1
 10
0.0
 20
0.0
 11
841.0
 21
594.0
 12
0.0
 22
0.0
 32
0.0
 14
1.000000000000000E+20
 24
1.000000000000000E+20
 34
1.000000000000000E+20
 15
-1.000000000000000E+20
 25
-1.000000000000000E+20
 35
-1.000000000000000E+20
146
0.0
 13
0.0
 23
0.0
 33
0.0
 16
1.0
 26
0.0
 36
0.0
 17
0.0
 27
1.0
 37
0.0
 76
     0
330
101
331
110
  0
MLINESTYLE
  5
18
102
{ACAD_REACTORS
330
17
102
}
330
17
100
AcDbMlineStyle
  2
STANDARD
 70
     0
  3

 62
   256
 51
90.0
 52
90.0
 71
     2
 49
0.5
 62
   256
  6
BYLAYER
 49
-0.5
 62
   256
  6
BYLAYER
  0
PLOTSETTINGS
  5
399D
102
{ACAD_XDICTIONARY
360
9B66
102
}
102
{ACAD_REACTORS
330
19
102
}
330
19
100
AcDbPlotSettings
  1
asami
  2
RICOH imagio MF1540
  4
A4
  6

 40
5.831416606903076
 41
7.651742935180664
 42
4.90008544921875
 43
5.789077758789062
 44
296.9683227539062
 45
209.9733276367186
 46
0.0
 47
0.0
 48
-156.6707931774246
 49
-74.57609991074048
140
58.59973180214831
141
60.61068161925597
142
1.0
143
1.095343097833084
 70
  1712
 72
     1
 73
     1
 74
     4
  7
asami.ctb
 75
     0
147
0.9129559514076438
148
156.6707931774246
149
74.57609991074048
  0
ACDBPLACEHOLDER
  5
F
102
{ACAD_REACTORS
330
E
102
}
330
E
  0
TABLESTYLE
  5
9A9C
102
{ACAD_REACTORS
330
9A9B
102
}
330
9A9B
100
AcDbTableStyle
  3
Standard
 70
     0
 71
     0
 40
1.5
 41
1.5
280
     0
281
     0
  7
STANDARD
140
4.5
170
     2
 62
     0
 63
     7
283
     0
274
    -2
284
     1
 64
     0
275
    -2
285
     1
 65
     0
276
    -2
286
     1
 66
     0
277
    -2
287
     1
 67
     0
278
    -2
288
     1
 68
     0
279
    -2
289
     1
 69
     0
  7
STANDARD
140
6.0
170
     5
 62
     0
 63
     7
283
     0
274
    -2
284
     1
 64
     0
275
    -2
285
     1
 65
     0
276
    -2
286
     1
 66
     0
277
    -2
287
     1
 67
     0
278
    -2
288
     1
 68
     0
279
    -2
289
     1
 69
     0
  7
STANDARD
140
4.5
170
     5
 62
     0
 63
     7
283
     0
274
    -2
284
     1
 64
     0
275
    -2
285
     1
 65
     0
276
    -2
286
     1
 66
     0
277
    -2
287
     1
 67
     0
278
    -2
288
     1
 68
     0
279
    -2
289
     1
 69
     0
  0
DICTIONARYVAR
  5
9B5E
102
{ACAD_REACTORS
330
34
102
}
330
34
100
DictionaryVariables
280
     0
  1
STANDARD
  0
DICTIONARYVAR
  5
9B5F
102
{ACAD_REACTORS
330
34
102
}
330
34
100
DictionaryVariables
280
     0
  1
1
  0
DICTIONARYVAR
  5
35
102
{ACAD_REACTORS
330
34
102
}
330
34
100
DictionaryVariables
280
     0
  1
1
  0
DICTIONARYVAR
  5
9B60
102
{ACAD_REACTORS
330
34
102
}
330
34
100
DictionaryVariables
280
     0
  1

  0
DICTIONARYVAR
  5
B5E
102
{ACAD_REACTORS
330
34
102
}
330
34
100
DictionaryVariables
280
     0
  1
96
  0
DICTIONARY
  5
260
102
{ACAD_REACTORS
330
43
102
}
330
43
100
AcDbDictionary
281
     1
  0
LAYER_INDEX
  5
9A21
102
{ACAD_REACTORS
330
9A20
102
}
330
9A20
100
AcDbIndex
 40
2453691.770450845
100
AcDbLayerIndex
  8
0
360
9A22
 90
        0
  8
AM_0
360
9A23
 90
      108
  8
AM_5
360
9A24
 90
        7
  8
AM_7
360
9A25
 90
        1
  8
AM_6
360
9A26
 90
        1
  8
DEFPOINTS
360
9A27
 90
        0
  8
AM_11
360
9A28
 90
        1
  0
DICTIONARY
  5
9B68
330
9A9D
100
AcDbDictionary
280
     1
281
     1
  3
ACAD_XREC_ROUNDTRIP
360
9B69
  0
DICTIONARY
  5
9B6A
330
9A9E
100
AcDbDictionary
280
     1
281
     1
  3
ACAD_XREC_ROUNDTRIP
360
9B6B
  0
DICTIONARY
  5
9B66
330
399D
100
AcDbDictionary
280
     1
281
     1
  3
ACAD_XREC_ROUNDTRIP
360
9B67
  0
IDBUFFER
  5
9A22
330
0
100
AcDbIdBuffer
  0
IDBUFFER
  5
9A23
330
0
100
AcDbIdBuffer
330
92DF
330
92E0
330
92E1
330
92E2
330
92E3
330
92E4
330
92E5
330
92E6
330
92E7
330
92E8
330
92E9
330
92EA
330
92EB
330
92EC
330
92ED
330
92EE
330
92EF
330
92F1
330
92F2
330
92F3
330
92F4
330
92F5
330
92F6
330
92F7
330
92F8
330
92F9
330
92FA
330
92FB
330
92FC
330
92FD
330
92FE
330
92FF
330
9300
330
9301
330
9302
330
9303
330
9304
330
9305
330
9306
330
9307
330
9308
330
9309
330
930A
330
930B
330
930C
330
930D
330
930E
330
930F
330
9310
330
9311
330
9312
330
9313
330
9314
330
9315
330
9316
330
9317
330
9318
330
9319
330
931A
330
931B
330
931C
330
931D
330
931E
330
931F
330
9321
330
9322
330
9323
330
9324
330
9325
330
9334
330
9335
330
9336
330
9337
330
9338
330
9339
330
933A
330
933B
330
933C
330
933D
330
933E
330
933F
330
9340
330
9341
330
9342
330
9343
330
9344
330
9345
330
9346
330
9347
330
9348
330
9349
330
934A
330
934B
330
934C
330
934D
330
934E
330
934F
330
9350
330
9351
330
9352
330
9353
330
9354
330
9355
330
9356
330
9357
330
9358
330
9818
330
9819
  0
IDBUFFER
  5
9A24
330
0
100
AcDbIdBuffer
330
9327
330
935B
330
93CA
330
949C
330
9579
330
9632
330
96D0
  0
IDBUFFER
  5
9A25
330
0
100
AcDbIdBuffer
330
9326
  0
IDBUFFER
  5
9A26
330
0
100
AcDbIdBuffer
330
388D
  0
IDBUFFER
  5
9A27
330
0
100
AcDbIdBuffer
  0
IDBUFFER
  5
9A28
330
0
100
AcDbIdBuffer
330
9397
  0
XRECORD
  5
9B69
102
{ACAD_REACTORS
330
9B68
102
}
330
9B68
100
AcDbXrecord
280
     1
102
SHADEPLOT
 70
     0
102
SHADEPLOTRESLEVEL
 70
     2
102
SHADEPLOTCUSTOMDPI
 70
   300
  0
XRECORD
  5
9B6B
102
{ACAD_REACTORS
330
9B6A
102
}
330
9B6A
100
AcDbXrecord
280
     1
102
SHADEPLOT
 70
     0
102
SHADEPLOTRESLEVEL
 70
     2
102
SHADEPLOTCUSTOMDPI
 70
   300
  0
XRECORD
  5
9B67
102
{ACAD_REACTORS
330
9B66
102
}
330
9B66
100
AcDbXrecord
280
     1
102
SHADEPLOT
 70
     0
102
SHADEPLOTRESLEVEL
 70
     2
102
SHADEPLOTCUSTOMDPI
 70
   300
  0
ENDSEC
  0
EOF
