  0
SECTION
  2
HEADER
  9
$ACADVER
  1
AC1014
  9
$ACADMAINTVER
 70
     9
  9
$DWGCODEPAGE
  3
ANSI_932
  9
$INSBASE
 10
0.0
 20
0.0
 30
0.0
  9
$EXTMIN
 10
-271.963445331672
 20
-69.00000290734962
 30
-0.00000001
  9
$EXTMAX
 10
54.34080559685923
 20
30.70000290734768
 30
0.00000001
  9
$LIMMIN
 10
-279.2264051492617
 20
-105.9411637579787
  9
$LIMMAX
 10
67.48457962804434
 20
99.68201624727852
  9
$ORTHOMODE
 70
     0
  9
$REGENMODE
 70
     1
  9
$FILLMODE
 70
     1
  9
$QTEXTMODE
 70
     0
  9
$MIRRTEXT
 70
     0
  9
$DRAGMODE
 70
     2
  9
$LTSCALE
 40
1.0
  9
$OSMODE
 70
    55
  9
$ATTMODE
 70
     1
  9
$TEXTSIZE
 40
2.5
  9
$TRACEWID
 40
1.0
  9
$TEXTSTYLE
  7
STANDARD
  9
$CLAYER
  8
AM_0
  9
$CELTYPE
  6
BYLAYER
  9
$CECOLOR
 62
   256
  9
$CELTSCALE
 40
1.0
  9
$DELOBJ
 70
     1
  9
$DISPSILH
 70
     0
  9
$DIMSCALE
 40
0.5
  9
$DIMASZ
 40
2.5
  9
$DIMEXO
 40
1.0
  9
$DIMDLI
 40
12.0
  9
$DIMRND
 40
0.0
  9
$DIMDLE
 40
0.0
  9
$DIMEXE
 40
1.0
  9
$DIMTP
 40
0.1
  9
$DIMTM
 40
0.1
  9
$DIMTXT
 40
3.2
  9
$DIMCEN
 40
0.0
  9
$DIMTSZ
 40
0.0
  9
$DIMTOL
 70
     0
  9
$DIMLIM
 70
     0
  9
$DIMTIH
 70
     0
  9
$DIMTOH
 70
     0
  9
$DIMSE1
 70
     0
  9
$DIMSE2
 70
     0
  9
$DIMTAD
 70
     3
  9
$DIMZIN
 70
     8
  9
$DIMBLK
  1
OPEN30
  9
$DIMASO
 70
     1
  9
$DIMSHO
 70
     1
  9
$DIMPOST
  1

  9
$DIMAPOST
  1
"
  9
$DIMALT
 70
     0
  9
$DIMALTD
 70
     2
  9
$DIMALTF
 40
0.0393701
  9
$DIMLFAC
 40
1.0
  9
$DIMTOFL
 70
     1
  9
$DIMTVP
 40
0.0
  9
$DIMTIX
 70
     0
  9
$DIMSOXD
 70
     0
  9
$DIMSAH
 70
     0
  9
$DIMBLK1
  1

  9
$DIMBLK2
  1

  9
$DIMSTYLE
  2
AM_JIS
  9
$DIMCLRD
 70
   256
  9
$DIMCLRE
 70
   256
  9
$DIMCLRT
 70
     2
  9
$DIMTFAC
 40
0.71
  9
$DIMGAP
 40
1.5
  9
$DIMJUST
 70
     0
  9
$DIMSD1
 70
     0
  9
$DIMSD2
 70
     0
  9
$DIMTOLJ
 70
     0
  9
$DIMTZIN
 70
     0
  9
$DIMALTZ
 70
     0
  9
$DIMALTTZ
 70
     0
  9
$DIMFIT
 70
     3
  9
$DIMUPT
 70
     0
  9
$DIMUNIT
 70
     2
  9
$DIMDEC
 70
     3
  9
$DIMTDEC
 70
     3
  9
$DIMALTU
 70
     2
  9
$DIMALTTD
 70
     2
  9
$DIMTXSTY
  7
ASAMI
  9
$DIMAUNIT
 70
     0
  9
$LUNITS
 70
     2
  9
$LUPREC
 70
     2
  9
$SKETCHINC
 40
1.0
  9
$FILLETRAD
 40
0.4
  9
$AUNITS
 70
     0
  9
$AUPREC
 70
     0
  9
$MENU
  1
.
  9
$ELEVATION
 40
0.0
  9
$PELEVATION
 40
0.0
  9
$THICKNESS
 40
0.0
  9
$LIMCHECK
 70
     1
  9
$BLIPMODE
 70
     0
  9
$CHAMFERA
 40
1.0
  9
$CHAMFERB
 40
1.0
  9
$CHAMFERC
 40
20.0
  9
$CHAMFERD
 40
0.0
  9
$SKPOLY
 70
     0
  9
$TDCREATE
 40
2452802.716478761
  9
$TDUPDATE
 40
2453152.409936122
  9
$TDINDWG
 40
0.9252916551
  9
$TDUSRTIMER
 40
0.9252916551
  9
$USRTIMER
 70
     1
  9
$ANGBASE
 50
0.0
  9
$ANGDIR
 70
     0
  9
$PDMODE
 70
     0
  9
$PDSIZE
 40
0.0
  9
$PLINEWID
 40
0.0
  9
$COORDS
 70
     1
  9
$SPLFRAME
 70
     0
  9
$SPLINETYPE
 70
     6
  9
$SPLINESEGS
 70
     8
  9
$ATTDIA
 70
     1
  9
$ATTREQ
 70
     1
  9
$HANDLING
 70
 12289
  9
$HANDSEED
  5
9CB1
  9
$SURFTAB1
 70
     6
  9
$SURFTAB2
 70
     6
  9
$SURFTYPE
 70
     6
  9
$SURFU
 70
     6
  9
$SURFV
 70
     6
  9
$UCSNAME
  2

  9
$UCSORG
 10
-0.0000000000002682
 20
0.000000000000161
 30
0.0
  9
$UCSXDIR
 10
1.0
 20
0.000000000000002
 30
0.0
  9
$UCSYDIR
 10
-0.000000000000002
 20
1.0
 30
0.0
  9
$PUCSNAME
  2

  9
$PUCSORG
 10
0.0
 20
0.0
 30
0.0
  9
$PUCSXDIR
 10
1.0
 20
0.0
 30
0.0
  9
$PUCSYDIR
 10
0.0
 20
1.0
 30
0.0
  9
$USERI1
 70
     0
  9
$USERI2
 70
     0
  9
$USERI3
 70
     0
  9
$USERI4
 70
     0
  9
$USERI5
 70
     0
  9
$USERR1
 40
0.0
  9
$USERR2
 40
0.0
  9
$USERR3
 40
0.0
  9
$USERR4
 40
0.0
  9
$USERR5
 40
0.0
  9
$WORLDVIEW
 70
     1
  9
$SHADEDGE
 70
     3
  9
$SHADEDIF
 70
    70
  9
$TILEMODE
 70
     1
  9
$MAXACTVP
 70
    64
  9
$PINSBASE
 10
0.0
 20
0.0
 30
0.0
  9
$PLIMCHECK
 70
     0
  9
$PEXTMIN
 10
1.000000000000000E+20
 20
1.000000000000000E+20
 30
1.000000000000000E+20
  9
$PEXTMAX
 10
-1.000000000000000E+20
 20
-1.000000000000000E+20
 30
-1.000000000000000E+20
  9
$PLIMMIN
 10
0.0
 20
0.0
  9
$PLIMMAX
 10
841.0
 20
594.0
  9
$UNITMODE
 70
     0
  9
$VISRETAIN
 70
     1
  9
$PLINEGEN
 70
     0
  9
$PSLTSCALE
 70
     0
  9
$TREEDEPTH
 70
  3020
  9
$PICKSTYLE
 70
     0
  9
$CMLSTYLE
  2
STANDARD
  9
$CMLJUST
 70
     0
  9
$CMLSCALE
 40
20.0
  9
$PROXYGRAPHICS
 70
     1
  9
$MEASUREMENT
 70
     1
  0
ENDSEC
  0
SECTION
  2
CLASSES
  0
CLASS
  1
ACDBDICTIONARYWDFLT
  2
AcDbDictionaryWithDefault
  3
AutoCAD 2000
 90
        0
280
     0
281
     0
  0
CLASS
  1
ACDBPLACEHOLDER
  2
AcDbPlaceHolder
  3
AutoCAD 2000
 90
        0
280
     0
281
     0
  0
CLASS
  1
LAYOUT
  2
AcDbLayout
  3
AutoCAD 2000
 90
        0
280
     0
281
     0
  0
CLASS
  1
AMGSETTINGSOBJ
  2
AmgSettingsObj
  3
"AcadM|Product Description: AutoCAD Mechanical 2000|Company: Autodesk"
 90
        0
280
     0
281
     0
  0
CLASS
  1
ACME_DOCUMENT
  2
AcMeDbDoc
  3
AcMeServices
 90
        0
280
     0
281
     0
  0
CLASS
  1
ACMESCOPE
  2
AcMeScope
  3
AcMeServices
 90
        0
280
     0
281
     0
  0
CLASS
  1
ACMECOMMANDHISTORY
  2
AcMeCommandHistory
  3
AcMeServices
 90
        0
280
     0
281
     0
  0
CLASS
  1
DICTIONARYVAR
  2
AcDbDictionaryVar
  3
AutoCAD 2000
 90
        0
280
     0
281
     0
  0
CLASS
  1
ACIMSYSVARMAN
  2
AcImSysVarManager
  3
AcMeServices
 90
        0
280
     0
281
     0
  0
CLASS
  1
ACIMREALSYSVAR
  2
AcImRealSysVar
  3
AcMeServices
 90
        0
280
     0
281
     0
  0
CLASS
  1
ACIMINTSYSVAR
  2
AcImIntSysVar
  3
AcMeServices
 90
        0
280
     0
281
     0
  0
CLASS
  1
ACMEDRAWINGMAN
  2
AcMeDrawingMan
  3
AcMeServices
 90
        0
280
     0
281
     0
  0
CLASS
  1
ACMEVIEW
  2
AcMeView
  3
AcMeServices
 90
        0
280
     0
281
     0
  0
CLASS
  1
ACDBENTITYCACHE
  2
AcMeEntityCache
  3
AcMeServices
 90
        0
280
     0
281
     0
  0
CLASS
  1
GSMANAGER
  2
AcMeGSManager
  3
AcMeServices
 90
        0
280
     0
281
     0
  0
CLASS
  1
AmdtInternalReactor
  2
AmdtInternalReactor
  3
AcMeServices
 90
        0
280
     0
281
     0
  0
CLASS
  1
ACMESTATEMGR
  2
AcMeStateMgr
  3
AcMeServices
 90
        0
280
     0
281
     0
  0
CLASS
  1
ACME_DATABASE
  2
AcMeDbDatabase
  3
AcMeServices
 90
        0
280
     0
281
     0
  0
CLASS
  1
ACRFINSADJUSTERMGR
  2
AcRfInsAdjusterMgr
  3
AcMeServices
 90
        0
280
     0
281
     0
  0
CLASS
  1
ACMDATADICTIONARY
  2
AcmDataDictionary
  3
"AcmSymBB|Product Description: AutoCAD Mechanical 2000|Company: Autodesk"
 90
        0
280
     0
281
     0
  0
CLASS
  1
ACMDATAENTRYBLOCK
  2
AcmDataEntryBlock
  3
"AcmSymBB|Product Description: AutoCAD Mechanical 2000|Company: Autodesk"
 90
        0
280
     0
281
     0
  0
CLASS
  1
AMGOBJPROPCFG
  2
AmgObjPropCfg
  3
"AmgLay|Product Description: AutoCAD Mechanical 2000|Company: Autodesk"
 90
        1
280
     0
281
     0
  0
CLASS
  1
ACAMGFILTERDAT
  2
AcAmgFilterDat
  3
"AcadM|Product Description: AutoCAD Mechanical 2000|Company: Autodesk"
 90
        0
280
     0
281
     0
  0
CLASS
  1
LAYER_INDEX
  2
AcDbLayerIndex
  3
AutoCAD 2000
 90
        0
280
     0
281
     0
  0
CLASS
  1
IDBUFFER
  2
AcDbIdBuffer
  3
AutoCAD 2000
 90
        0
280
     0
281
     0
  0
CLASS
  1
ACIMSTRSYSVAR
  2
AcImStrSysVar
  3
AcMeServices
 90
        0
280
     0
281
     0
  0
CLASS
  1
ACMSTANDARDJIS
  2
AcmStandardJIS
  3
"AcmSymBB|Product Description: AutoCAD Mechanical 2000|Company: Autodesk"
 90
        0
280
     0
281
     0
  0
CLASS
  1
ACMSURFSTANDARDJIS
  2
AcmSurfTextStdJIS
  3
"AcmSymBB|Product Description: AutoCAD Mechanical 2000|Company: Autodesk"
 90
        0
280
     0
281
     0
  0
CLASS
  1
ACMFCFSTANDARDJIS
  2
AcmFCFStdJIS
  3
"AcmSymBB|Product Description: AutoCAD Mechanical 2000|Company: Autodesk"
 90
        0
280
     0
281
     0
  0
CLASS
  1
ACMWELDSTANDARDJIS
  2
AcmWeldingStdJIS
  3
"AcmSymBB|Product Description: AutoCAD Mechanical 2000|Company: Autodesk"
 90
        0
280
     0
281
     0
  0
CLASS
  1
ACMIDSTANDARDJIS
  2
AcmIdStdJIS
  3
"AcmSymBB|Product Description: AutoCAD Mechanical 2000|Company: Autodesk"
 90
        0
280
     0
281
     0
  0
CLASS
  1
ACMDATUMSTANDARDJIS
  2
AcmDatumStdJIS
  3
"AcmSymBB|Product Description: AutoCAD Mechanical 2000|Company: Autodesk"
 90
        0
280
     0
281
     0
  0
CLASS
  1
ACMBOMSTANDARDJIS
  2
AcmBOMStdJIS
  3
"AcmSymBB|Product Description: AutoCAD Mechanical 2000|Company: Autodesk"
 90
        0
280
     0
281
     0
  0
CLASS
  1
ACMSTANDARDANSI
  2
AcmStandardANSI
  3
"AcmSymBB|Product Description: AutoCAD Mechanical 2000|Company: Autodesk"
 90
        0
280
     0
281
     0
  0
CLASS
  1
ACMSURFSTANDARDANSI
  2
AcmSurfTextStdANSI
  3
"AcmSymBB|Product Description: AutoCAD Mechanical 2000|Company: Autodesk"
 90
        0
280
     0
281
     0
  0
CLASS
  1
ACMFCFSTANDARDANSI
  2
AcmFCFStdANSI
  3
"AcmSymBB|Product Description: AutoCAD Mechanical 2000|Company: Autodesk"
 90
        0
280
     0
281
     0
  0
CLASS
  1
ACMWELDSTANDARDANSI
  2
AcmWeldingStdANSI
  3
"AcmSymBB|Product Description: AutoCAD Mechanical 2000|Company: Autodesk"
 90
        0
280
     0
281
     0
  0
CLASS
  1
ACMIDSTANDARDANSI
  2
AcmIdStdANSI
  3
"AcmSymBB|Product Description: AutoCAD Mechanical 2000|Company: Autodesk"
 90
        0
280
     0
281
     0
  0
CLASS
  1
ACMDATUMSTANDARDANSI
  2
AcmDatumStdANSI
  3
"AcmSymBB|Product Description: AutoCAD Mechanical 2000|Company: Autodesk"
 90
        0
280
     0
281
     0
  0
CLASS
  1
ACMBOMSTANDARDANSI
  2
AcmBOMStdANSI
  3
"AcmSymBB|Product Description: AutoCAD Mechanical 2000|Company: Autodesk"
 90
        0
280
     0
281
     0
  0
CLASS
  1
ACMSTANDARDBSI
  2
AcmStandardBSI
  3
"AcmSymBB|Product Description: AutoCAD Mechanical 2000|Company: Autodesk"
 90
        0
280
     0
281
     0
  0
CLASS
  1
ACMSURFSTANDARDBSI
  2
AcmSurfTextStdBSI
  3
"AcmSymBB|Product Description: AutoCAD Mechanical 2000|Company: Autodesk"
 90
        0
280
     0
281
     0
  0
CLASS
  1
ACMFCFSTANDARDBSI
  2
AcmFCFStdBSI
  3
"AcmSymBB|Product Description: AutoCAD Mechanical 2000|Company: Autodesk"
 90
        0
280
     0
281
     0
  0
CLASS
  1
ACMWELDSTANDARDBSI
  2
AcmWeldingStdBSI
  3
"AcmSymBB|Product Description: AutoCAD Mechanical 2000|Company: Autodesk"
 90
        0
280
     0
281
     0
  0
CLASS
  1
ACMIDSTANDARDBSI
  2
AcmIdStdBSI
  3
"AcmSymBB|Product Description: AutoCAD Mechanical 2000|Company: Autodesk"
 90
        0
280
     0
281
     0
  0
CLASS
  1
ACMDATUMSTANDARDBSI
  2
AcmDatumStdBSI
  3
"AcmSymBB|Product Description: AutoCAD Mechanical 2000|Company: Autodesk"
 90
        0
280
     0
281
     0
  0
CLASS
  1
ACMBOMSTANDARDBSI
  2
AcmBOMStdBSI
  3
"AcmSymBB|Product Description: AutoCAD Mechanical 2000|Company: Autodesk"
 90
        0
280
     0
281
     0
  0
CLASS
  1
STDPART2D
  2
AmgStdPart
  3
"AmgStdPart|Product Description: AutoCAD Mechanical 2000|Company: Autodesk"
 90
     1023
280
     0
281
     1
  0
CLASS
  1
PLOTSETTINGS
  2
AcDbPlotSettings
  3
AutoCAD 2000
 90
        0
280
     0
281
     0
  0
CLASS
  1
LONG_TRANSACTION
  2
AcDbLongTransaction
  3
AutoCAD 2000
 90
        0
280
     0
281
     0
  0
CLASS
  1
LWPOLYLINE
  2
AcDbPolyline
  3
AutoCAD 2000
 90
        0
280
     0
281
     1
  0
CLASS
  1
HATCH
  2
AcDbHatch
  3
AutoCAD 2000
 90
        0
280
     0
281
     1
  0
CLASS
  1
XRECORD
  2
AcDbXrecord
  3
AutoCAD 2000
 90
        0
280
     0
281
     0
  0
ENDSEC
  0
SECTION
  2
TABLES
  0
TABLE
  2
VPORT
  5
8
330
0
100
AcDbSymbolTable
 70
     3
  0
VPORT
  5
9C47
330
8
100
AcDbSymbolTableRecord
100
AcDbViewportTableRecord
  2
*ACTIVE
 70
     0
 10
0.0
 20
0.0
 11
1.0
 21
1.0
 12
-108.8072775843754
 22
-15.39850622861695
 13
0.0
 23
0.0
 14
2.5
 24
2.5
 15
10.0
 25
10.0
 16
0.0
 26
0.0
 36
1.0
 17
0.0
 27
0.0
 37
0.0
 40
221.7973550768604
 41
1.56570841889117
 42
50.0
 43
0.0
 44
0.0
 50
0.0
 51
0.0
 71
     0
 72
   100
 73
     1
 74
     3
 75
     0
 76
     0
 77
     0
 78
     0
  0
ENDTAB
  0
TABLE
  2
LTYPE
  5
5
330
0
100
AcDbSymbolTable
 70
    10
  0
LTYPE
  5
14
330
5
100
AcDbSymbolTableRecord
100
AcDbLinetypeTableRecord
  2
BYBLOCK
 70
     0
  3

 72
    65
 73
     0
 40
0.0
  0
LTYPE
  5
15
330
5
100
AcDbSymbolTableRecord
100
AcDbLinetypeTableRecord
  2
BYLAYER
 70
     0
  3

 72
    65
 73
     0
 40
0.0
  0
LTYPE
  5
16
330
5
100
AcDbSymbolTableRecord
100
AcDbLinetypeTableRecord
  2
CONTINUOUS
 70
     0
  3
Solid line
 72
    65
 73
     0
 40
0.0
  0
LTYPE
  5
4B
330
5
100
AcDbSymbolTableRecord
100
AcDbLinetypeTableRecord
  2
AM_ISO02W050
 70
     0
  3
__ __ __ __ __ __ __ __ __ __ __ __ __ __ __
 72
    65
 73
     2
 40
7.5
 49
6.0
 74
     0
 49
-1.5
 74
     0
  0
LTYPE
  5
4C
330
5
100
AcDbSymbolTableRecord
100
AcDbLinetypeTableRecord
  2
AM_ISO08W050
 70
     0
  3
____ . ____ . ____ . ____ . ____ . ____ . ____
 72
    65
 73
     4
 40
18.0
 49
12.0
 74
     0
 49
-1.5
 74
     0
 49
3.0
 74
     0
 49
-1.5
 74
     0
  0
LTYPE
  5
4D
330
5
100
AcDbSymbolTableRecord
100
AcDbLinetypeTableRecord
  2
AM_ISO09W050
 70
     0
  3
_____ . . _____ . . _____ . . ____ .. ____
 72
    65
 73
     6
 40
22.5
 49
12.0
 74
     0
 49
-1.5
 74
     0
 49
3.0
 74
     0
 49
-1.5
 74
     0
 49
3.0
 74
     0
 49
-1.5
 74
     0
  0
LTYPE
  5
4E
330
5
100
AcDbSymbolTableRecord
100
AcDbLinetypeTableRecord
  2
AMCONSTR
 70
     0
  3
_______________________
 72
    65
 73
     2
 40
9999.0
 49
9999.0
 74
     0
 49
0.0
 74
     0
  0
LTYPE
  5
4F
330
5
100
AcDbSymbolTableRecord
100
AcDbLinetypeTableRecord
  2
AM_ISO02W050X2
 70
     0
  3
 _ _ _ _ _ _ _ _ _ _ _ _
 72
    65
 73
     2
 40
3.75
 49
3.0
 74
     0
 49
-0.75
 74
     0
  0
LTYPE
  5
50
330
5
100
AcDbSymbolTableRecord
100
AcDbLinetypeTableRecord
  2
AM_ISO08W050X2
 70
     0
  3
__ . __ . __ . __ . __ . __
 72
    65
 73
     4
 40
9.0
 49
6.0
 74
     0
 49
-0.75
 74
     0
 49
1.5
 74
     0
 49
-0.75
 74
     0
  0
LTYPE
  5
53
330
5
100
AcDbSymbolTableRecord
100
AcDbLinetypeTableRecord
  2
AMZIGZAG
 70
     0
  3
/\/-/\/-/\/-/\/-/\/-/\/
 72
    65
 73
     2
 40
11.00009999999999
 49
0.0001
 74
     4
 75
   135
340
52
 46
0.04
 50
0.0
 44
0.0
 45
0.0
 49
-11.0
 74
     0
  0
LTYPE
  5
166
330
5
100
AcDbSymbolTableRecord
100
AcDbLinetypeTableRecord
  2
ACJISTGL
 70
     0
  3
_ _ _ _ _
 72
    65
 73
     2
 40
3.0
 49
2.0
 74
     0
 49
-1.0
 74
     0
  0
LTYPE
  5
26A
330
5
100
AcDbSymbolTableRecord
100
AcDbLinetypeTableRecord
  2
ACJISTGB
 70
     0
  3
__ . . __ . .
 72
    65
 73
     6
 40
9.0
 49
4.0
 74
     0
 49
-1.0
 74
     0
 49
1.0
 74
     0
 49
-1.0
 74
     0
 49
1.0
 74
     0
 49
-1.0
 74
     0
  0
ENDTAB
  0
TABLE
  2
LAYER
  5
2
330
0
100
AcDbSymbolTable
 70
    12
  0
LAYER
  5
10
330
2
100
AcDbSymbolTableRecord
100
AcDbLayerTableRecord
  2
0
 70
     0
 62
     7
  6
CONTINUOUS
  0
LAYER
  5
3F9
330
2
100
AcDbSymbolTableRecord
100
AcDbLayerTableRecord
  2
AM_0
 70
     0
 62
     7
  6
CONTINUOUS
  0
LAYER
  5
BA4
330
2
100
AcDbSymbolTableRecord
100
AcDbLayerTableRecord
  2
AM_5
 70
     0
 62
     3
  6
CONTINUOUS
  0
LAYER
  5
BA6
330
2
100
AcDbSymbolTableRecord
100
AcDbLayerTableRecord
  2
AM_7
 70
     0
 62
     4
  6
AM_ISO08W050
  0
LAYER
  5
E64
330
2
100
AcDbSymbolTableRecord
100
AcDbLayerTableRecord
  2
AM_6
 70
     0
 62
     2
  6
CONTINUOUS
  0
LAYER
  5
F4D
330
2
100
AcDbSymbolTableRecord
100
AcDbLayerTableRecord
  2
DEFPOINTS
 70
     0
 62
     7
  6
CONTINUOUS
  0
LAYER
  5
2382
330
2
100
AcDbSymbolTableRecord
100
AcDbLayerTableRecord
  2
AM_3
 70
     0
 62
     6
  6
ACJISTGL
  0
LAYER
  5
4E80
330
2
100
AcDbSymbolTableRecord
100
AcDbLayerTableRecord
  2
AM_11
 70
     0
 62
     3
  6
AM_ISO09W050
  0
LAYER
  5
502A
330
2
100
AcDbSymbolTableRecord
100
AcDbLayerTableRecord
  2
PV0001_1
 70
     0
 62
     7
  6
CONTINUOUS
  0
LAYER
  5
78BD
330
2
100
AcDbSymbolTableRecord
100
AcDbLayerTableRecord
  2
2
 70
     0
 62
     7
  6
CONTINUOUS
  0
LAYER
  5
78BE
330
2
100
AcDbSymbolTableRecord
100
AcDbLayerTableRecord
  2
1
 70
     0
 62
     7
  6
CONTINUOUS
  0
LAYER
  5
78BF
330
2
100
AcDbSymbolTableRecord
100
AcDbLayerTableRecord
  2
AM_4
 70
     0
 62
     3
  6
CONTINUOUS
  0
ENDTAB
  0
TABLE
  2
STYLE
  5
3
330
0
100
AcDbSymbolTable
 70
     5
  0
STYLE
  5
11
330
3
100
AcDbSymbolTableRecord
100
AcDbTextStyleTableRecord
  2
STANDARD
 70
     0
 40
0.0
 41
1.0
 50
0.0
 71
     0
 42
2.5
  3
simplex.shx
  4
EXTFONT.SHX
  0
STYLE
  5
52
330
3
100
AcDbSymbolTableRecord
100
AcDbTextStyleTableRecord
  2

 70
     1
 40
0.0
 41
1.0
 50
0.0
 71
     0
 42
2.5
  3
ltypeshp.shx
  4

  0
STYLE
  5
6B
330
3
100
AcDbSymbolTableRecord
100
AcDbTextStyleTableRecord
  2
ASAMI
 70
     0
 40
0.0
 41
1.0
 50
0.0
 71
     0
 42
2.5
  3
simplex.shx
  4
EXTFONT.SHX
  0
STYLE
  5
262
330
3
100
AcDbSymbolTableRecord
100
AcDbTextStyleTableRecord
  2
ACJISTS
 70
     0
 40
1.0
 41
1.0
 50
0.0
 71
     0
 42
2.5
  3
simplex.shx
  4
bigfont.shx
  0
STYLE
  5
269
330
3
100
AcDbSymbolTableRecord
100
AcDbTextStyleTableRecord
  2
ACJISGDT
 70
     0
 40
0.0
 41
1.0
 50
0.0
 71
     0
 42
2.5
  3
amgdtans.shx
  4

  0
ENDTAB
  0
TABLE
  2
VIEW
  5
6
330
0
100
AcDbSymbolTable
 70
     0
  0
ENDTAB
  0
TABLE
  2
UCS
  5
7
330
0
100
AcDbSymbolTable
 70
     0
  0
ENDTAB
  0
TABLE
  2
APPID
  5
9
330
0
100
AcDbSymbolTable
 70
    24
  0
APPID
  5
12
330
9
100
AcDbSymbolTableRecord
100
AcDbRegAppTableRecord
  2
ACAD
 70
     0
  0
APPID
  5
30
330
9
100
AcDbSymbolTableRecord
100
AcDbRegAppTableRecord
  2
MCAD_NO_VIS
 70
     0
  0
APPID
  5
31
330
9
100
AcDbSymbolTableRecord
100
AcDbRegAppTableRecord
  2
ACAD_TEMP_GRAPHIC
 70
     0
  0
APPID
  5
2C2
330
9
100
AcDbSymbolTableRecord
100
AcDbRegAppTableRecord
  2
GENIUS_GENDTOL_13
 70
     0
  0
APPID
  5
339
330
9
100
AcDbSymbolTableRecord
100
AcDbRegAppTableRecord
  2
GENIUS_GENODEF_13
 70
     0
  0
APPID
  5
33A
330
9
100
AcDbSymbolTableRecord
100
AcDbRegAppTableRecord
  2
GENIUS_GENOBJ-N-RSBK_13
 70
     0
  0
APPID
  5
33B
330
9
100
AcDbSymbolTableRecord
100
AcDbRegAppTableRecord
  2
GENIUS_GENOBJ-N-LIB_13
 70
     0
  0
APPID
  5
33C
330
9
100
AcDbSymbolTableRecord
100
AcDbRegAppTableRecord
  2
GENIUS_GENSCALE_13
 70
     0
  0
APPID
  5
378
330
9
100
AcDbSymbolTableRecord
100
AcDbRegAppTableRecord
  2
GENIUS_GENDIMSH_14
 70
     0
  0
APPID
  5
BB0
330
9
100
AcDbSymbolTableRecord
100
AcDbRegAppTableRecord
  2
GENIUS_GENOBJ-N-CEN_13
 70
     0
  0
APPID
  5
BB1
330
9
100
AcDbSymbolTableRecord
100
AcDbRegAppTableRecord
  2
GENIUS_GENFIL_13
 70
     0
  0
APPID
  5
BB2
330
9
100
AcDbSymbolTableRecord
100
AcDbRegAppTableRecord
  2
GENIUS_GENOBJ-N-CHA_13
 70
     0
  0
APPID
  5
1FAF
330
9
100
AcDbSymbolTableRecord
100
AcDbRegAppTableRecord
  2
GENIUS_GENOBJ-N-CRS_13
 70
     0
  0
APPID
  5
1FB0
330
9
100
AcDbSymbolTableRecord
100
AcDbRegAppTableRecord
  2
GENIUS_GENOENT_13
 70
     0
  0
APPID
  5
1FB1
330
9
100
AcDbSymbolTableRecord
100
AcDbRegAppTableRecord
  2
GENIUS_GENOREF_13
 70
     0
  0
APPID
  5
1FB2
330
9
100
AcDbSymbolTableRecord
100
AcDbRegAppTableRecord
  2
GENIUS_GENOLIS_13
 70
     0
  0
APPID
  5
1FB7
330
9
100
AcDbSymbolTableRecord
100
AcDbRegAppTableRecord
  2
GENIUS_GENOBJ-N-FIL_13
 70
     0
  0
APPID
  5
22A8
330
9
100
AcDbSymbolTableRecord
100
AcDbRegAppTableRecord
  2
GEVID1056506048
 70
     0
  0
APPID
  5
22A9
330
9
100
AcDbSymbolTableRecord
100
AcDbRegAppTableRecord
  2
GEVDC
 70
     0
  0
APPID
  5
22AC
330
9
100
AcDbSymbolTableRecord
100
AcDbRegAppTableRecord
  2
GENIUS_GENBH_13
 70
     0
  0
APPID
  5
22B8
330
9
100
AcDbSymbolTableRecord
100
AcDbRegAppTableRecord
  2
GENIUS_GENOBJ-NBEHI-BHF_13
 70
     0
  0
APPID
  5
22BA
330
9
100
AcDbSymbolTableRecord
100
AcDbRegAppTableRecord
  2
GENIUS_GENOBJ-NBEHI-BHB_13
 70
     0
  0
APPID
  5
35C9
330
9
100
AcDbSymbolTableRecord
100
AcDbRegAppTableRecord
  2
GENIUS_GENREC_14
 70
     0
  0
APPID
  5
35CA
330
9
100
AcDbSymbolTableRecord
100
AcDbRegAppTableRecord
  2
GENIUS_GENOBJ-N-REC_13
 70
     0
  0
ENDTAB
  0
TABLE
  2
DIMSTYLE
  5
A
330
0
100
AcDbSymbolTable
 70
    13
  0
DIMSTYLE
105
58
330
A
100
AcDbSymbolTableRecord
100
AcDbDimStyleTableRecord
  2
AM_JIS
 70
     0
  3

  4
"
  5
OPEN30
  6

  7

 40
1.0
 41
2.5
 42
1.0
 43
12.0
 44
1.0
 45
0.0
 46
0.0
 47
0.1
 48
0.1
140
3.2
141
0.0
142
0.0
143
0.0393701
144
1.0
145
0.0
146
0.71
147
1.5
 71
     0
 72
     0
 73
     0
 74
     0
 75
     0
 76
     0
 77
     3
 78
     8
170
     0
171
     2
172
     1
173
     0
174
     0
175
     0
176
   256
177
   256
178
     2
270
     2
271
     3
272
     3
273
     2
274
     2
340
6B
275
     0
280
     0
281
     0
282
     0
283
     0
284
     0
285
     0
286
     0
287
     3
288
     0
  0
DIMSTYLE
105
5F
330
A
100
AcDbSymbolTableRecord
100
AcDbDimStyleTableRecord
  2
AM_JIS$3
 70
     0
  3

  4
"
  5
OPEN30
  6

  7

 40
1.0
 41
2.5
 42
1.0
 43
10.0
 44
1.0
 45
0.0
 46
0.0
 47
0.1
 48
0.1
140
3.2
141
0.0
142
0.0
143
0.0393701
144
1.0
145
0.0
146
0.71
147
1.5
 71
     0
 72
     0
 73
     0
 74
     1
 75
     0
 76
     0
 77
     3
 78
     8
170
     0
171
     2
172
     0
173
     0
174
     0
175
     0
176
   256
177
   256
178
     2
270
     2
271
     2
272
     3
273
     2
274
     2
340
6B
275
     0
280
     0
281
     0
282
     0
283
     0
284
     0
285
     0
286
     0
287
     0
288
     1
  0
DIMSTYLE
105
60
330
A
100
AcDbSymbolTableRecord
100
AcDbDimStyleTableRecord
  2
AM_JIS$4
 70
     0
  3

  4
"
  5
OPEN30
  6

  7

 40
1.0
 41
2.5
 42
1.0
 43
10.0
 44
1.0
 45
0.0
 46
0.0
 47
0.1
 48
0.1
140
3.2
141
0.0
142
0.0
143
0.0393701
144
1.0
145
0.0
146
0.71
147
1.5
 71
     0
 72
     0
 73
     0
 74
     1
 75
     0
 76
     0
 77
     3
 78
     8
170
     0
171
     2
172
     0
173
     0
174
     0
175
     0
176
   256
177
   256
178
     2
270
     2
271
     2
272
     3
273
     2
274
     2
340
6B
275
     0
280
     0
281
     0
282
     0
283
     0
284
     0
285
     0
286
     0
287
     0
288
     1
  0
DIMSTYLE
105
61
330
A
100
AcDbSymbolTableRecord
100
AcDbDimStyleTableRecord
  2
AM_JIS$6
 70
     0
  3

  4
"
  5
OPEN30
  6

  7

 40
1.0
 41
2.5
 42
1.0
 43
10.0
 44
1.0
 45
0.0
 46
0.0
 47
0.1
 48
0.1
140
3.2
141
0.0
142
0.0
143
0.0393701
144
1.0
145
0.0
146
0.71
147
1.5
 71
     0
 72
     0
 73
     0
 74
     0
 75
     0
 76
     0
 77
     0
 78
     8
170
     0
171
     2
172
     1
173
     0
174
     0
175
     0
176
   256
177
   256
178
     2
270
     2
271
     2
272
     2
273
     2
274
     2
340
6B
275
     0
280
     0
281
     0
282
     0
283
     0
284
     0
285
     0
286
     0
287
     3
288
     0
  0
DIMSTYLE
105
62
330
A
100
AcDbSymbolTableRecord
100
AcDbDimStyleTableRecord
  2
AM_JIS$7
 70
     0
  3

  4
"
  5
OPEN30
  6

  7

 40
1.0
 41
2.5
 42
1.0
 43
10.0
 44
1.0
 45
0.0
 46
0.0
 47
0.1
 48
0.1
140
3.2
141
0.0
142
0.0
143
0.0393701
144
1.0
145
0.0
146
0.71
147
1.5
 71
     0
 72
     0
 73
     0
 74
     0
 75
     0
 76
     0
 77
     3
 78
     8
170
     0
171
     2
172
     1
173
     0
174
     0
175
     0
176
   256
177
   256
178
     2
270
     2
271
     2
272
     3
273
     2
274
     2
340
6B
275
     0
280
     0
281
     0
282
     0
283
     0
284
     0
285
     0
286
     0
287
     3
288
     0
  0
DIMSTYLE
105
63
330
A
100
AcDbSymbolTableRecord
100
AcDbDimStyleTableRecord
  2
AM_JIS$SF
 70
     0
  3

  4
"
  5
OPEN30
  6

  7

 40
1.0
 41
2.5
 42
1.0
 43
10.0
 44
1.0
 45
0.0
 46
0.0
 47
0.1
 48
0.1
140
3.2
141
0.0
142
0.0
143
0.0393701
144
1.0
145
0.0
146
0.71
147
1.5
 71
     0
 72
     0
 73
     0
 74
     0
 75
     1
 76
     1
 77
     3
 78
     8
170
     0
171
     2
172
     1
173
     0
174
     0
175
     0
176
   256
177
   256
178
     2
270
     2
271
     2
272
     2
273
     2
274
     2
340
6B
275
     0
280
     0
281
     0
282
     0
283
     0
284
     0
285
     0
286
     0
287
     3
288
     0
  0
DIMSTYLE
105
68
330
A
100
AcDbSymbolTableRecord
100
AcDbDimStyleTableRecord
  2
AM_JIS$SH
 70
     0
  3

  4
"
  5

  6
GENAXEH
  7
OPEN30
 40
1.0
 41
2.5
 42
1.0
 43
10.0
 44
1.0
 45
0.0
 46
0.0
 47
0.1
 48
0.1
140
3.2
141
0.0
142
0.0
143
0.0393701
144
2.0
145
0.0
146
0.71
147
1.5
 71
     0
 72
     0
 73
     0
 74
     0
 75
     1
 76
     1
 77
     3
 78
     8
170
     0
171
     2
172
     1
173
     1
174
     0
175
     0
176
   256
177
   256
178
     2
270
     2
271
     2
272
     2
273
     2
274
     2
340
6B
275
     0
280
     0
281
     0
282
     0
283
     0
284
     0
285
     0
286
     0
287
     3
288
     0
  0
DIMSTYLE
105
B34
330
A
100
AcDbSymbolTableRecord
100
AcDbDimStyleTableRecord
  2
AM_JIS$2
 70
     0
  3

  4
"
  5
OPEN30
  6

  7

 40
1.0
 41
2.5
 42
1.0
 43
12.0
 44
1.0
 45
0.0
 46
0.0
 47
0.1
 48
0.1
140
3.2
141
0.0
142
0.0
143
0.0393701
144
1.0
145
0.0
146
0.71
147
1.5
 71
     0
 72
     0
 73
     0
 74
     0
 75
     0
 76
     0
 77
     3
 78
     8
170
     0
171
     2
172
     1
173
     0
174
     0
175
     0
176
   256
177
   256
178
     2
270
     2
271
     3
272
     3
273
     2
274
     2
340
6B
275
     0
280
     0
281
     0
282
     0
283
     0
284
     0
285
     0
286
     0
287
     3
288
     0
  0
DIMSTYLE
105
3B48
102
{ACAD_REACTORS
330
97F6
330
96AE
330
9619
330
957B
330
94E6
330
974C
330
9451
102
}
330
A
100
AcDbSymbolTableRecord
100
AcDbDimStyleTableRecord
  2
AM_JIS$0
 70
     0
  3

  4
"
  5
OPEN30
  6

  7

 40
1.0
 41
2.5
 42
0.0
 43
10.0
 44
1.0
 45
0.0
 46
0.0
 47
0.1
 48
0.1000000001
140
3.799999999999999
141
0.0
142
0.0
143
0.0393701
144
1.0
145
0.0
146
0.71
147
1.5
 71
     0
 72
     0
 73
     0
 74
     0
 75
     0
 76
     0
 77
     3
 78
     1
170
     0
171
     2
172
     1
173
     0
174
     0
175
     0
176
     3
177
     3
178
     2
270
     2
271
     2
272
     2
273
     2
274
     2
340
11
275
     1
280
     0
281
     0
282
     0
283
     0
284
     8
285
     0
286
     0
287
     0
288
     0
  0
DIMSTYLE
105
502B
330
A
100
AcDbSymbolTableRecord
100
AcDbDimStyleTableRecord
  2
AM_JISORG-1P0$2
 70
     0
  3

  4
"
  5
OPEN30
  6

  7

 40
1.0
 41
2.5
 42
0.0
 43
10.0
 44
1.0
 45
0.0
 46
0.0
 47
0.1
 48
0.1000000001
140
3.799999999999999
141
0.0
142
0.0
143
0.0393701
144
-1.000000047579403
145
0.0
146
0.71
147
1.5
 71
     0
 72
     0
 73
     0
 74
     0
 75
     0
 76
     0
 77
     3
 78
     1
170
     0
171
     2
172
     1
173
     0
174
     0
175
     0
176
     3
177
     3
178
     2
270
     2
271
     2
272
     2
273
     2
274
     2
340
11
275
     1
280
     0
281
     0
282
     0
283
     0
284
     8
285
     0
286
     0
287
     0
288
     0
  0
DIMSTYLE
105
502C
330
A
100
AcDbSymbolTableRecord
100
AcDbDimStyleTableRecord
  2
AM_JISORG0P5$0
 70
     0
  3

  4
"
  5
OPEN30
  6

  7

 40
1.0
 41
2.5
 42
0.0
 43
10.0
 44
1.0
 45
0.0
 46
0.0
 47
0.1
 48
0.1000000001
140
3.799999999999999
141
0.0
142
0.0
143
0.0393701
144
0.5000003785514306
145
0.0
146
0.71
147
1.5
 71
     0
 72
     0
 73
     0
 74
     0
 75
     0
 76
     0
 77
     3
 78
     1
170
     0
171
     2
172
     1
173
     0
174
     0
175
     0
176
     3
177
     3
178
     2
270
     2
271
     2
272
     2
273
     2
274
     2
340
11
275
     1
280
     0
281
     0
282
     0
283
     0
284
     8
285
     0
286
     0
287
     0
288
     0
  0
DIMSTYLE
105
502D
330
A
100
AcDbSymbolTableRecord
100
AcDbDimStyleTableRecord
  2
AM_JISORG0P2$4
 70
     0
  3

  4
"
  5
OPEN30
  6

  7

 40
1.0
 41
2.5
 42
0.0
 43
10.0
 44
1.0
 45
0.0
 46
0.0
 47
0.1
 48
0.1000000001
140
3.799999999999999
141
0.0
142
0.0
143
0.0393701
144
0.2
145
0.0
146
0.71
147
1.5
 71
     0
 72
     0
 73
     0
 74
     0
 75
     0
 76
     0
 77
     3
 78
     1
170
     0
171
     2
172
     1
173
     0
174
     0
175
     0
176
     3
177
     3
178
     2
270
     2
271
     2
272
     2
273
     2
274
     2
340
11
275
     1
280
     0
281
     0
282
     0
283
     0
284
     8
285
     0
286
     0
287
     0
288
     1
  0
DIMSTYLE
105
78C0
330
A
100
AcDbSymbolTableRecord
100
AcDbDimStyleTableRecord
  2
AM_ISO
 70
     0
  3

  4
"
  5

  6

  7

 40
1.0
 41
2.5
 42
1.0
 43
10.0
 44
1.0
 45
0.0
 46
0.0
 47
0.1
 48
0.1
140
3.5
141
0.0
142
0.0
143
0.0393701
144
1.0
145
0.0
146
0.71
147
1.5
 71
     0
 72
     0
 73
     0
 74
     0
 75
     0
 76
     0
 77
     1
 78
     8
170
     0
171
     2
172
     1
173
     0
174
     0
175
     0
176
   256
177
   256
178
     2
270
     2
271
     2
272
     3
273
     2
274
     4
340
11
275
     0
280
     0
281
     0
282
     0
283
     0
284
     8
285
     0
286
     0
287
     3
288
     0
  0
ENDTAB
  0
TABLE
  2
BLOCK_RECORD
  5
1
330
0
100
AcDbSymbolTable
 70
    12
  0
BLOCK_RECORD
  5
1F
102
{ACAD_XDICTIONARY
360
74
102
}
330
1
100
AcDbSymbolTableRecord
100
AcDbBlockTableRecord
  2
*MODEL_SPACE
  0
BLOCK_RECORD
  5
101
102
{ACAD_XDICTIONARY
360
9C70
102
}
330
1
100
AcDbSymbolTableRecord
100
AcDbBlockTableRecord
  2
*PAPER_SPACE
  0
BLOCK_RECORD
  5
59
330
1
100
AcDbSymbolTableRecord
100
AcDbBlockTableRecord
  2
_OPEN30
  0
BLOCK_RECORD
  5
64
330
1
100
AcDbSymbolTableRecord
100
AcDbBlockTableRecord
  2
GENAXEH
  0
BLOCK_RECORD
  5
9452
330
1
100
AcDbSymbolTableRecord
100
AcDbBlockTableRecord
  2
*D5
  0
BLOCK_RECORD
  5
94E7
330
1
100
AcDbSymbolTableRecord
100
AcDbBlockTableRecord
  2
*D6
  0
BLOCK_RECORD
  5
957C
330
1
100
AcDbSymbolTableRecord
100
AcDbBlockTableRecord
  2
*D7
  0
BLOCK_RECORD
  5
961A
330
1
100
AcDbSymbolTableRecord
100
AcDbBlockTableRecord
  2
*D8
  0
BLOCK_RECORD
  5
96AF
330
1
100
AcDbSymbolTableRecord
100
AcDbBlockTableRecord
  2
*D9
  0
BLOCK_RECORD
  5
974D
330
1
100
AcDbSymbolTableRecord
100
AcDbBlockTableRecord
  2
*D10
  0
BLOCK_RECORD
  5
97F7
330
1
100
AcDbSymbolTableRecord
100
AcDbBlockTableRecord
  2
*D11
  0
ENDTAB
  0
ENDSEC
  0
SECTION
  2
BLOCKS
  0
BLOCK
  5
20
330
1F
100
AcDbEntity
  8
0
100
AcDbBlockBegin
  2
*MODEL_SPACE
 70
     0
 10
0.0
 20
0.0
 30
0.0
  3
*MODEL_SPACE
  1

  0
ENDBLK
  5
21
330
1F
100
AcDbEntity
  8
0
100
AcDbBlockEnd
  0
BLOCK
  5
103
330
101
100
AcDbEntity
 67
     1
  8
0
100
AcDbBlockBegin
  2
*PAPER_SPACE
 70
     0
 10
0.0
 20
0.0
 30
0.0
  3
*PAPER_SPACE
  1

  0
ENDBLK
  5
104
330
101
100
AcDbEntity
 67
     1
  8
0
100
AcDbBlockEnd
  0
BLOCK
  5
5D
330
59
100
AcDbEntity
  8
0
100
AcDbBlockBegin
  2
_OPEN30
 70
     0
 10
0.0
 20
0.0
 30
0.0
  3
_OPEN30
  1

  0
LINE
  5
5A
330
59
100
AcDbEntity
  8
0
 62
     0
100
AcDbLine
 10
-1.0
 20
0.26794919
 30
0.0
 11
0.0
 21
0.0
 31
0.0
  0
LINE
  5
5B
330
59
100
AcDbEntity
  8
0
 62
     0
100
AcDbLine
 10
0.0
 20
0.0
 30
0.0
 11
-1.0
 21
-0.26794919
 31
0.0
  0
LINE
  5
5C
330
59
100
AcDbEntity
  8
0
 62
     0
100
AcDbLine
 10
0.0
 20
0.0
 30
0.0
 11
-1.0
 21
0.0
 31
0.0
  0
ENDBLK
  5
5E
330
59
100
AcDbEntity
  8
0
100
AcDbBlockEnd
  0
BLOCK
  5
66
330
64
100
AcDbEntity
  8
0
100
AcDbBlockBegin
  2
GENAXEH
 70
     0
 10
0.0
 20
0.0
 30
0.0
  3
GENAXEH
  1

  0
LINE
  5
65
330
64
100
AcDbEntity
  8
0
100
AcDbLine
 10
-1.0
 20
0.0
 30
0.0
 11
1.0
 21
0.0
 31
0.0
  0
ENDBLK
  5
67
330
64
100
AcDbEntity
  8
0
100
AcDbBlockEnd
  0
BLOCK
  5
945C
330
9452
100
AcDbEntity
  8
0
100
AcDbBlockBegin
  2
*D5
 70
     1
 10
0.0
 20
0.0
 30
0.0
  3
*D5
  1

  0
LINE
  5
9C72
330
9452
100
AcDbEntity
  8
AM_5
100
AcDbLine
 10
-32.0000000000003
 20
10.99999809265101
 30
0.0
 11
-32.00000000000031
 21
27.50000290734766
 31
0.0
  0
LINE
  5
9C73
330
9452
100
AcDbEntity
  8
AM_5
100
AcDbLine
 10
-0.0000000000002702
 20
1.000000000000184
 30
0.0
 11
-0.0000000000002751
 21
27.50000290734767
 31
0.0
  0
LINE
  5
9C74
330
9452
100
AcDbEntity
  8
AM_5
100
AcDbLine
 10
-29.50000000000031
 20
26.50000290734766
 30
0.0
 11
-2.500000000000274
 21
26.50000290734767
 31
0.0
  0
INSERT
  5
9C75
330
9452
100
AcDbEntity
  8
AM_5
100
AcDbBlockReference
  2
_OPEN30
 10
-32.00000000000031
 20
26.50000290734766
 30
0.0
 41
2.5
 42
2.5
 43
2.5
 50
180.0
  0
INSERT
  5
9C76
330
9452
100
AcDbEntity
  8
AM_5
100
AcDbBlockReference
  2
_OPEN30
 10
-0.0000000000002749
 20
26.50000290734767
 30
0.0
 41
2.5
 42
2.5
 43
2.5
  0
MTEXT
  5
9C77
330
9452
100
AcDbEntity
  8
AM_5
 62
     2
100
AcDbMText
 10
-16.00000000000029
 20
29.10000290734767
 30
0.0
 40
3.2
 41
0.0
 71
     5
 72
     1
  1
30
  7
ASAMI
  0
POINT
  5
9C78
330
9452
100
AcDbEntity
  8
DEFPOINTS
 62
     0
100
AcDbPoint
 10
-32.00000000000029
 20
9.999998092651082
 30
0.0
  0
POINT
  5
9C79
330
9452
100
AcDbEntity
  8
DEFPOINTS
 62
     0
100
AcDbPoint
 10
-0.00000000000027
 20
0.0000000000001847
 30
0.0
  0
POINT
  5
9C7A
330
9452
100
AcDbEntity
  8
DEFPOINTS
 62
     0
100
AcDbPoint
 10
-0.0000000000002213
 20
26.50000290734767
 30
0.0
  0
ENDBLK
  5
945D
330
9452
100
AcDbEntity
  8
0
100
AcDbBlockEnd
  0
BLOCK
  5
94F1
330
94E7
100
AcDbEntity
  8
0
100
AcDbBlockBegin
  2
*D6
 70
     1
 10
0.0
 20
0.0
 30
0.0
  3
*D6
  1

  0
LINE
  5
9C7B
330
94E7
100
AcDbEntity
  8
AM_5
100
AcDbLine
 10
-40.01629638672022
 20
-9.999999999999982
 30
0.0
 11
-40.01629638672018
 21
-27.5000029073494
 31
0.0
  0
LINE
  5
9C7C
330
94E7
100
AcDbEntity
  8
AM_5
100
AcDbLine
 10
-0.0000000000002752
 20
-0.9999999999998152
 30
0.0
 11
-0.0000000000002232
 21
-27.50000290734931
 31
0.0
  0
LINE
  5
9C7D
330
94E7
100
AcDbEntity
  8
AM_5
100
AcDbLine
 10
-37.51629638672018
 20
-26.50000290734939
 30
0.0
 11
-2.500000000000225
 21
-26.50000290734932
 31
0.0
  0
INSERT
  5
9C7E
330
94E7
100
AcDbEntity
  8
AM_5
100
AcDbBlockReference
  2
_OPEN30
 10
-40.01629638672018
 20
-26.5000029073494
 30
0.0
 41
2.5
 42
2.5
 43
2.5
 50
180.0000000000001
  0
INSERT
  5
9C7F
330
94E7
100
AcDbEntity
  8
AM_5
100
AcDbBlockReference
  2
_OPEN30
 10
-0.0000000000002252
 20
-26.50000290734931
 30
0.0
 41
2.5
 42
2.5
 43
2.5
 50
0.0000000000001018
  0
MTEXT
  5
9C80
330
94E7
100
AcDbEntity
  8
AM_5
 62
     2
100
AcDbMText
 10
-20.0081481933602
 20
-23.90000290734935
 30
0.0
 40
3.2
 41
0.0
 71
     5
 72
     1
  1
40
  7
ASAMI
  0
POINT
  5
9C81
330
94E7
100
AcDbEntity
  8
DEFPOINTS
 62
     0
100
AcDbPoint
 10
-40.01629638672024
 20
-8.9999999999999
 30
0.0
  0
POINT
  5
9C82
330
94E7
100
AcDbEntity
  8
DEFPOINTS
 62
     0
100
AcDbPoint
 10
-0.0000000000002771
 20
0.0000000000001847
 30
0.0
  0
POINT
  5
9C83
330
94E7
100
AcDbEntity
  8
DEFPOINTS
 62
     0
100
AcDbPoint
 10
-0.0000000000002787
 20
-26.50000290734931
 30
0.0
  0
ENDBLK
  5
94F2
330
94E7
100
AcDbEntity
  8
0
100
AcDbBlockEnd
  0
BLOCK
  5
9586
330
957C
100
AcDbEntity
  8
0
100
AcDbBlockBegin
  2
*D7
 70
     1
 10
0.0
 20
0.0
 30
0.0
  3
*D7
  1

  0
LINE
  5
9C84
330
957C
100
AcDbEntity
  8
AM_5
100
AcDbLine
 10
-0.0000000000002752
 20
-0.9999999999998152
 30
0.0
 11
-0.0000000000002036
 21
-37.50000290734931
 31
0.0
  0
LINE
  5
9C85
330
957C
100
AcDbEntity
  8
AM_5
100
AcDbLine
 10
-80.00000000000019
 20
-13.50000000000014
 30
0.0
 11
-80.00000000000015
 21
-37.50000290734947
 31
0.0
  0
LINE
  5
9C86
330
957C
100
AcDbEntity
  8
AM_5
100
AcDbLine
 10
-2.500000000000205
 20
-36.50000290734932
 30
0.0
 11
-77.50000000000015
 21
-36.50000290734947
 31
0.0
  0
INSERT
  5
9C87
330
957C
100
AcDbEntity
  8
AM_5
100
AcDbBlockReference
  2
_OPEN30
 10
-0.0000000000002056
 20
-36.50000290734931
 30
0.0
 41
2.5
 42
2.5
 43
2.5
 50
0.0000000000001018
  0
INSERT
  5
9C88
330
957C
100
AcDbEntity
  8
AM_5
100
AcDbBlockReference
  2
_OPEN30
 10
-80.00000000000015
 20
-36.50000290734947
 30
0.0
 41
2.5
 42
2.5
 43
2.5
 50
180.0000000000001
  0
MTEXT
  5
9C89
330
957C
100
AcDbEntity
  8
AM_5
 62
     2
100
AcDbMText
 10
-40.00000000000018
 20
-33.90000290734938
 30
0.0
 40
3.2
 41
0.0
 71
     5
 72
     1
  1
80
  7
ASAMI
  0
POINT
  5
9C8A
330
957C
100
AcDbEntity
  8
DEFPOINTS
 62
     0
100
AcDbPoint
 10
-0.0000000000002771
 20
0.0000000000001847
 30
0.0
  0
POINT
  5
9C8B
330
957C
100
AcDbEntity
  8
DEFPOINTS
 62
     0
100
AcDbPoint
 10
-80.00000000000023
 20
-12.49999999999998
 30
0.0
  0
POINT
  5
9C8C
330
957C
100
AcDbEntity
  8
DEFPOINTS
 62
     0
100
AcDbPoint
 10
-80.00000000000023
 20
-36.50000290734931
 30
0.0
  0
ENDBLK
  5
9587
330
957C
100
AcDbEntity
  8
0
100
AcDbBlockEnd
  0
BLOCK
  5
9624
330
961A
100
AcDbEntity
  8
0
100
AcDbBlockBegin
  2
*D8
 70
     1
 10
0.0
 20
0.0
 30
0.0
  3
*D8
  1

  0
LINE
  5
9C8D
330
961A
100
AcDbEntity
  8
AM_5
100
AcDbLine
 10
-0.0000000000002752
 20
-0.9999999999998152
 30
0.0
 11
-0.000000000000184
 21
-47.50000290734931
 31
0.0
  0
LINE
  5
9C8E
330
961A
100
AcDbEntity
  8
AM_5
100
AcDbLine
 10
-250.0000000000001
 20
-11.16149932543042
 30
0.0
 11
-250.0000000000001
 21
-47.50000290734981
 31
0.0
  0
LINE
  5
9C8F
330
961A
100
AcDbEntity
  8
AM_5
100
AcDbLine
 10
-2.500000000000185
 20
-46.50000290734932
 30
0.0
 11
-247.5
 21
-46.50000290734981
 31
0.0
  0
INSERT
  5
9C90
330
961A
100
AcDbEntity
  8
AM_5
100
AcDbBlockReference
  2
_OPEN30
 10
-0.000000000000186
 20
-46.50000290734931
 30
0.0
 41
2.5
 42
2.5
 43
2.5
 50
0.0000000000001018
  0
INSERT
  5
9C91
330
961A
100
AcDbEntity
  8
AM_5
100
AcDbBlockReference
  2
_OPEN30
 10
-250.0000000000001
 20
-46.50000290734982
 30
0.0
 41
2.5
 42
2.5
 43
2.5
 50
180.0000000000001
  0
MTEXT
  5
9C92
330
961A
100
AcDbEntity
  8
AM_5
 62
     2
100
AcDbMText
 10
-125.0000000000001
 20
-43.90000290734956
 30
0.0
 40
3.2
 41
0.0
 71
     5
 72
     1
  1
250
  7
ASAMI
  0
POINT
  5
9C93
330
961A
100
AcDbEntity
  8
DEFPOINTS
 62
     0
100
AcDbPoint
 10
-0.0000000000002771
 20
0.0000000000001847
 30
0.0
  0
POINT
  5
9C94
330
961A
100
AcDbEntity
  8
DEFPOINTS
 62
     0
100
AcDbPoint
 10
-250.0000000000002
 20
-10.16149932542991
 30
0.0
  0
POINT
  5
9C95
330
961A
100
AcDbEntity
  8
DEFPOINTS
 62
     0
100
AcDbPoint
 10
-250.0000000000002
 20
-46.50000290734931
 30
0.0
  0
ENDBLK
  5
9625
330
961A
100
AcDbEntity
  8
0
100
AcDbBlockEnd
  0
BLOCK
  5
96B9
330
96AF
100
AcDbEntity
  8
0
100
AcDbBlockBegin
  2
*D9
 70
     1
 10
0.0
 20
0.0
 30
0.0
  3
*D9
  1

  0
LINE
  5
9C96
330
96AF
100
AcDbEntity
  8
AM_5
100
AcDbLine
 10
-250.0000000000001
 20
-11.16149932543042
 30
0.0
 11
-250.0000000000001
 21
-37.50000290734981
 31
0.0
  0
LINE
  5
9C97
330
96AF
100
AcDbEntity
  8
AM_5
100
AcDbLine
 10
-80.00000038978871
 20
-13.50000124601655
 30
0.0
 11
-80.00000038978866
 21
-37.50000290734947
 31
0.0
  0
LINE
  5
9C98
330
96AF
100
AcDbEntity
  8
AM_5
100
AcDbLine
 10
-247.5
 20
-36.50000290734981
 30
0.0
 11
-82.50000038978866
 21
-36.50000290734947
 31
0.0
  0
INSERT
  5
9C99
330
96AF
100
AcDbEntity
  8
AM_5
100
AcDbBlockReference
  2
_OPEN30
 10
-250.0000000000001
 20
-36.50000290734981
 30
0.0
 41
2.5
 42
2.5
 43
2.5
 50
180.0000000000001
  0
INSERT
  5
9C9A
330
96AF
100
AcDbEntity
  8
AM_5
100
AcDbBlockReference
  2
_OPEN30
 10
-80.00000038978866
 20
-36.50000290734947
 30
0.0
 41
2.5
 42
2.5
 43
2.5
 50
0.0000000000001018
  0
MTEXT
  5
9C9B
330
96AF
100
AcDbEntity
  8
AM_5
 62
     2
100
AcDbMText
 10
-165.0000001948944
 20
-33.90000290734964
 30
0.0
 40
3.2
 41
0.0
 71
     5
 72
     1
  1
170
  7
ASAMI
  0
POINT
  5
9C9C
330
96AF
100
AcDbEntity
  8
DEFPOINTS
 62
     0
100
AcDbPoint
 10
-250.0000000000002
 20
-10.16149932542991
 30
0.0
  0
POINT
  5
9C9D
330
96AF
100
AcDbEntity
  8
DEFPOINTS
 62
     0
100
AcDbPoint
 10
-80.00000038978873
 20
-12.50000124601639
 30
0.0
  0
POINT
  5
9C9E
330
96AF
100
AcDbEntity
  8
DEFPOINTS
 62
     0
100
AcDbPoint
 10
-80.00000038978873
 20
-36.50000290734931
 30
0.0
  0
ENDBLK
  5
96BA
330
96AF
100
AcDbEntity
  8
0
100
AcDbBlockEnd
  0
BLOCK
  5
9757
330
974D
100
AcDbEntity
  8
0
100
AcDbBlockBegin
  2
*D10
 70
     1
 10
0.0
 20
0.0
 30
0.0
  3
*D10
  1

  0
LINE
  5
9C9F
330
974D
100
AcDbEntity
  8
AM_5
100
AcDbLine
 10
-9.000000437114813
 20
10.0000000000001
 30
0.0
 11
17.63906960350971
 21
10.00000000000015
 31
0.0
  0
LINE
  5
9CA0
330
974D
100
AcDbEntity
  8
AM_5
100
AcDbLine
 10
-9.00000000000022
 20
-9.999999999999877
 30
0.0
 11
17.63906960350974
 21
-9.999999999999825
 31
0.0
  0
LINE
  5
9CA1
330
974D
100
AcDbEntity
  8
AM_5
100
AcDbLine
 10
16.63906960350971
 20
7.500000000000157
 30
0.0
 11
16.63906960350974
 21
-7.499999999999828
 31
0.0
  0
INSERT
  5
9CA2
330
974D
100
AcDbEntity
  8
AM_5
100
AcDbBlockReference
  2
_OPEN30
 10
16.6390696035097
 20
10.00000000000015
 30
0.0
 41
2.5
 42
2.5
 43
2.5
 50
90.0000000000001
  0
INSERT
  5
9CA3
330
974D
100
AcDbEntity
  8
AM_5
100
AcDbBlockReference
  2
_OPEN30
 10
16.63906960350975
 20
-9.999999999999827
 30
0.0
 41
2.5
 42
2.5
 43
2.5
 50
270.0000000000001
  0
MTEXT
  5
9CA4
330
974D
100
AcDbEntity
  8
AM_5
 62
     2
100
AcDbMText
 10
14.03906960350972
 20
0.0000000000001591
 30
0.0
 40
3.2
 41
0.0
 71
     5
 72
     1
  1
%%c20
  7
ASAMI
 11
-0.000000000000002
 21
1.0
 31
0.0
  0
POINT
  5
9CA5
330
974D
100
AcDbEntity
  8
DEFPOINTS
 62
     0
100
AcDbPoint
 10
-10.00000043711479
 20
10.00000000000012
 30
0.0
  0
POINT
  5
9CA6
330
974D
100
AcDbEntity
  8
DEFPOINTS
 62
     0
100
AcDbPoint
 10
-10.00000000000024
 20
-9.999999999999857
 30
0.0
  0
POINT
  5
9CA7
330
974D
100
AcDbEntity
  8
DEFPOINTS
 62
     0
100
AcDbPoint
 10
16.63906960350972
 20
-9.999999999999864
 30
0.0
  0
ENDBLK
  5
9758
330
974D
100
AcDbEntity
  8
0
100
AcDbBlockEnd
  0
BLOCK
  5
9801
330
97F7
100
AcDbEntity
  8
0
100
AcDbBlockBegin
  2
*D11
 70
     1
 10
0.0
 20
0.0
 30
0.0
  3
*D11
  1

  0
LINE
  5
9CA8
330
97F7
100
AcDbEntity
  8
AM_5
100
AcDbLine
 10
-248.0000000000003
 20
12.49999809265013
 30
0.0
 11
-268.763445331672
 21
12.49999809265009
 31
0.0
  0
LINE
  5
9CA9
330
97F7
100
AcDbEntity
  8
AM_5
100
AcDbLine
 10
-248.0000000000002
 20
-12.50000190734986
 30
0.0
 11
-268.763445331672
 21
-12.5000019073499
 31
0.0
  0
LINE
  5
9CAA
330
97F7
100
AcDbEntity
  8
AM_5
100
AcDbLine
 10
-267.763445331672
 20
9.999998092650095
 30
0.0
 11
-267.763445331672
 21
-10.0000019073499
 31
0.0
  0
INSERT
  5
9CAB
330
97F7
100
AcDbEntity
  8
AM_5
100
AcDbBlockReference
  2
_OPEN30
 10
-267.763445331672
 20
12.49999809265009
 30
0.0
 41
2.5
 42
2.5
 43
2.5
 50
90.0000000000001
  0
INSERT
  5
9CAC
330
97F7
100
AcDbEntity
  8
AM_5
100
AcDbBlockReference
  2
_OPEN30
 10
-267.763445331672
 20
-12.5000019073499
 30
0.0
 41
2.5
 42
2.5
 43
2.5
 50
270.0000000000001
  0
MTEXT
  5
9CAD
330
97F7
100
AcDbEntity
  8
AM_5
 62
     2
100
AcDbMText
 10
-270.3634453316721
 20
-0.0000019073498998
 30
0.0
 40
3.2
 41
0.0
 71
     5
 72
     1
  1
%%c25
  7
ASAMI
 11
-0.000000000000002
 21
1.0
 31
0.0
  0
POINT
  5
9CAE
330
97F7
100
AcDbEntity
  8
DEFPOINTS
 62
     0
100
AcDbPoint
 10
-247.0000000000002
 20
12.49999809265068
 30
0.0
  0
POINT
  5
9CAF
330
97F7
100
AcDbEntity
  8
DEFPOINTS
 62
     0
100
AcDbPoint
 10
-247.0000000000002
 20
-12.50000190734931
 30
0.0
  0
POINT
  5
9CB0
330
97F7
100
AcDbEntity
  8
DEFPOINTS
 62
     0
100
AcDbPoint
 10
-267.763445331672
 20
-12.50000190734931
 30
0.0
  0
ENDBLK
  5
9802
330
97F7
100
AcDbEntity
  8
0
100
AcDbBlockEnd
  0
ENDSEC
  0
SECTION
  2
ENTITIES
  0
TEXT
  5
388D
330
1F
100
AcDbEntity
  8
AM_6
100
AcDbText
 10
-148.6904761904762
 20
-69.00000290734952
 30
0.0
 40
5.0
  1
WBMR2200LL
 50
359.9999999999998
 51
359.9999999999998
 72
     4
 11
-125.0000000000001
 21
-66.50000290734957
 31
0.0
100
AcDbText
  0
SPLINE
  5
9133
330
1F
100
AcDbEntity
  8
AM_0
100
AcDbSpline
210
0.0
220
0.0
230
1.0
 70
     8
 71
     3
 72
    11
 73
     7
 74
     5
 42
0.0000000001
 43
0.0000000001
 44
0.0000000001
 40
0.0
 40
0.0
 40
0.0
 40
0.0
 40
0.5719203892231628
 40
1.132620413530782
 40
1.682384955465705
 40
2.22449606942469
 40
2.22449606942469
 40
2.22449606942469
 40
2.22449606942469
 10
-9.872283935550271
 20
2.529815673828139
 30
0.0
 10
-9.699284252620039
 20
2.447016156053988
 30
0.0
 10
-9.356678924827329
 20
2.283041543802641
 30
0.0
 10
-8.792229643544391
 20
2.213617068478342
 30
0.0
 10
-8.236078899749829
 20
2.272787814303923
 30
0.0
 10
-7.904925255759279
 20
2.429287279138098
 30
0.0
 10
-7.740509033210273
 20
2.506988525390156
 30
0.0
 11
-9.872283935550271
 21
2.529815673828139
 31
0.0
 11
-9.34375000000027
 21
2.311309814453153
 31
0.0
 11
-8.78826904297027
 21
2.234985351562144
 31
0.0
 11
-8.24270629883027
 21
2.302825927734147
 31
0.0
 11
-7.740509033210273
 21
2.506988525390156
 31
0.0
  0
SPLINE
  5
9134
330
1F
100
AcDbEntity
  8
AM_0
100
AcDbSpline
210
0.0
220
0.0
230
1.0
 70
     8
 71
     3
 72
    11
 73
     7
 74
     5
 42
0.0000000001
 43
0.0000000001
 44
0.0000000001
 40
0.0
 40
0.0
 40
0.0
 40
0.0
 40
0.1127412520546824
 40
0.2254823223736122
 40
0.338073013362707
 40
0.4502609643591317
 40
0.4502609643591317
 40
0.4502609643591317
 40
0.4502609643591317
 10
-9.950469970710273
 20
6.615415573120145
 30
0.0
 10
-9.982557333082739
 20
6.595837786814568
 30
0.0
 10
-10.04673200610374
 20
6.556682245762258
 30
0.0
 10
-10.1392328675031
 20
6.492223489510875
 30
0.0
 10
-10.22889244325393
 20
6.424162976953057
 30
0.0
 10
-10.28558019792616
 20
6.375142103710214
 30
0.0
 10
-10.31387329102027
 20
6.350675582885145
 30
0.0
 11
-9.950469970710273
 21
6.615415573120145
 31
0.0
 11
-10.04611206055027
 21
6.555723190307134
 31
0.0
 11
-10.13882446289027
 21
6.491575241088128
 31
0.0
 11
-10.22824096680027
 21
6.423154830932134
 31
0.0
 11
-10.31387329102027
 21
6.350675582885145
 31
0.0
  0
SPLINE
  5
9135
330
1F
100
AcDbEntity
  8
AM_0
100
AcDbSpline
210
0.0
220
0.0
230
1.0
 70
     8
 71
     3
 72
    11
 73
     7
 74
     5
 42
0.0000000001
 43
0.0000000001
 44
0.0000000001
 40
0.0
 40
0.0
 40
0.0
 40
0.0
 40
0.4195952686752248
 40
0.8406633133239974
 40
1.262877456579437
 40
1.685749154783368
 40
1.685749154783368
 40
1.685749154783368
 40
1.685749154783368
 10
-7.282012939460273
 20
2.838653564453153
 30
0.0
 10
-7.182415786554848
 20
2.937454606747281
 30
0.0
 10
-6.982871895548971
 20
3.135403482188808
 30
0.0
 10
-6.75815354705484
 20
3.4948709058595
 30
0.0
 10
-6.590953638645171
 20
3.885539504085609
 30
0.0
 10
-6.541317081619358
 20
4.163677387670961
 30
0.0
 10
-6.516479492190271
 20
4.302854537963142
 30
0.0
 11
-7.282012939460273
 21
2.838653564453153
 31
0.0
 11
-6.995666503910271
 21
3.145355224609147
 31
0.0
 11
-6.768005371100272
 21
3.499570846557148
 31
0.0
 11
-6.606506347660271
 21
3.889677047729151
 31
0.0
 11
-6.516479492190271
 21
4.302854537963142
 31
0.0
  0
SPLINE
  5
9136
330
1F
100
AcDbEntity
  8
AM_0
100
AcDbSpline
210
0.0
220
0.0
230
1.0
 70
     8
 71
     3
 72
    11
 73
     7
 74
     5
 42
0.0000000001
 43
0.0000000001
 44
0.0000000001
 40
0.0
 40
0.0
 40
0.0
 40
0.0
 40
0.1379989394486394
 40
0.2786463655689507
 40
0.4217305032008622
 40
0.5668763717692925
 40
0.5668763717692925
 40
0.5668763717692925
 40
0.5668763717692925
 10
-7.740509033210273
 20
2.506988525390156
 30
0.0
 10
-7.700888185750109
 20
2.530383438454054
 30
0.0
 10
-7.620886084359716
 20
2.57762226162257
 30
0.0
 10
-7.505054839009777
 20
2.657439103416871
 30
0.0
 10
-7.39109641892535
 20
2.743892565787403
 30
0.0
 10
-7.318547082903013
 20
2.806916293740771
 30
0.0
 10
-7.282012939460273
 20
2.838653564453153
 30
0.0
 11
-7.740509033210273
 21
2.506988525390156
 31
0.0
 11
-7.622497558600272
 21
2.578521728515156
 31
0.0
 11
-7.50634765625027
 21
2.657836914062144
 31
0.0
 11
-7.392639160160271
 21
2.74468994140615
 31
0.0
 11
-7.282012939460273
 21
2.838653564453153
 31
0.0
  0
SPLINE
  5
9137
330
1F
100
AcDbEntity
  8
AM_0
100
AcDbSpline
210
0.0
220
0.0
230
1.0
 70
     8
 71
     3
 72
    11
 73
     7
 74
     5
 42
0.0000000001
 43
0.0000000001
 44
0.0000000001
 40
0.0
 40
0.0
 40
0.0
 40
0.0
 40
0.1473857864986772
 40
0.2941982966307472
 40
0.4398047266000208
 40
0.5837964593790453
 40
0.5837964593790453
 40
0.5837964593790453
 40
0.5837964593790453
 10
-6.516479492190271
 20
4.302854537963142
 30
0.0
 10
-6.510951486139033
 20
4.351680974064517
 30
0.0
 10
-6.499916975941854
 20
4.449143929433712
 30
0.0
 10
-6.492041991222916
 20
4.595601137537486
 30
0.0
 10
-6.49009568344539
 20
4.741130257690326
 30
0.0
 10
-6.494692945231941
 20
4.837573768964629
 30
0.0
 10
-6.496978759770271
 20
4.885526657104151
 30
0.0
 11
-6.516479492190271
 21
4.302854537963142
 31
0.0
 11
-6.501342773440271
 21
4.449460983276154
 31
0.0
 11
-6.49301147461027
 21
4.596036911010159
 31
0.0
 11
-6.491577148440271
 21
4.741636276245159
 31
0.0
 11
-6.496978759770271
 21
4.885526657104151
 31
0.0
  0
SPLINE
  5
9138
330
1F
100
AcDbEntity
  8
AM_0
100
AcDbSpline
210
0.0
220
0.0
230
1.0
 70
     8
 71
     3
 72
    11
 73
     7
 74
     5
 42
0.0000000001
 43
0.0000000001
 44
0.0000000001
 40
0.0
 40
0.0
 40
0.0
 40
0.0
 40
0.301820453762207
 40
0.6081050498084647
 40
0.9189098690571102
 40
1.231535386133617
 40
1.231535386133617
 40
1.231535386133617
 40
1.231535386133617
 10
-0.7740173339902725
 20
-0.2154846191408382
 30
0.0
 10
-0.6727625615111607
 20
-0.2024967466885716
 30
0.0
 10
-0.4687553854094819
 20
-0.176328901779313
 30
0.0
 10
-0.2134098084119927
 20
0.0117074484424333
 30
0.0
 10
-0.0352835924417095
 20
0.2771097761410711
 30
0.0
 10
-0.0117840738792339
 20
0.486351615972202
 30
0.0
 10
-0.00000000000027
 20
0.5912780761711645
 30
0.0
 11
-0.7740173339902725
 21
-0.2154846191408382
 31
0.0
 11
-0.4788818359402712
 21
-0.1523132324218324
 31
0.0
 11
-0.2277832031302722
 21
0.023071289062159
 31
0.0
 11
-0.059478759770272
 21
0.2843627929681673
 31
0.0
 11
-0.00000000000027
 21
0.5912780761711645
 31
0.0
  0
SPLINE
  5
9139
330
1F
100
AcDbEntity
  8
AM_0
100
AcDbSpline
210
0.0
220
0.0
230
1.0
 70
     8
 71
     3
 72
    11
 73
     7
 74
     5
 42
0.0000000001
 43
0.0000000001
 44
0.0000000001
 40
0.0
 40
0.0
 40
0.0
 40
0.0
 40
0.0045496786191473
 40
0.0081534673623665
 40
0.0105620371267371
 40
0.0121898002279404
 40
0.0121898002279404
 40
0.0121898002279404
 40
0.0121898002279404
 10
-17.74066162110027
 20
7.009855270385131
 30
0.0
 10
-17.74068068951491
 20
7.008327048129779
 30
0.0
 10
-17.74071486197178
 20
7.005588324952933
 30
0.0
 10
-17.741155953142
 20
7.002196781828612
 30
0.0
 10
-17.7418167662554
 20
6.9994768221281
 30
0.0
 10
-17.7431030832072
 20
6.998913152280956
 30
0.0
 10
-17.74362182617027
 20
6.99868583679212
 30
0.0
 11
-17.74066162110027
 21
7.009855270385131
 31
0.0
 11
-17.74081420899027
 21
7.005308151245131
 31
0.0
 11
-17.74130249024027
 21
7.001737594604122
 31
0.0
 11
-17.74221801758027
 21
6.999509811401125
 31
0.0
 11
-17.74362182617027
 21
6.99868583679212
 31
0.0
  0
SPLINE
  5
913A
330
1F
100
AcDbEntity
  8
AM_0
100
AcDbSpline
210
0.0
220
0.0
230
1.0
 70
     8
 71
     3
 72
    11
 73
     7
 74
     5
 42
0.0000000001
 43
0.0000000001
 44
0.0000000001
 40
0.0
 40
0.0
 40
0.0
 40
0.0
 40
0.0072545232351388
 40
0.020366041178272
 40
0.0387919877556163
 40
0.0614794211777568
 40
0.0614794211777568
 40
0.0614794211777568
 40
0.0614794211777568
 10
-17.75994873047027
 20
9.218687057495131
 30
0.0
 10
-17.76072347287583
 20
9.216382852978366
 30
0.0
 10
-17.76289845188172
 20
9.209914126840129
 30
0.0
 10
-17.77109088832834
 20
9.199660177704886
 30
0.0
 10
-17.78213909228039
 20
9.185460773727292
 30
0.0
 10
-17.79086798449166
 20
9.174875943028387
 30
0.0
 10
-17.79568481446027
 20
9.169034957885131
 30
0.0
 11
-17.75994873047027
 21
9.218687057495131
 31
0.0
 11
-17.76254272461027
 21
9.211912155151125
 31
0.0
 11
-17.76992797852027
 21
9.20107841491712
 31
0.0
 11
-17.78134155274027
 21
9.186613082885131
 31
0.0
 11
-17.79568481446027
 21
9.169034957885131
 31
0.0
  0
SPLINE
  5
913B
330
1F
100
AcDbEntity
  8
AM_0
100
AcDbSpline
210
0.0
220
0.0
230
1.0
 70
     8
 71
     3
 72
    11
 73
     7
 74
     5
 42
0.0000000001
 43
0.0000000001
 44
0.0000000001
 40
0.0
 40
0.0
 40
0.0
 40
0.0
 40
0.156422353100508
 40
0.3116084388543081
 40
0.4642054417526098
 40
0.6144842254341194
 40
0.6144842254341194
 40
0.6144842254341194
 40
0.6144842254341194
 10
-0.8739013671902711
 20
-2.554504394531832
 30
0.0
 10
-0.8782756307368567
 20
-2.501853394079777
 30
0.0
 10
-0.8869895863056813
 20
-2.396967514729527
 30
0.0
 10
-0.972135331953309
 20
-2.261971790830566
 30
0.0
 10
-1.096799492423336
 20
-2.16474015468648
 30
0.0
 10
-1.198031774355245
 20
-2.149009807388405
 30
0.0
 10
-1.248260498050271
 20
-2.141204833984829
 30
0.0
 11
-0.8739013671902711
 21
-2.554504394531832
 31
0.0
 11
-0.8992309570302694
 21
-2.400146484374829
 31
0.0
 11
-0.9795532226602716
 21
-2.267364501953835
 31
0.0
 11
-1.102203369140269
 21
-2.176574707031832
 31
0.0
 11
-1.248260498050271
 21
-2.141204833984829
 31
0.0
  0
SPLINE
  5
913C
330
1F
100
AcDbEntity
  8
AM_0
100
AcDbSpline
210
0.0
220
0.0
230
1.0
 70
     8
 71
     3
 72
    11
 73
     7
 74
     5
 42
0.0000000001
 43
0.0000000001
 44
0.0000000001
 40
0.0
 40
0.0
 40
0.0
 40
0.0
 40
0.102600170273641
 40
0.2060266243050357
 40
0.3101032038033892
 40
0.4145919909980905
 40
0.4145919909980905
 40
0.4145919909980905
 40
0.4145919909980905
 10
-0.8862609863302424
 20
-3.260009765624829
 30
0.0
 10
-0.8863593804659306
 20
-3.225809655403418
 30
0.0
 10
-0.8865569611480403
 20
-3.157134006610778
 30
0.0
 10
-0.8858036951022784
 20
-3.053767524599238
 30
0.0
 10
-0.8842946458902229
 20
-2.949779773789103
 30
0.0
 10
-0.8825955911450742
 20
-2.880278368272861
 30
0.0
 10
-0.8817443847702435
 20
-2.845458984374829
 30
0.0
 11
-0.8862609863302424
 21
-3.260009765624829
 31
0.0
 11
-0.8863830566402413
 21
-3.157409667968835
 31
0.0
 11
-0.8856811523502443
 21
-3.053985595703835
 31
0.0
 11
-0.8841247558602418
 21
-2.949920654296832
 31
0.0
 11
-0.8817443847702435
 21
-2.845458984374829
 31
0.0
  0
SPLINE
  5
913D
330
1F
100
AcDbEntity
  8
AM_0
100
AcDbSpline
210
0.0
220
0.0
230
1.0
 70
     8
 71
     3
 72
    11
 73
     7
 74
     5
 42
0.0000000001
 43
0.0000000001
 44
0.0000000001
 40
0.0
 40
0.0
 40
0.0
 40
0.0
 40
0.0344947058208472
 40
0.069136512531817
 40
0.1039579250443307
 40
0.1389310828911576
 40
0.1389310828911576
 40
0.1389310828911576
 40
0.1389310828911576
 10
-0.8878479003902413
 20
-3.398925781249829
 30
0.0
 10
-0.8875541874934407
 20
-3.387431239573363
 30
0.0
 10
-0.8869655091763718
 20
-3.364393138341543
 30
0.0
 10
-0.8864256256686608
 20
-3.329744148745656
 30
0.0
 10
-0.8861737317565518
 20
-3.294932401949588
 30
0.0
 10
-0.8862318593459047
 20
-3.271667505021541
 30
0.0
 10
-0.8862609863302424
 20
-3.260009765624829
 30
0.0
 11
-0.8878479003902413
 21
-3.398925781249829
 31
0.0
 11
-0.887023925780241
 21
-3.364440917968835
 31
0.0
 11
-0.8864746093802438
 21
-3.329803466796832
 31
0.0
 11
-0.8862304687502415
 21
-3.294982910156832
 31
0.0
 11
-0.8862609863302424
 21
-3.260009765624829
 31
0.0
  0
SPLINE
  5
913E
330
1F
100
AcDbEntity
  8
AM_0
100
AcDbSpline
210
0.0
220
0.0
230
1.0
 70
     8
 71
     3
 72
    11
 73
     7
 74
     5
 42
0.0000000001
 43
0.0000000001
 44
0.0000000001
 40
0.0
 40
0.0
 40
0.0
 40
0.0
 40
0.3637162047864233
 40
0.7282228847321245
 40
1.0942469510268
 40
1.462294602587782
 40
1.462294602587782
 40
1.462294602587782
 40
1.462294602587782
 10
-1.281738281250241
 20
-4.792327880859829
 30
0.0
 10
-1.2243516668409
 20
-4.685319546387425
 30
0.0
 10
-1.109453717999934
 20
-4.471070313072038
 30
0.0
 10
-0.9914623809723799
 20
-4.124565055947089
 30
0.0
 10
-0.9110506711124124
 20
-3.766090265731174
 30
0.0
 10
-0.8955963580537002
 20
-3.521538657858181
 30
0.0
 10
-0.8878479003902413
 20
-3.398925781249829
 30
0.0
 11
-1.281738281250241
 21
-4.792327880859829
 31
0.0
 11
-1.118652343750241
 21
-4.467224121093835
 31
0.0
 11
-0.9979248046902426
 21
-4.123291015624829
 31
0.0
 11
-0.920715332030241
 21
-3.765502929687841
 31
0.0
 11
-0.8878479003902413
 21
-3.398925781249829
 31
0.0
  0
SPLINE
  5
913F
330
1F
100
AcDbEntity
  8
AM_0
100
AcDbSpline
210
0.0
220
0.0
230
1.0
 70
     8
 71
     3
 72
    11
 73
     7
 74
     5
 42
0.0000000001
 43
0.0000000001
 44
0.0000000001
 40
0.0
 40
0.0
 40
0.0
 40
0.0
 40
2.469093284743749
 40
4.900789914672722
 40
7.29024807682436
 40
9.648465010090223
 40
9.648465010090223
 40
9.648465010090223
 40
9.648465010090223
 10
-9.319702148440242
 20
-9.355895996093863
 30
0.0
 10
-8.494057128983326
 20
-9.292559635285055
 30
0.0
 10
-6.855272231929848
 20
-9.166846200235116
 30
0.0
 10
-4.588129607372229
 20
-8.197776922429767
 30
0.0
 10
-2.633173464057502
 20
-6.755453080723794
 30
0.0
 10
-1.73023613619131
 20
-5.443825971423685
 30
0.0
 10
-1.281738281250241
 20
-4.792327880859829
 30
0.0
 11
-9.319702148440242
 21
-9.355895996093863
 31
0.0
 11
-6.871887207030241
 21
-9.032440185546846
 31
0.0
 11
-4.622436523440242
 21
-8.108795166015852
 31
0.0
 11
-2.723419189460244
 21
-6.658538818359829
 31
0.0
 11
-1.281738281250241
 21
-4.792327880859829
 31
0.0
  0
SPLINE
  5
9140
330
1F
100
AcDbEntity
  8
AM_0
100
AcDbSpline
210
0.0
220
0.0
230
1.0
 70
     8
 71
     3
 72
    11
 73
     7
 74
     5
 42
0.0000000001
 43
0.0000000001
 44
0.0000000001
 40
0.0
 40
0.0
 40
0.0
 40
0.0
 40
0.1000813168533998
 40
0.2000765798408206
 40
0.3000572379419254
 40
0.4000328285396764
 40
0.4000328285396764
 40
0.4000328285396764
 40
0.4000328285396764
 10
-9.719665527350244
 20
-9.349945068359858
 30
0.0
 10
-9.686321902213329
 20
-9.35101468412115
 30
0.0
 10
-9.619663322104308
 20
-9.353152995945892
 30
0.0
 10
-9.519660214979767
 20
-9.355052476154718
 30
0.0
 10
-9.419680183741423
 20
-9.356152626584858
 30
0.0
 10
-9.35302759714712
 20
-9.355981538145559
 30
0.0
 10
-9.319702148440242
 20
-9.355895996093863
 30
0.0
 11
-9.719665527350244
 21
-9.349945068359858
 31
0.0
 11
-9.619628906250241
 21
-9.352935791015852
 31
0.0
 11
-9.519653320320244
 21
-9.354919433593863
 31
0.0
 11
-9.419677734380243
 21
-9.355926513671846
 31
0.0
 11
-9.319702148440242
 21
-9.355895996093863
 31
0.0
  0
SPLINE
  5
9176
330
1F
100
AcDbEntity
  8
AM_0
100
AcDbSpline
210
0.0
220
0.0
230
1.0
 70
     8
 71
     3
 72
    11
 73
     7
 74
     5
 42
0.0000000001
 43
0.0000000001
 44
0.0000000001
 40
0.0
 40
0.0
 40
0.0
 40
0.0
 40
0.2205852366750156
 40
0.4424128686707606
 40
0.6640744776357716
 40
0.8839777336877377
 40
0.8839777336877377
 40
0.8839777336877377
 40
0.8839777336877377
 10
-26.62991333008027
 20
7.844236373901111
 30
0.0
 10
-26.70270162049527
 20
7.830763281012156
 30
0.0
 10
-26.84868816453395
 20
7.80374121115509
 30
0.0
 10
-27.04305669346648
 20
7.690664647244982
 30
0.0
 10
-27.20520826909876
 20
7.534855688841733
 30
0.0
 10
-27.26974167094272
 20
7.401393751991895
 30
0.0
 10
-27.30187988282027
 20
7.3349285125731
 30
0.0
 11
-26.62991333008027
 21
7.844236373901111
 31
0.0
 11
-26.84417724610027
 21
7.791807174682105
 31
0.0
 11
-27.03775024414027
 21
7.683469772338099
 31
0.0
 11
-27.19470214844027
 21
7.526945114135116
 31
0.0
 11
-27.30187988282027
 21
7.3349285125731
 31
0.0
  0
SPLINE
  5
9177
330
1F
100
AcDbEntity
  8
AM_0
100
AcDbSpline
210
0.0
220
0.0
230
1.0
 70
     8
 71
     3
 72
    11
 73
     7
 74
     5
 42
0.0000000001
 43
0.0000000001
 44
0.0000000001
 40
0.0
 40
0.0
 40
0.0
 40
0.0
 40
0.0846078980751277
 40
0.1688859625482689
 40
0.2526327917524921
 40
0.3360725439385803
 40
0.3360725439385803
 40
0.3360725439385803
 40
0.3360725439385803
 10
-27.30187988282027
 20
7.3349285125731
 30
0.0
 10
-27.31125060456673
 20
7.308294731687198
 30
0.0
 10
-27.32995551744046
 20
7.255130998471404
 30
0.0
 10
-27.34662589751978
 20
7.172368187615176
 30
0.0
 10
-27.35552444226002
 20
7.088804324715411
 30
0.0
 10
-27.35363475739836
 20
7.033045035613445
 30
0.0
 10
-27.35269165039027
 20
7.005216598510116
 30
0.0
 11
-27.30187988282027
 21
7.3349285125731
 31
0.0
 11
-27.32809448242027
 21
7.254484176635116
 31
0.0
 11
-27.34536743164027
 21
7.171995162963099
 31
0.0
 11
-27.35357666016027
 21
7.088651657104108
 31
0.0
 11
-27.35269165039027
 21
7.005216598510116
 31
0.0
  0
SPLINE
  5
9178
330
1F
100
AcDbEntity
  8
AM_0
100
AcDbSpline
210
0.0
220
0.0
230
1.0
 70
     8
 71
     3
 72
    11
 73
     7
 74
     5
 42
0.0000000001
 43
0.0000000001
 44
0.0000000001
 40
0.0
 40
0.0
 40
0.0
 40
0.0
 40
0.2542866516529363
 40
0.5068202818402603
 40
0.7605713968279286
 40
1.017748175466435
 40
1.017748175466435
 40
1.017748175466435
 40
1.017748175466435
 10
-19.55056762696027
 20
7.833921432495131
 30
0.0
 10
-19.56434934254175
 20
7.918504808325188
 30
0.0
 10
-19.59181776422195
 20
8.087088452407693
 30
0.0
 10
-19.73986675683519
 20
8.301529905683757
 30
0.0
 10
-19.94948253381157
 20
8.457902755503202
 30
0.0
 10
-20.11824103799758
 20
8.492074837237474
 30
0.0
 10
-20.20318603516027
 20
8.509275436401125
 30
0.0
 11
-19.55056762696027
 21
7.833921432495131
 31
0.0
 11
-19.60983276367026
 21
8.08120536804212
 31
0.0
 11
-19.74969482422027
 21
8.291471481323114
 31
0.0
 11
-19.95556640625027
 21
8.439817428588114
 31
0.0
 11
-20.20318603516027
 21
8.509275436401125
 31
0.0
  0
SPLINE
  5
9179
330
1F
100
AcDbEntity
  8
AM_0
100
AcDbSpline
210
0.0
220
0.0
230
1.0
 70
     8
 71
     3
 72
    11
 73
     7
 74
     5
 42
0.0000000001
 43
0.0000000001
 44
0.0000000001
 40
0.0
 40
0.0
 40
0.0
 40
0.0
 40
0.0420276802291665
 40
0.0840319421714817
 40
0.1261926694340985
 40
0.1686254605971017
 40
0.1686254605971017
 40
0.1686254605971017
 40
0.1686254605971017
 10
-20.20318603516027
 20
8.509275436401125
 30
0.0
 10
-20.2171432569461
 20
8.510527107383961
 30
0.0
 10
-20.24504992339988
 20
8.513029751904758
 30
0.0
 10
-20.28713191509799
 20
8.513848502083309
 30
0.0
 10
-20.32934368316419
 20
8.512860634932726
 30
0.0
 10
-20.35743178011478
 20
8.510290152779406
 30
0.0
 10
-20.37152099610027
 20
8.509000778198114
 30
0.0
 11
-20.20318603516027
 21
8.509275436401125
 31
0.0
 11
-20.24508666992026
 21
8.512540817260131
 31
0.0
 11
-20.28707885742027
 21
8.513547897338114
 31
0.0
 11
-20.32922363282027
 21
8.512388229370131
 31
0.0
 11
-20.37152099610027
 21
8.509000778198114
 31
0.0
  0
SPLINE
  5
917A
330
1F
100
AcDbEntity
  8
AM_0
100
AcDbSpline
210
0.0
220
0.0
230
1.0
 70
     8
 71
     3
 72
    11
 73
     7
 74
     5
 42
0.0000000001
 43
0.0000000001
 44
0.0000000001
 40
0.0
 40
0.0
 40
0.0
 40
0.0
 40
0.2943651932783993
 40
0.5872102510419981
 40
0.8826499208566517
 40
1.183545432159963
 40
1.183545432159963
 40
1.183545432159963
 40
1.183545432159963
 10
-26.95474243164027
 20
0.8667907714841049
 30
0.0
 10
-26.93716530810993
 20
0.7687696666754636
 30
0.0
 10
-26.90210183132488
 20
0.5732336492508107
 30
0.0
 10
-26.70699750067325
 20
0.3380724457819189
 30
0.0
 10
-26.43698056983523
 20
0.1920828920681903
 30
0.0
 10
-26.23546744286885
 20
0.1918360008088323
 30
0.0
 10
-26.13378906250027
 20
0.1917114257811079
 30
0.0
 11
-26.95474243164027
 21
0.8667907714841049
 31
0.0
 11
-26.87820434571027
 21
0.5825500488281108
 31
0.0
 11
-26.69552612305027
 21
0.3536682128901134
 31
0.0
 11
-26.43362426758027
 21
0.2169494628901134
 31
0.0
 11
-26.13378906250027
 21
0.1917114257811079
 31
0.0
  0
SPLINE
  5
917B
330
1F
100
AcDbEntity
  8
AM_0
100
AcDbSpline
210
0.0
220
0.0
230
1.0
 70
     8
 71
     3
 72
    11
 73
     7
 74
     5
 42
0.0000000001
 43
0.0000000001
 44
0.0000000001
 40
0.0
 40
0.0
 40
0.0
 40
0.0
 40
0.3054126095280287
 40
0.6122091479703908
 40
0.9164063338441282
 40
1.215461210170661
 40
1.215461210170661
 40
1.215461210170661
 40
1.215461210170661
 10
-19.87539672852027
 20
0.8564453125001278
 30
0.0
 10
-19.77466564076173
 20
0.8784005716818679
 30
0.0
 10
-19.57274701825924
 20
0.9224105768283276
 30
0.0
 10
-19.32928483183807
 20
1.122229750018159
 30
0.0
 10
-19.16784921621129
 20
1.391008971892357
 30
0.0
 10
-19.15766641040178
 20
1.594578491059413
 30
0.0
 10
-19.15261840821027
 20
1.695495605468124
 30
0.0
 11
-19.87539672852027
 21
0.8564453125001278
 31
0.0
 11
-19.58297729492026
 21
0.9445800781251278
 31
0.0
 11
-19.34219360352027
 21
1.134704589843124
 31
0.0
 11
-19.19155883789026
 21
1.398986816406122
 31
0.0
 11
-19.15261840821027
 21
1.695495605468124
 31
0.0
  0
SPLINE
  5
9180
330
1F
100
AcDbEntity
  8
AM_0
100
AcDbSpline
210
0.0
220
0.0
230
1.0
 70
     8
 71
     3
 72
    11
 73
     7
 74
     5
 42
0.0000000001
 43
0.0000000001
 44
0.0000000001
 40
0.0
 40
0.0
 40
0.0
 40
0.0
 40
0.7737499994110774
 40
1.549446261232543
 40
2.330673113430957
 40
3.11584832815444
 40
3.11584832815444
 40
3.11584832815444
 40
3.11584832815444
 10
-27.89556884766027
 20
-1.786987304687897
 30
0.0
 10
-27.72989700974975
 20
-1.986801766331853
 30
0.0
 10
-27.39813660905527
 20
-2.386933295598498
 30
0.0
 10
-26.72316058982037
 20
-2.794870633027194
 30
0.0
 10
-25.97256095377046
 20
-3.043980736212471
 30
0.0
 10
-25.44757323900428
 20
-3.049079789208006
 30
0.0
 10
-25.18441772461024
 20
-3.051635742187897
 30
0.0
 11
-27.89556884766027
 21
-1.786987304687897
 31
0.0
 11
-27.36938476563027
 21
-2.354278564453892
 31
0.0
 11
-26.71282958985024
 21
-2.767364501953892
 31
0.0
 11
-25.96810913086024
 21
-3.003387451171889
 31
0.0
 11
-25.18441772461024
 21
-3.051635742187897
 31
0.0
  0
SPLINE
  5
9181
330
1F
100
AcDbEntity
  8
AM_0
100
AcDbSpline
210
0.0
220
0.0
230
1.0
 70
     8
 71
     3
 72
    11
 73
     7
 74
     5
 42
0.0000000001
 43
0.0000000001
 44
0.0000000001
 40
0.0
 40
0.0
 40
0.0
 40
0.0
 40
0.2249363095493852
 40
0.4319669679980375
 40
0.6198299913193298
 40
0.7865706906865451
 40
0.7865706906865451
 40
0.7865706906865451
 40
0.7865706906865451
 10
-19.06301879883027
 20
0.9504394531251278
 30
0.0
 10
-18.98840509473336
 20
0.9429524245774489
 30
0.0
 10
-18.8451171765026
 20
0.928574358948407
 30
0.0
 10
-18.63883900509923
 20
0.9165031729322979
 30
0.0
 10
-18.45154116178484
 20
0.9116064176151182
 30
0.0
 10
-18.33347215565656
 20
0.9180303725567387
 30
0.0
 10
-18.27795410157027
 20
0.9210510253901276
 30
0.0
 11
-19.06301879883027
 21
0.9504394531251278
 31
0.0
 11
-18.83905029297027
 21
0.9295959472651276
 31
0.0
 11
-18.63238525391027
 21
0.9172973632811221
 31
0.0
 11
-18.44454956055027
 21
0.914093017578125
 31
0.0
 11
-18.27795410157027
 21
0.9210510253901276
 31
0.0
  0
SPLINE
  5
9182
330
1F
100
AcDbEntity
  8
AM_0
100
AcDbSpline
210
0.0
220
0.0
230
1.0
 70
     8
 71
     3
 72
    11
 73
     7
 74
     5
 42
0.0000000001
 43
0.0000000001
 44
0.0000000001
 40
0.0
 40
0.0
 40
0.0
 40
0.0
 40
1.182272593902811
 40
2.354869364277773
 40
3.528926352769159
 40
4.712293113204261
 40
4.712293113204261
 40
4.712293113204261
 40
4.712293113204261
 10
-20.68441772461024
 20
-2.784423828124872
 30
0.0
 10
-20.29074560949676
 20
-2.718977183165979
 30
0.0
 10
-19.50662322669596
 20
-2.588619514381913
 30
0.0
 10
-18.53287586534085
 20
-1.860149652312714
 30
0.0
 10
-17.90291777800297
 20
-0.807818532483238
 30
0.0
 10
-17.90273877881816
 20
-0.0091344345239513
 30
0.0
 10
-17.90264892578027
 20
0.3917846679681247
 30
0.0
 11
-20.68441772461024
 21
-2.784423828124872
 31
0.0
 11
-19.53726196289027
 21
-2.498413085937883
 31
0.0
 11
-18.59039306641027
 21
-1.806732177734872
 31
0.0
 11
-18.00888061524027
 21
-0.7868041992188779
 31
0.0
 11
-17.90264892578027
 21
0.3917846679681247
 31
0.0
  0
SPLINE
  5
9183
330
1F
100
AcDbEntity
  8
AM_0
100
AcDbSpline
210
0.0
220
0.0
230
1.0
 70
     8
 71
     3
 72
    11
 73
     7
 74
     5
 42
0.0000000001
 43
0.0000000001
 44
0.0000000001
 40
0.0
 40
0.0
 40
0.0
 40
0.0
 40
0.7462815109629926
 40
1.679295626622591
 40
2.714734172510741
 40
3.648149366829634
 40
3.648149366829634
 40
3.648149366829634
 40
3.648149366829634
 10
-29.88067626953024
 20
-6.928924560546903
 30
0.0
 10
-29.95761480866835
 20
-6.685109149796411
 30
0.0
 10
-30.1307432466577
 20
-6.136471474922011
 30
0.0
 10
-30.95535189985307
 20
-5.63400444447954
 30
0.0
 10
-31.99710407863861
 20
-5.526789234267376
 30
0.0
 10
-32.51928472783506
 20
-5.963225252522676
 30
0.0
 10
-32.76684570313026
 20
-6.170135498046903
 30
0.0
 11
-29.88067626953024
 21
-6.928924560546903
 31
0.0
 11
-30.17803955078025
 21
-6.244445800781903
 31
0.0
 11
-30.94866943360026
 21
-5.718475341796903
 31
0.0
 11
-31.98266601563025
 21
-5.663848876953892
 31
0.0
 11
-32.76684570313026
 21
-6.170135498046903
 31
0.0
  0
SPLINE
  5
9184
330
1F
100
AcDbEntity
  8
AM_0
100
AcDbSpline
210
0.0
220
0.0
230
1.0
 70
     8
 71
     3
 72
    11
 73
     7
 74
     5
 42
0.0000000001
 43
0.0000000001
 44
0.0000000001
 40
0.0
 40
0.0
 40
0.0
 40
0.0
 40
0.5545551870939811
 40
1.151501296064656
 40
1.786268532774882
 40
2.443942008977373
 40
2.443942008977373
 40
2.443942008977373
 40
2.443942008977373
 10
-11.03543090821024
 20
-5.351593017578863
 30
0.0
 10
-11.07179841721182
 20
-5.168484835155565
 30
0.0
 10
-11.14731341504173
 20
-4.788271441993779
 30
0.0
 10
-11.50039677060904
 20
-4.291390793325155
 30
0.0
 10
-12.01715471241526
 20
-3.897757208161952
 30
0.0
 10
-12.44872526830161
 20
-3.828753483768077
 30
0.0
 10
-12.66833496094024
 20
-3.793640136718863
 30
0.0
 11
-11.03543090821024
 21
-5.351593017578863
 31
0.0
 11
-11.17980957032024
 21
-4.816162109374857
 31
0.0
 11
-11.51486206055024
 21
-4.322113037109858
 31
0.0
 11
-12.02972412110024
 21
-3.950836181640866
 31
0.0
 11
-12.66833496094024
 21
-3.793640136718863
 31
0.0
  0
SPLINE
  5
9185
330
1F
100
AcDbEntity
  8
AM_0
100
AcDbSpline
210
0.0
220
0.0
230
1.0
 70
     8
 71
     3
 72
    11
 73
     7
 74
     5
 42
0.0000000001
 43
0.0000000001
 44
0.0000000001
 40
0.0
 40
0.0
 40
0.0
 40
0.0
 40
1.722521476323801
 40
3.445640929733632
 40
5.168769450311485
 40
6.891898805130435
 40
6.891898805130435
 40
6.891898805130435
 40
6.891898805130435
 10
-17.96792602539027
 20
0.9460449218751278
 30
0.0
 10
-17.43935984602869
 20
0.7201261298582759
 30
0.0
 10
-16.38204399440398
 20
0.2682101176233651
 30
0.0
 10
-14.71394215232584
 20
-0.1807804775574346
 30
0.0
 10
-13.01002031067702
 20
-0.4672638536024222
 30
0.0
 10
-11.86023309998279
 20
-0.4939097263946489
 30
0.0
 10
-11.28533935547027
 20
-0.5072326660158666
 30
0.0
 11
-17.96792602539027
 21
0.9460449218751278
 31
0.0
 11
-16.36856079102027
 21
0.3064270019531392
 31
0.0
 11
-14.70800781250027
 21
-0.1536865234378695
 31
0.0
 11
-13.00656127930027
 21
-0.4261779785158666
 31
0.0
 11
-11.28533935547027
 21
-0.5072326660158666
 31
0.0
  0
SPLINE
  5
9186
330
1F
100
AcDbEntity
  8
AM_0
100
AcDbSpline
210
0.0
220
0.0
230
1.0
 70
     8
 71
     3
 72
    11
 73
     7
 74
     5
 42
0.0000000001
 43
0.0000000001
 44
0.0000000001
 40
0.0
 40
0.0
 40
0.0
 40
0.0
 40
0.6197406151053712
 40
1.216541525556924
 40
1.773371428582203
 40
2.293843835836673
 40
2.293843835836673
 40
2.293843835836673
 40
2.293843835836673
 10
-12.66833496094024
 20
-3.793640136718863
 30
0.0
 10
-12.87765584442917
 20
-3.810682229704542
 30
0.0
 10
-13.28854959695054
 20
-3.844135602444936
 30
0.0
 10
-13.78945087058456
 20
-4.204486852250977
 30
0.0
 10
-14.08480824406412
 20
-4.704721602057453
 30
0.0
 10
-14.09071377897998
 20
-5.068857899275107
 30
0.0
 10
-14.09356689453024
 20
-5.244781494140866
 30
0.0
 11
-12.66833496094024
 21
-3.793640136718863
 31
0.0
 11
-13.27883911133024
 21
-3.900238037109858
 31
0.0
 11
-13.76800537110024
 21
-4.242126464843863
 31
0.0
 11
-14.04202270508024
 21
-4.726867675781861
 31
0.0
 11
-14.09356689453024
 21
-5.244781494140866
 31
0.0
  0
SPLINE
  5
9187
330
1F
100
AcDbEntity
  8
AM_0
100
AcDbSpline
210
0.0
220
0.0
230
1.0
 70
     8
 71
     3
 72
    11
 73
     7
 74
     5
 42
0.0000000001
 43
0.0000000001
 44
0.0000000001
 40
0.0
 40
0.0
 40
0.0
 40
0.0
 40
0.173796200769417
 40
0.3379320520097615
 40
0.4942992057224302
 40
0.6451034692655235
 40
0.6451034692655235
 40
0.6451034692655235
 40
0.6451034692655235
 10
-32.76684570313026
 20
-6.170135498046903
 30
0.0
 10
-32.79819209942499
 20
-6.219045111777199
 30
0.0
 10
-32.8591425228295
 20
-6.314145729959366
 30
0.0
 10
-32.916318374229
 20
-6.469788504945634
 30
0.0
 10
-32.94750091389472
 20
-6.624833213514591
 30
0.0
 10
-32.9453576463499
 20
-6.727472370528807
 30
0.0
 10
-32.94430541992024
 20
-6.777862548828906
 30
0.0
 11
-32.76684570313026
 21
-6.170135498046903
 31
0.0
 11
-32.85510253907026
 21
-6.319854736328906
 31
0.0
 11
-32.91305541992024
 21
-6.473419189453906
 31
0.0
 11
-32.94204711914024
 21
-6.627075195312897
 31
0.0
 11
-32.94430541992024
 21
-6.777862548828906
 31
0.0
  0
SPLINE
  5
9188
330
1F
100
AcDbEntity
  8
AM_0
100
AcDbSpline
210
0.0
220
0.0
230
1.0
 70
     8
 71
     3
 72
    11
 73
     7
 74
     5
 42
0.0000000001
 43
0.0000000001
 44
0.0000000001
 40
0.0
 40
0.0
 40
0.0
 40
0.0
 40
0.0595954857464035
 40
0.1175541436060337
 40
0.1717153481101099
 40
0.2164299218582947
 40
0.2164299218582947
 40
0.2164299218582947
 40
0.2164299218582947
 10
-17.77871704102027
 20
7.222776412963114
 30
0.0
 10
-17.77459023305059
 20
7.203343498004876
 30
0.0
 10
-17.76644996251455
 20
7.165011405446637
 30
0.0
 10
-17.7551977820346
 20
7.108902767171231
 30
0.0
 10
-17.74537329784521
 20
7.05750815093433
 30
0.0
 10
-17.74212885489665
 20
7.024694555977411
 30
0.0
 10
-17.74066162110027
 20
7.009855270385131
 30
0.0
 11
-17.77871704102027
 21
7.222776412963114
 31
0.0
 11
-17.76644897461027
 21
7.16445732116712
 31
0.0
 11
-17.75503540039027
 21
7.107633590698114
 31
0.0
 11
-17.74566650391027
 21
7.054288864135131
 31
0.0
 11
-17.74066162110027
 21
7.009855270385131
 31
0.0
  0
SPLINE
  5
9189
330
1F
100
AcDbEntity
  8
AM_0
100
AcDbSpline
210
0.0
220
0.0
230
1.0
 70
     8
 71
     3
 72
    11
 73
     7
 74
     5
 42
0.0000000001
 43
0.0000000001
 44
0.0000000001
 40
0.0
 40
0.0
 40
0.0
 40
0.0
 40
0.1648207637157439
 40
0.3288197866811738
 40
0.4916430895169265
 40
0.6530115617879915
 40
0.6530115617879915
 40
0.6530115617879915
 40
0.6530115617879915
 10
-17.77703857422027
 20
8.444181442260131
 30
0.0
 10
-17.76904553558704
 20
8.389822316900012
 30
0.0
 10
-17.75309930891595
 20
8.281375082448921
 30
0.0
 10
-17.72394446465384
 20
8.120084590096109
 30
0.0
 10
-17.69156773742083
 20
7.960586490062715
 30
0.0
 10
-17.66678514993771
 20
7.855396576903586
 30
0.0
 10
-17.65444946289027
 20
7.803037643432119
 30
0.0
 11
-17.77703857422027
 21
8.444181442260131
 31
0.0
 11
-17.75216674805027
 21
8.281248092651125
 31
0.0
 11
-17.72329711914027
 21
8.119810104370131
 31
0.0
 11
-17.69064331055027
 21
7.960294723510131
 31
0.0
 11
-17.65444946289027
 21
7.803037643432119
 31
0.0
  0
SPLINE
  5
918A
330
1F
100
AcDbEntity
  8
AM_0
100
AcDbSpline
210
0.0
220
0.0
230
1.0
 70
     8
 71
     3
 72
    11
 73
     7
 74
     5
 42
0.0000000001
 43
0.0000000001
 44
0.0000000001
 40
0.0
 40
0.0
 40
0.0
 40
0.0
 40
3.433998255097925
 40
6.921626399100643
 40
10.38570761950875
 40
13.74559754559933
 40
13.74559754559933
 40
13.74559754559933
 40
13.74559754559933
 10
-17.65444946289027
 20
7.803037643432119
 30
0.0
 10
-17.27742242768694
 20
6.710776905507295
 30
0.0
 10
-16.5174802011107
 20
4.509197231697584
 30
0.0
 10
-14.1354752501402
 20
1.89348438402192
 30
0.0
 10
-11.11810448679884
 20
0.0627056139148865
 30
0.0
 10
-8.828885042832203
 20
-0.1642129862048204
 30
0.0
 10
-7.701751708990272
 20
-0.2759399414068469
 30
0.0
 11
-17.65444946289027
 21
7.803037643432119
 31
0.0
 11
-16.31967163086027
 21
4.639066696167134
 31
0.0
 11
-14.01937866211027
 21
2.017578125000142
 31
0.0
 11
-11.01226806641027
 21
0.2979431152341334
 31
0.0
 11
-7.701751708990272
 21
-0.2759399414068469
 31
0.0
  0
SPLINE
  5
918B
330
1F
100
AcDbEntity
  8
AM_0
100
AcDbSpline
210
0.0
220
0.0
230
1.0
 70
     8
 71
     3
 72
    11
 73
     7
 74
     5
 42
0.0000000001
 43
0.0000000001
 44
0.0000000001
 40
0.0
 40
0.0
 40
0.0
 40
0.0
 40
0.5481415497914468
 40
1.102336350118052
 40
1.65872685966439
 40
2.21250146093279
 40
2.21250146093279
 40
2.21250146093279
 40
2.21250146093279
 10
-11.07287597657027
 20
4.304014205932134
 30
0.0
 10
-11.0348948120745
 20
4.124424584873572
 30
0.0
 10
-10.9585130485329
 20
3.763262094140841
 30
0.0
 10
-10.69364860441732
 20
3.271135690871715
 30
0.0
 10
-10.33679347097896
 20
2.83796172827642
 30
0.0
 10
-10.026877026213
 20
2.632369544737856
 30
0.0
 10
-9.872283935550271
 20
2.529815673828139
 30
0.0
 11
-11.07287597657027
 21
4.304014205932134
 31
0.0
 11
-10.93429565430027
 21
3.773679733276139
 31
0.0
 11
-10.67886352539026
 21
3.28186035156213
 31
0.0
 11
-10.31817626953027
 21
2.858215332031136
 31
0.0
 11
-9.872283935550271
 21
2.529815673828139
 31
0.0
  0
SPLINE
  5
918C
330
1F
100
AcDbEntity
  8
AM_0
100
AcDbSpline
210
0.0
220
0.0
230
1.0
 70
     8
 71
     3
 72
    11
 73
     7
 74
     5
 42
0.0000000001
 43
0.0000000001
 44
0.0000000001
 40
0.0
 40
0.0
 40
0.0
 40
0.0
 40
0.164097648783567
 40
0.3268818833133156
 40
0.4878718703597583
 40
0.6467648521691931
 40
0.6467648521691931
 40
0.6467648521691931
 40
0.6467648521691931
 10
-0.0162963867202706
 20
0.7434387207031677
 30
0.0
 10
-0.0226388523763255
 20
0.7977692028425388
 30
0.0
 10
-0.0352730194949276
 20
0.9059953136655025
 30
0.0
 10
-0.0554869046810035
 20
1.067359669376857
 30
0.0
 10
-0.0764514594486691
 20
1.226878782748448
 30
0.0
 10
-0.0912918020172672
 20
1.332469136732967
 30
0.0
 10
-0.0986633300802709
 20
1.38491821289017
 30
0.0
 11
-0.0162963867202706
 21
0.7434387207031677
 31
0.0
 11
-0.035552978520272
 21
0.9064025878901702
 31
0.0
 11
-0.0557250976602717
 21
1.067932128906164
 31
0.0
 11
-0.0767822265702733
 21
1.22753906250017
 31
0.0
 11
-0.0986633300802709
 21
1.38491821289017
 31
0.0
  0
SPLINE
  5
918D
330
1F
100
AcDbEntity
  8
AM_0
100
AcDbSpline
210
0.0
220
0.0
230
1.0
 70
     8
 71
     3
 72
    11
 73
     7
 74
     5
 42
0.0000000001
 43
0.0000000001
 44
0.0000000001
 40
0.0
 40
0.0
 40
0.0
 40
0.0
 40
3.331874609330636
 40
6.69841120463483
 40
10.13061699144595
 40
13.61234553891609
 40
13.61234553891609
 40
13.61234553891609
 40
13.61234553891609
 10
-0.0986633300802709
 20
1.38491821289017
 30
0.0
 10
-0.3670440771869832
 20
2.475889449307094
 30
0.0
 10
-0.906597576137241
 20
4.669181457801239
 30
0.0
 10
-3.136632780761621
 20
7.336210845641161
 30
0.0
 10
-6.158580873333628
 20
9.152962151288866
 30
0.0
 10
-8.480422172793456
 20
9.362091616107125
 30
0.0
 10
-9.649658203130272
 20
9.467405319213128
 30
0.0
 11
-0.0986633300802709
 21
1.38491821289017
 31
0.0
 11
-1.135131835940271
 21
4.551481246948156
 31
0.0
 11
-3.245239257820273
 21
7.174650192260159
 31
0.0
 11
-6.21536254883027
 21
8.894651412963142
 31
0.0
 11
-9.649658203130272
 21
9.467405319213128
 31
0.0
  0
SPLINE
  5
918E
330
1F
100
AcDbEntity
  8
AM_0
100
AcDbSpline
210
0.0
220
0.0
230
1.0
 70
     8
 71
     3
 72
    11
 73
     7
 74
     5
 42
0.0000000001
 43
0.0000000001
 44
0.0000000001
 40
0.0
 40
0.0
 40
0.0
 40
0.0
 40
1.096744543080097
 40
2.20403778777557
 40
3.328360881428753
 40
4.459015649245273
 40
4.459015649245273
 40
4.459015649245273
 40
4.459015649245273
 10
-6.496978759770271
 20
4.885526657104151
 30
0.0
 10
-6.573047313355226
 20
5.251689692961194
 30
0.0
 10
-6.725916062619136
 20
5.987537591733556
 30
0.0
 10
-7.603183440997488
 20
6.770017308995383
 30
0.0
 10
-8.745053079149984
 20
7.069895906786763
 30
0.0
 10
-9.467238894964832
 20
6.811909595865271
 30
0.0
 10
-9.829345703130272
 20
6.682554244995145
 30
0.0
 11
-6.496978759770271
 21
4.885526657104151
 31
0.0
 11
-6.831176757820273
 21
5.930112838745159
 31
0.0
 11
-7.64047241211027
 21
6.685850143432148
 31
0.0
 11
-8.732055664070273
 21
6.955198287963142
 31
0.0
 11
-9.829345703130272
 21
6.682554244995145
 31
0.0
  0
SPLINE
  5
918F
330
1F
100
AcDbEntity
  8
AM_0
100
AcDbSpline
210
0.0
220
0.0
230
1.0
 70
     8
 71
     3
 72
    11
 73
     7
 74
     5
 42
0.0000000001
 43
0.0000000001
 44
0.0000000001
 40
0.0
 40
0.0
 40
0.0
 40
0.0
 40
0.1471513346427906
 40
0.2936992900265136
 40
0.4393882071429877
 40
0.5840768340442454
 40
0.5840768340442454
 40
0.5840768340442454
 40
0.5840768340442454
 10
-11.07940673828027
 20
4.886442184448128
 30
0.0
 10
-11.08444658726791
 20
4.837630381707577
 30
0.0
 10
-11.09450561984893
 20
4.740206924118051
 30
0.0
 10
-11.09692550457529
 20
4.593619313406735
 30
0.0
 10
-11.09094749265582
 20
4.447964133591749
 30
0.0
 10
-11.07888596544832
 20
4.351887193463227
 30
0.0
 10
-11.07287597657027
 20
4.304014205932134
 30
0.0
 11
-11.07940673828027
 21
4.886442184448128
 31
0.0
 11
-11.09240722657027
 21
4.739866256713128
 31
0.0
 11
-11.09552001953026
 21
4.593351364135145
 31
0.0
 11
-11.08889770508027
 21
4.447813034057134
 31
0.0
 11
-11.07287597657027
 21
4.304014205932134
 31
0.0
  0
SPLINE
  5
9190
330
1F
100
AcDbEntity
  8
AM_0
100
AcDbSpline
210
0.0
220
0.0
230
1.0
 70
     8
 71
     3
 72
    11
 73
     7
 74
     5
 42
0.0000000001
 43
0.0000000001
 44
0.0000000001
 40
0.0
 40
0.0
 40
0.0
 40
0.0
 40
0.3117598545423994
 40
0.6232111288062932
 40
0.9347208752474504
 40
1.246580452566595
 40
1.246580452566595
 40
1.246580452566595
 40
1.246580452566595
 10
-17.00942993164026
 20
9.403196334838114
 30
0.0
 10
-17.11402857833092
 20
9.390351791173674
 30
0.0
 10
-17.32312233984608
 20
9.364675417389541
 30
0.0
 10
-17.58561507478806
 20
9.177768067752015
 30
0.0
 10
-17.7668076613711
 20
8.911041919121448
 30
0.0
 10
-17.78699119353415
 20
8.70124058718583
 30
0.0
 10
-17.79708862305027
 20
8.596281051635131
 30
0.0
 11
-17.00942993164026
 21
9.403196334838114
 31
0.0
 11
-17.31469726563027
 21
9.339902877807119
 31
0.0
 11
-17.57205200196027
 21
9.164487838745131
 31
0.0
 11
-17.74160766602027
 21
8.903165817260131
 31
0.0
 11
-17.79708862305027
 21
8.596281051635131
 31
0.0
  0
SPLINE
  5
9191
330
1F
100
AcDbEntity
  8
AM_0
100
AcDbSpline
210
0.0
220
0.0
230
1.0
 70
     8
 71
     3
 72
    11
 73
     7
 74
     5
 42
0.0000000001
 43
0.0000000001
 44
0.0000000001
 40
0.0
 40
0.0
 40
0.0
 40
0.0
 40
0.0013210974629388
 40
0.0023870306415431
 40
0.0033453020296685
 40
0.0044289983737744
 40
0.0044289983737744
 40
0.0044289983737744
 40
0.0044289983737744
 10
-17.76300048828026
 20
9.22109794616712
 30
0.0
 10
-17.76256060622054
 20
9.221071448521092
 30
0.0
 10
-17.76176580342614
 20
9.22102357113523
 30
0.0
 10
-17.76068574097828
 20
9.220622038968848
 30
0.0
 10
-17.76001834835027
 20
9.219745126009625
 30
0.0
 10
-17.75997286762647
 20
9.219053899533486
 30
0.0
 10
-17.75994873047027
 20
9.218687057495131
 30
0.0
 11
-17.76300048828026
 21
9.22109794616712
 31
0.0
 11
-17.76168823242026
 21
9.220945358276125
 31
0.0
 11
-17.76071166992027
 21
9.220518112182119
 31
0.0
 11
-17.76013183594027
 21
9.219755172729122
 31
0.0
 11
-17.75994873047027
 21
9.218687057495131
 31
0.0
  0
SPLINE
  5
9192
330
1F
100
AcDbEntity
  8
AM_0
100
AcDbSpline
210
0.0
220
0.0
230
1.0
 70
     8
 71
     3
 72
    11
 73
     7
 74
     5
 42
0.0000000001
 43
0.0000000001
 44
0.0000000001
 40
0.0
 40
0.0
 40
0.0
 40
0.0
 40
0.4203889168008507
 40
0.8416566791076212
 40
1.263691024107895
 40
1.686360027588944
 40
1.686360027588944
 40
1.686360027588944
 40
1.686360027588944
 10
-10.31387329102027
 20
6.350675582885145
 30
0.0
 10
-10.41387688506634
 20
6.251900575135181
 30
0.0
 10
-10.61409313601837
 20
6.054144065200723
 30
0.0
 10
-10.83926391216598
 20
5.69459262643069
 30
0.0
 10
-11.00618069697643
 20
5.303803132883349
 30
0.0
 10
-11.05498583477955
 20
5.025632167481826
 30
0.0
 10
-11.07940673828027
 20
4.886442184448128
 30
0.0
 11
-10.31387329102027
 21
6.350675582885145
 31
0.0
 11
-10.60134887696027
 21
6.043943405151139
 31
0.0
 11
-10.82937622071027
 21
5.689725875854136
 31
0.0
 11
-10.99047851563027
 21
5.299650192260145
 31
0.0
 11
-11.07940673828027
 21
4.886442184448128
 31
0.0
  0
SPLINE
  5
9193
330
1F
100
AcDbEntity
  8
AM_0
100
AcDbSpline
210
0.0
220
0.0
230
1.0
 70
     8
 71
     3
 72
    11
 73
     7
 74
     5
 42
0.0000000001
 43
0.0000000001
 44
0.0000000001
 40
0.0
 40
0.0
 40
0.0
 40
0.0
 40
0.0346055072582952
 40
0.06922466994075
 40
0.1038374831880316
 40
0.1385036922979889
 40
0.1385036922979889
 40
0.1385036922979889
 40
0.1385036922979889
 10
-9.829345703130272
 20
6.682554244995145
 30
0.0
 10
-9.839564572106013
 20
6.677202674748977
 30
0.0
 10
-9.860006342450061
 20
6.666497422512951
 30
0.0
 10
-9.890384169067335
 20
6.649904728248501
 30
0.0
 10
-9.920565581025471
 20
6.63291634395667
 30
0.0
 10
-9.94049672026399
 20
6.621252160069262
 30
0.0
 10
-9.950469970710273
 20
6.615415573120145
 30
0.0
 11
-9.829345703130272
 21
6.682554244995145
 31
0.0
 11
-9.859954833990272
 21
6.666410446167134
 31
0.0
 11
-9.890350341800271
 21
6.649839401245145
 31
0.0
 11
-9.920501708990272
 21
6.632841110229136
 31
0.0
 11
-9.950469970710273
 21
6.615415573120145
 31
0.0
  0
ELLIPSE
  5
91C9
330
1F
100
AcDbEntity
  8
AM_0
100
AcDbEllipse
 10
-23.31884765625027
 20
4.443723678588114
 30
0.0
 11
1.83537290342002
 21
1.301482185814006
 31
0.0
210
0.0
220
0.0
230
1.0
 40
0.9540620211404998
 41
1.680758275370157
 42
1.968615550788647
  0
ELLIPSE
  5
91CA
330
1F
100
AcDbEntity
  8
AM_0
100
AcDbEllipse
 10
-23.47448730469027
 20
4.663206100463114
 30
0.0
 11
1.835388136510002
 21
1.301482136936005
 31
0.0
210
0.0
220
0.0
230
1.0
 40
0.9540606848077
 41
5.100530652663465
 42
6.219921251249186
  0
ELLIPSE
  5
91CB
330
1F
100
AcDbEntity
  8
AM_0
100
AcDbEllipse
 10
-23.31884765625027
 20
4.443723678588114
 30
0.0
 11
1.83537290342002
 21
1.301482185814006
 31
0.0
210
0.0
220
0.0
230
1.0
 40
0.9540620211404998
 41
0.1103984217099149
 42
0.3982329536675282
  0
ELLIPSE
  5
91CC
330
1F
100
AcDbEntity
  8
AM_0
100
AcDbEllipse
 10
-23.31884765625027
 20
4.443723678588114
 30
0.0
 11
1.83537290342002
 21
1.301482185814006
 31
0.0
210
0.0
220
0.0
230
1.0
 40
0.9540620211404998
 41
4.822361207455261
 42
5.110214583059049
  0
ELLIPSE
  5
91CD
330
1F
100
AcDbEntity
  8
AM_0
100
AcDbEllipse
 10
-23.31884765625027
 20
4.443723678588114
 30
0.0
 11
1.83537290342002
 21
1.301482185814006
 31
0.0
210
0.0
220
0.0
230
1.0
 40
0.9540620211404998
 41
3.251991475218782
 42
3.539828074558898
  0
ELLIPSE
  5
91D1
330
1F
100
AcDbEntity
  8
AM_0
100
AcDbEllipse
 10
-21.94757080078026
 20
1.624540328979122
 30
0.0
 11
-0.0514679334500049
 21
3.094603534698995
 31
0.0
210
0.0
220
0.0
230
0.9999999999999998
 40
0.9545731337888998
 41
4.476903611103701
 42
4.741021633124498
  0
ELLIPSE
  5
91D2
330
1F
100
AcDbEntity
  8
AM_0
100
AcDbEllipse
 10
-31.30987548828025
 20
-0.0000019073489028
 30
0.0
 11
0.9788965907299989
 21
8.998747810404003
 31
0.0
210
0.0
220
0.0
230
1.0
 40
0.1526818604491
 41
2.439795185964856
 42
2.944489280111602
  0
ELLIPSE
  5
91D3
330
1F
100
AcDbEntity
  8
AM_0
100
AcDbEllipse
 10
-55.45117187500025
 20
0.0000000000000568
 30
0.0
 11
-51.14314190666005
 21
2.300050969087897
 31
0.0
210
0.0
220
0.0
230
1.0
 40
0.1701331009114
 41
2.042983057728864
 42
2.109248805305035
  0
ELLIPSE
  5
91D4
330
1F
100
AcDbEntity
  8
AM_0
100
AcDbEllipse
 10
-28.25762939453026
 20
-0.0000019073488886
 30
0.0
 11
0.9788965907299989
 21
8.998747810404003
 31
0.0
210
0.0
220
0.0
230
1.0
 40
0.1526818604491
 41
2.466282204457496
 42
2.87830356749004
  0
ELLIPSE
  5
91D5
330
1F
100
AcDbEntity
  8
AM_0
100
AcDbEllipse
 10
-9.571868896490272
 20
-0.0000019073488602
 30
0.0
 11
0.3243716064099935
 21
8.999815495190997
 31
0.0
210
0.0
220
0.0
230
1.0
 40
0.1762121234745
 41
2.213951757851774
 42
2.414129165413191
  0
ELLIPSE
  5
91D6
330
1F
100
AcDbEntity
  8
AM_0
100
AcDbEllipse
 10
-12.61999511719027
 20
-0.0000019073488602
 30
0.0
 11
0.3243565863499889
 21
8.999816036531999
 31
0.0
210
0.0
220
0.0
230
0.9999999999999998
 40
0.1762138045929
 41
2.19927881139229
 42
2.490027614552815
  0
ELLIPSE
  5
91D7
330
1F
100
AcDbEntity
  8
AM_0
100
AcDbEllipse
 10
-44.82073974610026
 20
0.0000000000000853
 30
0.0
 11
51.07360693082
 21
0.0571594238670997
 31
0.0
210
0.0
220
0.0
230
1.0
 40
0.1762126392448
 41
5.363972211478187
 42
5.43945042009853
  0
ELLIPSE
  5
91D8
330
1F
100
AcDbEntity
  8
AM_0
100
AcDbEllipse
 10
-17.75097656250027
 20
-0.0082721710208773
 30
0.0
 11
-0.154312024470034
 21
9.007628550737003
 31
0.0
210
0.0
220
0.0
230
0.9999999999999998
 40
0.6998073057001
 41
0.0051459234950333
 42
0.0134464571395812
  0
ELLIPSE
  5
91D9
330
1F
100
AcDbEntity
  8
AM_0
100
AcDbEllipse
 10
-17.95159912110027
 20
-0.0000019073488744
 30
0.0
 11
-0.0810704618500218
 21
8.999968657713001
 31
0.0
210
0.0
220
0.0
230
1.0
 40
0.1763192985583
 41
6.223339710781154
 42
6.255714335149471
  0
ELLIPSE
  5
91DA
330
1F
100
AcDbEntity
  8
AM_0
100
AcDbEllipse
 10
-17.95159912110027
 20
-0.0000324249268857
 30
0.0
 11
-0.0810696638499913
 21
8.999999183717001
 31
0.0
210
0.0
220
0.0
230
1.0
 40
0.1763187007116
 41
6.207262454079129
 42
6.223345124750971
  0
ELLIPSE
  5
91DB
330
1F
100
AcDbEntity
  8
AM_0
100
AcDbEllipse
 10
-9.704010009770271
 20
0.0000000000001421
 30
0.0
 11
-51.04355040040002
 21
0.014282801913899
 31
0.0
210
0.0
220
0.0
230
0.9999999999999998
 40
0.1763200164774
 41
4.874601711360075
 42
4.91375782724063
  0
ELLIPSE
  5
91DC
330
1F
100
AcDbEntity
  8
AM_0
100
AcDbEllipse
 10
-22.75891113282027
 20
0.0000000000001279
 30
0.0
 11
51.14312916773002
 21
2.300079503477098
 31
0.0
210
0.0
220
0.0
230
1.0
 40
0.1701331203146
 41
1.507568178090226
 42
1.658435308270585
  0
ELLIPSE
  5
91DD
330
1F
100
AcDbEntity
  8
AM_0
100
AcDbEllipse
 10
-27.19720458985027
 20
-0.0000019073488886
 30
0.0
 11
-0.9788821528799939
 21
8.998747462361999
 31
0.0
210
0.0
220
0.0
230
0.9999999999999998
 40
0.152680193739
 41
5.754024591042945
 42
5.920193114561456
  0
ELLIPSE
  5
91DE
330
1F
100
AcDbEntity
  8
AM_0
100
AcDbEllipse
 10
-26.76330566407027
 20
-0.0000019073488886
 30
0.0
 11
-0.504195656050019
 21
8.999968102447995
 31
0.0
210
0.0
220
0.0
230
1.0
 40
0.0329980556654
 41
0.5121133502320017
 42
0.6449144002271147
  0
ELLIPSE
  5
91DF
330
1F
100
AcDbEntity
  8
AM_0
100
AcDbEllipse
 10
-5.56414794922027
 20
0.0000000000001563
 30
0.0
 11
51.14314444538001
 21
2.300079426932098
 31
0.0
210
0.0
220
0.0
230
1.0
 40
0.1701330509775
 41
2.003137017411515
 42
2.138847607195192
  0
ELLIPSE
  5
91E0
330
1F
100
AcDbEntity
  8
AM_0
100
AcDbEllipse
 10
-29.16802978516026
 20
-0.0000019073488886
 30
0.0
 11
-6.283172565560012
 21
8.999999349688989
 31
0.0
210
0.0
220
0.0
230
1.0
 40
0.0018911546453
 41
4.516104624604821
 42
5.455358035365261
  0
ELLIPSE
  5
91E1
330
1F
100
AcDbEntity
  8
AM_0
100
AcDbEllipse
 10
-13.10769653321027
 20
-0.0000019073488602
 30
0.0
 11
143.7179207065699
 21
8.695616146064285
 31
0.0
210
0.0
220
0.0
230
1.0
 40
0.0161487316104
 41
4.627285529756662
 42
4.65866827040437
  0
ELLIPSE
  5
91E2
330
1F
100
AcDbEntity
  8
AM_0
100
AcDbEllipse
 10
-19.24972534180027
 20
-0.0000019073488744
 30
0.0
 11
-0.9788821528799939
 21
8.998747462361999
 31
0.0
210
0.0
220
0.0
230
0.9999999999999998
 40
0.152680193739
 41
4.739337880133589
 42
4.801098410412477
  0
ELLIPSE
  5
91E3
330
1F
100
AcDbEntity
  8
AM_0
100
AcDbEllipse
 10
-14.28063964844027
 20
0.0000000000001421
 30
0.0
 11
51.07362218961997
 21
0.0571594231070996
 31
0.0
210
0.0
220
0.0
230
1.0
 40
0.1762125865995
 41
4.706403154718172
 42
4.797749798505518
  0
ELLIPSE
  5
91E4
330
1F
100
AcDbEntity
  8
AM_0
100
AcDbEllipse
 10
-75.31579589844028
 20
13.938627243042
 30
0.0
 11
-107.40757365435
 21
0.7315189370677908
 31
0.0
210
0.0
220
0.0
230
1.0
 40
0.1388397762055
 41
2.131573321182262
 42
2.134981030194485
  0
ELLIPSE
  5
91E5
330
1F
100
AcDbEntity
  8
AM_0
100
AcDbEllipse
 10
-20.48223876953027
 20
1.821014404296121
 30
0.0
 11
-0.0257264101099994
 21
1.547302250686001
 31
0.0
210
0.0
220
0.0
230
1.0
 40
0.9545778432794998
 41
4.658569414370806
 42
4.80266437498513
  0
ELLIPSE
  5
91E6
330
1F
100
AcDbEntity
  8
AM_0
100
AcDbEllipse
 10
-9.928283691410271
 20
9.704984664917134
 30
0.0
 11
-0.0872654143299967
 21
9.999632582072003
 31
0.0
210
0.0
220
0.0
230
1.0
 40
0.8111580508982999
 41
1.674951882171563
 42
1.814619618097366
  0
ELLIPSE
  5
91E7
330
1F
100
AcDbEntity
  8
AM_0
100
AcDbEllipse
 10
-17.33761596680027
 20
8.600278854370131
 30
0.0
 11
-0.0069885555599869
 21
0.7999572669769961
 31
0.0
210
0.0
220
0.0
230
1.0
 40
0.8111625258688
 41
0.7730248598570499
 42
1.570805645270359
  0
ELLIPSE
  5
91E8
330
1F
100
AcDbEntity
  8
AM_0
100
AcDbEllipse
 10
-17.52862548828026
 20
8.598630905151125
 30
0.0
 11
-0.0069732965500309
 21
0.799957280922996
 31
0.0
210
0.0
220
0.0
230
1.0
 40
0.8111817205235
 41
0.5170811073623188
 42
0.6757901064966492
  0
ELLIPSE
  5
91E9
330
1F
100
AcDbEntity
  8
AM_0
100
AcDbEllipse
 10
-17.58068847657027
 20
8.598173141479122
 30
0.0
 11
0.6074676621000196
 21
0.6181640657620035
 31
0.0
210
0.0
220
0.0
230
1.0
 40
0.8390994988504999
 41
0.6989690369085589
 42
1.214828744351358
  0
ELLIPSE
  5
91EA
330
1F
100
AcDbEntity
  8
AM_0
100
AcDbEllipse
 10
-1.701751708990272
 20
-2.525604248046832
 30
0.0
 11
0.3169250460099982
 21
0.2955322191860013
 31
0.0
210
0.0
220
0.0
230
1.0
 40
0.8391047132912998
 41
6.196891801779217
 42
6.441544204617656
  0
ELLIPSE
  5
91EB
330
1F
100
AcDbEntity
  8
AM_0
100
AcDbEllipse
 10
-1.701751708990272
 20
-2.525604248046832
 30
0.0
 11
-0.4631042583599765
 21
0.0161743674370021
 31
0.0
210
0.0
220
0.0
230
1.0
 40
0.8631949024595
 41
3.141592552311615
 42
3.926985542887189
  0
ELLIPSE
  5
91F5
330
1F
100
AcDbEntity
  8
AM_0
100
AcDbEllipse
 10
-26.48175048828027
 20
7.237668991088099
 30
0.0
 11
-0.230056715470029
 21
0.7827453714590002
 31
0.0
210
0.0
220
0.0
230
1.0
 40
0.9689419257883999
 41
0.0931267207801505
 42
0.9008783526823117
  0
ELLIPSE
  5
91F6
330
1F
100
AcDbEntity
  8
AM_0
100
AcDbEllipse
 10
-26.44485473633027
 20
7.333097457885116
 30
0.0
 11
-0.8062438743900202
 21
0.0444030095800001
 31
0.0
210
0.0
220
0.0
230
1.0
 40
0.8984459024437999
 41
4.892133899039202
 42
5.191914333813191
  0
ELLIPSE
  5
91F7
330
1F
100
AcDbEntity
  8
AM_0
100
AcDbEllipse
 10
-23.37396240235027
 20
4.52139091491712
 30
0.0
 11
2.012618951679995
 21
1.015991148140007
 31
0.0
210
0.0
220
0.0
230
1.0
 40
0.9048707328581999
 41
0.5328225135125752
 42
1.81650094905594
  0
ELLIPSE
  5
91F8
330
1F
100
AcDbEntity
  8
AM_0
100
AcDbEllipse
 10
-23.37396240235027
 20
4.52139091491712
 30
0.0
 11
1.393112158339985
 21
1.786314939145003
 31
0.0
210
0.0
220
0.0
230
1.0
 40
0.9147861462799999
 41
2.873893932128684
 42
2.983978173495561
  0
ELLIPSE
  5
91F9
330
1F
100
AcDbEntity
  8
AM_0
100
AcDbEllipse
 10
-21.58636474610027
 20
7.849149703979122
 30
0.0
 11
0.7511901709199821
 21
0.5954589646050027
 31
0.0
210
0.0
220
0.0
230
1.0
 40
0.6375004585830001
 41
0.578109396434552
 42
0.7894187801849958
  0
ELLIPSE
  5
91FA
330
1F
100
AcDbEntity
  8
AM_0
100
AcDbEllipse
 10
-23.37396240235027
 20
4.52139091491712
 30
0.0
 11
1.393112158339985
 21
1.786314939145003
 31
0.0
210
0.0
220
0.0
230
1.0
 40
0.9147861462799999
 41
1.700195692244562
 42
2.873893932128684
  0
ELLIPSE
  5
91FB
330
1F
100
AcDbEntity
  8
AM_0
100
AcDbEllipse
 10
-23.37396240235027
 20
4.52139091491712
 30
0.0
 11
2.284195018599973
 21
0.0437316920780094
 31
0.0
210
0.0
220
0.0
230
0.9999999999999998
 40
0.9513347645738001
 41
5.684833383998716
 42
6.857865742382235
  0
ELLIPSE
  5
91FC
330
1F
100
AcDbEntity
  8
AM_0
100
AcDbEllipse
 10
-23.37396240235027
 20
4.52139091491712
 30
0.0
 11
2.284195018599973
 21
0.0437316920780094
 31
0.0
210
0.0
220
0.0
230
0.9999999999999998
 40
0.9513347645738001
 41
0.5746808005772758
 42
0.6853691750774789
  0
ELLIPSE
  5
91FD
330
1F
100
AcDbEntity
  8
AM_0
100
AcDbEllipse
 10
-23.37396240235027
 20
4.52139091491712
 30
0.0
 11
0.383956977159978
 21
2.247313531586002
 31
0.0
210
0.0
220
0.0
230
0.9999999999999998
 40
0.9735809645574999
 41
2.768345286673547
 42
4.051372750813774
  0
ELLIPSE
  5
9201
330
1F
100
AcDbEntity
  8
AM_0
100
AcDbEllipse
 10
-26.31182861328027
 20
1.16595458984311
 30
0.0
 11
2.447174093660006
 21
1.735320994887005
 31
0.0
210
0.0
220
0.0
230
0.9999999999999998
 40
0.9540542761484999
 41
3.226577595544427
 42
4.181091102790672
  0
ELLIPSE
  5
9202
330
1F
100
AcDbEntity
  8
AM_0
100
AcDbEllipse
 10
-21.95080566407027
 20
1.629150390625127
 30
0.0
 11
2.447189275069999
 21
1.735321018933005
 31
0.0
210
0.0
220
0.0
230
1.0
 40
0.9540532739345
 41
4.181089229416672
 42
5.689850112086768
  0
ELLIPSE
  5
9203
330
1F
100
AcDbEntity
  8
AM_0
100
AcDbEllipse
 10
-9.820617675780269
 20
-0.6937561035158666
 30
0.0
 11
8.863083108620001
 21
1.222137545486017
 31
0.0
210
0.0
220
0.0
230
1.0
 40
0.6963643230109004
 41
5.807983819542533
 42
5.856433080733865
  0
ELLIPSE
  5
9204
330
1F
100
AcDbEntity
  8
AM_0
100
AcDbEllipse
 10
-10.04772949219027
 20
0.0045757293701456
 30
0.0
 11
0.3129728223699822
 21
8.962614848423996
 31
0.0
210
0.0
220
0.0
230
0.9999999999999998
 40
0.9848088696048
 41
4.313662644210095
 42
4.471739928677834
  0
ELLIPSE
  5
9205
330
1F
100
AcDbEntity
  8
AM_0
100
AcDbEllipse
 10
-10.04772949219027
 20
0.0045757293701456
 30
0.0
 11
0.3129728223699822
 21
8.962614848423996
 31
0.0
210
0.0
220
0.0
230
0.9999999999999998
 40
0.9848088696048
 41
4.153731396200413
 42
4.311181528991226
  0
ELLIPSE
  5
9206
330
1F
100
AcDbEntity
  8
AM_0
100
AcDbEllipse
 10
-9.95703125000027
 20
-0.0582294464118576
 30
0.0
 11
1.655624266799956
 21
8.744719762843997
 31
0.0
210
0.0
220
0.0
230
0.9999999999999998
 40
0.981314020255
 41
4.299399522729383
 42
4.30246716774586
  0
ELLIPSE
  5
9207
330
1F
100
AcDbEntity
  8
AM_0
100
AcDbEllipse
 10
-10.04772949219027
 20
0.0045757293701456
 30
0.0
 11
0.3129728223699822
 21
8.962614848423996
 31
0.0
210
0.0
220
0.0
230
0.9999999999999998
 40
0.9848088696048
 41
3.191824820246536
 42
4.147161593375256
  0
ELLIPSE
  5
9208
330
1F
100
AcDbEntity
  8
AM_0
100
AcDbEllipse
 10
-5.737182617190271
 20
3.542448043823142
 30
0.0
 11
-3.947143170250011
 21
4.656523902266996
 31
0.0
210
0.0
220
0.0
230
1.0
 40
0.5601384840726001
 41
2.071373876428174
 42
3.389390507219024
  0
ELLIPSE
  5
9209
330
1F
100
AcDbEntity
  8
AM_0
100
AcDbEllipse
 10
-12.29821777344024
 20
-5.307495117187869
 30
0.0
 11
0.0523529351099767
 21
1.499084441716998
 31
0.0
210
0.0
220
0.0
230
1.0
 40
0.9848232100426999
 41
3.141592564819742
 42
4.295378921682207
  0
ELLIPSE
  5
920A
330
1F
100
AcDbEntity
  8
AM_0
100
AcDbEllipse
 10
-12.29821777344024
 20
-5.307495117187869
 30
0.0
 11
0.0523529351099767
 21
1.499084441716998
 31
0.0
210
0.0
220
0.0
230
1.0
 40
0.9848232100426999
 41
1.570805761848952
 42
3.141592742359843
  0
ELLIPSE
  5
920B
330
1F
100
AcDbEntity
  8
AM_0
100
AcDbEllipse
 10
-5.737182617190271
 20
3.542448043823142
 30
0.0
 11
-3.947143170250011
 21
4.656523902266996
 31
0.0
210
0.0
220
0.0
230
1.0
 40
0.5601384840726001
 41
2.017937098532827
 42
2.071373876428174
  0
ELLIPSE
  5
920C
330
1F
100
AcDbEntity
  8
AM_0
100
AcDbEllipse
 10
-30.87982177735026
 20
-6.102233886718892
 30
0.0
 11
-1.223587011869996
 21
0.8676452961879991
 31
0.0
210
0.0
220
0.0
230
1.0
 40
0.9540745895322
 41
0.5314200041051627
 42
2.930422097960104
  0
ELLIPSE
  5
920D
330
1F
100
AcDbEntity
  8
AM_0
100
AcDbEllipse
 10
-25.72503662110027
 20
1.258361816406107
 30
0.0
 11
1.223587039450022
 21
0.8676452572940036
 31
0.0
210
0.0
220
0.0
230
1.0
 40
0.9540745895322
 41
3.141592561958795
 42
4.966482039116104
  0
ELLIPSE
  5
920E
330
1F
100
AcDbEntity
  8
AM_0
100
AcDbEllipse
 10
-20.47845458985027
 20
1.815643310546121
 30
0.0
 11
1.223587039450021
 21
0.8676452572950051
 31
0.0
210
0.0
220
0.0
230
0.9999999999999998
 40
0.9540745895321999
 41
3.395616779849306
 42
5.607495201862565
  0
ELLIPSE
  5
920F
330
1F
100
AcDbEntity
  8
AM_0
100
AcDbEllipse
 10
-25.72503662110027
 20
1.258361816406107
 30
0.0
 11
1.223587039450022
 21
0.8676452572940036
 31
0.0
210
0.0
220
0.0
230
1.0
 40
0.9540745895322
 41
2.047502286564288
 42
3.141592745220791
  0
ELLIPSE
  5
9210
330
1F
100
AcDbEntity
  8
AM_0
100
AcDbEllipse
 10
-26.24151611328027
 20
1.986694335937102
 30
0.0
 11
1.223587039450022
 21
0.8676452572940036
 31
0.0
210
0.0
220
0.0
230
1.0
 40
0.9540745895322
 41
3.458941761241111
 42
3.646474569209228
  0
ELLIPSE
  5
9211
330
1F
100
AcDbEntity
  8
AM_0
100
AcDbEllipse
 10
-11.56381225586027
 20
2.690458297729136
 30
0.0
 11
-0.0261841613399897
 21
2.999876907615998
 31
0.0
210
0.0
220
0.0
230
1.0
 40
0.9848121355414001
 41
2.356194648503719
 42
3.141592742360842
  0
ELLIPSE
  5
9212
330
1F
100
AcDbEntity
  8
AM_0
100
AcDbEllipse
 10
-6.203674316410271
 20
1.03717041015615
 30
0.0
 11
-0.0130767064200116
 21
1.499938945563002
 31
0.0
210
0.0
220
0.0
230
1.0
 40
0.9848118212700999
 41
2.619198014724434
 42
3.14159274236087
  0
ELLIPSE
  5
9213
330
1F
100
AcDbEntity
  8
AM_0
100
AcDbEllipse
 10
-14.79809570313027
 20
5.701658248901139
 30
0.0
 11
-0.0261687839699849
 21
2.999877041796999
 31
0.0
210
0.0
220
0.0
230
1.0
 40
0.9848070492634001
 41
1.570802004953333
 42
2.033995482377926
  0
ELLIPSE
  5
9214
330
1F
100
AcDbEntity
  8
AM_0
100
AcDbEllipse
 10
-15.05856323242027
 20
5.699369430542134
 30
0.0
 11
-0.0235596289800295
 21
2.699889151018005
 31
0.0
210
0.0
220
0.0
230
1.0
 40
0.9848087175275999
 41
1.570793552281876
 42
2.181181777666691
  0
ELLIPSE
  5
9215
330
1F
100
AcDbEntity
  8
AM_0
100
AcDbEllipse
 10
-3.28338623047027
 20
1.062652587890156
 30
0.0
 11
-0.0130920848300236
 21
1.499938930626999
 31
0.0
210
0.0
220
0.0
230
1.0
 40
0.9848015704514001
 41
3.141592564817791
 42
3.66390433141799
  0
ELLIPSE
  5
9216
330
1F
100
AcDbEntity
  8
AM_0
100
AcDbEllipse
 10
-3.706481933600272
 20
1.058959960937144
 30
0.0
 11
-0.0130767064100071
 21
1.499938945563999
 31
0.0
210
0.0
220
0.0
230
1.0
 40
0.9848118212700999
 41
3.141592564818715
 42
3.663901272604339
  0
ELLIPSE
  5
9217
330
1F
100
AcDbEntity
  8
AM_0
100
AcDbEllipse
 10
-12.03903198242026
 20
2.686307907104136
 30
0.0
 11
-0.0235596289800295
 21
2.699889151019
 31
0.0
210
0.0
220
0.0
230
0.9999999999999998
 40
0.9848087175275999
 41
2.543422488047633
 42
3.14159274236115
  0
ELLIPSE
  5
921A
330
1F
100
AcDbEntity
  8
AM_0
100
AcDbEllipse
 10
-8.444396972660271
 20
9.717954635620159
 30
0.0
 11
-0.0872654143299967
 21
9.999632582071996
 31
0.0
210
0.0
220
0.0
230
1.0
 40
0.9848063671790001
 41
1.892469068168457
 42
3.141592742361362
  0
ELLIPSE
  5
921B
330
1F
100
AcDbEntity
  8
AM_0
100
AcDbEllipse
 10
-23.31518554688027
 20
3.284147262573114
 30
0.0
 11
-71.00317345349011
 21
37.12188549293886
 31
0.0
210
0.0
220
0.0
230
1.0
 40
0.0827711986905
 41
4.582522765468741
 42
4.675905160638792
  0
ELLIPSE
  5
921C
330
1F
100
AcDbEntity
  8
AM_0
100
AcDbEllipse
 10
-23.31518554688027
 20
3.284147262573114
 30
0.0
 11
-71.00317345349011
 21
37.12188549293886
 31
0.0
210
0.0
220
0.0
230
1.0
 40
0.0827711986905
 41
4.461701394277957
 42
4.534696633853195
  0
ELLIPSE
  5
921D
330
1F
100
AcDbEntity
  8
AM_0
100
AcDbEllipse
 10
-22.07165527344027
 20
5.662656784057119
 30
0.0
 11
-71.00317345350011
 21
37.12188549293886
 31
0.0
210
0.0
220
0.0
230
0.9999999999999998
 40
0.0827710201481
 41
4.441311806889451
 42
4.534696900015435
  0
ELLIPSE
  5
921E
330
1F
100
AcDbEntity
  8
AM_0
100
AcDbEllipse
 10
-22.07165527344027
 20
5.662656784057119
 30
0.0
 11
-71.00318697571011
 21
37.12189256262286
 31
0.0
210
0.0
220
0.0
230
1.0
 40
0.082771093656
 41
4.582522996129111
 42
4.655540480480646
  0
ELLIPSE
  5
921F
330
1F
100
AcDbEntity
  8
AM_0
100
AcDbEllipse
 10
-23.07617187500027
 20
3.741270065307119
 30
0.0
 11
-70.94276297227004
 21
37.09030167974286
 31
0.0
210
0.0
220
0.0
230
1.0
 40
0.0827711746893
 41
4.585885326470283
 42
4.680944512465355
  0
ELLIPSE
  5
9220
330
1F
100
AcDbEntity
  8
AM_0
100
AcDbEllipse
 10
-22.31063842774027
 20
5.205503463745131
 30
0.0
 11
-70.94277649448009
 21
37.09030874942585
 31
0.0
210
0.0
220
0.0
230
1.0
 40
0.0827710695653
 41
4.585885420157312
 42
4.66761463937427
  0
ELLIPSE
  5
9221
330
1F
100
AcDbEntity
  8
AM_0
100
AcDbEllipse
 10
-8.966430664070273
 20
4.593198776245159
 30
0.0
 11
-0.0196381184000005
 21
2.249907382700001
 31
0.0
210
0.0
220
0.0
230
1.0
 40
0.9848156568372999
 41
3.704580728531075
 42
4.712392341913087
  0
ELLIPSE
  5
9222
330
1F
100
AcDbEntity
  8
AM_0
100
AcDbEllipse
 10
-8.966430664070273
 20
4.593198776245159
 30
0.0
 11
-0.0196381184000005
 21
2.249907382700001
 31
0.0
210
0.0
220
0.0
230
1.0
 40
0.9848156568372999
 41
4.712392341913087
 42
6.758680176716492
  0
ELLIPSE
  5
9223
330
1F
100
AcDbEntity
  8
AM_0
100
AcDbEllipse
 10
-23.07617187500027
 20
3.741270065307119
 30
0.0
 11
-70.94276297227004
 21
37.09030167974286
 31
0.0
210
0.0
220
0.0
230
1.0
 40
0.0827711746893
 41
4.449600216509699
 42
4.531335942107923
  0
ELLIPSE
  5
9224
330
1F
100
AcDbEntity
  8
AM_0
100
AcDbEllipse
 10
-22.31063842774027
 20
5.205503463745131
 30
0.0
 11
-70.94277649448009
 21
37.09030874942585
 31
0.0
210
0.0
220
0.0
230
1.0
 40
0.0827710695653
 41
4.436272159643579
 42
4.531336167063065
  0
ELLIPSE
  5
9225
330
1F
100
AcDbEntity
  8
AM_0
100
AcDbEllipse
 10
-30.69787597657025
 20
-5.845611572265909
 30
0.0
 11
-1.223587011869996
 21
0.8676452961879991
 31
0.0
210
0.0
220
0.0
230
1.0
 40
0.9540745895322
 41
2.102105370565235
 42
2.762530020961301
  0
ELLIPSE
  5
9226
330
1F
100
AcDbEntity
  8
AM_0
100
AcDbEllipse
 10
-30.79321289063026
 20
-5.980041503906903
 30
0.0
 11
-0.7749481365000304
 21
0.549530001456999
 31
0.0
210
0.0
220
0.0
230
1.0
 40
0.9540572601071001
 41
2.101366068526349
 42
3.170799771475682
  0
ELLIPSE
  5
9227
330
1F
100
AcDbEntity
  8
AM_0
100
AcDbEllipse
 10
-30.79321289063026
 20
-5.980041503906903
 30
0.0
 11
-0.7749481365000304
 21
0.549530001456999
 31
0.0
210
0.0
220
0.0
230
1.0
 40
0.9540572601071001
 41
0.2328134090150186
 42
2.101366068526349
  0
ELLIPSE
  5
9228
330
1F
100
AcDbEntity
  8
AM_0
100
AcDbEllipse
 10
-30.69787597657025
 20
-5.845611572265909
 30
0.0
 11
-1.223587011869996
 21
0.8676452961879991
 31
0.0
210
0.0
220
0.0
230
1.0
 40
0.9540745895322
 41
0.5561256879661031
 42
2.102105370565235
  0
ELLIPSE
  5
9229
330
1F
100
AcDbEntity
  8
AM_0
100
AcDbEllipse
 10
-12.11639404297024
 20
-5.313842773437869
 30
0.0
 11
0.0331573996600109
 21
0.9494323857460004
 31
0.0
210
0.0
220
0.0
230
0.9999999999999998
 40
0.9847803528842
 41
0.0
 42
6.283185307179586
  0
ELLIPSE
  5
922A
330
1F
100
AcDbEntity
  8
AM_0
100
AcDbEllipse
 10
-4.215881347660243
 20
-3.143737792968849
 30
0.0
 11
0.1047058702200102
 21
2.998168883434001
 31
0.0
210
0.0
220
0.0
230
1.0
 40
0.9848133553970999
 41
4.171186772217398
 42
4.712387528550285
  0
ELLIPSE
  5
922B
330
1F
100
AcDbEntity
  8
AM_0
100
AcDbEllipse
 10
-4.320007324220242
 20
-3.140106201171846
 30
0.0
 11
0.0837556127499918
 21
2.398529125866002
 31
0.0
210
0.0
220
0.0
230
0.9999999999999998
 40
0.9848018515656001
 41
4.171194534078686
 42
4.476858499767373
  0
ELLIPSE
  5
922C
330
1F
100
AcDbEntity
  8
AM_0
100
AcDbEllipse
 10
-4.325439453130243
 20
-3.138580322265852
 30
0.0
 11
0.0387419938999708
 21
2.402709965989999
 31
0.0
210
0.0
220
0.0
230
1.0
 40
0.9858442390053001
 41
4.457797145723828
 42
4.462774321005888
  0
ELLIPSE
  5
922D
330
1F
100
AcDbEntity
  8
AM_0
100
AcDbEllipse
 10
-10.14556884766027
 20
0.7050457000731285
 30
0.0
 11
-0.6302644130600087
 21
9.419585177332001
 31
0.0
210
0.0
220
0.0
230
0.9999999999999998
 40
0.9855328229369998
 41
3.993058533045119
 42
3.996637420950268
  0
ELLIPSE
  5
922E
330
1F
100
AcDbEntity
  8
AM_0
100
AcDbEllipse
 10
-10.09945678711027
 20
0.6694011688231285
 30
0.0
 11
0.3280635326299643
 21
9.394286463280003
 31
0.0
210
0.0
220
0.0
230
1.0
 40
0.9848067716463997
 41
4.098270098822024
 42
4.171299568370223
  0
ELLIPSE
  5
922F
330
1F
100
AcDbEntity
  8
AM_0
100
AcDbEllipse
 10
-9.995361328130272
 20
0.6657695770261399
 30
0.0
 11
0.3489837487700045
 21
9.993895302356996
 31
0.0
210
0.0
220
0.0
230
1.0
 40
0.9848098552071999
 41
3.141592564818538
 42
4.171298896203552
  0
ELLIPSE
  5
9232
330
1F
100
AcDbEntity
  8
AM_0
100
AcDbEllipse
 10
-9.16162109375027
 20
4.391477584838142
 30
0.0
 11
-0.0187529319500229
 21
2.149931899900003
 31
0.0
210
0.0
220
0.0
230
0.9999999999999998
 40
0.9848050707649999
 41
0.0
 42
0.8550519204114689
  0
ELLIPSE
  5
9233
330
1F
100
AcDbEntity
  8
AM_0
100
AcDbEllipse
 10
-9.078338623050271
 20
4.392210006713142
 30
0.0
 11
-0.0187683115399906
 21
2.149932004123002
 31
0.0
210
0.0
220
0.0
230
0.9999999999999998
 40
0.9847978644930998
 41
0.0
 42
1.093392259838188
  0
ELLIPSE
  5
9234
330
1F
100
AcDbEntity
  8
AM_0
100
AcDbEllipse
 10
-9.078338623050271
 20
4.392210006713142
 30
0.0
 11
-0.0187683115399906
 21
2.149932004123002
 31
0.0
210
0.0
220
0.0
230
0.9999999999999998
 40
0.9847978644930998
 41
3.186537089455622
 42
6.283185307179586
  0
ELLIPSE
  5
9235
330
1F
100
AcDbEntity
  8
AM_0
100
AcDbEllipse
 10
-9.074829101570273
 20
4.392240524292148
 30
0.0
 11
-0.0148467192900091
 21
1.699919717746005
 31
0.0
210
0.0
220
0.0
230
1.0
 40
0.9848217846999
 41
0.0
 42
6.283185307179586
  0
ELLIPSE
  5
9236
330
1F
100
AcDbEntity
  8
AM_0
100
AcDbEllipse
 10
-9.074829101570273
 20
4.392240524292148
 30
0.0
 11
-0.0122223538400049
 21
1.399931959719999
 31
0.0
210
0.0
220
0.0
230
1.0
 40
0.9848173456104001
 41
3.141592564819213
 42
6.283185307179586
  0
ELLIPSE
  5
9237
330
1F
100
AcDbEntity
  8
AM_0
100
AcDbEllipse
 10
-9.074829101570273
 20
4.392240524292148
 30
0.0
 11
-0.0122223538400049
 21
1.399931959719999
 31
0.0
210
0.0
220
0.0
230
1.0
 40
0.9848173456104001
 41
0.0
 42
3.141592742360372
  0
ELLIPSE
  5
9238
330
1F
100
AcDbEntity
  8
AM_0
100
AcDbEllipse
 10
-9.28320312500027
 20
4.390409469604151
 30
0.0
 11
-0.0122223538500094
 21
1.399931959719999
 31
0.0
210
0.0
220
0.0
230
1.0
 40
0.9848173456104001
 41
3.226846120003584
 42
6.196779328648513
  0
ELLIPSE
  5
9239
330
1F
100
AcDbEntity
  8
AM_0
100
AcDbEllipse
 10
-23.52020263672027
 20
4.396360397338114
 30
0.0
 11
1.753814790710007
 21
1.243651457138003
 31
0.0
210
0.0
220
0.0
230
1.0
 40
0.9540624596630999
 41
0.0
 42
1.039495604216639
  0
ELLIPSE
  5
923A
330
1F
100
AcDbEntity
  8
AM_0
100
AcDbEllipse
 10
-23.51666259766027
 20
4.391416549682119
 30
0.0
 11
1.386734038090023
 21
0.9833364788950078
 31
0.0
210
0.0
220
0.0
230
0.9999999999999998
 40
0.9540684469625
 41
0.0
 42
6.283185307179586
  0
ELLIPSE
  5
923B
330
1F
100
AcDbEntity
  8
AM_0
100
AcDbEllipse
 10
-23.52020263672027
 20
4.396360397338114
 30
0.0
 11
1.753814790710007
 21
1.243651457138003
 31
0.0
210
0.0
220
0.0
230
1.0
 40
0.9540624596630999
 41
1.039495604216639
 42
1.616001034966415
  0
ELLIPSE
  5
923C
330
1F
100
AcDbEntity
  8
AM_0
100
AcDbEllipse
 10
-23.52020263672027
 20
4.396360397338114
 30
0.0
 11
1.753814790710007
 21
1.243651457138003
 31
0.0
210
0.0
220
0.0
230
1.0
 40
0.9540624596630999
 41
3.821987788633003
 42
6.283185307179586
  0
ELLIPSE
  5
923D
330
1F
100
AcDbEntity
  8
AM_0
100
AcDbEllipse
 10
-23.60333251953027
 20
4.513608932495131
 30
0.0
 11
1.753814790700002
 21
1.243651457137002
 31
0.0
210
0.0
220
0.0
230
1.0
 40
0.9540624596630999
 41
0.0
 42
0.8878187335059529
  0
ELLIPSE
  5
923E
330
1F
100
AcDbEntity
  8
AM_0
100
AcDbEllipse
 10
-23.51666259766027
 20
4.391416549682119
 30
0.0
 11
1.14201353198001
 21
0.8098143933460045
 31
0.0
210
0.0
220
0.0
230
0.9999999999999998
 40
0.9540608448511001
 41
0.0
 42
1.039503456889443
  0
ELLIPSE
  5
923F
330
1F
100
AcDbEntity
  8
AM_0
100
AcDbEllipse
 10
-23.51666259766027
 20
4.391416549682119
 30
0.0
 11
1.14201353198001
 21
0.8098143933460045
 31
0.0
210
0.0
220
0.0
230
0.9999999999999998
 40
0.9540608448511001
 41
1.039503456889443
 42
3.14159274522211
  0
ELLIPSE
  5
9240
330
1F
100
AcDbEntity
  8
AM_0
100
AcDbEllipse
 10
-23.51666259766027
 20
4.391416549682119
 30
0.0
 11
1.14201353198001
 21
0.8098143933460045
 31
0.0
210
0.0
220
0.0
230
0.9999999999999998
 40
0.9540608448511001
 41
3.141592561957475
 42
6.283185307179586
  0
ELLIPSE
  5
9241
330
1F
100
AcDbEntity
  8
AM_0
100
AcDbEllipse
 10
-23.72467041016027
 20
4.684690475463114
 30
0.0
 11
1.14201353198001
 21
0.8098143933460045
 31
0.0
210
0.0
220
0.0
230
0.9999999999999998
 40
0.9540608448511001
 41
3.275770805444361
 42
6.150047854521728
  0
ARC
  5
924C
330
1F
100
AcDbEntity
  8
AM_11
100
AcDbCircle
 10
-10.00000000000027
 20
0.0000000000001421
 30
0.0
 40
10.0
100
AcDbArc
 50
269.9999974955182
 51
90.00000250448172
  0
LINE
  5
924D
330
1F
100
AcDbEntity
  8
AM_7
100
AcDbLine
 10
2.639068603509727
 20
0.0000000000001705
 30
0.0
 11
-253.763444331672
 21
-0.0000000000003273
 31
0.0
  0
LINE
  5
924E
330
1F
100
AcDbEntity
  8
AM_11
100
AcDbLine
 10
-32.00000000000024
 20
-9.999999999999886
 30
0.0
 11
-10.00000000000024
 21
-9.999999999999857
 31
0.0
  0
LINE
  5
924F
330
1F
100
AcDbEntity
  8
AM_11
100
AcDbLine
 10
-32.00000000000028
 20
9.999998092651097
 30
0.0
 11
-10.00000000000027
 21
9.999998092651139
 31
0.0
  0
LINE
  5
9250
330
1F
100
AcDbEntity
  8
AM_0
100
AcDbLine
 10
-16.06817626953026
 20
9.411409378051132
 30
0.0
 11
-14.96969604492027
 21
9.420991897583135
 31
0.0
  0
LINE
  5
9251
330
1F
100
AcDbEntity
  8
AM_0
100
AcDbLine
 10
-40.01629638672024
 20
-8.999999999999914
 30
0.0
 11
-14.57849121094024
 21
-8.999999999999857
 31
0.0
  0
LINE
  5
9252
330
1F
100
AcDbEntity
  8
AM_0
100
AcDbLine
 10
-19.45333862305027
 20
6.357542037963114
 30
0.0
 11
-13.63430786133027
 21
0.551000595092134
 31
0.0
  0
LINE
  5
9253
330
1F
100
AcDbEntity
  8
AM_0
100
AcDbLine
 10
-14.47088623047024
 20
-9.184024810790859
 30
0.0
 11
-17.64642333985024
 21
-9.073123931884879
 31
0.0
  0
LINE
  5
925C
330
1F
100
AcDbEntity
  8
AM_0
100
AcDbLine
 10
-247.0000000000002
 20
-12.50000000000032
 30
0.0
 11
-80.00000000000023
 21
-12.49999999999998
 31
0.0
  0
LINE
  5
925D
330
1F
100
AcDbEntity
  8
AM_0
100
AcDbLine
 10
-80.00000000000026
 20
12.499998092651
 30
0.0
 11
-247.0000000000003
 21
12.49999809265069
 31
0.0
  0
LINE
  5
925F
330
1F
100
AcDbEntity
  8
AM_0
100
AcDbLine
 10
-247.0000000000002
 20
-12.50000000000031
 30
0.0
 11
-247.0000000000002
 21
12.49999809265068
 31
0.0
  0
LINE
  5
9260
330
1F
100
AcDbEntity
  8
AM_0
100
AcDbLine
 10
-248.5176391601602
 20
-12.09335327148532
 30
0.0
 11
-248.5176391601602
 21
12.09335136413469
 31
0.0
  0
LINE
  5
9261
330
1F
100
AcDbEntity
  8
AM_0
100
AcDbLine
 10
-250.0000000000002
 20
-10.16149902343832
 30
0.0
 11
-250.0000000000003
 21
10.16149711608765
 31
0.0
  0
ARC
  5
9262
330
1F
100
AcDbEntity
  8
AM_0
100
AcDbCircle
 10
-248.0000000000002
 20
-10.16149902343832
 30
0.0
 40
2.0
100
AcDbArc
 50
180.0000086514218
 51
255.0000004932023
  0
LINE
  5
9263
330
1F
100
AcDbEntity
  8
AM_0
100
AcDbLine
 10
-248.5176391601602
 20
-12.09335899353132
 30
0.0
 11
-247.0000000000002
 21
-12.50000190734931
 31
0.0
  0
LINE
  5
9265
330
1F
100
AcDbEntity
  8
AM_0
100
AcDbLine
 10
-247.0000610351602
 20
12.50000190734767
 30
0.0
 11
-248.5177001953102
 21
12.09335899352967
 31
0.0
  0
ARC
  5
9266
330
1F
100
AcDbEntity
  8
AM_0
100
AcDbCircle
 10
-248.0000000000003
 20
10.16149711608767
 30
0.0
 40
2.000000238418599
100
AcDbArc
 50
104.9999926766061
 51
180.0000050089577
  0
LINE
  5
9268
330
1F
100
AcDbEntity
  8
AM_11
100
AcDbLine
 10
-32.00000000000028
 20
9.999998092651097
 30
0.0
 11
-32.00000000000024
 21
-9.999999999999886
 31
0.0
  0
LINE
  5
9269
330
1F
100
AcDbEntity
  8
AM_0
100
AcDbLine
 10
-24.97778320313027
 20
2.517963409423117
 30
0.0
 11
-26.95474243164027
 21
0.8667926788331072
 31
0.0
  0
LINE
  5
926A
330
1F
100
AcDbEntity
  8
AM_0
100
AcDbLine
 10
-26.13381958008027
 20
0.1917190551751133
 30
0.0
 11
-24.97778320313027
 21
2.517940521240106
 31
0.0
  0
LINE
  5
926B
330
1F
100
AcDbEntity
  8
AM_0
100
AcDbLine
 10
-21.43466186524027
 20
2.894279479980127
 30
0.0
 11
-19.87539672852027
 21
0.8564376831051276
 31
0.0
  0
LINE
  5
926C
330
1F
100
AcDbEntity
  8
AM_0
100
AcDbLine
 10
-26.95474243164027
 20
0.8668041229241083
 30
0.0
 11
-27.35269165039027
 21
7.005220413208107
 31
0.0
  0
LINE
  5
926D
330
1F
100
AcDbEntity
  8
AM_0
100
AcDbLine
 10
-80.00000000000023
 20
-12.49999999999998
 30
0.0
 11
-80.00000000000028
 21
12.499998092651
 31
0.0
  0
LINE
  5
926E
330
1F
100
AcDbEntity
  8
AM_0
100
AcDbLine
 10
-77.00000000000023
 20
-11.49999999999998
 30
0.0
 11
-77.00000000000028
 21
11.49999809265101
 31
0.0
  0
LINE
  5
926F
330
1F
100
AcDbEntity
  8
AM_0
100
AcDbLine
 10
-70.00000000000023
 20
-11.49999999999996
 30
0.0
 11
-70.00000000000028
 21
11.49999809265102
 31
0.0
  0
LINE
  5
9270
330
1F
100
AcDbEntity
  8
AM_0
100
AcDbLine
 10
-40.01629638672024
 20
-8.999999999999914
 30
0.0
 11
-40.01629638672028
 21
8.999998092651082
 31
0.0
  0
LINE
  5
9276
330
1F
100
AcDbEntity
  8
AM_0
100
AcDbLine
 10
-77.00000000000023
 20
-11.49999999999998
 30
0.0
 11
-70.00000000000023
 21
-11.49999999999996
 31
0.0
  0
ARC
  5
9277
330
1F
100
AcDbEntity
  8
AM_0
100
AcDbCircle
 10
-77.00000000000023
 20
-16.50000095367498
 30
0.0
 40
5.0
100
AcDbArc
 50
90.00000250448172
 51
126.8699032291534
  0
LINE
  5
9278
330
1F
100
AcDbEntity
  8
AM_0
100
AcDbLine
 10
-32.94430541992024
 20
-6.777853012084904
 30
0.0
 11
-32.35418701172025
 21
-5.945648193359886
 31
0.0
  0
LINE
  5
9279
330
1F
100
AcDbEntity
  8
AM_0
100
AcDbLine
 10
-32.35415649414025
 20
-5.945655822753906
 30
0.0
 11
-32.53890991211024
 21
-8.795202255248909
 31
0.0
  0
LINE
  5
927A
330
1F
100
AcDbEntity
  8
AM_0
100
AcDbLine
 10
-26.13378906250027
 20
0.1917266845701135
 30
0.0
 11
-19.87536621094027
 21
0.8564605712891193
 31
0.0
  0
LINE
  5
927B
330
1F
100
AcDbEntity
  8
AM_0
100
AcDbLine
 10
-21.76330566407027
 20
-1.262935638427876
 30
0.0
 11
-26.12432861328027
 21
-1.726165771484886
 31
0.0
  0
LINE
  5
927C
330
1F
100
AcDbEntity
  8
AM_0
100
AcDbLine
 10
-27.90881347657027
 20
-1.768152236938888
 30
0.0
 11
-27.89556884766027
 21
-1.787000656127887
 31
0.0
  0
LINE
  5
927D
330
1F
100
AcDbEntity
  8
AM_0
100
AcDbLine
 10
-26.12432861328027
 20
-1.72615432739289
 30
0.0
 11
-25.18441772461024
 21
-3.05162620544489
 31
0.0
  0
LINE
  5
927E
330
1F
100
AcDbEntity
  8
AM_0
100
AcDbLine
 10
-24.61166381836027
 20
0.351926803588114
 30
0.0
 11
-24.61627197266027
 21
0.3465843200681036
 31
0.0
  0
LINE
  5
927F
330
1F
100
AcDbEntity
  8
AM_0
100
AcDbLine
 10
-24.61978149414027
 20
0.3515567779541016
 30
0.0
 11
-24.61627197266027
 21
0.3465976715081069
 31
0.0
  0
LINE
  5
9280
330
1F
100
AcDbEntity
  8
AM_0
100
AcDbLine
 10
-18.21771240235024
 20
-9.053195953369879
 30
0.0
 11
-17.64639282227024
 21
-9.073123931884879
 31
0.0
  0
LINE
  5
9281
330
1F
100
AcDbEntity
  8
AM_0
100
AcDbLine
 10
-21.76333618164027
 20
-1.262939453124872
 30
0.0
 11
-20.68444824219024
 21
-2.78440856933588
 31
0.0
  0
LINE
  5
9282
330
1F
100
AcDbEntity
  8
AM_0
100
AcDbLine
 10
-18.27795410157027
 20
0.9210453033441154
 30
0.0
 11
-17.90264892578027
 21
0.3917655944821234
 31
0.0
  0
LINE
  5
9283
330
1F
100
AcDbEntity
  8
AM_0
100
AcDbLine
 10
-21.45462036133026
 20
0.6824054718011184
 30
0.0
 11
-21.45989990235027
 21
0.6867389678951242
 31
0.0
  0
LINE
  5
9284
330
1F
100
AcDbEntity
  8
AM_0
100
AcDbLine
 10
-21.45816040039027
 20
0.6873359680171234
 30
0.0
 11
-21.45462036133026
 21
0.682392120361115
 31
0.0
  0
LINE
  5
9285
330
1F
100
AcDbEntity
  8
AM_0
100
AcDbLine
 10
-18.39157104492024
 20
-8.999998092651878
 30
0.0
 11
-18.38504028321024
 21
-9.047338485717858
 31
0.0
  0
LINE
  5
9286
330
1F
100
AcDbEntity
  8
AM_0
100
AcDbLine
 10
-18.38504028321024
 20
-9.047336578369879
 30
0.0
 11
-19.74069213867024
 21
-9.000001907348874
 31
0.0
  0
LINE
  5
9287
330
1F
100
AcDbEntity
  8
AM_0
100
AcDbLine
 10
-18.21127319336024
 20
-9.000015258789858
 30
0.0
 11
-18.21771240235024
 21
-9.053182601928881
 31
0.0
  0
LINE
  5
9288
330
1F
100
AcDbEntity
  8
AM_0
100
AcDbLine
 10
-18.21774291992024
 20
-9.05320358276387
 30
0.0
 11
-18.38500976563024
 21
-9.047346115112873
 31
0.0
  0
LINE
  5
9289
330
1F
100
AcDbEntity
  8
AM_0
100
AcDbLine
 10
-17.64642333985024
 20
-9.073112487792869
 30
0.0
 11
-17.63754272461024
 21
-9.000011444091882
 31
0.0
  0
LINE
  5
928C
330
1F
100
AcDbEntity
  8
AM_0
100
AcDbLine
 10
-70.00000000000028
 20
11.49999809265102
 30
0.0
 11
-77.00000000000028
 21
11.49999809265101
 31
0.0
  0
ARC
  5
928D
330
1F
100
AcDbEntity
  8
AM_0
100
AcDbCircle
 10
-77.00000000000028
 20
16.49999809265101
 30
0.0
 40
5.0
100
AcDbArc
 50
233.1300967708468
 51
269.9999974955182
  0
LINE
  5
928E
330
1F
100
AcDbEntity
  8
AM_0
100
AcDbLine
 10
-17.93771362305027
 20
8.999998092651125
 30
0.0
 11
-40.01629638672028
 21
8.999998092651082
 31
0.0
  0
LINE
  5
9290
330
1F
100
AcDbEntity
  8
AM_0
100
AcDbLine
 10
-26.62991333008027
 20
7.844251632690117
 30
0.0
 11
-20.37149047852027
 21
8.509016036987119
 31
0.0
  0
LINE
  5
9291
330
1F
100
AcDbEntity
  8
AM_0
100
AcDbLine
 10
-21.32635498047027
 20
8.60854911804212
 30
0.0
 11
-26.54888916016027
 21
8.053831100463099
 31
0.0
  0
LINE
  5
9292
330
1F
100
AcDbEntity
  8
AM_0
100
AcDbLine
 10
-25.20306396485027
 20
5.993162155151111
 30
0.0
 11
-26.62991333008027
 21
7.844255447387098
 31
0.0
  0
LINE
  5
9293
330
1F
100
AcDbEntity
  8
AM_0
100
AcDbLine
 10
-27.35269165039027
 20
7.005212783813107
 30
0.0
 11
-25.20306396485027
 21
5.993158340454101
 31
0.0
  0
LINE
  5
9294
330
1F
100
AcDbEntity
  8
AM_0
100
AcDbLine
 10
-27.21908569336027
 20
7.549116134643099
 30
0.0
 11
-27.30194091797027
 21
7.334814071655102
 31
0.0
  0
LINE
  5
9295
330
1F
100
AcDbEntity
  8
AM_0
100
AcDbLine
 10
-26.54885864258027
 20
8.053831100463099
 30
0.0
 11
-26.62991333008027
 21
7.844221115112105
 31
0.0
  0
LINE
  5
9296
330
1F
100
AcDbEntity
  8
AM_0
100
AcDbLine
 10
-25.20309448242027
 20
5.993169784545102
 30
0.0
 11
-24.75521850586027
 21
6.040746688842105
 31
0.0
  0
LINE
  5
9297
330
1F
100
AcDbEntity
  8
AM_0
100
AcDbLine
 10
-25.17459106446027
 20
5.553903579711118
 30
0.0
 11
-25.20309448242027
 21
5.993165969848107
 31
0.0
  0
LINE
  5
9298
330
1F
100
AcDbEntity
  8
AM_0
100
AcDbLine
 10
-24.97778320313027
 20
2.517951965332116
 30
0.0
 11
-25.00628662110027
 21
2.95721435546811
 31
0.0
  0
LINE
  5
9299
330
1F
100
AcDbEntity
  8
AM_0
100
AcDbLine
 10
-24.97778320313027
 20
2.517942428588114
 30
0.0
 11
-24.52993774414027
 21
2.565519332885116
 31
0.0
  0
LINE
  5
929A
330
1F
100
AcDbEntity
  8
AM_0
100
AcDbLine
 10
-27.31329345703027
 20
7.301782608032112
 30
0.0
 11
-27.34835815430027
 21
7.84266853332511
 31
0.0
  0
LINE
  5
929B
330
1F
100
AcDbEntity
  8
AM_0
100
AcDbLine
 10
-20.37152099610027
 20
8.508996963501132
 30
0.0
 11
-21.65994262696027
 21
6.369501113891132
 31
0.0
  0
LINE
  5
929C
330
1F
100
AcDbEntity
  8
AM_0
100
AcDbLine
 10
-21.65994262696027
 20
6.369489669799122
 30
0.0
 11
-19.55056762696027
 21
7.833906173706125
 31
0.0
  0
LINE
  5
929D
330
1F
100
AcDbEntity
  8
AM_0
100
AcDbLine
 10
-19.15261840821027
 20
1.695486068725116
 30
0.0
 11
-21.43466186524027
 21
2.894281387329115
 31
0.0
  0
LINE
  5
929E
330
1F
100
AcDbEntity
  8
AM_0
100
AcDbLine
 10
-17.79708862305027
 20
8.596273422241125
 30
0.0
 11
-17.77703857422027
 21
8.444177627563121
 31
0.0
  0
LINE
  5
929F
330
1F
100
AcDbEntity
  8
AM_0
100
AcDbLine
 10
-17.00942993164026
 20
9.403184890747112
 30
0.0
 11
-16.06814575196027
 21
9.411394119262126
 31
0.0
  0
LINE
  5
92A0
330
1F
100
AcDbEntity
  8
AM_0
100
AcDbLine
 10
-22.10778808594027
 20
6.321924209594115
 30
0.0
 11
-21.65994262696027
 21
6.369501113891132
 31
0.0
  0
LINE
  5
92A1
330
1F
100
AcDbEntity
  8
AM_0
100
AcDbLine
 10
-20.37152099610027
 20
8.509008407592119
 30
0.0
 11
-21.32638549805027
 21
8.608552932739129
 31
0.0
  0
LINE
  5
92A2
330
1F
100
AcDbEntity
  8
AM_0
100
AcDbLine
 10
-20.20352172852027
 20
8.509302139282127
 30
0.0
 11
-21.16445922852027
 21
8.609487533569122
 31
0.0
  0
LINE
  5
92A3
330
1F
100
AcDbEntity
  8
AM_0
100
AcDbLine
 10
-21.46310424805027
 20
3.333555221557119
 30
0.0
 11
-21.43463134766027
 21
2.894292831420116
 31
0.0
  0
LINE
  5
92A4
330
1F
100
AcDbEntity
  8
AM_0
100
AcDbLine
 10
-21.65994262696027
 20
6.369497299194122
 30
0.0
 11
-21.63146972657027
 21
5.930234909057119
 31
0.0
  0
LINE
  5
92A5
330
1F
100
AcDbEntity
  8
AM_0
100
AcDbLine
 10
-19.15261840821027
 20
1.695478439331125
 30
0.0
 11
-19.55059814453027
 21
7.833925247192112
 31
0.0
  0
LINE
  5
92A6
330
1F
100
AcDbEntity
  8
AM_0
100
AcDbLine
 10
-21.88247680664026
 20
2.846696853637126
 30
0.0
 11
-21.43466186524027
 21
2.894271850585127
 31
0.0
  0
LINE
  5
92A7
330
1F
100
AcDbEntity
  8
AM_0
100
AcDbLine
 10
-19.00601196289026
 20
1.762290954589118
 30
0.0
 11
-18.99624633789026
 21
1.762504577636121
 31
0.0
  0
LINE
  5
92A8
330
1F
100
AcDbEntity
  8
AM_0
100
AcDbLine
 10
-19.18542480469027
 20
2.227943420410127
 30
0.0
 11
-19.01364135742026
 21
1.985675811767123
 31
0.0
  0
LINE
  5
92A9
330
1F
100
AcDbEntity
  8
AM_0
100
AcDbLine
 10
-19.89031982422027
 20
8.404031753540124
 30
0.0
 11
-19.91787719727027
 21
8.829072952270124
 31
0.0
  0
LINE
  5
92AA
330
1F
100
AcDbEntity
  8
AM_0
100
AcDbLine
 10
-19.42971801758027
 20
6.000719070434129
 30
0.0
 11
-19.01361083985027
 21
1.985691070556114
 31
0.0
  0
LINE
  5
92AB
330
1F
100
AcDbEntity
  8
AM_0
100
AcDbLine
 10
-19.91079711914027
 20
8.820970535278121
 30
0.0
 11
-19.86584472657027
 21
8.387228012084122
 31
0.0
  0
LINE
  5
92AC
330
1F
100
AcDbEntity
  8
AM_0
100
AcDbLine
 10
-17.75241088867026
 20
5.675867080688121
 30
0.0
 11
-17.76531982422027
 21
7.15395927429212
 31
0.0
  0
LINE
  5
92AD
330
1F
100
AcDbEntity
  8
AM_0
100
AcDbLine
 10
-17.72351074219027
 20
6.370676040649115
 30
0.0
 11
-17.71743774414026
 21
5.676179885864129
 31
0.0
  0
LINE
  5
92AE
330
1F
100
AcDbEntity
  8
AM_0
100
AcDbLine
 10
-17.71746826172027
 20
5.676172256469115
 30
0.0
 11
-17.75241088867026
 21
5.675867080688121
 31
0.0
  0
LINE
  5
92AF
330
1F
100
AcDbEntity
  8
AM_0
100
AcDbLine
 10
-17.98651123047027
 20
8.594648361206125
 30
0.0
 11
-17.79708862305027
 21
8.596296310424122
 31
0.0
  0
LINE
  5
92B0
330
1F
100
AcDbEntity
  8
AM_0
100
AcDbLine
 10
-17.76397705078027
 20
6.998506546020124
 30
0.0
 11
-17.74362182617027
 21
6.998689651489129
 31
0.0
  0
LINE
  5
92B1
330
1F
100
AcDbEntity
  8
AM_0
100
AcDbLine
 10
-17.76300048828026
 20
9.221086502075124
 30
0.0
 11
-17.93963623047027
 21
9.219560623168121
 31
0.0
  0
LINE
  5
92B2
330
1F
100
AcDbEntity
  8
AM_0
100
AcDbLine
 10
-17.44879150391027
 20
9.399354934692112
 30
0.0
 11
-17.00942993164026
 21
9.403200149536118
 31
0.0
  0
LINE
  5
92B3
330
1F
100
AcDbEntity
  8
AM_0
100
AcDbLine
 10
-17.74362182617027
 20
6.998678207397119
 30
0.0
 11
-17.74392700196027
 21
7.034231185913128
 31
0.0
  0
LINE
  5
92B4
330
1F
100
AcDbEntity
  8
AM_0
100
AcDbLine
 10
-17.76293945313027
 20
9.211603164672126
 30
0.0
 11
-17.76303100586027
 21
9.221094131469115
 31
0.0
  0
LINE
  5
92B5
330
1F
100
AcDbEntity
  8
AM_0
100
AcDbLine
 10
-17.93963623047027
 20
9.219575881958121
 30
0.0
 11
-17.93759155274027
 21
8.984754562377119
 31
0.0
  0
LINE
  5
92B6
330
1F
100
AcDbEntity
  8
AM_0
100
AcDbLine
 10
-21.76641845703027
 20
5.640024185180124
 30
0.0
 11
-21.84951782227027
 21
5.757253646850116
 31
0.0
  0
LINE
  5
92BB
330
1F
100
AcDbEntity
  8
AM_7
100
AcDbLine
 10
21.51927239373923
 20
0.0000000000002132
 30
0.0
 11
54.34080559685923
 21
0.00000000000027
 31
0.0
  0
LINE
  5
92CB
330
1F
100
AcDbEntity
  8
AM_0
100
AcDbLine
 10
-7.701751708990272
 20
-0.2759323120118466
 30
0.0
 11
-2.722808837890269
 21
-0.2325057983398437
 31
0.0
  0
LINE
  5
92CC
330
1F
100
AcDbEntity
  8
AM_0
100
AcDbLine
 10
-6.38250732422027
 20
-0.4644336700438459
 30
0.0
 11
-9.916290283210273
 21
-0.4952869415288604
 31
0.0
  0
LINE
  5
92CD
330
1F
100
AcDbEntity
  8
AM_0
100
AcDbLine
 10
-11.28533935547027
 20
-0.5072479248048581
 30
0.0
 11
-9.916320800780269
 21
-0.4953155517578694
 31
0.0
  0
LINE
  5
92CE
330
1F
100
AcDbEntity
  8
AM_0
100
AcDbLine
 10
-14.47088623047024
 20
-9.184024810790859
 30
0.0
 11
-14.11404418946024
 21
-9.196475982665859
 31
0.0
  0
LINE
  5
92CF
330
1F
100
AcDbEntity
  8
AM_0
100
AcDbLine
 10
-9.916320800780241
 20
-8.962188720703863
 30
0.0
 11
-9.916320800780269
 21
-0.4953002929688637
 31
0.0
  0
LINE
  5
92D0
330
1F
100
AcDbEntity
  8
AM_0
100
AcDbLine
 10
-13.77450561524024
 20
-5.255920410156861
 30
0.0
 11
-14.09356689453024
 21
-5.244781494140866
 31
0.0
  0
LINE
  5
92D1
330
1F
100
AcDbEntity
  8
AM_0
100
AcDbLine
 10
-13.83966064453024
 20
-7.121372222900859
 30
0.0
 11
-13.77453613282024
 21
-5.255931854248871
 31
0.0
  0
LINE
  5
92D2
330
1F
100
AcDbEntity
  8
AM_0
100
AcDbLine
 10
-11.53765869141027
 20
-0.3094062805178623
 30
0.0
 11
-7.701751708990272
 21
-0.275928497314851
 31
0.0
  0
LINE
  5
92D3
330
1F
100
AcDbEntity
  8
AM_0
100
AcDbLine
 10
-12.01547241211027
 20
-0.0135803222658666
 30
0.0
 11
-10.75375366211027
 21
-0.0025939941408666
 31
0.0
  0
LINE
  5
92D4
330
1F
100
AcDbEntity
  8
AM_0
100
AcDbLine
 10
-12.01544189453026
 20
-0.0135879516608668
 30
0.0
 11
-11.96652221680027
 21
-0.2814331054688637
 31
0.0
  0
LINE
  5
92D5
330
1F
100
AcDbEntity
  8
AM_0
100
AcDbLine
 10
-10.39376831055024
 20
-8.969503402709847
 30
0.0
 11
-10.34432983399024
 21
-9.328109741210852
 31
0.0
  0
LINE
  5
92D6
330
1F
100
AcDbEntity
  8
AM_0
100
AcDbLine
 10
-10.34436035157024
 20
-9.32812690734886
 30
0.0
 11
-9.719635009770243
 21
-9.349948883056867
 31
0.0
  0
LINE
  5
92D7
330
1F
100
AcDbEntity
  8
AM_0
100
AcDbLine
 10
-10.34432983399024
 20
-9.328130722045855
 30
0.0
 11
-14.11404418946024
 21
-9.196477890014861
 31
0.0
  0
LINE
  5
92D8
330
1F
100
AcDbEntity
  8
AM_0
100
AcDbLine
 10
-14.11404418946024
 20
-9.196456909179858
 30
0.0
 11
-14.14114379883024
 21
-8.999641418457855
 31
0.0
  0
LINE
  5
92D9
330
1F
100
AcDbEntity
  8
AM_0
100
AcDbLine
 10
-14.48028564453024
 20
-8.999961853027855
 30
0.0
 11
-14.47088623047024
 21
-9.184019088745856
 31
0.0
  0
LINE
  5
92DA
330
1F
100
AcDbEntity
  8
AM_0
100
AcDbLine
 10
-0.8817138671902426
 20
-2.845445632934826
 30
0.0
 11
-0.8739013671902711
 21
-2.554504394531832
 31
0.0
  0
LINE
  5
92DB
330
1F
100
AcDbEntity
  8
AM_0
100
AcDbLine
 10
-0.0000305175802708
 20
0.5912780761711645
 30
0.0
 11
-0.0163269043002714
 21
0.7434539794921591
 31
0.0
  0
LINE
  5
92DC
330
1F
100
AcDbEntity
  8
AM_0
100
AcDbLine
 10
-2.722808837890269
 20
-0.232507705688846
 30
0.0
 11
-1.682434082030269
 21
-0.2234153747558309
 31
0.0
  0
LINE
  5
92DD
330
1F
100
AcDbEntity
  8
AM_0
100
AcDbLine
 10
-1.682403564460273
 20
-0.2234134674078376
 30
0.0
 11
-0.7740173339902725
 21
-0.2154788970948402
 31
0.0
  0
LINE
  5
92DE
330
1F
100
AcDbEntity
  8
AM_0
100
AcDbLine
 10
-1.27050781250027
 20
-2.140411376953835
 30
0.0
 11
-1.27050781250027
 21
-0.4287719726568327
 31
0.0
  0
LINE
  5
92DF
330
1F
100
AcDbEntity
  8
AM_0
100
AcDbLine
 10
-1.27050781250027
 20
-2.140411376953835
 30
0.0
 11
-1.400177001960273
 21
-2.135894775390838
 31
0.0
  0
LINE
  5
92E0
330
1F
100
AcDbEntity
  8
AM_0
100
AcDbLine
 10
-1.27050781250027
 20
-0.4287719726568327
 30
0.0
 11
-1.27050781250027
 21
-0.4198303222658382
 31
0.0
  0
LINE
  5
92E1
330
1F
100
AcDbEntity
  8
AM_0
100
AcDbLine
 10
-1.27050781250027
 20
-0.4198322296148263
 30
0.0
 11
-6.38250732422027
 21
-0.4644489288328515
 31
0.0
  0
LINE
  5
92E2
330
1F
100
AcDbEntity
  8
AM_0
100
AcDbLine
 10
-1.27050781250027
 20
-0.2198181152348297
 30
0.0
 11
-1.27050781250027
 21
-0.4198303222658382
 31
0.0
  0
LINE
  5
92E3
330
1F
100
AcDbEntity
  8
AM_0
100
AcDbLine
 10
-6.650207519530269
 20
-0.2667827606208419
 30
0.0
 11
-6.62582397461027
 21
-0.400165557861854
 31
0.0
  0
LINE
  5
92E4
330
1F
100
AcDbEntity
  8
AM_0
100
AcDbLine
 10
-3.729888916020271
 20
-0.2412929534918504
 30
0.0
 11
-3.693420410160271
 21
-0.4409904479988569
 31
0.0
  0
LINE
  5
92E5
330
1F
100
AcDbEntity
  8
AM_0
100
AcDbLine
 10
-1.364410400390269
 20
-2.254354476928838
 30
0.0
 11
-1.524475097660271
 21
-2.383081436157837
 31
0.0
  0
LINE
  5
92E6
330
1F
100
AcDbEntity
  8
AM_0
100
AcDbLine
 10
-1.238647460940271
 20
-2.541782379150831
 30
0.0
 11
-1.263244628910243
 21
-3.246828079223831
 31
0.0
  0
LINE
  5
92E7
330
1F
100
AcDbEntity
  8
AM_0
100
AcDbLine
 10
-1.812774658210244
 20
-3.227664947509836
 30
0.0
 11
-1.263275146490244
 21
-3.246829986572834
 31
0.0
  0
LINE
  5
92E8
330
1F
100
AcDbEntity
  8
AM_0
100
AcDbLine
 10
-2.338470458990244
 20
-4.446197509765852
 30
0.0
 11
-1.738983154300242
 21
-4.776369094848831
 31
0.0
  0
LINE
  5
92E9
330
1F
100
AcDbEntity
  8
AM_0
100
AcDbLine
 10
-1.238647460940271
 20
-2.541778564453835
 30
0.0
 11
-0.8739318847702719
 21
-2.554506301879825
 31
0.0
  0
LINE
  5
92EA
330
1F
100
AcDbEntity
  8
AM_0
100
AcDbLine
 10
-1.27050781250027
 20
-2.140419006347826
 30
0.0
 11
-1.24822998047027
 21
-2.141212463378835
 31
0.0
  0
LINE
  5
92EB
330
1F
100
AcDbEntity
  8
AM_0
100
AcDbLine
 10
-1.263275146490244
 20
-3.246822357177833
 30
0.0
 11
-0.8862609863302424
 21
-3.260005950927833
 31
0.0
  0
LINE
  5
92EC
330
1F
100
AcDbEntity
  8
AM_0
100
AcDbLine
 10
-1.738983154300242
 20
-4.776380538940841
 30
0.0
 11
-1.281738281250241
 21
-4.792341232299833
 31
0.0
  0
LINE
  5
92FC
330
1F
100
AcDbEntity
  8
AM_0
100
AcDbLine
 10
-14.96969604492027
 20
9.420999526977141
 30
0.0
 11
-9.649658203130272
 21
9.467416763305138
 31
0.0
  0
LINE
  5
92FD
330
1F
100
AcDbEntity
  8
AM_0
100
AcDbLine
 10
-9.097106933600272
 20
6.542119979858156
 30
0.0
 11
-9.180389404300271
 21
6.541418075561153
 31
0.0
  0
DIMENSION
  5
9451
330
1F
100
AcDbEntity
  8
AM_5
100
AcDbDimension
  2
*D5
 10
-0.0000000000002213
 20
26.50000290734767
 30
0.0
 11
-16.00000000000023
 21
29.1000029073477
 31
0.0
 70
    32
  1
30
 51
359.9999999999998
  3
AM_JIS$0
100
AcDbAlignedDimension
 13
-32.00000000000029
 23
9.999998092651082
 33
0.0
 14
-0.00000000000027
 24
0.0000000000001847
 34
0.0
 50
180.0
100
AcDbRotatedDimension
1001
GENIUS_GENDTOL_13
1000

1000
h7
1000

1040
0.0
1001
ACAD
1000
DSTYLE
1002
{
1070
   287
1070
     3
1070
    42
1040
1.0
1070
    43
1040
12.0
1070
    48
1040
0.1
1070
    78
1070
     8
1070
   140
1040
3.2
1070
   147
1040
1.0
1070
   176
1070
   256
1070
   177
1070
   256
1070
   271
1070
     1
1070
   272
1070
     3
1070
   275
1070
     0
1070
   284
1070
     0
1070
   289
1070
     3
1070
   340
1005
6B
1070
   371
1070
    -1
1070
   372
1070
    -1
1002
}
  0
DIMENSION
  5
94E6
330
1F
100
AcDbEntity
  8
AM_5
100
AcDbDimension
  2
*D6
 10
-0.0000000000002787
 20
-26.50000290734931
 30
0.0
 11
-20.00814819336026
 21
-23.90000290734931
 31
0.0
 70
    32
  1
<>
 51
359.9999999999998
  3
AM_JIS$0
100
AcDbAlignedDimension
 13
-40.01629638672024
 23
-8.9999999999999
 33
0.0
 14
-0.0000000000002771
 24
0.0000000000001847
 34
0.0
100
AcDbRotatedDimension
1001
GENIUS_GENDTOL_13
1000

1000
h7
1000

1040
0.0
1001
ACAD
1000
DSTYLE
1002
{
1070
   287
1070
     3
1070
    42
1040
1.0
1070
    43
1040
12.0
1070
    48
1040
0.1
1070
    78
1070
     8
1070
   140
1040
3.2
1070
   147
1040
1.0
1070
   176
1070
   256
1070
   177
1070
   256
1070
   271
1070
     1
1070
   272
1070
     3
1070
   275
1070
     0
1070
   284
1070
     0
1070
   289
1070
     3
1070
   340
1005
6B
1070
   371
1070
    -1
1070
   372
1070
    -1
1002
}
  0
DIMENSION
  5
957B
330
1F
100
AcDbEntity
  8
AM_5
100
AcDbDimension
  2
*D7
 10
-80.00000000000023
 20
-36.50000290734931
 30
0.0
 11
-40.00000000000025
 21
-33.90000290734931
 31
0.0
 70
    32
  1
<>
 51
359.9999999999998
  3
AM_JIS$0
100
AcDbAlignedDimension
 13
-0.0000000000002771
 23
0.0000000000001847
 33
0.0
 14
-80.00000000000023
 24
-12.49999999999998
 34
0.0
100
AcDbRotatedDimension
1001
GENIUS_GENDTOL_13
1000

1000
h7
1000

1040
0.0
1001
ACAD
1000
DSTYLE
1002
{
1070
   287
1070
     3
1070
    42
1040
1.0
1070
    43
1040
12.0
1070
    48
1040
0.1
1070
    78
1070
     8
1070
   140
1040
3.2
1070
   147
1040
1.0
1070
   176
1070
   256
1070
   177
1070
   256
1070
   271
1070
     1
1070
   272
1070
     3
1070
   275
1070
     0
1070
   284
1070
     0
1070
   289
1070
     3
1070
   340
1005
6B
1070
   371
1070
    -1
1070
   372
1070
    -1
1002
}
  0
DIMENSION
  5
9619
330
1F
100
AcDbEntity
  8
AM_5
100
AcDbDimension
  2
*D8
 10
-250.0000000000002
 20
-46.50000290734931
 30
0.0
 11
-125.0000000000002
 21
-43.9000029073493
 31
0.0
 70
    32
  1
<>
 51
359.9999999999998
  3
AM_JIS$0
100
AcDbAlignedDimension
 13
-0.0000000000002771
 23
0.0000000000001847
 33
0.0
 14
-250.0000000000002
 24
-10.16149932542991
 34
0.0
100
AcDbRotatedDimension
1001
GENIUS_GENDTOL_13
1000

1000
h7
1000

1040
0.0
1001
ACAD
1000
DSTYLE
1002
{
1070
   287
1070
     3
1070
    42
1040
1.0
1070
    43
1040
12.0
1070
    48
1040
0.1
1070
    78
1070
     8
1070
   140
1040
3.2
1070
   147
1040
1.0
1070
   176
1070
   256
1070
   177
1070
   256
1070
   271
1070
     1
1070
   272
1070
     3
1070
   275
1070
     0
1070
   284
1070
     0
1070
   289
1070
     3
1070
   340
1005
6B
1070
   371
1070
    -1
1070
   372
1070
    -1
1002
}
  0
DIMENSION
  5
96AE
330
1F
100
AcDbEntity
  8
AM_5
100
AcDbDimension
  2
*D9
 10
-80.00000038978873
 20
-36.50000290734931
 30
0.0
 11
-165.0000001948944
 21
-33.90000290734931
 31
0.0
 70
    32
  1
<>
 51
359.9999999999998
  3
AM_JIS$0
100
AcDbAlignedDimension
 13
-250.0000000000002
 23
-10.16149932542991
 33
0.0
 14
-80.00000038978873
 24
-12.50000124601639
 34
0.0
100
AcDbRotatedDimension
1001
GENIUS_GENDTOL_13
1000

1000
h7
1000

1040
0.0
1001
ACAD
1000
DSTYLE
1002
{
1070
   287
1070
     3
1070
    42
1040
1.0
1070
    43
1040
12.0
1070
    48
1040
0.1
1070
    78
1070
     8
1070
   140
1040
3.2
1070
   147
1040
1.0
1070
   176
1070
   256
1070
   177
1070
   256
1070
   271
1070
     1
1070
   272
1070
     3
1070
   275
1070
     0
1070
   284
1070
     0
1070
   289
1070
     3
1070
   340
1005
6B
1070
   371
1070
    -1
1070
   372
1070
    -1
1002
}
  0
DIMENSION
  5
974C
330
1F
100
AcDbEntity
  8
AM_5
100
AcDbDimension
  2
*D10
 10
16.63906960350972
 20
-9.999999999999864
 30
0.0
 11
14.03906960350972
 21
0.0000000000001307
 31
0.0
 70
    32
  1
%%c<>
 51
359.9999999999998
  3
AM_JIS$0
100
AcDbAlignedDimension
 13
-10.00000043711479
 23
10.00000000000012
 33
0.0
 14
-10.00000000000024
 24
-9.999999999999857
 34
0.0
 50
90.0
100
AcDbRotatedDimension
1001
GENIUS_GENDTOL_13
1000

1000
h7
1000

1040
0.0
1001
ACAD
1000
DSTYLE
1002
{
1070
   287
1070
     3
1070
    42
1040
1.0
1070
    43
1040
12.0
1070
    48
1040
0.1
1070
    78
1070
     8
1070
   140
1040
3.2
1070
   147
1040
1.0
1070
   176
1070
   256
1070
   177
1070
   256
1070
   271
1070
     1
1070
   272
1070
     3
1070
   275
1070
     0
1070
   284
1070
     0
1070
   289
1070
     3
1070
   340
1005
6B
1070
   371
1070
    -1
1070
   372
1070
    -1
1002
}
  0
DIMENSION
  5
97F6
330
1F
100
AcDbEntity
  8
AM_5
100
AcDbDimension
  2
*D11
 10
-267.763445331672
 20
-12.50000190734931
 30
0.0
 11
-270.3634453316721
 21
-0.0000019073493533
 31
0.0
 70
    32
  1
%%c<>
 51
359.9999999999998
  3
AM_JIS$0
100
AcDbAlignedDimension
 13
-247.0000000000002
 23
12.49999809265068
 33
0.0
 14
-247.0000000000002
 24
-12.50000190734931
 34
0.0
 50
270.0
100
AcDbRotatedDimension
1001
GENIUS_GENDTOL_13
1000

1000
h7
1000

1040
0.0
1001
ACAD
1000
DSTYLE
1002
{
1070
   287
1070
     3
1070
   147
1040
1.0
1070
    40
1040
1.0
1070
    42
1040
1.0
1070
    43
1040
12.0
1070
    48
1040
0.1
1070
    78
1070
     8
1070
   140
1040
3.2
1070
   176
1070
   256
1070
   177
1070
   256
1070
   271
1070
     1
1070
   272
1070
     3
1070
   275
1070
     0
1070
   284
1070
     0
1070
   289
1070
     3
1070
   340
1005
6B
1070
   371
1070
    -1
1070
   372
1070
    -1
1002
}
  0
LINE
  5
99CC
330
1F
100
AcDbEntity
  8
AM_0
100
AcDbLine
 10
-40.01632690430028
 20
9.000001907348078
 30
0.0
 11
-70.00000000000028
 21
11.49999809265102
 31
0.0
  0
LINE
  5
99CD
330
1F
100
AcDbEntity
  8
AM_0
100
AcDbLine
 10
-40.01632690430024
 20
-9.000009536743917
 30
0.0
 11
-70.00000000000023
 21
-11.49999999999996
 31
0.0
  0
VIEWPORT
  5
110
330
101
100
AcDbEntity
 67
     1
  8
0
100
AcDbViewport
 10
420.5
 20
297.0
 30
0.0
 40
948.9782706766916
 41
628.452
 68
     1
 69
     1
1001
ACAD
1000
MVIEW
1002
{
1070
    16
1010
0.0
1020
0.0
1030
0.0
1010
0.0
1020
0.0
1030
1.0
1040
0.0
1040
628.452
1040
420.5
1040
297.0
1040
50.0
1040
0.0
1040
0.0
1070
     0
1070
   100
1070
     1
1070
     1
1070
     0
1070
     0
1070
     0
1070
     0
1040
0.0
1040
0.0
1040
0.0
1040
10.0
1040
10.0
1040
10.0
1040
10.0
1070
     0
1002
{
1002
}
1002
}
  0
ENDSEC
  0
SECTION
  2
OBJECTS
  0
DICTIONARY
  5
C
330
0
100
AcDbDictionary
  3
ACAD_GROUP
350
D
  3
ACAD_LAYOUT
350
1A
  3
ACAD_MLINESTYLE
350
17
  3
ACAD_PLOTSETTINGS
350
19
  3
ACAD_PLOTSTYLENAME
350
E
  3
ACDBVARIABLEDICTIONARY
350
34
  3
ACMDICTIONARY
350
43
  3
AMG
350
2B
  3
AMGSNAPSETTINGS
350
6E
  3
DWGPROPS
350
9C37
  3
ACDBHEADERROUNDTRIPXREC
350
9C48
  0
DICTIONARY
  5
74
330
1F
100
AcDbDictionary
280
     1
  3
ACAD_INDEX
360
9C39
  3
ACAD_LAYOUTSELFREF
360
9C6B
  0
DICTIONARY
  5
9C70
330
101
100
AcDbDictionary
280
     1
  3
ACAD_LAYOUTSELFREF
360
9C71
  0
DICTIONARY
  5
D
102
{ACAD_REACTORS
330
C
102
}
330
C
100
AcDbDictionary
  0
DICTIONARY
  5
1A
102
{ACAD_REACTORS
330
C
102
}
330
C
100
AcDbDictionary
  0
DICTIONARY
  5
17
102
{ACAD_REACTORS
330
C
102
}
330
C
100
AcDbDictionary
  3
STANDARD
350
18
  0
DICTIONARY
  5
19
102
{ACAD_REACTORS
330
C
102
}
330
C
100
AcDbDictionary
  3
ASAMI
350
399D
  0
ACDBDICTIONARYWDFLT
  5
E
102
{ACAD_REACTORS
330
C
102
}
330
C
100
AcDbDictionary
281
     1
  3
Normal
350
F
100
AcDbDictionaryWithDefault
340
F
  0
DICTIONARY
  5
34
102
{ACAD_REACTORS
330
C
102
}
330
C
100
AcDbDictionary
  3
INDEXCTL
350
35
  3
SORTENTS
350
B5E
  0
DICTIONARY
  5
43
102
{ACAD_REACTORS
330
C
102
}
330
C
100
AcDbDictionary
  3
ACMSTDDICTIONARY
350
260
  0
DICTIONARY
  5
2B
102
{ACAD_REACTORS
330
C
102
}
330
C
100
AcDbDictionary
  3
ACMGSETTINGS
350
2C
  0
DICTIONARY
  5
6E
102
{ACAD_REACTORS
330
C
102
}
330
C
100
AcDbDictionary
  0
XRECORD
  5
9C37
102
{ACAD_REACTORS
330
C
102
}
330
C
100
AcDbXrecord
  1
DWGPROPS COOKIE
  2

  3

  4

  6

  7

  8

  9

300
AmdtFileType=82
301
=
302
=
303
=
304
=
305
=
306
=
307
=
308
=
309
=
 40
0.9251911111111111
 41
2452802.716478761
 42
2453075.663844571
  1

 90
        1
  0
DICTIONARY
  5
9C48
102
{ACAD_REACTORS
330
C
102
}
330
C
100
AcDbDictionary
  3
TSTACKALIGN
350
9C49
  3
TSTACKSIZE
350
9C4A
  3
HYPERLINKBASE
350
9C4B
  3
STYLESHEET
350
9C4C
  3
LAYOUTDICT
350
9C4D
  3
PLOTSETDICT
350
9C4E
  3
PLOTSTYLNAMDICT
350
9C4F
  3
LWETCUNION
350
9C50
  3
INSUNITS
350
9C51
  3
CEPSNTYPE
350
9C52
  3
FINGERPRINTGUID
350
9C53
  3
VERSIONGUID
350
9C54
  3
PSVPSCALE
350
9C55
  3
DIMSTYLEDATA
350
9C56
  3
PUCSORTHOREF
350
9C57
  3
PUCSORTHOVIEW
350
9C58
  3
PUCSBASE
350
9C59
  3
PUCSORGTOP
350
9C5A
  3
PUCSORGBOTTOM
350
9C5B
  3
PUCSORGLEFT
350
9C5C
  3
PUCSORGRIGHT
350
9C5D
  3
PUCSORGFRONT
350
9C5E
  3
PUCSORGBACK
350
9C5F
  3
UCSORTHOREF
350
9C60
  3
UCSORTHOVIEW
350
9C61
  3
UCSBASE
350
9C62
  3
UCSORGTOP
350
9C63
  3
UCSORGBOTTOM
350
9C64
  3
UCSORGLEFT
350
9C65
  3
UCSORGRIGHT
350
9C66
  3
UCSORGFRONT
350
9C67
  3
UCSORGBACK
350
9C68
  0
DICTIONARY
  5
9C39
102
{ACAD_REACTORS
330
74
102
}
330
74
100
AcDbDictionary
  3
*A1
350
9C3A
  0
XRECORD
  5
9C6B
102
{ACAD_REACTORS
330
74
102
}
330
74
100
AcDbXrecord
340
1F
  0
XRECORD
  5
9C71
102
{ACAD_REACTORS
330
9C70
102
}
330
9C70
100
AcDbXrecord
340
101
  0
MLINESTYLE
  5
18
102
{ACAD_REACTORS
330
17
102
}
330
17
100
AcDbMlineStyle
  2
STANDARD
 70
     0
  3

 62
   256
 51
90.0
 52
90.0
 71
     2
 49
0.5
 62
   256
  6
BYLAYER
 49
-0.5
 62
   256
  6
BYLAYER
  0
PLOTSETTINGS
  5
399D
102
{ACAD_REACTORS
330
19
102
}
330
19
100
AcDbPlotSettings
  1
asami
  2
RICOH imagio MF1540
  4
A4
  6

 40
5.831416606903076
 41
7.651742935180664
 42
4.90008544921875
 43
5.789077758789062
 44
296.9683227539062
 45
209.9733276367187
 46
0.0
 47
0.0
 48
-156.6707931774246
 49
-74.57609991074048
140
58.59973180214831
141
60.61068161925596
142
1.0
143
1.095343097833084
 70
  1712
 72
     1
 73
     1
 74
     4
  7
asami.ctb
 75
     0
147
0.9129559514076438
148
156.6707931774246
149
74.57609991074048
  0
ACDBPLACEHOLDER
  5
F
102
{ACAD_REACTORS
330
E
102
}
330
E
100
AcDbPlaceHolder
280
     0
  0
DICTIONARYVAR
  5
35
102
{ACAD_REACTORS
330
34
102
}
330
34
100
DictionaryVariables
280
     0
  1
1
  0
DICTIONARYVAR
  5
B5E
102
{ACAD_REACTORS
330
34
102
}
330
34
100
DictionaryVariables
280
     0
  1
96
  0
DICTIONARY
  5
260
102
{ACAD_REACTORS
330
43
102
}
330
43
100
AcDbDictionary
  0
DICTIONARY
  5
2C
102
{ACAD_REACTORS
330
2B
102
}
330
2B
100
AcDbDictionary
  3
DWGSETTINGS
350
2D
  0
XRECORD
  5
9C49
102
{ACAD_REACTORS
330
9C48
102
}
330
9C48
100
AcDbXrecord
 90
        1
  0
XRECORD
  5
9C4A
102
{ACAD_REACTORS
330
9C48
102
}
330
9C48
100
AcDbXrecord
 90
       70
  0
XRECORD
  5
9C4B
102
{ACAD_REACTORS
330
9C48
102
}
330
9C48
100
AcDbXrecord
  1

  0
XRECORD
  5
9C4C
102
{ACAD_REACTORS
330
9C48
102
}
330
9C48
100
AcDbXrecord
  1
ASAMI.ctb
  0
XRECORD
  5
9C4D
102
{ACAD_REACTORS
330
9C48
102
}
330
9C48
100
AcDbXrecord
340
1A
  0
XRECORD
  5
9C4E
102
{ACAD_REACTORS
330
9C48
102
}
330
9C48
100
AcDbXrecord
340
19
  0
XRECORD
  5
9C4F
102
{ACAD_REACTORS
330
9C48
102
}
330
9C48
100
AcDbXrecord
340
E
  0
XRECORD
  5
9C50
102
{ACAD_REACTORS
330
9C48
102
}
330
9C48
100
AcDbXrecord
 90
    10781
  0
XRECORD
  5
9C51
102
{ACAD_REACTORS
330
9C48
102
}
330
9C48
100
AcDbXrecord
 90
        4
  0
XRECORD
  5
9C52
102
{ACAD_REACTORS
330
9C48
102
}
330
9C48
100
AcDbXrecord
 90
        0
  0
XRECORD
  5
9C53
102
{ACAD_REACTORS
330
9C48
102
}
330
9C48
100
AcDbXrecord
  1
{AFB28963-8C59-40AE-9337-C84526B81ACE}
  0
XRECORD
  5
9C54
102
{ACAD_REACTORS
330
9C48
102
}
330
9C48
100
AcDbXrecord
  1
{D6D95D1F-8CB4-43A3-B731-43ABE4065550}
  0
XRECORD
  5
9C55
102
{ACAD_REACTORS
330
9C48
102
}
330
9C48
100
AcDbXrecord
 40
0.0
  0
XRECORD
  5
9C56
102
{ACAD_REACTORS
330
9C48
102
}
330
9C48
100
AcDbXrecord
1000
DSTYLE
1002
{
1070
    79
 70
     2
1070
   341
340
59
1070
   342
340
59
1070
   371
 70
    -1
1070
   372
 70
    -1
1002
}
  0
XRECORD
  5
9C57
102
{ACAD_REACTORS
330
9C48
102
}
330
9C48
100
AcDbXrecord
340
0
  0
XRECORD
  5
9C58
102
{ACAD_REACTORS
330
9C48
102
}
330
9C48
100
AcDbXrecord
 70
     0
  0
XRECORD
  5
9C59
102
{ACAD_REACTORS
330
9C48
102
}
330
9C48
100
AcDbXrecord
340
0
  0
XRECORD
  5
9C5A
102
{ACAD_REACTORS
330
9C48
102
}
330
9C48
100
AcDbXrecord
 10
0.0
 20
0.0
 30
0.0
  0
XRECORD
  5
9C5B
102
{ACAD_REACTORS
330
9C48
102
}
330
9C48
100
AcDbXrecord
 10
0.0
 20
0.0
 30
0.0
  0
XRECORD
  5
9C5C
102
{ACAD_REACTORS
330
9C48
102
}
330
9C48
100
AcDbXrecord
 10
0.0
 20
0.0
 30
0.0
  0
XRECORD
  5
9C5D
102
{ACAD_REACTORS
330
9C48
102
}
330
9C48
100
AcDbXrecord
 10
0.0
 20
0.0
 30
0.0
  0
XRECORD
  5
9C5E
102
{ACAD_REACTORS
330
9C48
102
}
330
9C48
100
AcDbXrecord
 10
0.0
 20
0.0
 30
0.0
  0
XRECORD
  5
9C5F
102
{ACAD_REACTORS
330
9C48
102
}
330
9C48
100
AcDbXrecord
 10
0.0
 20
0.0
 30
0.0
  0
XRECORD
  5
9C60
102
{ACAD_REACTORS
330
9C48
102
}
330
9C48
100
AcDbXrecord
340
0
  0
XRECORD
  5
9C61
102
{ACAD_REACTORS
330
9C48
102
}
330
9C48
100
AcDbXrecord
 70
     0
  0
XRECORD
  5
9C62
102
{ACAD_REACTORS
330
9C48
102
}
330
9C48
100
AcDbXrecord
340
0
  0
XRECORD
  5
9C63
102
{ACAD_REACTORS
330
9C48
102
}
330
9C48
100
AcDbXrecord
 10
0.0
 20
0.0
 30
0.0
  0
XRECORD
  5
9C64
102
{ACAD_REACTORS
330
9C48
102
}
330
9C48
100
AcDbXrecord
 10
0.0
 20
0.0
 30
0.0
  0
XRECORD
  5
9C65
102
{ACAD_REACTORS
330
9C48
102
}
330
9C48
100
AcDbXrecord
 10
0.0
 20
0.0
 30
0.0
  0
XRECORD
  5
9C66
102
{ACAD_REACTORS
330
9C48
102
}
330
9C48
100
AcDbXrecord
 10
0.0
 20
0.0
 30
0.0
  0
XRECORD
  5
9C67
102
{ACAD_REACTORS
330
9C48
102
}
330
9C48
100
AcDbXrecord
 10
0.0
 20
0.0
 30
0.0
  0
XRECORD
  5
9C68
102
{ACAD_REACTORS
330
9C48
102
}
330
9C48
100
AcDbXrecord
 10
0.0
 20
0.0
 30
0.0
  0
LAYER_INDEX
  5
9C3A
102
{ACAD_REACTORS
330
9C39
102
}
330
9C39
100
AcDbIndex
 40
2453152.409936122
100
AcDbLayerIndex
  8
0
360
9C3B
 90
        0
  8
AM_0
360
9C3C
 90
      263
  8
AM_5
360
9C3D
 90
        7
  8
AM_7
360
9C3E
 90
        2
  8
AM_6
360
9C3F
 90
        1
  8
Defpoints
360
9C40
 90
        0
  8
AM_3
360
9C41
 90
        0
  8
AM_11
360
9C42
 90
        4
  8
PV0001_1
360
9C43
 90
        0
  8
2
360
9C44
 90
        0
  8
1
360
9C45
 90
        0
  8
AM_4
360
9C46
 90
        0
  0
XRECORD
  5
2D
102
{ACAD_REACTORS
330
2C
102
}
330
2C
100
AcDbXrecord
  1
VERSION
140
15.0
  1
PRODUCT
  2
AutoCAD Mechanical 2000
  0
IDBUFFER
  5
9C3B
330
0
100
AcDbIdBuffer
  0
IDBUFFER
  5
9C3C
330
0
100
AcDbIdBuffer
330
92DA
330
92DB
330
92DC
330
92DD
330
92DE
330
92DF
330
92E0
330
92E1
330
92E2
330
92E3
330
92E4
330
92E5
330
92E6
330
92E7
330
92E8
330
92E9
330
92EA
330
92EB
330
92EC
330
92FC
330
92FD
330
99CC
330
99CD
330
9133
330
9134
330
9135
330
9136
330
9137
330
9138
330
9139
330
913A
330
913B
330
913C
330
913D
330
913E
330
913F
330
9140
330
9176
330
9177
330
9178
330
9179
330
917A
330
917B
330
9180
330
9181
330
9182
330
9183
330
9184
330
9185
330
9186
330
9187
330
9188
330
9189
330
918A
330
918B
330
918C
330
918D
330
918E
330
918F
330
9190
330
9191
330
9192
330
9193
330
91C9
330
91CA
330
91CB
330
91CC
330
91CD
330
91D1
330
91D2
330
91D3
330
91D4
330
91D5
330
91D6
330
91D7
330
91D8
330
91D9
330
91DA
330
91DB
330
91DC
330
91DD
330
91DE
330
91DF
330
91E0
330
91E1
330
91E2
330
91E3
330
91E4
330
91E5
330
91E6
330
91E7
330
91E8
330
91E9
330
91EA
330
91EB
330
91F5
330
91F6
330
91F7
330
91F8
330
91F9
330
91FA
330
91FB
330
91FC
330
91FD
330
9201
330
9202
330
9203
330
9204
330
9205
330
9206
330
9207
330
9208
330
9209
330
920A
330
920B
330
920C
330
920D
330
920E
330
920F
330
9210
330
9211
330
9212
330
9213
330
9214
330
9215
330
9216
330
9217
330
921A
330
921B
330
921C
330
921D
330
921E
330
921F
330
9220
330
9221
330
9222
330
9223
330
9224
330
9225
330
9226
330
9227
330
9228
330
9229
330
922A
330
922B
330
922C
330
922D
330
922E
330
922F
330
9232
330
9233
330
9234
330
9235
330
9236
330
9237
330
9238
330
9239
330
923A
330
923B
330
923C
330
923D
330
923E
330
923F
330
9240
330
9241
330
9250
330
9251
330
9252
330
9253
330
925C
330
925D
330
925F
330
9260
330
9261
330
9262
330
9263
330
9265
330
9266
330
9269
330
926A
330
926B
330
926C
330
926D
330
926E
330
926F
330
9270
330
9276
330
9277
330
9278
330
9279
330
927A
330
927B
330
927C
330
927D
330
927E
330
927F
330
9280
330
9281
330
9282
330
9283
330
9284
330
9285
330
9286
330
9287
330
9288
330
9289
330
928C
330
928D
330
928E
330
9290
330
9291
330
9292
330
9293
330
9294
330
9295
330
9296
330
9297
330
9298
330
9299
330
929A
330
929B
330
929C
330
929D
330
929E
330
929F
330
92A0
330
92A1
330
92A2
330
92A3
330
92A4
330
92A5
330
92A6
330
92A7
330
92A8
330
92A9
330
92AA
330
92AB
330
92AC
330
92AD
330
92AE
330
92AF
330
92B0
330
92B1
330
92B2
330
92B3
330
92B4
330
92B5
330
92B6
330
92CB
330
92CC
330
92CD
330
92CE
330
92CF
330
92D0
330
92D1
330
92D2
330
92D3
330
92D4
330
92D5
330
92D6
330
92D7
330
92D8
330
92D9
  0
IDBUFFER
  5
9C3D
330
0
100
AcDbIdBuffer
330
9451
330
94E6
330
957B
330
9619
330
96AE
330
974C
330
97F6
  0
IDBUFFER
  5
9C3E
330
0
100
AcDbIdBuffer
330
924D
330
92BB
  0
IDBUFFER
  5
9C3F
330
0
100
AcDbIdBuffer
330
388D
  0
IDBUFFER
  5
9C40
330
0
100
AcDbIdBuffer
  0
IDBUFFER
  5
9C41
330
0
100
AcDbIdBuffer
  0
IDBUFFER
  5
9C42
330
0
100
AcDbIdBuffer
330
924C
330
924E
330
924F
330
9268
  0
IDBUFFER
  5
9C43
330
0
100
AcDbIdBuffer
  0
IDBUFFER
  5
9C44
330
0
100
AcDbIdBuffer
  0
IDBUFFER
  5
9C45
330
0
100
AcDbIdBuffer
  0
IDBUFFER
  5
9C46
330
0
100
AcDbIdBuffer
  0
ENDSEC
  0
EOF
