  0
SECTION
  2
HEADER
  9
$ACADVER
  1
AC1014
  9
$ACADMAINTVER
 70
     9
  9
$DWGCODEPAGE
  3
ANSI_932
  9
$INSBASE
 10
0.0
 20
0.0
 30
0.0
  9
$EXTMIN
 10
-261.1557524357514
 20
-63.50000000000027
 30
-0.00000001
  9
$EXTMAX
 10
18.50419457263264
 20
29.70508382552706
 30
0.00000001
  9
$LIMMIN
 10
-299.5301013321228
 20
-149.6254547828583
  9
$LIMMAX
 10
95.63094336319602
 20
113.4994127049126
  9
$ORTHOMODE
 70
     0
  9
$REGENMODE
 70
     1
  9
$FILLMODE
 70
     1
  9
$QTEXTMODE
 70
     0
  9
$MIRRTEXT
 70
     0
  9
$DRAGMODE
 70
     2
  9
$LTSCALE
 40
1.0
  9
$OSMODE
 70
    55
  9
$ATTMODE
 70
     1
  9
$TEXTSIZE
 40
2.5
  9
$TRACEWID
 40
1.0
  9
$TEXTSTYLE
  7
STANDARD
  9
$CLAYER
  8
AM_0
  9
$CELTYPE
  6
BYLAYER
  9
$CECOLOR
 62
   256
  9
$CELTSCALE
 40
1.0
  9
$DELOBJ
 70
     1
  9
$DISPSILH
 70
     0
  9
$DIMSCALE
 40
0.5
  9
$DIMASZ
 40
2.5
  9
$DIMEXO
 40
1.0
  9
$DIMDLI
 40
12.0
  9
$DIMRND
 40
0.0
  9
$DIMDLE
 40
0.0
  9
$DIMEXE
 40
1.0
  9
$DIMTP
 40
0.1
  9
$DIMTM
 40
0.1
  9
$DIMTXT
 40
3.2
  9
$DIMCEN
 40
0.0
  9
$DIMTSZ
 40
0.0
  9
$DIMTOL
 70
     0
  9
$DIMLIM
 70
     0
  9
$DIMTIH
 70
     0
  9
$DIMTOH
 70
     0
  9
$DIMSE1
 70
     0
  9
$DIMSE2
 70
     0
  9
$DIMTAD
 70
     3
  9
$DIMZIN
 70
     8
  9
$DIMBLK
  1
OPEN30
  9
$DIMASO
 70
     1
  9
$DIMSHO
 70
     1
  9
$DIMPOST
  1

  9
$DIMAPOST
  1
"
  9
$DIMALT
 70
     0
  9
$DIMALTD
 70
     2
  9
$DIMALTF
 40
0.0393701
  9
$DIMLFAC
 40
1.0
  9
$DIMTOFL
 70
     1
  9
$DIMTVP
 40
0.0
  9
$DIMTIX
 70
     0
  9
$DIMSOXD
 70
     0
  9
$DIMSAH
 70
     0
  9
$DIMBLK1
  1

  9
$DIMBLK2
  1

  9
$DIMSTYLE
  2
AM_JIS
  9
$DIMCLRD
 70
   256
  9
$DIMCLRE
 70
   256
  9
$DIMCLRT
 70
     2
  9
$DIMTFAC
 40
0.71
  9
$DIMGAP
 40
1.5
  9
$DIMJUST
 70
     0
  9
$DIMSD1
 70
     0
  9
$DIMSD2
 70
     0
  9
$DIMTOLJ
 70
     0
  9
$DIMTZIN
 70
     0
  9
$DIMALTZ
 70
     0
  9
$DIMALTTZ
 70
     0
  9
$DIMFIT
 70
     3
  9
$DIMUPT
 70
     0
  9
$DIMUNIT
 70
     2
  9
$DIMDEC
 70
     3
  9
$DIMTDEC
 70
     3
  9
$DIMALTU
 70
     2
  9
$DIMALTTD
 70
     2
  9
$DIMTXSTY
  7
ASAMI
  9
$DIMAUNIT
 70
     0
  9
$LUNITS
 70
     2
  9
$LUPREC
 70
     2
  9
$SKETCHINC
 40
1.0
  9
$FILLETRAD
 40
0.4
  9
$AUNITS
 70
     0
  9
$AUPREC
 70
     0
  9
$MENU
  1
.
  9
$ELEVATION
 40
0.0
  9
$PELEVATION
 40
0.0
  9
$THICKNESS
 40
0.0
  9
$LIMCHECK
 70
     1
  9
$BLIPMODE
 70
     0
  9
$CHAMFERA
 40
1.0
  9
$CHAMFERB
 40
1.0
  9
$CHAMFERC
 40
20.0
  9
$CHAMFERD
 40
0.0
  9
$SKPOLY
 70
     0
  9
$TDCREATE
 40
2452802.716478761
  9
$TDUPDATE
 40
2453152.415907049
  9
$TDINDWG
 40
0.9498504861
  9
$TDUSRTIMER
 40
0.9498504861
  9
$USRTIMER
 70
     1
  9
$ANGBASE
 50
0.0
  9
$ANGDIR
 70
     0
  9
$PDMODE
 70
     0
  9
$PDSIZE
 40
0.0
  9
$PLINEWID
 40
0.0
  9
$COORDS
 70
     1
  9
$SPLFRAME
 70
     0
  9
$SPLINETYPE
 70
     6
  9
$SPLINESEGS
 70
     8
  9
$ATTDIA
 70
     1
  9
$ATTREQ
 70
     1
  9
$HANDLING
 70
 12289
  9
$HANDSEED
  5
A5F4
  9
$SURFTAB1
 70
     6
  9
$SURFTAB2
 70
     6
  9
$SURFTYPE
 70
     6
  9
$SURFU
 70
     6
  9
$SURFV
 70
     6
  9
$UCSNAME
  2

  9
$UCSORG
 10
-0.0000000000002682
 20
0.000000000000161
 30
0.0
  9
$UCSXDIR
 10
1.0
 20
0.000000000000002
 30
0.0
  9
$UCSYDIR
 10
-0.000000000000002
 20
1.0
 30
0.0
  9
$PUCSNAME
  2

  9
$PUCSORG
 10
0.0
 20
0.0
 30
0.0
  9
$PUCSXDIR
 10
1.0
 20
0.0
 30
0.0
  9
$PUCSYDIR
 10
0.0
 20
1.0
 30
0.0
  9
$USERI1
 70
     0
  9
$USERI2
 70
     0
  9
$USERI3
 70
     0
  9
$USERI4
 70
     0
  9
$USERI5
 70
     0
  9
$USERR1
 40
0.0
  9
$USERR2
 40
0.0
  9
$USERR3
 40
0.0
  9
$USERR4
 40
0.0
  9
$USERR5
 40
0.0
  9
$WORLDVIEW
 70
     1
  9
$SHADEDGE
 70
     3
  9
$SHADEDIF
 70
    70
  9
$TILEMODE
 70
     1
  9
$MAXACTVP
 70
    64
  9
$PINSBASE
 10
0.0
 20
0.0
 30
0.0
  9
$PLIMCHECK
 70
     0
  9
$PEXTMIN
 10
1.000000000000000E+20
 20
1.000000000000000E+20
 30
1.000000000000000E+20
  9
$PEXTMAX
 10
-1.000000000000000E+20
 20
-1.000000000000000E+20
 30
-1.000000000000000E+20
  9
$PLIMMIN
 10
0.0
 20
0.0
  9
$PLIMMAX
 10
841.0
 20
594.0
  9
$UNITMODE
 70
     0
  9
$VISRETAIN
 70
     1
  9
$PLINEGEN
 70
     0
  9
$PSLTSCALE
 70
     0
  9
$TREEDEPTH
 70
  3020
  9
$PICKSTYLE
 70
     0
  9
$CMLSTYLE
  2
STANDARD
  9
$CMLJUST
 70
     0
  9
$CMLSCALE
 40
20.0
  9
$PROXYGRAPHICS
 70
     1
  9
$MEASUREMENT
 70
     1
  0
ENDSEC
  0
SECTION
  2
CLASSES
  0
CLASS
  1
ACDBDICTIONARYWDFLT
  2
AcDbDictionaryWithDefault
  3
AutoCAD 2000
 90
        0
280
     0
281
     0
  0
CLASS
  1
ACDBPLACEHOLDER
  2
AcDbPlaceHolder
  3
AutoCAD 2000
 90
        0
280
     0
281
     0
  0
CLASS
  1
LAYOUT
  2
AcDbLayout
  3
AutoCAD 2000
 90
        0
280
     0
281
     0
  0
CLASS
  1
AMGSETTINGSOBJ
  2
AmgSettingsObj
  3
"AcadM|Product Description: AutoCAD Mechanical 2000|Company: Autodesk"
 90
        0
280
     0
281
     0
  0
CLASS
  1
ACME_DOCUMENT
  2
AcMeDbDoc
  3
AcMeServices
 90
        0
280
     0
281
     0
  0
CLASS
  1
ACMESCOPE
  2
AcMeScope
  3
AcMeServices
 90
        0
280
     0
281
     0
  0
CLASS
  1
ACMECOMMANDHISTORY
  2
AcMeCommandHistory
  3
AcMeServices
 90
        0
280
     0
281
     0
  0
CLASS
  1
DICTIONARYVAR
  2
AcDbDictionaryVar
  3
AutoCAD 2000
 90
        0
280
     0
281
     0
  0
CLASS
  1
ACIMSYSVARMAN
  2
AcImSysVarManager
  3
AcMeServices
 90
        0
280
     0
281
     0
  0
CLASS
  1
ACIMREALSYSVAR
  2
AcImRealSysVar
  3
AcMeServices
 90
        0
280
     0
281
     0
  0
CLASS
  1
ACIMINTSYSVAR
  2
AcImIntSysVar
  3
AcMeServices
 90
        0
280
     0
281
     0
  0
CLASS
  1
ACMEDRAWINGMAN
  2
AcMeDrawingMan
  3
AcMeServices
 90
        0
280
     0
281
     0
  0
CLASS
  1
ACMEVIEW
  2
AcMeView
  3
AcMeServices
 90
        0
280
     0
281
     0
  0
CLASS
  1
ACDBENTITYCACHE
  2
AcMeEntityCache
  3
AcMeServices
 90
        0
280
     0
281
     0
  0
CLASS
  1
GSMANAGER
  2
AcMeGSManager
  3
AcMeServices
 90
        0
280
     0
281
     0
  0
CLASS
  1
AmdtInternalReactor
  2
AmdtInternalReactor
  3
AcMeServices
 90
        0
280
     0
281
     0
  0
CLASS
  1
ACMESTATEMGR
  2
AcMeStateMgr
  3
AcMeServices
 90
        0
280
     0
281
     0
  0
CLASS
  1
ACME_DATABASE
  2
AcMeDbDatabase
  3
AcMeServices
 90
        0
280
     0
281
     0
  0
CLASS
  1
ACRFINSADJUSTERMGR
  2
AcRfInsAdjusterMgr
  3
AcMeServices
 90
        0
280
     0
281
     0
  0
CLASS
  1
ACMDATADICTIONARY
  2
AcmDataDictionary
  3
"AcmSymBB|Product Description: AutoCAD Mechanical 2000|Company: Autodesk"
 90
        0
280
     0
281
     0
  0
CLASS
  1
ACMDATAENTRYBLOCK
  2
AcmDataEntryBlock
  3
"AcmSymBB|Product Description: AutoCAD Mechanical 2000|Company: Autodesk"
 90
        0
280
     0
281
     0
  0
CLASS
  1
AMGOBJPROPCFG
  2
AmgObjPropCfg
  3
"AmgLay|Product Description: AutoCAD Mechanical 2000|Company: Autodesk"
 90
        1
280
     0
281
     0
  0
CLASS
  1
ACAMGFILTERDAT
  2
AcAmgFilterDat
  3
"AcadM|Product Description: AutoCAD Mechanical 2000|Company: Autodesk"
 90
        0
280
     0
281
     0
  0
CLASS
  1
LAYER_INDEX
  2
AcDbLayerIndex
  3
AutoCAD 2000
 90
        0
280
     0
281
     0
  0
CLASS
  1
IDBUFFER
  2
AcDbIdBuffer
  3
AutoCAD 2000
 90
        0
280
     0
281
     0
  0
CLASS
  1
ACIMSTRSYSVAR
  2
AcImStrSysVar
  3
AcMeServices
 90
        0
280
     0
281
     0
  0
CLASS
  1
ACMSTANDARDJIS
  2
AcmStandardJIS
  3
"AcmSymBB|Product Description: AutoCAD Mechanical 2000|Company: Autodesk"
 90
        0
280
     0
281
     0
  0
CLASS
  1
ACMSURFSTANDARDJIS
  2
AcmSurfTextStdJIS
  3
"AcmSymBB|Product Description: AutoCAD Mechanical 2000|Company: Autodesk"
 90
        0
280
     0
281
     0
  0
CLASS
  1
ACMFCFSTANDARDJIS
  2
AcmFCFStdJIS
  3
"AcmSymBB|Product Description: AutoCAD Mechanical 2000|Company: Autodesk"
 90
        0
280
     0
281
     0
  0
CLASS
  1
ACMWELDSTANDARDJIS
  2
AcmWeldingStdJIS
  3
"AcmSymBB|Product Description: AutoCAD Mechanical 2000|Company: Autodesk"
 90
        0
280
     0
281
     0
  0
CLASS
  1
ACMIDSTANDARDJIS
  2
AcmIdStdJIS
  3
"AcmSymBB|Product Description: AutoCAD Mechanical 2000|Company: Autodesk"
 90
        0
280
     0
281
     0
  0
CLASS
  1
ACMDATUMSTANDARDJIS
  2
AcmDatumStdJIS
  3
"AcmSymBB|Product Description: AutoCAD Mechanical 2000|Company: Autodesk"
 90
        0
280
     0
281
     0
  0
CLASS
  1
ACMBOMSTANDARDJIS
  2
AcmBOMStdJIS
  3
"AcmSymBB|Product Description: AutoCAD Mechanical 2000|Company: Autodesk"
 90
        0
280
     0
281
     0
  0
CLASS
  1
ACMSTANDARDANSI
  2
AcmStandardANSI
  3
"AcmSymBB|Product Description: AutoCAD Mechanical 2000|Company: Autodesk"
 90
        0
280
     0
281
     0
  0
CLASS
  1
ACMSURFSTANDARDANSI
  2
AcmSurfTextStdANSI
  3
"AcmSymBB|Product Description: AutoCAD Mechanical 2000|Company: Autodesk"
 90
        0
280
     0
281
     0
  0
CLASS
  1
ACMFCFSTANDARDANSI
  2
AcmFCFStdANSI
  3
"AcmSymBB|Product Description: AutoCAD Mechanical 2000|Company: Autodesk"
 90
        0
280
     0
281
     0
  0
CLASS
  1
ACMWELDSTANDARDANSI
  2
AcmWeldingStdANSI
  3
"AcmSymBB|Product Description: AutoCAD Mechanical 2000|Company: Autodesk"
 90
        0
280
     0
281
     0
  0
CLASS
  1
ACMIDSTANDARDANSI
  2
AcmIdStdANSI
  3
"AcmSymBB|Product Description: AutoCAD Mechanical 2000|Company: Autodesk"
 90
        0
280
     0
281
     0
  0
CLASS
  1
ACMDATUMSTANDARDANSI
  2
AcmDatumStdANSI
  3
"AcmSymBB|Product Description: AutoCAD Mechanical 2000|Company: Autodesk"
 90
        0
280
     0
281
     0
  0
CLASS
  1
ACMBOMSTANDARDANSI
  2
AcmBOMStdANSI
  3
"AcmSymBB|Product Description: AutoCAD Mechanical 2000|Company: Autodesk"
 90
        0
280
     0
281
     0
  0
CLASS
  1
ACMSTANDARDBSI
  2
AcmStandardBSI
  3
"AcmSymBB|Product Description: AutoCAD Mechanical 2000|Company: Autodesk"
 90
        0
280
     0
281
     0
  0
CLASS
  1
ACMSURFSTANDARDBSI
  2
AcmSurfTextStdBSI
  3
"AcmSymBB|Product Description: AutoCAD Mechanical 2000|Company: Autodesk"
 90
        0
280
     0
281
     0
  0
CLASS
  1
ACMFCFSTANDARDBSI
  2
AcmFCFStdBSI
  3
"AcmSymBB|Product Description: AutoCAD Mechanical 2000|Company: Autodesk"
 90
        0
280
     0
281
     0
  0
CLASS
  1
ACMWELDSTANDARDBSI
  2
AcmWeldingStdBSI
  3
"AcmSymBB|Product Description: AutoCAD Mechanical 2000|Company: Autodesk"
 90
        0
280
     0
281
     0
  0
CLASS
  1
ACMIDSTANDARDBSI
  2
AcmIdStdBSI
  3
"AcmSymBB|Product Description: AutoCAD Mechanical 2000|Company: Autodesk"
 90
        0
280
     0
281
     0
  0
CLASS
  1
ACMDATUMSTANDARDBSI
  2
AcmDatumStdBSI
  3
"AcmSymBB|Product Description: AutoCAD Mechanical 2000|Company: Autodesk"
 90
        0
280
     0
281
     0
  0
CLASS
  1
ACMBOMSTANDARDBSI
  2
AcmBOMStdBSI
  3
"AcmSymBB|Product Description: AutoCAD Mechanical 2000|Company: Autodesk"
 90
        0
280
     0
281
     0
  0
CLASS
  1
STDPART2D
  2
AmgStdPart
  3
"AmgStdPart|Product Description: AutoCAD Mechanical 2000|Company: Autodesk"
 90
     1023
280
     0
281
     1
  0
CLASS
  1
PLOTSETTINGS
  2
AcDbPlotSettings
  3
AutoCAD 2000
 90
        0
280
     0
281
     0
  0
CLASS
  1
LONG_TRANSACTION
  2
AcDbLongTransaction
  3
AutoCAD 2000
 90
        0
280
     0
281
     0
  0
CLASS
  1
LWPOLYLINE
  2
AcDbPolyline
  3
AutoCAD 2000
 90
        0
280
     0
281
     1
  0
CLASS
  1
HATCH
  2
AcDbHatch
  3
AutoCAD 2000
 90
        0
280
     0
281
     1
  0
CLASS
  1
XRECORD
  2
AcDbXrecord
  3
AutoCAD 2000
 90
        0
280
     0
281
     0
  0
ENDSEC
  0
SECTION
  2
TABLES
  0
TABLE
  2
VPORT
  5
8
330
0
100
AcDbSymbolTable
 70
     3
  0
VPORT
  5
A5C9
330
8
100
AcDbSymbolTableRecord
100
AcDbViewportTableRecord
  2
*ACTIVE
 70
     0
 10
0.0
 20
0.0
 11
1.0
 21
1.0
 12
-118.6403387325989
 22
-16.7064328435618
 13
0.0
 23
0.0
 14
2.5
 24
2.5
 15
10.0
 25
10.0
 16
0.0
 26
0.0
 36
1.0
 17
0.0
 27
0.0
 37
0.0
 40
210.3756573147214
 41
1.56570841889117
 42
50.0
 43
0.0
 44
0.0
 50
0.0
 51
0.0
 71
     0
 72
   100
 73
     1
 74
     3
 75
     0
 76
     0
 77
     0
 78
     0
  0
ENDTAB
  0
TABLE
  2
LTYPE
  5
5
330
0
100
AcDbSymbolTable
 70
    10
  0
LTYPE
  5
14
330
5
100
AcDbSymbolTableRecord
100
AcDbLinetypeTableRecord
  2
BYBLOCK
 70
     0
  3

 72
    65
 73
     0
 40
0.0
  0
LTYPE
  5
15
330
5
100
AcDbSymbolTableRecord
100
AcDbLinetypeTableRecord
  2
BYLAYER
 70
     0
  3

 72
    65
 73
     0
 40
0.0
  0
LTYPE
  5
16
330
5
100
AcDbSymbolTableRecord
100
AcDbLinetypeTableRecord
  2
CONTINUOUS
 70
     0
  3
Solid line
 72
    65
 73
     0
 40
0.0
  0
LTYPE
  5
4B
330
5
100
AcDbSymbolTableRecord
100
AcDbLinetypeTableRecord
  2
AM_ISO02W050
 70
     0
  3
__ __ __ __ __ __ __ __ __ __ __ __ __ __ __
 72
    65
 73
     2
 40
7.5
 49
6.0
 74
     0
 49
-1.5
 74
     0
  0
LTYPE
  5
4C
330
5
100
AcDbSymbolTableRecord
100
AcDbLinetypeTableRecord
  2
AM_ISO08W050
 70
     0
  3
____ . ____ . ____ . ____ . ____ . ____ . ____
 72
    65
 73
     4
 40
18.0
 49
12.0
 74
     0
 49
-1.5
 74
     0
 49
3.0
 74
     0
 49
-1.5
 74
     0
  0
LTYPE
  5
4D
330
5
100
AcDbSymbolTableRecord
100
AcDbLinetypeTableRecord
  2
AM_ISO09W050
 70
     0
  3
_____ . . _____ . . _____ . . ____ .. ____
 72
    65
 73
     6
 40
22.5
 49
12.0
 74
     0
 49
-1.5
 74
     0
 49
3.0
 74
     0
 49
-1.5
 74
     0
 49
3.0
 74
     0
 49
-1.5
 74
     0
  0
LTYPE
  5
4E
330
5
100
AcDbSymbolTableRecord
100
AcDbLinetypeTableRecord
  2
AMCONSTR
 70
     0
  3
_______________________
 72
    65
 73
     2
 40
9999.0
 49
9999.0
 74
     0
 49
0.0
 74
     0
  0
LTYPE
  5
4F
330
5
100
AcDbSymbolTableRecord
100
AcDbLinetypeTableRecord
  2
AM_ISO02W050X2
 70
     0
  3
 _ _ _ _ _ _ _ _ _ _ _ _
 72
    65
 73
     2
 40
3.75
 49
3.0
 74
     0
 49
-0.75
 74
     0
  0
LTYPE
  5
50
330
5
100
AcDbSymbolTableRecord
100
AcDbLinetypeTableRecord
  2
AM_ISO08W050X2
 70
     0
  3
__ . __ . __ . __ . __ . __
 72
    65
 73
     4
 40
9.0
 49
6.0
 74
     0
 49
-0.75
 74
     0
 49
1.5
 74
     0
 49
-0.75
 74
     0
  0
LTYPE
  5
53
330
5
100
AcDbSymbolTableRecord
100
AcDbLinetypeTableRecord
  2
AMZIGZAG
 70
     0
  3
/\/-/\/-/\/-/\/-/\/-/\/
 72
    65
 73
     2
 40
11.00009999999999
 49
0.0001
 74
     4
 75
   135
340
52
 46
0.04
 50
0.0
 44
0.0
 45
0.0
 49
-11.0
 74
     0
  0
LTYPE
  5
166
330
5
100
AcDbSymbolTableRecord
100
AcDbLinetypeTableRecord
  2
ACJISTGL
 70
     0
  3
_ _ _ _ _
 72
    65
 73
     2
 40
3.0
 49
2.0
 74
     0
 49
-1.0
 74
     0
  0
LTYPE
  5
26A
330
5
100
AcDbSymbolTableRecord
100
AcDbLinetypeTableRecord
  2
ACJISTGB
 70
     0
  3
__ . . __ . .
 72
    65
 73
     6
 40
9.0
 49
4.0
 74
     0
 49
-1.0
 74
     0
 49
1.0
 74
     0
 49
-1.0
 74
     0
 49
1.0
 74
     0
 49
-1.0
 74
     0
  0
ENDTAB
  0
TABLE
  2
LAYER
  5
2
330
0
100
AcDbSymbolTable
 70
     7
  0
LAYER
  5
10
330
2
100
AcDbSymbolTableRecord
100
AcDbLayerTableRecord
  2
0
 70
     0
 62
     7
  6
CONTINUOUS
  0
LAYER
  5
3F9
330
2
100
AcDbSymbolTableRecord
100
AcDbLayerTableRecord
  2
AM_0
 70
     0
 62
     7
  6
CONTINUOUS
  0
LAYER
  5
BA4
330
2
100
AcDbSymbolTableRecord
100
AcDbLayerTableRecord
  2
AM_5
 70
     0
 62
     3
  6
CONTINUOUS
  0
LAYER
  5
BA6
330
2
100
AcDbSymbolTableRecord
100
AcDbLayerTableRecord
  2
AM_7
 70
     0
 62
     4
  6
AM_ISO08W050
  0
LAYER
  5
E64
330
2
100
AcDbSymbolTableRecord
100
AcDbLayerTableRecord
  2
AM_6
 70
     0
 62
     2
  6
CONTINUOUS
  0
LAYER
  5
F4D
330
2
100
AcDbSymbolTableRecord
100
AcDbLayerTableRecord
  2
DEFPOINTS
 70
     0
 62
     7
  6
CONTINUOUS
  0
LAYER
  5
4E80
330
2
100
AcDbSymbolTableRecord
100
AcDbLayerTableRecord
  2
AM_11
 70
     0
 62
     3
  6
AM_ISO09W050
  0
ENDTAB
  0
TABLE
  2
STYLE
  5
3
330
0
100
AcDbSymbolTable
 70
     5
  0
STYLE
  5
11
330
3
100
AcDbSymbolTableRecord
100
AcDbTextStyleTableRecord
  2
STANDARD
 70
     0
 40
0.0
 41
1.0
 50
0.0
 71
     0
 42
2.5
  3
simplex.shx
  4
EXTFONT.SHX
  0
STYLE
  5
52
330
3
100
AcDbSymbolTableRecord
100
AcDbTextStyleTableRecord
  2

 70
     1
 40
0.0
 41
1.0
 50
0.0
 71
     0
 42
2.5
  3
ltypeshp.shx
  4

  0
STYLE
  5
6B
330
3
100
AcDbSymbolTableRecord
100
AcDbTextStyleTableRecord
  2
ASAMI
 70
     0
 40
0.0
 41
1.0
 50
0.0
 71
     0
 42
2.5
  3
simplex.shx
  4
EXTFONT.SHX
  0
STYLE
  5
262
330
3
100
AcDbSymbolTableRecord
100
AcDbTextStyleTableRecord
  2
ACJISTS
 70
     0
 40
1.0
 41
1.0
 50
0.0
 71
     0
 42
2.5
  3
simplex.shx
  4
bigfont.shx
  0
STYLE
  5
269
330
3
100
AcDbSymbolTableRecord
100
AcDbTextStyleTableRecord
  2
ACJISGDT
 70
     0
 40
0.0
 41
1.0
 50
0.0
 71
     0
 42
2.5
  3
amgdtans.shx
  4

  0
ENDTAB
  0
TABLE
  2
VIEW
  5
6
330
0
100
AcDbSymbolTable
 70
     0
  0
ENDTAB
  0
TABLE
  2
UCS
  5
7
330
0
100
AcDbSymbolTable
 70
     0
  0
ENDTAB
  0
TABLE
  2
APPID
  5
9
330
0
100
AcDbSymbolTable
 70
    24
  0
APPID
  5
12
330
9
100
AcDbSymbolTableRecord
100
AcDbRegAppTableRecord
  2
ACAD
 70
     0
  0
APPID
  5
30
330
9
100
AcDbSymbolTableRecord
100
AcDbRegAppTableRecord
  2
MCAD_NO_VIS
 70
     0
  0
APPID
  5
31
330
9
100
AcDbSymbolTableRecord
100
AcDbRegAppTableRecord
  2
ACAD_TEMP_GRAPHIC
 70
     0
  0
APPID
  5
2C2
330
9
100
AcDbSymbolTableRecord
100
AcDbRegAppTableRecord
  2
GENIUS_GENDTOL_13
 70
     0
  0
APPID
  5
339
330
9
100
AcDbSymbolTableRecord
100
AcDbRegAppTableRecord
  2
GENIUS_GENODEF_13
 70
     0
  0
APPID
  5
33A
330
9
100
AcDbSymbolTableRecord
100
AcDbRegAppTableRecord
  2
GENIUS_GENOBJ-N-RSBK_13
 70
     0
  0
APPID
  5
33B
330
9
100
AcDbSymbolTableRecord
100
AcDbRegAppTableRecord
  2
GENIUS_GENOBJ-N-LIB_13
 70
     0
  0
APPID
  5
33C
330
9
100
AcDbSymbolTableRecord
100
AcDbRegAppTableRecord
  2
GENIUS_GENSCALE_13
 70
     0
  0
APPID
  5
378
330
9
100
AcDbSymbolTableRecord
100
AcDbRegAppTableRecord
  2
GENIUS_GENDIMSH_14
 70
     0
  0
APPID
  5
BB0
330
9
100
AcDbSymbolTableRecord
100
AcDbRegAppTableRecord
  2
GENIUS_GENOBJ-N-CEN_13
 70
     0
  0
APPID
  5
BB1
330
9
100
AcDbSymbolTableRecord
100
AcDbRegAppTableRecord
  2
GENIUS_GENFIL_13
 70
     0
  0
APPID
  5
BB2
330
9
100
AcDbSymbolTableRecord
100
AcDbRegAppTableRecord
  2
GENIUS_GENOBJ-N-CHA_13
 70
     0
  0
APPID
  5
1FAF
330
9
100
AcDbSymbolTableRecord
100
AcDbRegAppTableRecord
  2
GENIUS_GENOBJ-N-CRS_13
 70
     0
  0
APPID
  5
1FB0
330
9
100
AcDbSymbolTableRecord
100
AcDbRegAppTableRecord
  2
GENIUS_GENOENT_13
 70
     0
  0
APPID
  5
1FB1
330
9
100
AcDbSymbolTableRecord
100
AcDbRegAppTableRecord
  2
GENIUS_GENOREF_13
 70
     0
  0
APPID
  5
1FB2
330
9
100
AcDbSymbolTableRecord
100
AcDbRegAppTableRecord
  2
GENIUS_GENOLIS_13
 70
     0
  0
APPID
  5
1FB7
330
9
100
AcDbSymbolTableRecord
100
AcDbRegAppTableRecord
  2
GENIUS_GENOBJ-N-FIL_13
 70
     0
  0
APPID
  5
22A8
330
9
100
AcDbSymbolTableRecord
100
AcDbRegAppTableRecord
  2
GEVID1056506048
 70
     0
  0
APPID
  5
22A9
330
9
100
AcDbSymbolTableRecord
100
AcDbRegAppTableRecord
  2
GEVDC
 70
     0
  0
APPID
  5
22AC
330
9
100
AcDbSymbolTableRecord
100
AcDbRegAppTableRecord
  2
GENIUS_GENBH_13
 70
     0
  0
APPID
  5
22B8
330
9
100
AcDbSymbolTableRecord
100
AcDbRegAppTableRecord
  2
GENIUS_GENOBJ-NBEHI-BHF_13
 70
     0
  0
APPID
  5
22BA
330
9
100
AcDbSymbolTableRecord
100
AcDbRegAppTableRecord
  2
GENIUS_GENOBJ-NBEHI-BHB_13
 70
     0
  0
APPID
  5
35C9
330
9
100
AcDbSymbolTableRecord
100
AcDbRegAppTableRecord
  2
GENIUS_GENREC_14
 70
     0
  0
APPID
  5
35CA
330
9
100
AcDbSymbolTableRecord
100
AcDbRegAppTableRecord
  2
GENIUS_GENOBJ-N-REC_13
 70
     0
  0
ENDTAB
  0
TABLE
  2
DIMSTYLE
  5
A
330
0
100
AcDbSymbolTable
 70
     9
  0
DIMSTYLE
105
58
330
A
100
AcDbSymbolTableRecord
100
AcDbDimStyleTableRecord
  2
AM_JIS
 70
     0
  3

  4
"
  5
OPEN30
  6

  7

 40
1.0
 41
2.5
 42
1.0
 43
12.0
 44
1.0
 45
0.0
 46
0.0
 47
0.1
 48
0.1
140
3.2
141
0.0
142
0.0
143
0.0393701
144
1.0
145
0.0
146
0.71
147
1.5
 71
     0
 72
     0
 73
     0
 74
     0
 75
     0
 76
     0
 77
     3
 78
     8
170
     0
171
     2
172
     1
173
     0
174
     0
175
     0
176
   256
177
   256
178
     2
270
     2
271
     3
272
     3
273
     2
274
     2
340
6B
275
     0
280
     0
281
     0
282
     0
283
     0
284
     0
285
     0
286
     0
287
     3
288
     0
  0
DIMSTYLE
105
5F
330
A
100
AcDbSymbolTableRecord
100
AcDbDimStyleTableRecord
  2
AM_JIS$3
 70
     0
  3

  4
"
  5
OPEN30
  6

  7

 40
1.0
 41
2.5
 42
1.0
 43
10.0
 44
1.0
 45
0.0
 46
0.0
 47
0.1
 48
0.1
140
3.2
141
0.0
142
0.0
143
0.0393701
144
1.0
145
0.0
146
0.71
147
1.5
 71
     0
 72
     0
 73
     0
 74
     1
 75
     0
 76
     0
 77
     3
 78
     8
170
     0
171
     2
172
     0
173
     0
174
     0
175
     0
176
   256
177
   256
178
     2
270
     2
271
     2
272
     3
273
     2
274
     2
340
6B
275
     0
280
     0
281
     0
282
     0
283
     0
284
     0
285
     0
286
     0
287
     0
288
     1
  0
DIMSTYLE
105
60
330
A
100
AcDbSymbolTableRecord
100
AcDbDimStyleTableRecord
  2
AM_JIS$4
 70
     0
  3

  4
"
  5
OPEN30
  6

  7

 40
1.0
 41
2.5
 42
1.0
 43
10.0
 44
1.0
 45
0.0
 46
0.0
 47
0.1
 48
0.1
140
3.2
141
0.0
142
0.0
143
0.0393701
144
1.0
145
0.0
146
0.71
147
1.5
 71
     0
 72
     0
 73
     0
 74
     1
 75
     0
 76
     0
 77
     3
 78
     8
170
     0
171
     2
172
     0
173
     0
174
     0
175
     0
176
   256
177
   256
178
     2
270
     2
271
     2
272
     3
273
     2
274
     2
340
6B
275
     0
280
     0
281
     0
282
     0
283
     0
284
     0
285
     0
286
     0
287
     0
288
     1
  0
DIMSTYLE
105
61
330
A
100
AcDbSymbolTableRecord
100
AcDbDimStyleTableRecord
  2
AM_JIS$6
 70
     0
  3

  4
"
  5
OPEN30
  6

  7

 40
1.0
 41
2.5
 42
1.0
 43
10.0
 44
1.0
 45
0.0
 46
0.0
 47
0.1
 48
0.1
140
3.2
141
0.0
142
0.0
143
0.0393701
144
1.0
145
0.0
146
0.71
147
1.5
 71
     0
 72
     0
 73
     0
 74
     0
 75
     0
 76
     0
 77
     0
 78
     8
170
     0
171
     2
172
     1
173
     0
174
     0
175
     0
176
   256
177
   256
178
     2
270
     2
271
     2
272
     2
273
     2
274
     2
340
6B
275
     0
280
     0
281
     0
282
     0
283
     0
284
     0
285
     0
286
     0
287
     3
288
     0
  0
DIMSTYLE
105
62
330
A
100
AcDbSymbolTableRecord
100
AcDbDimStyleTableRecord
  2
AM_JIS$7
 70
     0
  3

  4
"
  5
OPEN30
  6

  7

 40
1.0
 41
2.5
 42
1.0
 43
10.0
 44
1.0
 45
0.0
 46
0.0
 47
0.1
 48
0.1
140
3.2
141
0.0
142
0.0
143
0.0393701
144
1.0
145
0.0
146
0.71
147
1.5
 71
     0
 72
     0
 73
     0
 74
     0
 75
     0
 76
     0
 77
     3
 78
     8
170
     0
171
     2
172
     1
173
     0
174
     0
175
     0
176
   256
177
   256
178
     2
270
     2
271
     2
272
     3
273
     2
274
     2
340
6B
275
     0
280
     0
281
     0
282
     0
283
     0
284
     0
285
     0
286
     0
287
     3
288
     0
  0
DIMSTYLE
105
63
330
A
100
AcDbSymbolTableRecord
100
AcDbDimStyleTableRecord
  2
AM_JIS$SF
 70
     0
  3

  4
"
  5
OPEN30
  6

  7

 40
1.0
 41
2.5
 42
1.0
 43
10.0
 44
1.0
 45
0.0
 46
0.0
 47
0.1
 48
0.1
140
3.2
141
0.0
142
0.0
143
0.0393701
144
1.0
145
0.0
146
0.71
147
1.5
 71
     0
 72
     0
 73
     0
 74
     0
 75
     1
 76
     1
 77
     3
 78
     8
170
     0
171
     2
172
     1
173
     0
174
     0
175
     0
176
   256
177
   256
178
     2
270
     2
271
     2
272
     2
273
     2
274
     2
340
6B
275
     0
280
     0
281
     0
282
     0
283
     0
284
     0
285
     0
286
     0
287
     3
288
     0
  0
DIMSTYLE
105
68
330
A
100
AcDbSymbolTableRecord
100
AcDbDimStyleTableRecord
  2
AM_JIS$SH
 70
     0
  3

  4
"
  5

  6
GENAXEH
  7
OPEN30
 40
1.0
 41
2.5
 42
1.0
 43
10.0
 44
1.0
 45
0.0
 46
0.0
 47
0.1
 48
0.1
140
3.2
141
0.0
142
0.0
143
0.0393701
144
2.0
145
0.0
146
0.71
147
1.5
 71
     0
 72
     0
 73
     0
 74
     0
 75
     1
 76
     1
 77
     3
 78
     8
170
     0
171
     2
172
     1
173
     1
174
     0
175
     0
176
   256
177
   256
178
     2
270
     2
271
     2
272
     2
273
     2
274
     2
340
6B
275
     0
280
     0
281
     0
282
     0
283
     0
284
     0
285
     0
286
     0
287
     3
288
     0
  0
DIMSTYLE
105
B34
330
A
100
AcDbSymbolTableRecord
100
AcDbDimStyleTableRecord
  2
AM_JIS$2
 70
     0
  3

  4
"
  5
OPEN30
  6

  7

 40
1.0
 41
2.5
 42
1.0
 43
12.0
 44
1.0
 45
0.0
 46
0.0
 47
0.1
 48
0.1
140
3.2
141
0.0
142
0.0
143
0.0393701
144
1.0
145
0.0
146
0.71
147
1.5
 71
     0
 72
     0
 73
     0
 74
     0
 75
     0
 76
     0
 77
     3
 78
     8
170
     0
171
     2
172
     1
173
     0
174
     0
175
     0
176
   256
177
   256
178
     2
270
     2
271
     3
272
     3
273
     2
274
     2
340
6B
275
     0
280
     0
281
     0
282
     0
283
     0
284
     0
285
     0
286
     0
287
     3
288
     0
  0
DIMSTYLE
105
3B48
102
{ACAD_REACTORS
330
A04C
330
9FAE
330
9DE6
330
9D48
330
9F10
330
9C8F
330
9E7B
102
}
330
A
100
AcDbSymbolTableRecord
100
AcDbDimStyleTableRecord
  2
AM_JIS$0
 70
     0
  3

  4
"
  5
OPEN30
  6

  7

 40
1.0
 41
2.5
 42
0.0
 43
10.0
 44
1.0
 45
0.0
 46
0.0
 47
0.1
 48
0.1000000001
140
3.799999999999999
141
0.0
142
0.0
143
0.0393701
144
1.0
145
0.0
146
0.71
147
1.5
 71
     0
 72
     0
 73
     0
 74
     0
 75
     0
 76
     0
 77
     3
 78
     1
170
     0
171
     2
172
     1
173
     0
174
     0
175
     0
176
     3
177
     3
178
     2
270
     2
271
     2
272
     2
273
     2
274
     2
340
11
275
     1
280
     0
281
     0
282
     0
283
     0
284
     8
285
     0
286
     0
287
     0
288
     0
  0
ENDTAB
  0
TABLE
  2
BLOCK_RECORD
  5
1
330
0
100
AcDbSymbolTable
 70
    12
  0
BLOCK_RECORD
  5
1F
102
{ACAD_XDICTIONARY
360
74
102
}
330
1
100
AcDbSymbolTableRecord
100
AcDbBlockTableRecord
  2
*MODEL_SPACE
  0
BLOCK_RECORD
  5
101
102
{ACAD_XDICTIONARY
360
A5F2
102
}
330
1
100
AcDbSymbolTableRecord
100
AcDbBlockTableRecord
  2
*PAPER_SPACE
  0
BLOCK_RECORD
  5
59
330
1
100
AcDbSymbolTableRecord
100
AcDbBlockTableRecord
  2
_OPEN30
  0
BLOCK_RECORD
  5
64
330
1
100
AcDbSymbolTableRecord
100
AcDbBlockTableRecord
  2
GENAXEH
  0
BLOCK_RECORD
  5
9C90
330
1
100
AcDbSymbolTableRecord
100
AcDbBlockTableRecord
  2
*D5
  0
BLOCK_RECORD
  5
9D49
330
1
100
AcDbSymbolTableRecord
100
AcDbBlockTableRecord
  2
*D6
  0
BLOCK_RECORD
  5
9DE7
330
1
100
AcDbSymbolTableRecord
100
AcDbBlockTableRecord
  2
*D7
  0
BLOCK_RECORD
  5
9E7C
330
1
100
AcDbSymbolTableRecord
100
AcDbBlockTableRecord
  2
*D8
  0
BLOCK_RECORD
  5
9F11
330
1
100
AcDbSymbolTableRecord
100
AcDbBlockTableRecord
  2
*D9
  0
BLOCK_RECORD
  5
9FAF
330
1
100
AcDbSymbolTableRecord
100
AcDbBlockTableRecord
  2
*D10
  0
BLOCK_RECORD
  5
A04D
330
1
100
AcDbSymbolTableRecord
100
AcDbBlockTableRecord
  2
*D11
  0
ENDTAB
  0
ENDSEC
  0
SECTION
  2
BLOCKS
  0
BLOCK
  5
20
330
1F
100
AcDbEntity
  8
0
100
AcDbBlockBegin
  2
*MODEL_SPACE
 70
     0
 10
0.0
 20
0.0
 30
0.0
  3
*MODEL_SPACE
  1

  0
ENDBLK
  5
21
330
1F
100
AcDbEntity
  8
0
100
AcDbBlockEnd
  0
BLOCK
  5
103
330
101
100
AcDbEntity
 67
     1
  8
0
100
AcDbBlockBegin
  2
*PAPER_SPACE
 70
     0
 10
0.0
 20
0.0
 30
0.0
  3
*PAPER_SPACE
  1

  0
ENDBLK
  5
104
330
101
100
AcDbEntity
 67
     1
  8
0
100
AcDbBlockEnd
  0
BLOCK
  5
5D
330
59
100
AcDbEntity
  8
0
100
AcDbBlockBegin
  2
_OPEN30
 70
     0
 10
0.0
 20
0.0
 30
0.0
  3
_OPEN30
  1

  0
LINE
  5
5A
330
59
100
AcDbEntity
  8
0
 62
     0
100
AcDbLine
 10
-1.0
 20
0.26794919
 30
0.0
 11
0.0
 21
0.0
 31
0.0
  0
LINE
  5
5B
330
59
100
AcDbEntity
  8
0
 62
     0
100
AcDbLine
 10
0.0
 20
0.0
 30
0.0
 11
-1.0
 21
-0.26794919
 31
0.0
  0
LINE
  5
5C
330
59
100
AcDbEntity
  8
0
 62
     0
100
AcDbLine
 10
0.0
 20
0.0
 30
0.0
 11
-1.0
 21
0.0
 31
0.0
  0
ENDBLK
  5
5E
330
59
100
AcDbEntity
  8
0
100
AcDbBlockEnd
  0
BLOCK
  5
66
330
64
100
AcDbEntity
  8
0
100
AcDbBlockBegin
  2
GENAXEH
 70
     0
 10
0.0
 20
0.0
 30
0.0
  3
GENAXEH
  1

  0
LINE
  5
65
330
64
100
AcDbEntity
  8
0
100
AcDbLine
 10
-1.0
 20
0.0
 30
0.0
 11
1.0
 21
0.0
 31
0.0
  0
ENDBLK
  5
67
330
64
100
AcDbEntity
  8
0
100
AcDbBlockEnd
  0
BLOCK
  5
9C9A
330
9C90
100
AcDbEntity
  8
0
100
AcDbBlockBegin
  2
*D5
 70
     1
 10
0.0
 20
0.0
 30
0.0
  3
*D5
  1

  0
LINE
  5
A583
330
9C90
100
AcDbEntity
  8
AM_5
 62
     3
100
AcDbLine
 10
-27.99950479604432
 20
15.00000000000005
 30
0.0
 11
-27.99950479604432
 21
26.50508382552706
 31
0.0
  0
LINE
  5
A584
330
9C90
100
AcDbEntity
  8
AM_5
 62
     3
100
AcDbLine
 10
-0.00000000000027
 20
0.0000000000001705
 30
0.0
 11
-0.0000000000002749
 21
26.50508382552706
 31
0.0
  0
LINE
  5
A585
330
9C90
100
AcDbEntity
  8
AM_5
 62
     3
100
AcDbLine
 10
-25.49950479604432
 20
25.50508382552706
 30
0.0
 11
-2.500000000000274
 21
25.50508382552706
 31
0.0
  0
INSERT
  5
A586
330
9C90
100
AcDbEntity
  8
AM_5
 62
     3
100
AcDbBlockReference
  2
_OPEN30
 10
-27.99950479604432
 20
25.50508382552706
 30
0.0
 41
2.5
 42
2.5
 43
2.5
 50
180.0
  0
INSERT
  5
A587
330
9C90
100
AcDbEntity
  8
AM_5
 62
     3
100
AcDbBlockReference
  2
_OPEN30
 10
-0.0000000000002747
 20
25.50508382552706
 30
0.0
 41
2.5
 42
2.5
 43
2.5
  0
MTEXT
  5
A588
330
9C90
100
AcDbEntity
  8
AM_5
 62
     2
100
AcDbMText
 10
-13.9997523980223
 20
28.10508382552706
 30
0.0
 40
3.2
 41
0.0
 71
     5
 72
     1
  1
28
1001
ACAD
1000
MTEXTBEGIN
1070
    73
1070
     1
1070
    44
1040
1.0
1070
    74
1070
     0
1000
MTEXTEND
  0
POINT
  5
A589
330
9C90
100
AcDbEntity
  8
DEFPOINTS
 62
     0
100
AcDbPoint
 10
-27.99950479604429
 20
15.00000000000011
 30
0.0
  0
POINT
  5
A58A
330
9C90
100
AcDbEntity
  8
DEFPOINTS
 62
     0
100
AcDbPoint
 10
-0.00000000000027
 20
0.0000000000001705
 30
0.0
  0
POINT
  5
A58B
330
9C90
100
AcDbEntity
  8
DEFPOINTS
 62
     0
100
AcDbPoint
 10
-0.0000000000002231
 20
25.50508382552706
 30
0.0
  0
ENDBLK
  5
9C9B
330
9C90
100
AcDbEntity
  8
0
100
AcDbBlockEnd
  0
BLOCK
  5
9D53
330
9D49
100
AcDbEntity
  8
0
100
AcDbBlockBegin
  2
*D6
 70
     1
 10
0.0
 20
0.0
 30
0.0
  3
*D6
  1

  0
LINE
  5
A571
330
9D49
100
AcDbEntity
  8
AM_5
 62
     3
100
AcDbLine
 10
0.0004952039557367
 20
-0.0253601074198286
 30
0.0
 11
0.0004952039557876
 21
-26.0
 31
0.0
  0
LINE
  5
A572
330
9D49
100
AcDbEntity
  8
AM_5
 62
     3
100
AcDbLine
 10
-59.99950479604421
 20
-13.60002136230006
 30
0.0
 11
-59.99950479604418
 21
-26.00000000000012
 31
0.0
  0
LINE
  5
A573
330
9D49
100
AcDbEntity
  8
AM_5
 62
     3
100
AcDbLine
 10
-2.499504796044214
 20
-25.00000000000001
 30
0.0
 11
-57.49950479604418
 21
-25.00000000000012
 31
0.0
  0
INSERT
  5
A574
330
9D49
100
AcDbEntity
  8
AM_5
 62
     3
100
AcDbBlockReference
  2
_OPEN30
 10
0.0004952039557857
 20
-25.0
 30
0.0
 41
2.5
 42
2.5
 43
2.5
 50
0.0000000000001018
  0
INSERT
  5
A575
330
9D49
100
AcDbEntity
  8
AM_5
 62
     3
100
AcDbBlockReference
  2
_OPEN30
 10
-59.99950479604418
 20
-25.00000000000012
 30
0.0
 41
2.5
 42
2.5
 43
2.5
 50
180.0000000000001
  0
MTEXT
  5
A576
330
9D49
100
AcDbEntity
  8
AM_5
 62
     2
100
AcDbMText
 10
-29.9995047960442
 20
-22.40000000000006
 30
0.0
 40
3.2
 41
0.0
 71
     5
 72
     1
  1
60
1001
ACAD
1000
MTEXTBEGIN
1070
    73
1070
     1
1070
    44
1040
1.0
1070
    74
1070
     0
1000
MTEXTEND
  0
POINT
  5
A577
330
9D49
100
AcDbEntity
  8
DEFPOINTS
 62
     0
100
AcDbPoint
 10
0.0004952039557367
 20
-0.0253601074198286
 30
0.0
  0
POINT
  5
A578
330
9D49
100
AcDbEntity
  8
DEFPOINTS
 62
     0
100
AcDbPoint
 10
-59.99950479604423
 20
-13.60002136229994
 30
0.0
  0
POINT
  5
A579
330
9D49
100
AcDbEntity
  8
DEFPOINTS
 62
     0
100
AcDbPoint
 10
-59.99950479604423
 20
-25.0
 30
0.0
  0
ENDBLK
  5
9D54
330
9D49
100
AcDbEntity
  8
0
100
AcDbBlockEnd
  0
BLOCK
  5
9DF1
330
9DE7
100
AcDbEntity
  8
0
100
AcDbBlockBegin
  2
*D7
 70
     1
 10
0.0
 20
0.0
 30
0.0
  3
*D7
  1

  0
LINE
  5
A568
330
9DE7
100
AcDbEntity
  8
AM_5
 62
     3
100
AcDbLine
 10
0.0004952039557367
 20
-0.0253601074198286
 30
0.0
 11
0.0004952039558033
 21
-34.0
 31
0.0
  0
LINE
  5
A569
330
9DE7
100
AcDbEntity
  8
AM_5
 62
     3
100
AcDbLine
 10
-85.00000000000019
 20
-16.00000000000017
 30
0.0
 11
-85.00000000000015
 21
-34.00000000000018
 31
0.0
  0
LINE
  5
A56A
330
9DE7
100
AcDbEntity
  8
AM_5
 62
     3
100
AcDbLine
 10
-2.499504796044198
 20
-33.00000000000001
 30
0.0
 11
-82.50000000000015
 21
-33.00000000000017
 31
0.0
  0
INSERT
  5
A56B
330
9DE7
100
AcDbEntity
  8
AM_5
 62
     3
100
AcDbBlockReference
  2
_OPEN30
 10
0.0004952039558013
 20
-33.0
 30
0.0
 41
2.5
 42
2.5
 43
2.5
 50
0.0000000000001018
  0
INSERT
  5
A56C
330
9DE7
100
AcDbEntity
  8
AM_5
 62
     3
100
AcDbBlockReference
  2
_OPEN30
 10
-85.00000000000015
 20
-33.00000000000018
 30
0.0
 41
2.5
 42
2.5
 43
2.5
 50
180.0000000000001
  0
MTEXT
  5
A56D
330
9DE7
100
AcDbEntity
  8
AM_5
 62
     2
100
AcDbMText
 10
-42.49975239802218
 20
-30.40000000000009
 30
0.0
 40
3.2
 41
0.0
 71
     5
 72
     1
  1
85
1001
ACAD
1000
MTEXTBEGIN
1070
    73
1070
     1
1070
    44
1040
1.0
1070
    74
1070
     0
1000
MTEXTEND
  0
POINT
  5
A56E
330
9DE7
100
AcDbEntity
  8
DEFPOINTS
 62
     0
100
AcDbPoint
 10
0.0004952039557367
 20
-0.0253601074198286
 30
0.0
  0
POINT
  5
A56F
330
9DE7
100
AcDbEntity
  8
DEFPOINTS
 62
     0
100
AcDbPoint
 10
-85.00000000000023
 20
-15.99999999999999
 30
0.0
  0
POINT
  5
A570
330
9DE7
100
AcDbEntity
  8
DEFPOINTS
 62
     0
100
AcDbPoint
 10
-85.00000000000023
 20
-33.0
 30
0.0
  0
ENDBLK
  5
9DF2
330
9DE7
100
AcDbEntity
  8
0
100
AcDbBlockEnd
  0
BLOCK
  5
9E86
330
9E7C
100
AcDbEntity
  8
0
100
AcDbBlockBegin
  2
*D8
 70
     1
 10
0.0
 20
0.0
 30
0.0
  3
*D8
  1

  0
LINE
  5
A58C
330
9E7C
100
AcDbEntity
  8
AM_5
 62
     3
100
AcDbLine
 10
-0.00000000000027
 20
0.0000000000001705
 30
0.0
 11
-0.0000000000001877
 21
-42.00000000000001
 31
0.0
  0
LINE
  5
A58D
330
9E7C
100
AcDbEntity
  8
AM_5
 62
     3
100
AcDbLine
 10
-240.0000000000002
 20
-13.66149902343077
 30
0.0
 11
-240.0000000000001
 21
-42.00000000000049
 31
0.0
  0
LINE
  5
A58E
330
9E7C
100
AcDbEntity
  8
AM_5
 62
     3
100
AcDbLine
 10
-2.500000000000189
 20
-41.00000000000001
 30
0.0
 11
-237.5000000000001
 21
-41.00000000000049
 31
0.0
  0
INSERT
  5
A58F
330
9E7C
100
AcDbEntity
  8
AM_5
 62
     3
100
AcDbBlockReference
  2
_OPEN30
 10
-0.0000000000001896
 20
-41.0
 30
0.0
 41
2.5
 42
2.5
 43
2.5
 50
0.0000000000001018
  0
INSERT
  5
A590
330
9E7C
100
AcDbEntity
  8
AM_5
 62
     3
100
AcDbBlockReference
  2
_OPEN30
 10
-240.0000000000001
 20
-41.00000000000049
 30
0.0
 41
2.5
 42
2.5
 43
2.5
 50
180.0000000000001
  0
MTEXT
  5
A591
330
9E7C
100
AcDbEntity
  8
AM_5
 62
     2
100
AcDbMText
 10
-120.0000000000001
 20
-38.40000000000024
 30
0.0
 40
3.2
 41
0.0
 71
     5
 72
     1
  1
240
1001
ACAD
1000
MTEXTBEGIN
1070
    73
1070
     1
1070
    44
1040
1.0
1070
    74
1070
     0
1000
MTEXTEND
  0
POINT
  5
A592
330
9E7C
100
AcDbEntity
  8
DEFPOINTS
 62
     0
100
AcDbPoint
 10
-0.00000000000027
 20
0.0000000000001705
 30
0.0
  0
POINT
  5
A593
330
9E7C
100
AcDbEntity
  8
DEFPOINTS
 62
     0
100
AcDbPoint
 10
-240.0000000000002
 20
-13.66149902343029
 30
0.0
  0
POINT
  5
A594
330
9E7C
100
AcDbEntity
  8
DEFPOINTS
 62
     0
100
AcDbPoint
 10
-240.0000000000002
 20
-41.0
 30
0.0
  0
ENDBLK
  5
9E87
330
9E7C
100
AcDbEntity
  8
0
100
AcDbBlockEnd
  0
BLOCK
  5
9F1B
330
9F11
100
AcDbEntity
  8
0
100
AcDbBlockBegin
  2
*D9
 70
     1
 10
0.0
 20
0.0
 30
0.0
  3
*D9
  1

  0
LINE
  5
A57A
330
9F11
100
AcDbEntity
  8
AM_5
 62
     3
100
AcDbLine
 10
-14.99950545171607
 20
15.0000000000001
 30
0.0
 11
18.50419457263258
 21
15.00000000000017
 31
0.0
  0
LINE
  5
A57B
330
9F11
100
AcDbEntity
  8
AM_5
 62
     3
100
AcDbLine
 10
-14.99950545171601
 20
-14.99999999999987
 30
0.0
 11
18.50419457263264
 21
-14.99999999999981
 31
0.0
  0
LINE
  5
A57C
330
9F11
100
AcDbEntity
  8
AM_5
 62
     3
100
AcDbLine
 10
17.50419457263259
 20
12.50000000000017
 30
0.0
 11
17.50419457263264
 21
-12.49999999999981
 31
0.0
  0
INSERT
  5
A57D
330
9F11
100
AcDbEntity
  8
AM_5
 62
     3
100
AcDbBlockReference
  2
_OPEN30
 10
17.50419457263259
 20
15.00000000000017
 30
0.0
 41
2.5
 42
2.5
 43
2.5
 50
90.0000000000001
  0
INSERT
  5
A57E
330
9F11
100
AcDbEntity
  8
AM_5
 62
     3
100
AcDbBlockReference
  2
_OPEN30
 10
17.50419457263264
 20
-14.99999999999981
 30
0.0
 41
2.5
 42
2.5
 43
2.5
 50
270.0000000000001
  0
MTEXT
  5
A57F
330
9F11
100
AcDbEntity
  8
AM_5
 62
     2
100
AcDbMText
 10
14.90419457263261
 20
0.0000000000001733
 30
0.0
 40
3.2
 41
0.0
 71
     5
 72
     1
  1
%%c30
 11
-0.000000000000002
 21
1.0
 31
0.0
1001
ACAD
1000
MTEXTBEGIN
1070
    73
1070
     1
1070
    44
1040
1.0
1070
    74
1070
     0
1000
MTEXTEND
  0
POINT
  5
A580
330
9F11
100
AcDbEntity
  8
DEFPOINTS
 62
     0
100
AcDbPoint
 10
-14.99950545171603
 20
15.00000000000014
 30
0.0
  0
POINT
  5
A581
330
9F11
100
AcDbEntity
  8
DEFPOINTS
 62
     0
100
AcDbPoint
 10
-14.99950545171604
 20
-14.99999999999984
 30
0.0
  0
POINT
  5
A582
330
9F11
100
AcDbEntity
  8
DEFPOINTS
 62
     0
100
AcDbPoint
 10
17.50419457263261
 20
-14.99999999999985
 30
0.0
  0
ENDBLK
  5
9F1C
330
9F11
100
AcDbEntity
  8
0
100
AcDbBlockEnd
  0
BLOCK
  5
9FB9
330
9FAF
100
AcDbEntity
  8
0
100
AcDbBlockBegin
  2
*D10
 70
     1
 10
0.0
 20
0.0
 30
0.0
  3
*D10
  1

  0
LINE
  5
A55F
330
9FAF
100
AcDbEntity
  8
AM_5
 62
     3
100
AcDbLine
 10
-237.0000000000003
 20
15.99998474120917
 30
0.0
 11
-257.9557524357515
 21
15.99998474120914
 31
0.0
  0
LINE
  5
A560
330
9FAF
100
AcDbEntity
  8
AM_5
 62
     3
100
AcDbLine
 10
-237.0000000000001
 20
-15.99998474121082
 30
0.0
 11
-257.9557524357514
 21
-15.99998474121085
 31
0.0
  0
LINE
  5
A561
330
9FAF
100
AcDbEntity
  8
AM_5
 62
     3
100
AcDbLine
 10
-256.9557524357514
 20
13.49998474120914
 30
0.0
 11
-256.9557524357514
 21
-13.49998474121085
 31
0.0
  0
INSERT
  5
A562
330
9FAF
100
AcDbEntity
  8
AM_5
 62
     3
100
AcDbBlockReference
  2
_OPEN30
 10
-256.9557524357515
 20
15.99998474120914
 30
0.0
 41
2.5
 42
2.5
 43
2.5
 50
90.0000000000001
  0
INSERT
  5
A563
330
9FAF
100
AcDbEntity
  8
AM_5
 62
     3
100
AcDbBlockReference
  2
_OPEN30
 10
-256.9557524357514
 20
-15.99998474121085
 30
0.0
 41
2.5
 42
2.5
 43
2.5
 50
270.0000000000001
  0
MTEXT
  5
A564
330
9FAF
100
AcDbEntity
  8
AM_5
 62
     2
100
AcDbMText
 10
-259.5557524357515
 20
-0.0000000000008532
 30
0.0
 40
3.2
 41
0.0
 71
     5
 72
     1
  1
%%c32
 11
-0.000000000000002
 21
1.0
 31
0.0
1001
ACAD
1000
MTEXTBEGIN
1070
    73
1070
     1
1070
    44
1040
1.0
1070
    74
1070
     0
1000
MTEXTEND
  0
POINT
  5
A565
330
9FAF
100
AcDbEntity
  8
DEFPOINTS
 62
     0
100
AcDbPoint
 10
-237.0000000000002
 20
15.9999847412097
 30
0.0
  0
POINT
  5
A566
330
9FAF
100
AcDbEntity
  8
DEFPOINTS
 62
     0
100
AcDbPoint
 10
-237.0000000000002
 20
-15.99998474121029
 30
0.0
  0
POINT
  5
A567
330
9FAF
100
AcDbEntity
  8
DEFPOINTS
 62
     0
100
AcDbPoint
 10
-256.9557524357514
 20
-15.99998474121028
 30
0.0
  0
ENDBLK
  5
9FBA
330
9FAF
100
AcDbEntity
  8
0
100
AcDbBlockEnd
  0
BLOCK
  5
A057
330
A04D
100
AcDbEntity
  8
0
100
AcDbBlockBegin
  2
*D11
 70
     1
 10
0.0
 20
0.0
 30
0.0
  3
*D11
  1

  0
LINE
  5
A556
330
A04D
100
AcDbEntity
  8
AM_5
 62
     3
100
AcDbLine
 10
-85.00000000000019
 20
-16.00000000000017
 30
0.0
 11
-85.00000000000015
 21
-34.00000000000032
 31
0.0
  0
LINE
  5
A557
330
A04D
100
AcDbEntity
  8
AM_5
 62
     3
100
AcDbLine
 10
-240.0000000000002
 20
-13.66149902343077
 30
0.0
 11
-240.0000000000001
 21
-34.00000000000063
 31
0.0
  0
LINE
  5
A558
330
A04D
100
AcDbEntity
  8
AM_5
 62
     3
100
AcDbLine
 10
-87.50000000000015
 20
-33.00000000000032
 30
0.0
 11
-237.5000000000001
 21
-33.00000000000063
 31
0.0
  0
INSERT
  5
A559
330
A04D
100
AcDbEntity
  8
AM_5
 62
     3
100
AcDbBlockReference
  2
_OPEN30
 10
-85.00000000000015
 20
-33.00000000000032
 30
0.0
 41
2.5
 42
2.5
 43
2.5
 50
0.0000000000001018
  0
INSERT
  5
A55A
330
A04D
100
AcDbEntity
  8
AM_5
 62
     3
100
AcDbBlockReference
  2
_OPEN30
 10
-240.0000000000001
 20
-33.00000000000063
 30
0.0
 41
2.5
 42
2.5
 43
2.5
 50
180.0000000000001
  0
MTEXT
  5
A55B
330
A04D
100
AcDbEntity
  8
AM_5
 62
     2
100
AcDbMText
 10
-162.5000000000001
 20
-30.40000000000047
 30
0.0
 40
3.2
 41
0.0
 71
     5
 72
     1
  1
155
1001
ACAD
1000
MTEXTBEGIN
1070
    73
1070
     1
1070
    44
1040
1.0
1070
    74
1070
     0
1000
MTEXTEND
  0
POINT
  5
A55C
330
A04D
100
AcDbEntity
  8
DEFPOINTS
 62
     0
100
AcDbPoint
 10
-85.00000000000023
 20
-15.99999999999999
 30
0.0
  0
POINT
  5
A55D
330
A04D
100
AcDbEntity
  8
DEFPOINTS
 62
     0
100
AcDbPoint
 10
-240.0000000000002
 20
-13.66149902343029
 30
0.0
  0
POINT
  5
A55E
330
A04D
100
AcDbEntity
  8
DEFPOINTS
 62
     0
100
AcDbPoint
 10
-240.0000000000002
 20
-33.00000000000014
 30
0.0
  0
ENDBLK
  5
A058
330
A04D
100
AcDbEntity
  8
0
100
AcDbBlockEnd
  0
ENDSEC
  0
SECTION
  2
ENTITIES
  0
TEXT
  5
388D
330
1F
100
AcDbEntity
  8
AM_6
100
AcDbText
 10
-142.1428571428572
 20
-63.50000000000021
 30
0.0
 40
5.0
  1
WBMR2300M
 50
359.9999999999998
 51
359.9999999999998
 72
     4
 11
-120.0000000000001
 21
-61.00000000000026
 31
0.0
100
AcDbText
  0
SPLINE
  5
99F9
330
1F
100
AcDbEntity
  8
AM_0
100
AcDbSpline
210
0.0
220
0.0
230
1.0
 70
     8
 71
     3
 72
    11
 73
     7
 74
     5
 42
0.0000000001
 43
0.0000000001
 44
0.0000000001
 40
0.0
 40
0.0
 40
0.0
 40
0.0
 40
6.178815867079748
 40
12.31579269355107
 40
17.92466177207199
 40
21.90143493858397
 40
21.90143493858397
 40
21.90143493858397
 40
21.90143493858397
 10
-14.49950479604426
 20
-0.6245422363298588
 30
0.0
 10
-16.56622025485823
 20
-0.3293154298043078
 30
0.0
 10
-20.68565668003528
 20
0.2591390936780746
 30
0.0
 10
-25.65585224744503
 20
3.971640985131723
 30
0.0
 10
-28.70466891017974
 20
8.280651674538667
 30
0.0
 10
-30.06631550037498
 20
11.17473506463096
 30
0.0
 10
-30.63121866322429
 20
12.37539672852008
 30
0.0
 11
-14.49950479604426
 21
-0.6245422363298588
 31
0.0
 11
-20.52233194447425
 21
0.7550659179701427
 31
0.0
 11
-25.53496622182426
 21
4.295684814460116
 31
0.0
 11
-28.85094522572426
 21
8.819366455080114
 31
0.0
 11
-30.63121866322429
 21
12.37539672852008
 31
0.0
  0
SPLINE
  5
99FA
330
1F
100
AcDbEntity
  8
AM_0
100
AcDbSpline
210
0.0
220
0.0
230
1.0
 70
     8
 71
     3
 72
    11
 73
     7
 74
     5
 42
0.0000000001
 43
0.0000000001
 44
0.0000000001
 40
0.0
 40
0.0
 40
0.0
 40
0.0
 40
0.8619749901269267
 40
1.787502024871143
 40
2.78266994252798
 40
3.818354128968245
 40
3.818354128968245
 40
3.818354128968245
 40
3.818354128968245
 10
-19.97795938588423
 20
-8.121734619139871
 30
0.0
 10
-19.98225884037905
 20
-7.830408191653223
 30
0.0
 10
-19.99117474130816
 20
-7.226276302682548
 30
0.0
 10
-19.52685825695265
 20
-6.379484575119334
 30
0.0
 10
-18.70925532743226
 20
-5.754474282999547
 30
0.0
 10
-18.02506210594284
 20
-5.679803751337285
 30
0.0
 10
-17.67614053822423
 20
-5.641723632809856
 30
0.0
 11
-19.97795938588423
 21
-8.121734619139871
 31
0.0
 11
-19.91942667104423
 21
-7.261749267579872
 31
0.0
 11
-19.48955606557423
 21
-6.442108154289869
 31
0.0
 11
-18.69103311635423
 21
-5.848205566399869
 31
0.0
 11
-17.67614053822423
 21
-5.641723632809856
 31
0.0
  0
SPLINE
  5
99FB
330
1F
100
AcDbEntity
  8
AM_0
100
AcDbSpline
210
0.0
220
0.0
230
1.0
 70
     8
 71
     3
 72
    11
 73
     7
 74
     5
 42
0.0000000001
 43
0.0000000001
 44
0.0000000001
 40
0.0
 40
0.0
 40
0.0
 40
0.0
 40
0.2720652616096175
 40
0.5408770077675797
 40
0.8061745905032429
 40
1.067914407674394
 40
1.067914407674394
 40
1.067914407674394
 40
1.067914407674394
 10
-8.565239659324262
 20
-0.7540588378898434
 30
0.0
 10
-8.49991703699489
 20
-0.8169749327839282
 30
0.0
 10
-8.370052958442524
 20
-0.9420547351276857
 30
0.0
 10
-8.170284419424666
 20
-1.121851168637787
 30
0.0
 10
-7.969201845452039
 20
-1.294946378014353
 30
0.0
 10
-7.832235263344306
 20
-1.404979882460516
 30
0.0
 10
-7.76421426869426
 20
-1.459625244139843
 30
0.0
 11
-8.565239659324262
 21
-0.7540588378898434
 31
0.0
 11
-8.36821817494426
 21
-0.9416809081998422
 31
0.0
 11
-8.168755284324262
 21
-1.121887207029843
 31
0.0
 11
-7.96733926869426
 21
-1.294555664059842
 31
0.0
 11
-7.76421426869426
 21
-1.459625244139843
 31
0.0
  0
SPLINE
  5
99FC
330
1F
100
AcDbEntity
  8
AM_0
100
AcDbSpline
210
0.0
220
0.0
230
1.0
 70
     8
 71
     3
 72
    11
 73
     7
 74
     5
 42
0.0000000001
 43
0.0000000001
 44
0.0000000001
 40
0.0
 40
0.0
 40
0.0
 40
0.0
 40
1.093581968834168
 40
2.15164079585488
 40
3.146681668232869
 40
4.067130859539727
 40
4.067130859539727
 40
4.067130859539727
 40
4.067130859539727
 10
-17.67614053822423
 20
-5.641723632809856
 30
0.0
 10
-17.30952172744924
 20
-5.690513257667526
 30
0.0
 10
-16.58819309157917
 20
-5.786507659779085
 30
0.0
 10
-15.71194250105434
 20
-6.421846037435773
 30
0.0
 10
-15.10555885084288
 20
-7.235086354603311
 30
0.0
 10
-14.96343119070562
 20
-7.863929561538573
 30
0.0
 10
-14.89513467885423
 20
-8.166107177729855
 30
0.0
 11
-17.67614053822423
 21
-5.641723632809856
 31
0.0
 11
-16.60784219838423
 21
-5.875518798829858
 31
0.0
 11
-15.73503946400423
 21
-6.473602294919857
 31
0.0
 11
-15.15740274525423
 21
-7.283813476559856
 31
0.0
 11
-14.89513467885423
 21
-8.166107177729855
 31
0.0
  0
SPLINE
  5
99FD
330
1F
100
AcDbEntity
  8
AM_0
100
AcDbSpline
210
0.0
220
0.0
230
1.0
 70
     8
 71
     3
 72
    11
 73
     7
 74
     5
 42
0.0000000001
 43
0.0000000001
 44
0.0000000001
 40
0.0
 40
0.0
 40
0.0
 40
0.0
 40
0.1771964352964467
 40
0.3550216376764009
 40
0.5334350755994707
 40
0.7123023056573911
 40
0.7123023056573911
 40
0.7123023056573911
 40
0.7123023056573911
 10
-1.555779210104233
 20
-4.957000732419828
 30
0.0
 10
-1.57147548435953
 20
-5.013956622700685
 30
0.0
 10
-1.602923729817801
 20
-5.128070506588919
 30
0.0
 10
-1.661034815484122
 20
-5.296219751449784
 30
0.0
 10
-1.726518173242446
 20
-5.46223678830267
 30
0.0
 10
-1.777221512488828
 20
-5.570028572930733
 30
0.0
 10
-1.802605381974231
 20
-5.623992919919828
 30
0.0
 11
-1.555779210104233
 21
-4.957000732419828
 31
0.0
 11
-1.604668370254231
 21
-5.127319335929826
 31
0.0
 11
-1.662163487444232
 21
-5.29559326171983
 31
0.0
 11
-1.728203526504231
 21
-5.461334228509826
 31
0.0
 11
-1.802605381974231
 21
-5.623992919919828
 31
0.0
  0
SPLINE
  5
99FE
330
1F
100
AcDbEntity
  8
AM_0
100
AcDbSpline
210
0.0
220
0.0
230
1.0
 70
     8
 71
     3
 72
    11
 73
     7
 74
     5
 42
0.0000000001
 43
0.0000000001
 44
0.0000000001
 40
0.0
 40
0.0
 40
0.0
 40
0.0
 40
0.2237129421857896
 40
0.4469603547209104
 40
0.6698775348134312
 40
0.8925499067622757
 40
0.8925499067622757
 40
0.8925499067622757
 40
0.8925499067622757
 10
-0.8806083116642327
 20
-4.777343749999829
 30
0.0
 10
-0.8950991589159265
 20
-4.850516591983588
 30
0.0
 10
-0.9240506990661813
 20
-4.996710008821478
 30
0.0
 10
-0.9834150154019633
 20
-5.212131141760877
 30
0.0
 10
-1.053334547899155
 20
-5.424002982360098
 30
0.0
 10
-1.110313299130865
 20
-5.56122029648505
 30
0.0
 10
-1.138787022604233
 20
-5.629791259759826
 30
0.0
 11
-0.8806083116642327
 21
-4.777343749999829
 31
0.0
 11
-0.9267508897942349
 21
-4.996246337889829
 31
0.0
 11
-0.9852225694742315
 21
-5.211700439449828
 31
0.0
 11
-1.055962315574234
 21
-5.423095703119827
 31
0.0
 11
-1.138787022604233
 21
-5.629791259759826
 31
0.0
  0
SPLINE
  5
99FF
330
1F
100
AcDbEntity
  8
AM_0
100
AcDbSpline
210
0.0
220
0.0
230
1.0
 70
     8
 71
     3
 72
    11
 73
     7
 74
     5
 42
0.0000000001
 43
0.0000000001
 44
0.0000000001
 40
0.0
 40
0.0
 40
0.0
 40
0.0
 40
0.0815015276402934
 40
0.1635490622833563
 40
0.246278991398528
 40
0.3298074034382693
 40
0.3298074034382693
 40
0.3298074034382693
 40
0.3298074034382693
 10
-1.192681065574262
 20
-2.841186523429826
 30
0.0
 10
-1.165464111481864
 20
-2.84314786935525
 30
0.0
 10
-1.110847867481302
 20
-2.847083700942752
 30
0.0
 10
-1.032959737077927
 20
-2.875622297219231
 30
0.0
 10
-0.9612334846779134
 20
-2.918529506669776
 30
0.0
 10
-0.9228849303473021
 20
-2.95886258452484
 30
0.0
 10
-0.9036185655742343
 20
-2.979125976559828
 30
0.0
 11
-1.192681065574262
 21
-2.841186523429826
 31
0.0
 11
-1.111748448384261
 21
-2.850799560539826
 31
0.0
 11
-1.034294835104262
 21
-2.877868652339827
 31
0.0
 11
-0.9638602647942349
 21
-2.921264648429826
 31
0.0
 11
-0.9036185655742343
 21
-2.979125976559828
 31
0.0
  0
SPLINE
  5
9A00
330
1F
100
AcDbEntity
  8
AM_0
100
AcDbSpline
210
0.0
220
0.0
230
1.0
 70
     8
 71
     3
 72
    11
 73
     7
 74
     5
 42
0.0000000001
 43
0.0000000001
 44
0.0000000001
 40
0.0
 40
0.0
 40
0.0
 40
0.0
 40
0.1357734287419736
 40
0.2734227170678979
 40
0.4124457744969977
 40
0.5523091668136403
 40
0.5523091668136403
 40
0.5523091668136403
 40
0.5523091668136403
 10
-0.8934256944742315
 20
-4.476928710929826
 30
0.0
 10
-0.895202109485467
 20
-4.431705241292675
 30
0.0
 10
-0.8987794826394971
 20
-4.340633489934564
 30
0.0
 10
-0.9021915116142231
 20
-4.20319015866911
 30
0.0
 10
-0.9043629414693882
 20
-4.064358620928169
 30
0.0
 10
-0.9045582264963478
 20
-3.971395691581857
 30
0.0
 10
-0.9046561632242315
 20
-3.924774169919828
 30
0.0
 11
-0.8934256944742315
 21
-4.476928710929826
 31
0.0
 11
-0.8984305772942349
 21
-4.341247558589827
 31
0.0
 11
-0.9019706163542338
 21
-4.20364379882983
 31
0.0
 11
-0.9040458116642327
 21
-4.06463623046983
 31
0.0
 11
-0.9046561632242315
 21
-3.924774169919828
 31
0.0
  0
SPLINE
  5
9A01
330
1F
100
AcDbEntity
  8
AM_0
100
AcDbSpline
210
0.0
220
0.0
230
1.0
 70
     8
 71
     3
 72
    11
 73
     7
 74
     5
 42
0.0000000001
 43
0.0000000001
 44
0.0000000001
 40
0.0
 40
0.0
 40
0.0
 40
0.0
 40
4.003890232891415
 40
8.059243311351595
 40
12.19272717824714
 40
16.39353266462178
 40
16.39353266462178
 40
16.39353266462178
 40
16.39353266462178
 10
-1.138787022604233
 20
-5.629791259759826
 30
0.0
 10
-1.774977600685197
 20
-6.814905747043343
 30
0.0
 10
-3.055535848517404
 20
-9.200367248051625
 30
0.0
 10
-6.212118402182007
 20
-11.88382356397236
 30
0.0
 10
-10.01834747310815
 20
-13.67650117557886
 30
0.0
 10
-12.81076694292841
 20
-13.87691795249451
 30
0.0
 10
-14.21825479604423
 20
-13.97793579100985
 30
0.0
 11
-1.138787022604233
 21
-5.629791259759826
 31
0.0
 11
-3.246269932754231
 21
-9.034149169919828
 31
0.0
 11
-6.288933506974231
 21
-11.71520996092983
 31
0.0
 11
-10.05474161244423
 21
-13.41943359374985
 31
0.0
 11
-14.21825479604423
 21
-13.97793579100985
 31
0.0
  0
SPLINE
  5
9A07
330
1F
100
AcDbEntity
  8
AM_0
100
AcDbSpline
210
0.0
220
0.0
230
1.0
 70
     8
 71
     3
 72
    11
 73
     7
 74
     5
 42
0.0000000001
 43
0.0000000001
 44
0.0000000001
 40
0.0
 40
0.0
 40
0.0
 40
0.0
 40
0.0751733933784451
 40
0.1503441850233749
 40
0.2255175783918248
 40
0.300688370037177
 40
0.300688370037177
 40
0.300688370037177
 40
0.300688370037177
 10
-0.8934256944742315
 20
-4.476928710929826
 30
0.0
 10
-0.8923401536132335
 20
-4.501962988062095
 30
0.0
 10
-0.8901691094615523
 20
-4.55203067589617
 30
0.0
 10
-0.8870430765015818
 20
-4.627138210937713
 30
0.0
 10
-0.8837604181391059
 20
-4.702238195432954
 30
0.0
 10
-0.881659001700774
 20
-4.752308853970337
 30
0.0
 10
-0.8806083116642327
 20
-4.777343749999829
 30
0.0
 11
-0.8934256944742315
 21
-4.476928710929826
 31
0.0
 11
-0.8901908311942321
 21
-4.552032470699828
 31
0.0
 11
-0.8870170030742343
 21
-4.62713623046983
 31
0.0
 11
-0.8837821397942349
 21
-4.702239990229827
 31
0.0
 11
-0.8806083116642327
 21
-4.777343749999829
 31
0.0
  0
SPLINE
  5
9A2F
330
1F
100
AcDbEntity
  8
AM_0
100
AcDbSpline
210
0.0
220
0.0
230
1.0
 70
     8
 71
     3
 72
    11
 73
     7
 74
     5
 42
0.0000000001
 43
0.0000000001
 44
0.0000000001
 40
0.0
 40
0.0
 40
0.0
 40
0.0
 40
5.460615966189888
 40
11.02848070277482
 40
16.57692196424608
 40
21.95489140467971
 40
21.95489140467971
 40
21.95489140467971
 40
21.95489140467971
 10
-26.27459024525428
 20
13.26498413086011
 30
0.0
 10
-25.86686588306152
 20
11.47099923982725
 30
0.0
 10
-25.04340928249939
 20
7.84779484780878
 30
0.0
 10
-21.58976916145364
 20
3.360085714516805
 30
0.0
 10
-16.95031231714089
 20
0.1109324752144421
 30
0.0
 10
-13.29601191173723
 20
-0.3923161375337932
 30
0.0
 10
-11.49736856557426
 20
-0.6400146484298546
 30
0.0
 11
-26.27459024525428
 21
13.26498413086011
 31
0.0
 11
-24.68999551869426
 21
8.039337158210116
 31
0.0
 11
-21.38231729604426
 21
3.560455322270144
 31
0.0
 11
-16.75255655385426
 21
0.5025939941401419
 31
0.0
 11
-11.49736856557426
 21
-0.6400146484298546
 31
0.0
  0
SPLINE
  5
9A30
330
1F
100
AcDbEntity
  8
AM_0
100
AcDbSpline
210
0.0
220
0.0
230
1.0
 70
     8
 71
     3
 72
    11
 73
     7
 74
     5
 42
0.0000000001
 43
0.0000000001
 44
0.0000000001
 40
0.0
 40
0.0
 40
0.0
 40
0.0
 40
1.250393842695886
 40
2.527686316729349
 40
3.822619727829231
 40
5.115400069118442
 40
5.115400069118442
 40
5.115400069118442
 40
5.115400069118442
 10
-16.63897012807426
 20
7.784149169920141
 30
0.0
 10
-16.70610830757408
 20
7.368856802210123
 30
0.0
 10
-16.84182895162805
 20
6.529338244569514
 30
0.0
 10
-16.5276851931292
 20
5.265939524174864
 30
0.0
 10
-15.87738351216985
 20
4.120685568052867
 30
0.0
 10
-15.18113878098571
 20
3.597436103794112
 30
0.0
 10
-14.83330606557426
 20
3.336029052740144
 30
0.0
 11
-16.63897012807426
 21
7.784149169920141
 31
0.0
 11
-16.75634073354426
 21
6.539276123050143
 31
0.0
 11
-16.47454141713426
 21
5.293457031250142
 31
0.0
 11
-15.81169962025426
 21
4.181030273440143
 31
0.0
 11
-14.83330606557426
 21
3.336029052740144
 31
0.0
  0
SPLINE
  5
9A31
330
1F
100
AcDbEntity
  8
AM_0
100
AcDbSpline
210
0.0
220
0.0
230
1.0
 70
     8
 71
     3
 72
    11
 73
     7
 74
     5
 42
0.0000000001
 43
0.0000000001
 44
0.0000000001
 40
0.0
 40
0.0
 40
0.0
 40
0.0
 40
0.0634861352005139
 40
0.1254612355550835
 40
0.1841339284008632
 40
0.2336211054950324
 40
0.2336211054950324
 40
0.2336211054950324
 40
0.2336211054950324
 10
-26.23980020619426
 20
11.29101562500011
 30
0.0
 10
-26.23634147167983
 20
11.27013712636063
 30
0.0
 10
-26.22950632406428
 20
11.22887705866913
 30
0.0
 10
-26.22017565388556
 20
11.16822350843626
 30
0.0
 10
-26.21196874561731
 20
11.11206662089054
 30
0.0
 10
-26.20970707515004
 20
11.07607043055832
 30
0.0
 10
-26.20867227650426
 20
11.05960083008011
 30
0.0
 11
-26.23980020619426
 21
11.29101562500011
 31
0.0
 11
-26.22954629994426
 21
11.22836303711011
 31
0.0
 11
-26.22008585072426
 21
11.16711425782011
 31
0.0
 11
-26.21239542104426
 21
11.10894775391011
 31
0.0
 11
-26.20867227650426
 21
11.05960083008011
 31
0.0
  0
SPLINE
  5
9A32
330
1F
100
AcDbEntity
  8
AM_0
100
AcDbSpline
210
0.0
220
0.0
230
1.0
 70
     8
 71
     3
 72
    11
 73
     7
 74
     5
 42
0.0000000001
 43
0.0000000001
 44
0.0000000001
 40
0.0
 40
0.0
 40
0.0
 40
0.0
 40
0.0495393547993247
 40
0.0988850990581249
 40
0.1480584260022937
 40
0.1970174961102448
 40
0.1970174961102448
 40
0.1970174961102448
 40
0.1970174961102448
 10
-26.29613565541429
 20
13.46081542969011
 30
0.0
 10
-26.29447793500125
 20
13.44438573955902
 30
0.0
 10
-26.29116897290602
 20
13.41159057008844
 30
0.0
 10
-26.28602529648265
 20
13.36250608464101
 30
0.0
 10
-26.28044517934498
 20
13.31366380366798
 30
0.0
 10
-26.27653904714033
 20
13.28118705248328
 30
0.0
 10
-26.27459024525428
 20
13.26498413086011
 30
0.0
 11
-26.29613565541429
 21
13.46081542969011
 31
0.0
 11
-26.29113077260429
 21
13.41152954102011
 31
0.0
 11
-26.28594278432429
 21
13.36245727539011
 31
0.0
 11
-26.28038858510429
 21
13.31359863282011
 31
0.0
 11
-26.27459024525428
 21
13.26498413086011
 31
0.0
  0
SPLINE
  5
9A33
330
1F
100
AcDbEntity
  8
AM_0
100
AcDbSpline
210
0.0
220
0.0
230
1.0
 70
     8
 71
     3
 72
    11
 73
     7
 74
     5
 42
0.0000000001
 43
0.0000000001
 44
0.0000000001
 40
0.0
 40
0.0
 40
0.0
 40
0.0
 40
5.325150021878633
 40
10.69150750422896
 40
16.16708507925508
 40
21.7314270620879
 40
21.7314270620879
 40
21.7314270620879
 40
21.7314270620879
 10
-0.0034720811942606
 20
0.1700744628901702
 30
0.0
 10
-0.2274138978247079
 20
1.953932149246119
 30
0.0
 10
-0.677030453823712
 20
5.535451498333447
 30
0.0
 10
-3.840569008220168
 20
10.11648875141745
 30
0.0
 10
-8.476021139439884
 20
13.34836085938942
 30
0.0
 10
-12.17427010035447
 20
13.82078675297863
 30
0.0
 10
-14.03826212025428
 20
14.05889892578014
 30
0.0
 11
-0.0034720811942606
 21
0.1700744628901702
 31
0.0
 11
-1.082756749164261
 21
5.384704589850173
 31
0.0
 11
-4.049919835104262
 21
9.856140136720142
 31
0.0
 11
-8.59337686635429
 21
12.91210937500014
 31
0.0
 11
-14.03826212025428
 21
14.05889892578014
 31
0.0
  0
SPLINE
  5
9A34
330
1F
100
AcDbEntity
  8
AM_0
100
AcDbSpline
210
0.0
220
0.0
230
1.0
 70
     8
 71
     3
 72
    11
 73
     7
 74
     5
 42
0.0000000001
 43
0.0000000001
 44
0.0000000001
 40
0.0
 40
0.0
 40
0.0
 40
0.0
 40
2.234612689219736
 40
4.470325747130555
 40
6.747493449079442
 40
9.045559828327625
 40
9.045559828327625
 40
9.045559828327625
 40
9.045559828327625
 10
-9.33532022572426
 20
5.644287109380144
 30
0.0
 10
-9.199465030585809
 20
6.400848268272124
 30
0.0
 10
-8.92768774245051
 20
7.91434313214255
 30
0.0
 10
-10.2575039249811
 20
9.967642558503378
 30
0.0
 10
-12.53093575246868
 20
10.91214217136366
 30
0.0
 10
-14.01285237669362
 20
10.39116468385023
 30
0.0
 10
-14.75719522572426
 20
10.12948608399014
 30
0.0
 11
-9.33532022572426
 21
5.644287109380144
 31
0.0
 11
-9.215813389794263
 21
7.875701904300143
 31
0.0
 11
-10.40074991322426
 21
9.771575927740144
 31
0.0
 11
-12.51274942494426
 21
10.62301635742014
 31
0.0
 11
-14.75719522572426
 21
10.12948608399014
 31
0.0
  0
SPLINE
  5
9A35
330
1F
100
AcDbEntity
  8
AM_0
100
AcDbSpline
210
0.0
220
0.0
230
1.0
 70
     8
 71
     3
 72
    11
 73
     7
 74
     5
 42
0.0000000001
 43
0.0000000001
 44
0.0000000001
 40
0.0
 40
0.0
 40
0.0
 40
0.0
 40
0.0492040279133131
 40
0.0981957297014309
 40
0.1469420849494939
 40
0.1954748602186165
 40
0.1954748602186165
 40
0.1954748602186165
 40
0.1954748602186165
 10
0.0004952039557367
 20
-0.0253601074198286
 30
0.0
 10
0.0001769212412463
 20
-0.008961846817723
 30
0.0
 10
-0.0004582707283175
 20
0.0237639123110802
 30
0.0
 10
-0.0015381998473814
 20
0.072732745844983
 30
0.0
 10
-0.0024878347439978
 20
0.1214804628909319
 30
0.0
 10
-0.0031444796069798
 20
0.1539001891319828
 30
0.0
 10
-0.0034720811942606
 20
0.1700744628901702
 30
0.0
 11
0.0004952039557367
 21
-0.0253601074198286
 31
0.0
 11
-0.0004813585442633
 21
0.0238342285201725
 31
0.0
 11
-0.0015189561942606
 21
0.0728149414101722
 31
0.0
 11
-0.0024955186942606
 21
0.1215515136701697
 31
0.0
 11
-0.0034720811942606
 21
0.1700744628901702
 31
0.0
  0
SPLINE
  5
9A36
330
1F
100
AcDbEntity
  8
AM_0
100
AcDbSpline
210
0.0
220
0.0
230
1.0
 70
     8
 71
     3
 72
    11
 73
     7
 74
     5
 42
0.0000000001
 43
0.0000000001
 44
0.0000000001
 40
0.0
 40
0.0
 40
0.0
 40
0.0
 40
0.3186246331507851
 40
0.6367163168291872
 40
0.9542465947447118
 40
1.271240911046781
 40
1.271240911046781
 40
1.271240911046781
 40
1.271240911046781
 10
-14.75719522572426
 20
10.12948608399014
 30
0.0
 10
-14.84908634203417
 20
10.07611060093654
 30
0.0
 10
-15.03271487240734
 20
9.969448913662716
 30
0.0
 10
-15.29088503539197
 20
9.782933790492988
 30
0.0
 10
-15.53566142585813
 20
9.58001267147353
 30
0.0
 10
-15.68440975928266
 20
9.429480883749507
 30
0.0
 10
-15.75872110463426
 20
9.354278564460145
 30
0.0
 11
-14.75719522572426
 21
10.12948608399014
 31
0.0
 11
-15.03002237416426
 21
9.964904785160143
 31
0.0
 11
-15.28887247182426
 21
9.780029296880144
 31
0.0
 11
-15.53221963979426
 21
9.576049804690143
 31
0.0
 11
-15.75872110463426
 21
9.354278564460145
 31
0.0
  0
SPLINE
  5
9A37
330
1F
100
AcDbEntity
  8
AM_0
100
AcDbSpline
210
0.0
220
0.0
230
1.0
 70
     8
 71
     3
 72
    11
 73
     7
 74
     5
 42
0.0000000001
 43
0.0000000001
 44
0.0000000001
 40
0.0
 40
0.0
 40
0.0
 40
0.0
 40
1.313115196088662
 40
2.589577391403159
 40
3.838851257387026
 40
5.083560050102385
 40
5.083560050102385
 40
5.083560050102385
 40
5.083560050102385
 10
-14.83330606557426
 20
3.336029052740144
 30
0.0
 10
-14.43442533504627
 20
3.143775742590976
 30
0.0
 10
-13.64779783677466
 20
2.764635491326156
 30
0.0
 10
-12.33205461535441
 20
2.765657311369969
 30
0.0
 10
-11.10795782393561
 20
3.183452013232566
 30
0.0
 10
-10.51266889484814
 20
3.777618341935156
 30
0.0
 10
-10.21556924916426
 20
4.074157714850144
 30
0.0
 11
-14.83330606557426
 21
3.336029052740144
 31
0.0
 11
-13.61071085072426
 21
2.856933593750142
 31
0.0
 11
-12.33440469838426
 21
2.836975097660143
 31
0.0
 11
-11.16027139760426
 21
3.263702392580142
 31
0.0
 11
-10.21556924916426
 21
4.074157714850144
 31
0.0
  0
SPLINE
  5
9A38
330
1F
100
AcDbEntity
  8
AM_0
100
AcDbSpline
210
0.0
220
0.0
230
1.0
 70
     8
 71
     3
 72
    11
 73
     7
 74
     5
 42
0.0000000001
 43
0.0000000001
 44
0.0000000001
 40
0.0
 40
0.0
 40
0.0
 40
0.0
 40
0.1319070024026049
 40
0.2628306136661291
 40
0.3922380602613282
 40
0.5197486238489776
 40
0.5197486238489776
 40
0.5197486238489776
 40
0.5197486238489776
 10
-16.46886514760426
 20
8.274749755860142
 30
0.0
 10
-16.48599346185821
 20
8.234247121921466
 30
0.0
 10
-16.52012239561027
 20
8.153543808683364
 30
0.0
 10
-16.56494673708593
 20
8.030677152137073
 30
0.0
 10
-16.6052997140359
 20
7.907809546154621
 30
0.0
 10
-16.62780203661802
 20
7.825165903178197
 30
0.0
 10
-16.63897012807426
 20
7.784149169920141
 30
0.0
 11
-16.46886514760426
 21
8.274749755860142
 31
0.0
 11
-16.51921915150426
 21
8.152832031250142
 31
0.0
 11
-16.56444620229426
 21
8.029968261720142
 31
0.0
 11
-16.60442422963426
 21
7.906890869140141
 31
0.0
 11
-16.63897012807426
 21
7.784149169920141
 31
0.0
  0
SPLINE
  5
9A39
330
1F
100
AcDbEntity
  8
AM_0
100
AcDbSpline
210
0.0
220
0.0
230
1.0
 70
     8
 71
     3
 72
    11
 73
     7
 74
     5
 42
0.0000000001
 43
0.0000000001
 44
0.0000000001
 40
0.0
 40
0.0
 40
0.0
 40
0.0
 40
0.1925067720085801
 40
0.3849358708771974
 40
0.5772718871343299
 40
0.7694995052088815
 40
0.7694995052088815
 40
0.7694995052088815
 40
0.7694995052088815
 10
-16.46886514760426
 20
8.274749755860142
 30
0.0
 10
-16.44236098199325
 20
8.333205804726819
 30
0.0
 10
-16.38936334474184
 20
8.450094316459441
 30
0.0
 10
-16.29880785591229
 20
8.619995519712883
 30
0.0
 10
-16.20114500867763
 20
8.785805575075393
 30
0.0
 10
-16.12913005368008
 20
8.891889006710709
 30
0.0
 10
-16.09313272572426
 20
8.944915771490144
 30
0.0
 11
-16.46886514760426
 21
8.274749755860142
 31
0.0
 11
-16.38750528432426
 21
8.449218750000142
 31
0.0
 11
-16.29760049916426
 21
8.619354248050143
 31
0.0
 11
-16.19939493275426
 21
8.784729003910143
 31
0.0
 11
-16.09313272572426
 21
8.944915771490144
 31
0.0
  0
SPLINE
  5
9A3A
330
1F
100
AcDbEntity
  8
AM_0
100
AcDbSpline
210
0.0
220
0.0
230
1.0
 70
     8
 71
     3
 72
    11
 73
     7
 74
     5
 42
0.0000000001
 43
0.0000000001
 44
0.0000000001
 40
0.0
 40
0.0
 40
0.0
 40
0.0
 40
0.1317265515971544
 40
0.2640823996990099
 40
0.3966872992526137
 40
0.5290363076944694
 40
0.5290363076944694
 40
0.5290363076944694
 40
0.5290363076944694
 10
-15.75872110463426
 20
9.354278564460145
 30
0.0
 10
-15.78857669004855
 20
9.322074408602988
 30
0.0
 10
-15.84843048979528
 20
9.257512248158317
 30
0.0
 10
-15.93374697442898
 20
9.156440508815137
 30
0.0
 10
-16.01598938833084
 20
9.052583685764037
 30
0.0
 10
-16.06743484184395
 20
8.980781961003506
 30
0.0
 10
-16.09313272572426
 20
8.944915771490144
 30
0.0
 11
-15.75872110463426
 21
9.354278564460145
 31
0.0
 11
-15.84752725697426
 21
9.256988525390141
 31
0.0
 11
-15.93315958119426
 21
9.156066894530141
 31
0.0
 11
-16.01519083119426
 21
9.051879882820145
 31
0.0
 11
-16.09313272572426
 21
8.944915771490144
 31
0.0
  0
SPLINE
  5
9A3B
330
1F
100
AcDbEntity
  8
AM_0
100
AcDbSpline
210
0.0
220
0.0
230
1.0
 70
     8
 71
     3
 72
    11
 73
     7
 74
     5
 42
0.0000000001
 43
0.0000000001
 44
0.0000000001
 40
0.0
 40
0.0
 40
0.0
 40
0.0
 40
0.1325407333094898
 40
0.2650481137561327
 40
0.3968698654653095
 40
0.5274076420901634
 40
0.5274076420901634
 40
0.5274076420901634
 40
0.5274076420901634
 10
-9.530022374164261
 20
5.154235839850144
 30
0.0
 10
-9.51251544295048
 20
5.194800787774733
 30
0.0
 10
-9.477505986008399
 20
5.275920475764706
 30
0.0
 10
-9.427825856078028
 20
5.398536913502041
 30
0.0
 10
-9.380135811628607
 20
5.5212240919292
 30
0.0
 10
-9.350209935753463
 20
5.603400158820703
 30
0.0
 10
-9.33532022572426
 20
5.644287109380144
 30
0.0
 11
-9.530022374164261
 21
5.154235839850144
 31
0.0
 11
-9.477959385884261
 21
5.276123046880144
 31
0.0
 11
-9.428032628074262
 21
5.398864746100144
 31
0.0
 11
-9.38042520619426
 21
5.521789550780141
 31
0.0
 11
-9.33532022572426
 21
5.644287109380144
 31
0.0
  0
SPLINE
  5
9A3C
330
1F
100
AcDbEntity
  8
AM_0
100
AcDbSpline
210
0.0
220
0.0
230
1.0
 70
     8
 71
     3
 72
    11
 73
     7
 74
     5
 42
0.0000000001
 43
0.0000000001
 44
0.0000000001
 40
0.0
 40
0.0
 40
0.0
 40
0.0
 40
0.192584230062554
 40
0.3850133289311712
 40
0.5773181881782453
 40
0.7694783534848706
 40
0.7694783534848706
 40
0.7694783534848706
 40
0.7694783534848706
 10
-9.530022374164261
 20
5.154235839850144
 30
0.0
 10
-9.556599807683431
 20
5.095785423380287
 30
0.0
 10
-9.609733265964718
 20
4.978931673646138
 30
0.0
 10
-9.700257069917897
 20
4.808999718243151
 30
0.0
 10
-9.797868656444075
 20
4.64319775514351
 30
0.0
 10
-9.869801773553367
 20
4.53709915774361
 30
0.0
 10
-9.905754796044263
 20
4.484069824220142
 30
0.0
 11
-9.530022374164261
 21
5.154235839850144
 31
0.0
 11
-9.611565342914261
 21
4.979766845710145
 31
0.0
 11
-9.701470128074262
 21
4.809631347660143
 31
0.0
 11
-9.799614659324262
 21
4.644256591800143
 31
0.0
 11
-9.905754796044263
 21
4.484069824220142
 31
0.0
  0
SPLINE
  5
9A3D
330
1F
100
AcDbEntity
  8
AM_0
100
AcDbSpline
210
0.0
220
0.0
230
1.0
 70
     8
 71
     3
 72
    11
 73
     7
 74
     5
 42
0.0000000001
 43
0.0000000001
 44
0.0000000001
 40
0.0
 40
0.0
 40
0.0
 40
0.0
 40
0.1250182712124872
 40
0.2527156664347832
 40
0.3825638552328919
 40
0.5139385377382578
 40
0.5139385377382578
 40
0.5139385377382578
 40
0.5139385377382578
 10
-10.21556924916426
 20
4.074157714850144
 30
0.0
 10
-10.18935429649617
 20
4.106553898872342
 30
0.0
 10
-10.13636260840273
 20
4.172040512594574
 30
0.0
 10
-10.05860378405944
 20
4.273124071991905
 30
0.0
 10
-9.981262459307671
 20
4.377179183324713
 30
0.0
 10
-9.931021879834554
 20
4.448301073563918
 30
0.0
 10
-9.905754796044263
 20
4.484069824220142
 30
0.0
 11
-10.21556924916426
 21
4.074157714850144
 31
0.0
 11
-10.13732217885426
 21
4.171661376960145
 31
0.0
 11
-10.05931924916426
 21
4.272766113280141
 31
0.0
 11
-9.98198770619426
 21
4.377075195320145
 31
0.0
 11
-9.905754796044263
 21
4.484069824220142
 31
0.0
  0
SPLINE
  5
9A3E
330
1F
100
AcDbEntity
  8
AM_0
100
AcDbSpline
210
0.0
220
0.0
230
1.0
 70
     8
 71
     3
 72
    11
 73
     7
 74
     5
 42
0.0000000001
 43
0.0000000001
 44
0.0000000001
 40
0.0
 40
0.0
 40
0.0
 40
0.0
 40
0.0951735578176142
 40
0.1898696764955089
 40
0.2841634818003427
 40
0.3780345599922902
 40
0.3780345599922902
 40
0.3780345599922902
 40
0.3780345599922902
 10
-26.23918985463429
 20
13.83074951172011
 30
0.0
 10
-26.25066057342228
 20
13.80111958792467
 30
0.0
 10
-26.2735444680185
 20
13.74200837915376
 30
0.0
 10
-26.2929567764139
 20
13.64894942853028
 30
0.0
 10
-26.30195845883965
 20
13.55477834258039
 30
0.0
 10
-26.29807368073689
 20
13.49208945549254
 30
0.0
 10
-26.29613565541429
 20
13.46081542969011
 30
0.0
 11
-26.23918985463429
 21
13.83074951172011
 31
0.0
 11
-26.27111124135429
 21
13.74108886719011
 31
0.0
 11
-26.29125284291429
 21
13.64855957032011
 31
0.0
 11
-26.29949258900428
 21
13.55462646485011
 31
0.0
 11
-26.29613565541429
 21
13.46081542969011
 31
0.0
  0
SPLINE
  5
9A3F
330
1F
100
AcDbEntity
  8
AM_0
100
AcDbSpline
210
0.0
220
0.0
230
1.0
 70
     8
 71
     3
 72
    11
 73
     7
 74
     5
 42
0.0000000001
 43
0.0000000001
 44
0.0000000001
 40
0.0
 40
0.0
 40
0.0
 40
0.0
 40
0.2267895990915059
 40
0.4535299553133382
 40
0.6803734587633041
 40
0.9073642982848193
 40
0.9073642982848193
 40
0.9073642982848193
 40
0.9073642982848193
 10
-26.23918985463429
 20
13.83074951172011
 30
0.0
 10
-26.20334818755758
 20
13.89797239883268
 30
0.0
 10
-26.13167263571228
 20
14.03240357693929
 30
0.0
 10
-25.95702345982107
 20
14.18349062565001
 30
0.0
 10
-25.75028468573395
 20
14.28627016167244
 30
0.0
 10
-25.59861743507947
 20
14.3013340292165
 30
0.0
 10
-25.52275919057429
 20
14.30886840821011
 30
0.0
 11
-26.23918985463429
 21
13.83074951172011
 31
0.0
 11
-26.12047647572429
 21
14.02398681641011
 31
0.0
 11
-25.95171426869429
 21
14.17541503907011
 31
0.0
 11
-25.74688028432429
 21
14.27288818360011
 31
0.0
 11
-25.52275919057429
 21
14.30886840821011
 31
0.0
  0
SPLINE
  5
9A40
330
1F
100
AcDbEntity
  8
AM_0
100
AcDbSpline
210
0.0
220
0.0
230
1.0
 70
     8
 71
     3
 72
    11
 73
     7
 74
     5
 42
0.0000000001
 43
0.0000000001
 44
0.0000000001
 40
0.0
 40
0.0
 40
0.0
 40
0.0
 40
0.0013514153970364
 40
0.0023265463329792
 40
0.0031252677879668
 40
0.0039098722854738
 40
0.0039098722854738
 40
0.0039098722854738
 40
0.0039098722854738
 10
-26.14287637807429
 20
14.21582031250011
 30
0.0
 10
-26.14242670462647
 20
14.21578871075563
 30
0.0
 10
-26.14165256359377
 20
14.21573430637125
 30
0.0
 10
-26.14063752450785
 20
14.21543117640121
 30
0.0
 10
-26.13998721582424
 20
14.21479149163549
 30
0.0
 10
-26.13991930705909
 20
14.21425507485861
 30
0.0
 10
-26.13988565541429
 20
14.21398925782011
 30
0.0
 11
-26.14287637807429
 21
14.21582031250011
 31
0.0
 11
-26.14153360463429
 21
14.21566772461011
 31
0.0
 11
-26.14061807729429
 21
14.21533203125011
 31
0.0
 11
-26.14006876088429
 21
14.21475219727011
 31
0.0
 11
-26.13988565541429
 21
14.21398925782011
 31
0.0
  0
SPLINE
  5
9A41
330
1F
100
AcDbEntity
  8
AM_0
100
AcDbSpline
210
0.0
220
0.0
230
1.0
 70
     8
 71
     3
 72
    11
 73
     7
 74
     5
 42
0.0000000001
 43
0.0000000001
 44
0.0000000001
 40
0.0
 40
0.0
 40
0.0
 40
0.0
 40
0.0052998763083667
 40
0.0158089622608939
 40
0.0312142647195495
 40
0.0510053082409325
 40
0.0510053082409325
 40
0.0510053082409325
 40
0.0510053082409325
 10
-26.13988565541429
 20
14.21398925782011
 30
0.0
 10
-26.14067150274596
 20
14.21239225156258
 30
0.0
 10
-26.14301560100152
 20
14.20762855328232
 30
0.0
 10
-26.15126182500765
 20
14.20089923784676
 30
0.0
 10
-26.1625543606694
 20
14.1908316550551
 30
0.0
 10
-26.17168034700193
 20
14.18342502888379
 30
0.0
 10
-26.17681192494428
 20
14.17926025391011
 30
0.0
 11
-26.13988565541429
 21
14.21398925782011
 31
0.0
 11
-26.14244913197429
 21
14.20935058594011
 31
0.0
 11
-26.14989542104429
 21
14.20193481446011
 31
0.0
 11
-26.16155313588429
 21
14.19186401367011
 31
0.0
 11
-26.17681192494428
 21
14.17926025391011
 31
0.0
  0
SPLINE
  5
9A42
330
1F
100
AcDbEntity
  8
AM_0
100
AcDbSpline
210
0.0
220
0.0
230
1.0
 70
     8
 71
     3
 72
    11
 73
     7
 74
     5
 42
0.0000000001
 43
0.0000000001
 44
0.0000000001
 40
0.0
 40
0.0
 40
0.0
 40
0.0
 40
0.0049837176589588
 40
0.0089675183575052
 40
0.0116537587277806
 40
0.0133496137082218
 40
0.0133496137082218
 40
0.0133496137082218
 40
0.0133496137082218
 10
-26.20867227650426
 20
11.05960083008011
 30
0.0
 10
-26.20873732844105
 20
11.05792600123992
 30
0.0
 10
-26.20885438050485
 20
11.05491237579043
 30
0.0
 10
-26.20946941263616
 20
11.05120690091402
 30
0.0
 10
-26.2100864154344
 20
11.04817898443182
 30
0.0
 10
-26.21148713624098
 20
11.04756887413747
 30
0.0
 10
-26.21202921010426
 20
11.04733276367011
 30
0.0
 11
-26.20867227650426
 21
11.05960083008011
 31
0.0
 11
-26.20897745229426
 21
11.05462646485011
 31
0.0
 11
-26.20958780385426
 21
11.05068969727011
 31
0.0
 11
-26.21056436635426
 21
11.04818725586011
 31
0.0
 11
-26.21202921010426
 21
11.04733276367011
 31
0.0
  0
SPLINE
  5
9A43
330
1F
100
AcDbEntity
  8
AM_0
100
AcDbSpline
210
0.0
220
0.0
230
1.0
 70
     8
 71
     3
 72
    11
 73
     7
 74
     5
 42
0.0000000001
 43
0.0000000001
 44
0.0000000001
 40
0.0
 40
0.0
 40
0.0
 40
0.0
 40
0.2266241454291854
 40
0.4509839939151312
 40
0.6727008358893436
 40
0.8921319612747984
 40
0.8921319612747984
 40
0.8921319612747984
 40
0.8921319612747984
 10
-0.0730521593242628
 20
-0.394927978509827
 30
0.0
 10
-0.1088772008322105
 20
-0.462053519406665
 30
0.0
 10
-0.1801693408238784
 20
-0.5956339217509901
 30
0.0
 10
-0.3507324869059142
 20
-0.7469872337655512
 30
0.0
 10
-0.5516903081306226
 20
-0.8503300824240003
 30
0.0
 10
-0.6990799787907644
 20
-0.8657657553926444
 30
0.0
 10
-0.7723929796342617
 20
-0.8734436035098269
 30
0.0
 11
-0.0730521593242628
 21
-0.394927978509827
 31
0.0
 11
-0.1913993272942633
 21
-0.588195800779829
 31
0.0
 11
-0.3568656358842617
 21
-0.7397155761698287
 31
0.0
 11
-0.5559623155742628
 21
-0.8372802734298261
 31
0.0
 11
-0.7723929796342617
 21
-0.8734436035098269
 31
0.0
  0
SPLINE
  5
9A44
330
1F
100
AcDbEntity
  8
AM_0
100
AcDbSpline
210
0.0
220
0.0
230
1.0
 70
     8
 71
     3
 72
    11
 73
     7
 74
     5
 42
0.0000000001
 43
0.0000000001
 44
0.0000000001
 40
0.0
 40
0.0
 40
0.0
 40
0.0
 40
0.0956176259078429
 40
0.1910695903987958
 40
0.2857979078419491
 40
0.3795427022213211
 40
0.3795427022213211
 40
0.3795427022213211
 40
0.3795427022213211
 10
-0.0730521593242628
 20
-0.394927978509827
 30
0.0
 10
-0.0612293212163088
 20
-0.3652924414857331
 30
0.0
 10
-0.0376041285471741
 20
-0.3060727122080004
 30
0.0
 10
-0.0147030295749779
 20
-0.2133539673140271
 30
0.0
 10
-0.0006125093018125
 20
-0.1195264207790837
 30
0.0
 10
0.0001272529884938
 20
-0.0566394893772997
 30
0.0
 10
0.0004952039557367
 20
-0.0253601074198286
 30
0.0
 11
-0.0730521593242628
 21
-0.394927978509827
 31
0.0
 11
-0.0396659288542622
 21
-0.3053283691398292
 31
0.0
 11
-0.0161063585442634
 21
-0.2128295898398278
 31
0.0
 11
-0.0027396593242628
 21
-0.119049072259827
 31
0.0
 11
0.0004952039557367
 21
-0.0253601074198286
 31
0.0
  0
ELLIPSE
  5
9A4A
330
1F
100
AcDbEntity
  8
AM_0
100
AcDbEllipse
 10
-13.18120645619426
 20
6.518402099610142
 30
0.0
 11
0.0763550469899814
 21
3.49917609248999
 31
0.0
210
0.0
220
0.0
230
1.0
 40
0.9848161136754999
 41
4.712388702538516
 42
6.283185307179586
  0
ELLIPSE
  5
9A4B
330
1F
100
AcDbEntity
  8
AM_0
100
AcDbEllipse
 10
-13.18120645619426
 20
6.518402099610142
 30
0.0
 11
0.0763550469899814
 21
3.49917609248999
 31
0.0
210
0.0
220
0.0
230
1.0
 40
0.9848161136754999
 41
3.141592564819102
 42
4.712388702538516
  0
ELLIPSE
  5
9A4C
330
1F
100
AcDbEntity
  8
AM_0
100
AcDbEllipse
 10
-13.18120645619426
 20
6.518402099610142
 30
0.0
 11
0.0763550469899814
 21
3.49917609248999
 31
0.0
210
0.0
220
0.0
230
1.0
 40
0.9848161136754999
 41
0.0
 42
3.141592742360483
  0
ELLIPSE
  5
9A4D
330
1F
100
AcDbEntity
  8
AM_0
100
AcDbEllipse
 10
-13.40691446400426
 20
6.523345947270144
 30
0.0
 11
0.0763550469899814
 21
3.499176092479984
 31
0.0
210
0.0
220
0.0
230
1.0
 40
0.9847986751045999
 41
0.0
 42
1.265941984966401
  0
ELLIPSE
  5
9A4E
330
1F
100
AcDbEntity
  8
AM_0
100
AcDbEllipse
 10
-13.40685342885426
 20
6.523376464850144
 30
0.0
 11
0.0768736262100378
 21
3.499206471510007
 31
0.0
210
0.0
220
0.0
230
0.9999999999999998
 40
0.9847988563158999
 41
2.861452838837812
 42
2.881486211300517
  0
ELLIPSE
  5
9A4F
330
1F
100
AcDbEntity
  8
AM_0
100
AcDbEllipse
 10
-13.40691446400426
 20
6.523345947270144
 30
0.0
 11
0.0763550469899814
 21
3.499176092479984
 31
0.0
210
0.0
220
0.0
230
1.0
 40
0.9847986751045999
 41
2.881338780180488
 42
3.141592742362055
  0
ELLIPSE
  5
9A50
330
1F
100
AcDbEntity
  8
AM_0
100
AcDbEllipse
 10
-14.33031534291426
 20
-1.027587890619855
 30
0.0
 11
13.34268181383003
 21
2.197174028580034
 31
0.0
210
0.0
220
0.0
230
1.0
 40
0.696363458639
 41
5.82614357608876
 42
5.858133970188292
  0
ELLIPSE
  5
9A51
330
1F
100
AcDbEntity
  8
AM_0
100
AcDbEllipse
 10
-14.67174600697426
 20
0.0014953613301429
 30
0.0
 11
0.118378094719988
 21
13.56326324778999
 31
0.0
210
0.0
220
0.0
230
1.0
 40
0.9848078284122999
 41
3.163322563961055
 42
4.486026634833004
  0
ELLIPSE
  5
9A52
330
1F
100
AcDbEntity
  8
AM_0
100
AcDbEllipse
 10
-15.89720987416426
 20
0.0218505859401432
 30
0.0
 11
0.0527949073300316
 21
10.97695910644
 31
0.0
210
0.0
220
0.0
230
1.0
 40
0.9843894720811
 41
3.276188699963833
 42
3.28123515106672
  0
ELLIPSE
  5
9A53
330
1F
100
AcDbEntity
  8
AM_0
100
AcDbEllipse
 10
-12.95433878041426
 20
-0.0134887695298574
 30
0.0
 11
0.1178581031100254
 21
13.50866689833
 31
0.0
210
0.0
220
0.0
230
1.0
 40
0.173648836535
 41
2.474076096744638
 42
2.503762068296385
  0
ELLIPSE
  5
9A54
330
1F
100
AcDbEntity
  8
AM_0
100
AcDbEllipse
 10
-6.571465245254259
 20
4.223419189460145
 30
0.0
 11
-3.575195066320032
 21
6.711212354579991
 31
0.0
210
0.0
220
0.0
230
1.0
 40
0.6044206165675999
 41
2.436689526798993
 42
3.586290615765732
  0
ELLIPSE
  5
9A55
330
1F
100
AcDbEntity
  8
AM_0
100
AcDbEllipse
 10
-16.88402628041423
 20
-8.148742675779857
 30
0.0
 11
0.0218200112799373
 21
2.499908352019986
 31
0.0
210
0.0
220
0.0
230
1.0
 40
0.9848139026443
 41
3.141592564818902
 42
4.216940591370184
  0
ELLIPSE
  5
9A56
330
1F
100
AcDbEntity
  8
AM_0
100
AcDbEllipse
 10
-16.88402628041423
 20
-8.148742675779857
 30
0.0
 11
0.0218200112799373
 21
2.499908352019986
 31
0.0
210
0.0
220
0.0
230
1.0
 40
0.9848139026443
 41
1.57079801342796
 42
3.141592742360683
  0
ELLIPSE
  5
9A57
330
1F
100
AcDbEntity
  8
AM_0
100
AcDbEllipse
 10
-6.571465245254259
 20
4.223419189460145
 30
0.0
 11
-3.575195066320032
 21
6.711212354579991
 31
0.0
210
0.0
220
0.0
230
1.0
 40
0.6044206165675999
 41
2.196826360505164
 42
2.436689526798993
  0
ELLIPSE
  5
9A58
330
1F
100
AcDbEntity
  8
AM_0
100
AcDbEllipse
 10
-17.44933389760426
 20
2.640563964850144
 30
0.0
 11
0.0654297489199903
 21
2.999298091740001
 31
0.0
210
0.0
220
0.0
230
1.0
 40
0.9848089809703999
 41
2.356191139318678
 42
2.525383210182642
  0
ELLIPSE
  5
9A59
330
1F
100
AcDbEntity
  8
AM_0
100
AcDbEllipse
 10
-9.24059366322426
 20
1.261169433600144
 30
0.0
 11
0.0436401349099885
 21
1.999511665720007
 31
0.0
210
0.0
220
0.0
230
1.0
 40
0.9847984581853999
 41
2.917437919440519
 42
3.141592742362075
  0
ELLIPSE
  5
9A5A
330
1F
100
AcDbEntity
  8
AM_0
100
AcDbEllipse
 10
-23.10424112416426
 20
8.638977050780141
 30
0.0
 11
0.0649719288800211
 21
2.999267503480013
 31
0.0
210
0.0
220
0.0
230
1.0
 40
0.9848087757318999
 41
2.330943350892775
 42
2.356192465795468
  0
ELLIPSE
  5
9A5B
330
1F
100
AcDbEntity
  8
AM_0
100
AcDbEllipse
 10
-23.33293985463426
 20
8.643981933600116
 30
0.0
 11
0.0654297489199903
 21
2.999298091740001
 31
0.0
210
0.0
220
0.0
230
1.0
 40
0.9848089809703999
 41
1.570790499923308
 42
2.022696386169101
  0
ELLIPSE
  5
9A5C
330
1F
100
AcDbEntity
  8
AM_0
100
AcDbEllipse
 10
-18.09471963979426
 20
2.654632568360142
 30
0.0
 11
0.0588990753800492
 21
2.69937137669001
 31
0.0
210
0.0
220
0.0
230
1.0
 40
0.9847942709898999
 41
3.055507948346967
 42
3.141592742362452
  0
ELLIPSE
  5
9A5D
330
1F
100
AcDbEntity
  8
AM_0
100
AcDbEllipse
 10
-4.588677159324262
 20
1.159637451170141
 30
0.0
 11
0.0436401349199929
 21
1.999511665730011
 31
0.0
210
0.0
220
0.0
230
0.9999999999999998
 40
0.9847984581853999
 41
3.14159256481751
 42
3.36565866986401
  0
ELLIPSE
  5
9A5E
330
1F
100
AcDbEntity
  8
AM_0
100
AcDbEllipse
 10
-5.181938878074262
 20
1.172607421880144
 30
0.0
 11
0.0436401349199929
 21
1.999511665729983
 31
0.0
210
0.0
220
0.0
230
0.9999999999999998
 40
0.9848289759489999
 41
3.141592564820261
 42
3.365650264475928
  0
ELLIPSE
  5
9A5F
330
1F
100
AcDbEntity
  8
AM_0
100
AcDbEllipse
 10
-15.04003213979426
 20
1.029815673830142
 30
0.0
 11
0.1308894082700066
 21
14.99942033783
 31
0.0
210
0.0
220
0.0
230
1.0
 40
0.9848098032180999
 41
3.141592564818533
 42
4.261410427556636
  0
ELLIPSE
  5
9A60
330
1F
100
AcDbEntity
  8
AM_0
100
AcDbEllipse
 10
-16.75548624135423
 20
-8.130554199219858
 30
0.0
 11
0.0218200112799373
 21
2.49990835202999
 31
0.0
210
0.0
220
0.0
230
1.0
 40
0.9848139026443
 41
0.2096406548167451
 42
3.141592742360683
  0
ELLIPSE
  5
9A61
330
1F
100
AcDbEntity
  8
AM_0
100
AcDbEllipse
 10
-16.75548624135423
 20
-8.130554199219858
 30
0.0
 11
0.0218200112799373
 21
2.49990835202999
 31
0.0
210
0.0
220
0.0
230
1.0
 40
0.9848139026443
 41
3.141592564818902
 42
3.240187785199121
  0
ELLIPSE
  5
9A88
330
1F
100
AcDbEntity
  8
AM_0
100
AcDbEllipse
 10
-14.31664346791428
 20
14.42504882813014
 30
0.0
 11
0.3272404109499961
 21
14.99642907839001
 31
0.0
210
0.0
220
0.0
230
1.0
 40
0.8111610928319999
 41
1.652573865549158
 42
1.798997188663774
  0
ELLIPSE
  5
9A89
330
1F
100
AcDbEntity
  8
AM_0
100
AcDbEllipse
 10
-25.81920694447429
 20
13.51577758789011
 30
0.0
 11
0.0174560550000236
 21
0.7998047139699908
 31
0.0
210
0.0
220
0.0
230
1.0
 40
0.8112026412169001
 41
0.6105213440456624
 42
1.653238690351218
  0
ELLIPSE
  5
9A8A
330
1F
100
AcDbEntity
  8
AM_0
100
AcDbEllipse
 10
-26.16643594838429
 20
13.52334594727011
 30
0.0
 11
0.017456055010028
 21
0.7998047139599864
 31
0.0
210
0.0
220
0.0
230
1.0
 40
0.8111263468122997
 41
0.4248548500808268
 42
0.5236209103233277
  0
ELLIPSE
  5
9A8B
330
1F
100
AcDbEntity
  8
AM_0
100
AcDbEllipse
 10
-26.23583292104429
 20
13.52487182617011
 30
0.0
 11
0.6260681144500485
 21
0.5993347304599875
 31
0.0
210
0.0
220
0.0
230
1.0
 40
0.8390944489834
 41
0.6989727491567179
 42
1.12210308537494
  0
ELLIPSE
  5
9A8C
330
1F
100
AcDbEntity
  8
AM_0
100
AcDbEllipse
 10
-17.98351358510426
 20
0.0000000000001421
 30
0.0
 11
0.1224973824899693
 21
13.59997514308
 31
0.0
210
0.0
220
0.0
230
1.0
 40
0.1763201181164
 41
2.212385075809458
 42
2.574496751697109
  0
ELLIPSE
  5
9A8D
330
1F
100
AcDbEntity
  8
AM_0
100
AcDbEllipse
 10
-60.81371378041424
 20
0.0000000000000284
 30
0.0
 11
77.13247378043002
 21
0.0216064436101636
 31
0.0
210
0.0
220
0.0
230
1.0
 40
0.1763197177462
 41
5.27950217029293
 42
5.35641606851242
  0
ELLIPSE
  5
9A8E
330
1F
100
AcDbEntity
  8
AM_0
100
AcDbEllipse
 10
-20.21288370229426
 20
0.0000000000001421
 30
0.0
 11
77.13244326284996
 21
0.0216064440401556
 31
0.0
210
0.0
220
0.0
230
1.0
 40
0.1763197875074
 41
4.710800633594756
 42
4.786479389353321
  0
ELLIPSE
  5
9A8F
330
1F
100
AcDbEntity
  8
AM_0
100
AcDbEllipse
 10
-26.18126749135426
 20
0.0378417968801159
 30
0.0
 11
0.5850527530400047
 21
13.55596918554999
 31
0.0
210
0.0
220
0.0
230
0.9999999999999998
 40
0.7006790136646
 41
0.0939171274799143
 42
0.0998135791207693
  0
ELLIPSE
  5
9A90
330
1F
100
AcDbEntity
  8
AM_0
100
AcDbEllipse
 10
-27.00792764760426
 20
0.0000305175801145
 30
0.0
 11
0.3062737458700171
 21
13.59985373998
 31
0.0
210
0.0
220
0.0
230
0.9999999999999998
 40
0.1762812904512
 41
6.184999328033566
 42
6.217694941135754
  0
ELLIPSE
  5
9A91
330
1F
100
AcDbEntity
  8
AM_0
100
AcDbEllipse
 10
-9.390251866354262
 20
0.0000000000001421
 30
0.0
 11
77.14834229612995
 21
0.0540161104101561
 31
0.0
210
0.0
220
0.0
230
1.0
 40
0.1762822525537
 41
1.793752194255961
 42
1.861893025035976
  0
ELLIPSE
  5
9A92
330
1F
100
AcDbEntity
  8
AM_0
100
AcDbEllipse
 10
-19.57463907338426
 20
0.0000000000001421
 30
0.0
 11
-13.37365751105997
 21
13.54891990606998
 31
0.0
210
0.0
220
0.0
230
1.0
 40
0.0880560880035
 41
5.769268701794562
 42
5.901170136810899
  0
ELLIPSE
  5
9A93
330
1F
100
AcDbEntity
  8
AM_0
100
AcDbEllipse
 10
-12.90618204213426
 20
0.0000000000001421
 30
0.0
 11
0.1224973824899693
 21
13.59997514308
 31
0.0
210
0.0
220
0.0
230
1.0
 40
0.1763201181164
 41
2.216456782523873
 42
2.4670450061591
  0
ELLIPSE
  5
9A94
330
1F
100
AcDbEntity
  8
AM_0
100
AcDbEllipse
 10
-1.833855381974231
 20
-3.235595703119841
 30
0.0
 11
-0.4633483735899518
 21
0.0040588731999937
 31
0.0
210
0.0
220
0.0
230
1.0
 40
0.8632671314128
 41
3.864497577759814
 42
4.106269922815784
  0
ELLIPSE
  5
9A95
330
1F
100
AcDbEntity
  8
AM_0
100
AcDbEllipse
 10
-6.009758702294234
 20
-3.843749999999843
 30
0.0
 11
-4.633636478130028
 21
0.0404353939499821
 31
0.0
210
0.0
220
0.0
230
1.0
 40
0.8632199024265998
 41
2.869708534879037
 42
2.917529601803398
  0
ELLIPSE
  5
9A96
330
1F
100
AcDbEntity
  8
AM_0
100
AcDbEllipse
 10
-21.68621133900417
 20
-46.04017639159986
 30
0.0
 11
2.974428925419268
 21
341.044433026975
 31
0.0
210
0.0
220
0.0
230
1.0
 40
0.0603190371061
 41
4.836721153152358
 42
4.839515972988851
  0
ELLIPSE
  5
9A97
330
1F
100
AcDbEntity
  8
AM_0
100
AcDbEllipse
 10
-28.92516397572423
 20
-13.44955444335988
 30
0.0
 11
-0.3037414659499979
 21
0.3090820093499922
 31
0.0
210
0.0
220
0.0
230
1.0
 40
0.8391021672955002
 41
1.837086126782139
 42
2.443708297317899
  0
ELLIPSE
  5
9A98
330
1F
100
AcDbEntity
  8
AM_0
100
AcDbEllipse
 10
-28.90776895619423
 20
-13.44970703124988
 30
0.0
 11
0.0034790211500414
 21
0.3999939066399917
 31
0.0
210
0.0
220
0.0
230
1.0
 40
0.8111698965196998
 41
2.294437773602794
 42
2.536603523126746
  0
ELLIPSE
  5
9AB2
330
1F
100
AcDbEntity
  8
AM_0
100
AcDbEllipse
 10
-33.94042276479426
 20
6.376754760740112
 30
0.0
 11
-103.1188705774501
 21
57.8102522819498
 31
0.0
210
0.0
220
0.0
230
1.0
 40
0.0825678164956
 41
4.442145077374092
 42
4.526744767084861
  0
ELLIPSE
  5
9AB3
330
1F
100
AcDbEntity
  8
AM_0
100
AcDbEllipse
 10
-33.94042276479426
 20
6.376754760740112
 30
0.0
 11
-103.1188705774501
 21
57.8102522819498
 31
0.0
210
0.0
220
0.0
230
1.0
 40
0.0825678164956
 41
4.5902588905593
 42
4.684318833770426
  0
ELLIPSE
  5
9AB4
330
1F
100
AcDbEntity
  8
AM_0
100
AcDbEllipse
 10
-12.13744424916429
 20
14.37750244141014
 30
0.0
 11
0.3272100198199426
 21
14.99642974152999
 31
0.0
210
0.0
220
0.0
230
1.0
 40
0.9848087936916
 41
1.890808312287926
 42
3.000109997121722
  0
ELLIPSE
  5
9AB5
330
1F
100
AcDbEntity
  8
AM_0
100
AcDbEllipse
 10
-33.06017374135426
 20
7.946884155280116
 30
0.0
 11
-103.1188705774501
 21
57.81025228193982
 31
0.0
210
0.0
220
0.0
230
0.9999999999999998
 40
0.0825678164956
 41
4.5902588905593
 42
4.674852139262716
  0
ELLIPSE
  5
9AB6
330
1F
100
AcDbEntity
  8
AM_0
100
AcDbEllipse
 10
-33.06017374135426
 20
7.946884155280116
 30
0.0
 11
-103.1188705774501
 21
57.81025228193982
 31
0.0
210
0.0
220
0.0
230
0.9999999999999998
 40
0.0825678164956
 41
4.43267897392119
 42
4.526744767084861
  0
ELLIPSE
  5
9AB7
330
1F
100
AcDbEntity
  8
AM_0
100
AcDbEllipse
 10
-13.20568155385426
 20
6.718994140630144
 30
0.0
 11
0.0818174252500439
 21
3.749114979490002
 31
0.0
210
0.0
220
0.0
230
1.0
 40
0.9847945204782998
 41
2.843481712260812
 42
6.765164915808979
  0
ELLIPSE
  5
9AB8
330
1F
100
AcDbEntity
  8
AM_0
100
AcDbEllipse
 10
-13.20555948354426
 20
6.719238281250142
 30
0.0
 11
0.0841672763400465
 21
3.749298101559986
 31
0.0
210
0.0
220
0.0
230
1.0
 40
0.9847872089780999
 41
2.825560187399213
 42
2.844075581180423
  0
ELLIPSE
  5
9AB9
330
1F
100
AcDbEntity
  8
AM_0
100
AcDbEllipse
 10
-33.68810342885426
 20
6.826736450200115
 30
0.0
 11
-103.0594353104501
 21
57.7769318260398
 31
0.0
210
0.0
220
0.0
230
1.0
 40
0.0825676010238
 41
4.590968776630118
 42
4.686383001050272
  0
ELLIPSE
  5
9ABA
330
1F
100
AcDbEntity
  8
AM_0
100
AcDbEllipse
 10
-33.31243204213426
 20
7.496902465820113
 30
0.0
 11
-103.0594486203301
 21
57.77693928778976
 31
0.0
210
0.0
220
0.0
230
1.0
 40
0.0825676549342
 41
4.590968636369858
 42
4.683072675096232
  0
ELLIPSE
  5
9ABB
330
1F
100
AcDbEntity
  8
AM_0
100
AcDbEllipse
 10
-33.68810342885426
 20
6.826736450200115
 30
0.0
 11
-103.0594353104501
 21
57.7769318260398
 31
0.0
210
0.0
220
0.0
230
1.0
 40
0.0825676010238
 41
4.433925366178209
 42
4.526035253418204
  0
ELLIPSE
  5
9ABC
330
1F
100
AcDbEntity
  8
AM_0
100
AcDbEllipse
 10
-33.31243204213426
 20
7.496902465820113
 30
0.0
 11
-103.0594486203301
 21
57.77693928778976
 31
0.0
210
0.0
220
0.0
230
1.0
 40
0.0825676549342
 41
4.430614704533249
 42
4.526035252673483
  0
ARC
  5
9ABD
330
1F
100
AcDbEntity
  8
AM_11
100
AcDbCircle
 10
-14.99950479604426
 20
0.0000000000001421
 30
0.0
 40
15.0
100
AcDbArc
 50
269.9999974955182
 51
90.00000250448172
  0
LINE
  5
9ABE
330
1F
100
AcDbEntity
  8
AM_7
100
AcDbLine
 10
2.997504481305739
 20
0.0000000000001705
 30
0.0
 11
-245.0898625677425
 21
-0.0000000000002959
 31
0.0
  0
LINE
  5
9ABF
330
1F
100
AcDbEntity
  8
AM_0
100
AcDbLine
 10
-8.56530069447426
 20
-0.7540588378898434
 30
0.0
 11
-1.599236241354262
 21
-0.9060668945298289
 31
0.0
  0
LINE
  5
9AC0
330
1F
100
AcDbEntity
  8
AM_0
100
AcDbLine
 10
-11.49736856557426
 20
-0.6399993896498586
 30
0.0
 11
-1.81108926869426
 21
-0.8513641357398427
 31
0.0
  0
LINE
  5
9AC8
330
1F
100
AcDbEntity
  8
AM_11
100
AcDbLine
 10
-27.99950479604429
 20
15.00000000000011
 30
0.0
 11
-27.99950479604423
 21
-14.99999999999988
 31
0.0
  0
LINE
  5
9AC9
330
1F
100
AcDbEntity
  8
AM_0
100
AcDbLine
 10
-85.00000000000023
 20
-16.00000000000001
 30
0.0
 11
-85.0000000000003
 21
16.00000000000001
 31
0.0
  0
LINE
  5
9ACA
330
1F
100
AcDbEntity
  8
AM_0
100
AcDbLine
 10
-82.00000000000022
 20
-14.99999999999999
 30
0.0
 11
-82.00000000000029
 21
15.00000000000001
 31
0.0
  0
LINE
  5
9ACB
330
1F
100
AcDbEntity
  8
AM_0
100
AcDbLine
 10
-238.5176391601502
 20
-15.59335327148029
 30
0.0
 11
-238.5176391601502
 21
15.5933532714897
 31
0.0
  0
LINE
  5
9ACC
330
1F
100
AcDbEntity
  8
AM_0
100
AcDbLine
 10
-237.0000000000002
 20
-16.00000000000029
 30
0.0
 11
-237.0000000000002
 21
15.9999999999997
 31
0.0
  0
LINE
  5
9ACD
330
1F
100
AcDbEntity
  8
AM_0
100
AcDbLine
 10
-240.0000000000002
 20
-13.66149902343029
 30
0.0
 11
-240.0000000000003
 21
13.6614990234397
 31
0.0
  0
LINE
  5
9ACE
330
1F
100
AcDbEntity
  8
AM_0
100
AcDbLine
 10
-59.99950479604423
 20
-13.60000610350994
 30
0.0
 11
-59.99950479604428
 21
13.60000610352003
 31
0.0
  0
LINE
  5
9ACF
330
1F
100
AcDbEntity
  8
AM_0
100
AcDbLine
 10
-75.00000000000023
 20
-14.99999999999998
 30
0.0
 11
-75.00000000000028
 21
15.00000000000001
 31
0.0
  0
LINE
  5
9AD0
330
1F
100
AcDbEntity
  8
AM_0
100
AcDbLine
 10
-19.58422159291426
 20
0.5653076171901433
 30
0.0
 11
-25.23906778432426
 21
6.563751220710116
 31
0.0
  0
LINE
  5
9AD4
330
1F
100
AcDbEntity
  8
AM_0
100
AcDbLine
 10
-237.0000000000001
 20
-16.00000000000028
 30
0.0
 11
-85.00000000000024
 21
-16.0
 31
0.0
  0
ARC
  5
9AD6
330
1F
100
AcDbEntity
  8
AM_0
100
AcDbCircle
 10
-238.0000000000002
 20
-13.66149902343029
 30
0.0
 40
2.0
100
AcDbArc
 50
180.0000086514213
 51
255.0000004932031
  0
LINE
  5
9AD7
330
1F
100
AcDbEntity
  8
AM_0
100
AcDbLine
 10
-238.5176391601502
 20
-15.59333801269029
 30
0.0
 11
-237.0000000000002
 21
-15.99998474121029
 31
0.0
  0
ARC
  5
9AD8
330
1F
100
AcDbEntity
  8
AM_0
100
AcDbCircle
 10
-82.00000000000022
 20
-19.99999999999999
 30
0.0
 40
5.0
100
AcDbArc
 50
90.00000250448172
 51
126.8699032291534
  0
LINE
  5
9ADD
330
1F
100
AcDbEntity
  8
AM_0
100
AcDbLine
 10
-59.99950479604423
 20
-13.60000610350994
 30
0.0
 11
-20.33159708119423
 21
-13.60000610350986
 31
0.0
  0
LINE
  5
9AE0
330
1F
100
AcDbEntity
  8
AM_0
100
AcDbLine
 10
-82.00000000000022
 20
-14.99999999999999
 30
0.0
 11
-75.00000000000023
 21
-14.99999999999998
 31
0.0
  0
LINE
  5
9AE1
330
1F
100
AcDbEntity
  8
AM_11
100
AcDbLine
 10
-27.99950479604423
 20
-14.99999999999988
 30
0.0
 11
-14.99950479604423
 21
-14.99999999999985
 31
0.0
  0
LINE
  5
9AE2
330
1F
100
AcDbEntity
  8
AM_0
100
AcDbLine
 10
-23.65166544057423
 20
-13.89558410643988
 30
0.0
 11
-20.42278360463423
 21
-13.92375183104987
 31
0.0
  0
LINE
  5
9AE3
330
1F
100
AcDbEntity
  8
AM_0
100
AcDbLine
 10
-23.65166544057423
 20
-13.89559936522988
 30
0.0
 11
-24.22332071400423
 21
-13.89062499999988
 31
0.0
  0
LINE
  5
9AE4
330
1F
100
AcDbEntity
  8
AM_0
100
AcDbLine
 10
-24.44011758900423
 20
-13.88871765135988
 30
0.0
 11
-24.48778604604423
 21
-13.59999084471988
 31
0.0
  0
LINE
  5
9AE5
330
1F
100
AcDbEntity
  8
AM_0
100
AcDbLine
 10
-29.09587930775423
 20
-13.77647399901988
 30
0.0
 11
-28.95018838979423
 21
-13.59997558592988
 31
0.0
  0
LINE
  5
9AE6
330
1F
100
AcDbEntity
  8
AM_0
100
AcDbLine
 10
-24.44011758900423
 20
-13.88873291014988
 30
0.0
 11
-28.85918497182423
 21
-13.85015869139988
 31
0.0
  0
LINE
  5
9AE7
330
1F
100
AcDbEntity
  8
AM_0
100
AcDbLine
 10
-24.19573282338423
 20
-13.59997558592988
 30
0.0
 11
-24.22332071400423
 21
-13.89060974120988
 31
0.0
  0
LINE
  5
9AE8
330
1F
100
AcDbEntity
  8
AM_0
100
AcDbLine
 10
-24.44017862416423
 20
-13.88873291014988
 30
0.0
 11
-24.22332071400423
 21
-13.89062499999988
 31
0.0
  0
LINE
  5
9AE9
330
1F
100
AcDbEntity
  8
AM_0
100
AcDbLine
 10
-29.15343546010423
 20
-13.71214294432988
 30
0.0
 11
-29.15245889760423
 21
-13.59999084471988
 31
0.0
  0
LINE
  5
9AEA
330
1F
100
AcDbEntity
  8
AM_0
100
AcDbLine
 10
-23.65166544057423
 20
-13.89558410643988
 30
0.0
 11
-23.62358926869423
 21
-13.59997558592988
 31
0.0
  0
LINE
  5
9AEB
330
1F
100
AcDbEntity
  8
AM_0
100
AcDbLine
 10
-14.49950479604423
 20
-13.56106567382985
 30
0.0
 11
-14.49950479604423
 21
-10.86282348632986
 31
0.0
  0
LINE
  5
9AEC
330
1F
100
AcDbEntity
  8
AM_0
100
AcDbLine
 10
-20.08226846791423
 20
-13.92675781249987
 30
0.0
 11
-20.42278360463423
 21
-13.92376708983987
 31
0.0
  0
LINE
  5
9AED
330
1F
100
AcDbEntity
  8
AM_0
100
AcDbLine
 10
-15.17095254994423
 20
-13.96960449217985
 30
0.0
 11
-15.23674844838423
 21
-13.57029724120985
 31
0.0
  0
LINE
  5
9AEE
330
1F
100
AcDbEntity
  8
AM_0
100
AcDbLine
 10
-15.17095254994423
 20
-13.96960449217985
 30
0.0
 11
-14.21825479604423
 21
-13.97793579100985
 31
0.0
  0
LINE
  5
9AEF
330
1F
100
AcDbEntity
  8
AM_0
100
AcDbLine
 10
-15.17101358510423
 20
-13.96960449217985
 30
0.0
 11
-20.08232950307423
 21
-13.92675781249987
 31
0.0
  0
LINE
  5
9AF0
330
1F
100
AcDbEntity
  8
AM_0
100
AcDbLine
 10
-20.08226846791423
 20
-13.92674255370987
 30
0.0
 11
-20.13189004994423
 21
-13.62478637694987
 31
0.0
  0
LINE
  5
9AF1
330
1F
100
AcDbEntity
  8
AM_0
100
AcDbLine
 10
-20.11113809682423
 20
-13.59992980956987
 30
0.0
 11
-20.13189004994423
 21
-13.62477111815987
 31
0.0
  0
LINE
  5
9AF2
330
1F
100
AcDbEntity
  8
AM_0
100
AcDbLine
 10
-20.13189004994423
 20
-13.62478637694987
 30
0.0
 11
-20.13384317494423
 21
-13.59988403319987
 31
0.0
  0
LINE
  5
9AF3
330
1F
100
AcDbEntity
  8
AM_0
100
AcDbLine
 10
-20.44780801869423
 20
-13.60002136229987
 30
0.0
 11
-20.42272256947423
 21
-13.92376708983987
 31
0.0
  0
LINE
  5
9AF4
330
1F
100
AcDbEntity
  8
AM_0
100
AcDbLine
 10
-8.56530069447426
 20
-0.7540588378898434
 30
0.0
 11
-14.46746133900425
 21
-0.6252746581998565
 31
0.0
  0
LINE
  5
9AF5
330
1F
100
AcDbEntity
  8
AM_0
100
AcDbLine
 10
-14.46746133900425
 20
-0.6252593994098561
 30
0.0
 11
-14.49950479604426
 21
-0.6245269775398583
 31
0.0
  0
LINE
  5
9AF6
330
1F
100
AcDbEntity
  8
AM_0
100
AcDbLine
 10
-14.49950479604423
 20
-10.60775756835985
 30
0.0
 11
-14.49950479604426
 21
-0.6245422363298588
 31
0.0
  0
LINE
  5
9AF7
330
1F
100
AcDbEntity
  8
AM_0
100
AcDbLine
 10
-13.48326944447426
 20
3.024185180670144
 30
0.0
 11
-13.25756143666426
 21
3.019241333010143
 31
0.0
  0
LINE
  5
9AF8
330
1F
100
AcDbEntity
  8
AM_0
100
AcDbLine
 10
-19.97795938588423
 20
-8.121749877929872
 30
0.0
 11
-19.34594034291423
 21
-8.127273559569871
 31
0.0
  0
LINE
  5
9AF9
330
1F
100
AcDbEntity
  8
AM_0
100
AcDbLine
 10
-19.37499307729423
 20
-11.45936584471986
 30
0.0
 11
-19.34594034291423
 21
-8.127258300779871
 31
0.0
  0
LINE
  5
9AFA
330
1F
100
AcDbEntity
  8
AM_0
100
AcDbLine
 10
-18.15361856557426
 20
-0.0446929931598845
 30
0.0
 11
-16.04503702260426
 21
-0.0907135009698834
 31
0.0
  0
LINE
  5
9AFB
330
1F
100
AcDbEntity
  8
AM_0
100
AcDbLine
 10
-18.14574503041426
 20
-0.0968780517598873
 30
0.0
 11
-18.15361856557426
 21
-0.0447082519498565
 31
0.0
  0
LINE
  5
9AFC
330
1F
100
AcDbEntity
  8
AM_0
100
AcDbLine
 10
-16.77733682729423
 20
-10.63046264647985
 30
0.0
 11
-16.60039590932423
 21
-10.63201904296985
 31
0.0
  0
LINE
  5
9AFD
330
1F
100
AcDbEntity
  8
AM_0
100
AcDbLine
 10
-5.225579014794263
 20
-0.8269348144498422
 30
0.0
 11
-5.233147374164261
 21
-0.7766876220698436
 31
0.0
  0
LINE
  5
9AFE
330
1F
100
AcDbEntity
  8
AM_0
100
AcDbLine
 10
-85.00000000000031
 20
16.00000000000001
 30
0.0
 11
-237.0000000000002
 21
15.99999999999968
 31
0.0
  0
ARC
  5
9AFF
330
1F
100
AcDbEntity
  8
AM_0
100
AcDbCircle
 10
-238.0000000000003
 20
13.6614990234397
 30
0.0
 40
2.000000238418599
100
AcDbArc
 50
104.9999926766061
 51
180.0000050089569
  0
LINE
  5
9B00
330
1F
100
AcDbEntity
  8
AM_0
100
AcDbLine
 10
-237.0000000000002
 20
15.9999847412097
 30
0.0
 11
-238.5176391601502
 21
15.5933532714897
 31
0.0
  0
ARC
  5
9B01
330
1F
100
AcDbEntity
  8
AM_0
100
AcDbCircle
 10
-82.00000000000029
 20
20.00000000000001
 30
0.0
 40
5.0
100
AcDbArc
 50
233.1300967708468
 51
269.9999974955182
  0
LINE
  5
9B04
330
1F
100
AcDbEntity
  8
AM_0
100
AcDbLine
 10
-26.48931192494428
 20
13.60000610352011
 30
0.0
 11
-59.99950479604428
 21
13.60000610352003
 31
0.0
  0
LINE
  5
9B07
330
1F
100
AcDbEntity
  8
AM_0
100
AcDbLine
 10
-75.00000000000028
 20
15.00000000000001
 30
0.0
 11
-82.00000000000029
 21
15.00000000000001
 31
0.0
  0
LINE
  5
9B08
330
1F
100
AcDbEntity
  8
AM_11
100
AcDbLine
 10
-27.99950479604429
 20
15.00000000000011
 30
0.0
 11
-14.99950479604429
 21
15.00000000000014
 31
0.0
  0
LINE
  5
9B09
330
1F
100
AcDbEntity
  8
AM_0
100
AcDbLine
 10
-14.03826212025428
 20
14.05888366699014
 30
0.0
 11
-24.42003702260429
 21
14.28541564942011
 31
0.0
  0
LINE
  5
9B0A
330
1F
100
AcDbEntity
  8
AM_0
100
AcDbLine
 10
-25.49132608510429
 20
14.30882263184011
 30
0.0
 11
-25.52275919057429
 21
14.30888366699011
 31
0.0
  0
LINE
  5
9B0B
330
1F
100
AcDbEntity
  8
AM_0
100
AcDbLine
 10
-24.42003702260429
 20
14.28543090821011
 30
0.0
 11
-25.49138712025428
 21
14.30880737305011
 31
0.0
  0
LINE
  5
9B0C
330
1F
100
AcDbEntity
  8
AM_0
100
AcDbLine
 10
-26.46721719838429
 20
13.46453857422011
 30
0.0
 11
-26.29613565541429
 21
13.46081542969011
 31
0.0
  0
LINE
  5
9B0D
330
1F
100
AcDbEntity
  8
AM_0
100
AcDbLine
 10
-26.21196817494426
 20
11.04733276367011
 30
0.0
 11
-26.23558878041426
 21
11.04785156250011
 31
0.0
  0
LINE
  5
9B0E
330
1F
100
AcDbEntity
  8
AM_0
100
AcDbLine
 10
-26.47570108510429
 20
14.22306823731011
 30
0.0
 11
-26.14287637807429
 21
14.21580505371011
 31
0.0
  0
LINE
  5
9B0F
330
1F
100
AcDbEntity
  8
AM_0
100
AcDbLine
 10
-26.07952188588429
 20
14.32164001465011
 30
0.0
 11
-25.49138712025428
 21
14.30882263184011
 31
0.0
  0
LINE
  5
9B10
330
1F
100
AcDbEntity
  8
AM_0
100
AcDbLine
 10
-26.21196817494426
 20
11.04733276367011
 30
0.0
 11
-26.21111368275426
 21
11.08622741699011
 31
0.0
  0
LINE
  5
9B11
330
1F
100
AcDbEntity
  8
AM_0
100
AcDbLine
 10
-26.14305948354429
 20
14.20895385742011
 30
0.0
 11
-26.14287637807429
 21
14.21582031250011
 31
0.0
  0
LINE
  5
9B12
330
1F
100
AcDbEntity
  8
AM_0
100
AcDbLine
 10
-26.47570108510429
 20
14.22306823731011
 30
0.0
 11
-26.49053262807429
 21
13.54168701172011
 31
0.0
  0
LINE
  5
9B13
330
1F
100
AcDbEntity
  8
AM_0
100
AcDbLine
 10
-30.52861856557429
 20
12.17594909668011
 30
0.0
 11
-25.28966592885426
 21
6.618759155280116
 31
0.0
  0
LINE
  5
9B14
330
1F
100
AcDbEntity
  8
AM_0
100
AcDbLine
 10
-26.23156046010426
 20
11.23432922364011
 30
0.0
 11
-26.28667520619426
 21
8.708435058600116
 31
0.0
  0
LINE
  5
9B15
330
1F
100
AcDbEntity
  8
AM_0
100
AcDbLine
 10
-13.14342569447426
 20
8.250061035160143
 30
0.0
 11
-11.68547891713426
 21
7.351989746100144
 31
0.0
  0
LINE
  5
9B16
330
1F
100
AcDbEntity
  8
AM_0
100
AcDbLine
 10
-11.72325967885426
 20
5.620361328130144
 30
0.0
 11
-13.21898721791426
 21
4.786788940430142
 31
0.0
  0
LINE
  5
9B17
330
1F
100
AcDbEntity
  8
AM_0
100
AcDbLine
 10
-13.40715860463426
 20
8.103073120120143
 30
0.0
 11
-12.20629190541426
 21
7.363388061530145
 31
0.0
  0
LINE
  5
9B18
330
1F
100
AcDbEntity
  8
AM_0
100
AcDbLine
 10
-12.24407266713426
 20
5.631698608400142
 30
0.0
 11
-13.47606729604426
 21
4.945114135740141
 31
0.0
  0
LINE
  5
9B19
330
1F
100
AcDbEntity
  8
AM_0
100
AcDbLine
 10
-14.63921426869426
 20
7.416427612310144
 30
0.0
 11
-13.14342569447426
 21
8.250076293950144
 31
0.0
  0
LINE
  5
9B1A
330
1F
100
AcDbEntity
  8
AM_0
100
AcDbLine
 10
-14.63921426869426
 20
7.416427612310144
 30
0.0
 11
-14.67699503041426
 21
5.684814453130144
 31
0.0
  0
LINE
  5
9B1B
330
1F
100
AcDbEntity
  8
AM_0
100
AcDbLine
 10
-13.21898721791426
 20
4.786773681640141
 30
0.0
 11
-14.67699503041426
 21
5.684814453130144
 31
0.0
  0
LINE
  5
9B1C
330
1F
100
AcDbEntity
  8
AM_0
100
AcDbLine
 10
-13.10485147572426
 20
10.01757812500014
 30
0.0
 11
-13.33055948354426
 21
10.02249145508014
 31
0.0
  0
LINE
  5
9B1D
330
1F
100
AcDbEntity
  8
AM_0
100
AcDbLine
 10
-11.68547891713426
 20
7.351974487310144
 30
0.0
 11
-11.72325967885426
 21
5.620361328130144
 31
0.0
  0
LINE
  5
9B1E
330
1F
100
AcDbEntity
  8
AM_0
100
AcDbLine
 10
-11.68547891713426
 20
7.351989746100144
 30
0.0
 11
-12.20629190541426
 21
7.363372802740144
 31
0.0
  0
LINE
  5
9B1F
330
1F
100
AcDbEntity
  8
AM_0
100
AcDbLine
 10
-11.72325967885426
 20
5.620361328130144
 30
0.0
 11
-12.24407266713426
 21
5.631713867190143
 31
0.0
  0
LINE
  5
9B20
330
1F
100
AcDbEntity
  8
AM_0
100
AcDbLine
 10
-12.20629190541426
 20
7.363388061530145
 30
0.0
 11
-12.24407266713426
 21
5.631713867190143
 31
0.0
  0
ARC
  5
9B2A
330
1F
100
AcDbEntity
  8
AM_0
100
AcDbCircle
 10
-14.49950479604426
 20
0.0000000000001421
 30
0.0
 40
13.600000381469
100
AcDbArc
 50
347.858807703094
 51
349.367489769043
  0
LINE
  5
9B2B
330
1F
100
AcDbEntity
  8
AM_0
100
AcDbLine
 10
-1.133049717914261
 20
-0.9162139892598304
 30
0.0
 11
-1.599297276504259
 21
-0.9060516357398284
 31
0.0
  0
LINE
  5
9B2C
330
1F
100
AcDbEntity
  8
AM_0
100
AcDbLine
 10
-2.195427647604233
 20
-4.83726501464983
 30
0.0
 11
-1.555779210104233
 21
-4.957015991209829
 31
0.0
  0
LINE
  5
9B2D
330
1F
100
AcDbEntity
  8
AM_0
100
AcDbLine
 10
-0.8025443468242627
 20
-0.8733673095698293
 30
0.0
 11
-0.7723319444742601
 21
-0.8734283447198265
 31
0.0
  0
LINE
  5
9B2E
330
1F
100
AcDbEntity
  8
AM_0
100
AcDbLine
 10
-1.203728428854262
 20
-2.86038208007983
 30
0.0
 11
-1.543938389794263
 21
-2.857391357419828
 31
0.0
  0
LINE
  5
9B2F
330
1F
100
AcDbEntity
  8
AM_0
100
AcDbLine
 10
-1.132988682754259
 20
-2.50930786132983
 30
0.0
 11
-1.132988682754259
 21
-0.9162292480398264
 31
0.0
  0
LINE
  5
9B30
330
1F
100
AcDbEntity
  8
AM_0
100
AcDbLine
 10
-1.81108926869426
 20
-0.8513641357398427
 30
0.0
 11
-0.80260538197426
 21
-0.8733673095698293
 31
0.0
  0
LINE
  5
9B31
330
1F
100
AcDbEntity
  8
AM_0
100
AcDbLine
 10
-1.132988682754259
 20
-0.8661804199198286
 30
0.0
 11
-1.132988682754259
 21
-0.9162292480398264
 31
0.0
  0
LINE
  5
9B32
330
1F
100
AcDbEntity
  8
AM_0
100
AcDbLine
 10
-1.567375889794263
 20
-2.910324096679829
 30
0.0
 11
-1.56646036244426
 21
-2.90953063964983
 31
0.0
  0
LINE
  5
9B33
330
1F
100
AcDbEntity
  8
AM_0
100
AcDbLine
 10
-1.484062901504231
 20
-2.974075317379828
 30
0.0
 11
-1.499748936664232
 21
-4.771942138669828
 31
0.0
  0
LINE
  5
9B34
330
1F
100
AcDbEntity
  8
AM_0
100
AcDbLine
 10
-0.8806083116642327
 20
-4.777359008789829
 30
0.0
 11
-1.499748936664232
 21
-4.771957397459829
 31
0.0
  0
LINE
  5
9B35
330
1F
100
AcDbEntity
  8
AM_0
100
AcDbLine
 10
-1.802605381974231
 20
-5.623992919919828
 30
0.0
 11
-1.138725987444232
 21
-5.629791259759826
 31
0.0
  0
LINE
  5
9B36
330
1F
100
AcDbEntity
  8
AM_0
100
AcDbLine
 10
-1.199639073384261
 20
-2.841110229489828
 30
0.0
 11
-1.19274210072426
 21
-2.84117126464983
 31
0.0
  0
LINE
  5
9B37
330
1F
100
AcDbEntity
  8
AM_0
100
AcDbLine
 10
-1.484001866354233
 20
-2.974060058589827
 30
0.0
 11
-0.9036185655742343
 21
-2.979125976559828
 31
0.0
  0
DIMENSION
  5
9C8F
330
1F
100
AcDbEntity
  8
AM_5
100
AcDbDimension
  2
*D5
 10
-0.0000000000002231
 20
25.50508382552706
 30
0.0
 11
-13.99975239802224
 21
28.10508382552709
 31
0.0
 70
    32
  1
<>
 51
359.9999999999998
  3
AM_JIS$0
100
AcDbAlignedDimension
 13
-27.99950479604429
 23
15.00000000000011
 33
0.0
 14
-0.00000000000027
 24
0.0000000000001705
 34
0.0
 50
180.0
100
AcDbRotatedDimension
1001
GENIUS_GENDTOL_13
1000

1000
h7
1000

1040
0.0
1001
ACAD
1000
DSTYLE
1002
{
1070
   147
1040
1.0
1070
   140
1040
3.2
1070
   271
1070
     0
1002
}
  0
DIMENSION
  5
9D48
330
1F
100
AcDbEntity
  8
AM_5
100
AcDbDimension
  2
*D6
 10
-59.99950479604423
 20
-25.0
 30
0.0
 11
-29.99950479604425
 21
-22.4
 31
0.0
 70
    32
  1
<>
 51
359.9999999999998
  3
AM_JIS$0
100
AcDbAlignedDimension
 13
0.0004952039557367
 23
-0.0253601074198286
 33
0.0
 14
-59.99950479604423
 24
-13.60002136229994
 34
0.0
100
AcDbRotatedDimension
1001
GENIUS_GENDTOL_13
1000

1000
h7
1000

1040
0.0
1001
ACAD
1000
DSTYLE
1002
{
1070
   147
1040
1.0
1070
   140
1040
3.2
1070
   271
1070
     0
1002
}
  0
DIMENSION
  5
9DE6
330
1F
100
AcDbEntity
  8
AM_5
100
AcDbDimension
  2
*D7
 10
-85.00000000000023
 20
-33.0
 30
0.0
 11
-42.49975239802224
 21
-30.4
 31
0.0
 70
    32
  1
<>
 51
359.9999999999998
  3
AM_JIS$0
100
AcDbAlignedDimension
 13
0.0004952039557367
 23
-0.0253601074198286
 33
0.0
 14
-85.00000000000023
 24
-15.99999999999999
 34
0.0
100
AcDbRotatedDimension
1001
GENIUS_GENDTOL_13
1000

1000
h7
1000

1040
0.0
1001
ACAD
1000
DSTYLE
1002
{
1070
   147
1040
1.0
1070
   140
1040
3.2
1070
   271
1070
     0
1002
}
  0
DIMENSION
  5
9E7B
330
1F
100
AcDbEntity
  8
AM_5
100
AcDbDimension
  2
*D8
 10
-240.0000000000002
 20
-41.0
 30
0.0
 11
-120.0000000000002
 21
-38.4
 31
0.0
 70
    32
  1
<>
 51
359.9999999999998
  3
AM_JIS$0
100
AcDbAlignedDimension
 13
-0.00000000000027
 23
0.0000000000001705
 33
0.0
 14
-240.0000000000002
 24
-13.66149902343029
 34
0.0
100
AcDbRotatedDimension
1001
GENIUS_GENDTOL_13
1000

1000
h7
1000

1040
0.0
1001
ACAD
1000
DSTYLE
1002
{
1070
   147
1040
1.0
1070
   140
1040
3.2
1070
   271
1070
     0
1002
}
  0
DIMENSION
  5
9F10
330
1F
100
AcDbEntity
  8
AM_5
100
AcDbDimension
  2
*D9
 10
17.50419457263261
 20
-14.99999999999985
 30
0.0
 11
14.90419457263261
 21
0.0000000000001431
 31
0.0
 70
    32
  1
%%c<>
 51
359.9999999999998
  3
AM_JIS$0
100
AcDbAlignedDimension
 13
-14.99950545171603
 23
15.00000000000014
 33
0.0
 14
-14.99950545171604
 24
-14.99999999999984
 34
0.0
 50
90.0
100
AcDbRotatedDimension
1001
GENIUS_GENDTOL_13
1000

1000
h7
1000

1040
0.0
1001
ACAD
1000
DSTYLE
1002
{
1070
   147
1040
1.0
1070
   140
1040
3.2
1070
   271
1070
     0
1002
}
  0
DIMENSION
  5
9FAE
330
1F
100
AcDbEntity
  8
AM_5
100
AcDbDimension
  2
*D10
 10
-256.9557524357514
 20
-15.99998474121028
 30
0.0
 11
-259.5557524357515
 21
-0.0000000000003286
 31
0.0
 70
    32
  1
%%c<>
 51
359.9999999999998
  3
AM_JIS$0
100
AcDbAlignedDimension
 13
-237.0000000000002
 23
15.9999847412097
 33
0.0
 14
-237.0000000000002
 24
-15.99998474121029
 34
0.0
 50
270.0
100
AcDbRotatedDimension
1001
GENIUS_GENDTOL_13
1000

1000
h7
1000

1040
0.0
1001
ACAD
1000
DSTYLE
1002
{
1070
   147
1040
1.0
1070
   140
1040
3.2
1070
   271
1070
     0
1002
}
  0
DIMENSION
  5
A04C
330
1F
100
AcDbEntity
  8
AM_5
100
AcDbDimension
  2
*D11
 10
-240.0000000000002
 20
-33.00000000000014
 30
0.0
 11
-162.5000000000002
 21
-30.40000000000015
 31
0.0
 70
    32
  1
<>
 51
359.9999999999998
  3
AM_JIS$0
100
AcDbAlignedDimension
 13
-85.00000000000023
 23
-15.99999999999999
 33
0.0
 14
-240.0000000000002
 24
-13.66149902343029
 34
0.0
100
AcDbRotatedDimension
1001
GENIUS_GENDTOL_13
1000

1000
h7
1000

1040
0.0
1001
ACAD
1000
DSTYLE
1002
{
1070
   147
1040
1.0
1070
   140
1040
3.2
1070
   271
1070
     0
1002
}
  0
LINE
  5
A152
330
1F
100
AcDbEntity
  8
AM_0
100
AcDbLine
 10
-59.99950479604428
 20
13.60000610352003
 30
0.0
 11
-75.00000000000028
 21
15.00000000000001
 31
0.0
  0
LINE
  5
A153
330
1F
100
AcDbEntity
  8
AM_0
100
AcDbLine
 10
-59.99950479604423
 20
-13.60000610350994
 30
0.0
 11
-75.00000000000023
 21
-14.99999999999998
 31
0.0
  0
VIEWPORT
  5
110
330
101
100
AcDbEntity
 67
     1
  8
0
100
AcDbViewport
 10
420.5
 20
297.0
 30
0.0
 40
948.9782706766916
 41
628.452
 68
     1
 69
     1
1001
ACAD
1000
MVIEW
1002
{
1070
    16
1010
0.0
1020
0.0
1030
0.0
1010
0.0
1020
0.0
1030
1.0
1040
0.0
1040
628.452
1040
420.5
1040
297.0
1040
50.0
1040
0.0
1040
0.0
1070
     0
1070
   100
1070
     1
1070
     1
1070
     0
1070
     0
1070
     0
1070
     0
1040
0.0
1040
0.0
1040
0.0
1040
10.0
1040
10.0
1040
10.0
1040
10.0
1070
     0
1002
{
1002
}
1002
}
  0
ENDSEC
  0
SECTION
  2
OBJECTS
  0
DICTIONARY
  5
C
330
0
100
AcDbDictionary
  3
ACAD_GROUP
350
D
  3
ACAD_LAYOUT
350
1A
  3
ACAD_MLINESTYLE
350
17
  3
ACAD_PLOTSETTINGS
350
19
  3
ACAD_PLOTSTYLENAME
350
E
  3
ACDBVARIABLEDICTIONARY
350
34
  3
ACMDICTIONARY
350
43
  3
AMG
350
2B
  3
AMGSNAPSETTINGS
350
6E
  3
DWGPROPS
350
A5BE
  3
ACDBHEADERROUNDTRIPXREC
350
A5CA
  0
DICTIONARY
  5
74
330
1F
100
AcDbDictionary
280
     1
  3
ACAD_INDEX
360
A5C0
  3
ACAD_LAYOUTSELFREF
360
A5ED
  0
DICTIONARY
  5
A5F2
330
101
100
AcDbDictionary
280
     1
  3
ACAD_LAYOUTSELFREF
360
A5F3
  0
DICTIONARY
  5
D
102
{ACAD_REACTORS
330
C
102
}
330
C
100
AcDbDictionary
  0
DICTIONARY
  5
1A
102
{ACAD_REACTORS
330
C
102
}
330
C
100
AcDbDictionary
  0
DICTIONARY
  5
17
102
{ACAD_REACTORS
330
C
102
}
330
C
100
AcDbDictionary
  3
STANDARD
350
18
  0
DICTIONARY
  5
19
102
{ACAD_REACTORS
330
C
102
}
330
C
100
AcDbDictionary
  3
ASAMI
350
399D
  0
ACDBDICTIONARYWDFLT
  5
E
102
{ACAD_REACTORS
330
C
102
}
330
C
100
AcDbDictionary
281
     1
  3
Normal
350
F
100
AcDbDictionaryWithDefault
340
F
  0
DICTIONARY
  5
34
102
{ACAD_REACTORS
330
C
102
}
330
C
100
AcDbDictionary
  3
INDEXCTL
350
35
  3
SORTENTS
350
B5E
  0
DICTIONARY
  5
43
102
{ACAD_REACTORS
330
C
102
}
330
C
100
AcDbDictionary
  3
ACMSTDDICTIONARY
350
260
  0
DICTIONARY
  5
2B
102
{ACAD_REACTORS
330
C
102
}
330
C
100
AcDbDictionary
  3
ACMGSETTINGS
350
2C
  0
DICTIONARY
  5
6E
102
{ACAD_REACTORS
330
C
102
}
330
C
100
AcDbDictionary
  0
XRECORD
  5
A5BE
102
{ACAD_REACTORS
330
C
102
}
330
C
100
AcDbXrecord
  1
DWGPROPS COOKIE
  2

  3

  4

  6

  7

  8

  9

300
AmdtFileType=82
301
=
302
=
303
=
304
=
305
=
306
=
307
=
308
=
309
=
 40
0.9497452314814815
 41
2452802.716478761
 42
2453075.66069625
  1

 90
        1
  0
DICTIONARY
  5
A5CA
102
{ACAD_REACTORS
330
C
102
}
330
C
100
AcDbDictionary
  3
TSTACKALIGN
350
A5CB
  3
TSTACKSIZE
350
A5CC
  3
HYPERLINKBASE
350
A5CD
  3
STYLESHEET
350
A5CE
  3
LAYOUTDICT
350
A5CF
  3
PLOTSETDICT
350
A5D0
  3
PLOTSTYLNAMDICT
350
A5D1
  3
LWETCUNION
350
A5D2
  3
INSUNITS
350
A5D3
  3
CEPSNTYPE
350
A5D4
  3
FINGERPRINTGUID
350
A5D5
  3
VERSIONGUID
350
A5D6
  3
PSVPSCALE
350
A5D7
  3
DIMSTYLEDATA
350
A5D8
  3
PUCSORTHOREF
350
A5D9
  3
PUCSORTHOVIEW
350
A5DA
  3
PUCSBASE
350
A5DB
  3
PUCSORGTOP
350
A5DC
  3
PUCSORGBOTTOM
350
A5DD
  3
PUCSORGLEFT
350
A5DE
  3
PUCSORGRIGHT
350
A5DF
  3
PUCSORGFRONT
350
A5E0
  3
PUCSORGBACK
350
A5E1
  3
UCSORTHOREF
350
A5E2
  3
UCSORTHOVIEW
350
A5E3
  3
UCSBASE
350
A5E4
  3
UCSORGTOP
350
A5E5
  3
UCSORGBOTTOM
350
A5E6
  3
UCSORGLEFT
350
A5E7
  3
UCSORGRIGHT
350
A5E8
  3
UCSORGFRONT
350
A5E9
  3
UCSORGBACK
350
A5EA
  0
DICTIONARY
  5
A5C0
102
{ACAD_REACTORS
330
74
102
}
330
74
100
AcDbDictionary
  3
*A1
350
A5C1
  0
XRECORD
  5
A5ED
102
{ACAD_REACTORS
330
74
102
}
330
74
100
AcDbXrecord
340
1F
  0
XRECORD
  5
A5F3
102
{ACAD_REACTORS
330
A5F2
102
}
330
A5F2
100
AcDbXrecord
340
101
  0
MLINESTYLE
  5
18
102
{ACAD_REACTORS
330
17
102
}
330
17
100
AcDbMlineStyle
  2
STANDARD
 70
     0
  3

 62
   256
 51
90.0
 52
90.0
 71
     2
 49
0.5
 62
   256
  6
BYLAYER
 49
-0.5
 62
   256
  6
BYLAYER
  0
PLOTSETTINGS
  5
399D
102
{ACAD_REACTORS
330
19
102
}
330
19
100
AcDbPlotSettings
  1
asami
  2
RICOH imagio MF1540
  4
A4
  6

 40
5.831416606903076
 41
7.651742935180664
 42
4.90008544921875
 43
5.789077758789062
 44
296.9683227539062
 45
209.9733276367187
 46
0.0
 47
0.0
 48
-156.6707931774246
 49
-74.57609991074048
140
58.59973180214831
141
60.61068161925596
142
1.0
143
1.095343097833084
 70
  1712
 72
     1
 73
     1
 74
     4
  7
asami.ctb
 75
     0
147
0.9129559514076438
148
156.6707931774246
149
74.57609991074048
  0
ACDBPLACEHOLDER
  5
F
102
{ACAD_REACTORS
330
E
102
}
330
E
100
AcDbPlaceHolder
280
     0
  0
DICTIONARYVAR
  5
35
102
{ACAD_REACTORS
330
34
102
}
330
34
100
DictionaryVariables
280
     0
  1
1
  0
DICTIONARYVAR
  5
B5E
102
{ACAD_REACTORS
330
34
102
}
330
34
100
DictionaryVariables
280
     0
  1
96
  0
DICTIONARY
  5
260
102
{ACAD_REACTORS
330
43
102
}
330
43
100
AcDbDictionary
  0
DICTIONARY
  5
2C
102
{ACAD_REACTORS
330
2B
102
}
330
2B
100
AcDbDictionary
  3
DWGSETTINGS
350
2D
  0
XRECORD
  5
A5CB
102
{ACAD_REACTORS
330
A5CA
102
}
330
A5CA
100
AcDbXrecord
 90
        1
  0
XRECORD
  5
A5CC
102
{ACAD_REACTORS
330
A5CA
102
}
330
A5CA
100
AcDbXrecord
 90
       70
  0
XRECORD
  5
A5CD
102
{ACAD_REACTORS
330
A5CA
102
}
330
A5CA
100
AcDbXrecord
  1

  0
XRECORD
  5
A5CE
102
{ACAD_REACTORS
330
A5CA
102
}
330
A5CA
100
AcDbXrecord
  1
ASAMI.ctb
  0
XRECORD
  5
A5CF
102
{ACAD_REACTORS
330
A5CA
102
}
330
A5CA
100
AcDbXrecord
340
1A
  0
XRECORD
  5
A5D0
102
{ACAD_REACTORS
330
A5CA
102
}
330
A5CA
100
AcDbXrecord
340
19
  0
XRECORD
  5
A5D1
102
{ACAD_REACTORS
330
A5CA
102
}
330
A5CA
100
AcDbXrecord
340
E
  0
XRECORD
  5
A5D2
102
{ACAD_REACTORS
330
A5CA
102
}
330
A5CA
100
AcDbXrecord
 90
    10781
  0
XRECORD
  5
A5D3
102
{ACAD_REACTORS
330
A5CA
102
}
330
A5CA
100
AcDbXrecord
 90
        4
  0
XRECORD
  5
A5D4
102
{ACAD_REACTORS
330
A5CA
102
}
330
A5CA
100
AcDbXrecord
 90
        0
  0
XRECORD
  5
A5D5
102
{ACAD_REACTORS
330
A5CA
102
}
330
A5CA
100
AcDbXrecord
  1
{AFB28963-8C59-40AE-9337-C84526B81ACE}
  0
XRECORD
  5
A5D6
102
{ACAD_REACTORS
330
A5CA
102
}
330
A5CA
100
AcDbXrecord
  1
{D7070E16-2AF8-4731-BC81-C1EB37BE7797}
  0
XRECORD
  5
A5D7
102
{ACAD_REACTORS
330
A5CA
102
}
330
A5CA
100
AcDbXrecord
 40
0.0
  0
XRECORD
  5
A5D8
102
{ACAD_REACTORS
330
A5CA
102
}
330
A5CA
100
AcDbXrecord
1000
DSTYLE
1002
{
1070
    79
 70
     2
1070
   341
340
59
1070
   342
340
59
1070
   371
 70
    -1
1070
   372
 70
    -1
1002
}
  0
XRECORD
  5
A5D9
102
{ACAD_REACTORS
330
A5CA
102
}
330
A5CA
100
AcDbXrecord
340
0
  0
XRECORD
  5
A5DA
102
{ACAD_REACTORS
330
A5CA
102
}
330
A5CA
100
AcDbXrecord
 70
     0
  0
XRECORD
  5
A5DB
102
{ACAD_REACTORS
330
A5CA
102
}
330
A5CA
100
AcDbXrecord
340
0
  0
XRECORD
  5
A5DC
102
{ACAD_REACTORS
330
A5CA
102
}
330
A5CA
100
AcDbXrecord
 10
0.0
 20
0.0
 30
0.0
  0
XRECORD
  5
A5DD
102
{ACAD_REACTORS
330
A5CA
102
}
330
A5CA
100
AcDbXrecord
 10
0.0
 20
0.0
 30
0.0
  0
XRECORD
  5
A5DE
102
{ACAD_REACTORS
330
A5CA
102
}
330
A5CA
100
AcDbXrecord
 10
0.0
 20
0.0
 30
0.0
  0
XRECORD
  5
A5DF
102
{ACAD_REACTORS
330
A5CA
102
}
330
A5CA
100
AcDbXrecord
 10
0.0
 20
0.0
 30
0.0
  0
XRECORD
  5
A5E0
102
{ACAD_REACTORS
330
A5CA
102
}
330
A5CA
100
AcDbXrecord
 10
0.0
 20
0.0
 30
0.0
  0
XRECORD
  5
A5E1
102
{ACAD_REACTORS
330
A5CA
102
}
330
A5CA
100
AcDbXrecord
 10
0.0
 20
0.0
 30
0.0
  0
XRECORD
  5
A5E2
102
{ACAD_REACTORS
330
A5CA
102
}
330
A5CA
100
AcDbXrecord
340
0
  0
XRECORD
  5
A5E3
102
{ACAD_REACTORS
330
A5CA
102
}
330
A5CA
100
AcDbXrecord
 70
     0
  0
XRECORD
  5
A5E4
102
{ACAD_REACTORS
330
A5CA
102
}
330
A5CA
100
AcDbXrecord
340
0
  0
XRECORD
  5
A5E5
102
{ACAD_REACTORS
330
A5CA
102
}
330
A5CA
100
AcDbXrecord
 10
0.0
 20
0.0
 30
0.0
  0
XRECORD
  5
A5E6
102
{ACAD_REACTORS
330
A5CA
102
}
330
A5CA
100
AcDbXrecord
 10
0.0
 20
0.0
 30
0.0
  0
XRECORD
  5
A5E7
102
{ACAD_REACTORS
330
A5CA
102
}
330
A5CA
100
AcDbXrecord
 10
0.0
 20
0.0
 30
0.0
  0
XRECORD
  5
A5E8
102
{ACAD_REACTORS
330
A5CA
102
}
330
A5CA
100
AcDbXrecord
 10
0.0
 20
0.0
 30
0.0
  0
XRECORD
  5
A5E9
102
{ACAD_REACTORS
330
A5CA
102
}
330
A5CA
100
AcDbXrecord
 10
0.0
 20
0.0
 30
0.0
  0
XRECORD
  5
A5EA
102
{ACAD_REACTORS
330
A5CA
102
}
330
A5CA
100
AcDbXrecord
 10
0.0
 20
0.0
 30
0.0
  0
LAYER_INDEX
  5
A5C1
102
{ACAD_REACTORS
330
A5C0
102
}
330
A5C0
100
AcDbIndex
 40
2453152.415907049
100
AcDbLayerIndex
  8
0
360
A5C2
 90
        0
  8
AM_0
360
A5C3
 90
      174
  8
AM_5
360
A5C4
 90
        7
  8
AM_7
360
A5C5
 90
        1
  8
AM_6
360
A5C6
 90
        1
  8
Defpoints
360
A5C7
 90
        0
  8
AM_11
360
A5C8
 90
        4
  0
XRECORD
  5
2D
102
{ACAD_REACTORS
330
2C
102
}
330
2C
100
AcDbXrecord
  1
VERSION
140
15.0
  1
PRODUCT
  2
AutoCAD Mechanical 2000
  0
IDBUFFER
  5
A5C2
330
0
100
AcDbIdBuffer
  0
IDBUFFER
  5
A5C3
330
0
100
AcDbIdBuffer
330
9AEE
330
9AEF
330
9AF0
330
9AF1
330
9AF2
330
9AF3
330
9AF4
330
9AF5
330
9AF6
330
9AF7
330
9AF8
330
9AF9
330
9AFA
330
9AFB
330
9AFC
330
9AFD
330
9AFE
330
9AFF
330
9B00
330
9B01
330
9B04
330
9B07
330
9B09
330
9B0A
330
9B0B
330
9B0C
330
9B0D
330
9B0E
330
9B0F
330
9B10
330
9B11
330
9B12
330
9B13
330
9B14
330
9B15
330
9B16
330
9B17
330
9B18
330
9B19
330
9B1A
330
9B1B
330
9B1C
330
9B1D
330
9B1E
330
9B1F
330
9B20
330
9B2A
330
9B2B
330
9B2C
330
9B2D
330
9B2E
330
9B2F
330
9B30
330
9B31
330
9B32
330
9B33
330
9B34
330
9B35
330
9B36
330
9B37
330
A152
330
A153
330
99F9
330
99FA
330
99FB
330
99FC
330
99FD
330
99FE
330
99FF
330
9A00
330
9A01
330
9A07
330
9A2F
330
9A30
330
9A31
330
9A32
330
9A33
330
9A34
330
9A35
330
9A36
330
9A37
330
9A38
330
9A39
330
9A3A
330
9A3B
330
9A3C
330
9A3D
330
9A3E
330
9A3F
330
9A40
330
9A41
330
9A42
330
9A43
330
9A44
330
9A4A
330
9A4B
330
9A4C
330
9A4D
330
9A4E
330
9A4F
330
9A50
330
9A51
330
9A52
330
9A53
330
9A54
330
9A55
330
9A56
330
9A57
330
9A58
330
9A59
330
9A5A
330
9A5B
330
9A5C
330
9A5D
330
9A5E
330
9A5F
330
9A60
330
9A61
330
9A88
330
9A89
330
9A8A
330
9A8B
330
9A8C
330
9A8D
330
9A8E
330
9A8F
330
9A90
330
9A91
330
9A92
330
9A93
330
9A94
330
9A95
330
9A96
330
9A97
330
9A98
330
9AB2
330
9AB3
330
9AB4
330
9AB5
330
9AB6
330
9AB7
330
9AB8
330
9AB9
330
9ABA
330
9ABB
330
9ABC
330
9ABF
330
9AC0
330
9AC9
330
9ACA
330
9ACB
330
9ACC
330
9ACD
330
9ACE
330
9ACF
330
9AD0
330
9AD4
330
9AD6
330
9AD7
330
9AD8
330
9ADD
330
9AE0
330
9AE2
330
9AE3
330
9AE4
330
9AE5
330
9AE6
330
9AE7
330
9AE8
330
9AE9
330
9AEA
330
9AEB
330
9AEC
330
9AED
  0
IDBUFFER
  5
A5C4
330
0
100
AcDbIdBuffer
330
9C8F
330
9D48
330
9DE6
330
9E7B
330
9F10
330
9FAE
330
A04C
  0
IDBUFFER
  5
A5C5
330
0
100
AcDbIdBuffer
330
9ABE
  0
IDBUFFER
  5
A5C6
330
0
100
AcDbIdBuffer
330
388D
  0
IDBUFFER
  5
A5C7
330
0
100
AcDbIdBuffer
  0
IDBUFFER
  5
A5C8
330
0
100
AcDbIdBuffer
330
9ABD
330
9AC8
330
9AE1
330
9B08
  0
ENDSEC
  0
EOF
