  0
SECTION
  2
HEADER
  9
$ACADVER
  1
AC1014
  9
$ACADMAINTVER
 70
     9
  9
$DWGCODEPAGE
  3
ANSI_932
  9
$INSBASE
 10
0.0
 20
0.0
 30
0.0
  9
$EXTMIN
 10
-302.7161325042887
 20
-67.99339630305374
 30
-0.00000001
  9
$EXTMAX
 10
22.51207753971543
 20
33.97428006515339
 30
0.00000001
  9
$LIMMIN
 10
-316.1822686039677
 20
-123.8133870701256
  9
$LIMMAX
 10
97.72489625310186
 20
118.454023565867
  9
$ORTHOMODE
 70
     0
  9
$REGENMODE
 70
     1
  9
$FILLMODE
 70
     1
  9
$QTEXTMODE
 70
     0
  9
$MIRRTEXT
 70
     0
  9
$DRAGMODE
 70
     2
  9
$LTSCALE
 40
1.0
  9
$OSMODE
 70
    55
  9
$ATTMODE
 70
     1
  9
$TEXTSIZE
 40
2.5
  9
$TRACEWID
 40
1.0
  9
$TEXTSTYLE
  7
STANDARD
  9
$CLAYER
  8
AM_0
  9
$CELTYPE
  6
BYLAYER
  9
$CECOLOR
 62
   256
  9
$CELTSCALE
 40
1.0
  9
$DELOBJ
 70
     1
  9
$DISPSILH
 70
     0
  9
$DIMSCALE
 40
0.5
  9
$DIMASZ
 40
2.5
  9
$DIMEXO
 40
1.0
  9
$DIMDLI
 40
12.0
  9
$DIMRND
 40
0.0
  9
$DIMDLE
 40
0.0
  9
$DIMEXE
 40
1.0
  9
$DIMTP
 40
0.1
  9
$DIMTM
 40
0.1
  9
$DIMTXT
 40
3.2
  9
$DIMCEN
 40
0.0
  9
$DIMTSZ
 40
0.0
  9
$DIMTOL
 70
     0
  9
$DIMLIM
 70
     0
  9
$DIMTIH
 70
     0
  9
$DIMTOH
 70
     0
  9
$DIMSE1
 70
     0
  9
$DIMSE2
 70
     0
  9
$DIMTAD
 70
     3
  9
$DIMZIN
 70
     8
  9
$DIMBLK
  1
OPEN30
  9
$DIMASO
 70
     1
  9
$DIMSHO
 70
     1
  9
$DIMPOST
  1

  9
$DIMAPOST
  1
"
  9
$DIMALT
 70
     0
  9
$DIMALTD
 70
     2
  9
$DIMALTF
 40
0.0393701
  9
$DIMLFAC
 40
1.0
  9
$DIMTOFL
 70
     1
  9
$DIMTVP
 40
0.0
  9
$DIMTIX
 70
     0
  9
$DIMSOXD
 70
     0
  9
$DIMSAH
 70
     0
  9
$DIMBLK1
  1

  9
$DIMBLK2
  1

  9
$DIMSTYLE
  2
AM_JIS
  9
$DIMCLRD
 70
   256
  9
$DIMCLRE
 70
   256
  9
$DIMCLRT
 70
     2
  9
$DIMTFAC
 40
0.71
  9
$DIMGAP
 40
1.5
  9
$DIMJUST
 70
     0
  9
$DIMSD1
 70
     0
  9
$DIMSD2
 70
     0
  9
$DIMTOLJ
 70
     0
  9
$DIMTZIN
 70
     0
  9
$DIMALTZ
 70
     0
  9
$DIMALTTZ
 70
     0
  9
$DIMFIT
 70
     3
  9
$DIMUPT
 70
     0
  9
$DIMUNIT
 70
     2
  9
$DIMDEC
 70
     3
  9
$DIMTDEC
 70
     3
  9
$DIMALTU
 70
     2
  9
$DIMALTTD
 70
     2
  9
$DIMTXSTY
  7
ASAMI
  9
$DIMAUNIT
 70
     0
  9
$LUNITS
 70
     2
  9
$LUPREC
 70
     2
  9
$SKETCHINC
 40
1.0
  9
$FILLETRAD
 40
0.4
  9
$AUNITS
 70
     0
  9
$AUPREC
 70
     0
  9
$MENU
  1
.
  9
$ELEVATION
 40
0.0
  9
$PELEVATION
 40
0.0
  9
$THICKNESS
 40
0.0
  9
$LIMCHECK
 70
     1
  9
$BLIPMODE
 70
     0
  9
$CHAMFERA
 40
1.0
  9
$CHAMFERB
 40
1.0
  9
$CHAMFERC
 40
20.0
  9
$CHAMFERD
 40
0.0
  9
$SKPOLY
 70
     0
  9
$TDCREATE
 40
2452802.716478761
  9
$TDUPDATE
 40
2453152.416316493
  9
$TDINDWG
 40
0.9742050463
  9
$TDUSRTIMER
 40
0.9742050463
  9
$USRTIMER
 70
     1
  9
$ANGBASE
 50
0.0
  9
$ANGDIR
 70
     0
  9
$PDMODE
 70
     0
  9
$PDSIZE
 40
0.0
  9
$PLINEWID
 40
0.0
  9
$COORDS
 70
     1
  9
$SPLFRAME
 70
     0
  9
$SPLINETYPE
 70
     6
  9
$SPLINESEGS
 70
     8
  9
$ATTDIA
 70
     1
  9
$ATTREQ
 70
     1
  9
$HANDLING
 70
 12289
  9
$HANDSEED
  5
B6E1
  9
$SURFTAB1
 70
     6
  9
$SURFTAB2
 70
     6
  9
$SURFTYPE
 70
     6
  9
$SURFU
 70
     6
  9
$SURFV
 70
     6
  9
$UCSNAME
  2

  9
$UCSORG
 10
-0.0000000000002682
 20
0.000000000000161
 30
0.0
  9
$UCSXDIR
 10
1.0
 20
0.000000000000002
 30
0.0
  9
$UCSYDIR
 10
-0.000000000000002
 20
1.0
 30
0.0
  9
$PUCSNAME
  2

  9
$PUCSORG
 10
0.0
 20
0.0
 30
0.0
  9
$PUCSXDIR
 10
1.0
 20
0.0
 30
0.0
  9
$PUCSYDIR
 10
0.0
 20
1.0
 30
0.0
  9
$USERI1
 70
     0
  9
$USERI2
 70
     0
  9
$USERI3
 70
     0
  9
$USERI4
 70
     0
  9
$USERI5
 70
     0
  9
$USERR1
 40
0.0
  9
$USERR2
 40
0.0
  9
$USERR3
 40
0.0
  9
$USERR4
 40
0.0
  9
$USERR5
 40
0.0
  9
$WORLDVIEW
 70
     1
  9
$SHADEDGE
 70
     3
  9
$SHADEDIF
 70
    70
  9
$TILEMODE
 70
     1
  9
$MAXACTVP
 70
    64
  9
$PINSBASE
 10
0.0
 20
0.0
 30
0.0
  9
$PLIMCHECK
 70
     0
  9
$PEXTMIN
 10
1.000000000000000E+20
 20
1.000000000000000E+20
 30
1.000000000000000E+20
  9
$PEXTMAX
 10
-1.000000000000000E+20
 20
-1.000000000000000E+20
 30
-1.000000000000000E+20
  9
$PLIMMIN
 10
0.0
 20
0.0
  9
$PLIMMAX
 10
841.0
 20
594.0
  9
$UNITMODE
 70
     0
  9
$VISRETAIN
 70
     1
  9
$PLINEGEN
 70
     0
  9
$PSLTSCALE
 70
     0
  9
$TREEDEPTH
 70
  3020
  9
$PICKSTYLE
 70
     0
  9
$CMLSTYLE
  2
STANDARD
  9
$CMLJUST
 70
     0
  9
$CMLSCALE
 40
20.0
  9
$PROXYGRAPHICS
 70
     1
  9
$MEASUREMENT
 70
     1
  0
ENDSEC
  0
SECTION
  2
CLASSES
  0
CLASS
  1
ACDBDICTIONARYWDFLT
  2
AcDbDictionaryWithDefault
  3
AutoCAD 2000
 90
        0
280
     0
281
     0
  0
CLASS
  1
ACDBPLACEHOLDER
  2
AcDbPlaceHolder
  3
AutoCAD 2000
 90
        0
280
     0
281
     0
  0
CLASS
  1
LAYOUT
  2
AcDbLayout
  3
AutoCAD 2000
 90
        0
280
     0
281
     0
  0
CLASS
  1
AMGSETTINGSOBJ
  2
AmgSettingsObj
  3
"AcadM|Product Description: AutoCAD Mechanical 2000|Company: Autodesk"
 90
        0
280
     0
281
     0
  0
CLASS
  1
ACME_DOCUMENT
  2
AcMeDbDoc
  3
AcMeServices
 90
        0
280
     0
281
     0
  0
CLASS
  1
ACMESCOPE
  2
AcMeScope
  3
AcMeServices
 90
        0
280
     0
281
     0
  0
CLASS
  1
ACMECOMMANDHISTORY
  2
AcMeCommandHistory
  3
AcMeServices
 90
        0
280
     0
281
     0
  0
CLASS
  1
DICTIONARYVAR
  2
AcDbDictionaryVar
  3
AutoCAD 2000
 90
        0
280
     0
281
     0
  0
CLASS
  1
ACIMSYSVARMAN
  2
AcImSysVarManager
  3
AcMeServices
 90
        0
280
     0
281
     0
  0
CLASS
  1
ACIMREALSYSVAR
  2
AcImRealSysVar
  3
AcMeServices
 90
        0
280
     0
281
     0
  0
CLASS
  1
ACIMINTSYSVAR
  2
AcImIntSysVar
  3
AcMeServices
 90
        0
280
     0
281
     0
  0
CLASS
  1
ACMEDRAWINGMAN
  2
AcMeDrawingMan
  3
AcMeServices
 90
        0
280
     0
281
     0
  0
CLASS
  1
ACMEVIEW
  2
AcMeView
  3
AcMeServices
 90
        0
280
     0
281
     0
  0
CLASS
  1
ACDBENTITYCACHE
  2
AcMeEntityCache
  3
AcMeServices
 90
        0
280
     0
281
     0
  0
CLASS
  1
GSMANAGER
  2
AcMeGSManager
  3
AcMeServices
 90
        0
280
     0
281
     0
  0
CLASS
  1
AmdtInternalReactor
  2
AmdtInternalReactor
  3
AcMeServices
 90
        0
280
     0
281
     0
  0
CLASS
  1
ACMESTATEMGR
  2
AcMeStateMgr
  3
AcMeServices
 90
        0
280
     0
281
     0
  0
CLASS
  1
ACME_DATABASE
  2
AcMeDbDatabase
  3
AcMeServices
 90
        0
280
     0
281
     0
  0
CLASS
  1
ACRFINSADJUSTERMGR
  2
AcRfInsAdjusterMgr
  3
AcMeServices
 90
        0
280
     0
281
     0
  0
CLASS
  1
ACMDATADICTIONARY
  2
AcmDataDictionary
  3
"AcmSymBB|Product Description: AutoCAD Mechanical 2000|Company: Autodesk"
 90
        0
280
     0
281
     0
  0
CLASS
  1
ACMDATAENTRYBLOCK
  2
AcmDataEntryBlock
  3
"AcmSymBB|Product Description: AutoCAD Mechanical 2000|Company: Autodesk"
 90
        0
280
     0
281
     0
  0
CLASS
  1
AMGOBJPROPCFG
  2
AmgObjPropCfg
  3
"AmgLay|Product Description: AutoCAD Mechanical 2000|Company: Autodesk"
 90
        1
280
     0
281
     0
  0
CLASS
  1
ACAMGFILTERDAT
  2
AcAmgFilterDat
  3
"AcadM|Product Description: AutoCAD Mechanical 2000|Company: Autodesk"
 90
        0
280
     0
281
     0
  0
CLASS
  1
LAYER_INDEX
  2
AcDbLayerIndex
  3
AutoCAD 2000
 90
        0
280
     0
281
     0
  0
CLASS
  1
IDBUFFER
  2
AcDbIdBuffer
  3
AutoCAD 2000
 90
        0
280
     0
281
     0
  0
CLASS
  1
ACIMSTRSYSVAR
  2
AcImStrSysVar
  3
AcMeServices
 90
        0
280
     0
281
     0
  0
CLASS
  1
ACMSTANDARDJIS
  2
AcmStandardJIS
  3
"AcmSymBB|Product Description: AutoCAD Mechanical 2000|Company: Autodesk"
 90
        0
280
     0
281
     0
  0
CLASS
  1
ACMSURFSTANDARDJIS
  2
AcmSurfTextStdJIS
  3
"AcmSymBB|Product Description: AutoCAD Mechanical 2000|Company: Autodesk"
 90
        0
280
     0
281
     0
  0
CLASS
  1
ACMFCFSTANDARDJIS
  2
AcmFCFStdJIS
  3
"AcmSymBB|Product Description: AutoCAD Mechanical 2000|Company: Autodesk"
 90
        0
280
     0
281
     0
  0
CLASS
  1
ACMWELDSTANDARDJIS
  2
AcmWeldingStdJIS
  3
"AcmSymBB|Product Description: AutoCAD Mechanical 2000|Company: Autodesk"
 90
        0
280
     0
281
     0
  0
CLASS
  1
ACMIDSTANDARDJIS
  2
AcmIdStdJIS
  3
"AcmSymBB|Product Description: AutoCAD Mechanical 2000|Company: Autodesk"
 90
        0
280
     0
281
     0
  0
CLASS
  1
ACMDATUMSTANDARDJIS
  2
AcmDatumStdJIS
  3
"AcmSymBB|Product Description: AutoCAD Mechanical 2000|Company: Autodesk"
 90
        0
280
     0
281
     0
  0
CLASS
  1
ACMBOMSTANDARDJIS
  2
AcmBOMStdJIS
  3
"AcmSymBB|Product Description: AutoCAD Mechanical 2000|Company: Autodesk"
 90
        0
280
     0
281
     0
  0
CLASS
  1
ACMSTANDARDANSI
  2
AcmStandardANSI
  3
"AcmSymBB|Product Description: AutoCAD Mechanical 2000|Company: Autodesk"
 90
        0
280
     0
281
     0
  0
CLASS
  1
ACMSURFSTANDARDANSI
  2
AcmSurfTextStdANSI
  3
"AcmSymBB|Product Description: AutoCAD Mechanical 2000|Company: Autodesk"
 90
        0
280
     0
281
     0
  0
CLASS
  1
ACMFCFSTANDARDANSI
  2
AcmFCFStdANSI
  3
"AcmSymBB|Product Description: AutoCAD Mechanical 2000|Company: Autodesk"
 90
        0
280
     0
281
     0
  0
CLASS
  1
ACMWELDSTANDARDANSI
  2
AcmWeldingStdANSI
  3
"AcmSymBB|Product Description: AutoCAD Mechanical 2000|Company: Autodesk"
 90
        0
280
     0
281
     0
  0
CLASS
  1
ACMIDSTANDARDANSI
  2
AcmIdStdANSI
  3
"AcmSymBB|Product Description: AutoCAD Mechanical 2000|Company: Autodesk"
 90
        0
280
     0
281
     0
  0
CLASS
  1
ACMDATUMSTANDARDANSI
  2
AcmDatumStdANSI
  3
"AcmSymBB|Product Description: AutoCAD Mechanical 2000|Company: Autodesk"
 90
        0
280
     0
281
     0
  0
CLASS
  1
ACMBOMSTANDARDANSI
  2
AcmBOMStdANSI
  3
"AcmSymBB|Product Description: AutoCAD Mechanical 2000|Company: Autodesk"
 90
        0
280
     0
281
     0
  0
CLASS
  1
ACMSTANDARDBSI
  2
AcmStandardBSI
  3
"AcmSymBB|Product Description: AutoCAD Mechanical 2000|Company: Autodesk"
 90
        0
280
     0
281
     0
  0
CLASS
  1
ACMSURFSTANDARDBSI
  2
AcmSurfTextStdBSI
  3
"AcmSymBB|Product Description: AutoCAD Mechanical 2000|Company: Autodesk"
 90
        0
280
     0
281
     0
  0
CLASS
  1
ACMFCFSTANDARDBSI
  2
AcmFCFStdBSI
  3
"AcmSymBB|Product Description: AutoCAD Mechanical 2000|Company: Autodesk"
 90
        0
280
     0
281
     0
  0
CLASS
  1
ACMWELDSTANDARDBSI
  2
AcmWeldingStdBSI
  3
"AcmSymBB|Product Description: AutoCAD Mechanical 2000|Company: Autodesk"
 90
        0
280
     0
281
     0
  0
CLASS
  1
ACMIDSTANDARDBSI
  2
AcmIdStdBSI
  3
"AcmSymBB|Product Description: AutoCAD Mechanical 2000|Company: Autodesk"
 90
        0
280
     0
281
     0
  0
CLASS
  1
ACMDATUMSTANDARDBSI
  2
AcmDatumStdBSI
  3
"AcmSymBB|Product Description: AutoCAD Mechanical 2000|Company: Autodesk"
 90
        0
280
     0
281
     0
  0
CLASS
  1
ACMBOMSTANDARDBSI
  2
AcmBOMStdBSI
  3
"AcmSymBB|Product Description: AutoCAD Mechanical 2000|Company: Autodesk"
 90
        0
280
     0
281
     0
  0
CLASS
  1
STDPART2D
  2
AmgStdPart
  3
"AmgStdPart|Product Description: AutoCAD Mechanical 2000|Company: Autodesk"
 90
     1023
280
     0
281
     1
  0
CLASS
  1
PLOTSETTINGS
  2
AcDbPlotSettings
  3
AutoCAD 2000
 90
        0
280
     0
281
     0
  0
CLASS
  1
AMDTNOTE
  2
AmdtNote
  3
"AcmSymBB|Product Description: AutoCAD Mechanical 2000|Company: Autodesk"
 90
     1023
280
     0
281
     1
  0
CLASS
  1
LONG_TRANSACTION
  2
AcDbLongTransaction
  3
AutoCAD 2000
 90
        0
280
     0
281
     0
  0
CLASS
  1
LWPOLYLINE
  2
AcDbPolyline
  3
AutoCAD 2000
 90
        0
280
     0
281
     1
  0
CLASS
  1
HATCH
  2
AcDbHatch
  3
AutoCAD 2000
 90
        0
280
     0
281
     1
  0
CLASS
  1
XRECORD
  2
AcDbXrecord
  3
AutoCAD 2000
 90
        0
280
     0
281
     0
  0
ENDSEC
  0
SECTION
  2
TABLES
  0
TABLE
  2
VPORT
  5
8
330
0
100
AcDbSymbolTable
 70
     3
  0
VPORT
  5
B680
330
8
100
AcDbSymbolTableRecord
100
AcDbViewportTableRecord
  2
*ACTIVE
 70
     0
 10
0.0
 20
0.0
 11
1.0
 21
1.0
 12
-133.8639744500681
 22
-17.94354733459486
 13
0.0
 23
0.0
 14
2.5
 24
2.5
 15
10.0
 25
10.0
 16
0.0
 26
0.0
 36
1.0
 17
0.0
 27
0.0
 37
0.0
 40
244.0125913460867
 41
1.56570841889117
 42
50.0
 43
0.0
 44
0.0
 50
0.0
 51
0.0
 71
     0
 72
   100
 73
     1
 74
     3
 75
     0
 76
     0
 77
     0
 78
     0
  0
ENDTAB
  0
TABLE
  2
LTYPE
  5
5
330
0
100
AcDbSymbolTable
 70
    12
  0
LTYPE
  5
14
330
5
100
AcDbSymbolTableRecord
100
AcDbLinetypeTableRecord
  2
BYBLOCK
 70
     0
  3

 72
    65
 73
     0
 40
0.0
  0
LTYPE
  5
15
330
5
100
AcDbSymbolTableRecord
100
AcDbLinetypeTableRecord
  2
BYLAYER
 70
     0
  3

 72
    65
 73
     0
 40
0.0
  0
LTYPE
  5
16
330
5
100
AcDbSymbolTableRecord
100
AcDbLinetypeTableRecord
  2
CONTINUOUS
 70
     0
  3
Solid line
 72
    65
 73
     0
 40
0.0
  0
LTYPE
  5
4B
330
5
100
AcDbSymbolTableRecord
100
AcDbLinetypeTableRecord
  2
AM_ISO02W050
 70
     0
  3
__ __ __ __ __ __ __ __ __ __ __ __ __ __ __
 72
    65
 73
     2
 40
7.5
 49
6.0
 74
     0
 49
-1.5
 74
     0
  0
LTYPE
  5
4C
330
5
100
AcDbSymbolTableRecord
100
AcDbLinetypeTableRecord
  2
AM_ISO08W050
 70
     0
  3
____ . ____ . ____ . ____ . ____ . ____ . ____
 72
    65
 73
     4
 40
18.0
 49
12.0
 74
     0
 49
-1.5
 74
     0
 49
3.0
 74
     0
 49
-1.5
 74
     0
  0
LTYPE
  5
4D
330
5
100
AcDbSymbolTableRecord
100
AcDbLinetypeTableRecord
  2
AM_ISO09W050
 70
     0
  3
_____ . . _____ . . _____ . . ____ .. ____
 72
    65
 73
     6
 40
22.5
 49
12.0
 74
     0
 49
-1.5
 74
     0
 49
3.0
 74
     0
 49
-1.5
 74
     0
 49
3.0
 74
     0
 49
-1.5
 74
     0
  0
LTYPE
  5
4E
330
5
100
AcDbSymbolTableRecord
100
AcDbLinetypeTableRecord
  2
AMCONSTR
 70
     0
  3
_______________________
 72
    65
 73
     2
 40
9999.0
 49
9999.0
 74
     0
 49
0.0
 74
     0
  0
LTYPE
  5
4F
330
5
100
AcDbSymbolTableRecord
100
AcDbLinetypeTableRecord
  2
AM_ISO02W050X2
 70
     0
  3
 _ _ _ _ _ _ _ _ _ _ _ _
 72
    65
 73
     2
 40
3.75
 49
3.0
 74
     0
 49
-0.75
 74
     0
  0
LTYPE
  5
50
330
5
100
AcDbSymbolTableRecord
100
AcDbLinetypeTableRecord
  2
AM_ISO08W050X2
 70
     0
  3
__ . __ . __ . __ . __ . __
 72
    65
 73
     4
 40
9.0
 49
6.0
 74
     0
 49
-0.75
 74
     0
 49
1.5
 74
     0
 49
-0.75
 74
     0
  0
LTYPE
  5
53
330
5
100
AcDbSymbolTableRecord
100
AcDbLinetypeTableRecord
  2
AMZIGZAG
 70
     0
  3
/\/-/\/-/\/-/\/-/\/-/\/
 72
    65
 73
     2
 40
11.00009999999999
 49
0.0001
 74
     4
 75
   135
340
52
 46
0.04
 50
0.0
 44
0.0
 45
0.0
 49
-11.0
 74
     0
  0
LTYPE
  5
166
330
5
100
AcDbSymbolTableRecord
100
AcDbLinetypeTableRecord
  2
ACJISTGL
 70
     0
  3
_ _ _ _ _
 72
    65
 73
     2
 40
3.0
 49
2.0
 74
     0
 49
-1.0
 74
     0
  0
LTYPE
  5
26A
330
5
100
AcDbSymbolTableRecord
100
AcDbLinetypeTableRecord
  2
ACJISTGB
 70
     0
  3
__ . . __ . .
 72
    65
 73
     6
 40
9.0
 49
4.0
 74
     0
 49
-1.0
 74
     0
 49
1.0
 74
     0
 49
-1.0
 74
     0
 49
1.0
 74
     0
 49
-1.0
 74
     0
  0
LTYPE
  5
A88C
330
5
100
AcDbSymbolTableRecord
100
AcDbLinetypeTableRecord
  2
ACANSTGBM
 70
     0
  3
__ . . __ . .
 72
    65
 73
     6
 40
9.0
 49
4.0
 74
     0
 49
-1.0
 74
     0
 49
1.0
 74
     0
 49
-1.0
 74
     0
 49
1.0
 74
     0
 49
-1.0
 74
     0
  0
LTYPE
  5
A88D
330
5
100
AcDbSymbolTableRecord
100
AcDbLinetypeTableRecord
  2
ACANSTGLM
 70
     0
  3
_ _ _ _ _
 72
    65
 73
     2
 40
3.0
 49
2.0
 74
     0
 49
-1.0
 74
     0
  0
ENDTAB
  0
TABLE
  2
LAYER
  5
2
330
0
100
AcDbSymbolTable
 70
     7
  0
LAYER
  5
10
330
2
100
AcDbSymbolTableRecord
100
AcDbLayerTableRecord
  2
0
 70
     0
 62
     7
  6
CONTINUOUS
  0
LAYER
  5
3F9
330
2
100
AcDbSymbolTableRecord
100
AcDbLayerTableRecord
  2
AM_0
 70
     0
 62
     7
  6
CONTINUOUS
  0
LAYER
  5
BA4
330
2
100
AcDbSymbolTableRecord
100
AcDbLayerTableRecord
  2
AM_5
 70
     0
 62
     3
  6
CONTINUOUS
  0
LAYER
  5
BA6
330
2
100
AcDbSymbolTableRecord
100
AcDbLayerTableRecord
  2
AM_7
 70
     0
 62
     4
  6
AM_ISO08W050
  0
LAYER
  5
E64
330
2
100
AcDbSymbolTableRecord
100
AcDbLayerTableRecord
  2
AM_6
 70
     0
 62
     2
  6
CONTINUOUS
  0
LAYER
  5
F4D
330
2
100
AcDbSymbolTableRecord
100
AcDbLayerTableRecord
  2
DEFPOINTS
 70
     0
 62
     7
  6
CONTINUOUS
  0
LAYER
  5
4E80
330
2
100
AcDbSymbolTableRecord
100
AcDbLayerTableRecord
  2
AM_11
 70
     0
 62
     3
  6
AM_ISO09W050
  0
ENDTAB
  0
TABLE
  2
STYLE
  5
3
330
0
100
AcDbSymbolTable
 70
     7
  0
STYLE
  5
11
330
3
100
AcDbSymbolTableRecord
100
AcDbTextStyleTableRecord
  2
STANDARD
 70
     0
 40
0.0
 41
1.0
 50
0.0
 71
     0
 42
2.5
  3
simplex.shx
  4
EXTFONT.SHX
  0
STYLE
  5
52
330
3
100
AcDbSymbolTableRecord
100
AcDbTextStyleTableRecord
  2

 70
     1
 40
0.0
 41
1.0
 50
0.0
 71
     0
 42
2.5
  3
ltypeshp.shx
  4

  0
STYLE
  5
6B
330
3
100
AcDbSymbolTableRecord
100
AcDbTextStyleTableRecord
  2
ASAMI
 70
     0
 40
0.0
 41
1.0
 50
0.0
 71
     0
 42
2.5
  3
simplex.shx
  4
EXTFONT.SHX
  0
STYLE
  5
262
330
3
100
AcDbSymbolTableRecord
100
AcDbTextStyleTableRecord
  2
ACJISTS
 70
     0
 40
1.0
 41
1.0
 50
0.0
 71
     0
 42
2.5
  3
simplex.shx
  4
bigfont.shx
  0
STYLE
  5
269
330
3
100
AcDbSymbolTableRecord
100
AcDbTextStyleTableRecord
  2
ACJISGDT
 70
     0
 40
0.0
 41
1.0
 50
0.0
 71
     0
 42
2.5
  3
amgdtans.shx
  4

  0
STYLE
  5
A88F
330
3
100
AcDbSymbolTableRecord
100
AcDbTextStyleTableRecord
  2
ACANSTS
 70
     0
 40
1.0
 41
1.0
 50
0.0
 71
     0
 42
2.5
  3
romans.shx
  4
extfont.shx
  0
STYLE
  5
A890
330
3
100
AcDbSymbolTableRecord
100
AcDbTextStyleTableRecord
  2
ACANSGDT
 70
     0
 40
0.0
 41
1.0
 50
0.0
 71
     0
 42
2.5
  3
amgdtans.shx
  4

  0
ENDTAB
  0
TABLE
  2
VIEW
  5
6
330
0
100
AcDbSymbolTable
 70
     0
  0
ENDTAB
  0
TABLE
  2
UCS
  5
7
330
0
100
AcDbSymbolTable
 70
     0
  0
ENDTAB
  0
TABLE
  2
APPID
  5
9
330
0
100
AcDbSymbolTable
 70
    24
  0
APPID
  5
12
330
9
100
AcDbSymbolTableRecord
100
AcDbRegAppTableRecord
  2
ACAD
 70
     0
  0
APPID
  5
30
330
9
100
AcDbSymbolTableRecord
100
AcDbRegAppTableRecord
  2
MCAD_NO_VIS
 70
     0
  0
APPID
  5
31
330
9
100
AcDbSymbolTableRecord
100
AcDbRegAppTableRecord
  2
ACAD_TEMP_GRAPHIC
 70
     0
  0
APPID
  5
2C2
330
9
100
AcDbSymbolTableRecord
100
AcDbRegAppTableRecord
  2
GENIUS_GENDTOL_13
 70
     0
  0
APPID
  5
339
330
9
100
AcDbSymbolTableRecord
100
AcDbRegAppTableRecord
  2
GENIUS_GENODEF_13
 70
     0
  0
APPID
  5
33A
330
9
100
AcDbSymbolTableRecord
100
AcDbRegAppTableRecord
  2
GENIUS_GENOBJ-N-RSBK_13
 70
     0
  0
APPID
  5
33B
330
9
100
AcDbSymbolTableRecord
100
AcDbRegAppTableRecord
  2
GENIUS_GENOBJ-N-LIB_13
 70
     0
  0
APPID
  5
33C
330
9
100
AcDbSymbolTableRecord
100
AcDbRegAppTableRecord
  2
GENIUS_GENSCALE_13
 70
     0
  0
APPID
  5
378
330
9
100
AcDbSymbolTableRecord
100
AcDbRegAppTableRecord
  2
GENIUS_GENDIMSH_14
 70
     0
  0
APPID
  5
BB0
330
9
100
AcDbSymbolTableRecord
100
AcDbRegAppTableRecord
  2
GENIUS_GENOBJ-N-CEN_13
 70
     0
  0
APPID
  5
BB1
330
9
100
AcDbSymbolTableRecord
100
AcDbRegAppTableRecord
  2
GENIUS_GENFIL_13
 70
     0
  0
APPID
  5
BB2
330
9
100
AcDbSymbolTableRecord
100
AcDbRegAppTableRecord
  2
GENIUS_GENOBJ-N-CHA_13
 70
     0
  0
APPID
  5
1FAF
330
9
100
AcDbSymbolTableRecord
100
AcDbRegAppTableRecord
  2
GENIUS_GENOBJ-N-CRS_13
 70
     0
  0
APPID
  5
1FB0
330
9
100
AcDbSymbolTableRecord
100
AcDbRegAppTableRecord
  2
GENIUS_GENOENT_13
 70
     0
  0
APPID
  5
1FB1
330
9
100
AcDbSymbolTableRecord
100
AcDbRegAppTableRecord
  2
GENIUS_GENOREF_13
 70
     0
  0
APPID
  5
1FB2
330
9
100
AcDbSymbolTableRecord
100
AcDbRegAppTableRecord
  2
GENIUS_GENOLIS_13
 70
     0
  0
APPID
  5
1FB7
330
9
100
AcDbSymbolTableRecord
100
AcDbRegAppTableRecord
  2
GENIUS_GENOBJ-N-FIL_13
 70
     0
  0
APPID
  5
22A8
330
9
100
AcDbSymbolTableRecord
100
AcDbRegAppTableRecord
  2
GEVID1056506048
 70
     0
  0
APPID
  5
22A9
330
9
100
AcDbSymbolTableRecord
100
AcDbRegAppTableRecord
  2
GEVDC
 70
     0
  0
APPID
  5
22AC
330
9
100
AcDbSymbolTableRecord
100
AcDbRegAppTableRecord
  2
GENIUS_GENBH_13
 70
     0
  0
APPID
  5
22B8
330
9
100
AcDbSymbolTableRecord
100
AcDbRegAppTableRecord
  2
GENIUS_GENOBJ-NBEHI-BHF_13
 70
     0
  0
APPID
  5
22BA
330
9
100
AcDbSymbolTableRecord
100
AcDbRegAppTableRecord
  2
GENIUS_GENOBJ-NBEHI-BHB_13
 70
     0
  0
APPID
  5
35C9
330
9
100
AcDbSymbolTableRecord
100
AcDbRegAppTableRecord
  2
GENIUS_GENREC_14
 70
     0
  0
APPID
  5
35CA
330
9
100
AcDbSymbolTableRecord
100
AcDbRegAppTableRecord
  2
GENIUS_GENOBJ-N-REC_13
 70
     0
  0
ENDTAB
  0
TABLE
  2
DIMSTYLE
  5
A
330
0
100
AcDbSymbolTable
 70
     9
  0
DIMSTYLE
105
58
330
A
100
AcDbSymbolTableRecord
100
AcDbDimStyleTableRecord
  2
AM_JIS
 70
     0
  3

  4
"
  5
OPEN30
  6

  7

 40
1.0
 41
2.5
 42
1.0
 43
12.0
 44
1.0
 45
0.0
 46
0.0
 47
0.1
 48
0.1
140
3.2
141
0.0
142
0.0
143
0.0393701
144
1.0
145
0.0
146
0.71
147
1.5
 71
     0
 72
     0
 73
     0
 74
     0
 75
     0
 76
     0
 77
     3
 78
     8
170
     0
171
     2
172
     1
173
     0
174
     0
175
     0
176
   256
177
   256
178
     2
270
     2
271
     3
272
     3
273
     2
274
     2
340
6B
275
     0
280
     0
281
     0
282
     0
283
     0
284
     0
285
     0
286
     0
287
     3
288
     0
  0
DIMSTYLE
105
5F
330
A
100
AcDbSymbolTableRecord
100
AcDbDimStyleTableRecord
  2
AM_JIS$3
 70
     0
  3

  4
"
  5
OPEN30
  6

  7

 40
1.0
 41
2.5
 42
1.0
 43
10.0
 44
1.0
 45
0.0
 46
0.0
 47
0.1
 48
0.1
140
3.2
141
0.0
142
0.0
143
0.0393701
144
1.0
145
0.0
146
0.71
147
1.5
 71
     0
 72
     0
 73
     0
 74
     1
 75
     0
 76
     0
 77
     3
 78
     8
170
     0
171
     2
172
     0
173
     0
174
     0
175
     0
176
   256
177
   256
178
     2
270
     2
271
     2
272
     3
273
     2
274
     2
340
6B
275
     0
280
     0
281
     0
282
     0
283
     0
284
     0
285
     0
286
     0
287
     0
288
     1
  0
DIMSTYLE
105
60
330
A
100
AcDbSymbolTableRecord
100
AcDbDimStyleTableRecord
  2
AM_JIS$4
 70
     0
  3

  4
"
  5
OPEN30
  6

  7

 40
1.0
 41
2.5
 42
1.0
 43
10.0
 44
1.0
 45
0.0
 46
0.0
 47
0.1
 48
0.1
140
3.2
141
0.0
142
0.0
143
0.0393701
144
1.0
145
0.0
146
0.71
147
1.5
 71
     0
 72
     0
 73
     0
 74
     1
 75
     0
 76
     0
 77
     3
 78
     8
170
     0
171
     2
172
     0
173
     0
174
     0
175
     0
176
   256
177
   256
178
     2
270
     2
271
     2
272
     3
273
     2
274
     2
340
6B
275
     0
280
     0
281
     0
282
     0
283
     0
284
     0
285
     0
286
     0
287
     0
288
     1
  0
DIMSTYLE
105
61
330
A
100
AcDbSymbolTableRecord
100
AcDbDimStyleTableRecord
  2
AM_JIS$6
 70
     0
  3

  4
"
  5
OPEN30
  6

  7

 40
1.0
 41
2.5
 42
1.0
 43
10.0
 44
1.0
 45
0.0
 46
0.0
 47
0.1
 48
0.1
140
3.2
141
0.0
142
0.0
143
0.0393701
144
1.0
145
0.0
146
0.71
147
1.5
 71
     0
 72
     0
 73
     0
 74
     0
 75
     0
 76
     0
 77
     0
 78
     8
170
     0
171
     2
172
     1
173
     0
174
     0
175
     0
176
   256
177
   256
178
     2
270
     2
271
     2
272
     2
273
     2
274
     2
340
6B
275
     0
280
     0
281
     0
282
     0
283
     0
284
     0
285
     0
286
     0
287
     3
288
     0
  0
DIMSTYLE
105
62
330
A
100
AcDbSymbolTableRecord
100
AcDbDimStyleTableRecord
  2
AM_JIS$7
 70
     0
  3

  4
"
  5
OPEN30
  6

  7

 40
1.0
 41
2.5
 42
1.0
 43
10.0
 44
1.0
 45
0.0
 46
0.0
 47
0.1
 48
0.1
140
3.2
141
0.0
142
0.0
143
0.0393701
144
1.0
145
0.0
146
0.71
147
1.5
 71
     0
 72
     0
 73
     0
 74
     0
 75
     0
 76
     0
 77
     3
 78
     8
170
     0
171
     2
172
     1
173
     0
174
     0
175
     0
176
   256
177
   256
178
     2
270
     2
271
     2
272
     3
273
     2
274
     2
340
6B
275
     0
280
     0
281
     0
282
     0
283
     0
284
     0
285
     0
286
     0
287
     3
288
     0
  0
DIMSTYLE
105
63
330
A
100
AcDbSymbolTableRecord
100
AcDbDimStyleTableRecord
  2
AM_JIS$SF
 70
     0
  3

  4
"
  5
OPEN30
  6

  7

 40
1.0
 41
2.5
 42
1.0
 43
10.0
 44
1.0
 45
0.0
 46
0.0
 47
0.1
 48
0.1
140
3.2
141
0.0
142
0.0
143
0.0393701
144
1.0
145
0.0
146
0.71
147
1.5
 71
     0
 72
     0
 73
     0
 74
     0
 75
     1
 76
     1
 77
     3
 78
     8
170
     0
171
     2
172
     1
173
     0
174
     0
175
     0
176
   256
177
   256
178
     2
270
     2
271
     2
272
     2
273
     2
274
     2
340
6B
275
     0
280
     0
281
     0
282
     0
283
     0
284
     0
285
     0
286
     0
287
     3
288
     0
  0
DIMSTYLE
105
68
330
A
100
AcDbSymbolTableRecord
100
AcDbDimStyleTableRecord
  2
AM_JIS$SH
 70
     0
  3

  4
"
  5

  6
GENAXEH
  7
OPEN30
 40
1.0
 41
2.5
 42
1.0
 43
10.0
 44
1.0
 45
0.0
 46
0.0
 47
0.1
 48
0.1
140
3.2
141
0.0
142
0.0
143
0.0393701
144
2.0
145
0.0
146
0.71
147
1.5
 71
     0
 72
     0
 73
     0
 74
     0
 75
     1
 76
     1
 77
     3
 78
     8
170
     0
171
     2
172
     1
173
     1
174
     0
175
     0
176
   256
177
   256
178
     2
270
     2
271
     2
272
     2
273
     2
274
     2
340
6B
275
     0
280
     0
281
     0
282
     0
283
     0
284
     0
285
     0
286
     0
287
     3
288
     0
  0
DIMSTYLE
105
B34
330
A
100
AcDbSymbolTableRecord
100
AcDbDimStyleTableRecord
  2
AM_JIS$2
 70
     0
  3

  4
"
  5
OPEN30
  6

  7

 40
1.0
 41
2.5
 42
1.0
 43
12.0
 44
1.0
 45
0.0
 46
0.0
 47
0.1
 48
0.1
140
3.2
141
0.0
142
0.0
143
0.0393701
144
1.0
145
0.0
146
0.71
147
1.5
 71
     0
 72
     0
 73
     0
 74
     0
 75
     0
 76
     0
 77
     3
 78
     8
170
     0
171
     2
172
     1
173
     0
174
     0
175
     0
176
   256
177
   256
178
     2
270
     2
271
     3
272
     3
273
     2
274
     2
340
6B
275
     0
280
     0
281
     0
282
     0
283
     0
284
     0
285
     0
286
     0
287
     3
288
     0
  0
DIMSTYLE
105
3B48
102
{ACAD_REACTORS
330
AFC0
330
B05E
330
B0EA
330
B226
330
B2CD
330
B17F
102
}
330
A
100
AcDbSymbolTableRecord
100
AcDbDimStyleTableRecord
  2
AM_JIS$0
 70
     0
  3

  4
"
  5
OPEN30
  6

  7

 40
1.0
 41
2.5
 42
0.0
 43
10.0
 44
1.0
 45
0.0
 46
0.0
 47
0.1
 48
0.1000000001
140
3.799999999999999
141
0.0
142
0.0
143
0.0393701
144
1.0
145
0.0
146
0.71
147
1.5
 71
     0
 72
     0
 73
     0
 74
     0
 75
     0
 76
     0
 77
     3
 78
     1
170
     0
171
     2
172
     1
173
     0
174
     0
175
     0
176
     3
177
     3
178
     2
270
     2
271
     2
272
     2
273
     2
274
     2
340
11
275
     1
280
     0
281
     0
282
     0
283
     0
284
     8
285
     0
286
     0
287
     0
288
     0
  0
ENDTAB
  0
TABLE
  2
BLOCK_RECORD
  5
1
330
0
100
AcDbSymbolTable
 70
    11
  0
BLOCK_RECORD
  5
1F
102
{ACAD_XDICTIONARY
360
74
102
}
330
1
100
AcDbSymbolTableRecord
100
AcDbBlockTableRecord
  2
*MODEL_SPACE
  0
BLOCK_RECORD
  5
101
102
{ACAD_XDICTIONARY
360
B6A9
102
}
330
1
100
AcDbSymbolTableRecord
100
AcDbBlockTableRecord
  2
*PAPER_SPACE
  0
BLOCK_RECORD
  5
59
330
1
100
AcDbSymbolTableRecord
100
AcDbBlockTableRecord
  2
_OPEN30
  0
BLOCK_RECORD
  5
64
330
1
100
AcDbSymbolTableRecord
100
AcDbBlockTableRecord
  2
GENAXEH
  0
BLOCK_RECORD
  5
AFC1
330
1
100
AcDbSymbolTableRecord
100
AcDbBlockTableRecord
  2
*D5
  0
BLOCK_RECORD
  5
B05F
330
1
100
AcDbSymbolTableRecord
100
AcDbBlockTableRecord
  2
*D6
  0
BLOCK_RECORD
  5
B0EB
330
1
100
AcDbSymbolTableRecord
100
AcDbBlockTableRecord
  2
*D7
  0
BLOCK_RECORD
  5
B180
330
1
100
AcDbSymbolTableRecord
100
AcDbBlockTableRecord
  2
*D8
  0
BLOCK_RECORD
  5
B227
330
1
100
AcDbSymbolTableRecord
100
AcDbBlockTableRecord
  2
*D9
  0
BLOCK_RECORD
  5
B2CE
330
1
100
AcDbSymbolTableRecord
100
AcDbBlockTableRecord
  2
*D10
  0
ENDTAB
  0
ENDSEC
  0
SECTION
  2
BLOCKS
  0
BLOCK
  5
20
330
1F
100
AcDbEntity
  8
0
100
AcDbBlockBegin
  2
*MODEL_SPACE
 70
     0
 10
0.0
 20
0.0
 30
0.0
  3
*MODEL_SPACE
  1

  0
ENDBLK
  5
21
330
1F
100
AcDbEntity
  8
0
100
AcDbBlockEnd
  0
BLOCK
  5
103
330
101
100
AcDbEntity
 67
     1
  8
0
100
AcDbBlockBegin
  2
*PAPER_SPACE
 70
     0
 10
0.0
 20
0.0
 30
0.0
  3
*PAPER_SPACE
  1

  0
ENDBLK
  5
104
330
101
100
AcDbEntity
 67
     1
  8
0
100
AcDbBlockEnd
  0
BLOCK
  5
5D
330
59
100
AcDbEntity
  8
0
100
AcDbBlockBegin
  2
_OPEN30
 70
     0
 10
0.0
 20
0.0
 30
0.0
  3
_OPEN30
  1

  0
LINE
  5
5A
330
59
100
AcDbEntity
  8
0
 62
     0
100
AcDbLine
 10
-1.0
 20
0.26794919
 30
0.0
 11
0.0
 21
0.0
 31
0.0
  0
LINE
  5
5B
330
59
100
AcDbEntity
  8
0
 62
     0
100
AcDbLine
 10
0.0
 20
0.0
 30
0.0
 11
-1.0
 21
-0.26794919
 31
0.0
  0
LINE
  5
5C
330
59
100
AcDbEntity
  8
0
 62
     0
100
AcDbLine
 10
0.0
 20
0.0
 30
0.0
 11
-1.0
 21
0.0
 31
0.0
  0
ENDBLK
  5
5E
330
59
100
AcDbEntity
  8
0
100
AcDbBlockEnd
  0
BLOCK
  5
66
330
64
100
AcDbEntity
  8
0
100
AcDbBlockBegin
  2
GENAXEH
 70
     0
 10
0.0
 20
0.0
 30
0.0
  3
GENAXEH
  1

  0
LINE
  5
65
330
64
100
AcDbEntity
  8
0
100
AcDbLine
 10
-1.0
 20
0.0
 30
0.0
 11
1.0
 21
0.0
 31
0.0
  0
ENDBLK
  5
67
330
64
100
AcDbEntity
  8
0
100
AcDbBlockEnd
  0
BLOCK
  5
AFCB
330
AFC1
100
AcDbEntity
  8
0
100
AcDbBlockBegin
  2
*D5
 70
     1
 10
0.0
 20
0.0
 30
0.0
  3
*D5
  1

  0
LINE
  5
B6AB
330
AFC1
100
AcDbEntity
  8
AM_5
100
AcDbLine
 10
-0.0000000000002844
 20
1.000000000000142
 30
0.0
 11
-0.0000000000002898
 21
30.27428006515338
 31
0.0
  0
LINE
  5
B6AC
330
AFC1
100
AcDbEntity
  8
AM_5
100
AcDbLine
 10
-35.00000000000034
 20
21.00000000000004
 30
0.0
 11
-35.00000000000034
 21
30.27428006515338
 31
0.0
  0
LINE
  5
B6AD
330
AFC1
100
AcDbEntity
  8
AM_5
100
AcDbLine
 10
-2.500000000000289
 20
29.27428006515338
 30
0.0
 11
-32.50000000000034
 21
29.27428006515338
 31
0.0
  0
INSERT
  5
B6AE
330
AFC1
100
AcDbEntity
  8
AM_5
100
AcDbBlockReference
  2
_OPEN30
 10
-0.0000000000002896
 20
29.27428006515338
 30
0.0
 41
2.5
 42
2.5
 43
2.5
  0
INSERT
  5
B6AF
330
AFC1
100
AcDbEntity
  8
AM_5
100
AcDbBlockReference
  2
_OPEN30
 10
-35.00000000000034
 20
29.27428006515338
 30
0.0
 41
2.5
 42
2.5
 43
2.5
 50
180.0
  0
MTEXT
  5
B6B0
330
AFC1
100
AcDbEntity
  8
AM_5
 62
     2
100
AcDbMText
 10
-17.50000000000031
 20
32.37428006515338
 30
0.0
 40
3.2
 41
0.0
 71
     5
 72
     1
  1
35
  7
ASAMI
  0
POINT
  5
B6B1
330
AFC1
100
AcDbEntity
  8
DEFPOINTS
 62
     0
100
AcDbPoint
 10
-0.0000000000002842
 20
0.0000000000001421
 30
0.0
  0
POINT
  5
B6B2
330
AFC1
100
AcDbEntity
  8
DEFPOINTS
 62
     0
100
AcDbPoint
 10
-35.0000000000003
 20
20.00000000000011
 30
0.0
  0
POINT
  5
B6B3
330
AFC1
100
AcDbEntity
  8
DEFPOINTS
 62
     0
100
AcDbPoint
 10
-35.00000000000028
 20
29.27428006515345
 30
0.0
  0
ENDBLK
  5
AFCC
330
AFC1
100
AcDbEntity
  8
0
100
AcDbBlockEnd
  0
BLOCK
  5
B069
330
B05F
100
AcDbEntity
  8
0
100
AcDbBlockBegin
  2
*D6
 70
     1
 10
0.0
 20
0.0
 30
0.0
  3
*D6
  1

  0
LINE
  5
B6B4
330
B05F
100
AcDbEntity
  8
AM_5
100
AcDbLine
 10
-0.0000000000002823
 20
-0.9999999999998578
 30
0.0
 11
-0.0000000000002122
 21
-36.72873260873498
 31
0.0
  0
LINE
  5
B6B5
330
B05F
100
AcDbEntity
  8
AM_5
100
AcDbLine
 10
-180.0102102118601
 20
-22.00000000000055
 30
0.0
 11
-180.01021021186
 21
-36.72873260873535
 31
0.0
  0
LINE
  5
B6B6
330
B05F
100
AcDbEntity
  8
AM_5
100
AcDbLine
 10
-2.500000000000214
 20
-35.72873260873499
 30
0.0
 11
-177.51021021186
 21
-35.72873260873534
 31
0.0
  0
INSERT
  5
B6B7
330
B05F
100
AcDbEntity
  8
AM_5
100
AcDbBlockReference
  2
_OPEN30
 10
-0.0000000000002142
 20
-35.72873260873498
 30
0.0
 41
2.5
 42
2.5
 43
2.5
 50
0.0000000000001018
  0
INSERT
  5
B6B8
330
B05F
100
AcDbEntity
  8
AM_5
100
AcDbBlockReference
  2
_OPEN30
 10
-180.01021021186
 20
-35.72873260873535
 30
0.0
 41
2.5
 42
2.5
 43
2.5
 50
180.0000000000001
  0
MTEXT
  5
B6B9
330
B05F
100
AcDbEntity
  8
AM_5
 62
     2
100
AcDbMText
 10
-90.00510510593015
 20
-32.62873260873517
 30
0.0
 40
3.2
 41
0.0
 71
     5
 72
     1
  1
180
  7
ASAMI
  0
POINT
  5
B6BA
330
B05F
100
AcDbEntity
  8
DEFPOINTS
 62
     0
100
AcDbPoint
 10
-0.0000000000002842
 20
0.0000000000001421
 30
0.0
  0
POINT
  5
B6BB
330
B05F
100
AcDbEntity
  8
DEFPOINTS
 62
     0
100
AcDbPoint
 10
-180.0102102118601
 20
-21.00000000000019
 30
0.0
  0
POINT
  5
B6BC
330
B05F
100
AcDbEntity
  8
DEFPOINTS
 62
     0
100
AcDbPoint
 10
-180.0102102118601
 20
-35.72873260873498
 30
0.0
  0
ENDBLK
  5
B06A
330
B05F
100
AcDbEntity
  8
0
100
AcDbBlockEnd
  0
BLOCK
  5
B0F5
330
B0EB
100
AcDbEntity
  8
0
100
AcDbBlockBegin
  2
*D7
 70
     1
 10
0.0
 20
0.0
 30
0.0
  3
*D7
  1

  0
LINE
  5
B6BD
330
B0EB
100
AcDbEntity
  8
AM_5
100
AcDbLine
 10
-180.0102102118601
 20
-22.00000000000061
 30
0.0
 11
-180.0102102118601
 21
-36.72873260873584
 31
0.0
  0
LINE
  5
B6BE
330
B0EB
100
AcDbEntity
  8
AM_5
100
AcDbLine
 10
-280.0102102118601
 20
-19.67034417356167
 30
0.0
 11
-280.0102102118601
 21
-36.72873260873604
 31
0.0
  0
LINE
  5
B6BF
330
B0EB
100
AcDbEntity
  8
AM_5
100
AcDbLine
 10
-182.5102102118601
 20
-35.72873260873584
 30
0.0
 11
-277.5102102118601
 21
-35.72873260873604
 31
0.0
  0
INSERT
  5
B6C0
330
B0EB
100
AcDbEntity
  8
AM_5
100
AcDbBlockReference
  2
_OPEN30
 10
-180.0102102118601
 20
-35.72873260873584
 30
0.0
 41
2.5
 42
2.5
 43
2.5
 50
0.0000000000001018
  0
INSERT
  5
B6C1
330
B0EB
100
AcDbEntity
  8
AM_5
100
AcDbBlockReference
  2
_OPEN30
 10
-280.0102102118601
 20
-35.72873260873604
 30
0.0
 41
2.5
 42
2.5
 43
2.5
 50
180.0000000000001
  0
MTEXT
  5
B6C2
330
B0EB
100
AcDbEntity
  8
AM_5
 62
     2
100
AcDbMText
 10
-230.0102102118601
 20
-32.62873260873593
 30
0.0
 40
3.2
 41
0.0
 71
     5
 72
     1
  1
100
  7
ASAMI
  0
POINT
  5
B6C3
330
B0EB
100
AcDbEntity
  8
DEFPOINTS
 62
     0
100
AcDbPoint
 10
-180.0102102118602
 20
-21.00000000000024
 30
0.0
  0
POINT
  5
B6C4
330
B0EB
100
AcDbEntity
  8
DEFPOINTS
 62
     0
100
AcDbPoint
 10
-280.0102102118602
 20
-18.6703441735611
 30
0.0
  0
POINT
  5
B6C5
330
B0EB
100
AcDbEntity
  8
DEFPOINTS
 62
     0
100
AcDbPoint
 10
-280.0102102118602
 20
-35.72873260873548
 30
0.0
  0
ENDBLK
  5
B0F6
330
B0EB
100
AcDbEntity
  8
0
100
AcDbBlockEnd
  0
BLOCK
  5
B18A
330
B180
100
AcDbEntity
  8
0
100
AcDbBlockBegin
  2
*D8
 70
     1
 10
0.0
 20
0.0
 30
0.0
  3
*D8
  1

  0
LINE
  5
B6C6
330
B180
100
AcDbEntity
  8
AM_5
100
AcDbLine
 10
-0.0000000000002823
 20
-0.9999999999998578
 30
0.0
 11
-0.0000000000001931
 21
-46.4933963030534
 31
0.0
  0
LINE
  5
B6C7
330
B180
100
AcDbEntity
  8
AM_5
100
AcDbLine
 10
-280.0102102118601
 20
-19.67034417356164
 30
0.0
 11
-280.01021021186
 21
-46.49339630305397
 31
0.0
  0
LINE
  5
B6C8
330
B180
100
AcDbEntity
  8
AM_5
100
AcDbLine
 10
-2.500000000000194
 20
-45.49339630305341
 30
0.0
 11
-277.5102102118601
 21
-45.49339630305396
 31
0.0
  0
INSERT
  5
B6C9
330
B180
100
AcDbEntity
  8
AM_5
100
AcDbBlockReference
  2
_OPEN30
 10
-0.000000000000195
 20
-45.4933963030534
 30
0.0
 41
2.5
 42
2.5
 43
2.5
 50
0.0000000000001018
  0
INSERT
  5
B6CA
330
B180
100
AcDbEntity
  8
AM_5
100
AcDbBlockReference
  2
_OPEN30
 10
-280.01021021186
 20
-45.49339630305397
 30
0.0
 41
2.5
 42
2.5
 43
2.5
 50
180.0000000000001
  0
MTEXT
  5
B6CB
330
B180
100
AcDbEntity
  8
AM_5
 62
     2
100
AcDbMText
 10
-140.0051051059301
 20
-42.39339630305368
 30
0.0
 40
3.2
 41
0.0
 71
     5
 72
     1
  1
280
  7
ASAMI
  0
POINT
  5
B6CC
330
B180
100
AcDbEntity
  8
DEFPOINTS
 62
     0
100
AcDbPoint
 10
-0.0000000000002842
 20
0.0000000000001421
 30
0.0
  0
POINT
  5
B6CD
330
B180
100
AcDbEntity
  8
DEFPOINTS
 62
     0
100
AcDbPoint
 10
-280.0102102118602
 20
-18.67034417356108
 30
0.0
  0
POINT
  5
B6CE
330
B180
100
AcDbEntity
  8
DEFPOINTS
 62
     0
100
AcDbPoint
 10
-280.0102102118602
 20
-45.4933963030534
 30
0.0
  0
ENDBLK
  5
B18B
330
B180
100
AcDbEntity
  8
0
100
AcDbBlockEnd
  0
BLOCK
  5
B231
330
B227
100
AcDbEntity
  8
0
100
AcDbBlockBegin
  2
*D9
 70
     1
 10
0.0
 20
0.0
 30
0.0
  3
*D9
  1

  0
LINE
  5
B6CF
330
B227
100
AcDbEntity
  8
AM_5
100
AcDbLine
 10
-19.00000000000029
 20
20.0000000000001
 30
0.0
 11
22.51207753971535
 21
20.00000000000018
 31
0.0
  0
LINE
  5
B6D0
330
B227
100
AcDbEntity
  8
AM_5
100
AcDbLine
 10
-19.00000000000021
 20
-19.9999999999999
 30
0.0
 11
22.51207753971543
 21
-19.99999999999982
 31
0.0
  0
LINE
  5
B6D1
330
B227
100
AcDbEntity
  8
AM_5
100
AcDbLine
 10
21.51207753971536
 20
17.50000000000017
 30
0.0
 11
21.51207753971543
 21
-17.49999999999982
 31
0.0
  0
INSERT
  5
B6D2
330
B227
100
AcDbEntity
  8
AM_5
100
AcDbBlockReference
  2
_OPEN30
 10
21.51207753971535
 20
20.00000000000017
 30
0.0
 41
2.5
 42
2.5
 43
2.5
 50
90.0000000000001
  0
INSERT
  5
B6D3
330
B227
100
AcDbEntity
  8
AM_5
100
AcDbBlockReference
  2
_OPEN30
 10
21.51207753971543
 20
-19.99999999999982
 30
0.0
 41
2.5
 42
2.5
 43
2.5
 50
270.0000000000001
  0
MTEXT
  5
B6D4
330
B227
100
AcDbEntity
  8
AM_5
 62
     2
100
AcDbMText
 10
18.41207753971539
 20
0.0000000000001713
 30
0.0
 40
3.2
 41
0.0
 71
     5
 72
     1
  1
%%c40
  7
ASAMI
 11
-0.000000000000002
 21
1.0
 31
0.0
  0
POINT
  5
B6D5
330
B227
100
AcDbEntity
  8
DEFPOINTS
 62
     0
100
AcDbPoint
 10
-20.00000000000025
 20
20.00000000000014
 30
0.0
  0
POINT
  5
B6D6
330
B227
100
AcDbEntity
  8
DEFPOINTS
 62
     0
100
AcDbPoint
 10
-20.00000000000025
 20
-19.99999999999985
 30
0.0
  0
POINT
  5
B6D7
330
B227
100
AcDbEntity
  8
DEFPOINTS
 62
     0
100
AcDbPoint
 10
21.51207753971539
 20
-19.99999999999986
 30
0.0
  0
ENDBLK
  5
B232
330
B227
100
AcDbEntity
  8
0
100
AcDbBlockEnd
  0
BLOCK
  5
B2D8
330
B2CE
100
AcDbEntity
  8
0
100
AcDbBlockBegin
  2
*D10
 70
     1
 10
0.0
 20
0.0
 30
0.0
  3
*D10
  1

  0
LINE
  5
B6D8
330
B2CE
100
AcDbEntity
  8
AM_5
100
AcDbLine
 10
-278.0432229137524
 20
20.99999999999902
 30
0.0
 11
-299.0161325042888
 21
20.99999999999898
 31
0.0
  0
LINE
  5
B6D9
330
B2CE
100
AcDbEntity
  8
AM_5
100
AcDbLine
 10
-278.0432229137523
 20
-21.000000000001
 30
0.0
 11
-299.0161325042886
 21
-21.00000000000104
 31
0.0
  0
LINE
  5
B6DA
330
B2CE
100
AcDbEntity
  8
AM_5
100
AcDbLine
 10
-298.0161325042887
 20
18.49999999999898
 30
0.0
 11
-298.0161325042887
 21
-18.50000000000104
 31
0.0
  0
INSERT
  5
B6DB
330
B2CE
100
AcDbEntity
  8
AM_5
100
AcDbBlockReference
  2
_OPEN30
 10
-298.0161325042887
 20
20.99999999999898
 30
0.0
 41
2.5
 42
2.5
 43
2.5
 50
90.0000000000001
  0
INSERT
  5
B6DC
330
B2CE
100
AcDbEntity
  8
AM_5
100
AcDbBlockReference
  2
_OPEN30
 10
-298.0161325042887
 20
-21.00000000000104
 30
0.0
 41
2.5
 42
2.5
 43
2.5
 50
270.0000000000001
  0
MTEXT
  5
B6DD
330
B2CE
100
AcDbEntity
  8
AM_5
 62
     2
100
AcDbMText
 10
-301.1161325042887
 20
-0.0000000000010234
 30
0.0
 40
3.2
 41
0.0
 71
     5
 72
     1
  1
%%c42
  7
ASAMI
 11
-0.000000000000002
 21
1.0
 31
0.0
  0
POINT
  5
B6DE
330
B2CE
100
AcDbEntity
  8
DEFPOINTS
 62
     0
100
AcDbPoint
 10
-277.0432229137524
 20
20.99999999999964
 30
0.0
  0
POINT
  5
B6DF
330
B2CE
100
AcDbEntity
  8
DEFPOINTS
 62
     0
100
AcDbPoint
 10
-277.0432229137524
 20
-21.00000000000038
 30
0.0
  0
POINT
  5
B6E0
330
B2CE
100
AcDbEntity
  8
DEFPOINTS
 62
     0
100
AcDbPoint
 10
-298.0161325042887
 20
-21.00000000000038
 30
0.0
  0
ENDBLK
  5
B2D9
330
B2CE
100
AcDbEntity
  8
0
100
AcDbBlockEnd
  0
ENDSEC
  0
SECTION
  2
ENTITIES
  0
TEXT
  5
388D
330
1F
100
AcDbEntity
  8
AM_6
100
AcDbText
 10
-162.1479622487872
 20
-67.99339630305365
 30
0.0
 40
5.0
  1
WBMR2400M
 50
359.9999999999998
 51
359.9999999999998
 72
     4
 11
-140.00510510593
 21
-65.49339630305368
 31
0.0
100
AcDbText
  0
LINE
  5
ABDB
330
1F
100
AcDbEntity
  8
AM_0
100
AcDbLine
 10
-175.4276345169044
 20
17.99999999999981
 30
0.0
 11
-175.4276345169043
 21
-18.00000000000018
 31
0.0
  0
LINE
  5
ABDE
330
1F
100
AcDbEntity
  8
AM_0
100
AcDbLine
 10
-180.0102102118602
 20
20.99999999999981
 30
0.0
 11
-180.0102102118602
 21
-21.00000000000018
 31
0.0
  0
ARC
  5
ABDF
330
1F
100
AcDbEntity
  8
AM_11
100
AcDbCircle
 10
-20.00000000000025
 20
0.0000000000001421
 30
0.0
 40
20.0
100
AcDbArc
 50
270.0
 51
90.0
  0
LINE
  5
ABE0
330
1F
100
AcDbEntity
  8
AM_11
100
AcDbLine
 10
-35.00000000000031
 20
20.00000000000008
 30
0.0
 11
-35.00000000000023
 21
-19.99999999999991
 31
0.0
  0
LINE
  5
ABE1
330
1F
100
AcDbEntity
  8
AM_0
100
AcDbLine
 10
-280.0102102118602
 20
18.6703441735603
 30
0.0
 11
-280.0102102118602
 21
-18.67034417356108
 31
0.0
  0
LINE
  5
ABE2
330
1F
100
AcDbEntity
  8
AM_0
100
AcDbLine
 10
-277.0432229137524
 20
20.99999999999964
 30
0.0
 11
-277.0432229137524
 21
-21.00000000000038
 31
0.0
  0
LINE
  5
ABE3
330
1F
100
AcDbEntity
  8
AM_0
100
AcDbLine
 10
-278.5278483020653
 20
20.60219582613846
 30
0.0
 11
-278.5278483020651
 21
-20.60219582613921
 31
0.0
  0
LINE
  5
ABE5
330
1F
100
AcDbEntity
  8
AM_0
100
AcDbLine
 10
-19.00000000000022
 20
-17.77898699999988
 30
0.0
 11
-19.00000000000025
 21
1.584774000000123
 31
0.0
  0
ELLIPSE
  5
ABE6
330
1F
100
AcDbEntity
  8
AM_0
100
AcDbEllipse
 10
-18.52302400000027
 20
-0.0841039999998827
 30
0.0
 11
3.087921554259965
 21
17.512432245351
 31
0.0
210
0.0
220
0.0
230
1.0
 40
0.9848077819480899
 41
4.401176379197219
 42
4.659207821646049
  0
ELLIPSE
  5
ABE7
330
1F
100
AcDbEntity
  8
AM_0
100
AcDbEllipse
 10
-24.66507000000027
 20
-10.57442299999988
 30
0.0
 11
0.5209457194839944
 21
2.954423049827001
 31
0.0
210
0.0
220
0.0
230
1.0
 40
0.9848076666666699
 41
3.14159300537504
 42
4.390983609132249
  0
ELLIPSE
  5
ABE8
330
1F
100
AcDbEntity
  8
AM_0
100
AcDbEllipse
 10
-24.81042800000025
 20
-10.54879199999987
 30
0.0
 11
0.3733444322969958
 21
2.117336519043
 31
0.0
210
0.0
220
0.0
230
1.0
 40
0.9848079069767399
 41
-1.39886219148817
 42
4.884322812903219
  0
ELLIPSE
  5
ABE9
330
1F
100
AcDbEntity
  8
AM_0
100
AcDbEllipse
 10
-24.66507000000027
 20
-10.57442299999988
 30
0.0
 11
0.5209457194839944
 21
2.954423049827001
 31
0.0
210
0.0
220
0.0
230
1.0
 40
0.9848076666666699
 41
-0.259117482132536
 42
0.0
  0
ELLIPSE
  5
ABEA
330
1F
100
AcDbEntity
  8
AM_0
100
AcDbEllipse
 10
-24.66507000000027
 20
-10.57442299999988
 30
0.0
 11
0.5209457194839944
 21
2.954423049827001
 31
0.0
210
0.0
220
0.0
230
1.0
 40
0.9848076666666699
 41
0.0
 42
3.14159300537504
  0
ELLIPSE
  5
ABEB
330
1F
100
AcDbEntity
  8
AM_0
100
AcDbEllipse
 10
-19.38190400000027
 20
0.0673400000001436
 30
0.0
 11
3.101524488886964
 21
17.58957814002799
 31
0.0
210
0.0
220
0.0
230
0.9999999999999998
 40
0.9848077314240201
 41
3.340466039069769
 42
4.402586781468089
  0
ELLIPSE
  5
ABEC
330
1F
100
AcDbEntity
  8
AM_0
100
AcDbEllipse
 10
-24.75088600000023
 20
-10.41713199999984
 30
0.0
 11
0.5643578627739938
 21
3.200624970646
 31
0.0
210
0.0
220
0.0
230
1.0
 40
0.9848076923076899
 41
0.143099107906049
 42
1.57079600496477
  0
ELLIPSE
  5
ABED
330
1F
100
AcDbEntity
  8
AM_0
100
AcDbEllipse
 10
-24.75088600000023
 20
-10.41713199999984
 30
0.0
 11
0.5209457194839944
 21
2.954423049827001
 31
0.0
210
0.0
220
0.0
230
1.0
 40
0.9848076666666699
 41
-0.155657634710283
 42
0.0
  0
ELLIPSE
  5
ABEE
330
1F
100
AcDbEntity
  8
AM_0
100
AcDbEllipse
 10
-24.75088600000023
 20
-10.41713199999984
 30
0.0
 11
0.5209457194839944
 21
2.954423049827001
 31
0.0
210
0.0
220
0.0
230
1.0
 40
0.9848076666666699
 41
0.0
 42
2.282303723338509
  0
ELLIPSE
  5
ABEF
330
1F
100
AcDbEntity
  8
AM_0
100
AcDbEllipse
 10
-20.02713100000025
 20
1.154208000000124
 30
0.0
 11
3.472971463224961
 21
19.696153665516
 31
0.0
210
0.0
220
0.0
230
1.0
 40
0.98480775
 41
3.316125207305309
 42
4.35788957591972
  0
ELLIPSE
  5
ABF0
330
1F
100
AcDbEntity
  8
AM_0
100
AcDbEllipse
 10
-20.11263600000026
 20
1.169285000000144
 30
0.0
 11
3.386147176643961
 21
19.203749823878
 31
0.0
210
0.0
220
0.0
230
1.0
 40
0.9848077435897398
 41
3.31612520841844
 42
4.350512860872779
  0
ELLIPSE
  5
ABF1
330
1F
100
AcDbEntity
  8
AM_0
100
AcDbEllipse
 10
-32.91388700000021
 20
-17.97492499999987
 30
0.0
 11
0.031799964799998
 21
0.9994942532290004
 31
0.0
210
0.0
220
0.0
230
1.0
 40
0.695519
 41
3.183572082299729
 42
4.683755868989999
  0
ELLIPSE
  5
ABF2
330
1F
100
AcDbEntity
  8
AM_0
100
AcDbEllipse
 10
-24.85057300000022
 20
-18.0574949999999
 30
0.0
 11
-0.103842136860002
 21
0.9945937917619996
 31
0.0
210
0.0
220
0.0
230
1.0
 40
0.962096
 41
2.23709164246456
 42
3.03079677040887
  0
ELLIPSE
  5
ABF3
330
1F
100
AcDbEntity
  8
AM_0
100
AcDbEllipse
 10
-25.96032200000027
 20
-0.0000029999998787
 30
0.0
 11
-0.0489362259670356
 21
17.99999547915599
 31
0.0
210
0.0
220
0.0
230
1.0
 40
0.17356617993871
 41
3.141122207193089
 42
3.163375505173219
  0
ELLIPSE
  5
ABF4
330
1F
100
AcDbEntity
  8
AM_0
100
AcDbEllipse
 10
-32.05903800000029
 20
0.0000080000000651
 30
0.0
 11
103.70642251235
 21
0.568005755701205
 31
0.0
210
0.0
220
0.0
230
0.9999999999999998
 40
0.1734805204668099
 41
4.680829504967349
 42
4.701571396246519
  0
ELLIPSE
  5
ABF5
330
1F
100
AcDbEntity
  8
AM_0
100
AcDbEllipse
 10
-87.62477400000026
 20
0.0
 30
0.0
 11
103.7064005126799
 21
0.5680056352082051
 31
0.0
210
0.0
220
0.0
230
1.0
 40
0.17348048977072
 41
5.315507762356268
 42
5.395839437884269
  0
ELLIPSE
  5
ABF6
330
1F
100
AcDbEntity
  8
AM_0
100
AcDbEllipse
 10
-17.55108400000025
 20
0.0000000000001421
 30
0.0
 11
3.273994062639964
 21
17.99103797536201
 31
0.0
210
0.0
220
0.0
230
1.0
 40
0.17348049608807
 41
2.25250973425861
 42
2.458143040964779
  0
ELLIPSE
  5
ABF7
330
1F
100
AcDbEntity
  8
AM_0
100
AcDbEllipse
 10
-24.25317700000025
 20
0.0000000000001421
 30
0.0
 11
3.273994062639964
 21
17.99103797536201
 31
0.0
210
0.0
220
0.0
230
1.0
 40
0.17348049608807
 41
2.17307914161838
 42
2.53847384307081
  0
ELLIPSE
  5
ABF8
330
1F
100
AcDbEntity
  8
AM_0
100
AcDbEllipse
 10
-32.05903900000029
 20
0.0000000000000853
 30
0.0
 11
103.7064005126799
 21
0.5680056352082051
 31
0.0
210
0.0
220
0.0
230
1.0
 40
0.17348048977072
 41
4.768106759471039
 42
4.83769717322637
  0
ELLIPSE
  5
ABF9
330
1F
100
AcDbEntity
  8
AM_0
100
AcDbEllipse
 10
-25.96032200000027
 20
0.0000000000001137
 30
0.0
 11
-0.0489362341230356
 21
17.999998479145
 31
0.0
210
0.0
220
0.0
230
1.0
 40
0.17356620656648
 41
3.05384154979574
 42
3.141122207264969
  0
ELLIPSE
  5
ABFA
330
1F
100
AcDbEntity
  8
AM_0
100
AcDbEllipse
 10
-33.06500300000024
 20
0.0000040000000752
 30
0.0
 11
-0.0489362449970356
 21
18.00000247913
 31
0.0
210
0.0
220
0.0
230
1.0
 40
0.17356616799636
 41
3.12037816348358
 42
3.14112220716049
  0
ELLIPSE
  5
ABFB
330
1F
100
AcDbEntity
  8
AM_0
100
AcDbEllipse
 10
-3.449948000000262
 20
-8.677326999999849
 30
0.0
 11
0.3549714060769995
 21
0.2485535283750007
 31
0.0
210
0.0
220
0.0
230
1.0
 40
0.8391009369086599
 41
-0.260353393589152
 42
0.6981304635312049
  0
ELLIPSE
  5
ABFC
330
1F
100
AcDbEntity
  8
AM_0
100
AcDbEllipse
 10
-24.11685100000022
 20
-17.81713799999988
 30
0.0
 11
0.4795041351279982
 21
0.9218597379730008
 31
0.0
210
0.0
220
0.0
230
1.0
 40
0.9591929632089001
 41
2.85403582363741
 42
3.60695068761924
  0
ELLIPSE
  5
ABFD
330
1F
100
AcDbEntity
  8
AM_0
100
AcDbEllipse
 10
-29.48434300000025
 20
-14.20952799999986
 30
0.0
 11
-171.361633310862
 21
0.3346103337106614
 31
0.0
210
0.0
220
0.0
230
0.9999999999999998
 40
0.02828548412962
 41
1.593615061050009
 42
1.633435642741289
  0
ELLIPSE
  5
ABFE
330
1F
100
AcDbEntity
  8
AM_0
100
AcDbEllipse
 10
-24.48452100000025
 20
-20.80903799999987
 30
0.0
 11
3.47193631272496
 21
19.69062847742601
 31
0.0
210
0.0
220
0.0
230
0.9999999999999998
 40
0.81093156231559
 41
1.57112530000708
 42
1.573450244034139
  0
ELLIPSE
  5
ABFF
330
1F
100
AcDbEntity
  8
AM_0
100
AcDbEllipse
 10
-24.11644600000022
 20
-17.81671099999988
 30
0.0
 11
0.9428990593659994
 21
0.446817403362002
 31
0.0
210
0.0
220
0.0
230
1.0
 40
0.95201790283781
 41
2.79840407732863
 42
3.530756389766899
  0
ELLIPSE
  5
AC00
330
1F
100
AcDbEntity
  8
AM_0
100
AcDbEllipse
 10
-36.93880200000023
 20
-17.84686699999989
 30
0.0
 11
-2.105391462761
 21
0.0691272537409958
 31
0.0
210
0.0
220
0.0
230
1.0
 40
0.47471429263157
 41
2.462961662134509
 42
3.05732268214222
  0
ELLIPSE
  5
AC01
330
1F
100
AcDbEntity
  8
AM_0
100
AcDbEllipse
 10
-36.82035800000022
 20
-17.85063499999992
 30
0.0
 11
-1.463798201031001
 21
0.7816878790519973
 31
0.0
210
0.0
220
0.0
230
1.0
 40
0.45590319625898
 41
2.43806438812422
 42
3.28610996058087
  0
ELLIPSE
  5
AC02
330
1F
100
AcDbEntity
  8
AM_0
100
AcDbEllipse
 10
-40.33502600000026
 20
-18.06593099999989
 30
0.0
 11
-0.5632019315460015
 21
0.6729727494569989
 31
0.0
210
0.0
220
0.0
230
1.0
 40
0.8435069574621099
 41
2.36791166877
 42
2.52942782980837
  0
ELLIPSE
  5
AC03
330
1F
100
AcDbEntity
  8
AM_0
100
AcDbEllipse
 10
-29.48434100000025
 20
-14.20952499999987
 30
0.0
 11
-171.3616893107548
 21
0.3346104430596613
 31
0.0
210
0.0
220
0.0
230
1.0
 40
0.0282854923929
 41
1.54386985050328
 42
1.567871629994469
  0
ELLIPSE
  5
AC04
330
1F
100
AcDbEntity
  8
AM_0
100
AcDbEllipse
 10
-40.19822300000027
 20
-18.09008599999989
 30
0.0
 11
0.1389131281259984
 21
0.7878136479670004
 31
0.0
210
0.0
220
0.0
230
1.0
 40
0.81117596100839
 41
3.141593080596209
 42
3.15460973367361
  0
ELLIPSE
  5
AC05
330
1F
100
AcDbEntity
  8
AM_0
100
AcDbEllipse
 10
-39.82199600000024
 20
-18.15639199999989
 30
0.0
 11
0.1389188585289985
 21
0.787846146621
 31
0.0
210
0.0
220
0.0
230
1.0
 40
0.8111599999999999
 41
1.573452613959379
 42
2.51213874365493
  0
SPLINE
  5
AC06
330
1F
100
AcDbEntity
  8
AM_0
100
AcDbSpline
210
0.0
220
0.0
230
1.0
 70
     8
 71
     3
 72
    11
 73
     7
 74
     5
 42
0.0000000001
 43
0.0000000001
 44
0.0000000001
 40
0.0
 40
0.0
 40
0.0
 40
0.0
 40
1.153527542028335
 40
2.387217438854155
 40
3.687352369604386
 40
5.013136692557798
 40
5.013136692557798
 40
5.013136692557798
 40
5.013136692557798
 10
-28.67990000000029
 20
-9.72433999999987
 30
0.0
 10
-28.61242861197165
 20
-9.339972796587645
 30
0.0
 10
-28.47279703122723
 20
-8.544527471289358
 30
0.0
 10
-27.6447465712159
 20
-7.5667736510423
 30
0.0
 10
-26.44575117474479
 20
-6.970521365612405
 30
0.0
 10
-25.55873777444439
 20
-7.025670892454521
 30
0.0
 10
-25.11089900000027
 20
-7.05351499999989
 30
0.0
 11
-28.67990000000029
 21
-9.72433999999987
 31
0.0
 11
-28.38491700000028
 21
-8.609166999999899
 31
0.0
 11
-27.60795800000025
 21
-7.650873999999873
 31
0.0
 11
-26.43624900000029
 21
-7.087447999999881
 31
0.0
 11
-25.11089900000027
 21
-7.05351499999989
 31
0.0
  0
SPLINE
  5
AC07
330
1F
100
AcDbEntity
  8
AM_0
100
AcDbSpline
210
0.0
220
0.0
230
1.0
 70
     8
 71
     3
 72
    11
 73
     7
 74
     5
 42
0.0000000001
 43
0.0000000001
 44
0.0000000001
 40
0.0
 40
0.0
 40
0.0
 40
0.0
 40
1.440579332022035
 40
2.823079473025297
 40
4.119336068831045
 40
5.324816541197995
 40
5.324816541197995
 40
5.324816541197995
 40
5.324816541197995
 10
-25.11089900000027
 20
-7.05351499999989
 30
0.0
 10
-24.64501786124809
 20
-7.195825224888265
 30
0.0
 10
-23.73203830472839
 20
-7.474708217135606
 30
0.0
 10
-22.73257421737903
 20
-8.477175187889965
 30
0.0
 10
-22.11481831792455
 20
-9.649830548672387
 30
0.0
 10
-22.0627240213353
 20
-10.4904799033599
 30
0.0
 10
-22.03762200000022
 20
-10.89555299999986
 30
0.0
 11
-25.11089900000027
 21
-7.05351499999989
 31
0.0
 11
-23.77263100000024
 21
-7.586719999999871
 31
0.0
 11
-22.77128800000022
 21
-8.539934999999871
 31
0.0
 11
-22.19321500000026
 21
-9.70015599999985
 31
0.0
 11
-22.03762200000022
 21
-10.89555299999986
 31
0.0
  0
SPLINE
  5
AC08
330
1F
100
AcDbEntity
  8
AM_0
100
AcDbSpline
210
0.0
220
0.0
230
1.0
 70
     8
 71
     3
 72
    11
 73
     7
 74
     5
 42
0.0000000001
 43
0.0000000001
 44
0.0000000001
 40
0.0
 40
0.0
 40
0.0
 40
0.0
 40
0.0917346360378728
 40
0.1874574385981812
 40
0.2883825748626481
 40
0.3940823990630728
 40
0.3940823990630728
 40
0.3940823990630728
 40
0.3940823990630728
 10
-3.053252000000242
 20
-8.513824999999826
 30
0.0
 10
-3.039112404424043
 20
-8.541101128365966
 30
0.0
 10
-3.010218493857548
 20
-8.596839215736597
 30
0.0
 10
-2.992272424232683
 20
-8.692425192213363
 30
0.0
 10
-2.997568657741515
 20
-8.795061305243333
 30
0.0
 10
-3.026856623884803
 20
-8.858054552595465
 30
0.0
 10
-3.041839000000294
 20
-8.89027899999985
 30
0.0
 11
-3.053252000000242
 21
-8.513824999999826
 31
0.0
 11
-3.014959000000288
 21
-8.597184999999853
 31
0.0
 11
-2.996312000000244
 21
-8.691073999999844
 31
0.0
 11
-3.003609000000295
 21
-8.791734999999846
 31
0.0
 11
-3.041839000000294
 21
-8.89027899999985
 31
0.0
  0
SPLINE
  5
AC09
330
1F
100
AcDbEntity
  8
AM_0
100
AcDbSpline
210
0.0
220
0.0
230
1.0
 70
     8
 71
     3
 72
    11
 73
     7
 74
     5
 42
0.0000000001
 43
0.0000000001
 44
0.0000000001
 40
0.0
 40
0.0
 40
0.0
 40
0.0
 40
0.1541147258149227
 40
0.3083565809191943
 40
0.462726962871127
 40
0.6172274340678501
 40
0.6172274340678501
 40
0.6172274340678501
 40
0.6172274340678501
 10
-3.053252000000242
 20
-8.513824999999826
 30
0.0
 10
-3.100691829247561
 20
-8.533535521490698
 30
0.0
 10
-3.195610620873361
 20
-8.572972823688274
 30
0.0
 10
-3.338243253786305
 20
-8.63168137285718
 30
0.0
 10
-3.481123133713672
 20
-8.690126075920478
 30
0.0
 10
-3.576544314841416
 20
-8.728790597106661
 30
0.0
 10
-3.624275000000267
 20
-8.748130999999858
 30
0.0
 11
-3.053252000000242
 21
-8.513824999999826
 31
0.0
 11
-3.195604000000258
 21
-8.57287799999986
 31
0.0
 11
-3.338225000000278
 21
-8.631612999999873
 31
0.0
 11
-3.481115000000244
 21
-8.690030999999834
 31
0.0
 11
-3.624275000000267
 21
-8.748130999999858
 31
0.0
  0
SPLINE
  5
AC0A
330
1F
100
AcDbEntity
  8
AM_0
100
AcDbSpline
210
0.0
220
0.0
230
1.0
 70
     8
 71
     3
 72
    11
 73
     7
 74
     5
 42
0.0000000001
 43
0.0000000001
 44
0.0000000001
 40
0.0
 40
0.0
 40
0.0
 40
0.0
 40
0.1873333630430109
 40
0.3788457656622548
 40
0.5740102139949536
 40
0.7691569440418641
 40
0.7691569440418641
 40
0.7691569440418641
 40
0.7691569440418641
 10
-2.09198800000027
 20
-9.057762999999852
 30
0.0
 10
-2.071057546415308
 20
-8.997609430419799
 30
0.0
 10
-2.02872972191438
 20
-8.875960383209559
 30
0.0
 10
-2.078745855959484
 20
-8.6820862449763
 30
0.0
 10
-2.202311140598591
 20
-8.520820842498647
 30
0.0
 10
-2.328300286637295
 20
-8.478823645341249
 30
0.0
 10
-2.391292000000277
 20
-8.45782599999984
 30
0.0
 11
-2.09198800000027
 21
-9.057762999999852
 31
0.0
 11
-2.047618000000255
 21
-8.875759999999843
 31
0.0
 11
-2.090307000000251
 21
-8.689065999999854
 31
0.0
 11
-2.213090000000278
 21
-8.537363999999854
 31
0.0
 11
-2.391292000000277
 21
-8.45782599999984
 31
0.0
  0
SPLINE
  5
AC0B
330
1F
100
AcDbEntity
  8
AM_0
100
AcDbSpline
210
0.0
220
0.0
230
1.0
 70
     8
 71
     3
 72
    11
 73
     7
 74
     5
 42
0.0000000001
 43
0.0000000001
 44
0.0000000001
 40
0.0
 40
0.0
 40
0.0
 40
0.0
 40
5.207967313710386
 40
10.34453806295432
 40
15.40032983653528
 40
20.39985220222785
 40
20.39985220222785
 40
20.39985220222785
 40
20.39985220222785
 10
-18.7668270000002
 20
-19.06801799999985
 30
0.0
 10
-17.02395808347288
 20
-18.93591245761704
 30
0.0
 10
-13.5621134212966
 20
-18.67351242144387
 30
0.0
 10
-8.802190806970296
 20
-16.53570852633911
 30
0.0
 10
-4.758770181452514
 20
-13.34889282386628
 30
0.0
 10
-2.977592912162745
 20
-10.48279338949852
 30
0.0
 10
-2.09198800000027
 20
-9.057762999999852
 30
0.0
 11
-18.7668270000002
 21
-19.06801799999985
 31
0.0
 11
-13.60527700000022
 21
-18.37424199999984
 31
0.0
 11
-8.888335000000267
 21
-16.34081699999987
 31
0.0
 11
-4.970083000000215
 21
-13.1457689999998
 31
0.0
 11
-2.09198800000027
 21
-9.057762999999852
 31
0.0
  0
SPLINE
  5
AC0C
330
1F
100
AcDbEntity
  8
AM_0
100
AcDbSpline
210
0.0
220
0.0
230
1.0
 70
     8
 71
     3
 72
    11
 73
     7
 74
     5
 42
0.0000000001
 43
0.0000000001
 44
0.0000000001
 40
0.0
 40
0.0
 40
0.0
 40
0.0
 40
0.0698608047476935
 40
0.1974716588824448
 40
0.3863309803495438
 40
0.6425311446313018
 40
0.6425311446313018
 40
0.6425311446313018
 40
0.6425311446313018
 10
-24.22717800000026
 20
-18.93019099999986
 30
0.0
 10
-24.24747749967062
 20
-18.94183268248869
 30
0.0
 10
-24.30485696858551
 20
-18.97473958016263
 30
0.0
 10
-24.43329971670224
 20
-18.99842899860513
 30
0.0
 10
-24.62044964229781
 20
-19.03178274748539
 30
0.0
 10
-24.7681479274869
 20
-19.04780990600946
 30
0.0
 10
-24.85317100000026
 20
-19.05703599999986
 30
0.0
 11
-24.22717800000026
 21
-18.93019099999986
 31
0.0
 11
-24.28911200000021
 21
-18.96251299999988
 31
0.0
 11
-24.41264500000022
 21
-18.99451499999986
 31
0.0
 11
-24.59884800000025
 21
-19.02607899999986
 31
0.0
 11
-24.85317100000026
 21
-19.05703599999986
 31
0.0
  0
SPLINE
  5
AC0D
330
1F
100
AcDbEntity
  8
AM_0
100
AcDbSpline
210
0.0
220
0.0
230
1.0
 70
     8
 71
     3
 72
    11
 73
     7
 74
     5
 42
0.0000000001
 43
0.0000000001
 44
0.0000000001
 40
0.0
 40
0.0
 40
0.0
 40
0.0
 40
0.2333567080887283
 40
0.4529971491577346
 40
0.6637115945524425
 40
0.8688671516719297
 40
0.8688671516719297
 40
0.8688671516719297
 40
0.8688671516719297
 10
-25.5386210000002
 20
-18.75076899999987
 30
0.0
 10
-25.56538118337474
 20
-18.67772985558439
 30
0.0
 10
-25.61732863703438
 20
-18.53594466985683
 30
0.0
 10
-25.68934551809205
 20
-18.32674097197761
 30
0.0
 10
-25.75342092795009
 20
-18.12478525665177
 30
0.0
 10
-25.79074929737714
 20
-17.99127354010665
 30
0.0
 10
-25.80916400000023
 20
-17.92540999999988
 30
0.0
 11
-25.5386210000002
 21
-18.75076899999987
 31
0.0
 11
-25.61816000000027
 21
-18.53138599999988
 31
0.0
 11
-25.68945300000024
 21
-18.3236379999999
 31
0.0
 11
-25.75280000000026
 21
-18.12267099999991
 31
0.0
 11
-25.80916400000023
 21
-17.92540999999988
 31
0.0
  0
SPLINE
  5
AC0E
330
1F
100
AcDbEntity
  8
AM_0
100
AcDbSpline
210
0.0
220
0.0
230
1.0
 70
     8
 71
     3
 72
    11
 73
     7
 74
     5
 42
0.0000000001
 43
0.0000000001
 44
0.0000000001
 40
0.0
 40
0.0
 40
0.0
 40
0.0
 40
0.0209506440234913
 40
0.0430595282105811
 40
0.0663378893642775
 40
0.0907971484086812
 40
0.0907971484086812
 40
0.0907971484086812
 40
0.0907971484086812
 10
-25.6264750000002
 20
-18.7735869999999
 30
0.0
 10
-25.61979392072581
 20
-18.7715525838934
 30
0.0
 10
-25.6060624038727
 20
-18.76737128055821
 30
0.0
 10
-25.58470731276393
 20
-18.76162097366023
 30
0.0
 10
-25.56211389856254
 20
-18.75599233067005
 30
0.0
 10
-25.54658005443121
 20
-18.752538588925
 30
0.0
 10
-25.5386210000002
 20
-18.75076899999987
 30
0.0
 11
-25.6264750000002
 21
-18.7735869999999
 31
0.0
 11
-25.60640100000023
 21
-18.76758999999987
 31
0.0
 11
-25.58506700000026
 21
-18.76178799999991
 31
0.0
 11
-25.56247400000023
 21
-18.75618099999985
 31
0.0
 11
-25.5386210000002
 21
-18.75076899999987
 31
0.0
  0
SPLINE
  5
AC0F
330
1F
100
AcDbEntity
  8
AM_0
100
AcDbSpline
210
0.0
220
0.0
230
1.0
 70
     8
 71
     3
 72
    11
 73
     7
 74
     5
 42
0.0000000001
 43
0.0000000001
 44
0.0000000001
 40
0.0
 40
0.0
 40
0.0
 40
0.0
 40
0.8739951076321709
 40
1.755519054085131
 40
2.638820574881947
 40
3.517933076051777
 40
3.517933076051777
 40
3.517933076051777
 40
3.517933076051777
 10
-28.84130200000021
 20
-18.74433599999986
 30
0.0
 10
-28.60452873334245
 20
-18.56688715737575
 30
0.0
 10
-28.12894256874505
 20
-18.21046087806178
 30
0.0
 10
-27.23086936577022
 20
-18.08793677813602
 30
0.0
 10
-26.3334784349211
 20
-18.22602545039854
 30
0.0
 10
-25.86176908187486
 20
-18.59135593050342
 30
0.0
 10
-25.6264750000002
 20
-18.7735869999999
 30
0.0
 11
-28.84130200000021
 21
-18.74433599999986
 31
0.0
 11
-28.10077500000022
 21
-18.28012999999987
 31
0.0
 11
-27.23187800000022
 21
-18.13146099999988
 31
0.0
 11
-26.36382700000024
 21
-18.29488999999989
 31
0.0
 11
-25.6264750000002
 21
-18.7735869999999
 31
0.0
  0
SPLINE
  5
AC10
330
1F
100
AcDbEntity
  8
AM_0
100
AcDbSpline
210
0.0
220
0.0
230
1.0
 70
     8
 71
     3
 72
    11
 73
     7
 74
     5
 42
0.0000000001
 43
0.0000000001
 44
0.0000000001
 40
0.0
 40
0.0
 40
0.0
 40
0.0
 40
0.0539151661037867
 40
0.1077467682069993
 40
0.1614951082000085
 40
0.2151601852986223
 40
0.2151601852986223
 40
0.2151601852986223
 40
0.2151601852986223
 10
-29.04603800000023
 20
-18.67817899999988
 30
0.0
 10
-29.02895949254691
 20
-18.68377433005866
 30
0.0
 10
-28.99482894789919
 20
-18.69495631788235
 30
0.0
 10
-28.94362199294786
 20
-18.71156074351448
 30
0.0
 10
-28.8924608612367
 20
-18.72803587093297
 30
0.0
 10
-28.8583461389235
 20
-18.73890543220439
 30
0.0
 10
-28.84130200000021
 20
-18.74433599999986
 30
0.0
 11
-29.04603800000023
 21
-18.67817899999988
 31
0.0
 11
-28.99479400000024
 21
-18.69493899999986
 31
0.0
 11
-28.94359000000025
 21
-18.71155199999987
 31
0.0
 11
-28.89242600000022
 21
-18.7280179999999
 31
0.0
 11
-28.84130200000021
 21
-18.74433599999986
 31
0.0
  0
SPLINE
  5
AC11
330
1F
100
AcDbEntity
  8
AM_0
100
AcDbSpline
210
0.0
220
0.0
230
1.0
 70
     8
 71
     3
 72
    11
 73
     7
 74
     5
 42
0.0000000001
 43
0.0000000001
 44
0.0000000001
 40
0.0
 40
0.0
 40
0.0
 40
0.0
 40
0.324779711302901
 40
0.6487112721317665
 40
0.9723623333319654
 40
1.296867071741083
 40
1.296867071741083
 40
1.296867071741083
 40
1.296867071741083
 10
-30.15100000000023
 20
-17.99991599999987
 30
0.0
 10
-30.05697622174797
 20
-18.05358439526528
 30
0.0
 10
-29.86917420494103
 20
-18.16078103272219
 30
0.0
 10
-29.59094224066095
 20
-18.32706769780746
 30
0.0
 10
-29.31571070107347
 20
-18.49815669767102
 30
0.0
 10
-29.13600779511101
 20
-18.61811889902771
 30
0.0
 10
-29.04603800000023
 20
-18.67817899999988
 30
0.0
 11
-30.15100000000023
 21
-17.99991599999987
 31
0.0
 11
-29.86947500000025
 21
-18.16185899999988
 31
0.0
 11
-29.5913490000002
 21
-18.32792399999988
 31
0.0
 11
-29.31690300000019
 21
-18.4994739999999
 31
0.0
 11
-29.04603800000023
 21
-18.67817899999988
 31
0.0
  0
SPLINE
  5
AC12
330
1F
100
AcDbEntity
  8
AM_0
100
AcDbSpline
210
0.0
220
0.0
230
1.0
 70
     8
 71
     3
 72
    11
 73
     7
 74
     5
 42
0.0000000001
 43
0.0000000001
 44
0.0000000001
 40
0.0
 40
0.0
 40
0.0
 40
0.0
 40
0.2147288650298248
 40
0.4194036543420176
 40
0.6190452744516762
 40
0.8173027569031564
 40
0.8173027569031564
 40
0.8173027569031564
 40
0.8173027569031564
 10
-25.5386210000002
 20
-18.75076899999987
 30
0.0
 10
-25.49327589184594
 20
-18.69513408753905
 30
0.0
 10
-25.40470883280713
 20
-18.58646921105946
 30
0.0
 10
-25.31094540630713
 20
-18.40129559475579
 30
0.0
 10
-25.24535283805777
 20
-18.21027231062622
 30
0.0
 10
-25.22892389603315
 20
-18.07833178012001
 30
0.0
 10
-25.22073800000026
 20
-18.01259099999987
 30
0.0
 11
-25.5386210000002
 21
-18.75076899999987
 31
0.0
 11
-25.40915000000024
 21
-18.57946299999986
 31
0.0
 11
-25.31459800000021
 21
-18.39793699999989
 31
0.0
 11
-25.25197000000019
 21
-18.20837299999988
 31
0.0
 11
-25.22073800000026
 21
-18.01259099999987
 31
0.0
  0
SPLINE
  5
AC13
330
1F
100
AcDbEntity
  8
AM_0
100
AcDbSpline
210
0.0
220
0.0
230
1.0
 70
     8
 71
     3
 72
    11
 73
     7
 74
     5
 42
0.0000000001
 43
0.0000000001
 44
0.0000000001
 40
0.0
 40
0.0
 40
0.0
 40
0.0
 40
0.7865908801315176
 40
1.58861891133485
 40
2.406131297553581
 40
3.240502644212247
 40
3.240502644212247
 40
3.240502644212247
 40
3.240502644212247
 10
-32.21991500000024
 20
-18.02564799999987
 30
0.0
 10
-31.96410586880551
 20
-18.08318299132832
 30
0.0
 10
-31.44746725301054
 20
-18.19938212050279
 30
0.0
 10
-30.66271712194903
 20
-18.36512282491662
 30
0.0
 10
-29.8608434300567
 20
-18.52672086599478
 30
0.0
 10
-29.31948150526915
 20
-18.62735061627032
 30
0.0
 10
-29.04603800000023
 20
-18.67817899999988
 30
0.0
 11
-32.21991500000024
 21
-18.02564799999987
 31
0.0
 11
-31.45212400000019
 21
-18.19659299999989
 31
0.0
 11
-30.66751800000025
 21
-18.36285299999985
 31
0.0
 11
-29.86596800000024
 21
-18.52361399999989
 31
0.0
 11
-29.04603800000023
 21
-18.67817899999988
 31
0.0
  0
SPLINE
  5
AC14
330
1F
100
AcDbEntity
  8
AM_0
100
AcDbSpline
210
0.0
220
0.0
230
1.0
 70
     8
 71
     3
 72
    11
 73
     7
 74
     5
 42
0.0000000001
 43
0.0000000001
 44
0.0000000001
 40
0.0
 40
0.0
 40
0.0
 40
0.0
 40
1.315844292074513
 40
2.632217336481326
 40
3.948937326352029
 40
5.265811493791343
 40
5.265811493791343
 40
5.265811493791343
 40
5.265811493791343
 10
-39.37321300000025
 20
-19.03552499999992
 30
0.0
 10
-38.93459861505771
 20
-19.03610579123204
 30
0.0
 10
-38.05719359454752
 20
-19.03726760707854
 30
0.0
 10
-36.74088321956442
 20
-19.03962069799087
 30
0.0
 10
-35.42423034638392
 20
-19.04238559751886
 30
0.0
 10
-34.54636857957814
 20
-19.04466715465011
 30
0.0
 10
-34.10741200000023
 20
-19.04580799999993
 30
0.0
 11
-39.37321300000025
 21
-19.03552499999992
 31
0.0
 11
-38.05737000000021
 21
-19.03736899999992
 31
0.0
 11
-36.74099900000027
 21
-19.03968899999992
 31
0.0
 11
-35.42428200000023
 21
-19.04249499999994
 31
0.0
 11
-34.10741200000023
 21
-19.04580799999993
 31
0.0
  0
SPLINE
  5
AC15
330
1F
100
AcDbEntity
  8
AM_0
100
AcDbSpline
210
0.0
220
0.0
230
1.0
 70
     8
 71
     3
 72
    11
 73
     7
 74
     5
 42
0.0000000001
 43
0.0000000001
 44
0.0000000001
 40
0.0
 40
0.0
 40
0.0
 40
0.0
 40
0.7649522901854993
 40
1.506991928727776
 40
2.226427354787031
 40
2.922629454284733
 40
2.922629454284733
 40
2.922629454284733
 40
2.922629454284733
 10
-29.9949880000002
 20
-19.05557599999985
 30
0.0
 10
-30.24989536866534
 20
-19.04931745869086
 30
0.0
 10
-30.75207485368716
 20
-19.03698783845274
 30
0.0
 10
-31.49394750583691
 20
-19.01695800668705
 30
0.0
 10
-32.21288023696618
 20
-18.99640901900774
 30
0.0
 10
-32.68453030636283
 20
-18.98170054156206
 30
0.0
 10
-32.91648500000025
 20
-18.97446699999989
 30
0.0
 11
-29.9949880000002
 21
-19.05557599999985
 31
0.0
 11
-30.75970200000023
 21
-19.03648399999985
 31
0.0
 11
-31.5014740000002
 21
-19.01655599999986
 31
0.0
 11
-32.22061200000024
 21
-18.9958709999999
 31
0.0
 11
-32.91648500000025
 21
-18.97446699999989
 31
0.0
  0
SPLINE
  5
AC16
330
1F
100
AcDbEntity
  8
AM_0
100
AcDbSpline
210
0.0
220
0.0
230
1.0
 70
     8
 71
     3
 72
    11
 73
     7
 74
     5
 42
0.0000000001
 43
0.0000000001
 44
0.0000000001
 40
0.0
 40
0.0
 40
0.0
 40
0.0
 40
0.0351223970992932
 40
0.0702515748579656
 40
0.1053754113938762
 40
0.140518655296481
 40
0.140518655296481
 40
0.140518655296481
 40
0.140518655296481
 10
-39.51302600000025
 20
-19.02321299999991
 30
0.0
 10
-39.50147001796799
 20
-19.02510317774209
 30
0.0
 10
-39.47835582292881
 20
-19.02888389814037
 30
0.0
 10
-39.44341480164905
 20
-19.03261333555037
 30
0.0
 10
-39.40835268364558
 20
-19.03504435446704
 30
0.0
 10
-39.38492838443461
 20
-19.03536475532466
 30
0.0
 10
-39.37321300000025
 20
-19.03552499999992
 30
0.0
 11
-39.51302600000025
 21
-19.02321299999991
 31
0.0
 11
-39.47831300000024
 21
-19.02855999999988
 31
0.0
 11
-39.44339400000023
 21
-19.03239699999991
 31
0.0
 11
-39.40834700000022
 21
-19.03471899999991
 31
0.0
 11
-39.37321300000025
 21
-19.03552499999992
 31
0.0
  0
SPLINE
  5
AC17
330
1F
100
AcDbEntity
  8
AM_0
100
AcDbSpline
210
0.0
220
0.0
230
1.0
 70
     8
 71
     3
 72
    11
 73
     7
 74
     5
 42
0.0000000001
 43
0.0000000001
 44
0.0000000001
 40
0.0
 40
0.0
 40
0.0
 40
0.0
 40
0.3016440150972998
 40
0.6046952660186587
 40
0.90846061194542
 40
1.212605905160645
 40
1.212605905160645
 40
1.212605905160645
 40
1.212605905160645
 10
-28.84130200000021
 20
-18.74433599999986
 30
0.0
 10
-28.92705294304311
 20
-18.79762808651964
 30
0.0
 10
-29.09895487618093
 20
-18.90446087889039
 30
0.0
 10
-29.39124491497029
 20
-18.99272696912729
 30
0.0
 10
-29.69063464475124
 20
-19.04697832684757
 30
0.0
 10
-29.89349461874014
 20
-19.05270891506668
 30
0.0
 10
-29.9949880000002
 20
-19.05557599999985
 30
0.0
 11
-28.84130200000021
 21
-18.74433599999986
 31
0.0
 11
-29.10419200000024
 21
-18.89224799999988
 31
0.0
 11
-29.39206100000024
 21
-18.98696599999988
 31
0.0
 11
-29.69127600000024
 21
-19.0393469999999
 31
0.0
 11
-29.9949880000002
 21
-19.05557599999985
 31
0.0
  0
SPLINE
  5
AC18
330
1F
100
AcDbEntity
  8
AM_0
100
AcDbSpline
210
0.0
220
0.0
230
1.0
 70
     8
 71
     3
 72
    11
 73
     7
 74
     5
 42
0.0000000001
 43
0.0000000001
 44
0.0000000001
 40
0.0
 40
0.0
 40
0.0
 40
0.0
 40
0.1269617948833672
 40
0.2539007539778385
 40
0.3808388641930354
 40
0.5078398437050229
 40
0.5078398437050229
 40
0.5078398437050229
 40
0.5078398437050229
 10
-24.89090800000025
 20
-19.06112199999989
 30
0.0
 10
-24.93325938830901
 20
-19.05992156466727
 30
0.0
 10
-25.01795454745891
 20
-19.05752090991647
 30
0.0
 10
-25.14342053829242
 20
-19.03614764934634
 30
0.0
 10
-25.26631412407053
 20
-19.00286870745509
 30
0.0
 10
-25.34399229759911
 20
-18.96897436629665
 30
0.0
 10
-25.38284100000026
 20
-18.95202299999988
 30
0.0
 11
-24.89090800000025
 21
-19.06112199999989
 31
0.0
 11
-25.01770000000027
 21
-19.05455799999987
 31
0.0
 11
-25.14299000000022
 21
-19.03416399999986
 31
0.0
 11
-25.26523000000025
 21
-18.9999489999999
 31
0.0
 11
-25.38284100000026
 21
-18.95202299999988
 31
0.0
  0
SPLINE
  5
AC19
330
1F
100
AcDbEntity
  8
AM_0
100
AcDbSpline
210
0.0
220
0.0
230
1.0
 70
     8
 71
     3
 72
    11
 73
     7
 74
     5
 42
0.0000000001
 43
0.0000000001
 44
0.0000000001
 40
0.0
 40
0.0
 40
0.0
 40
0.0
 40
0.0759324396354335
 40
0.1517842170569739
 40
0.2275348119589509
 40
0.30317716184967
 40
0.30317716184967
 40
0.30317716184967
 40
0.30317716184967
 10
-25.38284100000026
 20
-18.95202299999988
 30
0.0
 10
-25.40510283389739
 20
-18.93994864502401
 30
0.0
 10
-25.44960285318496
 20
-18.91581276152969
 30
0.0
 10
-25.51238500195011
 20
-18.87307887448627
 30
0.0
 10
-25.57203978670147
 20
-18.82622673536507
 30
0.0
 10
-25.60833858003757
 20
-18.79112521266503
 30
0.0
 10
-25.6264750000002
 20
-18.7735869999999
 30
0.0
 11
-25.38284100000026
 21
-18.95202299999988
 31
0.0
 11
-25.4489710000002
 21
-18.91470599999991
 31
0.0
 11
-25.51190400000024
 21
-18.87236299999989
 31
0.0
 11
-25.57120600000024
 21
-18.82523099999986
 31
0.0
 11
-25.6264750000002
 21
-18.7735869999999
 31
0.0
  0
LINE
  5
AC1A
330
1F
100
AcDbEntity
  8
AM_0
100
AcDbLine
 10
-277.0432229137524
 20
-21.00000000000038
 30
0.0
 11
-180.0102102118602
 21
-21.00000000000018
 31
0.0
  0
LINE
  5
AC1C
330
1F
100
AcDbEntity
  8
AM_0
100
AcDbLine
 10
-278.5278483020653
 20
-20.60219582613921
 30
0.0
 11
-277.0432229137524
 21
-21.00000000000038
 31
0.0
  0
ARC
  5
AC1D
330
1F
100
AcDbEntity
  8
AM_0
100
AcDbCircle
 10
-278.0102102118602
 20
-18.67034417356108
 30
0.0
 40
2.0
100
AcDbArc
 50
180.0
 51
255.0000000000004
  0
LINE
  5
AC1E
330
1F
100
AcDbEntity
  8
AM_0
100
AcDbLine
 10
-175.4276345169043
 20
-18.00000000000018
 30
0.0
 11
-35.23292500000019
 21
-17.99999999999991
 31
0.0
  0
ARC
  5
AC1F
330
1F
100
AcDbEntity
  8
AM_0
100
AcDbCircle
 10
-175.4276345169043
 20
-23.00000000000018
 30
0.0
 40
4.999999999999995
100
AcDbArc
 50
90.0
 51
156.4218215217987
  0
LINE
  5
AC20
330
1F
100
AcDbEntity
  8
AM_0
100
AcDbLine
 10
-40.32880700000027
 20
-18.87929999999991
 30
0.0
 11
-39.83638800000022
 21
-18.37365799999989
 31
0.0
  0
LINE
  5
AC21
330
1F
100
AcDbEntity
  8
AM_0
100
AcDbLine
 10
-35.93466000000023
 20
-18.87843899999992
 30
0.0
 11
-40.20029600000026
 21
-18.88968699999989
 31
0.0
  0
LINE
  5
AC22
330
1F
100
AcDbEntity
  8
AM_0
100
AcDbLine
 10
-40.20029600000026
 20
-18.88968699999989
 30
0.0
 11
-39.37321300000025
 21
-19.03552499999992
 31
0.0
  0
LINE
  5
AC23
330
1F
100
AcDbEntity
  8
AM_0
100
AcDbLine
 10
-40.01049900000026
 20
-18.93549499999991
 30
0.0
 11
-39.51302000000026
 21
-19.02321399999991
 31
0.0
  0
LINE
  5
AC24
330
1F
100
AcDbEntity
  8
AM_0
100
AcDbLine
 10
-40.33713600000027
 20
-18.87789999999992
 30
0.0
 11
-40.18233900000024
 21
-17.99999999999991
 31
0.0
  0
LINE
  5
AC25
330
1F
100
AcDbEntity
  8
AM_0
100
AcDbLine
 10
-40.33713600000027
 20
-18.87789999999992
 30
0.0
 11
-40.01049900000026
 21
-18.93549499999991
 31
0.0
  0
LINE
  5
AC26
330
1F
100
AcDbEntity
  8
AM_11
100
AcDbLine
 10
-35.00000000000023
 20
-19.99999999999991
 30
0.0
 11
-20.00000000000022
 21
-19.99999999999985
 31
0.0
  0
LINE
  5
AC27
330
1F
100
AcDbEntity
  8
AM_0
100
AcDbLine
 10
-28.67990000000029
 20
-9.72433999999987
 30
0.0
 11
-27.90288600000028
 21
-9.861348999999904
 31
0.0
  0
LINE
  5
AC28
330
1F
100
AcDbEntity
  8
AM_0
100
AcDbLine
 10
-27.90288600000028
 20
-9.861348999999904
 30
0.0
 11
-28.71987500000022
 21
-14.49471899999986
 31
0.0
  0
LINE
  5
AC29
330
1F
100
AcDbEntity
  8
AM_0
100
AcDbLine
 10
-33.01753900000022
 20
-17.99999999999988
 30
0.0
 11
-25.9128580000002
 21
-17.99999999999988
 31
0.0
  0
LINE
  5
AC2A
330
1F
100
AcDbEntity
  8
AM_0
100
AcDbLine
 10
-32.91648500000025
 20
-18.97446699999989
 30
0.0
 11
-35.93466000000023
 21
-18.87843899999992
 31
0.0
  0
LINE
  5
AC2B
330
1F
100
AcDbEntity
  8
AM_0
100
AcDbLine
 10
-35.61462100000023
 20
-17.99999999999991
 30
0.0
 11
-35.6468270000002
 21
-18.36261099999993
 31
0.0
  0
LINE
  5
AC2C
330
1F
100
AcDbEntity
  8
AM_0
100
AcDbLine
 10
-35.32049600000021
 20
-18.52806599999993
 30
0.0
 11
-35.6468270000002
 21
-18.36261099999993
 31
0.0
  0
LINE
  5
AC2D
330
1F
100
AcDbEntity
  8
AM_0
100
AcDbLine
 10
-39.83638800000022
 20
-18.37365799999989
 30
0.0
 11
-39.77050200000025
 21
-17.99999999999991
 31
0.0
  0
LINE
  5
AC2E
330
1F
100
AcDbEntity
  8
AM_0
100
AcDbLine
 10
-35.6468270000002
 20
-18.36261099999993
 30
0.0
 11
-39.83638800000022
 21
-18.37365799999989
 31
0.0
  0
LINE
  5
AC2F
330
1F
100
AcDbEntity
  8
AM_0
100
AcDbLine
 10
-33.14117800000025
 20
-17.99633699999986
 30
0.0
 11
-33.0347940000002
 21
-17.9997219999999
 31
0.0
  0
LINE
  5
AC30
330
1F
100
AcDbEntity
  8
AM_0
100
AcDbLine
 10
-33.0347940000002
 20
-17.9997219999999
 30
0.0
 11
-32.21991500000024
 21
-18.02564799999987
 31
0.0
  0
LINE
  5
AC31
330
1F
100
AcDbEntity
  8
AM_0
100
AcDbLine
 10
-32.21991500000024
 20
-18.02564799999987
 30
0.0
 11
-32.27699000000024
 21
-18.0002179999999
 31
0.0
  0
LINE
  5
AC32
330
1F
100
AcDbEntity
  8
AM_0
100
AcDbLine
 10
-20.16329700000022
 20
-18.32178199999984
 30
0.0
 11
-24.60817700000024
 21
-18.33350299999989
 31
0.0
  0
LINE
  5
AC33
330
1F
100
AcDbEntity
  8
AM_0
100
AcDbLine
 10
-20.07909100000023
 20
-18.83662999999987
 30
0.0
 11
-24.14856700000024
 21
-18.84736099999986
 31
0.0
  0
LINE
  5
AC34
330
1F
100
AcDbEntity
  8
AM_0
100
AcDbLine
 10
-24.60817700000024
 20
-18.33350299999989
 30
0.0
 11
-24.64393100000023
 21
-17.9061309999999
 31
0.0
  0
LINE
  5
AC35
330
1F
100
AcDbEntity
  8
AM_0
100
AcDbLine
 10
-24.14856700000024
 20
-18.84736099999986
 30
0.0
 11
-24.22717800000026
 21
-18.93019099999986
 31
0.0
  0
LINE
  5
AC36
330
1F
100
AcDbEntity
  8
AM_0
100
AcDbLine
 10
-25.84317400000026
 20
-17.92620399999987
 30
0.0
 11
-25.84335500000026
 21
-17.99554399999988
 31
0.0
  0
LINE
  5
AC37
330
1F
100
AcDbEntity
  8
AM_0
100
AcDbLine
 10
-24.89090800000025
 20
-19.06112199999989
 30
0.0
 11
-25.58388700000023
 21
-19.06294899999989
 31
0.0
  0
LINE
  5
AC38
330
1F
100
AcDbEntity
  8
AM_0
100
AcDbLine
 10
-25.14749700000021
 20
-17.93541899999991
 30
0.0
 11
-25.14921500000019
 21
-17.91488399999991
 31
0.0
  0
LINE
  5
AC39
330
1F
100
AcDbEntity
  8
AM_0
100
AcDbLine
 10
-25.22073800000026
 20
-18.01259099999987
 30
0.0
 11
-25.14749700000021
 21
-17.93541899999991
 31
0.0
  0
LINE
  5
AC3A
330
1F
100
AcDbEntity
  8
AM_0
100
AcDbLine
 10
-24.85317100000026
 20
-19.05703599999986
 30
0.0
 11
-24.89090800000025
 21
-19.06112199999989
 31
0.0
  0
LINE
  5
AC3B
330
1F
100
AcDbEntity
  8
AM_0
100
AcDbLine
 10
-25.22083900000024
 20
-17.91653899999988
 30
0.0
 11
-25.22073800000026
 21
-18.01259099999987
 31
0.0
  0
LINE
  5
AC3C
330
1F
100
AcDbEntity
  8
AM_0
100
AcDbLine
 10
-25.38284100000026
 20
-18.95202299999988
 30
0.0
 11
-25.58388700000023
 21
-19.06294899999989
 31
0.0
  0
LINE
  5
AC3D
330
1F
100
AcDbEntity
  8
AM_0
100
AcDbLine
 10
-24.82744600000023
 20
-18.57070299999986
 30
0.0
 11
-24.60817700000024
 21
-18.33350299999989
 31
0.0
  0
ARC
  5
AC3E
330
1F
100
AcDbEntity
  8
AM_0
100
AcDbCircle
 10
-24.22458000000023
 20
-17.9306489999999
 30
0.0
 40
0.999522512166685
100
AcDbArc
 50
184.7024511305131
 51
269.851077693616
  0
LINE
  5
AC3F
330
1F
100
AcDbEntity
  8
AM_0
100
AcDbLine
 10
-20.07909100000023
 20
-18.83662999999987
 30
0.0
 11
-18.7668270000002
 21
-19.06801799999985
 31
0.0
  0
LINE
  5
AC40
330
1F
100
AcDbEntity
  8
AM_0
100
AcDbLine
 10
-20.07909100000023
 20
-18.83662999999987
 30
0.0
 11
-20.16329700000022
 21
-18.32178199999984
 31
0.0
  0
LINE
  5
AC41
330
1F
100
AcDbEntity
  8
AM_0
100
AcDbLine
 10
-23.58431700000025
 20
-7.718708999999847
 30
0.0
 11
-24.14412500000023
 21
-7.619999999999862
 31
0.0
  0
LINE
  5
AC42
330
1F
100
AcDbEntity
  8
AM_0
100
AcDbLine
 10
-3.687814000000258
 20
-8.229214999999868
 30
0.0
 11
-3.312085000000223
 21
-8.295465999999834
 31
0.0
  0
LINE
  5
AC43
330
1F
100
AcDbEntity
  8
AM_0
100
AcDbLine
 10
-4.079745000000258
 20
-8.667819999999863
 30
0.0
 11
-3.624275000000267
 21
-8.748130999999858
 31
0.0
  0
LINE
  5
AC44
330
1F
100
AcDbEntity
  8
AM_0
100
AcDbLine
 10
-3.829759000000279
 20
-8.20418599999985
 30
0.0
 11
-3.687814000000258
 21
-8.229214999999868
 31
0.0
  0
LINE
  5
AC45
330
1F
100
AcDbEntity
  8
AM_0
100
AcDbLine
 10
-2.09198800000027
 20
-9.057762999999852
 30
0.0
 11
-3.041839000000294
 21
-8.89027899999985
 31
0.0
  0
LINE
  5
AC46
330
1F
100
AcDbEntity
  8
AM_0
100
AcDbLine
 10
-3.312085000000223
 20
-8.295465999999834
 30
0.0
 11
-2.391292000000277
 21
-8.45782599999984
 31
0.0
  0
ELLIPSE
  5
AC47
330
1F
100
AcDbEntity
  8
AM_0
100
AcDbEllipse
 10
-35.6923340000003
 20
13.1885940000001
 30
0.0
 11
0.0058186453809961
 21
1.999991535824
 31
0.0
210
0.0
220
0.0
230
1.0
 40
0.9848079999999999
 41
0.0
 42
1.570796004964669
  0
ELLIPSE
  5
AC48
330
1F
100
AcDbEntity
  8
AM_0
100
AcDbEllipse
 10
-35.69524300000029
 20
12.18859800000009
 30
0.0
 11
0.0058186453809961
 21
1.999991535824
 31
0.0
210
0.0
220
0.0
230
1.0
 40
0.9848079999999999
 41
1.570796004964669
 42
3.141593005269819
  0
ELLIPSE
  5
AC49
330
1F
100
AcDbEntity
  8
AM_0
100
AcDbEllipse
 10
-16.31928300000026
 20
9.079981000000117
 30
0.0
 11
0.0135283505119908
 21
4.64998032079
 31
0.0
210
0.0
220
0.0
230
1.0
 40
0.9848077419354799
 41
0.0
 42
0.654089040995313
  0
ELLIPSE
  5
AC4A
330
1F
100
AcDbEntity
  8
AM_0
100
AcDbEllipse
 10
-16.00475100000028
 20
9.079066000000153
 30
0.0
 11
0.0135283505119908
 21
4.64998032079
 31
0.0
210
0.0
220
0.0
230
1.0
 40
0.9848077419354799
 41
4.71238899970199
 42
6.283184995035929
  0
ELLIPSE
  5
AC4B
330
1F
100
AcDbEntity
  8
AM_0
100
AcDbEllipse
 10
-45.35343200000028
 20
6.348680000000086
 30
0.0
 11
-137.2231779806901
 21
78.86706380304772
 31
0.0
210
0.0
220
0.0
230
1.0
 40
0.08708642832324
 41
-1.652648740262019
 42
-1.61149061906917
  0
ELLIPSE
  5
AC4C
330
1F
100
AcDbEntity
  8
AM_0
100
AcDbEllipse
 10
-18.07535300000031
 20
21.44095700000016
 30
0.0
 11
0.0581864538139605
 21
19.999915358236
 31
0.0
210
0.0
220
0.0
230
1.0
 40
0.9848077499999998
 41
1.92529641611084
 42
2.234341306040149
  0
ELLIPSE
  5
AC4D
330
1F
100
AcDbEntity
  8
AM_0
100
AcDbEllipse
 10
-22.85413800000026
 20
11.60001900000011
 30
0.0
 11
0.0053822469779963
 21
1.849992170636999
 31
0.0
210
0.0
220
0.0
230
1.0
 40
0.9848075675675699
 41
1.045452452464689
 42
2.52833751355258
  0
ELLIPSE
  5
AC4E
330
1F
100
AcDbEntity
  8
AM_0
100
AcDbEllipse
 10
-20.94665200000031
 20
12.87124600000012
 30
0.0
 11
0.0009109758489994
 21
0.3131216748359999
 31
0.0
210
0.0
220
0.0
230
1.0
 40
0.9848078869964799
 41
3.40164682144249
 42
6.023130788274059
  0
ELLIPSE
  5
AC4F
330
1F
100
AcDbEntity
  8
AM_0
100
AcDbEllipse
 10
-21.89909100000028
 20
12.61688300000011
 30
0.0
 11
0.0009109758489994
 21
0.3131216748359999
 31
0.0
210
0.0
220
0.0
230
1.0
 40
0.9848078869964799
 41
0.260053816799883
 42
0.519185070161899
  0
ELLIPSE
  5
AC50
330
1F
100
AcDbEntity
  8
AM_0
100
AcDbEllipse
 10
-21.64867700000024
 20
11.64977400000012
 30
0.0
 11
0.0009109758489994
 21
0.3131216748359999
 31
0.0
210
0.0
220
0.0
230
1.0
 40
0.9848078869964799
 41
1.830850643191249
 42
2.62240793257078
  0
ELLIPSE
  5
AC51
330
1F
100
AcDbEntity
  8
AM_0
100
AcDbEllipse
 10
-21.17737900000031
 20
12.18923600000013
 30
0.0
 11
0.0008346177659994
 21
0.286875785911
 31
0.0
210
0.0
220
0.0
230
1.0
 40
0.9848053346904798
 41
0.26005446079941
 42
1.83084999919205
  0
ELLIPSE
  5
AC52
330
1F
100
AcDbEntity
  8
AM_0
100
AcDbEllipse
 10
-9.939041000000315
 20
6.594352000000156
 30
0.0
 11
0.0009109758489994
 21
0.3131216748359999
 31
0.0
210
0.0
220
0.0
230
1.0
 40
0.9848078869964799
 41
-1.31074235224732
 42
0.519185070161899
  0
ELLIPSE
  5
AC53
330
1F
100
AcDbEntity
  8
AM_0
100
AcDbEllipse
 10
-10.33521500000029
 20
5.764758000000171
 30
0.0
 11
0.0008346177659994
 21
0.286875785911
 31
0.0
210
0.0
220
0.0
230
1.0
 40
0.9848053346904798
 41
3.40164746544281
 42
3.660779189364069
  0
ELLIPSE
  5
AC54
330
1F
100
AcDbEntity
  8
AM_0
100
AcDbEllipse
 10
-28.54579000000026
 20
3.438751000000138
 30
0.0
 11
0.0237109799289839
 21
8.149965508480999
 31
0.0
210
0.0
220
0.0
230
1.0
 40
0.9848077300613498
 41
-1.2395199389943
 42
-0.6132554106191521
  0
ELLIPSE
  5
AC55
330
1F
100
AcDbEntity
  8
AM_0
100
AcDbEllipse
 10
-22.02145600000028
 20
13.04882600000016
 30
0.0
 11
0.0053822469779963
 21
1.849992170636999
 31
0.0
210
0.0
220
0.0
230
1.0
 40
0.9848075675675699
 41
0.0
 42
1.045452452464689
  0
ELLIPSE
  5
AC56
330
1F
100
AcDbEntity
  8
AM_0
100
AcDbEllipse
 10
-19.11061600000024
 20
-0.9596999999998558
 30
0.0
 11
0.0461127646479688
 21
15.84993292140199
 31
0.0
210
0.0
220
0.0
230
1.0
 40
0.9848077602523698
 41
-0.4701679265157921
 42
0.0
  0
ELLIPSE
  5
AC57
330
1F
100
AcDbEntity
  8
AM_0
100
AcDbEllipse
 10
-12.82819100000028
 20
11.50296900000014
 30
0.0
 11
0.0053822469779963
 21
1.849992170636999
 31
0.0
210
0.0
220
0.0
230
1.0
 40
0.9848075675675699
 41
-1.40305238534133
 42
-0.470168005537485
  0
ELLIPSE
  5
AC58
330
1F
100
AcDbEntity
  8
AM_0
100
AcDbEllipse
 10
-3.113526000000319
 20
13.14430300000015
 30
0.0
 11
0.0237109799289839
 21
8.149965508480999
 31
0.0
210
0.0
220
0.0
230
1.0
 40
0.9848077300613498
 41
1.738540636853129
 42
2.35997353293491
  0
ELLIPSE
  5
AC59
330
1F
100
AcDbEntity
  8
AM_0
100
AcDbEllipse
 10
-23.22222900000031
 20
13.40090200000011
 30
0.0
 11
0.0009109758489994
 21
0.3131216748359999
 31
0.0
210
0.0
220
0.0
230
1.0
 40
0.9848078869964799
 41
0.260053816799883
 42
0.519185070161899
  0
ELLIPSE
  5
AC5A
330
1F
100
AcDbEntity
  8
AM_0
100
AcDbEllipse
 10
-22.97181500000027
 20
12.43379400000012
 30
0.0
 11
0.0009109758489994
 21
0.3131216748359999
 31
0.0
210
0.0
220
0.0
230
1.0
 40
0.9848078869964799
 41
1.830850643191249
 42
2.62240793257078
  0
ELLIPSE
  5
AC5B
330
1F
100
AcDbEntity
  8
AM_0
100
AcDbEllipse
 10
-22.50051700000028
 20
12.97325500000013
 30
0.0
 11
0.0008346177659994
 21
0.286875785911
 31
0.0
210
0.0
220
0.0
230
1.0
 40
0.9848053346904798
 41
0.26005446079941
 42
1.83084999919205
  0
ELLIPSE
  5
AC5C
330
1F
100
AcDbEntity
  8
AM_0
100
AcDbEllipse
 10
-22.26979100000028
 20
13.65526600000012
 30
0.0
 11
0.0009109758489994
 21
0.3131216748359999
 31
0.0
210
0.0
220
0.0
230
1.0
 40
0.9848078869964799
 41
3.40164682144249
 42
6.023130788274059
  0
ELLIPSE
  5
AC5D
330
1F
100
AcDbEntity
  8
AM_0
100
AcDbEllipse
 10
-23.22222900000031
 20
13.40090200000011
 30
0.0
 11
0.0009109758489994
 21
0.3131216748359999
 31
0.0
210
0.0
220
0.0
230
1.0
 40
0.9848078869964799
 41
0.519185070161899
 42
1.830850643191249
  0
ELLIPSE
  5
AC5E
330
1F
100
AcDbEntity
  8
AM_0
100
AcDbEllipse
 10
-23.27735000000029
 20
13.40106300000016
 30
0.0
 11
0.0008301810479994
 21
0.2853507923650001
 31
0.0
210
0.0
220
0.0
230
0.9999999999999998
 40
0.9848082368443201
 41
0.260053728526292
 42
0.435917455755859
  0
ELLIPSE
  5
AC5F
330
1F
100
AcDbEntity
  8
AM_0
100
AcDbEllipse
 10
-23.02693600000031
 20
12.43395400000011
 30
0.0
 11
0.0008301810479994
 21
0.2853507923650001
 31
0.0
210
0.0
220
0.0
230
0.9999999999999998
 40
0.9848082368443201
 41
2.70567453772962
 42
4.972442740071099
  0
ELLIPSE
  5
AC60
330
1F
100
AcDbEntity
  8
AM_0
100
AcDbEllipse
 10
-22.97181500000027
 20
12.43379400000012
 30
0.0
 11
0.0009109758489994
 21
0.3131216748359999
 31
0.0
210
0.0
220
0.0
230
1.0
 40
0.9848078869964799
 41
2.62240793257078
 42
4.972442651797519
  0
ELLIPSE
  5
AC61
330
1F
100
AcDbEntity
  8
AM_0
100
AcDbEllipse
 10
-22.55563900000026
 20
12.97341600000012
 30
0.0
 11
0.0009154125659994
 21
0.3146466683819998
 31
0.0
210
0.0
220
0.0
230
1.0
 40
0.9848084208385202
 41
0.260053682100903
 42
1.830850777890529
  0
ELLIPSE
  5
AC62
330
1F
100
AcDbEntity
  8
AM_0
100
AcDbEllipse
 10
-22.32491200000026
 20
13.65542600000011
 30
0.0
 11
0.0008301810479994
 21
0.2853507923650001
 31
0.0
210
0.0
220
0.0
230
0.9999999999999998
 40
0.9848082368443201
 41
3.401646733168789
 42
6.02313087654787
  0
ELLIPSE
  5
AC63
330
1F
100
AcDbEntity
  8
AM_0
100
AcDbEllipse
 10
-21.89909100000028
 20
12.61688300000011
 30
0.0
 11
0.0009109758489994
 21
0.3131216748359999
 31
0.0
210
0.0
220
0.0
230
1.0
 40
0.9848078869964799
 41
0.519185070161899
 42
1.830850643191249
  0
ELLIPSE
  5
AC64
330
1F
100
AcDbEntity
  8
AM_0
100
AcDbEllipse
 10
-21.95421200000032
 20
12.61704300000016
 30
0.0
 11
0.0008301810479994
 21
0.2853507923650001
 31
0.0
210
0.0
220
0.0
230
0.9999999999999998
 40
0.9848082368443201
 41
0.260053728526292
 42
0.435917455755859
  0
ELLIPSE
  5
AC65
330
1F
100
AcDbEntity
  8
AM_0
100
AcDbEllipse
 10
-21.70379800000028
 20
11.64993400000011
 30
0.0
 11
0.0008301810479994
 21
0.2853507923650001
 31
0.0
210
0.0
220
0.0
230
0.9999999999999998
 40
0.9848082368443201
 41
2.70567453772962
 42
4.972442740071099
  0
ELLIPSE
  5
AC66
330
1F
100
AcDbEntity
  8
AM_0
100
AcDbEllipse
 10
-21.64867700000024
 20
11.64977400000012
 30
0.0
 11
0.0009109758489994
 21
0.3131216748359999
 31
0.0
210
0.0
220
0.0
230
1.0
 40
0.9848078869964799
 41
2.62240793257078
 42
4.972442651797519
  0
ELLIPSE
  5
AC67
330
1F
100
AcDbEntity
  8
AM_0
100
AcDbEllipse
 10
-23.29588700000027
 20
13.48433400000013
 30
0.0
 11
-0.0516044688100004
 21
0.1932277899239999
 31
0.0
210
0.0
220
0.0
230
1.0
 40
0.16781
 41
0.041958058580473
 42
1.525487778894409
  0
ELLIPSE
  5
AC68
330
1F
100
AcDbEntity
  8
AM_0
100
AcDbEllipse
 10
-23.30905300000029
 20
13.40115500000016
 30
0.0
 11
0.0002505305049998
 21
0.086112635562
 31
0.0
210
0.0
220
0.0
230
1.0
 40
0.9847990431177599
 41
0.260056048306478
 42
1.830848411698159
  0
ELLIPSE
  5
AC69
330
1F
100
AcDbEntity
  8
AM_0
100
AcDbEllipse
 10
-23.35634100000027
 20
13.37915000000012
 30
0.0
 11
0.193614834539
 21
0.0501327821540004
 31
0.0
210
0.0
220
0.0
230
0.9999999999999998
 40
0.04465
 41
1.73957077086481
 42
2.613924509923749
  0
ELLIPSE
  5
AC6A
330
1F
100
AcDbEntity
  8
AM_0
100
AcDbEllipse
 10
-23.10592600000029
 20
12.41204100000013
 30
0.0
 11
0.193614834539
 21
0.0501327821540004
 31
0.0
210
0.0
220
0.0
230
0.9999999999999998
 40
0.04465
 41
1.73957077086481
 42
2.6198503015092
  0
ELLIPSE
  5
AC6B
330
1F
100
AcDbEntity
  8
AM_0
100
AcDbEllipse
 10
-22.3434490000003
 20
13.73869800000014
 30
0.0
 11
-0.0516044688100004
 21
0.1932277899239999
 31
0.0
210
0.0
220
0.0
230
1.0
 40
0.16781
 41
0.041958058580473
 42
1.525487778894409
  0
ELLIPSE
  5
AC6C
330
1F
100
AcDbEntity
  8
AM_0
100
AcDbEllipse
 10
-23.05863900000031
 20
12.43404600000016
 30
0.0
 11
0.0002505305049998
 21
0.086112635562
 31
0.0
210
0.0
220
0.0
230
1.0
 40
0.9847990431177599
 41
1.830848411698159
 42
4.97244042030945
  0
ELLIPSE
  5
AC6D
330
1F
100
AcDbEntity
  8
AM_0
100
AcDbEllipse
 10
-22.94189200000027
 20
12.45584900000014
 30
0.0
 11
0.193614834539
 21
0.0501327821540004
 31
0.0
210
0.0
220
0.0
230
0.9999999999999998
 40
0.04465
 41
0.256056746699429
 42
1.73957077086481
  0
ELLIPSE
  5
AC6E
330
1F
100
AcDbEntity
  8
AM_0
100
AcDbEllipse
 10
-21.2325000000003
 20
12.18939600000013
 30
0.0
 11
0.0009154125659994
 21
0.3146466683819998
 31
0.0
210
0.0
220
0.0
230
1.0
 40
0.9848084208385202
 41
0.260053682100903
 42
1.830850777890529
  0
ELLIPSE
  5
AC6F
330
1F
100
AcDbEntity
  8
AM_0
100
AcDbEllipse
 10
-22.58734100000026
 20
12.97350800000012
 30
0.0
 11
0.001495063109999
 21
0.5138848251849995
 31
0.0
210
0.0
220
0.0
230
0.9999999999999998
 40
0.9848079441589302
 41
0.260053802376654
 42
1.83085065761451
  0
ELLIPSE
  5
AC70
330
1F
100
AcDbEntity
  8
AM_0
100
AcDbEllipse
 10
-22.68129600000031
 20
13.47039200000014
 30
0.0
 11
-0.0516044688100004
 21
0.1932277899239999
 31
0.0
210
0.0
220
0.0
230
1.0
 40
0.16781
 41
1.525487778894409
 42
3.00901933219698
  0
ELLIPSE
  5
AC71
330
1F
100
AcDbEntity
  8
AM_0
100
AcDbEllipse
 10
-23.04205800000028
 20
12.84269300000014
 30
0.0
 11
0.193614834539
 21
0.0501327821540004
 31
0.0
210
0.0
220
0.0
230
0.9999999999999998
 40
0.04465
 41
0.256056746699429
 42
1.73957077086481
  0
ELLIPSE
  5
AC72
330
1F
100
AcDbEntity
  8
AM_0
100
AcDbEllipse
 10
-21.00177400000029
 20
12.87140600000012
 30
0.0
 11
0.0008301810479994
 21
0.2853507923650001
 31
0.0
210
0.0
220
0.0
230
0.9999999999999998
 40
0.9848082368443201
 41
3.401646733168789
 42
6.02313087654787
  0
ELLIPSE
  5
AC73
330
1F
100
AcDbEntity
  8
AM_0
100
AcDbEllipse
 10
-15.97573000000028
 20
9.07898100000014
 30
0.0
 11
0.0141668333789904
 21
4.869440392011
 31
0.0
210
0.0
220
0.0
230
0.9999999999999998
 40
0.98480776414474
 41
0.478382522408074
 42
0.5191851239015031
  0
ELLIPSE
  5
AC74
330
1F
100
AcDbEntity
  8
AM_0
100
AcDbEllipse
 10
-22.30032100000028
 20
13.57213700000014
 30
0.0
 11
-0.0516044688100004
 21
0.1932277899239999
 31
0.0
210
0.0
220
0.0
230
1.0
 40
0.16781
 41
1.525487778894409
 42
3.00901933219698
  0
ELLIPSE
  5
AC75
330
1F
100
AcDbEntity
  8
AM_0
100
AcDbEllipse
 10
-22.35661400000026
 20
13.65551800000011
 30
0.0
 11
0.0002505305049998
 21
0.086112635562
 31
0.0
210
0.0
220
0.0
230
1.0
 40
0.9847990431177599
 41
3.401649052951819
 42
6.023128556762
  0
ELLIPSE
  5
AC76
330
1F
100
AcDbEntity
  8
AM_0
100
AcDbEllipse
 10
-21.97274900000024
 20
12.70031500000013
 30
0.0
 11
-0.0516044688100004
 21
0.1932277899239999
 31
0.0
210
0.0
220
0.0
230
1.0
 40
0.16781
 41
0.041958058580473
 42
1.525487778894409
  0
ELLIPSE
  5
AC77
330
1F
100
AcDbEntity
  8
AM_0
100
AcDbEllipse
 10
-21.98591500000032
 20
12.61713500000016
 30
0.0
 11
0.0002505305049998
 21
0.086112635562
 31
0.0
210
0.0
220
0.0
230
1.0
 40
0.9847990431177599
 41
0.260056048306478
 42
1.830848411698159
  0
ELLIPSE
  5
AC78
330
1F
100
AcDbEntity
  8
AM_0
100
AcDbEllipse
 10
-22.0332020000003
 20
12.59513000000012
 30
0.0
 11
0.193614834539
 21
0.0501327821540004
 31
0.0
210
0.0
220
0.0
230
0.9999999999999998
 40
0.04465
 41
1.73957077086481
 42
2.613924509923749
  0
ELLIPSE
  5
AC79
330
1F
100
AcDbEntity
  8
AM_0
100
AcDbEllipse
 10
-21.78278800000032
 20
11.62802200000012
 30
0.0
 11
0.193614834539
 21
0.0501327821540004
 31
0.0
210
0.0
220
0.0
230
0.9999999999999998
 40
0.04465
 41
1.73957077086481
 42
2.6198503015092
  0
ELLIPSE
  5
AC7A
330
1F
100
AcDbEntity
  8
AM_0
100
AcDbEllipse
 10
-21.02031100000027
 20
12.95467800000014
 30
0.0
 11
-0.0516044688100004
 21
0.1932277899239999
 31
0.0
210
0.0
220
0.0
230
1.0
 40
0.16781
 41
0.041958058580473
 42
1.525487778894409
  0
ELLIPSE
  5
AC7B
330
1F
100
AcDbEntity
  8
AM_0
100
AcDbEllipse
 10
-21.73550100000028
 20
11.65002700000016
 30
0.0
 11
0.0002505305049998
 21
0.086112635562
 31
0.0
210
0.0
220
0.0
230
1.0
 40
0.9847990431177599
 41
1.830848411698159
 42
4.97244042030945
  0
ELLIPSE
  5
AC7C
330
1F
100
AcDbEntity
  8
AM_0
100
AcDbEllipse
 10
-21.61875400000031
 20
11.67183000000014
 30
0.0
 11
0.193614834539
 21
0.0501327821540004
 31
0.0
210
0.0
220
0.0
230
0.9999999999999998
 40
0.04465
 41
0.256056746699429
 42
1.73957077086481
  0
ELLIPSE
  5
AC7D
330
1F
100
AcDbEntity
  8
AM_0
100
AcDbEllipse
 10
-21.26420300000029
 20
12.18948800000012
 30
0.0
 11
0.001495063109999
 21
0.5138848251849995
 31
0.0
210
0.0
220
0.0
230
0.9999999999999998
 40
0.9848079441589302
 41
0.260053802376654
 42
1.83085065761451
  0
ELLIPSE
  5
AC7E
330
1F
100
AcDbEntity
  8
AM_0
100
AcDbEllipse
 10
-21.35815800000028
 20
12.68637200000014
 30
0.0
 11
-0.0516044688100004
 21
0.1932277899239999
 31
0.0
210
0.0
220
0.0
230
1.0
 40
0.16781
 41
1.525487778894409
 42
3.00901933219698
  0
ELLIPSE
  5
AC7F
330
1F
100
AcDbEntity
  8
AM_0
100
AcDbEllipse
 10
-21.71892000000025
 20
12.05867300000014
 30
0.0
 11
0.193614834539
 21
0.0501327821540004
 31
0.0
210
0.0
220
0.0
230
0.9999999999999998
 40
0.04465
 41
0.256056746699429
 42
1.73957077086481
  0
ELLIPSE
  5
AC80
330
1F
100
AcDbEntity
  8
AM_0
100
AcDbEllipse
 10
-20.97718300000031
 20
12.78811700000014
 30
0.0
 11
-0.0516044688100004
 21
0.1932277899239999
 31
0.0
210
0.0
220
0.0
230
1.0
 40
0.16781
 41
1.525487778894409
 42
3.00901933219698
  0
ELLIPSE
  5
AC81
330
1F
100
AcDbEntity
  8
AM_0
100
AcDbEllipse
 10
-21.03347600000029
 20
12.87149900000011
 30
0.0
 11
0.0002505305049998
 21
0.086112635562
 31
0.0
210
0.0
220
0.0
230
1.0
 40
0.9847990431177599
 41
3.401649052951819
 42
6.023128556762
  0
ELLIPSE
  5
AC82
330
1F
100
AcDbEntity
  8
AM_0
100
AcDbEllipse
 10
-42.12219900000024
 20
11.97079500000009
 30
0.0
 11
-137.2231814487111
 21
78.86706579624273
 31
0.0
210
0.0
220
0.0
230
0.9999999999999998
 40
0.08708642612231
 41
-1.658138606472809
 42
-1.632149047714599
  0
ELLIPSE
  5
AC83
330
1F
100
AcDbEntity
  8
AM_0
100
AcDbEllipse
 10
-16.41131600000028
 20
9.080248000000125
 30
0.0
 11
0.0135283505119908
 21
4.64998032079
 31
0.0
210
0.0
220
0.0
230
1.0
 40
0.9848077419354799
 41
-0.010048651665789
 42
0.4800008356345461
  0
ELLIPSE
  5
AC84
330
1F
100
AcDbEntity
  8
AM_0
100
AcDbEllipse
 10
-15.97573000000028
 20
9.07898100000014
 30
0.0
 11
0.0141619639379904
 21
4.869440406176
 31
0.0
210
0.0
220
0.0
230
0.9999999999999998
 40
0.98480776414474
 41
0.519184116012863
 42
0.558561872957481
  0
ELLIPSE
  5
AC85
330
1F
100
AcDbEntity
  8
AM_0
100
AcDbEllipse
 10
-44.3255980000003
 20
8.1370390000001
 30
0.0
 11
-136.986842741229
 21
78.73123349592471
 31
0.0
210
0.0
220
0.0
230
1.0
 40
0.08708642652149
 41
-1.647518978797149
 42
-1.622462398530659
  0
ELLIPSE
  5
AC86
330
1F
100
AcDbEntity
  8
AM_0
100
AcDbEllipse
 10
-19.3780200000003
 20
18.74116100000011
 30
0.0
 11
0.0008727968069994
 21
0.299998730374
 31
0.0
210
0.0
220
0.0
230
1.0
 40
0.12244666666667
 41
0.0
 42
1.066396653605609
  0
ELLIPSE
  5
AC87
330
1F
100
AcDbEntity
  8
AM_0
100
AcDbEllipse
 10
-31.7048970000003
 20
15.47700400000013
 30
0.0
 11
0.0011637290759992
 21
0.3999983071650001
 31
0.0
210
0.0
220
0.0
230
1.0
 40
0.9848075000000001
 41
3.14159300503297
 42
3.864326954499519
  0
ELLIPSE
  5
AC88
330
1F
100
AcDbEntity
  8
AM_0
100
AcDbEllipse
 10
-43.15003200000029
 20
10.18243700000007
 30
0.0
 11
-136.9868358051871
 21
78.73122950953373
 31
0.0
210
0.0
220
0.0
230
0.9999999999999998
 40
0.08708642460181
 41
-1.6481150934641
 42
-1.613747324559919
  0
ELLIPSE
  5
AC89
330
1F
100
AcDbEntity
  8
AM_0
100
AcDbEllipse
 10
-10.33521500000029
 20
5.764758000000171
 30
0.0
 11
0.0008346177659994
 21
0.286875785911
 31
0.0
210
0.0
220
0.0
230
1.0
 40
0.9848053346904798
 41
3.660779189364069
 42
4.972442007799769
  0
ELLIPSE
  5
AC8A
330
1F
100
AcDbEntity
  8
AM_0
100
AcDbEllipse
 10
-10.39033600000027
 20
5.764918000000164
 30
0.0
 11
0.0009154125659994
 21
0.3146466683819998
 31
0.0
210
0.0
220
0.0
230
1.0
 40
0.9848084208385202
 41
3.40164668674335
 42
3.66077783937361
  0
ELLIPSE
  5
AC8B
330
1F
100
AcDbEntity
  8
AM_0
100
AcDbEllipse
 10
-9.939041000000315
 20
6.594352000000156
 30
0.0
 11
0.0009109758489994
 21
0.3131216748359999
 31
0.0
210
0.0
220
0.0
230
1.0
 40
0.9848078869964799
 41
0.519185070161899
 42
1.830850643191249
  0
ELLIPSE
  5
AC8C
330
1F
100
AcDbEntity
  8
AM_0
100
AcDbEllipse
 10
-9.994163000000298
 20
6.59451200000015
 30
0.0
 11
0.0008301810479994
 21
0.2853507923650001
 31
0.0
210
0.0
220
0.0
230
0.9999999999999998
 40
0.9848082368443201
 41
-1.310742263973649
 42
0.435917455755859
  0
ELLIPSE
  5
AC8D
330
1F
100
AcDbEntity
  8
AM_0
100
AcDbEllipse
 10
-9.897863000000256
 20
5.895623000000142
 30
0.0
 11
0.193614834539
 21
0.0501327821540004
 31
0.0
210
0.0
220
0.0
230
0.9999999999999998
 40
0.04465
 41
1.73957077086481
 42
2.6198503015092
  0
ELLIPSE
  5
AC8E
330
1F
100
AcDbEntity
  8
AM_0
100
AcDbEllipse
 10
-10.07315300000027
 20
6.572599000000167
 30
0.0
 11
0.193614834539
 21
0.0501327821540004
 31
0.0
210
0.0
220
0.0
230
0.9999999999999998
 40
0.04465
 41
1.73957077086481
 42
2.613924509923749
  0
ELLIPSE
  5
AC8F
330
1F
100
AcDbEntity
  8
AM_0
100
AcDbEllipse
 10
-10.02586500000029
 20
6.594604000000146
 30
0.0
 11
0.0002505305049998
 21
0.086112635562
 31
0.0
210
0.0
220
0.0
230
1.0
 40
0.9847990431177599
 41
-1.31074458373775
 42
1.830848411698159
  0
ELLIPSE
  5
AC90
330
1F
100
AcDbEntity
  8
AM_0
100
AcDbEllipse
 10
-9.909119000000259
 20
6.616407000000123
 30
0.0
 11
0.193614834539
 21
0.0501327821540004
 31
0.0
210
0.0
220
0.0
230
0.9999999999999998
 40
0.04465
 41
0.256056746699429
 42
1.73957077086481
  0
ELLIPSE
  5
AC91
330
1F
100
AcDbEntity
  8
AM_0
100
AcDbEllipse
 10
-31.45115600000028
 20
0.0000000000001137
 30
0.0
 11
0.0540420383029644
 21
17.99999787400899
 31
0.0
210
0.0
220
0.0
230
0.9999999999999998
 40
0.17632617056847
 41
-0.319352473932929
 42
-0.029459855397596
  0
ELLIPSE
  5
AC92
330
1F
100
AcDbEntity
  8
AM_0
100
AcDbEllipse
 10
-31.45115600000028
 20
-0.0000039999998762
 30
0.0
 11
0.0540420473099644
 21
18.00000087399599
 31
0.0
210
0.0
220
0.0
230
0.9999999999999998
 40
0.17632619673622
 41
-0.029459851028127
 42
-0.002098380618879
  0
ELLIPSE
  5
AC93
330
1F
100
AcDbEntity
  8
AM_0
100
AcDbEllipse
 10
1.64742599999974
 20
0.0000000000001705
 30
0.0
 11
102.0835175585399
 21
0.0094937671602017
 31
0.0
210
0.0
220
0.0
230
1.0
 40
0.17632619204993
 41
1.890148219715799
 42
2.001501832428149
  0
ELLIPSE
  5
AC94
330
1F
100
AcDbEntity
  8
AM_0
100
AcDbEllipse
 10
122.8412119999992
 20
248.1184820000004
 30
0.0
 11
256.5406193911026
 21
165.6910172591155
 31
0.0
210
0.0
220
0.0
230
1.0
 40
0.64461222983434
 41
3.76806089770001
 42
3.78078623543513
  0
ELLIPSE
  5
AC95
330
1F
100
AcDbEntity
  8
AM_0
100
AcDbEllipse
 10
-36.26655100000027
 20
14.69027000000008
 30
0.0
 11
0.3073077736799993
 21
0.3055249381570006
 31
0.0
210
0.0
220
0.0
230
1.0
 40
0.8391009369086603
 41
0.6981304635312049
 42
1.6566169287291
  0
ELLIPSE
  5
AC96
330
1F
100
AcDbEntity
  8
AM_0
100
AcDbEllipse
 10
-57.79616500000026
 20
-15.30024099999997
 30
0.0
 11
0.9165940506613775
 21
315.052769663244
 31
0.0
210
0.0
220
0.0
230
1.0
 40
0.08708803262277
 41
-1.467518998329619
 42
-1.462498597979399
  0
ELLIPSE
  5
AC97
330
1F
100
AcDbEntity
  8
AM_0
100
AcDbEllipse
 10
-19.6893710000003
 20
18.74206600000016
 30
0.0
 11
-5.027977542069
 21
0.0450099154669901
 31
0.0
210
0.0
220
0.0
230
1.0
 40
0.02921395598685
 41
-1.62617502659872
 42
-1.132418891994679
  0
ELLIPSE
  5
AC98
330
1F
100
AcDbEntity
  8
AM_0
100
AcDbEllipse
 10
-30.97720500000028
 20
18.67490100000009
 30
0.0
 11
0.0011637290759992
 21
0.3999983071650001
 31
0.0
210
0.0
220
0.0
230
1.0
 40
0.8111599999999999
 41
0.7853982937803431
 42
1.57079606171195
  0
ELLIPSE
  5
AC99
330
1F
100
AcDbEntity
  8
AM_0
100
AcDbEllipse
 10
-30.97720500000028
 20
18.67490100000009
 30
0.0
 11
0.3073077736799993
 21
0.3055249381570006
 31
0.0
210
0.0
220
0.0
230
1.0
 40
0.8391009369086603
 41
0.6981304635312049
 42
1.48352991453887
  0
SPLINE
  5
AC9A
330
1F
100
AcDbEntity
  8
AM_0
100
AcDbSpline
210
0.0
220
0.0
230
1.0
 70
     8
 71
     3
 72
    11
 73
     7
 74
     5
 42
0.0000000001
 43
0.0000000001
 44
0.0000000001
 40
0.0
 40
0.0
 40
0.0
 40
0.0
 40
0.1895151452338174
 40
0.374533720012142
 40
0.558988461046408
 40
0.747663691378811
 40
0.747663691378811
 40
0.747663691378811
 40
0.747663691378811
 10
-35.60242400000027
 20
14.54948900000007
 30
0.0
 10
-35.6189408629347
 20
14.61172863874683
 30
0.0
 10
-35.65158269802462
 20
14.7347311745245
 30
0.0
 10
-35.5896711484036
 20
14.9201422800682
 30
0.0
 10
-35.4507682649176
 20
15.05994059623941
 30
0.0
 10
-35.3246881209659
 20
15.07814290305246
 30
0.0
 10
-35.2609350000003
 20
15.0873470000001
 30
0.0
 11
-35.60242400000027
 21
14.54948900000007
 31
0.0
 11
-35.63299600000027
 21
14.73652200000006
 31
0.0
 11
-35.5768130000003
 21
14.91280400000007
 31
0.0
 11
-35.44370000000026
 21
15.04049300000011
 31
0.0
 11
-35.2609350000003
 21
15.0873470000001
 31
0.0
  0
SPLINE
  5
AC9B
330
1F
100
AcDbEntity
  8
AM_0
100
AcDbSpline
210
0.0
220
0.0
230
1.0
 70
     8
 71
     3
 72
    11
 73
     7
 74
     5
 42
0.0000000001
 43
0.0000000001
 44
0.0000000001
 40
0.0
 40
0.0
 40
0.0
 40
0.0
 40
0.9494499673079065
 40
1.907835080933912
 40
2.871048854554814
 40
3.8333280839867
 40
3.8333280839867
 40
3.8333280839867
 40
3.8333280839867
 10
-27.28866500000026
 20
11.81068500000009
 30
0.0
 10
-27.19779230739944
 20
11.50645605871144
 30
0.0
 10
-27.01519173147405
 20
10.89513511836573
 30
0.0
 10
-26.52897161035537
 20
10.06256282972143
 30
0.0
 10
-25.9090734618806
 20
9.316969229309169
 30
0.0
 10
-25.38499970033479
 20
8.942261121176787
 30
0.0
 10
-25.12309000000027
 20
8.754998000000114
 30
0.0
 11
-27.28866500000026
 21
11.81068500000009
 31
0.0
 11
-26.98125100000027
 21
10.91238000000009
 31
0.0
 11
-26.50799300000028
 21
10.07899600000013
 31
0.0
 11
-25.88130000000029
 21
9.347534000000109
 31
0.0
 11
-25.12309000000027
 21
8.754998000000114
 31
0.0
  0
SPLINE
  5
AC9C
330
1F
100
AcDbEntity
  8
AM_0
100
AcDbSpline
210
0.0
220
0.0
230
1.0
 70
     8
 71
     3
 72
    11
 73
     7
 74
     5
 42
0.0000000001
 43
0.0000000001
 44
0.0000000001
 40
0.0
 40
0.0
 40
0.0
 40
0.0
 40
1.061663981667414
 40
2.124785418977864
 40
3.187516151677808
 40
4.247988336028262
 40
4.247988336028262
 40
4.247988336028262
 40
4.247988336028262
 10
-22.24145300000031
 20
5.690880000000134
 30
0.0
 10
-22.42418547012359
 20
5.994521440578993
 30
0.0
 10
-22.78990126607812
 20
6.602221161658449
 30
0.0
 10
-23.4754849957989
 20
7.418438512946559
 30
0.0
 10
-24.24509429326706
 20
8.155968528618958
 30
0.0
 10
-24.83063238566645
 20
8.55546316312987
 30
0.0
 10
-25.12309000000027
 20
8.754998000000114
 30
0.0
 11
-22.24145300000031
 21
5.690880000000134
 31
0.0
 11
-22.81244200000025
 21
6.585923000000121
 31
0.0
 11
-23.48963200000025
 21
7.405460000000147
 31
0.0
 11
-24.26385600000026
 21
8.133453000000116
 31
0.0
 11
-25.12309000000027
 21
8.754998000000114
 31
0.0
  0
SPLINE
  5
AC9D
330
1F
100
AcDbEntity
  8
AM_0
100
AcDbSpline
210
0.0
220
0.0
230
1.0
 70
     8
 71
     3
 72
    11
 73
     7
 74
     5
 42
0.0000000001
 43
0.0000000001
 44
0.0000000001
 40
0.0
 40
0.0
 40
0.0
 40
0.0
 40
0.5240153685083924
 40
1.045063376294631
 40
1.563945404802094
 40
2.082026925307325
 40
2.082026925307325
 40
2.082026925307325
 40
2.082026925307325
 10
-27.07813700000031
 20
13.83796100000012
 30
0.0
 10
-27.15157239326005
 20
13.67871699571737
 30
0.0
 10
-27.29802733453018
 20
13.36113074391694
 30
0.0
 10
-27.38646945087943
 20
12.84243342807613
 30
0.0
 10
-27.3901966651579
 20
12.32024316739965
 30
0.0
 10
-27.3224914661879
 20
11.98045028547446
 30
0.0
 10
-27.28866500000026
 20
11.81068500000009
 30
0.0
 11
-27.07813700000031
 21
13.83796100000012
 31
0.0
 11
-27.27648000000027
 21
13.35293300000012
 31
0.0
 11
-27.37245300000029
 21
12.84080000000011
 31
0.0
 11
-27.37262500000031
 21
12.32191800000009
 31
0.0
 11
-27.28866500000026
 21
11.81068500000009
 31
0.0
  0
SPLINE
  5
AC9E
330
1F
100
AcDbEntity
  8
AM_0
100
AcDbSpline
210
0.0
220
0.0
230
1.0
 70
     8
 71
     3
 72
    11
 73
     7
 74
     5
 42
0.0000000001
 43
0.0000000001
 44
0.0000000001
 40
0.0
 40
0.0
 40
0.0
 40
0.0
 40
0.2189707665465414
 40
0.4380136464605306
 40
0.6571343771662417
 40
0.8763315298165004
 40
0.8763315298165004
 40
0.8763315298165004
 40
0.8763315298165004
 10
-25.73298500000032
 20
15.9951400000001
 30
0.0
 10
-25.78120632363246
 20
15.94032039750408
 30
0.0
 10
-25.87766485156469
 20
15.83066313884123
 30
0.0
 10
-26.01071404121751
 20
15.65648272143608
 30
0.0
 10
-26.13562505033103
 20
15.47628499662946
 30
0.0
 10
-26.21038867169527
 20
15.35071029697618
 30
0.0
 10
-26.24777700000027
 20
15.28791200000012
 30
0.0
 11
-25.73298500000032
 21
15.9951400000001
 31
0.0
 11
-25.87570600000026
 21
15.82907100000011
 31
0.0
 11
-26.0093350000003
 21
15.6555110000001
 31
0.0
 11
-26.1334800000003
 21
15.47495100000008
 31
0.0
 11
-26.24777700000027
 21
15.28791200000012
 31
0.0
  0
SPLINE
  5
AC9F
330
1F
100
AcDbEntity
  8
AM_0
100
AcDbSpline
210
0.0
220
0.0
230
1.0
 70
     8
 71
     3
 72
    11
 73
     7
 74
     5
 42
0.0000000001
 43
0.0000000001
 44
0.0000000001
 40
0.0
 40
0.0
 40
0.0
 40
0.0
 40
0.6728736047980847
 40
1.345628987983567
 40
2.017901261025555
 40
2.688149212357752
 40
2.688149212357752
 40
2.688149212357752
 40
2.688149212357752
 10
-23.30997700000029
 20
16.99583700000013
 30
0.0
 10
-23.53426446939933
 20
16.97943543023396
 30
0.0
 10
-23.98280000164894
 20
16.94663517240184
 30
0.0
 10
-24.63186858262487
 20
16.7565568805143
 30
0.0
 10
-25.24295521146749
 20
16.45862896721686
 30
0.0
 10
-25.56980601802908
 20
16.1494809392556
 30
0.0
 10
-25.73298500000032
 20
15.9951400000001
 30
0.0
 11
-23.30997700000029
 21
16.99583700000013
 31
0.0
 11
-23.97891200000026
 21
16.92314000000013
 31
0.0
 11
-24.62582300000031
 21
16.73846200000016
 31
0.0
 11
-25.2234490000003
 21
16.43057700000008
 31
0.0
 11
-25.73298500000032
 21
15.9951400000001
 31
0.0
  0
SPLINE
  5
ACA0
330
1F
100
AcDbEntity
  8
AM_0
100
AcDbSpline
210
0.0
220
0.0
230
1.0
 70
     8
 71
     3
 72
    11
 73
     7
 74
     5
 42
0.0000000001
 43
0.0000000001
 44
0.0000000001
 40
0.0
 40
0.0
 40
0.0
 40
0.0
 40
0.2372296542087534
 40
0.4744858789953897
 40
0.711744678084034
 40
0.9489797440945364
 40
0.9489797440945364
 40
0.9489797440945364
 40
0.9489797440945364
 10
-22.36403700000028
 20
16.93782100000012
 30
0.0
 10
-22.44234806924604
 20
16.94891381275733
 30
0.0
 10
-22.5989789788601
 20
16.97110068070685
 30
0.0
 10
-22.83556755201637
 20
16.99022919427037
 30
0.0
 10
-23.07272373457887
 20
16.99998529664979
 30
0.0
 10
-23.23089521531618
 20
16.99721971944077
 30
0.0
 10
-23.30997700000029
 20
16.99583700000013
 30
0.0
 11
-22.36403700000028
 21
16.93782100000012
 31
0.0
 11
-22.59924300000028
 21
16.96874100000016
 31
0.0
 11
-22.8356610000003
 21
16.98866700000016
 31
0.0
 11
-23.07274900000027
 21
16.99766800000011
 31
0.0
 11
-23.30997700000029
 21
16.99583700000013
 31
0.0
  0
SPLINE
  5
ACA1
330
1F
100
AcDbEntity
  8
AM_0
100
AcDbSpline
210
0.0
220
0.0
230
1.0
 70
     8
 71
     3
 72
    11
 73
     7
 74
     5
 42
0.0000000001
 43
0.0000000001
 44
0.0000000001
 40
0.0
 40
0.0
 40
0.0
 40
0.0
 40
0.081126442409371
 40
0.1717500296700868
 40
0.2721884225783957
 40
0.3789272391588331
 40
0.3789272391588331
 40
0.3789272391588331
 40
0.3789272391588331
 10
-36.54831500000028
 20
14.92099500000009
 30
0.0
 10
-36.55938432005623
 20
14.89621483849845
 30
0.0
 10
-36.58281880074556
 20
14.8437536021033
 30
0.0
 10
-36.59750533665611
 20
14.75339304148218
 30
0.0
 10
-36.5963105665684
 20
14.65320409826589
 30
0.0
 10
-36.57691612234627
 20
14.58660646178165
 30
0.0
 10
-36.56692400000031
 20
14.5522950000001
 30
0.0
 11
-36.54831500000028
 21
14.92099500000009
 31
0.0
 11
-36.57836200000031
 21
14.84563800000009
 31
0.0
 11
-36.5944840000003
 21
14.75646000000009
 31
0.0
 11
-36.59197300000028
 21
14.65605300000007
 31
0.0
 11
-36.56692400000031
 21
14.5522950000001
 31
0.0
  0
SPLINE
  5
ACA2
330
1F
100
AcDbEntity
  8
AM_0
100
AcDbSpline
210
0.0
220
0.0
230
1.0
 70
     8
 71
     3
 72
    11
 73
     7
 74
     5
 42
0.0000000001
 43
0.0000000001
 44
0.0000000001
 40
0.0
 40
0.0
 40
0.0
 40
0.0
 40
0.2299167765996716
 40
0.4577649707049062
 40
0.6829858651707401
 40
0.9050596220174503
 40
0.9050596220174503
 40
0.9050596220174503
 40
0.9050596220174503
 10
-19.37714700000029
 20
19.04115900000013
 30
0.0
 10
-19.30050865779969
 20
19.04070026113839
 30
0.0
 10
-19.14792149564832
 20
19.03978691073084
 30
0.0
 10
-18.92029691734583
 20
19.03537954003227
 30
0.0
 10
-18.69533165073214
 20
19.02913386248738
 30
0.0
 10
-18.54635114435503
 20
19.0231786540025
 30
0.0
 10
-18.47238500000028
 20
19.02022200000013
 30
0.0
 11
-19.37714700000029
 21
19.04115900000013
 31
0.0
 11
-19.14723800000032
 21
19.03926800000013
 31
0.0
 11
-18.91942900000029
 21
19.03504200000011
 31
0.0
 11
-18.69429900000031
 21
19.02864400000012
 31
0.0
 11
-18.47238500000028
 21
19.02022200000013
 31
0.0
  0
SPLINE
  5
ACA3
330
1F
100
AcDbEntity
  8
AM_0
100
AcDbSpline
210
0.0
220
0.0
230
1.0
 70
     8
 71
     3
 72
    11
 73
     7
 74
     5
 42
0.0000000001
 43
0.0000000001
 44
0.0000000001
 40
0.0
 40
0.0
 40
0.0
 40
0.0
 40
0.0262668755850867
 40
0.0525132269886135
 40
0.0787596967893539
 40
0.1050247252683361
 40
0.1050247252683361
 40
0.1050247252683361
 40
0.1050247252683361
 10
-22.45315800000028
 20
19.04439700000014
 30
0.0
 10
-22.4618679335232
 20
19.04529604036511
 30
0.0
 10
-22.47928099487733
 20
19.04709341861075
 30
0.0
 10
-22.50547634784975
 20
19.04889522632662
 30
0.0
 10
-22.53170524388174
 20
19.05010150662369
 30
0.0
 10
-22.54920901922554
 20
19.05030847782531
 30
0.0
 10
-22.55796400000034
 20
19.05041200000013
 30
0.0
 11
-22.45315800000028
 21
19.04439700000014
 31
0.0
 11
-22.47930100000033
 21
19.04694500000013
 31
0.0
 11
-22.50548200000028
 21
19.04879600000012
 31
0.0
 11
-22.5317030000003
 21
19.04995200000016
 31
0.0
 11
-22.55796400000034
 21
19.05041200000013
 31
0.0
  0
SPLINE
  5
ACA4
330
1F
100
AcDbEntity
  8
AM_0
100
AcDbSpline
210
0.0
220
0.0
230
1.0
 70
     8
 71
     3
 72
    11
 73
     7
 74
     5
 42
0.0000000001
 43
0.0000000001
 44
0.0000000001
 40
0.0
 40
0.0
 40
0.0
 40
0.0
 40
1.327207794121172
 40
2.657981119332114
 40
3.989613166853128
 40
5.319726372835962
 40
5.319726372835962
 40
5.319726372835962
 40
5.319726372835962
 10
-17.53370500000031
 20
18.94117600000012
 30
0.0
 10
-17.90591294148188
 20
18.69356931692916
 30
0.0
 10
-18.65132875753243
 20
18.19769075779302
 30
0.0
 10
-20.0100959368744
 20
18.00500360939309
 30
0.0
 10
-21.34189736442301
 20
18.29501338101448
 30
0.0
 10
-22.08287872740797
 20
18.79469750336814
 30
0.0
 10
-22.45315800000028
 20
19.04439700000014
 30
0.0
 11
-17.53370500000031
 21
18.94117600000012
 31
0.0
 11
-18.69017900000031
 21
18.28998600000014
 31
0.0
 11
-20.0051460000003
 21
18.08548800000014
 31
0.0
 11
-21.3056350000003
 21
18.37179600000015
 31
0.0
 11
-22.45315800000028
 21
19.04439700000014
 31
0.0
  0
SPLINE
  5
ACA5
330
1F
100
AcDbEntity
  8
AM_0
100
AcDbSpline
210
0.0
220
0.0
230
1.0
 70
     8
 71
     3
 72
    11
 73
     7
 74
     5
 42
0.0000000001
 43
0.0000000001
 44
0.0000000001
 40
0.0
 40
0.0
 40
0.0
 40
0.0
 40
0.4934703986917456
 40
0.9879961468191783
 40
1.483977415974577
 40
1.981754168545464
 40
1.981754168545464
 40
1.981754168545464
 40
1.981754168545464
 10
-6.634742000000301
 20
7.119195000000132
 30
0.0
 10
-6.707277649298212
 20
7.267023484448802
 30
0.0
 10
-6.852504074638731
 20
7.562996603429421
 30
0.0
 10
-7.1295559183932
 20
7.974258183521576
 30
0.0
 10
-7.444753451368491
 20
8.359052361914024
 30
0.0
 10
-7.689030700239598
 20
8.583349037129604
 30
0.0
 10
-7.811390000000301
 20
8.69570000000013
 30
0.0
 11
-6.634742000000301
 21
7.119195000000132
 31
0.0
 11
-6.862135000000307
 21
7.557151000000118
 31
0.0
 11
-7.135479000000259
 21
7.969266000000146
 31
0.0
 11
-7.452796000000262
 21
8.350458000000145
 31
0.0
 11
-7.811390000000301
 21
8.69570000000013
 31
0.0
  0
SPLINE
  5
ACA6
330
1F
100
AcDbEntity
  8
AM_0
100
AcDbSpline
210
0.0
220
0.0
230
1.0
 70
     8
 71
     3
 72
    11
 73
     7
 74
     5
 42
0.0000000001
 43
0.0000000001
 44
0.0000000001
 40
0.0
 40
0.0
 40
0.0
 40
0.0
 40
1.006266031198953
 40
2.012873421007431
 40
3.020654519330409
 40
4.030484431514118
 40
4.030484431514118
 40
4.030484431514118
 40
4.030484431514118
 10
-10.01286100000027
 20
12.01671500000011
 30
0.0
 10
-9.895896672452318
 20
11.70176519349892
 30
0.0
 10
-9.661928339200759
 20
11.07175873913979
 30
0.0
 10
-9.1559280245467
 20
10.19687410876745
 30
0.0
 10
-8.550245205038667
 20
9.385744802436946
 30
0.0
 10
-8.057841741214566
 20
8.925870596237016
 30
0.0
 10
-7.811390000000301
 20
8.69570000000013
 30
0.0
 11
-10.01286100000027
 21
12.01671500000011
 31
0.0
 11
-9.636173000000326
 21
11.08361400000015
 31
0.0
 11
-9.139644000000316
 21
10.20799000000013
 31
0.0
 11
-8.528620000000273
 21
9.406571000000127
 31
0.0
 11
-7.811390000000301
 21
8.69570000000013
 31
0.0
  0
SPLINE
  5
ACA7
330
1F
100
AcDbEntity
  8
AM_0
100
AcDbSpline
210
0.0
220
0.0
230
1.0
 70
     8
 71
     3
 72
    11
 73
     7
 74
     5
 42
0.0000000001
 43
0.0000000001
 44
0.0000000001
 40
0.0
 40
0.0
 40
0.0
 40
0.0
 40
0.6741256125656838
 40
1.350597798478001
 40
2.030612276373891
 40
2.714775750947014
 40
2.714775750947014
 40
2.714775750947014
 40
2.714775750947014
 10
-10.01286100000027
 20
12.01671500000011
 30
0.0
 10
-10.09470154347571
 20
12.22678436192983
 30
0.0
 10
-10.25866751032792
 20
12.64765431919215
 30
0.0
 10
-10.65080771570432
 20
13.20582453535905
 30
0.0
 10
-11.13369399444613
 20
13.69296911179878
 30
0.0
 10
-11.52516446007744
 20
13.92749793941831
 30
0.0
 10
-11.72149500000028
 20
14.04511900000014
 30
0.0
 11
-10.01286100000027
 21
12.01671500000011
 31
0.0
 11
-10.28251200000028
 21
12.63456100000016
 31
0.0
 11
-10.66480500000028
 21
13.19265300000014
 31
0.0
 11
-11.14977300000032
 21
13.66933500000013
 31
0.0
 11
-11.72149500000028
 21
14.04511900000014
 31
0.0
  0
SPLINE
  5
ACA8
330
1F
100
AcDbEntity
  8
AM_0
100
AcDbSpline
210
0.0
220
0.0
230
1.0
 70
     8
 71
     3
 72
    11
 73
     7
 74
     5
 42
0.0000000001
 43
0.0000000001
 44
0.0000000001
 40
0.0
 40
0.0
 40
0.0
 40
0.0
 40
1.999743685505979
 40
4.006573567188982
 40
6.018835149374087
 40
8.034768537592297
 40
8.034768537592297
 40
8.034768537592297
 40
8.034768537592297
 10
-11.72149500000028
 20
14.04511900000014
 30
0.0
 10
-12.31960090407733
 20
14.34047615124976
 30
0.0
 10
-13.51793213173585
 20
14.93223706723814
 30
0.0
 10
-15.40807459027845
 20
15.61480917084556
 30
0.0
 10
-17.3483635325021
 20
16.15753392290652
 30
0.0
 10
-18.6738264460245
 20
16.37773240206042
 30
0.0
 10
-19.33716200000026
 20
16.48793200000014
 30
0.0
 11
-11.72149500000028
 21
14.04511900000014
 31
0.0
 11
-13.53073100000028
 21
14.89696400000016
 31
0.0
 11
-15.41385100000025
 21
15.59066800000013
 31
0.0
 11
-17.35476400000027
 21
16.12175500000015
 31
0.0
 11
-19.33716200000026
 21
16.48793200000014
 31
0.0
  0
SPLINE
  5
ACA9
330
1F
100
AcDbEntity
  8
AM_0
100
AcDbSpline
210
0.0
220
0.0
230
1.0
 70
     8
 71
     3
 72
    11
 73
     7
 74
     5
 42
0.0000000001
 43
0.0000000001
 44
0.0000000001
 40
0.0
 40
0.0
 40
0.0
 40
0.0
 40
0.1539892231164115
 40
0.3074575482033734
 40
0.4615156330318145
 40
0.6166979561778464
 40
0.6166979561778464
 40
0.6166979561778464
 40
0.6166979561778464
 10
-30.78782800000027
 20
15.07433500000013
 30
0.0
 10
-30.73606890379521
 20
15.08019527227401
 30
0.0
 10
-30.63272579643762
 20
15.09189599332881
 30
0.0
 10
-30.50313586296814
 20
15.18463758038527
 30
0.0
 10
-30.41421856141812
 20
15.316997716075
 30
0.0
 10
-30.40396727659758
 20
15.42100986055604
 30
0.0
 10
-30.39882300000027
 20
15.47320500000012
 30
0.0
 11
-30.78782800000027
 21
15.07433500000013
 31
0.0
 11
-30.63681800000029
 21
15.10447900000014
 31
0.0
 11
-30.51008900000027
 21
15.1910370000001
 31
0.0
 11
-30.42663900000025
 21
15.32053600000011
 31
0.0
 11
-30.39882300000027
 21
15.47320500000012
 31
0.0
  0
SPLINE
  5
ACAA
330
1F
100
AcDbEntity
  8
AM_0
100
AcDbSpline
210
0.0
220
0.0
230
1.0
 70
     8
 71
     3
 72
    11
 73
     7
 74
     5
 42
0.0000000001
 43
0.0000000001
 44
0.0000000001
 40
0.0
 40
0.0
 40
0.0
 40
0.0
 40
0.1277647843343203
 40
0.2556364375534641
 40
0.383615488358716
 40
0.511703477061793
 40
0.511703477061793
 40
0.511703477061793
 40
0.511703477061793
 10
-30.39882300000027
 20
15.47320500000012
 30
0.0
 10
-30.39939504053526
 20
15.51578943635482
 30
0.0
 10
-30.40053960008869
 20
15.60099392882635
 30
0.0
 10
-30.40192000681258
 20
15.72885842421846
 30
0.0
 10
-30.4030755690926
 20
15.85683288859219
 30
0.0
 10
-30.40362111233472
 20
15.94218685889571
 30
0.0
 10
-30.40389400000026
 20
15.98488200000014
 30
0.0
 11
-30.39882300000027
 21
15.47320500000012
 31
0.0
 11
-30.40048300000029
 21
15.6009590000001
 31
0.0
 11
-30.40188200000028
 21
15.72882300000009
 31
0.0
 11
-30.40301900000031
 21
15.85679700000014
 31
0.0
 11
-30.40389400000026
 21
15.98488200000014
 31
0.0
  0
SPLINE
  5
ACAB
330
1F
100
AcDbEntity
  8
AM_0
100
AcDbSpline
210
0.0
220
0.0
230
1.0
 70
     8
 71
     3
 72
    11
 73
     7
 74
     5
 42
0.0000000001
 43
0.0000000001
 44
0.0000000001
 40
0.0
 40
0.0
 40
0.0
 40
0.0
 40
0.0529530736879281
 40
0.1059213432933837
 40
0.1588868503333518
 40
0.2118505188807879
 40
0.2118505188807879
 40
0.2118505188807879
 40
0.2118505188807879
 10
-17.32224500000032
 20
18.94558400000013
 30
0.0
 10
-17.33985936516565
 20
18.94679590560315
 30
0.0
 10
-17.37509315028201
 20
18.94922006458912
 30
0.0
 10
-17.42808890895927
 20
18.94914893637762
 30
0.0
 10
-17.4810292233827
 20
18.94681035679037
 30
0.0
 10
-17.51614661095866
 20
18.94305409719916
 30
0.0
 10
-17.53370500000031
 20
18.94117600000012
 30
0.0
 11
-17.32224500000032
 21
18.94558400000013
 31
0.0
 11
-17.37511200000031
 21
18.94860200000013
 31
0.0
 11
-17.42808000000027
 21
18.94877100000016
 31
0.0
 11
-17.48098600000028
 21
18.94626100000013
 31
0.0
 11
-17.53370500000031
 21
18.94117600000012
 31
0.0
  0
SPLINE
  5
ACAC
330
1F
100
AcDbEntity
  8
AM_0
100
AcDbSpline
210
0.0
220
0.0
230
1.0
 70
     8
 71
     3
 72
    11
 73
     7
 74
     5
 42
0.0000000001
 43
0.0000000001
 44
0.0000000001
 40
0.0
 40
0.0
 40
0.0
 40
0.0
 40
0.2750166979458199
 40
0.5593916148495496
 40
0.8524585503983971
 40
1.153477427311443
 40
1.153477427311443
 40
1.153477427311443
 40
1.153477427311443
 10
-17.32212700000028
 20
18.94557400000016
 30
0.0
 10
-17.41348509535621
 20
18.95316647830791
 30
0.0
 10
-17.59931000297982
 20
18.96860979041587
 30
0.0
 10
-17.8827647414398
 20
18.98859786187475
 30
0.0
 10
-18.17504422172992
 20
19.00652941659208
 30
0.0
 10
-18.37286545012318
 20
19.01564778853553
 30
0.0
 10
-18.4731000000003
 20
19.02026800000013
 30
0.0
 11
-17.32212700000028
 21
18.94557400000016
 31
0.0
 11
-17.59624500000032
 21
18.96778900000012
 31
0.0
 11
-17.87990300000032
 21
18.98796900000016
 31
0.0
 11
-18.17243700000031
 21
19.00563500000012
 31
0.0
 11
-18.4731000000003
 21
19.02026800000013
 31
0.0
  0
SPLINE
  5
ACAD
330
1F
100
AcDbEntity
  8
AM_0
100
AcDbSpline
210
0.0
220
0.0
230
1.0
 70
     8
 71
     3
 72
    11
 73
     7
 74
     5
 42
0.0000000001
 43
0.0000000001
 44
0.0000000001
 40
0.0
 40
0.0
 40
0.0
 40
0.0
 40
0.1390803027210893
 40
0.2795676586824198
 40
0.42169358825547
 40
0.5654329223849867
 40
0.5654329223849867
 40
0.5654329223849867
 40
0.5654329223849867
 10
-18.08639300000029
 20
18.82357500000014
 30
0.0
 10
-18.04152097372147
 20
18.83523506571862
 30
0.0
 10
-17.95132295803075
 20
18.85867316018076
 30
0.0
 10
-17.81452112526455
 20
18.89096591297425
 30
0.0
 10
-17.67547710877591
 20
18.9207129201297
 30
0.0
 10
-17.58113984733755
 20
18.93432935662233
 30
0.0
 10
-17.53370500000031
 20
18.94117600000012
 30
0.0
 11
-18.08639300000029
 21
18.82357500000014
 31
0.0
 11
-17.95165400000033
 21
18.85805300000012
 31
0.0
 11
-17.81493300000031
 21
18.89036500000011
 31
0.0
 11
-17.6757290000003
 21
18.91903600000014
 31
0.0
 11
-17.53370500000031
 21
18.94117600000012
 31
0.0
  0
SPLINE
  5
ACAE
330
1F
100
AcDbEntity
  8
AM_0
100
AcDbSpline
210
0.0
220
0.0
230
1.0
 70
     8
 71
     3
 72
    11
 73
     7
 74
     5
 42
0.0000000001
 43
0.0000000001
 44
0.0000000001
 40
0.0
 40
0.0
 40
0.0
 40
0.0
 40
0.3182968794600567
 40
0.6463560968614202
 40
0.9826208260615047
 40
1.32511057309637
 40
1.32511057309637
 40
1.32511057309637
 40
1.32511057309637
 10
-18.08639300000029
 20
18.82357500000014
 30
0.0
 10
-18.1921760856778
 20
18.831790645861
 30
0.0
 10
-18.40698668164863
 20
18.84847391589753
 30
0.0
 10
-18.73402664241625
 20
18.86691610320325
 30
0.0
 10
-19.06937555615266
 20
18.88068455586922
 30
0.0
 10
-19.29560491772416
 20
18.88437490360586
 30
0.0
 10
-19.40975700000032
 20
18.88623700000013
 30
0.0
 11
-18.08639300000029
 21
18.82357500000014
 31
0.0
 11
-18.40381800000031
 21
18.84711800000016
 31
0.0
 11
-18.7313370000003
 21
18.86593700000011
 31
0.0
 11
-19.06733900000031
 21
18.87922700000015
 31
0.0
 11
-19.40975700000032
 21
18.88623700000013
 31
0.0
  0
SPLINE
  5
ACAF
330
1F
100
AcDbEntity
  8
AM_0
100
AcDbSpline
210
0.0
220
0.0
230
1.0
 70
     8
 71
     3
 72
    11
 73
     7
 74
     5
 42
0.0000000001
 43
0.0000000001
 44
0.0000000001
 40
0.0
 40
0.0
 40
0.0
 40
0.0
 40
0.9863483733610971
 40
1.973133746945461
 40
2.959386472018488
 40
3.944096672737999
 40
3.944096672737999
 40
3.944096672737999
 40
3.944096672737999
 10
-21.82241300000035
 20
18.89417000000017
 30
0.0
 10
-21.53235560670645
 20
18.7354349261829
 30
0.0
 10
-20.95211231060917
 20
18.417894451203
 30
0.0
 10
-19.9640091432073
 20
18.24539192809825
 30
0.0
 10
-18.96303860355455
 20
18.35768766663434
 30
0.0
 10
-18.37845569816966
 20
18.66836026890006
 30
0.0
 10
-18.08639300000029
 20
18.82357500000014
 30
0.0
 11
-21.82241300000035
 21
18.89417000000017
 31
0.0
 11
-20.93260900000032
 21
18.46857400000013
 31
0.0
 11
-19.9615930000003
 21
18.29286600000014
 31
0.0
 11
-18.98315800000031
 21
18.41679900000011
 31
0.0
 11
-18.08639300000029
 21
18.82357500000014
 31
0.0
  0
SPLINE
  5
ACB0
330
1F
100
AcDbEntity
  8
AM_0
100
AcDbSpline
210
0.0
220
0.0
230
1.0
 70
     8
 71
     3
 72
    11
 73
     7
 74
     5
 42
0.0000000001
 43
0.0000000001
 44
0.0000000001
 40
0.0
 40
0.0
 40
0.0
 40
0.0
 40
0.1648236700779985
 40
0.3278512350141355
 40
0.4891654685491506
 40
0.649133011857157
 40
0.649133011857157
 40
0.649133011857157
 40
0.649133011857157
 10
-22.45315800000028
 20
19.04439700000014
 30
0.0
 10
-22.3987611064125
 20
19.03647601731606
 30
0.0
 10
-22.290560089318
 20
19.02072036793466
 30
0.0
 10
-22.13194028467687
 20
18.98227678241408
 30
0.0
 10
-21.97610847091644
 20
18.94015965245452
 30
0.0
 10
-21.87350146053531
 20
18.90945698621015
 30
0.0
 10
-21.82241300000035
 20
18.89417000000017
 30
0.0
 11
-22.45315800000028
 21
19.04439700000014
 31
0.0
 11
-22.29044500000034
 21
19.01810400000013
 31
0.0
 11
-22.13159000000032
 21
18.98145600000012
 31
0.0
 11
-21.97586900000036
 21
18.93934600000014
 31
0.0
 11
-21.82241300000035
 21
18.89417000000017
 31
0.0
  0
SPLINE
  5
ACB1
330
1F
100
AcDbEntity
  8
AM_0
100
AcDbSpline
210
0.0
220
0.0
230
1.0
 70
     8
 71
     3
 72
    11
 73
     7
 74
     5
 42
0.0000000001
 43
0.0000000001
 44
0.0000000001
 40
0.0
 40
0.0
 40
0.0
 40
0.0
 40
0.1445304379603175
 40
0.2890704654440505
 40
0.433687062226698
 40
0.5783754573729573
 40
0.5783754573729573
 40
0.5783754573729573
 40
0.5783754573729573
 10
-30.41801300000034
 20
18.72057400000011
 30
0.0
 10
-30.40741109010575
 20
18.76818848845161
 30
0.0
 10
-30.38620656688506
 20
18.86342062455248
 30
0.0
 10
-30.29174828331764
 20
18.97854179345091
 30
0.0
 10
-30.16555100517607
 20
19.05730757767288
 30
0.0
 10
-30.06846769961958
 20
19.06718037582935
 30
0.0
 10
-30.01991400000034
 20
19.0721180000001
 30
0.0
 11
-30.41801300000034
 21
18.72057400000011
 31
0.0
 11
-30.3757690000003
 21
18.8587930000001
 31
0.0
 11
-30.28648500000034
 21
18.97246000000012
 31
0.0
 11
-30.16234100000033
 21
19.04663700000009
 31
0.0
 11
-30.01991400000034
 21
19.0721180000001
 31
0.0
  0
ELLIPSE
  5
ACB2
330
1F
100
AcDbEntity
  8
AM_0
100
AcDbEllipse
 10
-18.82277900000028
 20
1.003249000000124
 30
0.0
 11
-17.69713090282901
 21
3.126133692361964
 31
0.0
210
0.0
220
0.0
230
0.9999999999999998
 40
0.0301537132911
 41
4.061961233819689
 42
4.72772957698551
  0
ELLIPSE
  5
ACB3
330
1F
100
AcDbEntity
  8
AM_0
100
AcDbEllipse
 10
-5.164906000000286
 20
2.313618000000161
 30
0.0
 11
-1.048389945996011
 21
6.269229420140995
 31
0.0
210
0.0
220
0.0
230
0.9999999999999998
 40
0.5533452323173101
 41
2.202810090366519
 42
3.90926413351072
  0
ELLIPSE
  5
ACB4
330
1F
100
AcDbEntity
  8
AM_0
100
AcDbEllipse
 10
-18.82277900000028
 20
1.003249000000124
 30
0.0
 11
-17.69713090282901
 21
3.126133692361964
 31
0.0
210
0.0
220
0.0
230
0.9999999999999998
 40
0.0301537132911
 41
3.266474973325339
 42
3.462878881120259
  0
ELLIPSE
  5
ACB5
330
1F
100
AcDbEntity
  8
AM_0
100
AcDbEllipse
 10
-5.164906000000286
 20
2.313618000000161
 30
0.0
 11
-1.048389945996011
 21
6.269229420140995
 31
0.0
210
0.0
220
0.0
230
0.9999999999999998
 40
0.5533452323173101
 41
1.93561133444003
 42
2.202810090366519
  0
ELLIPSE
  5
ACB6
330
1F
100
AcDbEntity
  8
AM_0
100
AcDbEllipse
 10
0.2383569999997519
 20
-1.941567999999847
 30
0.0
 11
-8.287982464266002
 21
1.464041904052983
 31
0.0
210
0.0
220
0.0
230
0.9999999999999998
 40
0.03015363762072
 41
0.09788357802199
 42
1.302478966605179
  0
ELLIPSE
  5
ACB7
330
1F
100
AcDbEntity
  8
AM_0
100
AcDbEllipse
 10
-26.16902200000026
 20
5.804838000000131
 30
0.0
 11
0.0087279680719941
 21
2.999987303734999
 31
0.0
210
0.0
220
0.0
230
1.0
 40
0.9848076666666699
 41
2.35619483943865
 42
2.71109818274914
  0
ELLIPSE
  5
ACB8
330
1F
100
AcDbEntity
  8
AM_0
100
AcDbEllipse
 10
-5.219924000000247
 20
0.6702900000001648
 30
0.0
 11
0.0058186453809961
 21
1.999991535824
 31
0.0
210
0.0
220
0.0
230
1.0
 40
0.9848079999999999
 41
3.39110658889185
 42
3.521871046397479
  0
ELLIPSE
  5
ACB9
330
1F
100
AcDbEntity
  8
AM_0
100
AcDbEllipse
 10
-16.31928300000026
 20
9.079981000000117
 30
0.0
 11
0.0135283505119908
 21
4.64998032079
 31
0.0
210
0.0
220
0.0
230
1.0
 40
0.9848077419354799
 41
2.489794370741819
 42
3.141593005332119
  0
ELLIPSE
  5
ACBA
330
1F
100
AcDbEntity
  8
AM_0
100
AcDbEllipse
 10
-45.35343200000028
 20
6.348681000000084
 30
0.0
 11
-137.2231762466791
 21
78.86706280644974
 31
0.0
210
0.0
220
0.0
230
1.0
 40
0.08708642310548
 41
4.470596116587449
 42
4.514686144099009
  0
ELLIPSE
  5
ACBB
330
1F
100
AcDbEntity
  8
AM_0
100
AcDbEllipse
 10
-9.613503000000264
 20
5.337110000000137
 30
0.0
 11
0.0009109758489994
 21
0.3131216748359999
 31
0.0
210
0.0
220
0.0
230
1.0
 40
0.9848078869964799
 41
3.40164682144249
 42
4.972442651797519
  0
ELLIPSE
  5
ACBC
330
1F
100
AcDbEntity
  8
AM_0
100
AcDbEllipse
 10
-10.85167300000029
 20
5.006438000000144
 30
0.0
 11
0.0009109758489994
 21
0.3131216748359999
 31
0.0
210
0.0
220
0.0
230
1.0
 40
0.9848078869964799
 41
0.260053816799883
 42
0.519185070161899
  0
ELLIPSE
  5
ACBD
330
1F
100
AcDbEntity
  8
AM_0
100
AcDbEllipse
 10
-9.976528000000257
 20
6.231888000000168
 30
0.0
 11
0.0053822469779963
 21
1.849992170636999
 31
0.0
210
0.0
220
0.0
230
1.0
 40
0.9848075675675699
 41
2.82100457758104
 42
4.135355917689709
  0
ELLIPSE
  5
ACBE
330
1F
100
AcDbEntity
  8
AM_0
100
AcDbEllipse
 10
-13.10749300000028
 20
-3.249546999999864
 30
0.0
 11
0.0237109799289839
 21
8.149965508480999
 31
0.0
210
0.0
220
0.0
230
1.0
 40
0.9848077300613498
 41
-0.320588377363047
 42
-0.018481716745379
  0
ELLIPSE
  5
ACBF
330
1F
100
AcDbEntity
  8
AM_0
100
AcDbEllipse
 10
-15.97573000000028
 20
9.07898100000014
 30
0.0
 11
0.0141668333789904
 21
4.869440392011
 31
0.0
210
0.0
220
0.0
230
0.9999999999999998
 40
0.98480776414474
 41
2.66382896440818
 42
3.08884103730862
  0
ELLIPSE
  5
ACC0
330
1F
100
AcDbEntity
  8
AM_0
100
AcDbEllipse
 10
-15.97573000000028
 20
9.07898100000014
 30
0.0
 11
0.0141668333789904
 21
4.869440392011
 31
0.0
210
0.0
220
0.0
230
0.9999999999999998
 40
0.98480776414474
 41
2.582707939418289
 42
2.6224078788312
  0
ELLIPSE
  5
ACC1
330
1F
100
AcDbEntity
  8
AM_0
100
AcDbEllipse
 10
-16.41131600000028
 20
9.080248000000125
 30
0.0
 11
0.0135283505119908
 21
4.64998032079
 31
0.0
210
0.0
220
0.0
230
1.0
 40
0.9848077419354799
 41
2.66238214189821
 42
3.151641657008649
  0
ELLIPSE
  5
ACC2
330
1F
100
AcDbEntity
  8
AM_0
100
AcDbEllipse
 10
-15.97573000000028
 20
9.07898100000014
 30
0.0
 11
0.0141668333789904
 21
4.869440392011
 31
0.0
210
0.0
220
0.0
230
0.9999999999999998
 40
0.98480776414474
 41
2.6224078788312
 42
2.66382896440818
  0
ELLIPSE
  5
ACC3
330
1F
100
AcDbEntity
  8
AM_0
100
AcDbEllipse
 10
-10.90679400000027
 20
5.006598000000138
 30
0.0
 11
0.0008301810479994
 21
0.2853507923650001
 31
0.0
210
0.0
220
0.0
230
0.9999999999999998
 40
0.9848082368443201
 41
2.70567453772962
 42
3.401646733168789
  0
ELLIPSE
  5
ACC4
330
1F
100
AcDbEntity
  8
AM_0
100
AcDbEllipse
 10
-10.85167300000029
 20
5.006438000000144
 30
0.0
 11
0.0009109758489994
 21
0.3131216748359999
 31
0.0
210
0.0
220
0.0
230
1.0
 40
0.9848078869964799
 41
2.62240793257078
 42
3.40164682144249
  0
ELLIPSE
  5
ACC5
330
1F
100
AcDbEntity
  8
AM_0
100
AcDbEllipse
 10
-10.85167300000029
 20
5.006438000000144
 30
0.0
 11
0.0009109758489994
 21
0.3131216748359999
 31
0.0
210
0.0
220
0.0
230
1.0
 40
0.9848078869964799
 41
0.519185070161899
 42
2.62240793257078
  0
ELLIPSE
  5
ACC6
330
1F
100
AcDbEntity
  8
AM_0
100
AcDbEllipse
 10
-10.90679400000027
 20
5.006598000000138
 30
0.0
 11
0.0008301810479994
 21
0.2853507923650001
 31
0.0
210
0.0
220
0.0
230
0.9999999999999998
 40
0.9848082368443201
 41
0.260053728526292
 42
0.435917455755859
  0
ELLIPSE
  5
ACC7
330
1F
100
AcDbEntity
  8
AM_0
100
AcDbEllipse
 10
-9.668624000000306
 20
5.337271000000129
 30
0.0
 11
0.0008301810479994
 21
0.2853507923650001
 31
0.0
210
0.0
220
0.0
230
0.9999999999999998
 40
0.9848082368443201
 41
3.401646733168789
 42
4.972442740071099
  0
ELLIPSE
  5
ACC8
330
1F
100
AcDbEntity
  8
AM_0
100
AcDbEllipse
 10
-10.92533100000025
 20
5.089870000000161
 30
0.0
 11
-0.0516044688100004
 21
0.1932277899239999
 31
0.0
210
0.0
220
0.0
230
1.0
 40
0.16781
 41
0.041958058580473
 42
1.525487778894409
  0
ELLIPSE
  5
ACC9
330
1F
100
AcDbEntity
  8
AM_0
100
AcDbEllipse
 10
-10.93849700000032
 20
5.006691000000131
 30
0.0
 11
0.0002505305049998
 21
0.086112635562
 31
0.0
210
0.0
220
0.0
230
1.0
 40
0.9847990431177599
 41
0.260056048306478
 42
3.401649052951819
  0
ELLIPSE
  5
ACCA
330
1F
100
AcDbEntity
  8
AM_0
100
AcDbEllipse
 10
-10.88220400000028
 20
4.923309000000159
 30
0.0
 11
-0.0516044688100004
 21
0.1932277899239999
 31
0.0
210
0.0
220
0.0
230
1.0
 40
0.16781
 41
1.525487778894409
 42
3.00901933219698
  0
ELLIPSE
  5
ACCB
330
1F
100
AcDbEntity
  8
AM_0
100
AcDbEllipse
 10
-9.644033000000263
 20
5.253982000000149
 30
0.0
 11
-0.0516044688100004
 21
0.1932277899239999
 31
0.0
210
0.0
220
0.0
230
1.0
 40
0.16781
 41
1.525487778894409
 42
3.00901933219698
  0
ELLIPSE
  5
ACCC
330
1F
100
AcDbEntity
  8
AM_0
100
AcDbEllipse
 10
-9.700327000000299
 20
5.337363000000124
 30
0.0
 11
0.0002505305049998
 21
0.086112635562
 31
0.0
210
0.0
220
0.0
230
1.0
 40
0.9847990431177599
 41
3.401649052951819
 42
4.97244042030945
  0
ELLIPSE
  5
ACCD
330
1F
100
AcDbEntity
  8
AM_0
100
AcDbEllipse
 10
-9.583580000000324
 20
5.359166000000158
 30
0.0
 11
0.193614834539
 21
0.0501327821540004
 31
0.0
210
0.0
220
0.0
230
0.9999999999999998
 40
0.04465
 41
0.256056746699429
 42
1.73957077086481
  0
ELLIPSE
  5
ACCE
330
1F
100
AcDbEntity
  8
AM_0
100
AcDbEllipse
 10
-44.3255960000003
 20
8.137040000000098
 30
0.0
 11
-136.9868366721921
 21
78.73123000783272
 31
0.0
210
0.0
220
0.0
230
0.9999999999999998
 40
0.08708642405063
 41
4.436938295608139
 42
4.49363135438307
  0
ELLIPSE
  5
ACCF
330
1F
100
AcDbEntity
  8
AM_0
100
AcDbEllipse
 10
-43.15003300000029
 20
10.18243700000007
 30
0.0
 11
-136.9868366721921
 21
78.73123000783272
 31
0.0
210
0.0
220
0.0
230
0.9999999999999998
 40
0.08708642405063
 41
4.442729998964969
 42
4.49155696030665
  0
ELLIPSE
  5
ACD0
330
1F
100
AcDbEntity
  8
AM_0
100
AcDbEllipse
 10
-13.13803000000027
 20
0.0000000000001421
 30
0.0
 11
-101.946304592857
 21
17.9920438253478
 31
0.0
210
0.0
220
0.0
230
1.0
 40
0.00524308899658
 41
-1.51233889915836
 42
-1.43654881283159
  0
ELLIPSE
  5
ACD1
330
1F
100
AcDbEntity
  8
AM_0
100
AcDbEllipse
 10
-198.7793819999998
 20
-197.4186180000002
 30
0.0
 11
263.7060984672797
 21
140.8000061309275
 31
0.0
210
0.0
220
0.0
230
1.0
 40
0.5834472929431401
 41
0.55142137970355
 42
0.564330687823018
  0
ELLIPSE
  5
ACD2
330
1F
100
AcDbEntity
  8
AM_0
100
AcDbEllipse
 10
-64.26728200000025
 20
4.802694000000002
 30
0.0
 11
-168.7299699614059
 21
29.91794802514266
 31
0.0
210
0.0
220
0.0
230
1.0
 40
0.02828547178801
 41
4.36373263726027
 42
4.37716432072564
  0
SPLINE
  5
ACD3
330
1F
100
AcDbEntity
  8
AM_0
100
AcDbSpline
210
0.0
220
0.0
230
1.0
 70
     8
 71
     3
 72
    11
 73
     7
 74
     5
 42
0.0000000001
 43
0.0000000001
 44
0.0000000001
 40
0.0
 40
0.0
 40
0.0
 40
0.0
 40
0.070364840659236
 40
0.1405927101841095
 40
0.2107602224671734
 40
0.2809505865494513
 40
0.2809505865494513
 40
0.2809505865494513
 40
0.2809505865494513
 10
-13.94923000000025
 20
0.6980860000001315
 30
0.0
 10
-13.92714924739107
 20
0.7060448122977333
 30
0.0
 10
-13.88303072423172
 20
0.7219469443893174
 30
0.0
 10
-13.81986929366322
 20
0.7529645558653614
 30
0.0
 10
-13.75925868171307
 20
0.7886056974763724
 30
0.0
 10
-13.72182492544633
 20
0.8167270396713906
 30
0.0
 10
-13.70310500000025
 20
0.8307900000001211
 30
0.0
 11
-13.94923000000025
 21
0.6980860000001315
 31
0.0
 11
-13.88348500000026
 21
0.7231620000001442
 31
0.0
 11
-13.82026800000025
 21
0.7537490000001697
 31
0.0
 11
-13.76000600000028
 21
0.7896930000001419
 31
0.0
 11
-13.70310500000025
 21
0.8307900000001211
 31
0.0
  0
SPLINE
  5
ACD4
330
1F
100
AcDbEntity
  8
AM_0
100
AcDbSpline
210
0.0
220
0.0
230
1.0
 70
     8
 71
     3
 72
    11
 73
     7
 74
     5
 42
0.0000000001
 43
0.0000000001
 44
0.0000000001
 40
0.0
 40
0.0
 40
0.0
 40
0.0
 40
0.4101078095489368
 40
0.816574894752637
 40
1.219590930608516
 40
1.619509021448412
 40
1.619509021448412
 40
1.619509021448412
 40
1.619509021448412
 10
-17.19744400000027
 20
3.118373000000161
 30
0.0
 10
-17.06443694879251
 20
3.086147007882214
 30
0.0
 10
-16.79960361396577
 20
3.021981109283612
 30
0.0
 10
-16.39399209369784
 20
2.982048960893733
 30
0.0
 10
-15.98982978331664
 20
2.980237774335295
 30
0.0
 10
-15.72431445023582
 20
3.01619149796112
 30
0.0
 10
-15.59206900000023
 20
3.034099000000168
 30
0.0
 11
-17.19744400000027
 21
3.118373000000161
 31
0.0
 11
-16.79672200000024
 21
3.031136000000145
 31
0.0
 11
-16.39251700000025
 21
2.988313000000147
 31
0.0
 11
-15.98950300000026
 21
2.989594000000153
 31
0.0
 11
-15.59206900000023
 21
3.034099000000168
 31
0.0
  0
SPLINE
  5
ACD5
330
1F
100
AcDbEntity
  8
AM_0
100
AcDbSpline
210
0.0
220
0.0
230
1.0
 70
     8
 71
     3
 72
    11
 73
     7
 74
     5
 42
0.0000000001
 43
0.0000000001
 44
0.0000000001
 40
0.0
 40
0.0
 40
0.0
 40
0.0
 40
0.9878615245184668
 40
1.983467291390064
 40
2.98809494080304
 40
4.00252603917985
 40
4.00252603917985
 40
4.00252603917985
 40
4.00252603917985
 10
-15.59206900000023
 20
3.034099000000168
 30
0.0
 10
-15.26479915146633
 20
3.075555144310461
 30
0.0
 10
-14.60769385491013
 20
3.158792424258877
 30
0.0
 10
-13.60882152986754
 20
3.105885826494596
 30
0.0
 10
-12.61494725341599
 20
2.92999826711248
 30
0.0
 10
-11.98332069592187
 20
2.693915518760693
 30
0.0
 10
-11.66597400000026
 20
2.575301000000166
 30
0.0
 11
-15.59206900000023
 21
3.034099000000168
 31
0.0
 11
-14.60878700000026
 21
3.12910900000017
 31
0.0
 11
-13.61411900000027
 21
3.085907000000162
 31
0.0
 11
-12.62660100000025
 21
2.901286000000169
 31
0.0
 11
-11.66597400000026
 21
2.575301000000166
 31
0.0
  0
SPLINE
  5
ACD6
330
1F
100
AcDbEntity
  8
AM_0
100
AcDbSpline
210
0.0
220
0.0
230
1.0
 70
     8
 71
     3
 72
    11
 73
     7
 74
     5
 42
0.0000000001
 43
0.0000000001
 44
0.0000000001
 40
0.0
 40
0.0
 40
0.0
 40
0.0
 40
0.14592264254733
 40
0.2909262426405872
 40
0.4349972293797708
 40
0.5781519007146421
 40
0.5781519007146421
 40
0.5781519007146421
 40
0.5781519007146421
 10
-10.68863900000027
 20
0.2925760000001389
 30
0.0
 10
-10.65381901193464
 20
0.2585314473124392
 30
0.0
 10
-10.58439833725463
 20
0.1906567595812362
 30
0.0
 10
-10.4671556708428
 20
0.1047150310512051
 30
0.0
 10
-10.34475634494811
 20
0.0284075232905207
 30
0.0
 10
-10.25889681114655
 20
-0.0140800072095519
 30
0.0
 10
-10.21610400000028
 20
-0.0352559999998619
 30
0.0
 11
-10.68863900000027
 21
0.2925760000001389
 31
0.0
 11
-10.58191700000028
 21
0.1930580000001498
 31
0.0
 11
-10.46591100000026
 21
0.1060600000001557
 31
0.0
 11
-10.34335900000027
 21
0.0303140000001179
 31
0.0
 11
-10.21610400000028
 21
-0.0352559999998619
 31
0.0
  0
SPLINE
  5
ACD7
330
1F
100
AcDbEntity
  8
AM_0
100
AcDbSpline
210
0.0
220
0.0
230
1.0
 70
     8
 71
     3
 72
    11
 73
     7
 74
     5
 42
0.0000000001
 43
0.0000000001
 44
0.0000000001
 40
0.0
 40
0.0
 40
0.0
 40
0.0
 40
0.8737569738004836
 40
1.727228628843576
 40
2.557305239293476
 40
3.370953121442142
 40
3.370953121442142
 40
3.370953121442142
 40
3.370953121442142
 10
-10.68863900000027
 20
0.2925760000001389
 30
0.0
 10
-10.89054497156117
 20
0.5083467580808775
 30
0.0
 10
-11.28966942478024
 20
0.9348788966494597
 30
0.0
 10
-12.11737234506564
 20
1.221083634596057
 30
0.0
 10
-12.98037336148978
 20
1.247307341672257
 30
0.0
 10
-13.46380505788367
 20
0.9687009069560057
 30
0.0
 10
-13.70310500000025
 20
0.8307900000001211
 30
0.0
 11
-10.68863900000027
 21
0.2925760000001389
 31
0.0
 11
-11.33528000000026
 21
0.8802040000001341
 31
0.0
 11
-12.13443100000026
 21
1.179823000000141
 31
0.0
 11
-12.96447100000025
 21
1.172027000000156
 31
0.0
 11
-13.70310500000025
 21
0.8307900000001211
 31
0.0
  0
SPLINE
  5
ACD8
330
1F
100
AcDbEntity
  8
AM_0
100
AcDbSpline
210
0.0
220
0.0
230
1.0
 70
     8
 71
     3
 72
    11
 73
     7
 74
     5
 42
0.0000000001
 43
0.0000000001
 44
0.0000000001
 40
0.0
 40
0.0
 40
0.0
 40
0.0
 40
0.0334022186688327
 40
0.0637753022298138
 40
0.0917446640386949
 40
0.1184183193937749
 40
0.1184183193937749
 40
0.1184183193937749
 40
0.1184183193937749
 10
-16.35331500000029
 20
4.177574000000134
 30
0.0
 10
-16.34353014687788
 20
4.182897100618852
 30
0.0
 10
-16.32484779612319
 20
4.193060567726357
 30
0.0
 10
-16.29687373717582
 20
4.205461438067879
 30
0.0
 10
-16.26974794315621
 20
4.214214294779717
 30
0.0
 10
-16.25158979110778
 20
4.216119826378957
 30
0.0
 10
-16.24272600000028
 20
4.217050000000114
 30
0.0
 11
-16.35331500000029
 21
4.177574000000134
 31
0.0
 11
-16.3237510000003
 21
4.193120000000163
 31
0.0
 11
-16.29591700000025
 21
4.205277000000165
 31
0.0
 11
-16.26914500000032
 21
4.213373000000132
 31
0.0
 11
-16.24272600000028
 21
4.217050000000114
 31
0.0
  0
SPLINE
  5
ACD9
330
1F
100
AcDbEntity
  8
AM_0
100
AcDbSpline
210
0.0
220
0.0
230
1.0
 70
     8
 71
     3
 72
    11
 73
     7
 74
     5
 42
0.0000000001
 43
0.0000000001
 44
0.0000000001
 40
0.0
 40
0.0
 40
0.0
 40
0.0
 40
0.1132219606127889
 40
0.2270603869721989
 40
0.3414391950880942
 40
0.4562928423658558
 40
0.4562928423658558
 40
0.4562928423658558
 40
0.4562928423658558
 10
-16.35331500000029
 20
4.177574000000134
 30
0.0
 10
-16.39103422289272
 20
4.17898273755155
 30
0.0
 10
-16.4666780405752
 20
4.181807882884091
 30
0.0
 10
-16.58011399907903
 20
4.191479699936977
 30
0.0
 10
-16.69370859649908
 20
4.204995553111466
 30
0.0
 10
-16.76904218273037
 20
4.217846977425327
 30
0.0
 10
-16.80678700000032
 20
4.224286000000148
 30
0.0
 11
-16.35331500000029
 21
4.177574000000134
 31
0.0
 11
-16.46642100000031
 21
4.18269700000016
 31
0.0
 11
-16.57987100000025
 21
4.192093000000141
 31
0.0
 11
-16.69341000000031
 21
4.205928000000113
 31
0.0
 11
-16.80678700000032
 21
4.224286000000148
 31
0.0
  0
SPLINE
  5
ACDA
330
1F
100
AcDbEntity
  8
AM_0
100
AcDbSpline
210
0.0
220
0.0
230
1.0
 70
     8
 71
     3
 72
    11
 73
     7
 74
     5
 42
0.0000000001
 43
0.0000000001
 44
0.0000000001
 40
0.0
 40
0.0
 40
0.0
 40
0.0
 40
0.4607225617657422
 40
0.9171604851737169
 40
1.371324918413473
 40
1.828928219118342
 40
1.828928219118342
 40
1.828928219118342
 40
1.828928219118342
 10
-16.80678700000032
 20
4.224286000000148
 30
0.0
 10
-16.95742055852801
 20
4.254372378116244
 30
0.0
 10
-17.25728681012466
 20
4.314265336351938
 30
0.0
 10
-17.69932211519452
 20
4.431563563656116
 30
0.0
 10
-18.1359328369937
 20
4.563784544919288
 30
0.0
 10
-18.43199340019865
 20
4.63286400049669
 30
0.0
 10
-18.58058200000027
 20
4.667534000000131
 30
0.0
 11
-16.80678700000032
 21
4.224286000000148
 31
0.0
 11
-17.25762100000031
 21
4.319228000000151
 31
0.0
 11
-17.69931600000029
 21
4.434298000000154
 31
0.0
 11
-18.13610200000027
 21
4.558730000000167
 31
0.0
 11
-18.58058200000027
 21
4.667534000000131
 31
0.0
  0
SPLINE
  5
ACDB
330
1F
100
AcDbEntity
  8
AM_0
100
AcDbSpline
210
0.0
220
0.0
230
1.0
 70
     8
 71
     3
 72
    11
 73
     7
 74
     5
 42
0.0000000001
 43
0.0000000001
 44
0.0000000001
 40
0.0
 40
0.0
 40
0.0
 40
0.0
 40
0.0636098081195684
 40
0.1276241160358493
 40
0.1918039486314125
 40
0.2560364211979133
 40
0.2560364211979133
 40
0.2560364211979133
 40
0.2560364211979133
 10
-12.93546500000025
 20
4.898595000000142
 30
0.0
 10
-12.95667731832143
 20
4.898525038627389
 30
0.0
 10
-12.99923684577233
 20
4.898384670991986
 30
0.0
 10
-13.06297521008775
 20
4.892685831453318
 30
0.0
 10
-13.12660623290801
 20
4.884501897714523
 30
0.0
 10
-13.16876165072208
 20
4.877042318538381
 30
0.0
 10
-13.18984800000032
 20
4.873311000000143
 30
0.0
 11
-12.93546500000025
 21
4.898595000000142
 31
0.0
 11
-12.99906500000031
 21
4.89747800000012
 31
0.0
 11
-13.06286800000032
 21
4.892281000000167
 31
0.0
 11
-13.12651200000027
 21
4.884005000000144
 31
0.0
 11
-13.18984800000032
 21
4.873311000000143
 31
0.0
  0
SPLINE
  5
ACDC
330
1F
100
AcDbEntity
  8
AM_0
100
AcDbSpline
210
0.0
220
0.0
230
1.0
 70
     8
 71
     3
 72
    11
 73
     7
 74
     5
 42
0.0000000001
 43
0.0000000001
 44
0.0000000001
 40
0.0
 40
0.0
 40
0.0
 40
0.0
 40
0.0962750004934087
 40
0.2023836285167489
 40
0.318235005107651
 40
0.438491425098384
 40
0.438491425098384
 40
0.438491425098384
 40
0.438491425098384
 10
-13.6252840000003
 20
4.834753000000119
 30
0.0
 10
-13.59415791205026
 20
4.843137114331255
 30
0.0
 10
-13.52872648552649
 20
4.860761705050947
 30
0.0
 10
-13.42192268373493
 20
4.860080925327211
 30
0.0
 10
-13.30788350820367
 20
4.858183280341815
 30
0.0
 10
-13.22967951783578
 20
4.868206095174872
 30
0.0
 10
-13.18984800000032
 20
4.873311000000143
 30
0.0
 11
-13.6252840000003
 21
4.834753000000119
 31
0.0
 11
-13.53134200000027
 21
4.855819000000138
 31
0.0
 11
-13.4253130000003
 21
4.859929000000164
 31
0.0
 11
-13.30946600000027
 21
4.860936000000123
 31
0.0
 11
-13.18984800000032
 21
4.873311000000143
 31
0.0
  0
SPLINE
  5
ACDD
330
1F
100
AcDbEntity
  8
AM_0
100
AcDbSpline
210
0.0
220
0.0
230
1.0
 70
     8
 71
     3
 72
    11
 73
     7
 74
     5
 42
0.0000000001
 43
0.0000000001
 44
0.0000000001
 40
0.0
 40
0.0
 40
0.0
 40
0.0
 40
0.4438259897178046
 40
0.8878290679954288
 40
1.332000234182532
 40
1.776330116204885
 40
1.776330116204885
 40
1.776330116204885
 40
1.776330116204885
 10
-0.0476950000002887
 20
0.7067580000001499
 30
0.0
 10
-0.0382366543650252
 20
0.559112097992644
 30
0.0
 10
-0.0193161891721826
 20
0.2637613826007512
 30
0.0
 10
-0.0032795481823233
 20
-0.1799942082007329
 30
0.0
 10
0.0045299753427072
 20
-0.6241385359270573
 30
0.0
 10
0.0015101715931907
 20
-0.9203032103555475
 30
0.0
 10
-0.0000000000002558
 20
-1.068411999999852
 30
0.0
 11
-0.0476950000002887
 21
0.7067580000001499
 31
0.0
 11
-0.0213770000002285
 21
0.2637130000001662
 31
0.0
 11
-0.0046530000002747
 21
-0.1799749999998426
 31
0.0
 11
0.0024729999997533
 21
-0.6240889999998558
 31
0.0
 11
-0.0000000000002558
 21
-1.068411999999852
 31
0.0
  0
SPLINE
  5
ACDE
330
1F
100
AcDbEntity
  8
AM_0
100
AcDbSpline
210
0.0
220
0.0
230
1.0
 70
     8
 71
     3
 72
    11
 73
     7
 74
     5
 42
0.0000000001
 43
0.0000000001
 44
0.0000000001
 40
0.0
 40
0.0
 40
0.0
 40
0.0
 40
0.6507323174163082
 40
1.309781639677507
 40
1.976015567803361
 40
2.647851194672045
 40
2.647851194672045
 40
2.647851194672045
 40
2.647851194672045
 10
-0.3578910000002509
 20
3.335407000000145
 30
0.0
 10
-0.3234498148979327
 20
3.121235527710452
 30
0.0
 10
-0.254127252166057
 20
2.690155259157755
 30
0.0
 10
-0.1701806148479687
 20
2.036766445563434
 30
0.0
 10
-0.0990552277412921
 20
1.374790252857397
 30
0.0
 10
-0.0648627903576965
 20
0.9300560298857162
 30
0.0
 10
-0.0476950000002887
 20
0.7067580000001499
 30
0.0
 11
-0.3578910000002509
 21
3.335407000000145
 31
0.0
 11
-0.2579440000002648
 21
2.692396000000144
 31
0.0
 11
-0.1727370000002963
 21
2.038878000000181
 31
0.0
 11
-0.1025920000002713
 21
1.37634700000018
 31
0.0
 11
-0.0476950000002887
 21
0.7067580000001499
 31
0.0
  0
SPLINE
  5
ACDF
330
1F
100
AcDbEntity
  8
AM_0
100
AcDbSpline
210
0.0
220
0.0
230
1.0
 70
     8
 71
     3
 72
    11
 73
     7
 74
     5
 42
0.0000000001
 43
0.0000000001
 44
0.0000000001
 40
0.0
 40
0.0
 40
0.0
 40
0.0
 40
0.6262679634613394
 40
1.305774957483473
 40
2.012273836591567
 40
2.712333615665441
 40
2.712333615665441
 40
2.712333615665441
 40
2.712333615665441
 10
-16.24272600000028
 20
4.217050000000114
 30
0.0
 10
-16.0337031554898
 20
4.22102215720495
 30
0.0
 10
-15.59788843746519
 20
4.22930414464144
 30
0.0
 10
-14.93593043954422
 20
4.352007630399211
 30
0.0
 10
-14.26681977615359
 20
4.547373070040264
 30
0.0
 10
-13.83847561827309
 20
4.739252492304938
 30
0.0
 10
-13.6252840000003
 20
4.834753000000119
 30
0.0
 11
-16.24272600000028
 21
4.217050000000114
 31
0.0
 11
-15.61709900000028
 21
4.245377000000161
 31
0.0
 11
-14.94754400000027
 21
4.361247000000133
 31
0.0
 11
-14.27051000000028
 21
4.563152000000144
 31
0.0
 11
-13.6252840000003
 21
4.834753000000119
 31
0.0
  0
SPLINE
  5
ACE0
330
1F
100
AcDbEntity
  8
AM_0
100
AcDbSpline
210
0.0
220
0.0
230
1.0
 70
     8
 71
     3
 72
    11
 73
     7
 74
     5
 42
0.0000000001
 43
0.0000000001
 44
0.0000000001
 40
0.0
 40
0.0
 40
0.0
 40
0.0
 40
0.147086859035719
 40
0.2950679188643384
 40
0.4450376071349873
 40
0.5982454708757187
 40
0.5982454708757187
 40
0.5982454708757187
 40
0.5982454708757187
 10
-15.76716100000032
 20
4.062291000000158
 30
0.0
 10
-15.81596133323535
 20
4.067214035852354
 30
0.0
 10
-15.91385867676382
 20
4.077090036692439
 30
0.0
 10
-16.05984363572082
 20
4.104221529928062
 30
0.0
 10
-16.20638587658573
 20
4.138096132532435
 30
0.0
 10
-16.30399112517281
 20
4.16432134220037
 30
0.0
 10
-16.35331500000029
 20
4.177574000000134
 30
0.0
 11
-15.76716100000032
 21
4.062291000000158
 31
0.0
 11
-15.91328700000031
 21
4.079076000000128
 31
0.0
 11
-16.05895500000031
 21
4.105138000000152
 31
0.0
 11
-16.2051210000003
 21
4.138700000000113
 31
0.0
 11
-16.35331500000029
 21
4.177574000000134
 31
0.0
  0
SPLINE
  5
ACE1
330
1F
100
AcDbEntity
  8
AM_0
100
AcDbSpline
210
0.0
220
0.0
230
1.0
 70
     8
 71
     3
 72
    11
 73
     7
 74
     5
 42
0.0000000001
 43
0.0000000001
 44
0.0000000001
 40
0.0
 40
0.0
 40
0.0
 40
0.0
 40
0.6768045831057834
 40
1.373307529599168
 40
2.065711154630109
 40
2.722643980427438
 40
2.722643980427438
 40
2.722643980427438
 40
2.722643980427438
 10
-13.18984800000032
 20
4.873311000000143
 30
0.0
 10
-13.38943362036839
 20
4.767682058508754
 30
0.0
 10
-13.79441379055785
 20
4.553349850490829
 30
0.0
 10
-14.44065263430872
 20
4.311432909096765
 30
0.0
 10
-15.10125112429371
 20
4.133176088498481
 30
0.0
 10
-15.54911546569893
 20
4.085501613867714
 30
0.0
 10
-15.76716100000032
 20
4.062291000000158
 30
0.0
 11
-13.18984800000032
 21
4.873311000000143
 31
0.0
 11
-13.79459100000031
 21
4.569419000000124
 31
0.0
 11
-14.44544800000028
 21
4.321424000000121
 31
0.0
 11
-15.11590800000027
 21
4.148490000000123
 31
0.0
 11
-15.76716100000032
 21
4.062291000000158
 31
0.0
  0
SPLINE
  5
ACE2
330
1F
100
AcDbEntity
  8
AM_0
100
AcDbSpline
210
0.0
220
0.0
230
1.0
 70
     8
 71
     3
 72
    11
 73
     7
 74
     5
 42
0.0000000001
 43
0.0000000001
 44
0.0000000001
 40
0.0
 40
0.0
 40
0.0
 40
0.0
 40
0.5351365005472998
 40
1.070309625690972
 40
1.605561411516079
 40
2.140955705308032
 40
2.140955705308032
 40
2.140955705308032
 40
2.140955705308032
 10
-6.734623000000283
 20
3.940565000000134
 30
0.0
 10
-6.877753795827388
 20
4.047019607856746
 30
0.0
 10
-7.16402518331429
 20
4.259936109294345
 30
0.0
 10
-7.593461877101017
 20
4.579325210212493
 30
0.0
 10
-8.022974497011849
 20
4.898756215665679
 30
0.0
 10
-8.309357459369907
 20
5.111710623481683
 30
0.0
 10
-8.452568000000269
 20
5.218202000000161
 30
0.0
 11
-6.734623000000283
 21
3.940565000000134
 31
0.0
 11
-7.164016000000287
 21
4.259928000000144
 31
0.0
 11
-7.593442000000322
 21
4.579308000000168
 31
0.0
 11
-8.022940000000289
 21
4.89872300000016
 31
0.0
 11
-8.452568000000269
 21
5.218202000000161
 31
0.0
  0
SPLINE
  5
ACE3
330
1F
100
AcDbEntity
  8
AM_0
100
AcDbSpline
210
0.0
220
0.0
230
1.0
 70
     8
 71
     3
 72
    11
 73
     7
 74
     5
 42
0.0000000001
 43
0.0000000001
 44
0.0000000001
 40
0.0
 40
0.0
 40
0.0
 40
0.0
 40
0.4280505132854816
 40
0.8573418987662563
 40
1.287834527489494
 40
1.719419813982162
 40
1.719419813982162
 40
1.719419813982162
 40
1.719419813982162
 10
-7.904071000000243
 20
2.696367000000151
 30
0.0
 10
-7.789103929962995
 20
2.781124993795192
 30
0.0
 10
-7.558836512772465
 20
2.950886685652797
 30
0.0
 10
-7.250205705107102
 20
3.250759118474455
 30
0.0
 10
-6.969209050692533
 20
3.57820183170183
 30
0.0
 10
-6.812884395826865
 20
3.819675257138263
 30
0.0
 10
-6.734623000000283
 20
3.940565000000134
 30
0.0
 11
-7.904071000000243
 21
2.696367000000151
 31
0.0
 11
-7.565353000000271
 21
2.958087000000119
 31
0.0
 11
-7.255221000000261
 21
3.254919000000114
 31
0.0
 11
-6.977242000000245
 21
3.583631000000167
 31
0.0
 11
-6.734623000000283
 21
3.940565000000134
 31
0.0
  0
SPLINE
  5
ACE4
330
1F
100
AcDbEntity
  8
AM_0
100
AcDbSpline
210
0.0
220
0.0
230
1.0
 70
     8
 71
     3
 72
    11
 73
     7
 74
     5
 42
0.0000000001
 43
0.0000000001
 44
0.0000000001
 40
0.0
 40
0.0
 40
0.0
 40
0.0
 40
0.9561905091272207
 40
1.900620916399261
 40
2.845519991247968
 40
3.807582440344748
 40
3.807582440344748
 40
3.807582440344748
 40
3.807582440344748
 10
-11.55704600000027
 20
2.528419000000127
 30
0.0
 10
-11.25729056399027
 20
2.416060396847324
 30
0.0
 10
-10.6614663573633
 20
2.192725078988393
 30
0.0
 10
-9.708247527652645
 20
2.108379862185254
 30
0.0
 10
-8.747266285315031
 20
2.227784848723515
 30
0.0
 10
-8.186817512012344
 20
2.539238549246144
 30
0.0
 10
-7.904071000000243
 20
2.696367000000151
 30
0.0
 11
-11.55704600000027
 21
2.528419000000127
 31
0.0
 11
-10.64743700000028
 21
2.233611000000138
 31
0.0
 11
-9.707445000000262
 21
2.142157000000139
 31
0.0
 11
-8.773242000000294
 21
2.283928000000145
 31
0.0
 11
-7.904071000000243
 21
2.696367000000151
 31
0.0
  0
SPLINE
  5
ACE5
330
1F
100
AcDbEntity
  8
AM_0
100
AcDbSpline
210
0.0
220
0.0
230
1.0
 70
     8
 71
     3
 72
    11
 73
     7
 74
     5
 42
0.0000000001
 43
0.0000000001
 44
0.0000000001
 40
0.0
 40
0.0
 40
0.0
 40
0.0
 40
0.1738808035925844
 40
0.3478861486426704
 40
0.5219902791651649
 40
0.6961852275247482
 40
0.6961852275247482
 40
0.6961852275247482
 40
0.6961852275247482
 10
-6.734623000000283
 20
3.940565000000134
 30
0.0
 10
-6.70751218502047
 20
3.991804713082905
 30
0.0
 10
-6.653271137043779
 20
4.094320839496075
 30
0.0
 10
-6.58026570740187
 20
4.25233394696747
 30
0.0
 10
-6.512929975741995
 20
4.412957992642784
 30
0.0
 10
-6.473839389494716
 20
4.522299160764583
 30
0.0
 10
-6.454289000000301
 20
4.576984000000123
 30
0.0
 11
-6.734623000000283
 21
3.940565000000134
 31
0.0
 11
-6.65468600000031
 21
4.094982000000157
 31
0.0
 11
-6.581231000000286
 21
4.252723000000145
 31
0.0
 11
-6.514394000000265
 21
4.413487000000117
 31
0.0
 11
-6.454289000000301
 21
4.576984000000123
 31
0.0
  0
SPLINE
  5
ACE6
330
1F
100
AcDbEntity
  8
AM_0
100
AcDbSpline
210
0.0
220
0.0
230
1.0
 70
     8
 71
     3
 72
    11
 73
     7
 74
     5
 42
0.0000000001
 43
0.0000000001
 44
0.0000000001
 40
0.0
 40
0.0
 40
0.0
 40
0.0
 40
0.0812974389879147
 40
0.1621829811880235
 40
0.2427097522023454
 40
0.3229723348919551
 40
0.3229723348919551
 40
0.3229723348919551
 40
0.3229723348919551
 10
-0.4698820000002968
 20
-1.796374999999841
 30
0.0
 10
-0.4949214571563573
 20
-1.806812973317275
 30
0.0
 10
-0.544873508038346
 20
-1.827636035534945
 30
0.0
 10
-0.6232763336458747
 20
-1.848381937579664
 30
0.0
 10
-0.7029235645521221
 20
-1.861755603810644
 30
0.0
 10
-0.7565572294907886
 20
-1.863260692259164
 30
0.0
 10
-0.7833300000002908
 20
-1.864011999999831
 30
0.0
 11
-0.4698820000002968
 21
-1.796374999999841
 31
0.0
 11
-0.5456130000002588
 21
-1.825939999999832
 31
0.0
 11
-0.6236570000002928
 21
-1.847190999999838
 31
0.0
 11
-0.7031720000002509
 21
-1.859915999999827
 31
0.0
 11
-0.7833300000002908
 21
-1.864011999999831
 31
0.0
  0
SPLINE
  5
ACE7
330
1F
100
AcDbEntity
  8
AM_0
100
AcDbSpline
210
0.0
220
0.0
230
1.0
 70
     8
 71
     3
 72
    11
 73
     7
 74
     5
 42
0.0000000001
 43
0.0000000001
 44
0.0000000001
 40
0.0
 40
0.0
 40
0.0
 40
0.0
 40
0.6237202821938458
 40
1.246120966764499
 40
1.867146733252463
 40
2.486735383782006
 40
2.486735383782006
 40
2.486735383782006
 40
2.486735383782006
 10
-3.383610000000288
 20
-1.391144999999852
 30
0.0
 10
-3.587970373326628
 20
-1.352908115614147
 30
0.0
 10
-3.996258757154793
 20
-1.276515244166737
 30
0.0
 10
-4.607994041506379
 20
-1.161887118514838
 30
0.0
 10
-5.218354700988703
 20
-1.04740076184169
 30
0.0
 10
-5.624782501030971
 20
-0.9710447705954294
 30
0.0
 10
-5.827761000000265
 20
-0.9329109999998479
 30
0.0
 11
-3.383610000000288
 21
-1.391144999999852
 31
0.0
 11
-3.996686000000266
 21
-1.276406999999863
 31
0.0
 11
-4.608441000000283
 21
-1.161783999999869
 31
0.0
 11
-5.218820000000249
 21
-1.04728299999985
 31
0.0
 11
-5.827761000000265
 21
-0.9329109999998479
 31
0.0
  0
SPLINE
  5
ACE8
330
1F
100
AcDbEntity
  8
AM_0
100
AcDbSpline
210
0.0
220
0.0
230
1.0
 70
     8
 71
     3
 72
    11
 73
     7
 74
     5
 42
0.0000000001
 43
0.0000000001
 44
0.0000000001
 40
0.0
 40
0.0
 40
0.0
 40
0.0
 40
0.2295733724629205
 40
0.4587404807768733
 40
0.6861120290585663
 40
0.9108808026237888
 40
0.9108808026237888
 40
0.9108808026237888
 40
0.9108808026237888
 10
-0.0000000000002558
 20
-1.068411999999852
 30
0.0
 10
-0.0074237904437505
 20
-1.145128144361424
 30
0.0
 10
-0.0222582338319339
 20
-1.298424672483211
 30
0.0
 10
-0.1234465044671438
 20
-1.507776420149642
 30
0.0
 10
-0.2714950541883636
 20
-1.68532458742853
 30
0.0
 10
-0.4040072897862923
 20
-1.75950052866131
 30
0.0
 10
-0.4698820000002968
 20
-1.796374999999841
 30
0.0
 11
-0.0000000000002558
 21
-1.068411999999852
 31
0.0
 11
-0.035500000000269
 21
-1.295223999999848
 31
0.0
 11
-0.1317430000002275
 21
-1.503201999999816
 31
0.0
 11
-0.2807250000002739
 21
-1.674963999999818
 31
0.0
 11
-0.4698820000002968
 21
-1.796374999999841
 31
0.0
  0
SPLINE
  5
ACE9
330
1F
100
AcDbEntity
  8
AM_0
100
AcDbSpline
210
0.0
220
0.0
230
1.0
 70
     8
 71
     3
 72
    11
 73
     7
 74
     5
 42
0.0000000001
 43
0.0000000001
 44
0.0000000001
 40
0.0
 40
0.0
 40
0.0
 40
0.0
 40
0.033645967158045
 40
0.0672774984642457
 40
0.1008910461049886
 40
0.1345182690798245
 40
0.1345182690798245
 40
0.1345182690798245
 40
0.1345182690798245
 10
-0.7833300000002908
 20
-1.864011999999831
 30
0.0
 10
-0.794546106825301
 20
-1.863834733548623
 30
0.0
 10
-0.8169735081881416
 20
-1.863480276702639
 30
0.0
 10
-0.8505263405019531
 20
-1.86098685261346
 30
0.0
 10
-0.8839510712491016
 20
-1.857196076744082
 30
0.0
 10
-0.9060415261745566
 20
-1.853378284400345
 30
0.0
 10
-0.9170890000002316
 20
-1.851468999999838
 30
0.0
 11
-0.7833300000002908
 21
-1.864011999999831
 31
0.0
 11
-0.8169650000002945
 21
-1.86315299999984
 31
0.0
 11
-0.8505120000002932
 21
-1.860769999999831
 31
0.0
 11
-0.8838990000002411
 21
-1.856873999999834
 31
0.0
 11
-0.9170890000002316
 21
-1.851468999999838
 31
0.0
  0
ELLIPSE
  5
ACEA
330
1F
100
AcDbEntity
  8
AM_0
100
AcDbEllipse
 10
-15.95462300000031
 20
9.078920000000124
 30
0.0
 11
0.0120736891659918
 21
4.149982436833999
 31
0.0
210
0.0
220
0.0
230
1.0
 40
0.9848077108433699
 41
-1.567931199090169
 42
4.71525380557651
  0
ELLIPSE
  5
ACEB
330
1F
100
AcDbEntity
  8
AM_0
100
AcDbEllipse
 10
-16.00475100000028
 20
9.079066000000153
 30
0.0
 11
0.0135283505119908
 21
4.64998032079
 31
0.0
210
0.0
220
0.0
230
1.0
 40
0.9848077419354799
 41
3.141593005332119
 42
4.71238899970199
  0
ELLIPSE
  5
ACEC
330
1F
100
AcDbEntity
  8
AM_0
100
AcDbEllipse
 10
-16.00475100000028
 20
9.079066000000153
 30
0.0
 11
0.0135283505119908
 21
4.64998032079
 31
0.0
210
0.0
220
0.0
230
1.0
 40
0.9848077419354799
 41
0.0
 42
3.141593005332119
  0
ELLIPSE
  5
ACED
330
1F
100
AcDbEntity
  8
AM_0
100
AcDbEllipse
 10
-18.07535300000031
 20
21.44095700000016
 30
0.0
 11
0.0581864538139605
 21
19.999915358236
 31
0.0
210
0.0
220
0.0
230
1.0
 40
0.9848077499999998
 41
2.478047743988799
 42
2.80664380159254
  0
ELLIPSE
  5
ACEE
330
1F
100
AcDbEntity
  8
AM_0
100
AcDbEllipse
 10
-19.22375000000028
 20
6.664150000000148
 30
0.0
 11
0.0053822469779963
 21
1.849992170636999
 31
0.0
210
0.0
220
0.0
230
1.0
 40
0.9848075675675699
 41
1.902073006116449
 42
2.96705975656049
  0
ELLIPSE
  5
ACEF
330
1F
100
AcDbEntity
  8
AM_0
100
AcDbEllipse
 10
-10.07142300000032
 20
6.066777000000143
 30
0.0
 11
0.0053822469779963
 21
1.849992170636999
 31
0.0
210
0.0
220
0.0
230
1.0
 40
0.9848075675675699
 41
4.238733991477779
 42
5.50156545028478
  0
ELLIPSE
  5
ACF0
330
1F
100
AcDbEntity
  8
AM_0
100
AcDbEllipse
 10
-15.92817700000028
 20
9.078843000000148
 30
0.0
 11
0.0150363077399898
 21
5.168297127218
 31
0.0
210
0.0
220
0.0
230
1.0
 40
0.9848078262971
 41
3.7731085777562
 42
5.737974436774289
  0
ELLIPSE
  5
ACF1
330
1F
100
AcDbEntity
  8
AM_0
100
AcDbEllipse
 10
-15.97573000000028
 20
9.07898100000014
 30
0.0
 11
0.0141668333789904
 21
4.869440392011
 31
0.0
210
0.0
220
0.0
230
0.9999999999999998
 40
0.98480776414474
 41
3.656793735507209
 42
5.804802085758691
  0
ELLIPSE
  5
ACF2
330
1F
100
AcDbEntity
  8
AM_0
100
AcDbEllipse
 10
-42.12219800000025
 20
11.97079600000009
 30
0.0
 11
-137.2231771136842
 21
78.86706330474872
 31
0.0
210
0.0
220
0.0
230
1.0
 40
0.08708642887347
 41
4.453538909889879
 42
4.5011493440115
  0
ELLIPSE
  5
ACF3
330
1F
100
AcDbEntity
  8
AM_0
100
AcDbEllipse
 10
-10.25862400000028
 20
5.267924000000135
 30
0.0
 11
-0.0516044688100004
 21
0.1932277899239999
 31
0.0
210
0.0
220
0.0
230
1.0
 40
0.16781
 41
0.041958058580473
 42
1.525487778894409
  0
ELLIPSE
  5
ACF4
330
1F
100
AcDbEntity
  8
AM_0
100
AcDbEllipse
 10
-10.42203800000027
 20
5.76501000000016
 30
0.0
 11
0.001495063109999
 21
0.5138848251849995
 31
0.0
210
0.0
220
0.0
230
0.9999999999999998
 40
0.9848079441589302
 41
3.40164680701924
 42
4.97244266622075
  0
SPLINE
  5
ACF5
330
1F
100
AcDbEntity
  8
AM_0
100
AcDbSpline
210
0.0
220
0.0
230
1.0
 70
     8
 71
     3
 72
    11
 73
     7
 74
     5
 42
0.0000000001
 43
0.0000000001
 44
0.0000000001
 40
0.0
 40
0.0
 40
0.0
 40
0.0
 40
6.003648280918763
 40
11.80522223737222
 40
16.84263744007848
 40
20.44922198050565
 40
20.44922198050565
 40
20.44922198050565
 40
20.44922198050565
 10
-26.68948000000026
 20
2.937840000000107
 30
0.0
 10
-28.63144672601302
 20
3.509948243430316
 30
0.0
 10
-32.45001631994242
 20
4.634908374587881
 30
0.0
 10
-36.71726815549941
 20
8.539944109090384
 30
0.0
 10
-39.31873768670405
 20
12.61554921572931
 30
0.0
 10
-40.4875647306392
 20
15.25205633374358
 30
0.0
 10
-40.97524100000032
 20
16.35210100000008
 30
0.0
 11
-26.68948000000026
 21
2.937840000000107
 31
0.0
 11
-32.30133700000033
 21
5.07111300000011
 31
0.0
 11
-36.68334300000026
 21
8.873255000000057
 31
0.0
 11
-39.44469300000026
 21
13.08638900000008
 31
0.0
 11
-40.97524100000032
 21
16.35210100000008
 31
0.0
  0
SPLINE
  5
ACF6
330
1F
100
AcDbEntity
  8
AM_0
100
AcDbSpline
210
0.0
220
0.0
230
1.0
 70
     8
 71
     3
 72
    11
 73
     7
 74
     5
 42
0.0000000001
 43
0.0000000001
 44
0.0000000001
 40
0.0
 40
0.0
 40
0.0
 40
0.0
 40
4.859463783372191
 40
9.792020479954697
 40
14.73156243860278
 40
19.62072014476239
 40
19.62072014476239
 40
19.62072014476239
 40
19.62072014476239
 10
-21.38154400000027
 20
2.00342300000014
 30
0.0
 10
-22.9286542518662
 20
2.512401939812938
 30
0.0
 10
-26.04614538799858
 20
3.538015551661689
 30
0.0
 10
-30.07118311332807
 20
6.458787767598558
 30
0.0
 10
-33.43751654911879
 20
10.12097961867713
 30
0.0
 10
-34.88325858890729
 20
13.07837263959794
 30
0.0
 10
-35.60242400000027
 20
14.54948900000007
 30
0.0
 11
-21.38154400000027
 21
2.00342300000014
 31
0.0
 11
-25.91400300000029
 21
3.75590800000009
 31
0.0
 11
-29.95794300000028
 21
6.580207000000086
 31
0.0
 11
-33.2480340000003
 21
10.26454900000007
 31
0.0
 11
-35.60242400000027
 21
14.54948900000007
 31
0.0
  0
SPLINE
  5
ACF7
330
1F
100
AcDbEntity
  8
AM_0
100
AcDbSpline
210
0.0
220
0.0
230
1.0
 70
     8
 71
     3
 72
    11
 73
     7
 74
     5
 42
0.0000000001
 43
0.0000000001
 44
0.0000000001
 40
0.0
 40
0.0
 40
0.0
 40
0.0
 40
0.7709585386232276
 40
1.541556493071547
 40
2.30669676390824
 40
3.062048706637544
 40
3.062048706637544
 40
3.062048706637544
 40
3.062048706637544
 10
-22.24145300000031
 20
5.690880000000134
 30
0.0
 10
-22.10400626240149
 20
5.472655523192097
 30
0.0
 10
-21.82917707226715
 20
5.036308635107396
 30
0.0
 10
-21.26676011569676
 20
4.502733062177286
 30
0.0
 10
-20.62336792286848
 20
4.077829714020712
 30
0.0
 10
-20.13965398789216
 20
3.91975068790323
 30
0.0
 10
-19.8993540000003
 20
3.841220000000163
 30
0.0
 11
-22.24145300000031
 21
5.690880000000134
 31
0.0
 11
-21.80384300000025
 21
5.056156000000129
 31
0.0
 11
-21.25112100000029
 21
4.519202000000149
 31
0.0
 11
-20.60625500000026
 21
4.107392000000146
 31
0.0
 11
-19.8993540000003
 21
3.841220000000163
 31
0.0
  0
SPLINE
  5
ACF8
330
1F
100
AcDbEntity
  8
AM_0
100
AcDbSpline
210
0.0
220
0.0
230
1.0
 70
     8
 71
     3
 72
    11
 73
     7
 74
     5
 42
0.0000000001
 43
0.0000000001
 44
0.0000000001
 40
0.0
 40
0.0
 40
0.0
 40
0.0
 40
2.419340818157878
 40
4.855715080060397
 40
7.292083048562904
 40
9.711411129478186
 40
9.711411129478186
 40
9.711411129478186
 40
9.711411129478186
 10
-18.53026700000032
 20
4.957702000000125
 30
0.0
 10
-19.15088246430307
 20
5.501081228679785
 30
0.0
 10
-20.39648285525093
 20
6.591665364279334
 30
0.0
 10
-20.96133626630508
 20
9.094298116568756
 30
0.0
 10
-20.38114133847257
 20
11.59341705009614
 30
0.0
 10
-19.12887093307014
 20
12.67632708674052
 30
0.0
 10
-18.50493300000027
 20
13.21588200000016
 30
0.0
 11
-18.53026700000032
 21
4.957702000000125
 31
0.0
 11
-20.17626800000027
 21
6.730804000000119
 31
0.0
 11
-20.77004900000031
 21
9.093714000000119
 31
0.0
 11
-20.1617820000003
 21
11.45293000000012
 31
0.0
 11
-18.50493300000027
 21
13.21588200000016
 31
0.0
  0
SPLINE
  5
ACF9
330
1F
100
AcDbEntity
  8
AM_0
100
AcDbSpline
210
0.0
220
0.0
230
1.0
 70
     8
 71
     3
 72
    11
 73
     7
 74
     5
 42
0.0000000001
 43
0.0000000001
 44
0.0000000001
 40
0.0
 40
0.0
 40
0.0
 40
0.0
 40
6.303102815680577
 40
12.52484308262532
 40
18.6419937305414
 40
24.69529122522796
 40
24.69529122522796
 40
24.69529122522796
 40
24.69529122522796
 10
-17.31142900000034
 20
18.94459500000013
 30
0.0
 10
-15.22718634018741
 20
18.54998357577398
 30
0.0
 10
-11.08560511842339
 20
17.76585450290716
 30
0.0
 10
-5.831923067590372
 20
14.17826685493298
 30
0.0
 10
-1.92061489256201
 20
9.266128049407125
 30
0.0
 10
-0.8769737841878624
 20
5.305387243611597
 30
0.0
 10
-0.3578910000002509
 20
3.335407000000145
 30
0.0
 11
-17.31142900000034
 21
18.94459500000013
 31
0.0
 11
-11.2136530000003
 21
17.34890300000015
 31
0.0
 11
-6.019414000000324
 21
13.92400400000016
 31
0.0
 11
-2.297234000000287
 21
9.069634000000178
 31
0.0
 11
-0.3578910000002509
 21
3.335407000000145
 31
0.0
  0
SPLINE
  5
ACFA
330
1F
100
AcDbEntity
  8
AM_0
100
AcDbSpline
210
0.0
220
0.0
230
1.0
 70
     8
 71
     3
 72
    11
 73
     7
 74
     5
 42
0.0000000001
 43
0.0000000001
 44
0.0000000001
 40
0.0
 40
0.0
 40
0.0
 40
0.0
 40
0.6614513654903193
 40
1.317667883363811
 40
1.96545334022125
 40
2.606372037649396
 40
2.606372037649396
 40
2.606372037649396
 40
2.606372037649396
 10
-6.454289000000301
 20
4.576984000000123
 30
0.0
 10
-6.39622624225184
 20
4.790663650177167
 30
0.0
 10
-6.280560246086017
 20
5.216331850526243
 30
0.0
 10
-6.285227985305099
 20
5.877848997933463
 30
0.0
 10
-6.394511001297367
 20
6.520713560303606
 30
0.0
 10
-6.554949962590604
 20
6.920411105818656
 30
0.0
 10
-6.634742000000301
 20
7.119195000000132
 30
0.0
 11
-6.454289000000301
 21
4.576984000000123
 31
0.0
 11
-6.310036000000309
 21
5.222514000000131
 31
0.0
 11
-6.30301900000029
 21
5.87869300000014
 31
0.0
 11
-6.417139000000304
 21
6.516347000000138
 31
0.0
 11
-6.634742000000301
 21
7.119195000000132
 31
0.0
  0
LINE
  5
ACFC
330
1F
100
AcDbEntity
  8
AM_0
100
AcDbLine
 10
-277.0432229137524
 20
20.99999999999964
 30
0.0
 11
-180.0102102118602
 21
20.99999999999981
 31
0.0
  0
ARC
  5
ACFD
330
1F
100
AcDbEntity
  8
AM_0
100
AcDbCircle
 10
-278.0102102118602
 20
18.6703441735603
 30
0.0
 40
2.0
100
AcDbArc
 50
104.9999999999995
 51
180.0
  0
LINE
  5
ACFE
330
1F
100
AcDbEntity
  8
AM_0
100
AcDbLine
 10
-278.5278483020653
 20
20.60219582613843
 30
0.0
 11
-277.0432229137524
 21
20.99999999999964
 31
0.0
  0
LINE
  5
ACFF
330
1F
100
AcDbEntity
  8
AM_7
100
AcDbLine
 10
3.360714713912926
 20
0.0000000000001705
 30
0.0
 11
-285.9323972852771
 21
-0.0000000000004093
 31
0.0
1001
GENIUS_GENODEF_13
1002
{
1000
HIER
1070
     0
1002
}
1002
{
1000
MANEDIT
1070
     0
1002
}
1002
{
1000
NOSEL
1070
     0
1002
}
1002
{
1000
BEHIND
1070
     0
1002
}
1002
{
1000
REACTOR
1002
}
1001
GENIUS_GENOBJ-N-CEN_13
1002
{
1000
OWNER
1000
GEN
1002
}
  0
LINE
  5
AD00
330
1F
100
AcDbEntity
  8
AM_0
100
AcDbLine
 10
-31.30363400000033
 20
18.00000000000011
 30
0.0
 11
-175.4276345169044
 21
17.99999999999979
 31
0.0
  0
ARC
  5
AD05
330
1F
100
AcDbEntity
  8
AM_0
100
AcDbCircle
 10
-175.4276345169044
 20
22.99999999999981
 30
0.0
 40
4.999999999999995
100
AcDbArc
 50
203.5781784782012
 51
270.0
  0
LINE
  5
AD06
330
1F
100
AcDbEntity
  8
AM_0
100
AcDbLine
 10
-16.81185100000027
 20
7.581407000000154
 30
0.0
 11
-15.10612100000025
 21
7.57644500000012
 31
0.0
  0
LINE
  5
AD07
330
1F
100
AcDbEntity
  8
AM_0
100
AcDbLine
 10
-15.09739500000029
 20
10.57643300000015
 30
0.0
 11
-16.80312500000025
 21
10.58139400000013
 31
0.0
  0
LINE
  5
AD08
330
1F
100
AcDbEntity
  8
AM_0
100
AcDbLine
 10
-28.26427700000024
 20
3.689604000000088
 30
0.0
 11
-34.62434500000028
 21
10.18547400000008
 31
0.0
  0
LINE
  5
AD09
330
1F
100
AcDbEntity
  8
AM_0
100
AcDbLine
 10
-34.62434500000028
 20
10.18547400000008
 30
0.0
 11
-35.70106000000032
 21
10.18860600000007
 31
0.0
  0
LINE
  5
AD0A
330
1F
100
AcDbEntity
  8
AM_0
100
AcDbLine
 10
-25.12309000000027
 20
8.754998000000114
 30
0.0
 11
-23.90709400000025
 21
10.09018500000016
 31
0.0
  0
LINE
  5
AD0B
330
1F
100
AcDbEntity
  8
AM_0
100
AcDbLine
 10
-22.24145300000031
 20
5.690880000000134
 30
0.0
 11
-20.94832700000029
 21
6.067451000000147
 31
0.0
  0
LINE
  5
AD0C
330
1F
100
AcDbEntity
  8
AM_0
100
AcDbLine
 10
-16.80312500000025
 20
10.58139400000013
 30
0.0
 11
-17.66035300000032
 21
9.083882000000158
 31
0.0
  0
LINE
  5
AD0D
330
1F
100
AcDbEntity
  8
AM_0
100
AcDbLine
 10
-17.66035300000032
 20
9.083882000000158
 30
0.0
 11
-16.81185100000027
 21
7.581407000000154
 31
0.0
  0
LINE
  5
AD0E
330
1F
100
AcDbEntity
  8
AM_0
100
AcDbLine
 10
-17.19744400000027
 20
3.118373000000161
 30
0.0
 11
-16.80678700000032
 21
4.224286000000148
 31
0.0
  0
LINE
  5
AD0F
330
1F
100
AcDbEntity
  8
AM_0
100
AcDbLine
 10
-19.8993540000003
 20
3.841220000000163
 30
0.0
 11
-19.54541700000027
 21
4.843183000000152
 31
0.0
  0
LINE
  5
AD10
330
1F
100
AcDbEntity
  8
AM_0
100
AcDbLine
 10
-19.54541700000027
 20
4.843183000000152
 30
0.0
 11
-18.58058200000027
 21
4.667534000000131
 31
0.0
  0
LINE
  5
AD11
330
1F
100
AcDbEntity
  8
AM_11
100
AcDbLine
 10
-35.00000000000031
 20
20.00000000000008
 30
0.0
 11
-20.00000000000031
 21
20.00000000000014
 31
0.0
  0
LINE
  5
AD12
330
1F
100
AcDbEntity
  8
AM_0
100
AcDbLine
 10
-30.01991400000034
 20
19.0721180000001
 30
0.0
 11
-26.85313200000033
 21
19.06290600000011
 31
0.0
  0
LINE
  5
AD13
330
1F
100
AcDbEntity
  8
AM_0
100
AcDbLine
 10
-35.2609350000003
 20
15.0873470000001
 30
0.0
 11
-32.9082030000003
 21
15.0805030000001
 31
0.0
  0
LINE
  5
AD14
330
1F
100
AcDbEntity
  8
AM_0
100
AcDbLine
 10
-30.90137600000025
 20
15.17466600000011
 30
0.0
 11
-35.68651600000032
 21
15.18858500000007
 31
0.0
  0
LINE
  5
AD15
330
1F
100
AcDbEntity
  8
AM_0
100
AcDbLine
 10
-35.60242400000027
 20
14.54948900000007
 30
0.0
 11
-36.56692400000031
 21
14.5522950000001
 31
0.0
  0
LINE
  5
AD16
330
1F
100
AcDbEntity
  8
AM_0
100
AcDbLine
 10
-36.19592900000032
 20
15.09006700000006
 30
0.0
 11
-35.2609350000003
 21
15.0873470000001
 31
0.0
  0
LINE
  5
AD17
330
1F
100
AcDbEntity
  8
AM_0
100
AcDbLine
 10
-37.6619410000003
 20
13.19432300000008
 30
0.0
 11
-37.66485000000028
 21
12.19432700000007
 31
0.0
  0
LINE
  5
AD18
330
1F
100
AcDbEntity
  8
AM_0
100
AcDbLine
 10
-31.30166800000032
 20
18.67584500000009
 30
0.0
 11
-31.30365700000027
 21
17.99190700000013
 31
0.0
  0
LINE
  5
AD19
330
1F
100
AcDbEntity
  8
AM_0
100
AcDbLine
 10
-30.42051200000028
 20
18.67328200000008
 30
0.0
 11
-31.30166800000032
 21
18.67584500000009
 31
0.0
  0
LINE
  5
AD1A
330
1F
100
AcDbEntity
  8
AM_0
100
AcDbLine
 10
-30.42051200000028
 20
18.67328200000008
 30
0.0
 11
-30.41801300000034
 21
18.72057400000011
 31
0.0
  0
LINE
  5
AD1B
330
1F
100
AcDbEntity
  8
AM_0
100
AcDbLine
 10
-30.40752000000031
 20
15.6732310000001
 30
0.0
 11
-30.90137600000025
 21
15.17466600000011
 31
0.0
  0
LINE
  5
AD1C
330
1F
100
AcDbEntity
  8
AM_0
100
AcDbLine
 10
-30.60506200000031
 20
15.47380500000008
 30
0.0
 11
-30.39882300000027
 21
15.47320500000012
 31
0.0
  0
LINE
  5
AD1D
330
1F
100
AcDbEntity
  8
AM_0
100
AcDbLine
 10
-32.9082030000003
 20
15.0805030000001
 30
0.0
 11
-30.78782800000027
 21
15.07433500000013
 31
0.0
  0
LINE
  5
AD1E
330
1F
100
AcDbEntity
  8
AM_0
100
AcDbLine
 10
-30.40340800000029
 20
17.0869100000001
 30
0.0
 11
-30.40752000000031
 21
15.6732310000001
 31
0.0
  0
LINE
  5
AD1F
330
1F
100
AcDbEntity
  8
AM_0
100
AcDbLine
 10
-30.90658300000032
 20
19.07469700000012
 30
0.0
 11
-30.01991400000034
 21
19.0721180000001
 31
0.0
  0
LINE
  5
AD20
330
1F
100
AcDbEntity
  8
AM_0
100
AcDbLine
 10
-23.30064000000027
 20
13.70372700000015
 30
0.0
 11
-22.3482010000003
 21
13.95809000000011
 31
0.0
  0
LINE
  5
AD21
330
1F
100
AcDbEntity
  8
AM_0
100
AcDbLine
 10
-22.57235500000029
 20
13.25069600000014
 30
0.0
 11
-22.19138000000032
 21
13.35244200000013
 31
0.0
  0
LINE
  5
AD22
330
1F
100
AcDbEntity
  8
AM_0
100
AcDbLine
 10
-22.39636800000027
 20
13.93139200000016
 30
0.0
 11
-23.34880600000031
 21
13.67702900000014
 31
0.0
  0
LINE
  5
AD23
330
1F
100
AcDbEntity
  8
AM_0
100
AcDbLine
 10
-22.63443100000029
 20
13.27771500000014
 30
0.0
 11
-22.25345600000025
 21
13.37946000000013
 31
0.0
  0
LINE
  5
AD24
330
1F
100
AcDbEntity
  8
AM_0
100
AcDbLine
 10
-23.3306170000003
 20
13.48443500000016
 30
0.0
 11
-22.37817800000027
 21
13.73879900000011
 31
0.0
  0
LINE
  5
AD25
330
1F
100
AcDbEntity
  8
AM_0
100
AcDbLine
 10
-22.33505000000025
 20
13.57223800000016
 30
0.0
 11
-22.71602600000028
 21
13.47049300000011
 31
0.0
  0
LINE
  5
AD26
330
1F
100
AcDbEntity
  8
AM_0
100
AcDbLine
 10
-24.42764700000032
 20
12.53239500000015
 30
0.0
 11
-23.59496500000028
 21
13.98120200000013
 31
0.0
  0
LINE
  5
AD27
330
1F
100
AcDbEntity
  8
AM_0
100
AcDbLine
 10
-23.52046000000029
 20
13.32125500000015
 30
0.0
 11
-23.27004600000031
 21
12.35414700000015
 31
0.0
  0
LINE
  5
AD28
330
1F
100
AcDbEntity
  8
AM_0
100
AcDbLine
 10
-22.77375000000029
 20
12.90028400000014
 30
0.0
 11
-22.67358400000028
 21
12.51344100000014
 31
0.0
  0
LINE
  5
AD29
330
1F
100
AcDbEntity
  8
AM_0
100
AcDbLine
 10
-23.34880600000031
 20
13.67702900000014
 30
0.0
 11
-23.30064000000027
 21
13.70372700000015
 31
0.0
  0
LINE
  5
AD2A
330
1F
100
AcDbEntity
  8
AM_0
100
AcDbLine
 10
-22.75515600000028
 20
12.50653700000012
 30
0.0
 11
-22.67358400000028
 21
12.51344100000014
 31
0.0
  0
LINE
  5
AD2B
330
1F
100
AcDbEntity
  8
AM_0
100
AcDbLine
 10
-22.85532200000028
 20
12.89338100000011
 30
0.0
 11
-22.77375000000029
 21
12.90028400000014
 31
0.0
  0
LINE
  5
AD2C
330
1F
100
AcDbEntity
  8
AM_0
100
AcDbLine
 10
-22.63443100000029
 20
13.27771500000014
 30
0.0
 11
-22.57235500000029
 21
13.25069600000014
 31
0.0
  0
LINE
  5
AD2D
330
1F
100
AcDbEntity
  8
AM_0
100
AcDbLine
 10
-22.75515600000028
 20
12.50653700000012
 30
0.0
 11
-22.85532200000028
 21
12.89338100000011
 31
0.0
  0
LINE
  5
AD2E
330
1F
100
AcDbEntity
  8
AM_0
100
AcDbLine
 10
-23.14065600000026
 20
12.41214200000015
 30
0.0
 11
-23.3910700000003
 21
13.37925100000015
 31
0.0
  0
LINE
  5
AD2F
330
1F
100
AcDbEntity
  8
AM_0
100
AcDbLine
 10
-23.0767870000003
 20
12.84279400000016
 30
0.0
 11
-22.97662200000024
 21
12.45595000000011
 31
0.0
  0
LINE
  5
AD30
330
1F
100
AcDbEntity
  8
AM_0
100
AcDbLine
 10
-26.9896600000003
 20
13.99708800000013
 30
0.0
 11
-26.24777700000027
 21
15.28791200000012
 31
0.0
  0
LINE
  5
AD31
330
1F
100
AcDbEntity
  8
AM_0
100
AcDbLine
 10
-26.9896600000003
 20
13.99708800000013
 30
0.0
 11
-27.07813700000031
 21
13.83796100000012
 31
0.0
  0
LINE
  5
AD32
330
1F
100
AcDbEntity
  8
AM_0
100
AcDbLine
 10
-26.24777700000027
 20
15.28791200000012
 30
0.0
 11
-23.59496500000028
 21
13.98120200000013
 31
0.0
  0
LINE
  5
AD33
330
1F
100
AcDbEntity
  8
AM_0
100
AcDbLine
 10
-27.07813700000031
 20
13.83796100000012
 30
0.0
 11
-24.42764700000032
 21
12.53239500000015
 31
0.0
  0
LINE
  5
AD34
330
1F
100
AcDbEntity
  8
AM_0
100
AcDbLine
 10
-17.31142900000034
 20
18.94459500000013
 30
0.0
 11
-17.32224500000032
 21
18.94558400000013
 31
0.0
  0
LINE
  5
AD35
330
1F
100
AcDbEntity
  8
AM_0
100
AcDbLine
 10
-22.01607500000028
 20
14.89881800000014
 30
0.0
 11
-19.06451000000027
 21
14.89023300000016
 31
0.0
  0
LINE
  5
AD36
330
1F
100
AcDbEntity
  8
AM_0
100
AcDbLine
 10
-21.24921700000027
 20
12.46667600000014
 30
0.0
 11
-20.86824200000029
 21
12.56842200000014
 31
0.0
  0
LINE
  5
AD37
330
1F
100
AcDbEntity
  8
AM_0
100
AcDbLine
 10
-21.97750200000029
 20
12.91970700000016
 30
0.0
 11
-21.02506300000027
 21
13.17407000000017
 31
0.0
  0
LINE
  5
AD38
330
1F
100
AcDbEntity
  8
AM_0
100
AcDbLine
 10
-22.19732200000032
 20
12.53723600000014
 30
0.0
 11
-21.94690800000029
 21
11.57012700000015
 31
0.0
  0
LINE
  5
AD39
330
1F
100
AcDbEntity
  8
AM_0
100
AcDbLine
 10
-21.45061200000032
 20
12.11626500000014
 30
0.0
 11
-21.35044600000026
 21
11.72942100000014
 31
0.0
  0
LINE
  5
AD3A
330
1F
100
AcDbEntity
  8
AM_0
100
AcDbLine
 10
-22.39636800000027
 20
13.93139200000016
 30
0.0
 11
-22.3482010000003
 21
13.95809000000011
 31
0.0
  0
LINE
  5
AD3B
330
1F
100
AcDbEntity
  8
AM_0
100
AcDbLine
 10
-22.25345600000025
 20
13.37946000000013
 30
0.0
 11
-22.19138000000032
 21
13.35244200000013
 31
0.0
  0
LINE
  5
AD3C
330
1F
100
AcDbEntity
  8
AM_0
100
AcDbLine
 10
-22.02566800000028
 20
12.89300900000014
 30
0.0
 11
-21.97750200000029
 21
12.91970700000016
 31
0.0
  0
LINE
  5
AD3D
330
1F
100
AcDbEntity
  8
AM_0
100
AcDbLine
 10
-21.0732300000003
 20
13.14737200000016
 30
0.0
 11
-21.02506300000027
 21
13.17407000000017
 31
0.0
  0
LINE
  5
AD3E
330
1F
100
AcDbEntity
  8
AM_0
100
AcDbLine
 10
-21.0732300000003
 20
13.14737200000016
 30
0.0
 11
-22.02566800000028
 21
12.89300900000014
 31
0.0
  0
LINE
  5
AD3F
330
1F
100
AcDbEntity
  8
AM_0
100
AcDbLine
 10
-21.43201800000031
 20
11.72251700000012
 30
0.0
 11
-21.35044600000026
 21
11.72942100000014
 31
0.0
  0
LINE
  5
AD40
330
1F
100
AcDbEntity
  8
AM_0
100
AcDbLine
 10
-21.53218400000025
 20
12.10936100000012
 30
0.0
 11
-21.45061200000032
 21
12.11626500000014
 31
0.0
  0
LINE
  5
AD41
330
1F
100
AcDbEntity
  8
AM_0
100
AcDbLine
 10
-21.31129300000031
 20
12.49369500000014
 30
0.0
 11
-21.24921700000027
 21
12.46667600000014
 31
0.0
  0
LINE
  5
AD42
330
1F
100
AcDbEntity
  8
AM_0
100
AcDbLine
 10
-21.43201800000031
 20
11.72251700000012
 30
0.0
 11
-21.53218400000025
 21
12.10936100000012
 31
0.0
  0
LINE
  5
AD43
330
1F
100
AcDbEntity
  8
AM_0
100
AcDbLine
 10
-21.31129300000031
 20
12.49369500000014
 30
0.0
 11
-20.93031700000028
 21
12.59544000000013
 31
0.0
  0
LINE
  5
AD44
330
1F
100
AcDbEntity
  8
AM_0
100
AcDbLine
 10
-20.93031700000028
 20
12.59544000000013
 30
0.0
 11
-20.86824200000029
 21
12.56842200000014
 31
0.0
  0
LINE
  5
AD45
330
1F
100
AcDbEntity
  8
AM_0
100
AcDbLine
 10
-21.81751800000029
 20
11.62812300000015
 30
0.0
 11
-22.06793200000026
 21
12.59523100000015
 31
0.0
  0
LINE
  5
AD46
330
1F
100
AcDbEntity
  8
AM_0
100
AcDbLine
 10
-22.00747900000032
 20
12.70041600000016
 30
0.0
 11
-21.0550400000003
 21
12.95477900000011
 31
0.0
  0
LINE
  5
AD47
330
1F
100
AcDbEntity
  8
AM_0
100
AcDbLine
 10
-21.75364900000027
 20
12.05877400000011
 30
0.0
 11
-21.65348300000027
 21
11.67193100000011
 31
0.0
  0
LINE
  5
AD48
330
1F
100
AcDbEntity
  8
AM_0
100
AcDbLine
 10
-21.01191200000028
 20
12.78821800000011
 30
0.0
 11
-21.39288800000031
 21
12.68647300000012
 31
0.0
  0
LINE
  5
AD49
330
1F
100
AcDbEntity
  8
AM_0
100
AcDbLine
 10
-19.33716200000026
 20
16.48793200000014
 30
0.0
 11
-19.06451000000027
 21
14.89023300000016
 31
0.0
  0
LINE
  5
AD4A
330
1F
100
AcDbEntity
  8
AM_0
100
AcDbLine
 10
-22.36403700000028
 20
16.93782100000012
 30
0.0
 11
-22.01607500000028
 21
14.89881800000014
 31
0.0
  0
LINE
  5
AD4B
330
1F
100
AcDbEntity
  8
AM_0
100
AcDbLine
 10
-22.55796400000034
 20
19.05041200000013
 30
0.0
 11
-19.37714700000029
 21
19.04115900000013
 31
0.0
  0
LINE
  5
AD4C
330
1F
100
AcDbEntity
  8
AM_0
100
AcDbLine
 10
-26.85313200000033
 20
19.06290600000011
 30
0.0
 11
-22.55796400000034
 21
19.05041200000013
 31
0.0
  0
LINE
  5
AD4D
330
1F
100
AcDbEntity
  8
AM_0
100
AcDbLine
 10
-5.146977000000248
 20
-1.187052999999849
 30
0.0
 11
-4.494250000000278
 21
-1.188951999999829
 31
0.0
  0
LINE
  5
AD4E
330
1F
100
AcDbEntity
  8
AM_0
100
AcDbLine
 10
-11.66597400000026
 20
2.575301000000166
 30
0.0
 11
-11.55704600000027
 21
2.528419000000127
 31
0.0
  0
LINE
  5
AD4F
330
1F
100
AcDbEntity
  8
AM_0
100
AcDbLine
 10
-11.55704600000027
 20
2.528419000000127
 30
0.0
 11
-10.55575600000031
 21
4.477823000000142
 31
0.0
  0
LINE
  5
AD50
330
1F
100
AcDbEntity
  8
AM_0
100
AcDbLine
 10
-13.94923000000025
 20
0.6980860000001315
 30
0.0
 11
-13.90770700000027
 21
0.6645350000001429
 31
0.0
  0
LINE
  5
AD51
330
1F
100
AcDbEntity
  8
AM_0
100
AcDbLine
 10
-10.96006100000028
 20
5.089971000000133
 30
0.0
 11
-10.2933540000003
 21
5.268025000000164
 31
0.0
  0
LINE
  5
AD52
330
1F
100
AcDbEntity
  8
AM_0
100
AcDbLine
 10
-10.26337700000027
 20
5.48731700000016
 30
0.0
 11
-10.9300840000003
 21
5.309262000000131
 31
0.0
  0
LINE
  5
AD53
330
1F
100
AcDbEntity
  8
AM_0
100
AcDbLine
 10
-10.31154300000025
 20
5.46061900000015
 30
0.0
 11
-10.97825000000028
 21
5.282564000000121
 31
0.0
  0
LINE
  5
AD54
330
1F
100
AcDbEntity
  8
AM_0
100
AcDbLine
 10
-15.10612100000025
 20
7.57644500000012
 30
0.0
 11
-14.24889300000029
 21
9.073958000000146
 31
0.0
  0
LINE
  5
AD55
330
1F
100
AcDbEntity
  8
AM_0
100
AcDbLine
 10
-14.24889300000029
 20
9.073958000000146
 30
0.0
 11
-15.09739500000029
 21
10.57643300000015
 31
0.0
  0
LINE
  5
AD56
330
1F
100
AcDbEntity
  8
AM_0
100
AcDbLine
 10
-15.54024000000026
 20
7.577708000000114
 30
0.0
 11
-14.6830120000003
 21
9.075221000000141
 31
0.0
  0
LINE
  5
AD57
330
1F
100
AcDbEntity
  8
AM_0
100
AcDbLine
 10
-14.6830120000003
 20
9.075221000000141
 30
0.0
 11
-14.24889300000029
 21
9.073958000000146
 31
0.0
  0
LINE
  5
AD58
330
1F
100
AcDbEntity
  8
AM_0
100
AcDbLine
 10
-14.6830120000003
 20
9.075221000000141
 30
0.0
 11
-15.5315130000003
 21
10.57769500000014
 31
0.0
  0
LINE
  5
AD59
330
1F
100
AcDbEntity
  8
AM_0
100
AcDbLine
 10
-15.59206900000023
 20
3.034099000000168
 30
0.0
 11
-15.76716100000032
 21
4.062291000000158
 31
0.0
  0
LINE
  5
AD5A
330
1F
100
AcDbEntity
  8
AM_0
100
AcDbLine
 10
-16.33280900000028
 20
4.430000000000148
 30
0.0
 11
-16.01827700000029
 21
4.429085000000128
 31
0.0
  0
LINE
  5
AD5B
330
1F
100
AcDbEntity
  8
AM_0
100
AcDbLine
 10
-10.97825000000028
 20
5.282564000000121
 30
0.0
 11
-10.9300840000003
 21
5.309262000000131
 31
0.0
  0
LINE
  5
AD5C
330
1F
100
AcDbEntity
  8
AM_0
100
AcDbLine
 10
-7.811390000000301
 20
8.69570000000013
 30
0.0
 11
-8.784212000000309
 21
7.376119000000159
 31
0.0
  0
LINE
  5
AD5D
330
1F
100
AcDbEntity
  8
AM_0
100
AcDbLine
 10
-9.722383000000263
 20
6.667095000000159
 30
0.0
 11
-9.640811000000269
 21
6.673999000000122
 31
0.0
  0
LINE
  5
AD5E
330
1F
100
AcDbEntity
  8
AM_0
100
AcDbLine
 10
-10.31154300000025
 20
5.46061900000015
 30
0.0
 11
-10.26337700000027
 21
5.48731700000016
 31
0.0
  0
LINE
  5
AD5F
330
1F
100
AcDbEntity
  8
AM_0
100
AcDbLine
 10
-10.06198200000028
 20
5.837728000000169
 30
0.0
 11
-10.2372720000003
 21
6.514704000000136
 31
0.0
  0
LINE
  5
AD60
330
1F
100
AcDbEntity
  8
AM_0
100
AcDbLine
 10
-10.2373830000003
 20
5.491287000000141
 30
0.0
 11
-10.19576200000028
 21
5.515278000000165
 31
0.0
  0
LINE
  5
AD61
330
1F
100
AcDbEntity
  8
AM_0
100
AcDbLine
 10
-9.932592000000283
 20
5.895724000000114
 30
0.0
 11
-10.1078820000003
 21
6.572700000000139
 31
0.0
  0
LINE
  5
AD62
330
1F
100
AcDbEntity
  8
AM_0
100
AcDbLine
 10
-9.597168000000294
 20
5.061305000000146
 30
0.0
 11
-9.535092000000304
 21
5.03428600000015
 31
0.0
  0
LINE
  5
AD63
330
1F
100
AcDbEntity
  8
AM_0
100
AcDbLine
 10
-9.396844000000271
 20
5.409854000000137
 30
0.0
 11
-9.315272000000277
 21
5.41675700000016
 31
0.0
  0
LINE
  5
AD64
330
1F
100
AcDbEntity
  8
AM_0
100
AcDbLine
 10
-10.83533800000032
 20
4.730632000000156
 30
0.0
 11
-10.77326300000027
 21
4.703614000000158
 31
0.0
  0
LINE
  5
AD65
330
1F
100
AcDbEntity
  8
AM_0
100
AcDbLine
 10
-9.535092000000304
 20
5.03428600000015
 30
0.0
 11
-10.77326300000027
 21
4.703614000000158
 31
0.0
  0
LINE
  5
AD66
330
1F
100
AcDbEntity
  8
AM_0
100
AcDbLine
 10
-10.83533800000032
 20
4.730632000000156
 30
0.0
 11
-9.597168000000294
 21
5.061305000000146
 31
0.0
  0
LINE
  5
AD67
330
1F
100
AcDbEntity
  8
AM_0
100
AcDbLine
 10
-9.678763000000287
 20
5.254083000000122
 30
0.0
 11
-10.91693300000031
 21
4.923410000000131
 31
0.0
  0
LINE
  5
AD68
330
1F
100
AcDbEntity
  8
AM_0
100
AcDbLine
 10
-9.315272000000277
 20
5.41675700000016
 30
0.0
 11
-9.640811000000269
 21
6.673999000000122
 31
0.0
  0
LINE
  5
AD69
330
1F
100
AcDbEntity
  8
AM_0
100
AcDbLine
 10
-9.396844000000271
 20
5.409854000000137
 30
0.0
 11
-9.722383000000263
 21
6.667095000000159
 31
0.0
  0
LINE
  5
AD6A
330
1F
100
AcDbEntity
  8
AM_0
100
AcDbLine
 10
-9.943848000000286
 20
6.616508000000152
 30
0.0
 11
-9.618310000000292
 21
5.35926700000013
 31
0.0
  0
LINE
  5
AD6B
330
1F
100
AcDbEntity
  8
AM_0
100
AcDbLine
 10
-1.251760000000246
 20
-1.779249999999819
 30
0.0
 11
-1.251760000000246
 21
-2.03205599999984
 31
0.0
  0
LINE
  5
AD6C
330
1F
100
AcDbEntity
  8
AM_0
100
AcDbLine
 10
-1.251760000000246
 20
-1.85049599999985
 30
0.0
 11
-0.9170890000002316
 21
-1.851468999999838
 31
0.0
  0
LINE
  5
AD6D
330
1F
100
AcDbEntity
  8
AM_0
100
AcDbLine
 10
-1.251760000000246
 20
-1.862649999999803
 30
0.0
 11
-0.7833300000002908
 21
-1.864011999999831
 31
0.0
  0
LINE
  5
AD6E
330
1F
100
AcDbEntity
  8
AM_0
100
AcDbLine
 10
-1.251760000000246
 20
-2.999999999999829
 30
0.0
 11
-1.251760000000246
 21
-2.03205599999984
 31
0.0
  0
LINE
  5
AD6F
330
1F
100
AcDbEntity
  8
AM_0
100
AcDbLine
 10
-1.465170000000256
 20
-4.051706999999851
 30
0.0
 11
-1.462063000000256
 21
-4.052254999999831
 31
0.0
  0
ARC
  5
AD70
330
1F
100
AcDbEntity
  8
AM_0
100
AcDbCircle
 10
-19.00000000000025
 20
0.0000000000001421
 30
0.0
 40
18.0000001333609
100
AcDbArc
 50
346.9897550444681
 51
350.4059321183474
  0
LINE
  5
AD71
330
1F
100
AcDbEntity
  8
AM_0
100
AcDbLine
 10
-0.9170890000002316
 20
-1.851468999999838
 30
0.0
 11
-1.25190400000028
 21
-1.789100999999845
 31
0.0
  0
LINE
  5
AD72
330
1F
100
AcDbEntity
  8
AM_0
100
AcDbLine
 10
-4.494250000000278
 20
-1.188951999999829
 30
0.0
 11
-3.383608000000293
 21
-1.391144999999852
 31
0.0
  0
LINE
  5
AD73
330
1F
100
AcDbEntity
  8
AM_0
100
AcDbLine
 10
-3.383608000000293
 20
-1.391144999999852
 30
0.0
 11
-1.251760000000246
 21
-1.779249999999819
 31
0.0
  0
LINE
  5
AD74
330
1F
100
AcDbEntity
  8
AM_0
100
AcDbLine
 10
-10.01286100000027
 20
12.01671500000011
 30
0.0
 11
-11.03097800000028
 21
11.80661600000016
 31
0.0
  0
LINE
  5
AD75
330
1F
100
AcDbEntity
  8
AM_0
100
AcDbLine
 10
-15.99122500000032
 20
13.72904600000012
 30
0.0
 11
-16.30575600000031
 21
13.72996100000014
 31
0.0
  0
LINE
  5
AD76
330
1F
100
AcDbEntity
  8
AM_0
100
AcDbLine
 10
-11.72149500000028
 20
14.04511900000014
 30
0.0
 11
-11.99801300000029
 21
13.14982200000011
 31
0.0
  0
DIMENSION
  5
AFC0
330
1F
100
AcDbEntity
  8
AM_5
100
AcDbDimension
  2
*D5
 10
-35.00000000000028
 20
29.27428006515345
 30
0.0
 11
-17.50000000000025
 21
32.37428006515341
 31
0.0
 70
    32
  1
<>
 51
359.9999999999998
  3
AM_JIS$0
100
AcDbAlignedDimension
 13
-0.0000000000002842
 23
0.0000000000001421
 33
0.0
 14
-35.0000000000003
 24
20.00000000000011
 34
0.0
 50
180.0
100
AcDbRotatedDimension
1001
GENIUS_GENDTOL_13
1000

1000
h7
1000

1040
0.0
1001
ACAD
1000
DSTYLE
1002
{
1070
   287
1070
     3
1070
   147
1040
3.0
1070
    44
1040
2.0
1070
    41
1040
5.0
1070
    40
1040
0.5
1070
    42
1040
2.0
1070
    43
1040
12.0
1070
    48
1040
0.1
1070
    78
1070
     8
1070
   140
1040
6.4
1070
   176
1070
   256
1070
   177
1070
   256
1070
   271
1070
     1
1070
   272
1070
     3
1070
   275
1070
     0
1070
   284
1070
     0
1070
   289
1070
     3
1070
   340
1005
6B
1070
   371
1070
    -1
1070
   372
1070
    -1
1002
}
  0
DIMENSION
  5
B05E
330
1F
100
AcDbEntity
  8
AM_5
100
AcDbDimension
  2
*D6
 10
-180.0102102118601
 20
-35.72873260873498
 30
0.0
 11
-90.00510510593022
 21
-32.62873260873498
 31
0.0
 70
    32
  1
<>
 51
359.9999999999998
  3
AM_JIS$0
100
AcDbAlignedDimension
 13
-0.0000000000002842
 23
0.0000000000001421
 33
0.0
 14
-180.0102102118601
 24
-21.00000000000019
 34
0.0
100
AcDbRotatedDimension
1001
GENIUS_GENDTOL_13
1000

1000
h7
1000

1040
0.0
1001
ACAD
1000
DSTYLE
1002
{
1070
   287
1070
     3
1070
   147
1040
3.0
1070
    44
1040
2.0
1070
    41
1040
5.0
1070
    40
1040
0.5
1070
    42
1040
2.0
1070
    43
1040
12.0
1070
    48
1040
0.1
1070
    78
1070
     8
1070
   140
1040
6.4
1070
   176
1070
   256
1070
   177
1070
   256
1070
   271
1070
     1
1070
   272
1070
     3
1070
   275
1070
     0
1070
   284
1070
     0
1070
   289
1070
     3
1070
   340
1005
6B
1070
   371
1070
    -1
1070
   372
1070
    -1
1002
}
  0
DIMENSION
  5
B0EA
330
1F
100
AcDbEntity
  8
AM_5
100
AcDbDimension
  2
*D7
 10
-280.0102102118602
 20
-35.72873260873548
 30
0.0
 11
-230.0102102118602
 21
-32.62873260873547
 31
0.0
 70
    32
  1
<>
 51
359.9999999999998
  3
AM_JIS$0
100
AcDbAlignedDimension
 13
-180.0102102118602
 23
-21.00000000000024
 33
0.0
 14
-280.0102102118602
 24
-18.6703441735611
 34
0.0
100
AcDbRotatedDimension
1001
GENIUS_GENDTOL_13
1000

1000
h7
1000

1040
0.0
1001
ACAD
1000
DSTYLE
1002
{
1070
   287
1070
     3
1070
   147
1040
3.0
1070
    44
1040
2.0
1070
    41
1040
5.0
1070
    40
1040
0.5
1070
    42
1040
2.0
1070
    43
1040
12.0
1070
    48
1040
0.1
1070
    78
1070
     8
1070
   140
1040
6.4
1070
   176
1070
   256
1070
   177
1070
   256
1070
   271
1070
     1
1070
   272
1070
     3
1070
   275
1070
     0
1070
   284
1070
     0
1070
   289
1070
     3
1070
   340
1005
6B
1070
   371
1070
    -1
1070
   372
1070
    -1
1002
}
  0
DIMENSION
  5
B17F
330
1F
100
AcDbEntity
  8
AM_5
100
AcDbDimension
  2
*D8
 10
-280.0102102118602
 20
-45.4933963030534
 30
0.0
 11
-140.0051051059302
 21
-42.3933963030534
 31
0.0
 70
    32
  1
<>
 51
359.9999999999998
  3
AM_JIS$0
100
AcDbAlignedDimension
 13
-0.0000000000002842
 23
0.0000000000001421
 33
0.0
 14
-280.0102102118602
 24
-18.67034417356108
 34
0.0
100
AcDbRotatedDimension
1001
GENIUS_GENDTOL_13
1000

1000
h7
1000

1040
0.0
1001
ACAD
1000
DSTYLE
1002
{
1070
   287
1070
     3
1070
   147
1040
3.0
1070
    44
1040
2.0
1070
    41
1040
5.0
1070
    40
1040
0.5
1070
    42
1040
2.0
1070
    43
1040
12.0
1070
    48
1040
0.1
1070
    78
1070
     8
1070
   140
1040
6.4
1070
   176
1070
   256
1070
   177
1070
   256
1070
   271
1070
     1
1070
   272
1070
     3
1070
   275
1070
     0
1070
   284
1070
     0
1070
   289
1070
     3
1070
   340
1005
6B
1070
   371
1070
    -1
1070
   372
1070
    -1
1002
}
  0
DIMENSION
  5
B226
330
1F
100
AcDbEntity
  8
AM_5
100
AcDbDimension
  2
*D9
 10
21.51207753971539
 20
-19.99999999999986
 30
0.0
 11
18.41207753971539
 21
0.0000000000001341
 31
0.0
 70
    32
  1
%%c<>
 51
359.9999999999998
  3
AM_JIS$0
100
AcDbAlignedDimension
 13
-20.00000000000025
 23
20.00000000000014
 33
0.0
 14
-20.00000000000025
 24
-19.99999999999985
 34
0.0
 50
90.0
100
AcDbRotatedDimension
1001
GENIUS_GENDTOL_13
1000

1000
h7
1000

1040
0.0
1001
ACAD
1000
DSTYLE
1002
{
1070
   287
1070
     3
1070
   147
1040
3.0
1070
    44
1040
2.0
1070
    41
1040
5.0
1070
    40
1040
0.5
1070
    42
1040
2.0
1070
    43
1040
12.0
1070
    48
1040
0.1
1070
    78
1070
     8
1070
   140
1040
6.4
1070
   176
1070
   256
1070
   177
1070
   256
1070
   271
1070
     1
1070
   272
1070
     3
1070
   275
1070
     0
1070
   284
1070
     0
1070
   289
1070
     3
1070
   340
1005
6B
1070
   371
1070
    -1
1070
   372
1070
    -1
1002
}
  0
DIMENSION
  5
B2CD
330
1F
100
AcDbEntity
  8
AM_5
100
AcDbDimension
  2
*D10
 10
-298.0161325042887
 20
-21.00000000000038
 30
0.0
 11
-301.1161325042887
 21
-0.0000000000004148
 31
0.0
 70
    32
  1
%%c<>
 51
359.9999999999998
  3
AM_JIS$0
100
AcDbAlignedDimension
 13
-277.0432229137524
 23
20.99999999999964
 33
0.0
 14
-277.0432229137524
 24
-21.00000000000038
 34
0.0
 50
270.0
100
AcDbRotatedDimension
1001
GENIUS_GENDTOL_13
1000

1000
h7
1000

1040
0.0
1001
ACAD
1000
DSTYLE
1002
{
1070
   287
1070
     3
1070
   147
1040
3.0
1070
    44
1040
2.0
1070
    41
1040
5.0
1070
    40
1040
0.5
1070
    42
1040
2.0
1070
    43
1040
12.0
1070
    48
1040
0.1
1070
    78
1070
     8
1070
   140
1040
6.4
1070
   176
1070
   256
1070
   177
1070
   256
1070
   271
1070
     1
1070
   272
1070
     3
1070
   275
1070
     0
1070
   284
1070
     0
1070
   289
1070
     3
1070
   340
1005
6B
1070
   371
1070
    -1
1070
   372
1070
    -1
1002
}
  0
VIEWPORT
  5
110
330
101
100
AcDbEntity
 67
     1
  8
0
100
AcDbViewport
 10
420.5
 20
297.0
 30
0.0
 40
948.9782706766916
 41
628.452
 68
     1
 69
     1
1001
ACAD
1000
MVIEW
1002
{
1070
    16
1010
0.0
1020
0.0
1030
0.0
1010
0.0
1020
0.0
1030
1.0
1040
0.0
1040
628.452
1040
420.5
1040
297.0
1040
50.0
1040
0.0
1040
0.0
1070
     0
1070
   100
1070
     1
1070
     1
1070
     0
1070
     0
1070
     0
1070
     0
1040
0.0
1040
0.0
1040
0.0
1040
10.0
1040
10.0
1040
10.0
1040
10.0
1070
     0
1002
{
1002
}
1002
}
  0
ENDSEC
  0
SECTION
  2
OBJECTS
  0
DICTIONARY
  5
C
330
0
100
AcDbDictionary
  3
ACAD_GROUP
350
D
  3
ACAD_LAYOUT
350
1A
  3
ACAD_MLINESTYLE
350
17
  3
ACAD_PLOTSETTINGS
350
19
  3
ACAD_PLOTSTYLENAME
350
E
  3
ACDBVARIABLEDICTIONARY
350
34
  3
ACMDICTIONARY
350
43
  3
AMG
350
2B
  3
AMGSNAPSETTINGS
350
6E
  3
DWGPROPS
350
B675
  3
ACDBHEADERROUNDTRIPXREC
350
B681
  0
DICTIONARY
  5
74
330
1F
100
AcDbDictionary
280
     1
  3
ACAD_INDEX
360
B677
  3
ACAD_LAYOUTSELFREF
360
B6A4
  0
DICTIONARY
  5
B6A9
330
101
100
AcDbDictionary
280
     1
  3
ACAD_LAYOUTSELFREF
360
B6AA
  0
DICTIONARY
  5
D
102
{ACAD_REACTORS
330
C
102
}
330
C
100
AcDbDictionary
  0
DICTIONARY
  5
1A
102
{ACAD_REACTORS
330
C
102
}
330
C
100
AcDbDictionary
  0
DICTIONARY
  5
17
102
{ACAD_REACTORS
330
C
102
}
330
C
100
AcDbDictionary
  3
STANDARD
350
18
  0
DICTIONARY
  5
19
102
{ACAD_REACTORS
330
C
102
}
330
C
100
AcDbDictionary
  3
ASAMI
350
399D
  0
ACDBDICTIONARYWDFLT
  5
E
102
{ACAD_REACTORS
330
C
102
}
330
C
100
AcDbDictionary
281
     1
  3
Normal
350
F
100
AcDbDictionaryWithDefault
340
F
  0
DICTIONARY
  5
34
102
{ACAD_REACTORS
330
C
102
}
330
C
100
AcDbDictionary
  3
INDEXCTL
350
35
  3
SORTENTS
350
B5E
  0
DICTIONARY
  5
43
102
{ACAD_REACTORS
330
C
102
}
330
C
100
AcDbDictionary
  3
ACMSTDDICTIONARY
350
260
  0
DICTIONARY
  5
2B
102
{ACAD_REACTORS
330
C
102
}
330
C
100
AcDbDictionary
  3
ACMGSETTINGS
350
2C
  0
DICTIONARY
  5
6E
102
{ACAD_REACTORS
330
C
102
}
330
C
100
AcDbDictionary
  0
XRECORD
  5
B675
102
{ACAD_REACTORS
330
C
102
}
330
C
100
AcDbXrecord
  1
DWGPROPS COOKIE
  2

  3

  4

  6

  7

  8

  9

300
AmdtFileType=82
301
=
302
=
303
=
304
=
305
=
306
=
307
=
308
=
309
=
 40
0.9740996180555555
 41
2452802.716478761
 42
2453075.661387257
  1

 90
        1
  0
DICTIONARY
  5
B681
102
{ACAD_REACTORS
330
C
102
}
330
C
100
AcDbDictionary
  3
TSTACKALIGN
350
B682
  3
TSTACKSIZE
350
B683
  3
HYPERLINKBASE
350
B684
  3
STYLESHEET
350
B685
  3
LAYOUTDICT
350
B686
  3
PLOTSETDICT
350
B687
  3
PLOTSTYLNAMDICT
350
B688
  3
LWETCUNION
350
B689
  3
INSUNITS
350
B68A
  3
CEPSNTYPE
350
B68B
  3
FINGERPRINTGUID
350
B68C
  3
VERSIONGUID
350
B68D
  3
PSVPSCALE
350
B68E
  3
DIMSTYLEDATA
350
B68F
  3
PUCSORTHOREF
350
B690
  3
PUCSORTHOVIEW
350
B691
  3
PUCSBASE
350
B692
  3
PUCSORGTOP
350
B693
  3
PUCSORGBOTTOM
350
B694
  3
PUCSORGLEFT
350
B695
  3
PUCSORGRIGHT
350
B696
  3
PUCSORGFRONT
350
B697
  3
PUCSORGBACK
350
B698
  3
UCSORTHOREF
350
B699
  3
UCSORTHOVIEW
350
B69A
  3
UCSBASE
350
B69B
  3
UCSORGTOP
350
B69C
  3
UCSORGBOTTOM
350
B69D
  3
UCSORGLEFT
350
B69E
  3
UCSORGRIGHT
350
B69F
  3
UCSORGFRONT
350
B6A0
  3
UCSORGBACK
350
B6A1
  0
DICTIONARY
  5
B677
102
{ACAD_REACTORS
330
74
102
}
330
74
100
AcDbDictionary
  3
*A1
350
B678
  0
XRECORD
  5
B6A4
102
{ACAD_REACTORS
330
74
102
}
330
74
100
AcDbXrecord
340
1F
  0
XRECORD
  5
B6AA
102
{ACAD_REACTORS
330
B6A9
102
}
330
B6A9
100
AcDbXrecord
340
101
  0
MLINESTYLE
  5
18
102
{ACAD_REACTORS
330
17
102
}
330
17
100
AcDbMlineStyle
  2
STANDARD
 70
     0
  3

 62
   256
 51
90.0
 52
90.0
 71
     2
 49
0.5
 62
   256
  6
BYLAYER
 49
-0.5
 62
   256
  6
BYLAYER
  0
PLOTSETTINGS
  5
399D
102
{ACAD_REACTORS
330
19
102
}
330
19
100
AcDbPlotSettings
  1
asami
  2
RICOH imagio MF1540
  4
A4
  6

 40
5.831416606903076
 41
7.651742935180664
 42
4.90008544921875
 43
5.789077758789062
 44
296.9683227539062
 45
209.9733276367187
 46
0.0
 47
0.0
 48
-156.6707931774246
 49
-74.57609991074048
140
58.59973180214831
141
60.61068161925596
142
1.0
143
1.095343097833084
 70
  1712
 72
     1
 73
     1
 74
     4
  7
asami.ctb
 75
     0
147
0.9129559514076438
148
156.6707931774246
149
74.57609991074048
  0
ACDBPLACEHOLDER
  5
F
102
{ACAD_REACTORS
330
E
102
}
330
E
100
AcDbPlaceHolder
280
     0
  0
DICTIONARYVAR
  5
35
102
{ACAD_REACTORS
330
34
102
}
330
34
100
DictionaryVariables
280
     0
  1
1
  0
DICTIONARYVAR
  5
B5E
102
{ACAD_REACTORS
330
34
102
}
330
34
100
DictionaryVariables
280
     0
  1
96
  0
DICTIONARY
  5
260
102
{ACAD_REACTORS
330
43
102
}
330
43
100
AcDbDictionary
  0
DICTIONARY
  5
2C
102
{ACAD_REACTORS
330
2B
102
}
330
2B
100
AcDbDictionary
  3
DWGSETTINGS
350
2D
  0
XRECORD
  5
B682
102
{ACAD_REACTORS
330
B681
102
}
330
B681
100
AcDbXrecord
 90
        1
  0
XRECORD
  5
B683
102
{ACAD_REACTORS
330
B681
102
}
330
B681
100
AcDbXrecord
 90
       70
  0
XRECORD
  5
B684
102
{ACAD_REACTORS
330
B681
102
}
330
B681
100
AcDbXrecord
  1

  0
XRECORD
  5
B685
102
{ACAD_REACTORS
330
B681
102
}
330
B681
100
AcDbXrecord
  1
ASAMI.ctb
  0
XRECORD
  5
B686
102
{ACAD_REACTORS
330
B681
102
}
330
B681
100
AcDbXrecord
340
1A
  0
XRECORD
  5
B687
102
{ACAD_REACTORS
330
B681
102
}
330
B681
100
AcDbXrecord
340
19
  0
XRECORD
  5
B688
102
{ACAD_REACTORS
330
B681
102
}
330
B681
100
AcDbXrecord
340
E
  0
XRECORD
  5
B689
102
{ACAD_REACTORS
330
B681
102
}
330
B681
100
AcDbXrecord
 90
    10781
  0
XRECORD
  5
B68A
102
{ACAD_REACTORS
330
B681
102
}
330
B681
100
AcDbXrecord
 90
        4
  0
XRECORD
  5
B68B
102
{ACAD_REACTORS
330
B681
102
}
330
B681
100
AcDbXrecord
 90
        0
  0
XRECORD
  5
B68C
102
{ACAD_REACTORS
330
B681
102
}
330
B681
100
AcDbXrecord
  1
{AFB28963-8C59-40AE-9337-C84526B81ACE}
  0
XRECORD
  5
B68D
102
{ACAD_REACTORS
330
B681
102
}
330
B681
100
AcDbXrecord
  1
{CE0F519B-1DD3-4C57-B2B7-CFA800D58C29}
  0
XRECORD
  5
B68E
102
{ACAD_REACTORS
330
B681
102
}
330
B681
100
AcDbXrecord
 40
0.0
  0
XRECORD
  5
B68F
102
{ACAD_REACTORS
330
B681
102
}
330
B681
100
AcDbXrecord
1000
DSTYLE
1002
{
1070
    79
 70
     2
1070
   341
340
59
1070
   342
340
59
1070
   371
 70
    -1
1070
   372
 70
    -1
1002
}
  0
XRECORD
  5
B690
102
{ACAD_REACTORS
330
B681
102
}
330
B681
100
AcDbXrecord
340
0
  0
XRECORD
  5
B691
102
{ACAD_REACTORS
330
B681
102
}
330
B681
100
AcDbXrecord
 70
     0
  0
XRECORD
  5
B692
102
{ACAD_REACTORS
330
B681
102
}
330
B681
100
AcDbXrecord
340
0
  0
XRECORD
  5
B693
102
{ACAD_REACTORS
330
B681
102
}
330
B681
100
AcDbXrecord
 10
0.0
 20
0.0
 30
0.0
  0
XRECORD
  5
B694
102
{ACAD_REACTORS
330
B681
102
}
330
B681
100
AcDbXrecord
 10
0.0
 20
0.0
 30
0.0
  0
XRECORD
  5
B695
102
{ACAD_REACTORS
330
B681
102
}
330
B681
100
AcDbXrecord
 10
0.0
 20
0.0
 30
0.0
  0
XRECORD
  5
B696
102
{ACAD_REACTORS
330
B681
102
}
330
B681
100
AcDbXrecord
 10
0.0
 20
0.0
 30
0.0
  0
XRECORD
  5
B697
102
{ACAD_REACTORS
330
B681
102
}
330
B681
100
AcDbXrecord
 10
0.0
 20
0.0
 30
0.0
  0
XRECORD
  5
B698
102
{ACAD_REACTORS
330
B681
102
}
330
B681
100
AcDbXrecord
 10
0.0
 20
0.0
 30
0.0
  0
XRECORD
  5
B699
102
{ACAD_REACTORS
330
B681
102
}
330
B681
100
AcDbXrecord
340
0
  0
XRECORD
  5
B69A
102
{ACAD_REACTORS
330
B681
102
}
330
B681
100
AcDbXrecord
 70
     0
  0
XRECORD
  5
B69B
102
{ACAD_REACTORS
330
B681
102
}
330
B681
100
AcDbXrecord
340
0
  0
XRECORD
  5
B69C
102
{ACAD_REACTORS
330
B681
102
}
330
B681
100
AcDbXrecord
 10
0.0
 20
0.0
 30
0.0
  0
XRECORD
  5
B69D
102
{ACAD_REACTORS
330
B681
102
}
330
B681
100
AcDbXrecord
 10
0.0
 20
0.0
 30
0.0
  0
XRECORD
  5
B69E
102
{ACAD_REACTORS
330
B681
102
}
330
B681
100
AcDbXrecord
 10
0.0
 20
0.0
 30
0.0
  0
XRECORD
  5
B69F
102
{ACAD_REACTORS
330
B681
102
}
330
B681
100
AcDbXrecord
 10
0.0
 20
0.0
 30
0.0
  0
XRECORD
  5
B6A0
102
{ACAD_REACTORS
330
B681
102
}
330
B681
100
AcDbXrecord
 10
0.0
 20
0.0
 30
0.0
  0
XRECORD
  5
B6A1
102
{ACAD_REACTORS
330
B681
102
}
330
B681
100
AcDbXrecord
 10
0.0
 20
0.0
 30
0.0
  0
LAYER_INDEX
  5
B678
102
{ACAD_REACTORS
330
B677
102
}
330
B677
100
AcDbIndex
 40
2453152.416316493
100
AcDbLayerIndex
  8
0
360
B679
 90
        0
  8
AM_0
360
B67A
 90
      398
  8
AM_5
360
B67B
 90
        6
  8
AM_7
360
B67C
 90
        1
  8
AM_6
360
B67D
 90
        1
  8
Defpoints
360
B67E
 90
        0
  8
AM_11
360
B67F
 90
        4
  0
XRECORD
  5
2D
102
{ACAD_REACTORS
330
2C
102
}
330
2C
100
AcDbXrecord
  1
VERSION
140
15.0
  1
PRODUCT
  2
AutoCAD Mechanical 2000
  0
IDBUFFER
  5
B679
330
0
100
AcDbIdBuffer
  0
IDBUFFER
  5
B67A
330
0
100
AcDbIdBuffer
330
ACD2
330
ACD3
330
ACD4
330
ACD5
330
ACD6
330
ACD7
330
ACD8
330
ACD9
330
ACDA
330
ACDB
330
ACDC
330
ACDD
330
ACDE
330
ACDF
330
ACE0
330
ACE1
330
ACE2
330
ACE3
330
ACE4
330
ACE5
330
ACE6
330
ACE7
330
ACE8
330
ACE9
330
ACEA
330
ACEB
330
ACEC
330
ACED
330
ACEE
330
ACEF
330
ACF0
330
ACF1
330
ACF2
330
ACF3
330
ACF4
330
ACF5
330
ACF6
330
ACF7
330
ACF8
330
ACF9
330
ACFA
330
ACFC
330
ACFD
330
ACFE
330
AD00
330
AD05
330
AD06
330
AD07
330
AD08
330
AD09
330
AD0A
330
AD0B
330
AD0C
330
AD0D
330
AD0E
330
AD0F
330
AD10
330
AD12
330
AD13
330
AD14
330
AD15
330
AD16
330
AD17
330
AD18
330
AD19
330
AD1A
330
AD1B
330
AD1C
330
AD1D
330
AD1E
330
AD1F
330
AD20
330
AD21
330
AD22
330
AD23
330
AD24
330
AD25
330
AD26
330
AD27
330
AD28
330
AD29
330
AD2A
330
AD2B
330
AD2C
330
AD2D
330
AD2E
330
AD2F
330
AD30
330
AD31
330
AD32
330
AD33
330
AD34
330
AD35
330
AD36
330
AD37
330
AD38
330
AD39
330
AD3A
330
AD3B
330
AD3C
330
AD3D
330
AD3E
330
AD3F
330
AD40
330
AD41
330
AD42
330
AD43
330
AD44
330
AD45
330
AD46
330
AD47
330
AD48
330
AD49
330
AD4A
330
AD4B
330
AD4C
330
AD4D
330
AD4E
330
AD4F
330
AD50
330
AD51
330
AD52
330
AD53
330
AD54
330
AD55
330
AD56
330
AD57
330
AD58
330
AD59
330
AD5A
330
AD5B
330
AD5C
330
AD5D
330
AD5E
330
AD5F
330
AD60
330
AD61
330
AD62
330
AD63
330
AD64
330
AD65
330
AD66
330
AD67
330
AD68
330
AD69
330
AD6A
330
AD6B
330
AD6C
330
AD6D
330
AD6E
330
AD6F
330
AD70
330
AD71
330
AD72
330
AD73
330
AD74
330
AD75
330
AD76
330
ABDB
330
ABDE
330
ABE1
330
ABE2
330
ABE3
330
ABE5
330
ABE6
330
ABE7
330
ABE8
330
ABE9
330
ABEA
330
ABEB
330
ABEC
330
ABED
330
ABEE
330
ABEF
330
ABF0
330
ABF1
330
ABF2
330
ABF3
330
ABF4
330
ABF5
330
ABF6
330
ABF7
330
ABF8
330
ABF9
330
ABFA
330
ABFB
330
ABFC
330
ABFD
330
ABFE
330
ABFF
330
AC00
330
AC01
330
AC02
330
AC03
330
AC04
330
AC05
330
AC06
330
AC07
330
AC08
330
AC09
330
AC0A
330
AC0B
330
AC0C
330
AC0D
330
AC0E
330
AC0F
330
AC10
330
AC11
330
AC12
330
AC13
330
AC14
330
AC15
330
AC16
330
AC17
330
AC18
330
AC19
330
AC1A
330
AC1C
330
AC1D
330
AC1E
330
AC1F
330
AC20
330
AC21
330
AC22
330
AC23
330
AC24
330
AC25
330
AC27
330
AC28
330
AC29
330
AC2A
330
AC2B
330
AC2C
330
AC2D
330
AC2E
330
AC2F
330
AC30
330
AC31
330
AC32
330
AC33
330
AC34
330
AC35
330
AC36
330
AC37
330
AC38
330
AC39
330
AC3A
330
AC3B
330
AC3C
330
AC3D
330
AC3E
330
AC3F
330
AC40
330
AC41
330
AC42
330
AC43
330
AC44
330
AC45
330
AC46
330
AC47
330
AC48
330
AC49
330
AC4A
330
AC4B
330
AC4C
330
AC4D
330
AC4E
330
AC4F
330
AC50
330
AC51
330
AC52
330
AC53
330
AC54
330
AC55
330
AC56
330
AC57
330
AC58
330
AC59
330
AC5A
330
AC5B
330
AC5C
330
AC5D
330
AC5E
330
AC5F
330
AC60
330
AC61
330
AC62
330
AC63
330
AC64
330
AC65
330
AC66
330
AC67
330
AC68
330
AC69
330
AC6A
330
AC6B
330
AC6C
330
AC6D
330
AC6E
330
AC6F
330
AC70
330
AC71
330
AC72
330
AC73
330
AC74
330
AC75
330
AC76
330
AC77
330
AC78
330
AC79
330
AC7A
330
AC7B
330
AC7C
330
AC7D
330
AC7E
330
AC7F
330
AC80
330
AC81
330
AC82
330
AC83
330
AC84
330
AC85
330
AC86
330
AC87
330
AC88
330
AC89
330
AC8A
330
AC8B
330
AC8C
330
AC8D
330
AC8E
330
AC8F
330
AC90
330
AC91
330
AC92
330
AC93
330
AC94
330
AC95
330
AC96
330
AC97
330
AC98
330
AC99
330
AC9A
330
AC9B
330
AC9C
330
AC9D
330
AC9E
330
AC9F
330
ACA0
330
ACA1
330
ACA2
330
ACA3
330
ACA4
330
ACA5
330
ACA6
330
ACA7
330
ACA8
330
ACA9
330
ACAA
330
ACAB
330
ACAC
330
ACAD
330
ACAE
330
ACAF
330
ACB0
330
ACB1
330
ACB2
330
ACB3
330
ACB4
330
ACB5
330
ACB6
330
ACB7
330
ACB8
330
ACB9
330
ACBA
330
ACBB
330
ACBC
330
ACBD
330
ACBE
330
ACBF
330
ACC0
330
ACC1
330
ACC2
330
ACC3
330
ACC4
330
ACC5
330
ACC6
330
ACC7
330
ACC8
330
ACC9
330
ACCA
330
ACCB
330
ACCC
330
ACCD
330
ACCE
330
ACCF
330
ACD0
330
ACD1
  0
IDBUFFER
  5
B67B
330
0
100
AcDbIdBuffer
330
AFC0
330
B05E
330
B0EA
330
B17F
330
B226
330
B2CD
  0
IDBUFFER
  5
B67C
330
0
100
AcDbIdBuffer
330
ACFF
  0
IDBUFFER
  5
B67D
330
0
100
AcDbIdBuffer
330
388D
  0
IDBUFFER
  5
B67E
330
0
100
AcDbIdBuffer
  0
IDBUFFER
  5
B67F
330
0
100
AcDbIdBuffer
330
ABDF
330
ABE0
330
AC26
330
AD11
  0
ENDSEC
  0
EOF
