  0
SECTION
  2
HEADER
  9
$ACADVER
  1
AC1014
  9
$ACADMAINTVER
 70
     9
  9
$DWGCODEPAGE
  3
ANSI_932
  9
$INSBASE
 10
0.0
 20
0.0
 30
0.0
  9
$EXTMIN
 10
-304.5139890324052
 20
-68.15469483545626
 30
-0.00000001
  9
$EXTMAX
 10
20.96585708688952
 20
39.70000100999964
 30
0.00000001
  9
$LIMMIN
 10
-324.4159995006118
 20
-135.9139610158564
  9
$LIMMAX
 10
98.62563411759062
 20
134.4820021181461
  9
$ORTHOMODE
 70
     0
  9
$REGENMODE
 70
     1
  9
$FILLMODE
 70
     1
  9
$QTEXTMODE
 70
     0
  9
$MIRRTEXT
 70
     0
  9
$DRAGMODE
 70
     2
  9
$LTSCALE
 40
1.0
  9
$OSMODE
 70
    55
  9
$ATTMODE
 70
     1
  9
$TEXTSIZE
 40
2.5
  9
$TRACEWID
 40
1.0
  9
$TEXTSTYLE
  7
STANDARD
  9
$CLAYER
  8
AM_0
  9
$CELTYPE
  6
BYLAYER
  9
$CECOLOR
 62
   256
  9
$CELTSCALE
 40
1.0
  9
$DELOBJ
 70
     1
  9
$DISPSILH
 70
     0
  9
$DIMSCALE
 40
0.5
  9
$DIMASZ
 40
2.5
  9
$DIMEXO
 40
1.0
  9
$DIMDLI
 40
12.0
  9
$DIMRND
 40
0.0
  9
$DIMDLE
 40
0.0
  9
$DIMEXE
 40
1.0
  9
$DIMTP
 40
0.1
  9
$DIMTM
 40
0.1
  9
$DIMTXT
 40
3.2
  9
$DIMCEN
 40
0.0
  9
$DIMTSZ
 40
0.0
  9
$DIMTOL
 70
     0
  9
$DIMLIM
 70
     0
  9
$DIMTIH
 70
     0
  9
$DIMTOH
 70
     0
  9
$DIMSE1
 70
     0
  9
$DIMSE2
 70
     0
  9
$DIMTAD
 70
     3
  9
$DIMZIN
 70
     8
  9
$DIMBLK
  1
OPEN30
  9
$DIMASO
 70
     1
  9
$DIMSHO
 70
     1
  9
$DIMPOST
  1

  9
$DIMAPOST
  1
"
  9
$DIMALT
 70
     0
  9
$DIMALTD
 70
     2
  9
$DIMALTF
 40
0.0393701
  9
$DIMLFAC
 40
1.0
  9
$DIMTOFL
 70
     1
  9
$DIMTVP
 40
0.0
  9
$DIMTIX
 70
     0
  9
$DIMSOXD
 70
     0
  9
$DIMSAH
 70
     0
  9
$DIMBLK1
  1

  9
$DIMBLK2
  1

  9
$DIMSTYLE
  2
AM_JIS
  9
$DIMCLRD
 70
   256
  9
$DIMCLRE
 70
   256
  9
$DIMCLRT
 70
     2
  9
$DIMTFAC
 40
0.71
  9
$DIMGAP
 40
1.5
  9
$DIMJUST
 70
     0
  9
$DIMSD1
 70
     0
  9
$DIMSD2
 70
     0
  9
$DIMTOLJ
 70
     0
  9
$DIMTZIN
 70
     0
  9
$DIMALTZ
 70
     0
  9
$DIMALTTZ
 70
     0
  9
$DIMFIT
 70
     3
  9
$DIMUPT
 70
     0
  9
$DIMUNIT
 70
     2
  9
$DIMDEC
 70
     3
  9
$DIMTDEC
 70
     3
  9
$DIMALTU
 70
     2
  9
$DIMALTTD
 70
     2
  9
$DIMTXSTY
  7
ASAMI
  9
$DIMAUNIT
 70
     0
  9
$LUNITS
 70
     2
  9
$LUPREC
 70
     2
  9
$SKETCHINC
 40
1.0
  9
$FILLETRAD
 40
0.4
  9
$AUNITS
 70
     0
  9
$AUPREC
 70
     0
  9
$MENU
  1
.
  9
$ELEVATION
 40
0.0
  9
$PELEVATION
 40
0.0
  9
$THICKNESS
 40
0.0
  9
$LIMCHECK
 70
     1
  9
$BLIPMODE
 70
     0
  9
$CHAMFERA
 40
1.0
  9
$CHAMFERB
 40
1.0
  9
$CHAMFERC
 40
20.0
  9
$CHAMFERD
 40
0.0
  9
$SKPOLY
 70
     0
  9
$TDCREATE
 40
2452802.716478761
  9
$TDUPDATE
 40
2453152.411295208
  9
$TDINDWG
 40
0.9512569676
  9
$TDUSRTIMER
 40
0.9512569676
  9
$USRTIMER
 70
     1
  9
$ANGBASE
 50
0.0
  9
$ANGDIR
 70
     0
  9
$PDMODE
 70
     0
  9
$PDSIZE
 40
0.0
  9
$PLINEWID
 40
0.0
  9
$COORDS
 70
     1
  9
$SPLFRAME
 70
     0
  9
$SPLINETYPE
 70
     6
  9
$SPLINESEGS
 70
     8
  9
$ATTDIA
 70
     1
  9
$ATTREQ
 70
     1
  9
$HANDLING
 70
 12289
  9
$HANDSEED
  5
C3B7
  9
$SURFTAB1
 70
     6
  9
$SURFTAB2
 70
     6
  9
$SURFTYPE
 70
     6
  9
$SURFU
 70
     6
  9
$SURFV
 70
     6
  9
$UCSNAME
  2

  9
$UCSORG
 10
-0.0000000000002682
 20
0.000000000000161
 30
0.0
  9
$UCSXDIR
 10
1.0
 20
0.000000000000002
 30
0.0
  9
$UCSYDIR
 10
-0.000000000000002
 20
1.0
 30
0.0
  9
$PUCSNAME
  2

  9
$PUCSORG
 10
0.0
 20
0.0
 30
0.0
  9
$PUCSXDIR
 10
1.0
 20
0.0
 30
0.0
  9
$PUCSYDIR
 10
0.0
 20
1.0
 30
0.0
  9
$USERI1
 70
     0
  9
$USERI2
 70
     0
  9
$USERI3
 70
     0
  9
$USERI4
 70
     0
  9
$USERI5
 70
     0
  9
$USERR1
 40
0.0
  9
$USERR2
 40
0.0
  9
$USERR3
 40
0.0
  9
$USERR4
 40
0.0
  9
$USERR5
 40
0.0
  9
$WORLDVIEW
 70
     1
  9
$SHADEDGE
 70
     3
  9
$SHADEDIF
 70
    70
  9
$TILEMODE
 70
     1
  9
$MAXACTVP
 70
    64
  9
$PINSBASE
 10
0.0
 20
0.0
 30
0.0
  9
$PLIMCHECK
 70
     0
  9
$PEXTMIN
 10
1.000000000000000E+20
 20
1.000000000000000E+20
 30
1.000000000000000E+20
  9
$PEXTMAX
 10
-1.000000000000000E+20
 20
-1.000000000000000E+20
 30
-1.000000000000000E+20
  9
$PLIMMIN
 10
0.0
 20
0.0
  9
$PLIMMAX
 10
841.0
 20
594.0
  9
$UNITMODE
 70
     0
  9
$VISRETAIN
 70
     1
  9
$PLINEGEN
 70
     0
  9
$PSLTSCALE
 70
     0
  9
$TREEDEPTH
 70
  3020
  9
$PICKSTYLE
 70
     0
  9
$CMLSTYLE
  2
STANDARD
  9
$CMLJUST
 70
     0
  9
$CMLSCALE
 40
20.0
  9
$PROXYGRAPHICS
 70
     1
  9
$MEASUREMENT
 70
     1
  0
ENDSEC
  0
SECTION
  2
CLASSES
  0
CLASS
  1
ACDBDICTIONARYWDFLT
  2
AcDbDictionaryWithDefault
  3
AutoCAD 2000
 90
        0
280
     0
281
     0
  0
CLASS
  1
ACDBPLACEHOLDER
  2
AcDbPlaceHolder
  3
AutoCAD 2000
 90
        0
280
     0
281
     0
  0
CLASS
  1
LAYOUT
  2
AcDbLayout
  3
AutoCAD 2000
 90
        0
280
     0
281
     0
  0
CLASS
  1
AMGSETTINGSOBJ
  2
AmgSettingsObj
  3
"AcadM|Product Description: AutoCAD Mechanical 2000|Company: Autodesk"
 90
        0
280
     0
281
     0
  0
CLASS
  1
ACME_DOCUMENT
  2
AcMeDbDoc
  3
AcMeServices
 90
        0
280
     0
281
     0
  0
CLASS
  1
ACMESCOPE
  2
AcMeScope
  3
AcMeServices
 90
        0
280
     0
281
     0
  0
CLASS
  1
ACMECOMMANDHISTORY
  2
AcMeCommandHistory
  3
AcMeServices
 90
        0
280
     0
281
     0
  0
CLASS
  1
DICTIONARYVAR
  2
AcDbDictionaryVar
  3
AutoCAD 2000
 90
        0
280
     0
281
     0
  0
CLASS
  1
ACIMSYSVARMAN
  2
AcImSysVarManager
  3
AcMeServices
 90
        0
280
     0
281
     0
  0
CLASS
  1
ACIMREALSYSVAR
  2
AcImRealSysVar
  3
AcMeServices
 90
        0
280
     0
281
     0
  0
CLASS
  1
ACIMINTSYSVAR
  2
AcImIntSysVar
  3
AcMeServices
 90
        0
280
     0
281
     0
  0
CLASS
  1
ACMEDRAWINGMAN
  2
AcMeDrawingMan
  3
AcMeServices
 90
        0
280
     0
281
     0
  0
CLASS
  1
ACMEVIEW
  2
AcMeView
  3
AcMeServices
 90
        0
280
     0
281
     0
  0
CLASS
  1
ACDBENTITYCACHE
  2
AcMeEntityCache
  3
AcMeServices
 90
        0
280
     0
281
     0
  0
CLASS
  1
GSMANAGER
  2
AcMeGSManager
  3
AcMeServices
 90
        0
280
     0
281
     0
  0
CLASS
  1
AmdtInternalReactor
  2
AmdtInternalReactor
  3
AcMeServices
 90
        0
280
     0
281
     0
  0
CLASS
  1
ACMESTATEMGR
  2
AcMeStateMgr
  3
AcMeServices
 90
        0
280
     0
281
     0
  0
CLASS
  1
ACME_DATABASE
  2
AcMeDbDatabase
  3
AcMeServices
 90
        0
280
     0
281
     0
  0
CLASS
  1
ACRFINSADJUSTERMGR
  2
AcRfInsAdjusterMgr
  3
AcMeServices
 90
        0
280
     0
281
     0
  0
CLASS
  1
ACMDATADICTIONARY
  2
AcmDataDictionary
  3
"AcmSymBB|Product Description: AutoCAD Mechanical 2000|Company: Autodesk"
 90
        0
280
     0
281
     0
  0
CLASS
  1
ACMDATAENTRYBLOCK
  2
AcmDataEntryBlock
  3
"AcmSymBB|Product Description: AutoCAD Mechanical 2000|Company: Autodesk"
 90
        0
280
     0
281
     0
  0
CLASS
  1
AMGOBJPROPCFG
  2
AmgObjPropCfg
  3
"AmgLay|Product Description: AutoCAD Mechanical 2000|Company: Autodesk"
 90
        1
280
     0
281
     0
  0
CLASS
  1
ACAMGFILTERDAT
  2
AcAmgFilterDat
  3
"AcadM|Product Description: AutoCAD Mechanical 2000|Company: Autodesk"
 90
        0
280
     0
281
     0
  0
CLASS
  1
LAYER_INDEX
  2
AcDbLayerIndex
  3
AutoCAD 2000
 90
        0
280
     0
281
     0
  0
CLASS
  1
IDBUFFER
  2
AcDbIdBuffer
  3
AutoCAD 2000
 90
        0
280
     0
281
     0
  0
CLASS
  1
ACIMSTRSYSVAR
  2
AcImStrSysVar
  3
AcMeServices
 90
        0
280
     0
281
     0
  0
CLASS
  1
ACMSTANDARDJIS
  2
AcmStandardJIS
  3
"AcmSymBB|Product Description: AutoCAD Mechanical 2000|Company: Autodesk"
 90
        0
280
     0
281
     0
  0
CLASS
  1
ACMSURFSTANDARDJIS
  2
AcmSurfTextStdJIS
  3
"AcmSymBB|Product Description: AutoCAD Mechanical 2000|Company: Autodesk"
 90
        0
280
     0
281
     0
  0
CLASS
  1
ACMFCFSTANDARDJIS
  2
AcmFCFStdJIS
  3
"AcmSymBB|Product Description: AutoCAD Mechanical 2000|Company: Autodesk"
 90
        0
280
     0
281
     0
  0
CLASS
  1
ACMWELDSTANDARDJIS
  2
AcmWeldingStdJIS
  3
"AcmSymBB|Product Description: AutoCAD Mechanical 2000|Company: Autodesk"
 90
        0
280
     0
281
     0
  0
CLASS
  1
ACMIDSTANDARDJIS
  2
AcmIdStdJIS
  3
"AcmSymBB|Product Description: AutoCAD Mechanical 2000|Company: Autodesk"
 90
        0
280
     0
281
     0
  0
CLASS
  1
ACMDATUMSTANDARDJIS
  2
AcmDatumStdJIS
  3
"AcmSymBB|Product Description: AutoCAD Mechanical 2000|Company: Autodesk"
 90
        0
280
     0
281
     0
  0
CLASS
  1
ACMBOMSTANDARDJIS
  2
AcmBOMStdJIS
  3
"AcmSymBB|Product Description: AutoCAD Mechanical 2000|Company: Autodesk"
 90
        0
280
     0
281
     0
  0
CLASS
  1
ACMSTANDARDANSI
  2
AcmStandardANSI
  3
"AcmSymBB|Product Description: AutoCAD Mechanical 2000|Company: Autodesk"
 90
        0
280
     0
281
     0
  0
CLASS
  1
ACMSURFSTANDARDANSI
  2
AcmSurfTextStdANSI
  3
"AcmSymBB|Product Description: AutoCAD Mechanical 2000|Company: Autodesk"
 90
        0
280
     0
281
     0
  0
CLASS
  1
ACMFCFSTANDARDANSI
  2
AcmFCFStdANSI
  3
"AcmSymBB|Product Description: AutoCAD Mechanical 2000|Company: Autodesk"
 90
        0
280
     0
281
     0
  0
CLASS
  1
ACMWELDSTANDARDANSI
  2
AcmWeldingStdANSI
  3
"AcmSymBB|Product Description: AutoCAD Mechanical 2000|Company: Autodesk"
 90
        0
280
     0
281
     0
  0
CLASS
  1
ACMIDSTANDARDANSI
  2
AcmIdStdANSI
  3
"AcmSymBB|Product Description: AutoCAD Mechanical 2000|Company: Autodesk"
 90
        0
280
     0
281
     0
  0
CLASS
  1
ACMDATUMSTANDARDANSI
  2
AcmDatumStdANSI
  3
"AcmSymBB|Product Description: AutoCAD Mechanical 2000|Company: Autodesk"
 90
        0
280
     0
281
     0
  0
CLASS
  1
ACMBOMSTANDARDANSI
  2
AcmBOMStdANSI
  3
"AcmSymBB|Product Description: AutoCAD Mechanical 2000|Company: Autodesk"
 90
        0
280
     0
281
     0
  0
CLASS
  1
ACMSTANDARDBSI
  2
AcmStandardBSI
  3
"AcmSymBB|Product Description: AutoCAD Mechanical 2000|Company: Autodesk"
 90
        0
280
     0
281
     0
  0
CLASS
  1
ACMSURFSTANDARDBSI
  2
AcmSurfTextStdBSI
  3
"AcmSymBB|Product Description: AutoCAD Mechanical 2000|Company: Autodesk"
 90
        0
280
     0
281
     0
  0
CLASS
  1
ACMFCFSTANDARDBSI
  2
AcmFCFStdBSI
  3
"AcmSymBB|Product Description: AutoCAD Mechanical 2000|Company: Autodesk"
 90
        0
280
     0
281
     0
  0
CLASS
  1
ACMWELDSTANDARDBSI
  2
AcmWeldingStdBSI
  3
"AcmSymBB|Product Description: AutoCAD Mechanical 2000|Company: Autodesk"
 90
        0
280
     0
281
     0
  0
CLASS
  1
ACMIDSTANDARDBSI
  2
AcmIdStdBSI
  3
"AcmSymBB|Product Description: AutoCAD Mechanical 2000|Company: Autodesk"
 90
        0
280
     0
281
     0
  0
CLASS
  1
ACMDATUMSTANDARDBSI
  2
AcmDatumStdBSI
  3
"AcmSymBB|Product Description: AutoCAD Mechanical 2000|Company: Autodesk"
 90
        0
280
     0
281
     0
  0
CLASS
  1
ACMBOMSTANDARDBSI
  2
AcmBOMStdBSI
  3
"AcmSymBB|Product Description: AutoCAD Mechanical 2000|Company: Autodesk"
 90
        0
280
     0
281
     0
  0
CLASS
  1
STDPART2D
  2
AmgStdPart
  3
"AmgStdPart|Product Description: AutoCAD Mechanical 2000|Company: Autodesk"
 90
     1023
280
     0
281
     1
  0
CLASS
  1
PLOTSETTINGS
  2
AcDbPlotSettings
  3
AutoCAD 2000
 90
        0
280
     0
281
     0
  0
CLASS
  1
AMDTNOTE
  2
AmdtNote
  3
"AcmSymBB|Product Description: AutoCAD Mechanical 2000|Company: Autodesk"
 90
     1023
280
     0
281
     1
  0
CLASS
  1
LONG_TRANSACTION
  2
AcDbLongTransaction
  3
AutoCAD 2000
 90
        0
280
     0
281
     0
  0
CLASS
  1
LWPOLYLINE
  2
AcDbPolyline
  3
AutoCAD 2000
 90
        0
280
     0
281
     1
  0
CLASS
  1
HATCH
  2
AcDbHatch
  3
AutoCAD 2000
 90
        0
280
     0
281
     1
  0
CLASS
  1
XRECORD
  2
AcDbXrecord
  3
AutoCAD 2000
 90
        0
280
     0
281
     0
  0
ENDSEC
  0
SECTION
  2
TABLES
  0
TABLE
  2
VPORT
  5
8
330
0
100
AcDbSymbolTable
 70
     3
  0
VPORT
  5
C356
330
8
100
AcDbSymbolTableRecord
100
AcDbViewportTableRecord
  2
*ACTIVE
 70
     0
 10
0.0
 20
0.0
 11
1.0
 21
1.0
 12
-132.0771485994055
 22
-9.416928621547896
 13
0.0
 23
0.0
 14
2.5
 24
2.5
 15
10.0
 25
10.0
 16
0.0
 26
0.0
 36
1.0
 17
0.0
 27
0.0
 37
0.0
 40
285.3188088844778
 41
1.56570841889117
 42
50.0
 43
0.0
 44
0.0
 50
0.0
 51
0.0
 71
     0
 72
   100
 73
     1
 74
     3
 75
     0
 76
     0
 77
     0
 78
     0
  0
ENDTAB
  0
TABLE
  2
LTYPE
  5
5
330
0
100
AcDbSymbolTable
 70
    12
  0
LTYPE
  5
14
330
5
100
AcDbSymbolTableRecord
100
AcDbLinetypeTableRecord
  2
BYBLOCK
 70
     0
  3

 72
    65
 73
     0
 40
0.0
  0
LTYPE
  5
15
330
5
100
AcDbSymbolTableRecord
100
AcDbLinetypeTableRecord
  2
BYLAYER
 70
     0
  3

 72
    65
 73
     0
 40
0.0
  0
LTYPE
  5
16
330
5
100
AcDbSymbolTableRecord
100
AcDbLinetypeTableRecord
  2
CONTINUOUS
 70
     0
  3
Solid line
 72
    65
 73
     0
 40
0.0
  0
LTYPE
  5
4B
330
5
100
AcDbSymbolTableRecord
100
AcDbLinetypeTableRecord
  2
AM_ISO02W050
 70
     0
  3
__ __ __ __ __ __ __ __ __ __ __ __ __ __ __
 72
    65
 73
     2
 40
7.5
 49
6.0
 74
     0
 49
-1.5
 74
     0
  0
LTYPE
  5
4C
330
5
100
AcDbSymbolTableRecord
100
AcDbLinetypeTableRecord
  2
AM_ISO08W050
 70
     0
  3
____ . ____ . ____ . ____ . ____ . ____ . ____
 72
    65
 73
     4
 40
18.0
 49
12.0
 74
     0
 49
-1.5
 74
     0
 49
3.0
 74
     0
 49
-1.5
 74
     0
  0
LTYPE
  5
4D
330
5
100
AcDbSymbolTableRecord
100
AcDbLinetypeTableRecord
  2
AM_ISO09W050
 70
     0
  3
_____ . . _____ . . _____ . . ____ .. ____
 72
    65
 73
     6
 40
22.5
 49
12.0
 74
     0
 49
-1.5
 74
     0
 49
3.0
 74
     0
 49
-1.5
 74
     0
 49
3.0
 74
     0
 49
-1.5
 74
     0
  0
LTYPE
  5
4E
330
5
100
AcDbSymbolTableRecord
100
AcDbLinetypeTableRecord
  2
AMCONSTR
 70
     0
  3
_______________________
 72
    65
 73
     2
 40
9999.0
 49
9999.0
 74
     0
 49
0.0
 74
     0
  0
LTYPE
  5
4F
330
5
100
AcDbSymbolTableRecord
100
AcDbLinetypeTableRecord
  2
AM_ISO02W050X2
 70
     0
  3
 _ _ _ _ _ _ _ _ _ _ _ _
 72
    65
 73
     2
 40
3.75
 49
3.0
 74
     0
 49
-0.75
 74
     0
  0
LTYPE
  5
50
330
5
100
AcDbSymbolTableRecord
100
AcDbLinetypeTableRecord
  2
AM_ISO08W050X2
 70
     0
  3
__ . __ . __ . __ . __ . __
 72
    65
 73
     4
 40
9.0
 49
6.0
 74
     0
 49
-0.75
 74
     0
 49
1.5
 74
     0
 49
-0.75
 74
     0
  0
LTYPE
  5
53
330
5
100
AcDbSymbolTableRecord
100
AcDbLinetypeTableRecord
  2
AMZIGZAG
 70
     0
  3
/\/-/\/-/\/-/\/-/\/-/\/
 72
    65
 73
     2
 40
11.00009999999999
 49
0.0001
 74
     4
 75
   135
340
52
 46
0.04
 50
0.0
 44
0.0
 45
0.0
 49
-11.0
 74
     0
  0
LTYPE
  5
166
330
5
100
AcDbSymbolTableRecord
100
AcDbLinetypeTableRecord
  2
ACJISTGL
 70
     0
  3
_ _ _ _ _
 72
    65
 73
     2
 40
3.0
 49
2.0
 74
     0
 49
-1.0
 74
     0
  0
LTYPE
  5
26A
330
5
100
AcDbSymbolTableRecord
100
AcDbLinetypeTableRecord
  2
ACJISTGB
 70
     0
  3
__ . . __ . .
 72
    65
 73
     6
 40
9.0
 49
4.0
 74
     0
 49
-1.0
 74
     0
 49
1.0
 74
     0
 49
-1.0
 74
     0
 49
1.0
 74
     0
 49
-1.0
 74
     0
  0
LTYPE
  5
A88C
330
5
100
AcDbSymbolTableRecord
100
AcDbLinetypeTableRecord
  2
ACANSTGBM
 70
     0
  3
__ . . __ . .
 72
    65
 73
     6
 40
9.0
 49
4.0
 74
     0
 49
-1.0
 74
     0
 49
1.0
 74
     0
 49
-1.0
 74
     0
 49
1.0
 74
     0
 49
-1.0
 74
     0
  0
LTYPE
  5
A88D
330
5
100
AcDbSymbolTableRecord
100
AcDbLinetypeTableRecord
  2
ACANSTGLM
 70
     0
  3
_ _ _ _ _
 72
    65
 73
     2
 40
3.0
 49
2.0
 74
     0
 49
-1.0
 74
     0
  0
ENDTAB
  0
TABLE
  2
LAYER
  5
2
330
0
100
AcDbSymbolTable
 70
     7
  0
LAYER
  5
10
330
2
100
AcDbSymbolTableRecord
100
AcDbLayerTableRecord
  2
0
 70
     0
 62
     7
  6
CONTINUOUS
  0
LAYER
  5
3F9
330
2
100
AcDbSymbolTableRecord
100
AcDbLayerTableRecord
  2
AM_0
 70
     0
 62
     7
  6
CONTINUOUS
  0
LAYER
  5
BA4
330
2
100
AcDbSymbolTableRecord
100
AcDbLayerTableRecord
  2
AM_5
 70
     0
 62
     3
  6
CONTINUOUS
  0
LAYER
  5
BA6
330
2
100
AcDbSymbolTableRecord
100
AcDbLayerTableRecord
  2
AM_7
 70
     0
 62
     4
  6
AM_ISO08W050
  0
LAYER
  5
E64
330
2
100
AcDbSymbolTableRecord
100
AcDbLayerTableRecord
  2
AM_6
 70
     0
 62
     2
  6
CONTINUOUS
  0
LAYER
  5
F4D
330
2
100
AcDbSymbolTableRecord
100
AcDbLayerTableRecord
  2
DEFPOINTS
 70
     0
 62
     7
  6
CONTINUOUS
  0
LAYER
  5
4E80
330
2
100
AcDbSymbolTableRecord
100
AcDbLayerTableRecord
  2
AM_11
 70
     0
 62
     3
  6
AM_ISO09W050
  0
ENDTAB
  0
TABLE
  2
STYLE
  5
3
330
0
100
AcDbSymbolTable
 70
     7
  0
STYLE
  5
11
330
3
100
AcDbSymbolTableRecord
100
AcDbTextStyleTableRecord
  2
STANDARD
 70
     0
 40
0.0
 41
1.0
 50
0.0
 71
     0
 42
2.5
  3
simplex.shx
  4
EXTFONT.SHX
  0
STYLE
  5
52
330
3
100
AcDbSymbolTableRecord
100
AcDbTextStyleTableRecord
  2

 70
     1
 40
0.0
 41
1.0
 50
0.0
 71
     0
 42
2.5
  3
ltypeshp.shx
  4

  0
STYLE
  5
6B
330
3
100
AcDbSymbolTableRecord
100
AcDbTextStyleTableRecord
  2
ASAMI
 70
     0
 40
0.0
 41
1.0
 50
0.0
 71
     0
 42
2.5
  3
simplex.shx
  4
EXTFONT.SHX
  0
STYLE
  5
262
330
3
100
AcDbSymbolTableRecord
100
AcDbTextStyleTableRecord
  2
ACJISTS
 70
     0
 40
1.0
 41
1.0
 50
0.0
 71
     0
 42
2.5
  3
simplex.shx
  4
bigfont.shx
  0
STYLE
  5
269
330
3
100
AcDbSymbolTableRecord
100
AcDbTextStyleTableRecord
  2
ACJISGDT
 70
     0
 40
0.0
 41
1.0
 50
0.0
 71
     0
 42
2.5
  3
amgdtans.shx
  4

  0
STYLE
  5
A88F
330
3
100
AcDbSymbolTableRecord
100
AcDbTextStyleTableRecord
  2
ACANSTS
 70
     0
 40
1.0
 41
1.0
 50
0.0
 71
     0
 42
2.5
  3
romans.shx
  4
extfont.shx
  0
STYLE
  5
A890
330
3
100
AcDbSymbolTableRecord
100
AcDbTextStyleTableRecord
  2
ACANSGDT
 70
     0
 40
0.0
 41
1.0
 50
0.0
 71
     0
 42
2.5
  3
amgdtans.shx
  4

  0
ENDTAB
  0
TABLE
  2
VIEW
  5
6
330
0
100
AcDbSymbolTable
 70
     0
  0
ENDTAB
  0
TABLE
  2
UCS
  5
7
330
0
100
AcDbSymbolTable
 70
     0
  0
ENDTAB
  0
TABLE
  2
APPID
  5
9
330
0
100
AcDbSymbolTable
 70
    24
  0
APPID
  5
12
330
9
100
AcDbSymbolTableRecord
100
AcDbRegAppTableRecord
  2
ACAD
 70
     0
  0
APPID
  5
30
330
9
100
AcDbSymbolTableRecord
100
AcDbRegAppTableRecord
  2
MCAD_NO_VIS
 70
     0
  0
APPID
  5
31
330
9
100
AcDbSymbolTableRecord
100
AcDbRegAppTableRecord
  2
ACAD_TEMP_GRAPHIC
 70
     0
  0
APPID
  5
2C2
330
9
100
AcDbSymbolTableRecord
100
AcDbRegAppTableRecord
  2
GENIUS_GENDTOL_13
 70
     0
  0
APPID
  5
339
330
9
100
AcDbSymbolTableRecord
100
AcDbRegAppTableRecord
  2
GENIUS_GENODEF_13
 70
     0
  0
APPID
  5
33A
330
9
100
AcDbSymbolTableRecord
100
AcDbRegAppTableRecord
  2
GENIUS_GENOBJ-N-RSBK_13
 70
     0
  0
APPID
  5
33B
330
9
100
AcDbSymbolTableRecord
100
AcDbRegAppTableRecord
  2
GENIUS_GENOBJ-N-LIB_13
 70
     0
  0
APPID
  5
33C
330
9
100
AcDbSymbolTableRecord
100
AcDbRegAppTableRecord
  2
GENIUS_GENSCALE_13
 70
     0
  0
APPID
  5
378
330
9
100
AcDbSymbolTableRecord
100
AcDbRegAppTableRecord
  2
GENIUS_GENDIMSH_14
 70
     0
  0
APPID
  5
BB0
330
9
100
AcDbSymbolTableRecord
100
AcDbRegAppTableRecord
  2
GENIUS_GENOBJ-N-CEN_13
 70
     0
  0
APPID
  5
BB1
330
9
100
AcDbSymbolTableRecord
100
AcDbRegAppTableRecord
  2
GENIUS_GENFIL_13
 70
     0
  0
APPID
  5
BB2
330
9
100
AcDbSymbolTableRecord
100
AcDbRegAppTableRecord
  2
GENIUS_GENOBJ-N-CHA_13
 70
     0
  0
APPID
  5
1FAF
330
9
100
AcDbSymbolTableRecord
100
AcDbRegAppTableRecord
  2
GENIUS_GENOBJ-N-CRS_13
 70
     0
  0
APPID
  5
1FB0
330
9
100
AcDbSymbolTableRecord
100
AcDbRegAppTableRecord
  2
GENIUS_GENOENT_13
 70
     0
  0
APPID
  5
1FB1
330
9
100
AcDbSymbolTableRecord
100
AcDbRegAppTableRecord
  2
GENIUS_GENOREF_13
 70
     0
  0
APPID
  5
1FB2
330
9
100
AcDbSymbolTableRecord
100
AcDbRegAppTableRecord
  2
GENIUS_GENOLIS_13
 70
     0
  0
APPID
  5
1FB7
330
9
100
AcDbSymbolTableRecord
100
AcDbRegAppTableRecord
  2
GENIUS_GENOBJ-N-FIL_13
 70
     0
  0
APPID
  5
22A8
330
9
100
AcDbSymbolTableRecord
100
AcDbRegAppTableRecord
  2
GEVID1056506048
 70
     0
  0
APPID
  5
22A9
330
9
100
AcDbSymbolTableRecord
100
AcDbRegAppTableRecord
  2
GEVDC
 70
     0
  0
APPID
  5
22AC
330
9
100
AcDbSymbolTableRecord
100
AcDbRegAppTableRecord
  2
GENIUS_GENBH_13
 70
     0
  0
APPID
  5
22B8
330
9
100
AcDbSymbolTableRecord
100
AcDbRegAppTableRecord
  2
GENIUS_GENOBJ-NBEHI-BHF_13
 70
     0
  0
APPID
  5
22BA
330
9
100
AcDbSymbolTableRecord
100
AcDbRegAppTableRecord
  2
GENIUS_GENOBJ-NBEHI-BHB_13
 70
     0
  0
APPID
  5
35C9
330
9
100
AcDbSymbolTableRecord
100
AcDbRegAppTableRecord
  2
GENIUS_GENREC_14
 70
     0
  0
APPID
  5
35CA
330
9
100
AcDbSymbolTableRecord
100
AcDbRegAppTableRecord
  2
GENIUS_GENOBJ-N-REC_13
 70
     0
  0
ENDTAB
  0
TABLE
  2
DIMSTYLE
  5
A
330
0
100
AcDbSymbolTable
 70
     9
  0
DIMSTYLE
105
58
330
A
100
AcDbSymbolTableRecord
100
AcDbDimStyleTableRecord
  2
AM_JIS
 70
     0
  3

  4
"
  5
OPEN30
  6

  7

 40
1.0
 41
2.5
 42
1.0
 43
12.0
 44
1.0
 45
0.0
 46
0.0
 47
0.1
 48
0.1
140
3.2
141
0.0
142
0.0
143
0.0393701
144
1.0
145
0.0
146
0.71
147
1.5
 71
     0
 72
     0
 73
     0
 74
     0
 75
     0
 76
     0
 77
     3
 78
     8
170
     0
171
     2
172
     1
173
     0
174
     0
175
     0
176
   256
177
   256
178
     2
270
     2
271
     3
272
     3
273
     2
274
     2
340
6B
275
     0
280
     0
281
     0
282
     0
283
     0
284
     0
285
     0
286
     0
287
     3
288
     0
  0
DIMSTYLE
105
5F
330
A
100
AcDbSymbolTableRecord
100
AcDbDimStyleTableRecord
  2
AM_JIS$3
 70
     0
  3

  4
"
  5
OPEN30
  6

  7

 40
1.0
 41
2.5
 42
1.0
 43
10.0
 44
1.0
 45
0.0
 46
0.0
 47
0.1
 48
0.1
140
3.2
141
0.0
142
0.0
143
0.0393701
144
1.0
145
0.0
146
0.71
147
1.5
 71
     0
 72
     0
 73
     0
 74
     1
 75
     0
 76
     0
 77
     3
 78
     8
170
     0
171
     2
172
     0
173
     0
174
     0
175
     0
176
   256
177
   256
178
     2
270
     2
271
     2
272
     3
273
     2
274
     2
340
6B
275
     0
280
     0
281
     0
282
     0
283
     0
284
     0
285
     0
286
     0
287
     0
288
     1
  0
DIMSTYLE
105
60
330
A
100
AcDbSymbolTableRecord
100
AcDbDimStyleTableRecord
  2
AM_JIS$4
 70
     0
  3

  4
"
  5
OPEN30
  6

  7

 40
1.0
 41
2.5
 42
1.0
 43
10.0
 44
1.0
 45
0.0
 46
0.0
 47
0.1
 48
0.1
140
3.2
141
0.0
142
0.0
143
0.0393701
144
1.0
145
0.0
146
0.71
147
1.5
 71
     0
 72
     0
 73
     0
 74
     1
 75
     0
 76
     0
 77
     3
 78
     8
170
     0
171
     2
172
     0
173
     0
174
     0
175
     0
176
   256
177
   256
178
     2
270
     2
271
     2
272
     3
273
     2
274
     2
340
6B
275
     0
280
     0
281
     0
282
     0
283
     0
284
     0
285
     0
286
     0
287
     0
288
     1
  0
DIMSTYLE
105
61
330
A
100
AcDbSymbolTableRecord
100
AcDbDimStyleTableRecord
  2
AM_JIS$6
 70
     0
  3

  4
"
  5
OPEN30
  6

  7

 40
1.0
 41
2.5
 42
1.0
 43
10.0
 44
1.0
 45
0.0
 46
0.0
 47
0.1
 48
0.1
140
3.2
141
0.0
142
0.0
143
0.0393701
144
1.0
145
0.0
146
0.71
147
1.5
 71
     0
 72
     0
 73
     0
 74
     0
 75
     0
 76
     0
 77
     0
 78
     8
170
     0
171
     2
172
     1
173
     0
174
     0
175
     0
176
   256
177
   256
178
     2
270
     2
271
     2
272
     2
273
     2
274
     2
340
6B
275
     0
280
     0
281
     0
282
     0
283
     0
284
     0
285
     0
286
     0
287
     3
288
     0
  0
DIMSTYLE
105
62
330
A
100
AcDbSymbolTableRecord
100
AcDbDimStyleTableRecord
  2
AM_JIS$7
 70
     0
  3

  4
"
  5
OPEN30
  6

  7

 40
1.0
 41
2.5
 42
1.0
 43
10.0
 44
1.0
 45
0.0
 46
0.0
 47
0.1
 48
0.1
140
3.2
141
0.0
142
0.0
143
0.0393701
144
1.0
145
0.0
146
0.71
147
1.5
 71
     0
 72
     0
 73
     0
 74
     0
 75
     0
 76
     0
 77
     3
 78
     8
170
     0
171
     2
172
     1
173
     0
174
     0
175
     0
176
   256
177
   256
178
     2
270
     2
271
     2
272
     3
273
     2
274
     2
340
6B
275
     0
280
     0
281
     0
282
     0
283
     0
284
     0
285
     0
286
     0
287
     3
288
     0
  0
DIMSTYLE
105
63
330
A
100
AcDbSymbolTableRecord
100
AcDbDimStyleTableRecord
  2
AM_JIS$SF
 70
     0
  3

  4
"
  5
OPEN30
  6

  7

 40
1.0
 41
2.5
 42
1.0
 43
10.0
 44
1.0
 45
0.0
 46
0.0
 47
0.1
 48
0.1
140
3.2
141
0.0
142
0.0
143
0.0393701
144
1.0
145
0.0
146
0.71
147
1.5
 71
     0
 72
     0
 73
     0
 74
     0
 75
     1
 76
     1
 77
     3
 78
     8
170
     0
171
     2
172
     1
173
     0
174
     0
175
     0
176
   256
177
   256
178
     2
270
     2
271
     2
272
     2
273
     2
274
     2
340
6B
275
     0
280
     0
281
     0
282
     0
283
     0
284
     0
285
     0
286
     0
287
     3
288
     0
  0
DIMSTYLE
105
68
330
A
100
AcDbSymbolTableRecord
100
AcDbDimStyleTableRecord
  2
AM_JIS$SH
 70
     0
  3

  4
"
  5

  6
GENAXEH
  7
OPEN30
 40
1.0
 41
2.5
 42
1.0
 43
10.0
 44
1.0
 45
0.0
 46
0.0
 47
0.1
 48
0.1
140
3.2
141
0.0
142
0.0
143
0.0393701
144
2.0
145
0.0
146
0.71
147
1.5
 71
     0
 72
     0
 73
     0
 74
     0
 75
     1
 76
     1
 77
     3
 78
     8
170
     0
171
     2
172
     1
173
     1
174
     0
175
     0
176
   256
177
   256
178
     2
270
     2
271
     2
272
     2
273
     2
274
     2
340
6B
275
     0
280
     0
281
     0
282
     0
283
     0
284
     0
285
     0
286
     0
287
     3
288
     0
  0
DIMSTYLE
105
B34
330
A
100
AcDbSymbolTableRecord
100
AcDbDimStyleTableRecord
  2
AM_JIS$2
 70
     0
  3

  4
"
  5
OPEN30
  6

  7

 40
1.0
 41
2.5
 42
1.0
 43
12.0
 44
1.0
 45
0.0
 46
0.0
 47
0.1
 48
0.1
140
3.2
141
0.0
142
0.0
143
0.0393701
144
1.0
145
0.0
146
0.71
147
1.5
 71
     0
 72
     0
 73
     0
 74
     0
 75
     0
 76
     0
 77
     3
 78
     8
170
     0
171
     2
172
     1
173
     0
174
     0
175
     0
176
   256
177
   256
178
     2
270
     2
271
     3
272
     3
273
     2
274
     2
340
6B
275
     0
280
     0
281
     0
282
     0
283
     0
284
     0
285
     0
286
     0
287
     3
288
     0
  0
DIMSTYLE
105
3B48
102
{ACAD_REACTORS
330
BCDE
330
BD73
330
BE94
330
BDFF
330
BF3B
330
BFE2
102
}
330
A
100
AcDbSymbolTableRecord
100
AcDbDimStyleTableRecord
  2
AM_JIS$0
 70
     0
  3

  4
"
  5
OPEN30
  6

  7

 40
1.0
 41
2.5
 42
0.0
 43
10.0
 44
1.0
 45
0.0
 46
0.0
 47
0.1
 48
0.1000000001
140
3.799999999999999
141
0.0
142
0.0
143
0.0393701
144
1.0
145
0.0
146
0.71
147
1.5
 71
     0
 72
     0
 73
     0
 74
     0
 75
     0
 76
     0
 77
     3
 78
     1
170
     0
171
     2
172
     1
173
     0
174
     0
175
     0
176
     3
177
     3
178
     2
270
     2
271
     2
272
     2
273
     2
274
     2
340
11
275
     1
280
     0
281
     0
282
     0
283
     0
284
     8
285
     0
286
     0
287
     0
288
     0
  0
ENDTAB
  0
TABLE
  2
BLOCK_RECORD
  5
1
330
0
100
AcDbSymbolTable
 70
    11
  0
BLOCK_RECORD
  5
1F
102
{ACAD_XDICTIONARY
360
74
102
}
330
1
100
AcDbSymbolTableRecord
100
AcDbBlockTableRecord
  2
*MODEL_SPACE
  0
BLOCK_RECORD
  5
101
102
{ACAD_XDICTIONARY
360
C37F
102
}
330
1
100
AcDbSymbolTableRecord
100
AcDbBlockTableRecord
  2
*PAPER_SPACE
  0
BLOCK_RECORD
  5
59
330
1
100
AcDbSymbolTableRecord
100
AcDbBlockTableRecord
  2
_OPEN30
  0
BLOCK_RECORD
  5
64
330
1
100
AcDbSymbolTableRecord
100
AcDbBlockTableRecord
  2
GENAXEH
  0
BLOCK_RECORD
  5
BCDF
330
1
100
AcDbSymbolTableRecord
100
AcDbBlockTableRecord
  2
*D5
  0
BLOCK_RECORD
  5
BD74
330
1
100
AcDbSymbolTableRecord
100
AcDbBlockTableRecord
  2
*D6
  0
BLOCK_RECORD
  5
BE00
330
1
100
AcDbSymbolTableRecord
100
AcDbBlockTableRecord
  2
*D7
  0
BLOCK_RECORD
  5
BE95
330
1
100
AcDbSymbolTableRecord
100
AcDbBlockTableRecord
  2
*D8
  0
BLOCK_RECORD
  5
BF3C
330
1
100
AcDbSymbolTableRecord
100
AcDbBlockTableRecord
  2
*D9
  0
BLOCK_RECORD
  5
BFE3
330
1
100
AcDbSymbolTableRecord
100
AcDbBlockTableRecord
  2
*D10
  0
ENDTAB
  0
ENDSEC
  0
SECTION
  2
BLOCKS
  0
BLOCK
  5
20
330
1F
100
AcDbEntity
  8
0
100
AcDbBlockBegin
  2
*MODEL_SPACE
 70
     0
 10
0.0
 20
0.0
 30
0.0
  3
*MODEL_SPACE
  1

  0
ENDBLK
  5
21
330
1F
100
AcDbEntity
  8
0
100
AcDbBlockEnd
  0
BLOCK
  5
103
330
101
100
AcDbEntity
 67
     1
  8
0
100
AcDbBlockBegin
  2
*PAPER_SPACE
 70
     0
 10
0.0
 20
0.0
 30
0.0
  3
*PAPER_SPACE
  1

  0
ENDBLK
  5
104
330
101
100
AcDbEntity
 67
     1
  8
0
100
AcDbBlockEnd
  0
BLOCK
  5
5D
330
59
100
AcDbEntity
  8
0
100
AcDbBlockBegin
  2
_OPEN30
 70
     0
 10
0.0
 20
0.0
 30
0.0
  3
_OPEN30
  1

  0
LINE
  5
5A
330
59
100
AcDbEntity
  8
0
 62
     0
100
AcDbLine
 10
-1.0
 20
0.26794919
 30
0.0
 11
0.0
 21
0.0
 31
0.0
  0
LINE
  5
5B
330
59
100
AcDbEntity
  8
0
 62
     0
100
AcDbLine
 10
0.0
 20
0.0
 30
0.0
 11
-1.0
 21
-0.26794919
 31
0.0
  0
LINE
  5
5C
330
59
100
AcDbEntity
  8
0
 62
     0
100
AcDbLine
 10
0.0
 20
0.0
 30
0.0
 11
-1.0
 21
0.0
 31
0.0
  0
ENDBLK
  5
5E
330
59
100
AcDbEntity
  8
0
100
AcDbBlockEnd
  0
BLOCK
  5
66
330
64
100
AcDbEntity
  8
0
100
AcDbBlockBegin
  2
GENAXEH
 70
     0
 10
0.0
 20
0.0
 30
0.0
  3
GENAXEH
  1

  0
LINE
  5
65
330
64
100
AcDbEntity
  8
0
100
AcDbLine
 10
-1.0
 20
0.0
 30
0.0
 11
1.0
 21
0.0
 31
0.0
  0
ENDBLK
  5
67
330
64
100
AcDbEntity
  8
0
100
AcDbBlockEnd
  0
BLOCK
  5
BCE9
330
BCDF
100
AcDbEntity
  8
0
100
AcDbBlockBegin
  2
*D5
 70
     1
 10
0.0
 20
0.0
 30
0.0
  3
*D5
  1

  0
LINE
  5
C381
330
BCDF
100
AcDbEntity
  8
AM_5
100
AcDbLine
 10
-0.000000000000256
 20
1.000000000000198
 30
0.0
 11
-0.0000000000002624
 21
36.00000100999964
 31
0.0
  0
LINE
  5
C382
330
BCDF
100
AcDbEntity
  8
AM_5
100
AcDbLine
 10
-50.00000000000032
 20
21.00000000000001
 30
0.0
 11
-50.00000000000032
 21
36.00000100999963
 31
0.0
  0
LINE
  5
C383
330
BCDF
100
AcDbEntity
  8
AM_5
100
AcDbLine
 10
-2.500000000000262
 20
35.00000100999964
 30
0.0
 11
-47.50000000000032
 21
35.00000100999963
 31
0.0
  0
INSERT
  5
C384
330
BCDF
100
AcDbEntity
  8
AM_5
100
AcDbBlockReference
  2
_OPEN30
 10
-0.0000000000002622
 20
35.00000100999964
 30
0.0
 41
2.5
 42
2.5
 43
2.5
  0
INSERT
  5
C385
330
BCDF
100
AcDbEntity
  8
AM_5
100
AcDbBlockReference
  2
_OPEN30
 10
-50.00000000000032
 20
35.00000100999963
 30
0.0
 41
2.5
 42
2.5
 43
2.5
 50
180.0
  0
MTEXT
  5
C386
330
BCDF
100
AcDbEntity
  8
AM_5
 62
     2
100
AcDbMText
 10
-25.0000000000003
 20
38.10000100999964
 30
0.0
 40
3.2
 41
0.0
 71
     5
 72
     1
  1
50
  7
ASAMI
  0
POINT
  5
C387
330
BCDF
100
AcDbEntity
  8
DEFPOINTS
 62
     0
100
AcDbPoint
 10
-0.0000000000002558
 20
0.000000000000199
 30
0.0
  0
POINT
  5
C388
330
BCDF
100
AcDbEntity
  8
DEFPOINTS
 62
     0
100
AcDbPoint
 10
-50.00000000000028
 20
20.00000000000011
 30
0.0
  0
POINT
  5
C389
330
BCDF
100
AcDbEntity
  8
DEFPOINTS
 62
     0
100
AcDbPoint
 10
-50.00000000000025
 20
35.00000100999973
 30
0.0
  0
ENDBLK
  5
BCEA
330
BCDF
100
AcDbEntity
  8
0
100
AcDbBlockEnd
  0
BLOCK
  5
BD7E
330
BD74
100
AcDbEntity
  8
0
100
AcDbBlockBegin
  2
*D6
 70
     1
 10
0.0
 20
0.0
 30
0.0
  3
*D6
  1

  0
LINE
  5
C38A
330
BD74
100
AcDbEntity
  8
AM_5
100
AcDbLine
 10
-0.0000000000002254
 20
-0.9999999999997726
 30
0.0
 11
-0.0000000000001568
 21
-36.00000101000003
 31
0.0
  0
LINE
  5
C38B
330
BD74
100
AcDbEntity
  8
AM_5
100
AcDbLine
 10
-180.0000000000002
 20
-22.00000000000052
 30
0.0
 11
-180.0000000000002
 21
-36.00000101000039
 31
0.0
  0
LINE
  5
C38C
330
BD74
100
AcDbEntity
  8
AM_5
100
AcDbLine
 10
-2.500000000000158
 20
-35.00000101000004
 30
0.0
 11
-177.5000000000002
 21
-35.00000101000038
 31
0.0
  0
INSERT
  5
C38D
330
BD74
100
AcDbEntity
  8
AM_5
100
AcDbBlockReference
  2
_OPEN30
 10
-0.0000000000001588
 20
-35.00000101000003
 30
0.0
 41
2.5
 42
2.5
 43
2.5
 50
0.0000000000001018
  0
INSERT
  5
C38E
330
BD74
100
AcDbEntity
  8
AM_5
100
AcDbBlockReference
  2
_OPEN30
 10
-180.0000000000002
 20
-35.00000101000039
 30
0.0
 41
2.5
 42
2.5
 43
2.5
 50
180.0000000000001
  0
MTEXT
  5
C38F
330
BD74
100
AcDbEntity
  8
AM_5
 62
     2
100
AcDbMText
 10
-90.00000000000019
 20
-31.90000101000021
 30
0.0
 40
3.2
 41
0.0
 71
     5
 72
     1
  1
180
  7
ASAMI
  0
POINT
  5
C390
330
BD74
100
AcDbEntity
  8
DEFPOINTS
 62
     0
100
AcDbPoint
 10
-0.0000000000002274
 20
0.0000000000002274
 30
0.0
  0
POINT
  5
C391
330
BD74
100
AcDbEntity
  8
DEFPOINTS
 62
     0
100
AcDbPoint
 10
-180.0000000000002
 20
-21.00000000000016
 30
0.0
  0
POINT
  5
C392
330
BD74
100
AcDbEntity
  8
DEFPOINTS
 62
     0
100
AcDbPoint
 10
-180.0000000000002
 20
-35.00000101000003
 30
0.0
  0
ENDBLK
  5
BD7F
330
BD74
100
AcDbEntity
  8
0
100
AcDbBlockEnd
  0
BLOCK
  5
BE0A
330
BE00
100
AcDbEntity
  8
0
100
AcDbBlockBegin
  2
*D7
 70
     1
 10
0.0
 20
0.0
 30
0.0
  3
*D7
  1

  0
LINE
  5
C393
330
BE00
100
AcDbEntity
  8
AM_5
100
AcDbLine
 10
-180.0
 20
-22.00000000000037
 30
0.0
 11
-180.0
 21
-36.00000101000039
 31
0.0
  0
LINE
  5
C394
330
BE00
100
AcDbEntity
  8
AM_5
100
AcDbLine
 10
-280.0000000000001
 20
-19.67034417356155
 30
0.0
 11
-280.0000000000001
 21
-36.0000010100006
 31
0.0
  0
LINE
  5
C395
330
BE00
100
AcDbEntity
  8
AM_5
100
AcDbLine
 10
-182.5
 20
-35.0000010100004
 30
0.0
 11
-277.5000000000001
 21
-35.00000101000059
 31
0.0
  0
INSERT
  5
C396
330
BE00
100
AcDbEntity
  8
AM_5
100
AcDbBlockReference
  2
_OPEN30
 10
-180.0
 20
-35.00000101000039
 30
0.0
 41
2.5
 42
2.5
 43
2.5
 50
0.0000000000001018
  0
INSERT
  5
C397
330
BE00
100
AcDbEntity
  8
AM_5
100
AcDbBlockReference
  2
_OPEN30
 10
-280.0000000000001
 20
-35.0000010100006
 30
0.0
 41
2.5
 42
2.5
 43
2.5
 50
180.0000000000001
  0
MTEXT
  5
C398
330
BE00
100
AcDbEntity
  8
AM_5
 62
     2
100
AcDbMText
 10
-230.0000000000001
 20
-31.9000010100005
 30
0.0
 40
3.2
 41
0.0
 71
     5
 72
     1
  1
100
  7
ASAMI
  0
POINT
  5
C399
330
BE00
100
AcDbEntity
  8
DEFPOINTS
 62
     0
100
AcDbPoint
 10
-180.0000000000001
 20
-21.00000000000001
 30
0.0
  0
POINT
  5
C39A
330
BE00
100
AcDbEntity
  8
DEFPOINTS
 62
     0
100
AcDbPoint
 10
-280.0000000000002
 20
-18.67034417356099
 30
0.0
  0
POINT
  5
C39B
330
BE00
100
AcDbEntity
  8
DEFPOINTS
 62
     0
100
AcDbPoint
 10
-280.0000000000002
 20
-35.00000101000003
 30
0.0
  0
ENDBLK
  5
BE0B
330
BE00
100
AcDbEntity
  8
0
100
AcDbBlockEnd
  0
BLOCK
  5
BE9F
330
BE95
100
AcDbEntity
  8
0
100
AcDbBlockBegin
  2
*D8
 70
     1
 10
0.0
 20
0.0
 30
0.0
  3
*D8
  1

  0
LINE
  5
C39C
330
BE95
100
AcDbEntity
  8
AM_5
100
AcDbLine
 10
-0.0102102118601105
 20
-0.9999999999997442
 30
0.0
 11
-0.0102102118600222
 21
-46.00000101000003
 31
0.0
  0
LINE
  5
C39D
330
BE95
100
AcDbEntity
  8
AM_5
100
AcDbLine
 10
-280.0000000000001
 20
-19.67034417356158
 30
0.0
 11
-280.0000000000001
 21
-46.0000010100006
 31
0.0
  0
LINE
  5
C39E
330
BE95
100
AcDbEntity
  8
AM_5
100
AcDbLine
 10
-2.510210211860024
 20
-45.00000101000003
 30
0.0
 11
-277.5000000000001
 21
-45.00000101000059
 31
0.0
  0
INSERT
  5
C39F
330
BE95
100
AcDbEntity
  8
AM_5
100
AcDbBlockReference
  2
_OPEN30
 10
-0.0102102118600242
 20
-45.00000101000003
 30
0.0
 41
2.5
 42
2.5
 43
2.5
 50
0.0000000000001018
  0
INSERT
  5
C3A0
330
BE95
100
AcDbEntity
  8
AM_5
100
AcDbBlockReference
  2
_OPEN30
 10
-280.0000000000001
 20
-45.0000010100006
 30
0.0
 41
2.5
 42
2.5
 43
2.5
 50
180.0000000000001
  0
MTEXT
  5
C3A1
330
BE95
100
AcDbEntity
  8
AM_5
 62
     2
100
AcDbMText
 10
-140.00510510593
 20
-41.90000101000031
 30
0.0
 40
3.2
 41
0.0
 71
     5
 72
     1
  1
280
  7
ASAMI
  0
POINT
  5
C3A2
330
BE95
100
AcDbEntity
  8
DEFPOINTS
 62
     0
100
AcDbPoint
 10
-0.0102102118601124
 20
0.0000000000002558
 30
0.0
  0
POINT
  5
C3A3
330
BE95
100
AcDbEntity
  8
DEFPOINTS
 62
     0
100
AcDbPoint
 10
-280.0000000000002
 20
-18.67034417356102
 30
0.0
  0
POINT
  5
C3A4
330
BE95
100
AcDbEntity
  8
DEFPOINTS
 62
     0
100
AcDbPoint
 10
-280.0000000000002
 20
-45.00000101000003
 30
0.0
  0
ENDBLK
  5
BEA0
330
BE95
100
AcDbEntity
  8
0
100
AcDbBlockEnd
  0
BLOCK
  5
BF46
330
BF3C
100
AcDbEntity
  8
0
100
AcDbBlockBegin
  2
*D9
 70
     1
 10
0.0
 20
0.0
 30
0.0
  3
*D9
  1

  0
LINE
  5
C3A5
330
BF3C
100
AcDbEntity
  8
AM_5
100
AcDbLine
 10
-19.00000000000029
 20
20.00000000000012
 30
0.0
 11
20.96585708688945
 21
20.0000000000002
 31
0.0
  0
LINE
  5
C3A6
330
BF3C
100
AcDbEntity
  8
AM_5
100
AcDbLine
 10
-19.00000000000021
 20
-19.99999999999987
 30
0.0
 11
20.96585708688952
 21
-19.99999999999979
 31
0.0
  0
LINE
  5
C3A7
330
BF3C
100
AcDbEntity
  8
AM_5
100
AcDbLine
 10
19.96585708688945
 20
17.5000000000002
 30
0.0
 11
19.96585708688952
 21
-17.49999999999979
 31
0.0
  0
INSERT
  5
C3A8
330
BF3C
100
AcDbEntity
  8
AM_5
100
AcDbBlockReference
  2
_OPEN30
 10
19.96585708688945
 20
20.0000000000002
 30
0.0
 41
2.5
 42
2.5
 43
2.5
 50
90.0000000000001
  0
INSERT
  5
C3A9
330
BF3C
100
AcDbEntity
  8
AM_5
100
AcDbBlockReference
  2
_OPEN30
 10
19.96585708688952
 20
-19.99999999999979
 30
0.0
 41
2.5
 42
2.5
 43
2.5
 50
270.0000000000001
  0
MTEXT
  5
C3AA
330
BF3C
100
AcDbEntity
  8
AM_5
 62
     2
100
AcDbMText
 10
16.86585708688948
 20
0.0000000000001967
 30
0.0
 40
3.2
 41
0.0
 71
     5
 72
     1
  1
%%c40
  7
ASAMI
 11
-0.000000000000002
 21
1.0
 31
0.0
  0
POINT
  5
C3AB
330
BF3C
100
AcDbEntity
  8
DEFPOINTS
 62
     0
100
AcDbPoint
 10
-20.00000000000025
 20
20.00000000000017
 30
0.0
  0
POINT
  5
C3AC
330
BF3C
100
AcDbEntity
  8
DEFPOINTS
 62
     0
100
AcDbPoint
 10
-20.00000000000025
 20
-19.99999999999983
 30
0.0
  0
POINT
  5
C3AD
330
BF3C
100
AcDbEntity
  8
DEFPOINTS
 62
     0
100
AcDbPoint
 10
19.96585708688948
 20
-19.99999999999984
 30
0.0
  0
ENDBLK
  5
BF47
330
BF3C
100
AcDbEntity
  8
0
100
AcDbBlockEnd
  0
BLOCK
  5
BFED
330
BFE3
100
AcDbEntity
  8
0
100
AcDbBlockBegin
  2
*D10
 70
     1
 10
0.0
 20
0.0
 30
0.0
  3
*D10
  1

  0
LINE
  5
C3AE
330
BFE3
100
AcDbEntity
  8
AM_5
100
AcDbLine
 10
-278.0330127018924
 20
20.99999999999902
 30
0.0
 11
-300.8139890324053
 21
20.99999999999897
 31
0.0
  0
LINE
  5
C3AF
330
BFE3
100
AcDbEntity
  8
AM_5
100
AcDbLine
 10
-278.0330127018923
 20
-21.00000000000097
 30
0.0
 11
-300.8139890324052
 21
-21.00000000000102
 31
0.0
  0
LINE
  5
C3B0
330
BFE3
100
AcDbEntity
  8
AM_5
100
AcDbLine
 10
-299.8139890324053
 20
18.49999999999898
 30
0.0
 11
-299.8139890324052
 21
-18.50000000000101
 31
0.0
  0
INSERT
  5
C3B1
330
BFE3
100
AcDbEntity
  8
AM_5
100
AcDbBlockReference
  2
_OPEN30
 10
-299.8139890324053
 20
20.99999999999897
 30
0.0
 41
2.5
 42
2.5
 43
2.5
 50
90.0000000000001
  0
INSERT
  5
C3B2
330
BFE3
100
AcDbEntity
  8
AM_5
100
AcDbBlockReference
  2
_OPEN30
 10
-299.8139890324052
 20
-21.00000000000102
 30
0.0
 41
2.5
 42
2.5
 43
2.5
 50
270.0000000000001
  0
MTEXT
  5
C3B3
330
BFE3
100
AcDbEntity
  8
AM_5
 62
     2
100
AcDbMText
 10
-302.9139890324053
 20
-0.0000000000010128
 30
0.0
 40
3.2
 41
0.0
 71
     5
 72
     1
  1
%%c42
  7
ASAMI
 11
-0.000000000000002
 21
1.0
 31
0.0
  0
POINT
  5
C3B4
330
BFE3
100
AcDbEntity
  8
DEFPOINTS
 62
     0
100
AcDbPoint
 10
-277.0330127018924
 20
20.99999999999964
 30
0.0
  0
POINT
  5
C3B5
330
BFE3
100
AcDbEntity
  8
DEFPOINTS
 62
     0
100
AcDbPoint
 10
-277.0330127018924
 20
-21.00000000000036
 30
0.0
  0
POINT
  5
C3B6
330
BFE3
100
AcDbEntity
  8
DEFPOINTS
 62
     0
100
AcDbPoint
 10
-299.8139890324052
 20
-21.00000000000035
 30
0.0
  0
ENDBLK
  5
BFEE
330
BFE3
100
AcDbEntity
  8
0
100
AcDbBlockEnd
  0
ENDSEC
  0
SECTION
  2
ENTITIES
  0
TEXT
  5
388D
330
1F
100
AcDbEntity
  8
AM_6
100
AcDbText
 10
-163.8182233524432
 20
-68.15469483545616
 30
0.0
 40
5.0
  1
WBMR2400ML
 50
359.9999999999998
 51
359.9999999999998
 72
     4
 11
-139.2944138286337
 21
-65.65469483545619
 31
0.0
100
AcDbText
  0
LINE
  5
B82A
330
1F
100
AcDbEntity
  8
AM_0
100
AcDbLine
 10
-1.251760000000359
 20
-2.999999999999772
 30
0.0
 11
-1.251760000000359
 21
-2.032055999999784
 31
0.0
  0
ELLIPSE
  5
B82B
330
1F
100
AcDbEntity
  8
AM_0
100
AcDbEllipse
 10
-5.164906000000229
 20
2.313618000000218
 30
0.0
 11
-1.048389945996011
 21
6.269229420140995
 31
0.0
210
0.0
220
0.0
230
1.0
 40
0.5533452323173101
 41
2.202810090366519
 42
3.90926413351072
  0
LINE
  5
B82C
330
1F
100
AcDbEntity
  8
AM_0
100
AcDbLine
 10
-19.00000000000022
 20
-17.77898699999985
 30
0.0
 11
-19.00000000000025
 21
1.584774000000152
 31
0.0
  0
LINE
  5
B82E
330
1F
100
AcDbEntity
  8
AM_0
100
AcDbLine
 10
-175.4174243050444
 20
17.99999999999984
 30
0.0
 11
-175.4174243050443
 21
-18.00000000000013
 31
0.0
  0
LINE
  5
B830
330
1F
100
AcDbEntity
  8
AM_0
100
AcDbLine
 10
-180.0000000000004
 20
20.99999999999984
 30
0.0
 11
-180.0000000000002
 21
-21.00000000000016
 31
0.0
  0
ARC
  5
B831
330
1F
100
AcDbEntity
  8
AM_11
100
AcDbCircle
 10
-20.00000000000025
 20
0.0000000000001705
 30
0.0
 40
20.0
100
AcDbArc
 50
270.0
 51
90.0
  0
LINE
  5
B832
330
1F
100
AcDbEntity
  8
AM_0
100
AcDbLine
 10
-280.0000000000002
 20
18.67034417356036
 30
0.0
 11
-280.0000000000002
 21
-18.67034417356102
 31
0.0
  0
LINE
  5
B833
330
1F
100
AcDbEntity
  8
AM_0
100
AcDbLine
 10
-277.0330127018924
 20
20.99999999999967
 30
0.0
 11
-277.0330127018924
 21
-21.00000000000032
 31
0.0
  0
LINE
  5
B834
330
1F
100
AcDbEntity
  8
AM_0
100
AcDbLine
 10
-278.5176380902053
 20
20.60219582613849
 30
0.0
 11
-278.5176380902053
 21
-20.60219582613915
 31
0.0
  0
LINE
  5
B836
330
1F
100
AcDbEntity
  8
AM_11
100
AcDbLine
 10
-50.00000000000028
 20
20.00000000000011
 30
0.0
 11
-50.00000000000023
 21
-19.99999999999988
 31
0.0
  0
ELLIPSE
  5
B839
330
1F
100
AcDbEntity
  8
AM_0
100
AcDbEllipse
 10
-52.14237600000024
 20
-13.3150359999999
 30
0.0
 11
-1.585196727756002
 21
1.219488144390997
 31
0.0
210
0.0
220
0.0
230
0.9999999999999998
 40
0.9588509999999999
 41
1.25171810185424
 42
2.11453038312232
  0
ELLIPSE
  5
B83A
330
1F
100
AcDbEntity
  8
AM_0
100
AcDbEllipse
 10
-20.02713100000008
 20
1.154208000000153
 30
0.0
 11
3.472971463224961
 21
19.696153665516
 31
0.0
210
0.0
220
0.0
230
1.0
 40
0.98480775
 41
3.316125207305309
 42
4.35788957591972
  0
ELLIPSE
  5
B83B
330
1F
100
AcDbEntity
  8
AM_0
100
AcDbEllipse
 10
-20.11263600000009
 20
1.169285000000172
 30
0.0
 11
3.386147176643961
 21
19.203749823878
 31
0.0
210
0.0
220
0.0
230
1.0
 40
0.9848077435897398
 41
3.31612520841844
 42
4.350512860872779
  0
ELLIPSE
  5
B83C
330
1F
100
AcDbEntity
  8
AM_0
100
AcDbEllipse
 10
-32.91388700000038
 20
-17.97492499999984
 30
0.0
 11
0.031799964799998
 21
0.9994942532290004
 31
0.0
210
0.0
220
0.0
230
1.0
 40
0.695519
 41
3.183572082299729
 42
4.683755868989999
  0
ELLIPSE
  5
B83D
330
1F
100
AcDbEntity
  8
AM_0
100
AcDbEllipse
 10
-24.85057300000039
 20
-18.05749499999984
 30
0.0
 11
-0.103842136860002
 21
0.9945937917619996
 31
0.0
210
0.0
220
0.0
230
1.0
 40
0.962096
 41
2.23709164246456
 42
3.03079677040887
  0
ELLIPSE
  5
B83E
330
1F
100
AcDbEntity
  8
AM_0
100
AcDbEllipse
 10
-24.66507000000024
 20
-10.57442299999985
 30
0.0
 11
0.5209457194839944
 21
2.954423049827001
 31
0.0
210
0.0
220
0.0
230
1.0
 40
0.9848076666666699
 41
3.14159300537504
 42
4.390983609132249
  0
ELLIPSE
  5
B83F
330
1F
100
AcDbEntity
  8
AM_0
100
AcDbEllipse
 10
-24.81042800000023
 20
-10.54879199999982
 30
0.0
 11
0.3733444322969958
 21
2.117336519043
 31
0.0
210
0.0
220
0.0
230
1.0
 40
0.9848079069767399
 41
-1.39886219148817
 42
4.884322812903219
  0
ELLIPSE
  5
B840
330
1F
100
AcDbEntity
  8
AM_0
100
AcDbEllipse
 10
-24.66507000000024
 20
-10.57442299999985
 30
0.0
 11
0.5209457194839944
 21
2.954423049827001
 31
0.0
210
0.0
220
0.0
230
1.0
 40
0.9848076666666699
 41
-0.259117482132536
 42
0.0
  0
ELLIPSE
  5
B841
330
1F
100
AcDbEntity
  8
AM_0
100
AcDbEllipse
 10
-24.66507000000024
 20
-10.57442299999985
 30
0.0
 11
0.5209457194839944
 21
2.954423049827001
 31
0.0
210
0.0
220
0.0
230
1.0
 40
0.9848076666666699
 41
0.0
 42
3.14159300537504
  0
ELLIPSE
  5
B842
330
1F
100
AcDbEntity
  8
AM_0
100
AcDbEllipse
 10
-18.52302400000033
 20
-0.0841039999998543
 30
0.0
 11
3.087921554259965
 21
17.512432245351
 31
0.0
210
0.0
220
0.0
230
1.0
 40
0.9848077819480899
 41
4.401176379197219
 42
4.659207821646049
  0
ELLIPSE
  5
B843
330
1F
100
AcDbEntity
  8
AM_0
100
AcDbEllipse
 10
-19.3819040000001
 20
0.0673400000001721
 30
0.0
 11
3.101524488886964
 21
17.58957814002799
 31
0.0
210
0.0
220
0.0
230
0.9999999999999998
 40
0.9848077314240201
 41
3.340466039069769
 42
4.402586781468089
  0
ELLIPSE
  5
B844
330
1F
100
AcDbEntity
  8
AM_0
100
AcDbEllipse
 10
-24.75088600000003
 20
-10.41713199999986
 30
0.0
 11
0.5643578627739938
 21
3.200624970646
 31
0.0
210
0.0
220
0.0
230
1.0
 40
0.9848076923076899
 41
0.143099107906049
 42
1.57079600496477
  0
ELLIPSE
  5
B845
330
1F
100
AcDbEntity
  8
AM_0
100
AcDbEllipse
 10
-24.75088600000003
 20
-10.41713199999986
 30
0.0
 11
0.5209457194839944
 21
2.954423049827001
 31
0.0
210
0.0
220
0.0
230
1.0
 40
0.9848076666666699
 41
-0.155657634710283
 42
0.0
  0
ELLIPSE
  5
B846
330
1F
100
AcDbEntity
  8
AM_0
100
AcDbEllipse
 10
-24.75088600000003
 20
-10.41713199999986
 30
0.0
 11
0.5209457194839944
 21
2.954423049827001
 31
0.0
210
0.0
220
0.0
230
1.0
 40
0.9848076666666699
 41
0.0
 42
2.282303723338509
  0
ELLIPSE
  5
B847
330
1F
100
AcDbEntity
  8
AM_0
100
AcDbEllipse
 10
-52.3154890000003
 20
-13.54006299999992
 30
0.0
 11
-1.585196727756002
 21
1.219488144390997
 31
0.0
210
0.0
220
0.0
230
0.9999999999999998
 40
0.9588509999999999
 41
1.08503830419973
 42
2.284873387041729
  0
ELLIPSE
  5
B848
330
1F
100
AcDbEntity
  8
AM_0
100
AcDbEllipse
 10
-3.449948000000176
 20
-8.677326999999792
 30
0.0
 11
0.3549714060769995
 21
0.2485535283750007
 31
0.0
210
0.0
220
0.0
230
1.0
 40
0.8391009369086599
 41
-0.260353393589152
 42
0.6981304635312049
  0
ELLIPSE
  5
B849
330
1F
100
AcDbEntity
  8
AM_0
100
AcDbEllipse
 10
-24.11685100000022
 20
-17.81713799999983
 30
0.0
 11
0.4795041351279982
 21
0.9218597379730008
 31
0.0
210
0.0
220
0.0
230
1.0
 40
0.9591929632089001
 41
2.85403582363741
 42
3.60695068761924
  0
ELLIPSE
  5
B84A
330
1F
100
AcDbEntity
  8
AM_0
100
AcDbEllipse
 10
-29.4843430000003
 20
-14.20952799999983
 30
0.0
 11
-171.361633310862
 21
0.3346103337106614
 31
0.0
210
0.0
220
0.0
230
0.9999999999999998
 40
0.02828548412962
 41
1.593615061050009
 42
1.633435642741289
  0
ELLIPSE
  5
B84B
330
1F
100
AcDbEntity
  8
AM_0
100
AcDbEllipse
 10
-24.41074600000024
 20
-20.8219219999998
 30
0.0
 11
3.48024140996896
 21
19.735998584828
 31
0.0
210
0.0
220
0.0
230
1.0
 40
0.8128022441753198
 41
1.571142314938379
 42
1.573462055779609
  0
ELLIPSE
  5
B84C
330
1F
100
AcDbEntity
  8
AM_0
100
AcDbEllipse
 10
-24.11644600000022
 20
-17.81671099999982
 30
0.0
 11
0.9428990593659992
 21
0.446817403362002
 31
0.0
210
0.0
220
0.0
230
1.0
 40
0.95201790283781
 41
2.79840407732863
 42
3.530756389766899
  0
ELLIPSE
  5
B84D
330
1F
100
AcDbEntity
  8
AM_0
100
AcDbEllipse
 10
-36.82035800000017
 20
-17.85063499999987
 30
0.0
 11
-1.463798201031001
 21
0.7816878790519973
 31
0.0
210
0.0
220
0.0
230
1.0
 40
0.45590319625898
 41
2.43806438812422
 42
3.28610996058087
  0
ELLIPSE
  5
B84E
330
1F
100
AcDbEntity
  8
AM_0
100
AcDbEllipse
 10
-40.33502600000042
 20
-18.06593099999986
 30
0.0
 11
-0.5632019315460015
 21
0.6729727494569989
 31
0.0
210
0.0
220
0.0
230
1.0
 40
0.8435069574621099
 41
2.36791166877
 42
2.52942782980837
  0
ELLIPSE
  5
B84F
330
1F
100
AcDbEntity
  8
AM_0
100
AcDbEllipse
 10
-36.93880200000035
 20
-17.84686699999983
 30
0.0
 11
-2.105391462761
 21
0.0691272537409958
 31
0.0
210
0.0
220
0.0
230
1.0
 40
0.47471429263157
 41
2.462961662134509
 42
3.05732268214222
  0
ELLIPSE
  5
B850
330
1F
100
AcDbEntity
  8
AM_0
100
AcDbEllipse
 10
-29.48434100000008
 20
-14.20952499999984
 30
0.0
 11
-171.3616893107548
 21
0.3346104430596613
 31
0.0
210
0.0
220
0.0
230
1.0
 40
0.0282854923929
 41
1.54386985050328
 42
1.567871629994469
  0
ELLIPSE
  5
B851
330
1F
100
AcDbEntity
  8
AM_0
100
AcDbEllipse
 10
-40.19820300000015
 20
-18.08996599999989
 30
0.0
 11
0.1389327373839984
 21
0.7879340723720003
 31
0.0
210
0.0
220
0.0
230
0.9999999999999998
 40
0.8111147634825599
 41
3.14159061492196
 42
3.1546057844851
  0
ELLIPSE
  5
B852
330
1F
100
AcDbEntity
  8
AM_0
100
AcDbEllipse
 10
-39.82199600000035
 20
-18.15639199999987
 30
0.0
 11
0.1389188585289985
 21
0.787846146621
 31
0.0
210
0.0
220
0.0
230
1.0
 40
0.8111599999999999
 41
1.573452613959379
 42
2.51213874365493
  0
ELLIPSE
  5
B853
330
1F
100
AcDbEntity
  8
AM_0
100
AcDbEllipse
 10
-25.96032200000016
 20
0.0000020000001655
 30
0.0
 11
-0.0489362368410356
 21
17.99999947914099
 31
0.0
210
0.0
220
0.0
230
1.0
 40
0.17356619692395
 41
3.1411222072389
 42
3.16337550304222
  0
ELLIPSE
  5
B854
330
1F
100
AcDbEntity
  8
AM_0
100
AcDbEllipse
 10
-32.05903900000024
 20
0.000006000000127
 30
0.0
 11
103.706417512425
 21
0.568005728316205
 31
0.0
210
0.0
220
0.0
230
1.0
 40
0.17348050954578
 41
4.680829506952769
 42
4.70157139692746
  0
ELLIPSE
  5
B855
330
1F
100
AcDbEntity
  8
AM_0
100
AcDbEllipse
 10
-52.89825100000033
 20
0.0000000000001137
 30
0.0
 11
2.194758859129964
 21
17.996973786293
 31
0.0
210
0.0
220
0.0
230
1.0
 40
0.15039331656105
 41
2.64782788496623
 42
3.15993152819791
  0
ELLIPSE
  5
B856
330
1F
100
AcDbEntity
  8
AM_0
100
AcDbEllipse
 10
-48.82398500000025
 20
0.0000000000001137
 30
0.0
 11
2.194758859129964
 21
17.996973786293
 31
0.0
210
0.0
220
0.0
230
1.0
 40
0.15039331656105
 41
2.67439246914989
 42
3.15993152819791
  0
ELLIPSE
  5
B857
330
1F
100
AcDbEntity
  8
AM_0
100
AcDbEllipse
 10
-32.05903900000024
 20
0.0000000000001421
 30
0.0
 11
103.7064005126799
 21
0.5680056352082051
 31
0.0
210
0.0
220
0.0
230
1.0
 40
0.17348048977072
 41
4.768106759471039
 42
4.83769717322637
  0
ELLIPSE
  5
B858
330
1F
100
AcDbEntity
  8
AM_0
100
AcDbEllipse
 10
-25.96032200000016
 20
0.0000000000001705
 30
0.0
 11
-0.0489362341230356
 21
17.999998479145
 31
0.0
210
0.0
220
0.0
230
1.0
 40
0.17356620656648
 41
3.05384154979574
 42
3.141122207264969
  0
ELLIPSE
  5
B859
330
1F
100
AcDbEntity
  8
AM_0
100
AcDbEllipse
 10
-33.06500300000041
 20
0.000004000000132
 30
0.0
 11
-0.0489362449970356
 21
18.00000247913
 31
0.0
210
0.0
220
0.0
230
1.0
 40
0.17356616799636
 41
3.12037816348358
 42
3.14112220716049
  0
ELLIPSE
  5
B85A
330
1F
100
AcDbEntity
  8
AM_0
100
AcDbEllipse
 10
-52.89825100000033
 20
0.0000000000001137
 30
0.0
 11
2.194758859129964
 21
17.996973786293
 31
0.0
210
0.0
220
0.0
230
1.0
 40
0.15039331656105
 41
3.15993152819791
 42
3.297555057820019
  0
ELLIPSE
  5
B85B
330
1F
100
AcDbEntity
  8
AM_0
100
AcDbEllipse
 10
-64.1451090000003
 20
0.0000000000000853
 30
0.0
 11
-102.405974235797
 21
4.236353652033798
 31
0.0
210
0.0
220
0.0
230
0.9999999999999998
 40
0.1708336763630099
 41
1.67075427246833
 42
1.704188221663609
  0
ELLIPSE
  5
B85C
330
1F
100
AcDbEntity
  8
AM_0
100
AcDbEllipse
 10
-87.62477400000014
 20
0.0000000000000568
 30
0.0
 11
103.7064005126799
 21
0.5680056352082051
 31
0.0
210
0.0
220
0.0
230
1.0
 40
0.17348048977072
 41
5.315507762356268
 42
5.395839437884269
  0
ELLIPSE
  5
B85D
330
1F
100
AcDbEntity
  8
AM_0
100
AcDbEllipse
 10
-17.55108400000042
 20
0.0000000000001705
 30
0.0
 11
3.273994062639964
 21
17.99103797536201
 31
0.0
210
0.0
220
0.0
230
1.0
 40
0.17348049608807
 41
2.25250973425861
 42
2.458143040964779
  0
ELLIPSE
  5
B85E
330
1F
100
AcDbEntity
  8
AM_0
100
AcDbEllipse
 10
-24.2531770000003
 20
0.0000000000001705
 30
0.0
 11
3.273994062639964
 21
17.99103797536201
 31
0.0
210
0.0
220
0.0
230
1.0
 40
0.17348049608807
 41
2.17307914161838
 42
2.53847384307081
  0
SPLINE
  5
B85F
330
1F
100
AcDbEntity
  8
AM_0
100
AcDbSpline
210
0.0
220
0.0
230
1.0
 70
     8
 71
     3
 72
    11
 73
     7
 74
     5
 42
0.0000000001
 43
0.0000000001
 44
0.0000000001
 40
0.0
 40
0.0
 40
0.0
 40
0.0
 40
0.0917346360379203
 40
0.1874574385982397
 40
0.2883825748626943
 40
0.3940823990631601
 40
0.3940823990631601
 40
0.3940823990631601
 40
0.3940823990631601
 10
-3.053252000000384
 20
-8.513824999999798
 30
0.0
 10
-3.039112404424139
 20
-8.541101128365937
 30
0.0
 10
-3.010218493857556
 20
-8.596839215736553
 30
0.0
 10
-2.992272424232704
 20
-8.69242519221332
 30
0.0
 10
-2.997568657741236
 20
-8.795061305243336
 30
0.0
 10
-3.026856623884651
 20
-8.858054552595444
 30
0.0
 10
-3.041839000000209
 20
-8.890278999999821
 30
0.0
 11
-3.053252000000384
 21
-8.513824999999798
 31
0.0
 11
-3.014959000000317
 21
-8.597184999999825
 31
0.0
 11
-2.996312000000216
 21
-8.691073999999815
 31
0.0
 11
-3.003609000000096
 21
-8.791734999999818
 31
0.0
 11
-3.041839000000209
 21
-8.890278999999821
 31
0.0
  0
SPLINE
  5
B860
330
1F
100
AcDbEntity
  8
AM_0
100
AcDbSpline
210
0.0
220
0.0
230
1.0
 70
     8
 71
     3
 72
    11
 73
     7
 74
     5
 42
0.0000000001
 43
0.0000000001
 44
0.0000000001
 40
0.0
 40
0.0
 40
0.0
 40
0.0
 40
0.1541147258147543
 40
0.3083565809189733
 40
0.4627269628710114
 40
0.617227434067787
 40
0.617227434067787
 40
0.617227434067787
 40
0.617227434067787
 10
-3.053252000000384
 20
-8.513824999999798
 30
0.0
 10
-3.100691829247646
 20
-8.53353552149066
 30
0.0
 10
-3.195610620873368
 20
-8.572972823688232
 30
0.0
 10
-3.338243253786261
 20
-8.631681372857158
 30
0.0
 10
-3.481123133713688
 20
-8.690126075920407
 30
0.0
 10
-3.576544314841483
 20
-8.7287905971066
 30
0.0
 10
-3.624275000000352
 20
-8.748130999999801
 30
0.0
 11
-3.053252000000384
 21
-8.513824999999798
 31
0.0
 11
-3.19560400000023
 21
-8.572877999999803
 31
0.0
 11
-3.338225000000193
 21
-8.631612999999816
 31
0.0
 11
-3.481115000000272
 21
-8.690030999999777
 31
0.0
 11
-3.624275000000352
 21
-8.748130999999801
 31
0.0
  0
SPLINE
  5
B861
330
1F
100
AcDbEntity
  8
AM_0
100
AcDbSpline
210
0.0
220
0.0
230
1.0
 70
     8
 71
     3
 72
    11
 73
     7
 74
     5
 42
0.0000000001
 43
0.0000000001
 44
0.0000000001
 40
0.0
 40
0.0
 40
0.0
 40
0.0
 40
0.1873333630430244
 40
0.3788457656622429
 40
0.5740102139950847
 40
0.7691569440418395
 40
0.7691569440418395
 40
0.7691569440418395
 40
0.7691569440418395
 10
-2.091988000000355
 20
-9.057762999999823
 30
0.0
 10
-2.071057546415384
 20
-8.99760943041978
 30
0.0
 10
-2.028729721914442
 20
-8.875960383209566
 30
0.0
 10
-2.078745855959335
 20
-8.682086244976165
 30
0.0
 10
-2.202311140598718
 20
-8.520820842498736
 30
0.0
 10
-2.32830028663735
 20
-8.478823645341247
 30
0.0
 10
-2.391292000000248
 20
-8.457825999999812
 30
0.0
 11
-2.091988000000355
 21
-9.057762999999823
 31
0.0
 11
-2.047618000000284
 21
-8.875759999999814
 31
0.0
 11
-2.090307000000166
 21
-8.689065999999826
 31
0.0
 11
-2.21309000000042
 21
-8.537363999999826
 31
0.0
 11
-2.391292000000248
 21
-8.457825999999812
 31
0.0
  0
SPLINE
  5
B862
330
1F
100
AcDbEntity
  8
AM_0
100
AcDbSpline
210
0.0
220
0.0
230
1.0
 70
     8
 71
     3
 72
    11
 73
     7
 74
     5
 42
0.0000000001
 43
0.0000000001
 44
0.0000000001
 40
0.0
 40
0.0
 40
0.0
 40
0.0
 40
5.207967313710217
 40
10.34453806295422
 40
15.40032983653507
 40
20.39985220222769
 40
20.39985220222769
 40
20.39985220222769
 40
20.39985220222769
 10
-18.76682700000015
 20
-19.06801799999982
 30
0.0
 10
-17.02395808347288
 20
-18.935912457617
 30
0.0
 10
-13.56211342129664
 20
-18.67351242144381
 30
0.0
 10
-8.802190806970383
 20
-16.5357085263391
 30
0.0
 10
-4.758770181452678
 20
-13.34889282386619
 30
0.0
 10
-2.977592912162866
 20
-10.48279338949849
 30
0.0
 10
-2.091988000000355
 20
-9.057762999999823
 30
0.0
 11
-18.76682700000015
 21
-19.06801799999982
 31
0.0
 11
-13.60527700000034
 21
-18.37424199999981
 31
0.0
 11
-8.888335000000324
 21
-16.34081699999981
 31
0.0
 11
-4.970083000000386
 21
-13.14576899999977
 31
0.0
 11
-2.091988000000355
 21
-9.057762999999823
 31
0.0
  0
SPLINE
  5
B863
330
1F
100
AcDbEntity
  8
AM_0
100
AcDbSpline
210
0.0
220
0.0
230
1.0
 70
     8
 71
     3
 72
    11
 73
     7
 74
     5
 42
0.0000000001
 43
0.0000000001
 44
0.0000000001
 40
0.0
 40
0.0
 40
0.0
 40
0.0
 40
0.0698608047475665
 40
0.1974716588822627
 40
0.3863309803495298
 40
0.6425311446314075
 40
0.6425311446314075
 40
0.6425311446314075
 40
0.6425311446314075
 10
-24.22717800000032
 20
-18.93019099999986
 30
0.0
 10
-24.24747749967064
 20
-18.94183268248866
 30
0.0
 10
-24.30485696858548
 20
-18.97473958016257
 30
0.0
 10
-24.43329971670219
 20
-18.9984289986051
 30
0.0
 10
-24.62044964229787
 20
-19.03178274748531
 30
0.0
 10
-24.76814792748704
 20
-19.04780990600944
 30
0.0
 10
-24.85317100000043
 20
-19.05703599999986
 30
0.0
 11
-24.22717800000032
 21
-18.93019099999986
 31
0.0
 11
-24.28911200000015
 21
-18.96251299999983
 31
0.0
 11
-24.41264500000011
 21
-18.9945149999998
 31
0.0
 11
-24.59884800000031
 21
-19.02607899999981
 31
0.0
 11
-24.85317100000043
 21
-19.05703599999986
 31
0.0
  0
SPLINE
  5
B864
330
1F
100
AcDbEntity
  8
AM_0
100
AcDbSpline
210
0.0
220
0.0
230
1.0
 70
     8
 71
     3
 72
    11
 73
     7
 74
     5
 42
0.0000000001
 43
0.0000000001
 44
0.0000000001
 40
0.0
 40
0.0
 40
0.0
 40
0.0
 40
0.2333567080886508
 40
0.4529971491576572
 40
0.6637115945524333
 40
0.8688671516718738
 40
0.8688671516718738
 40
0.8688671516718738
 40
0.8688671516718738
 10
-25.53862100000037
 20
-18.75076899999982
 30
0.0
 10
-25.56538118337482
 20
-18.67772985558433
 30
0.0
 10
-25.6173286370343
 20
-18.53594466985673
 30
0.0
 10
-25.68934551809192
 20
-18.32674097197751
 30
0.0
 10
-25.75342092795036
 20
-18.12478525665179
 30
0.0
 10
-25.79074929737722
 20
-17.9912735401066
 30
0.0
 10
-25.80916400000023
 20
-17.92540999999983
 30
0.0
 11
-25.53862100000037
 21
-18.75076899999982
 31
0.0
 11
-25.61816000000021
 21
-18.53138599999982
 31
0.0
 11
-25.68945300000018
 21
-18.32363799999984
 31
0.0
 11
-25.75280000000043
 21
-18.12267099999985
 31
0.0
 11
-25.80916400000023
 21
-17.92540999999983
 31
0.0
  0
SPLINE
  5
B865
330
1F
100
AcDbEntity
  8
AM_0
100
AcDbSpline
210
0.0
220
0.0
230
1.0
 70
     8
 71
     3
 72
    11
 73
     7
 74
     5
 42
0.0000000001
 43
0.0000000001
 44
0.0000000001
 40
0.0
 40
0.0
 40
0.0
 40
0.0
 40
0.0209506440235295
 40
0.0430595282106891
 40
0.0663378893644958
 40
0.0907971484085669
 40
0.0907971484085669
 40
0.0907971484085669
 40
0.0907971484085669
 10
-25.62647500000025
 20
-18.77358699999985
 30
0.0
 10
-25.61979392072585
 20
-18.77155258389338
 30
0.0
 10
-25.60606240387268
 20
-18.76737128055824
 30
0.0
 10
-25.58470731276386
 20
-18.76162097366013
 30
0.0
 10
-25.56211389856251
 20
-18.75599233067006
 30
0.0
 10
-25.54658005443127
 20
-18.75253858892495
 30
0.0
 10
-25.53862100000037
 20
-18.75076899999982
 30
0.0
 11
-25.62647500000025
 21
-18.77358699999985
 31
0.0
 11
-25.60640100000023
 21
-18.76758999999987
 31
0.0
 11
-25.58506700000021
 21
-18.76178799999985
 31
0.0
 11
-25.56247400000006
 21
-18.7561809999998
 31
0.0
 11
-25.53862100000037
 21
-18.75076899999982
 31
0.0
  0
SPLINE
  5
B866
330
1F
100
AcDbEntity
  8
AM_0
100
AcDbSpline
210
0.0
220
0.0
230
1.0
 70
     8
 71
     3
 72
    11
 73
     7
 74
     5
 42
0.0000000001
 43
0.0000000001
 44
0.0000000001
 40
0.0
 40
0.0
 40
0.0
 40
0.0
 40
0.8739951076321379
 40
1.75551905408493
 40
2.63882057488169
 40
3.517933076051568
 40
3.517933076051568
 40
3.517933076051568
 40
3.517933076051568
 10
-28.84130200000004
 20
-18.74433599999983
 30
0.0
 10
-28.6045287333423
 20
-18.56688715737572
 30
0.0
 10
-28.12894256874498
 20
-18.21046087806174
 30
0.0
 10
-27.23086936577024
 20
-18.08793677813595
 30
0.0
 10
-26.33347843492118
 20
-18.22602545039851
 30
0.0
 10
-25.86176908187494
 20
-18.59135593050337
 30
0.0
 10
-25.62647500000025
 20
-18.77358699999985
 30
0.0
 11
-28.84130200000004
 21
-18.74433599999983
 31
0.0
 11
-28.10077500000011
 21
-18.28012999999981
 31
0.0
 11
-27.23187800000028
 21
-18.13146099999983
 31
0.0
 11
-26.36382700000035
 21
-18.29488999999983
 31
0.0
 11
-25.62647500000025
 21
-18.77358699999985
 31
0.0
  0
SPLINE
  5
B867
330
1F
100
AcDbEntity
  8
AM_0
100
AcDbSpline
210
0.0
220
0.0
230
1.0
 70
     8
 71
     3
 72
    11
 73
     7
 74
     5
 42
0.0000000001
 43
0.0000000001
 44
0.0000000001
 40
0.0
 40
0.0
 40
0.0
 40
0.0
 40
0.0539151661035705
 40
0.1077467682071076
 40
0.1614951082000627
 40
0.2151601852987306
 40
0.2151601852987306
 40
0.2151601852987306
 40
0.2151601852987306
 10
-29.04603800000018
 20
-18.67817899999985
 30
0.0
 10
-29.02895949254693
 20
-18.68377433005865
 30
0.0
 10
-28.9948289478992
 20
-18.69495631788243
 30
0.0
 10
-28.94362199294779
 20
-18.71156074351437
 30
0.0
 10
-28.89246086123656
 20
-18.72803587093298
 30
0.0
 10
-28.85834613892336
 20
-18.73890543220437
 30
0.0
 10
-28.84130200000004
 20
-18.74433599999983
 30
0.0
 11
-29.04603800000018
 21
-18.67817899999985
 31
0.0
 11
-28.99479400000041
 21
-18.69493899999983
 31
0.0
 11
-28.94359000000008
 21
-18.71155199999984
 31
0.0
 11
-28.89242600000011
 21
-18.72801799999987
 31
0.0
 11
-28.84130200000004
 21
-18.74433599999983
 31
0.0
  0
SPLINE
  5
B868
330
1F
100
AcDbEntity
  8
AM_0
100
AcDbSpline
210
0.0
220
0.0
230
1.0
 70
     8
 71
     3
 72
    11
 73
     7
 74
     5
 42
0.0000000001
 43
0.0000000001
 44
0.0000000001
 40
0.0
 40
0.0
 40
0.0
 40
0.0
 40
0.3247797113028024
 40
0.6487112721317656
 40
0.9723623333318681
 40
1.296867071740985
 40
1.296867071740985
 40
1.296867071740985
 40
1.296867071740985
 10
-30.15100000000006
 20
-17.99991599999984
 30
0.0
 10
-30.05697622174784
 20
-18.05358439526526
 30
0.0
 10
-29.86917420494093
 20
-18.16078103272222
 30
0.0
 10
-29.59094224066082
 20
-18.32706769780737
 30
0.0
 10
-29.31571070107339
 20
-18.49815669767103
 30
0.0
 10
-29.13600779511095
 20
-18.61811889902769
 30
0.0
 10
-29.04603800000018
 20
-18.67817899999985
 30
0.0
 11
-30.15100000000006
 21
-17.99991599999984
 31
0.0
 11
-29.86947500000019
 21
-18.16185899999985
 31
0.0
 11
-29.59134900000004
 21
-18.32792399999985
 31
0.0
 11
-29.31690300000013
 21
-18.49947399999988
 31
0.0
 11
-29.04603800000018
 21
-18.67817899999985
 31
0.0
  0
SPLINE
  5
B869
330
1F
100
AcDbEntity
  8
AM_0
100
AcDbSpline
210
0.0
220
0.0
230
1.0
 70
     8
 71
     3
 72
    11
 73
     7
 74
     5
 42
0.0000000001
 43
0.0000000001
 44
0.0000000001
 40
0.0
 40
0.0
 40
0.0
 40
0.0
 40
0.2147288650299165
 40
0.4194036543421597
 40
0.6190452744517826
 40
0.8173027569032246
 40
0.8173027569032246
 40
0.8173027569032246
 40
0.8173027569032246
 10
-25.53862100000037
 20
-18.75076899999982
 30
0.0
 10
-25.49327589184601
 20
-18.69513408753902
 30
0.0
 10
-25.40470883280704
 20
-18.5864692110595
 30
0.0
 10
-25.31094540630705
 20
-18.40129559475576
 30
0.0
 10
-25.24535283805789
 20
-18.21027231062615
 30
0.0
 10
-25.22892389603315
 20
-18.07833178011999
 30
0.0
 10
-25.22073800000021
 20
-18.01259099999987
 30
0.0
 11
-25.53862100000037
 21
-18.75076899999982
 31
0.0
 11
-25.40915000000018
 21
-18.57946299999986
 31
0.0
 11
-25.31459800000016
 21
-18.39793699999984
 31
0.0
 11
-25.25197000000025
 21
-18.20837299999982
 31
0.0
 11
-25.22073800000021
 21
-18.01259099999987
 31
0.0
  0
SPLINE
  5
B86A
330
1F
100
AcDbEntity
  8
AM_0
100
AcDbSpline
210
0.0
220
0.0
230
1.0
 70
     8
 71
     3
 72
    11
 73
     7
 74
     5
 42
0.0000000001
 43
0.0000000001
 44
0.0000000001
 40
0.0
 40
0.0
 40
0.0
 40
0.0
 40
0.786590880131684
 40
1.588618911334794
 40
2.406131297553637
 40
3.240502644212415
 40
3.240502644212415
 40
3.240502644212415
 40
3.240502644212415
 10
-32.21991500000035
 20
-18.02564799999984
 30
0.0
 10
-31.96410586880556
 20
-18.08318299132829
 30
0.0
 10
-31.44746725301061
 20
-18.19938212050272
 30
0.0
 10
-30.6627171219491
 20
-18.36512282491664
 30
0.0
 10
-29.86084343005676
 20
-18.52672086599475
 30
0.0
 10
-29.31948150526914
 20
-18.62735061627028
 30
0.0
 10
-29.04603800000018
 20
-18.67817899999985
 30
0.0
 11
-32.21991500000035
 21
-18.02564799999984
 31
0.0
 11
-31.45212400000014
 21
-18.19659299999986
 31
0.0
 11
-30.66751800000043
 21
-18.36285299999983
 31
0.0
 11
-29.86596800000029
 21
-18.52361399999986
 31
0.0
 11
-29.04603800000018
 21
-18.67817899999985
 31
0.0
  0
SPLINE
  5
B86B
330
1F
100
AcDbEntity
  8
AM_0
100
AcDbSpline
210
0.0
220
0.0
230
1.0
 70
     8
 71
     3
 72
    11
 73
     7
 74
     5
 42
0.0000000001
 43
0.0000000001
 44
0.0000000001
 40
0.0
 40
0.0
 40
0.0
 40
0.0
 40
1.315844292074342
 40
2.632217336481098
 40
3.948937326351915
 40
5.265811493791343
 40
5.265811493791343
 40
5.265811493791343
 40
5.265811493791343
 10
-39.37321300000007
 20
-19.03552499999986
 30
0.0
 10
-38.9345986150576
 20
-19.03610579123198
 30
0.0
 10
-38.05719359454749
 20
-19.03726760707849
 30
0.0
 10
-36.74088321956441
 20
-19.03962069799081
 30
0.0
 10
-35.42423034638386
 20
-19.0423855975188
 30
0.0
 10
-34.54636857957801
 20
-19.04466715465005
 30
0.0
 10
-34.10741200000007
 20
-19.04580799999988
 30
0.0
 11
-39.37321300000007
 21
-19.03552499999986
 31
0.0
 11
-38.05737000000021
 21
-19.03736899999987
 31
0.0
 11
-36.74099900000033
 21
-19.03968899999986
 31
0.0
 11
-35.42428200000017
 21
-19.04249499999989
 31
0.0
 11
-34.10741200000007
 21
-19.04580799999988
 31
0.0
  0
SPLINE
  5
B86C
330
1F
100
AcDbEntity
  8
AM_0
100
AcDbSpline
210
0.0
220
0.0
230
1.0
 70
     8
 71
     3
 72
    11
 73
     7
 74
     5
 42
0.0000000001
 43
0.0000000001
 44
0.0000000001
 40
0.0
 40
0.0
 40
0.0
 40
0.0
 40
0.7649522901853856
 40
1.506991928728002
 40
2.226427354787144
 40
2.92262945428496
 40
2.92262945428496
 40
2.92262945428496
 40
2.92262945428496
 10
-29.99498800000015
 20
-19.05557599999983
 30
0.0
 10
-30.24989536866525
 20
-19.04931745869082
 30
0.0
 10
-30.75207485368714
 20
-19.03698783845268
 30
0.0
 10
-31.49394750583693
 20
-19.01695800668713
 30
0.0
 10
-32.21288023696631
 20
-18.99640901900768
 30
0.0
 10
-32.68453030636296
 20
-18.98170054156203
 30
0.0
 10
-32.91648500000042
 20
-18.97446699999986
 30
0.0
 11
-29.99498800000015
 21
-19.05557599999983
 31
0.0
 11
-30.75970200000006
 21
-19.03648399999983
 31
0.0
 11
-31.50147400000037
 21
-19.01655599999989
 31
0.0
 11
-32.2206120000003
 21
-18.99587099999988
 31
0.0
 11
-32.91648500000042
 21
-18.97446699999986
 31
0.0
  0
SPLINE
  5
B86D
330
1F
100
AcDbEntity
  8
AM_0
100
AcDbSpline
210
0.0
220
0.0
230
1.0
 70
     8
 71
     3
 72
    11
 73
     7
 74
     5
 42
0.0000000001
 43
0.0000000001
 44
0.0000000001
 40
0.0
 40
0.0
 40
0.0
 40
0.0
 40
0.0351223970992932
 40
0.0702515748581351
 40
0.1053754113938736
 40
0.1405186552967058
 40
0.1405186552967058
 40
0.1405186552967058
 40
0.1405186552967058
 10
-39.51302600000031
 20
-19.02321299999988
 30
0.0
 10
-39.50147001796804
 20
-19.02510317774206
 30
0.0
 10
-39.47835582292881
 20
-19.02888389814035
 30
0.0
 10
-39.44341480164906
 20
-19.03261333555034
 30
0.0
 10
-39.40835268364549
 20
-19.03504435446698
 30
0.0
 10
-39.38492838443452
 20
-19.0353647553246
 30
0.0
 10
-39.37321300000007
 20
-19.03552499999986
 30
0.0
 11
-39.51302600000031
 21
-19.02321299999988
 31
0.0
 11
-39.4783130000003
 21
-19.02855999999985
 31
0.0
 11
-39.44339400000012
 21
-19.03239699999988
 31
0.0
 11
-39.40834700000027
 21
-19.03471899999985
 31
0.0
 11
-39.37321300000007
 21
-19.03552499999986
 31
0.0
  0
SPLINE
  5
B86E
330
1F
100
AcDbEntity
  8
AM_0
100
AcDbSpline
210
0.0
220
0.0
230
1.0
 70
     8
 71
     3
 72
    11
 73
     7
 74
     5
 42
0.0000000001
 43
0.0000000001
 44
0.0000000001
 40
0.0
 40
0.0
 40
0.0
 40
0.0
 40
0.3016440150974484
 40
0.6046952660188073
 40
0.9084606119455685
 40
1.212605905160736
 40
1.212605905160736
 40
1.212605905160736
 40
1.212605905160736
 10
-28.84130200000004
 20
-18.74433599999983
 30
0.0
 10
-28.927052943043
 20
-18.79762808651961
 30
0.0
 10
-29.09895487618089
 20
-18.90446087889033
 30
0.0
 10
-29.39124491497029
 20
-18.99272696912726
 30
0.0
 10
-29.69063464475123
 20
-19.04697832684754
 30
0.0
 10
-29.8934946187401
 20
-19.05270891506665
 30
0.0
 10
-29.99498800000015
 20
-19.05557599999983
 30
0.0
 11
-28.84130200000004
 21
-18.74433599999983
 31
0.0
 11
-29.10419200000024
 21
-18.89224799999985
 31
0.0
 11
-29.39206100000024
 21
-18.98696599999985
 31
0.0
 11
-29.69127600000024
 21
-19.03934699999988
 31
0.0
 11
-29.99498800000015
 21
-19.05557599999983
 31
0.0
  0
SPLINE
  5
B86F
330
1F
100
AcDbEntity
  8
AM_0
100
AcDbSpline
210
0.0
220
0.0
230
1.0
 70
     8
 71
     3
 72
    11
 73
     7
 74
     5
 42
0.0000000001
 43
0.0000000001
 44
0.0000000001
 40
0.0
 40
0.0
 40
0.0
 40
0.0
 40
0.1269656344724941
 40
0.2539032852504142
 40
0.3808366958127425
 40
0.5078408308834391
 40
0.5078408308834391
 40
0.5078408308834391
 40
0.5078408308834391
 10
-24.89090800000008
 20
-19.06112199999984
 30
0.0
 10
-24.93326066213779
 20
-19.05992253395558
 30
0.0
 10
-25.01795665173013
 20
-19.05752386623383
 30
0.0
 10
-25.14342305753596
 20
-19.03615519403977
 30
0.0
 10
-25.26631304062168
 20
-19.0028668762664
 30
0.0
 10
-25.34399113546174
 20
-18.96897410526336
 30
0.0
 10
-25.38284100000032
 20
-18.95202299999982
 30
0.0
 11
-24.89090800000008
 21
-19.06112199999984
 31
0.0
 11
-25.01770400000009
 21
-19.05456099999986
 31
0.0
 11
-25.14299300000016
 21
-19.03416899999984
 31
0.0
 11
-25.26522700000009
 21
-18.99994999999984
 31
0.0
 11
-25.38284100000032
 21
-18.95202299999982
 31
0.0
  0
SPLINE
  5
B870
330
1F
100
AcDbEntity
  8
AM_0
100
AcDbSpline
210
0.0
220
0.0
230
1.0
 70
     8
 71
     3
 72
    11
 73
     7
 74
     5
 42
0.0000000001
 43
0.0000000001
 44
0.0000000001
 40
0.0
 40
0.0
 40
0.0
 40
0.0
 40
0.0759324396352355
 40
0.1517842170568702
 40
0.2275348119589008
 40
0.3031771618496588
 40
0.3031771618496588
 40
0.3031771618496588
 40
0.3031771618496588
 10
-25.38284100000032
 20
-18.95202299999982
 30
0.0
 10
-25.40510283389737
 20
-18.93994864502394
 30
0.0
 10
-25.44960285318486
 20
-18.91581276152955
 30
0.0
 10
-25.51238500195003
 20
-18.87307887448622
 30
0.0
 10
-25.57203978670155
 20
-18.8262267353651
 30
0.0
 10
-25.60833858003763
 20
-18.791125212665
 30
0.0
 10
-25.62647500000025
 20
-18.77358699999985
 30
0.0
 11
-25.38284100000032
 21
-18.95202299999982
 31
0.0
 11
-25.44897100000003
 21
-18.91470599999985
 31
0.0
 11
-25.51190400000018
 21
-18.87236299999983
 31
0.0
 11
-25.5712060000003
 21
-18.82523099999986
 31
0.0
 11
-25.62647500000025
 21
-18.77358699999985
 31
0.0
  0
SPLINE
  5
B871
330
1F
100
AcDbEntity
  8
AM_0
100
AcDbSpline
210
0.0
220
0.0
230
1.0
 70
     8
 71
     3
 72
    11
 73
     7
 74
     5
 42
0.0000000001
 43
0.0000000001
 44
0.0000000001
 40
0.0
 40
0.0
 40
0.0
 40
0.0
 40
0.8396503514017879
 40
2.013160762955279
 40
3.490288414891513
 40
4.731036908758326
 40
4.731036908758326
 40
4.731036908758326
 40
4.731036908758326
 10
-52.00256700000022
 20
-15.91964499999988
 30
0.0
 10
-52.1099096988161
 20
-15.65466454829333
 30
0.0
 10
-52.36727648141206
 20
-15.01934265813369
 30
0.0
 10
-53.41059462410593
 20
-14.38816540911127
 30
0.0
 10
-54.79096431975515
 20
-14.13449014393301
 30
0.0
 10
-55.55596395931809
 20
-14.67806189089767
 30
0.0
 10
-55.90519700000027
 20
-14.92620999999985
 30
0.0
 11
-52.00256700000022
 21
-15.91964499999988
 31
0.0
 11
-52.38450700000043
 21
-15.1718919999999
 31
0.0
 11
-53.34883000000013
 21
-14.50315599999987
 31
0.0
 11
-54.81600500000036
 21
-14.33197299999989
 31
0.0
 11
-55.90519700000027
 21
-14.92620999999985
 31
0.0
  0
SPLINE
  5
B872
330
1F
100
AcDbEntity
  8
AM_0
100
AcDbSpline
210
0.0
220
0.0
230
1.0
 70
     8
 71
     3
 72
    11
 73
     7
 74
     5
 42
0.0000000001
 43
0.0000000001
 44
0.0000000001
 40
0.0
 40
0.0
 40
0.0
 40
0.0
 40
1.153527542028421
 40
2.387217438854036
 40
3.687352369604496
 40
5.013136692557738
 40
5.013136692557738
 40
5.013136692557738
 40
5.013136692557738
 10
-28.67990000000031
 20
-9.724339999999841
 30
0.0
 10
-28.61242861197158
 20
-9.339972796587622
 30
0.0
 10
-28.47279703122696
 20
-8.544527471289439
 30
0.0
 10
-27.64474657121592
 20
-7.566773651042153
 30
0.0
 10
-26.44575117474472
 20
-6.9705213656124
 30
0.0
 10
-25.55873777444432
 20
-7.025670892454485
 30
0.0
 10
-25.11089900000027
 20
-7.053514999999833
 30
0.0
 11
-28.67990000000031
 21
-9.724339999999841
 31
0.0
 11
-28.38491700000009
 21
-8.609166999999843
 31
0.0
 11
-27.6079580000003
 21
-7.650873999999873
 31
0.0
 11
-26.43624900000011
 21
-7.087447999999824
 31
0.0
 11
-25.11089900000027
 21
-7.053514999999833
 31
0.0
  0
SPLINE
  5
B873
330
1F
100
AcDbEntity
  8
AM_0
100
AcDbSpline
210
0.0
220
0.0
230
1.0
 70
     8
 71
     3
 72
    11
 73
     7
 74
     5
 42
0.0000000001
 43
0.0000000001
 44
0.0000000001
 40
0.0
 40
0.0
 40
0.0
 40
0.0
 40
1.440579332022204
 40
2.823079473025405
 40
4.119336068831127
 40
5.324816541198095
 40
5.324816541198095
 40
5.324816541198095
 40
5.324816541198095
 10
-25.11089900000027
 20
-7.053514999999833
 30
0.0
 10
-24.64501786124802
 20
-7.195825224888203
 30
0.0
 10
-23.73203830472827
 20
-7.474708217135514
 30
0.0
 10
-22.73257421737894
 20
-8.477175187889951
 30
0.0
 10
-22.11481831792457
 20
-9.649830548672385
 30
0.0
 10
-22.06272402133519
 20
-10.49047990335987
 30
0.0
 10
-22.03762200000005
 20
-10.89555299999983
 30
0.0
 11
-25.11089900000027
 21
-7.053514999999833
 31
0.0
 11
-23.77263100000007
 21
-7.586719999999843
 31
0.0
 11
-22.77128800000014
 21
-8.539934999999843
 31
0.0
 11
-22.19321500000023
 21
-9.700155999999822
 31
0.0
 11
-22.03762200000005
 21
-10.89555299999983
 31
0.0
  0
SPLINE
  5
B874
330
1F
100
AcDbEntity
  8
AM_0
100
AcDbSpline
210
0.0
220
0.0
230
1.0
 70
     8
 71
     3
 72
    11
 73
     7
 74
     5
 42
0.0000000001
 43
0.0000000001
 44
0.0000000001
 40
0.0
 40
0.0
 40
0.0
 40
0.0
 40
0.2277143250851797
 40
0.4348766209307283
 40
0.628205672024934
 40
0.8137399647823547
 40
0.8137399647823547
 40
0.8137399647823547
 40
0.8137399647823547
 10
-55.90519700000027
 20
-14.92620999999985
 30
0.0
 10
-55.94831196062565
 20
-14.98905605245223
 30
0.0
 10
-56.03065060305104
 20
-15.10907607718762
 30
0.0
 10
-56.10109782394063
 20
-15.3082934639127
 30
0.0
 10
-56.13186913926483
 20
-15.50297610640955
 30
0.0
 10
-56.11963648797534
 20
-15.62911577060597
 30
0.0
 10
-56.11364600000024
 20
-15.69088799999986
 30
0.0
 11
-55.90519700000027
 21
-14.92620999999985
 31
0.0
 11
-56.02533700000027
 21
-15.11965299999985
 31
0.0
 11
-56.09625900000015
 21
-15.31429699999989
 31
0.0
 11
-56.12391300000012
 21
-15.50563799999986
 31
0.0
 11
-56.11364600000024
 21
-15.69088799999986
 31
0.0
  0
LINE
  5
B876
330
1F
100
AcDbEntity
  8
AM_0
100
AcDbLine
 10
-277.0330127018924
 20
-21.00000000000032
 30
0.0
 11
-180.0000000000002
 21
-21.00000000000016
 31
0.0
  0
ARC
  5
B877
330
1F
100
AcDbEntity
  8
AM_0
100
AcDbCircle
 10
-278.0000000000002
 20
-18.67034417356102
 30
0.0
 40
2.0
100
AcDbArc
 50
180.0
 51
255.0000000000055
  0
LINE
  5
B878
330
1F
100
AcDbEntity
  8
AM_0
100
AcDbLine
 10
-278.5176380902053
 20
-20.60219582613915
 30
0.0
 11
-277.0330127018924
 21
-21.00000000000032
 31
0.0
  0
LINE
  5
B879
330
1F
100
AcDbEntity
  8
AM_0
100
AcDbLine
 10
-175.4174243050443
 20
-18.00000000000012
 30
0.0
 11
-35.23292500000002
 21
-17.99999999999985
 31
0.0
  0
ARC
  5
B87A
330
1F
100
AcDbEntity
  8
AM_0
100
AcDbCircle
 10
-175.4174243050443
 20
-23.00000000000013
 30
0.0
 40
4.999999999999995
100
AcDbArc
 50
90.0
 51
156.4218215217969
  0
LINE
  5
B87B
330
1F
100
AcDbEntity
  8
AM_0
100
AcDbLine
 10
-32.91648500000042
 20
-18.97446699999986
 30
0.0
 11
-35.93466000000012
 21
-18.87843899999987
 31
0.0
  0
LINE
  5
B87C
330
1F
100
AcDbEntity
  8
AM_11
100
AcDbLine
 10
-50.00000000000023
 20
-19.99999999999988
 30
0.0
 11
-20.00000000000022
 21
-19.99999999999983
 31
0.0
  0
LINE
  5
B87D
330
1F
100
AcDbEntity
  8
AM_0
100
AcDbLine
 10
-71.00000000000022
 20
-17.99999999999994
 30
0.0
 11
-55.04300900000021
 21
-17.99999999999988
 31
0.0
  0
LINE
  5
B87E
330
1F
100
AcDbEntity
  8
AM_0
100
AcDbLine
 10
-40.32880700000009
 20
-18.87929999999988
 30
0.0
 11
-39.8363880000004
 21
-18.37365799999986
 31
0.0
  0
LINE
  5
B87F
330
1F
100
AcDbEntity
  8
AM_0
100
AcDbLine
 10
-40.33713600000033
 20
-18.87789999999989
 30
0.0
 11
-40.18233900000018
 21
-17.99999999999988
 31
0.0
  0
LINE
  5
B880
330
1F
100
AcDbEntity
  8
AM_0
100
AcDbLine
 10
-35.93466000000012
 20
-18.87843899999987
 30
0.0
 11
-40.20029600000021
 21
-18.88968699999986
 31
0.0
  0
LINE
  5
B881
330
1F
100
AcDbEntity
  8
AM_0
100
AcDbLine
 10
-40.20029600000021
 20
-18.88968699999986
 30
0.0
 11
-39.37321300000007
 21
-19.03552499999986
 31
0.0
  0
LINE
  5
B882
330
1F
100
AcDbEntity
  8
AM_0
100
AcDbLine
 10
-40.01049900000021
 20
-18.93549499999989
 30
0.0
 11
-39.51302000000009
 21
-19.02321399999988
 31
0.0
  0
LINE
  5
B883
330
1F
100
AcDbEntity
  8
AM_0
100
AcDbLine
 10
-40.33713600000033
 20
-18.87789999999989
 30
0.0
 11
-40.01049900000021
 21
-18.93549499999989
 31
0.0
  0
LINE
  5
B884
330
1F
100
AcDbEntity
  8
AM_0
100
AcDbLine
 10
-50.96874300000013
 20
-17.99999999999988
 30
0.0
 11
-35.23292500000025
 21
-17.99999999999985
 31
0.0
  0
LINE
  5
B885
330
1F
100
AcDbEntity
  8
AM_0
100
AcDbLine
 10
-56.11364600000024
 20
-15.69088799999986
 30
0.0
 11
-55.12716300000033
 21
-14.40857199999987
 31
0.0
  0
LINE
  5
B886
330
1F
100
AcDbEntity
  8
AM_0
100
AcDbLine
 10
-54.3594700000001
 20
-14.2977919999999
 30
0.0
 11
-54.64595600000007
 21
-17.82981199999989
 31
0.0
  0
LINE
  5
B887
330
1F
100
AcDbEntity
  8
AM_0
100
AcDbLine
 10
-35.61462100000039
 20
-17.99999999999985
 30
0.0
 11
-35.64682700000025
 21
-18.36261099999987
 31
0.0
  0
LINE
  5
B888
330
1F
100
AcDbEntity
  8
AM_0
100
AcDbLine
 10
-35.64682700000025
 20
-18.36261099999987
 30
0.0
 11
-39.8363880000004
 21
-18.37365799999986
 31
0.0
  0
LINE
  5
B889
330
1F
100
AcDbEntity
  8
AM_0
100
AcDbLine
 10
-39.8363880000004
 20
-18.37365799999986
 30
0.0
 11
-39.77050200000007
 21
-17.99999999999988
 31
0.0
  0
LINE
  5
B88A
330
1F
100
AcDbEntity
  8
AM_0
100
AcDbLine
 10
-35.32049600000005
 20
-18.52806599999988
 30
0.0
 11
-35.64682700000025
 21
-18.36261099999987
 31
0.0
  0
LINE
  5
B88B
330
1F
100
AcDbEntity
  8
AM_0
100
AcDbLine
 10
-20.07909100000028
 20
-18.83662999999984
 30
0.0
 11
-20.16329700000028
 21
-18.32178199999981
 31
0.0
  0
LINE
  5
B88C
330
1F
100
AcDbEntity
  8
AM_0
100
AcDbLine
 10
-24.82744600000023
 20
-18.5707029999998
 30
0.0
 11
-24.60817700000029
 21
-18.33350299999983
 31
0.0
  0
ARC
  5
B88D
330
1F
100
AcDbEntity
  8
AM_0
100
AcDbCircle
 10
-24.22458000000029
 20
-17.93064899999984
 30
0.0
 40
0.999522512166693
100
AcDbArc
 50
184.7024511305122
 51
269.8510776936193
  0
LINE
  5
B88E
330
1F
100
AcDbEntity
  8
AM_0
100
AcDbLine
 10
-20.07909100000028
 20
-18.83662999999984
 30
0.0
 11
-24.14856700000041
 21
-18.8473609999998
 31
0.0
  0
LINE
  5
B88F
330
1F
100
AcDbEntity
  8
AM_0
100
AcDbLine
 10
-24.14856700000041
 20
-18.8473609999998
 30
0.0
 11
-24.22717800000032
 21
-18.93019099999986
 31
0.0
  0
LINE
  5
B890
330
1F
100
AcDbEntity
  8
AM_0
100
AcDbLine
 10
-24.89090800000008
 20
-19.06112199999984
 30
0.0
 11
-25.58388700000023
 21
-19.06294899999983
 31
0.0
  0
LINE
  5
B891
330
1F
100
AcDbEntity
  8
AM_0
100
AcDbLine
 10
-24.85317100000043
 20
-19.05703599999986
 30
0.0
 11
-24.89090800000008
 21
-19.06112199999984
 31
0.0
  0
LINE
  5
B892
330
1F
100
AcDbEntity
  8
AM_0
100
AcDbLine
 10
-25.38284100000032
 20
-18.95202299999982
 30
0.0
 11
-25.58388700000023
 21
-19.06294899999983
 31
0.0
  0
LINE
  5
B893
330
1F
100
AcDbEntity
  8
AM_0
100
AcDbLine
 10
-20.07909100000028
 20
-18.83662999999984
 30
0.0
 11
-18.76682700000015
 21
-19.06801799999982
 31
0.0
  0
LINE
  5
B894
330
1F
100
AcDbEntity
  8
AM_0
100
AcDbLine
 10
-20.16329700000028
 20
-18.32178199999981
 30
0.0
 11
-24.60817700000029
 21
-18.33350299999983
 31
0.0
  0
LINE
  5
B895
330
1F
100
AcDbEntity
  8
AM_0
100
AcDbLine
 10
-27.90288600000008
 20
-9.861348999999847
 30
0.0
 11
-28.71987500000022
 21
-14.49471899999989
 31
0.0
  0
LINE
  5
B896
330
1F
100
AcDbEntity
  8
AM_0
100
AcDbLine
 10
-33.01753900000017
 20
-17.99999999999985
 30
0.0
 11
-25.91285800000036
 21
-17.99999999999982
 31
0.0
  0
LINE
  5
B897
330
1F
100
AcDbEntity
  8
AM_0
100
AcDbLine
 10
-33.14117800000008
 20
-17.99633699999989
 30
0.0
 11
-33.03479400000037
 21
-17.99972199999987
 31
0.0
  0
LINE
  5
B898
330
1F
100
AcDbEntity
  8
AM_0
100
AcDbLine
 10
-33.03479400000037
 20
-17.99972199999987
 30
0.0
 11
-32.21991500000035
 21
-18.02564799999984
 31
0.0
  0
LINE
  5
B899
330
1F
100
AcDbEntity
  8
AM_0
100
AcDbLine
 10
-32.21991500000035
 20
-18.02564799999984
 30
0.0
 11
-32.27699000000006
 21
-18.00021799999987
 31
0.0
  0
LINE
  5
B89A
330
1F
100
AcDbEntity
  8
AM_0
100
AcDbLine
 10
-24.60817700000029
 20
-18.33350299999983
 30
0.0
 11
-24.64393100000029
 21
-17.90613099999984
 31
0.0
  0
LINE
  5
B89B
330
1F
100
AcDbEntity
  8
AM_0
100
AcDbLine
 10
-25.14749700000015
 20
-17.93541899999985
 30
0.0
 11
-25.14921500000014
 21
-17.91488399999986
 31
0.0
  0
LINE
  5
B89C
330
1F
100
AcDbEntity
  8
AM_0
100
AcDbLine
 10
-25.22073800000021
 20
-18.01259099999987
 30
0.0
 11
-25.14749700000015
 21
-17.93541899999985
 31
0.0
  0
LINE
  5
B89D
330
1F
100
AcDbEntity
  8
AM_0
100
AcDbLine
 10
-25.84317400000031
 20
-17.92620399999981
 30
0.0
 11
-25.8433550000002
 21
-17.99554399999982
 31
0.0
  0
LINE
  5
B89E
330
1F
100
AcDbEntity
  8
AM_0
100
AcDbLine
 10
-25.22083900000029
 20
-17.91653899999983
 30
0.0
 11
-25.22073800000021
 21
-18.01259099999987
 31
0.0
  0
LINE
  5
B89F
330
1F
100
AcDbEntity
  8
AM_0
100
AcDbLine
 10
-28.67990000000031
 20
-9.724339999999841
 30
0.0
 11
-27.90288600000008
 21
-9.861348999999847
 31
0.0
  0
LINE
  5
B8A0
330
1F
100
AcDbEntity
  8
AM_0
100
AcDbLine
 10
-23.58431700000008
 20
-7.718708999999819
 30
0.0
 11
-24.14412500000006
 21
-7.619999999999834
 31
0.0
  0
LINE
  5
B8A1
330
1F
100
AcDbEntity
  8
AM_0
100
AcDbLine
 10
-3.687814000000116
 20
-8.229214999999811
 30
0.0
 11
-3.312085000000251
 21
-8.295465999999834
 31
0.0
  0
LINE
  5
B8A2
330
1F
100
AcDbEntity
  8
AM_0
100
AcDbLine
 10
-3.312085000000251
 20
-8.295465999999834
 30
0.0
 11
-2.391292000000248
 21
-8.457825999999812
 31
0.0
  0
LINE
  5
B8A3
330
1F
100
AcDbEntity
  8
AM_0
100
AcDbLine
 10
-1.465170000000199
 20
-4.051706999999794
 30
0.0
 11
-1.462063000000199
 21
-4.052254999999775
 31
0.0
  0
LINE
  5
B8A4
330
1F
100
AcDbEntity
  8
AM_0
100
AcDbLine
 10
-3.829759000000422
 20
-8.204185999999793
 30
0.0
 11
-3.687814000000116
 21
-8.229214999999811
 31
0.0
  0
ARC
  5
B8A5
330
1F
100
AcDbEntity
  8
AM_0
100
AcDbCircle
 10
-19.00000000000025
 20
0.0000000000001705
 30
0.0
 40
18.0000001333609
100
AcDbArc
 50
346.9897550444689
 51
350.4059321183464
  0
LINE
  5
B8A6
330
1F
100
AcDbEntity
  8
AM_0
100
AcDbLine
 10
-2.091988000000355
 20
-9.057762999999823
 30
0.0
 11
-3.041839000000209
 21
-8.890278999999821
 31
0.0
  0
LINE
  5
B8A7
330
1F
100
AcDbEntity
  8
AM_0
100
AcDbLine
 10
-4.079745000000229
 20
-8.667819999999807
 30
0.0
 11
-3.624275000000352
 21
-8.748130999999801
 31
0.0
  0
ELLIPSE
  5
B8A8
330
1F
100
AcDbEntity
  8
AM_0
100
AcDbEllipse
 10
-18.07535300000049
 20
21.44095700000019
 30
0.0
 11
0.0581864538139605
 21
19.999915358236
 31
0.0
210
0.0
220
0.0
230
1.0
 40
0.9848077499999998
 41
1.92529641611084
 42
2.234341306040149
  0
ELLIPSE
  5
B8A9
330
1F
100
AcDbEntity
  8
AM_0
100
AcDbEllipse
 10
-18.07535300000049
 20
21.44095700000019
 30
0.0
 11
0.0581864538139605
 21
19.999915358236
 31
0.0
210
0.0
220
0.0
230
1.0
 40
0.9848077499999998
 41
2.478047743988799
 42
2.80664380159254
  0
ELLIPSE
  5
B8AA
330
1F
100
AcDbEntity
  8
AM_0
100
AcDbEllipse
 10
-45.35343200000016
 20
6.348680000000115
 30
0.0
 11
-137.2231805817061
 21
78.86706529794473
 31
0.0
210
0.0
220
0.0
230
1.0
 40
0.08708642667254
 41
-1.652648738717449
 42
-1.611490618298679
  0
ELLIPSE
  5
B8AB
330
1F
100
AcDbEntity
  8
AM_0
100
AcDbEllipse
 10
-20.94665200000036
 20
12.87124600000015
 30
0.0
 11
0.0009109758489994
 21
0.3131216748359999
 31
0.0
210
0.0
220
0.0
230
1.0
 40
0.9848078869964799
 41
3.40164682144249
 42
6.023130788274059
  0
ELLIPSE
  5
B8AC
330
1F
100
AcDbEntity
  8
AM_0
100
AcDbEllipse
 10
-21.89909100000028
 20
12.6168830000002
 30
0.0
 11
0.0009109758489994
 21
0.3131216748359999
 31
0.0
210
0.0
220
0.0
230
1.0
 40
0.9848078869964799
 41
0.260053816799883
 42
0.519185070161899
  0
ELLIPSE
  5
B8AD
330
1F
100
AcDbEntity
  8
AM_0
100
AcDbEllipse
 10
-21.64867700000042
 20
11.64977400000015
 30
0.0
 11
0.0009109758489994
 21
0.3131216748359999
 31
0.0
210
0.0
220
0.0
230
1.0
 40
0.9848078869964799
 41
1.830850643191249
 42
2.62240793257078
  0
ELLIPSE
  5
B8AE
330
1F
100
AcDbEntity
  8
AM_0
100
AcDbEllipse
 10
-21.17737900000048
 20
12.18923600000016
 30
0.0
 11
0.0008346177659994
 21
0.286875785911
 31
0.0
210
0.0
220
0.0
230
1.0
 40
0.9848053346904798
 41
0.26005446079941
 42
1.83084999919205
  0
ELLIPSE
  5
B8AF
330
1F
100
AcDbEntity
  8
AM_0
100
AcDbEllipse
 10
-9.613503000000292
 20
5.337110000000166
 30
0.0
 11
0.0009109758489994
 21
0.3131216748359999
 31
0.0
210
0.0
220
0.0
230
1.0
 40
0.9848078869964799
 41
3.40164682144249
 42
4.972442651797519
  0
ELLIPSE
  5
B8B0
330
1F
100
AcDbEntity
  8
AM_0
100
AcDbEllipse
 10
-9.939041000000372
 20
6.594352000000128
 30
0.0
 11
0.0009109758489994
 21
0.3131216748359999
 31
0.0
210
0.0
220
0.0
230
1.0
 40
0.9848078869964799
 41
-1.31074235224732
 42
0.519185070161899
  0
ELLIPSE
  5
B8B1
330
1F
100
AcDbEntity
  8
AM_0
100
AcDbEllipse
 10
-10.33521500000031
 20
5.764758000000199
 30
0.0
 11
0.0008346177659994
 21
0.286875785911
 31
0.0
210
0.0
220
0.0
230
1.0
 40
0.9848053346904798
 41
3.40164746544281
 42
3.660779189364069
  0
ELLIPSE
  5
B8B2
330
1F
100
AcDbEntity
  8
AM_0
100
AcDbEllipse
 10
-10.85167300000037
 20
5.006438000000173
 30
0.0
 11
0.0009109758489994
 21
0.3131216748359999
 31
0.0
210
0.0
220
0.0
230
1.0
 40
0.9848078869964799
 41
0.260053816799883
 42
0.519185070161899
  0
ELLIPSE
  5
B8B3
330
1F
100
AcDbEntity
  8
AM_0
100
AcDbEllipse
 10
-19.22375000000039
 20
6.664150000000176
 30
0.0
 11
0.0053822469779963
 21
1.849992170636999
 31
0.0
210
0.0
220
0.0
230
1.0
 40
0.9848075675675699
 41
1.902073006116449
 42
2.96705975656049
  0
ELLIPSE
  5
B8B4
330
1F
100
AcDbEntity
  8
AM_0
100
AcDbEllipse
 10
-28.54579000000038
 20
3.438751000000195
 30
0.0
 11
0.0237109799289839
 21
8.149965508480999
 31
0.0
210
0.0
220
0.0
230
1.0
 40
0.9848077300613498
 41
-1.2395199389943
 42
-0.6132554106191521
  0
ELLIPSE
  5
B8B5
330
1F
100
AcDbEntity
  8
AM_0
100
AcDbEllipse
 10
-22.85413800000043
 20
11.60001900000014
 30
0.0
 11
0.0053822469779963
 21
1.849992170636999
 31
0.0
210
0.0
220
0.0
230
1.0
 40
0.9848075675675699
 41
1.045452452464689
 42
2.52833751355258
  0
ELLIPSE
  5
B8B6
330
1F
100
AcDbEntity
  8
AM_0
100
AcDbEllipse
 10
-22.02145600000022
 20
13.04882600000013
 30
0.0
 11
0.0053822469779963
 21
1.849992170636999
 31
0.0
210
0.0
220
0.0
230
1.0
 40
0.9848075675675699
 41
0.0
 42
1.045452452464689
  0
ELLIPSE
  5
B8B7
330
1F
100
AcDbEntity
  8
AM_0
100
AcDbEllipse
 10
-19.11061600000019
 20
-0.9596999999998274
 30
0.0
 11
0.0461127646479688
 21
15.84993292140199
 31
0.0
210
0.0
220
0.0
230
1.0
 40
0.9848077602523698
 41
-0.4701679265157921
 42
0.0
  0
ELLIPSE
  5
B8B8
330
1F
100
AcDbEntity
  8
AM_0
100
AcDbEllipse
 10
-12.82819100000034
 20
11.50296900000017
 30
0.0
 11
0.0053822469779963
 21
1.849992170636999
 31
0.0
210
0.0
220
0.0
230
1.0
 40
0.9848075675675699
 41
-1.40305238534133
 42
-0.470168005537485
  0
ELLIPSE
  5
B8B9
330
1F
100
AcDbEntity
  8
AM_0
100
AcDbEllipse
 10
-3.113526000000376
 20
13.14430300000017
 30
0.0
 11
0.0237109799289839
 21
8.149965508480999
 31
0.0
210
0.0
220
0.0
230
1.0
 40
0.9848077300613498
 41
1.738540636853129
 42
2.35997353293491
  0
ELLIPSE
  5
B8BA
330
1F
100
AcDbEntity
  8
AM_0
100
AcDbEllipse
 10
-10.07142300000012
 20
6.066777000000172
 30
0.0
 11
0.0053822469779963
 21
1.849992170636999
 31
0.0
210
0.0
220
0.0
230
1.0
 40
0.9848075675675699
 41
4.238733991477779
 42
5.50156545028478
  0
ELLIPSE
  5
B8BB
330
1F
100
AcDbEntity
  8
AM_0
100
AcDbEllipse
 10
-9.976528000000428
 20
6.231888000000196
 30
0.0
 11
0.0053822469779963
 21
1.849992170636999
 31
0.0
210
0.0
220
0.0
230
1.0
 40
0.9848075675675699
 41
2.82100457758104
 42
4.135355917689709
  0
ELLIPSE
  5
B8BC
330
1F
100
AcDbEntity
  8
AM_0
100
AcDbEllipse
 10
-13.10749300000023
 20
-3.249546999999836
 30
0.0
 11
0.0237109799289839
 21
8.149965508480999
 31
0.0
210
0.0
220
0.0
230
1.0
 40
0.9848077300613498
 41
-0.320588377363047
 42
-0.018481716745379
  0
ELLIPSE
  5
B8BD
330
1F
100
AcDbEntity
  8
AM_0
100
AcDbEllipse
 10
-15.92817700000028
 20
9.078843000000176
 30
0.0
 11
0.0150363077399898
 21
5.168297127218
 31
0.0
210
0.0
220
0.0
230
1.0
 40
0.9848078262971
 41
3.7731085777562
 42
5.737974436774289
  0
ELLIPSE
  5
B8BE
330
1F
100
AcDbEntity
  8
AM_0
100
AcDbEllipse
 10
-23.22222900000025
 20
13.40090200000014
 30
0.0
 11
0.0009109758489994
 21
0.3131216748359999
 31
0.0
210
0.0
220
0.0
230
1.0
 40
0.9848078869964799
 41
0.260053816799883
 42
0.519185070161899
  0
ELLIPSE
  5
B8BF
330
1F
100
AcDbEntity
  8
AM_0
100
AcDbEllipse
 10
-22.97181500000016
 20
12.43379400000014
 30
0.0
 11
0.0009109758489994
 21
0.3131216748359999
 31
0.0
210
0.0
220
0.0
230
1.0
 40
0.9848078869964799
 41
1.830850643191249
 42
2.62240793257078
  0
ELLIPSE
  5
B8C0
330
1F
100
AcDbEntity
  8
AM_0
100
AcDbEllipse
 10
-22.50051700000022
 20
12.97325500000016
 30
0.0
 11
0.0008346177659994
 21
0.286875785911
 31
0.0
210
0.0
220
0.0
230
1.0
 40
0.9848053346904798
 41
0.26005446079941
 42
1.83084999919205
  0
ELLIPSE
  5
B8C1
330
1F
100
AcDbEntity
  8
AM_0
100
AcDbEllipse
 10
-22.26979100000045
 20
13.65526600000015
 30
0.0
 11
0.0009109758489994
 21
0.3131216748359999
 31
0.0
210
0.0
220
0.0
230
1.0
 40
0.9848078869964799
 41
3.40164682144249
 42
6.023130788274059
  0
ELLIPSE
  5
B8C2
330
1F
100
AcDbEntity
  8
AM_0
100
AcDbEllipse
 10
-23.22222900000025
 20
13.40090200000014
 30
0.0
 11
0.0009109758489994
 21
0.3131216748359999
 31
0.0
210
0.0
220
0.0
230
1.0
 40
0.9848078869964799
 41
0.519185070161899
 42
1.830850643191249
  0
ELLIPSE
  5
B8C3
330
1F
100
AcDbEntity
  8
AM_0
100
AcDbEllipse
 10
-23.27735000000012
 20
13.40106300000019
 30
0.0
 11
0.0008301810479994
 21
0.2853507923650001
 31
0.0
210
0.0
220
0.0
230
0.9999999999999998
 40
0.9848082368443201
 41
0.260053728526292
 42
0.435917455755859
  0
ELLIPSE
  5
B8C4
330
1F
100
AcDbEntity
  8
AM_0
100
AcDbEllipse
 10
-23.02693600000026
 20
12.43395400000014
 30
0.0
 11
0.0008301810479994
 21
0.2853507923650001
 31
0.0
210
0.0
220
0.0
230
0.9999999999999998
 40
0.9848082368443201
 41
2.705673527762349
 42
4.972442740071099
  0
ELLIPSE
  5
B8C5
330
1F
100
AcDbEntity
  8
AM_0
100
AcDbEllipse
 10
-22.97181500000016
 20
12.43379400000014
 30
0.0
 11
0.0009109758489994
 21
0.3131216748359999
 31
0.0
210
0.0
220
0.0
230
1.0
 40
0.9848078869964799
 41
2.62240793257078
 42
4.972442651797519
  0
ELLIPSE
  5
B8C6
330
1F
100
AcDbEntity
  8
AM_0
100
AcDbEllipse
 10
-22.55563900000044
 20
12.97341600000015
 30
0.0
 11
0.0009154125659994
 21
0.3146466683819998
 31
0.0
210
0.0
220
0.0
230
1.0
 40
0.9848084208385202
 41
0.260053682100903
 42
1.830850777890529
  0
ELLIPSE
  5
B8C7
330
1F
100
AcDbEntity
  8
AM_0
100
AcDbEllipse
 10
-22.32491200000032
 20
13.65542600000014
 30
0.0
 11
0.0008301810479994
 21
0.2853507923650001
 31
0.0
210
0.0
220
0.0
230
0.9999999999999998
 40
0.9848082368443201
 41
3.401646733168789
 42
6.02313087654787
  0
ELLIPSE
  5
B8C8
330
1F
100
AcDbEntity
  8
AM_0
100
AcDbEllipse
 10
-21.89909100000028
 20
12.6168830000002
 30
0.0
 11
0.0009109758489994
 21
0.3131216748359999
 31
0.0
210
0.0
220
0.0
230
1.0
 40
0.9848078869964799
 41
0.519185070161899
 42
1.830850643191249
  0
ELLIPSE
  5
B8C9
330
1F
100
AcDbEntity
  8
AM_0
100
AcDbEllipse
 10
-21.95421200000038
 20
12.61704300000013
 30
0.0
 11
0.0008301810479994
 21
0.2853507923650001
 31
0.0
210
0.0
220
0.0
230
0.9999999999999998
 40
0.9848082368443201
 41
0.260053728526292
 42
0.43591644578855
  0
ELLIPSE
  5
B8CA
330
1F
100
AcDbEntity
  8
AM_0
100
AcDbEllipse
 10
-21.70379800000028
 20
11.6499340000002
 30
0.0
 11
0.0008301810479994
 21
0.2853507923650001
 31
0.0
210
0.0
220
0.0
230
0.9999999999999998
 40
0.9848082368443201
 41
2.70567453772962
 42
4.972442740071099
  0
ELLIPSE
  5
B8CB
330
1F
100
AcDbEntity
  8
AM_0
100
AcDbEllipse
 10
-21.64867700000042
 20
11.64977400000015
 30
0.0
 11
0.0009109758489994
 21
0.3131216748359999
 31
0.0
210
0.0
220
0.0
230
1.0
 40
0.9848078869964799
 41
2.62240793257078
 42
4.972442651797519
  0
ELLIPSE
  5
B8CC
330
1F
100
AcDbEntity
  8
AM_0
100
AcDbEllipse
 10
-23.29588700000027
 20
13.48433400000016
 30
0.0
 11
-0.0516044688100004
 21
0.1932277899239999
 31
0.0
210
0.0
220
0.0
230
1.0
 40
0.16781
 41
0.041958058580473
 42
1.525487778894409
  0
ELLIPSE
  5
B8CD
330
1F
100
AcDbEntity
  8
AM_0
100
AcDbEllipse
 10
-23.30905300000023
 20
13.40115500000018
 30
0.0
 11
0.0002505305049998
 21
0.086112635562
 31
0.0
210
0.0
220
0.0
230
1.0
 40
0.9847990431177599
 41
0.260056048306478
 42
1.830848411698159
  0
ELLIPSE
  5
B8CE
330
1F
100
AcDbEntity
  8
AM_0
100
AcDbEllipse
 10
-23.35634100000044
 20
13.37915000000015
 30
0.0
 11
0.193614834539
 21
0.0501327821540004
 31
0.0
210
0.0
220
0.0
230
0.9999999999999998
 40
0.04465
 41
1.73957077086481
 42
2.613924509923749
  0
ELLIPSE
  5
B8CF
330
1F
100
AcDbEntity
  8
AM_0
100
AcDbEllipse
 10
-23.10592600000046
 20
12.41204100000016
 30
0.0
 11
0.193614834539
 21
0.0501327821540004
 31
0.0
210
0.0
220
0.0
230
0.9999999999999998
 40
0.04465
 41
1.73957077086481
 42
2.6198503015092
  0
ELLIPSE
  5
B8D0
330
1F
100
AcDbEntity
  8
AM_0
100
AcDbEllipse
 10
-22.34344900000024
 20
13.73869800000017
 30
0.0
 11
-0.0516044688100004
 21
0.1932277899239999
 31
0.0
210
0.0
220
0.0
230
1.0
 40
0.16781
 41
0.041958058580473
 42
1.525487778894409
  0
ELLIPSE
  5
B8D1
330
1F
100
AcDbEntity
  8
AM_0
100
AcDbEllipse
 10
-23.05863900000014
 20
12.43404600000013
 30
0.0
 11
0.0002505305049998
 21
0.086112635562
 31
0.0
210
0.0
220
0.0
230
1.0
 40
0.9847990431177599
 41
1.830848411698159
 42
4.97244042030945
  0
ELLIPSE
  5
B8D2
330
1F
100
AcDbEntity
  8
AM_0
100
AcDbEllipse
 10
-22.94189200000011
 20
12.45584900000017
 30
0.0
 11
0.193614834539
 21
0.0501327821540004
 31
0.0
210
0.0
220
0.0
230
0.9999999999999998
 40
0.04465
 41
0.256056746699429
 42
1.73957077086481
  0
ELLIPSE
  5
B8D3
330
1F
100
AcDbEntity
  8
AM_0
100
AcDbEllipse
 10
-21.23250000000035
 20
12.18939600000015
 30
0.0
 11
0.0009154125659994
 21
0.3146466683819998
 31
0.0
210
0.0
220
0.0
230
1.0
 40
0.9848084208385202
 41
0.260053682100903
 42
1.830850777890529
  0
ELLIPSE
  5
B8D4
330
1F
100
AcDbEntity
  8
AM_0
100
AcDbEllipse
 10
-22.5873410000002
 20
12.97350800000015
 30
0.0
 11
0.001495063109999
 21
0.5138848251849995
 31
0.0
210
0.0
220
0.0
230
0.9999999999999998
 40
0.9848079441589302
 41
0.260053802376654
 42
1.83085065761451
  0
ELLIPSE
  5
B8D5
330
1F
100
AcDbEntity
  8
AM_0
100
AcDbEllipse
 10
-22.68129600000026
 20
13.47039200000017
 30
0.0
 11
-0.0516044688100004
 21
0.1932277899239999
 31
0.0
210
0.0
220
0.0
230
1.0
 40
0.16781
 41
1.525487778894409
 42
3.00901933219698
  0
ELLIPSE
  5
B8D6
330
1F
100
AcDbEntity
  8
AM_0
100
AcDbEllipse
 10
-23.04205800000028
 20
12.84269300000016
 30
0.0
 11
0.193614834539
 21
0.0501327821540004
 31
0.0
210
0.0
220
0.0
230
0.9999999999999998
 40
0.04465
 41
0.256056746699429
 42
1.73957077086481
  0
ELLIPSE
  5
B8D7
330
1F
100
AcDbEntity
  8
AM_0
100
AcDbEllipse
 10
-21.00177400000012
 20
12.87140600000014
 30
0.0
 11
0.0008301810479994
 21
0.2853507923650001
 31
0.0
210
0.0
220
0.0
230
0.9999999999999998
 40
0.9848082368443201
 41
3.401646733168789
 42
6.02313087654787
  0
ELLIPSE
  5
B8D8
330
1F
100
AcDbEntity
  8
AM_0
100
AcDbEllipse
 10
-15.97573100000028
 20
9.078982000000166
 30
0.0
 11
0.0141716999089904
 21
4.869439377845999
 31
0.0
210
0.0
220
0.0
230
1.0
 40
0.9848077610248399
 41
0.478384541578622
 42
0.519187141043461
  0
ELLIPSE
  5
B8D9
330
1F
100
AcDbEntity
  8
AM_0
100
AcDbEllipse
 10
-15.97573000000039
 20
9.078981000000169
 30
0.0
 11
0.0141668333789904
 21
4.869440392011
 31
0.0
210
0.0
220
0.0
230
1.0
 40
0.98480776414474
 41
2.66382896440818
 42
3.08884103730862
  0
ELLIPSE
  5
B8DA
330
1F
100
AcDbEntity
  8
AM_0
100
AcDbEllipse
 10
-15.97573000000039
 20
9.078981000000169
 30
0.0
 11
0.0141668333789904
 21
4.869440392011
 31
0.0
210
0.0
220
0.0
230
1.0
 40
0.98480776414474
 41
2.582707939418289
 42
2.6224078788312
  0
ELLIPSE
  5
B8DB
330
1F
100
AcDbEntity
  8
AM_0
100
AcDbEllipse
 10
-15.97573000000039
 20
9.078981000000169
 30
0.0
 11
0.0141668333789904
 21
4.869440392011
 31
0.0
210
0.0
220
0.0
230
1.0
 40
0.98480776414474
 41
3.656793735507209
 42
5.804802085758691
  0
ELLIPSE
  5
B8DC
330
1F
100
AcDbEntity
  8
AM_0
100
AcDbEllipse
 10
-22.30032100000045
 20
13.57213700000016
 30
0.0
 11
-0.0516044688100004
 21
0.1932277899239999
 31
0.0
210
0.0
220
0.0
230
1.0
 40
0.16781
 41
1.525487778894409
 42
3.00901933219698
  0
ELLIPSE
  5
B8DD
330
1F
100
AcDbEntity
  8
AM_0
100
AcDbEllipse
 10
-22.35661400000009
 20
13.65551800000019
 30
0.0
 11
0.0002505305049998
 21
0.086112635562
 31
0.0
210
0.0
220
0.0
230
1.0
 40
0.9847990431177599
 41
3.401649052951819
 42
6.023128556762
  0
ELLIPSE
  5
B8DE
330
1F
100
AcDbEntity
  8
AM_0
100
AcDbEllipse
 10
-21.9727490000003
 20
12.70031500000015
 30
0.0
 11
-0.0516044688100004
 21
0.1932277899239999
 31
0.0
210
0.0
220
0.0
230
1.0
 40
0.16781
 41
0.041958058580473
 42
1.525487778894409
  0
ELLIPSE
  5
B8DF
330
1F
100
AcDbEntity
  8
AM_0
100
AcDbEllipse
 10
-21.98591500000048
 20
12.61713500000013
 30
0.0
 11
0.0002505305049998
 21
0.086112635562
 31
0.0
210
0.0
220
0.0
230
1.0
 40
0.9847990431177599
 41
0.260056048306478
 42
1.830848411698159
  0
ELLIPSE
  5
B8E0
330
1F
100
AcDbEntity
  8
AM_0
100
AcDbEllipse
 10
-22.03320200000035
 20
12.59513000000015
 30
0.0
 11
0.193614834539
 21
0.0501327821540004
 31
0.0
210
0.0
220
0.0
230
0.9999999999999998
 40
0.04465
 41
1.73957077086481
 42
2.613924509923749
  0
ELLIPSE
  5
B8E1
330
1F
100
AcDbEntity
  8
AM_0
100
AcDbEllipse
 10
-21.78278800000026
 20
11.62802200000015
 30
0.0
 11
0.193614834539
 21
0.0501327821540004
 31
0.0
210
0.0
220
0.0
230
0.9999999999999998
 40
0.04465
 41
1.73957077086481
 42
2.6198503015092
  0
ELLIPSE
  5
B8E2
330
1F
100
AcDbEntity
  8
AM_0
100
AcDbEllipse
 10
-21.02031100000027
 20
12.95467800000017
 30
0.0
 11
-0.0516044688100004
 21
0.1932277899239999
 31
0.0
210
0.0
220
0.0
230
1.0
 40
0.16781
 41
0.041958058580473
 42
1.525487778894409
  0
ELLIPSE
  5
B8E3
330
1F
100
AcDbEntity
  8
AM_0
100
AcDbEllipse
 10
-21.73550100000039
 20
11.65002700000019
 30
0.0
 11
0.0002505305049998
 21
0.086112635562
 31
0.0
210
0.0
220
0.0
230
1.0
 40
0.9847990431177599
 41
1.830848411698159
 42
4.97244042030945
  0
ELLIPSE
  5
B8E4
330
1F
100
AcDbEntity
  8
AM_0
100
AcDbEllipse
 10
-21.61875400000036
 20
11.67183000000017
 30
0.0
 11
0.193614834539
 21
0.0501327821540004
 31
0.0
210
0.0
220
0.0
230
0.9999999999999998
 40
0.04465
 41
0.256056746699429
 42
1.73957077086481
  0
ELLIPSE
  5
B8E5
330
1F
100
AcDbEntity
  8
AM_0
100
AcDbEllipse
 10
-21.26420300000046
 20
12.18948800000015
 30
0.0
 11
0.001495063109999
 21
0.5138848251849995
 31
0.0
210
0.0
220
0.0
230
0.9999999999999998
 40
0.9848079441589302
 41
0.260053802376654
 42
1.83085065761451
  0
ELLIPSE
  5
B8E6
330
1F
100
AcDbEntity
  8
AM_0
100
AcDbEllipse
 10
-21.35815800000028
 20
12.68637200000017
 30
0.0
 11
-0.0516044688100004
 21
0.1932277899239999
 31
0.0
210
0.0
220
0.0
230
1.0
 40
0.16781
 41
1.525487778894409
 42
3.00901933219698
  0
ELLIPSE
  5
B8E7
330
1F
100
AcDbEntity
  8
AM_0
100
AcDbEllipse
 10
-21.71892000000031
 20
12.05867300000017
 30
0.0
 11
0.193614834539
 21
0.0501327821540004
 31
0.0
210
0.0
220
0.0
230
0.9999999999999998
 40
0.04465
 41
0.256056746699429
 42
1.73957077086481
  0
ELLIPSE
  5
B8E8
330
1F
100
AcDbEntity
  8
AM_0
100
AcDbEllipse
 10
-20.97718300000025
 20
12.78811700000017
 30
0.0
 11
-0.0516044688100004
 21
0.1932277899239999
 31
0.0
210
0.0
220
0.0
230
1.0
 40
0.16781
 41
1.525487778894409
 42
3.00901933219698
  0
ELLIPSE
  5
B8E9
330
1F
100
AcDbEntity
  8
AM_0
100
AcDbEllipse
 10
-21.03347600000034
 20
12.87149900000014
 30
0.0
 11
0.0002505305049998
 21
0.086112635562
 31
0.0
210
0.0
220
0.0
230
1.0
 40
0.9847990431177599
 41
3.401649052951819
 42
6.023128556762
  0
ELLIPSE
  5
B8EA
330
1F
100
AcDbEntity
  8
AM_0
100
AcDbEllipse
 10
-42.12219900000019
 20
11.97079600000012
 30
0.0
 11
-137.2231788476952
 21
78.86706430134672
 31
0.0
210
0.0
220
0.0
230
1.0
 40
0.08708642777301
 41
4.45353891301665
 42
4.50114934660211
  0
ELLIPSE
  5
B8EB
330
1F
100
AcDbEntity
  8
AM_0
100
AcDbEllipse
 10
-42.12219200000009
 20
11.97079800000011
 30
0.0
 11
-137.2231554385521
 21
78.86705084727573
 31
0.0
210
0.0
220
0.0
230
0.9999999999999998
 40
0.08708641103816
 41
-1.658138591421169
 42
-1.632149037114409
  0
ELLIPSE
  5
B8EC
330
1F
100
AcDbEntity
  8
AM_0
100
AcDbEllipse
 10
-16.41131600000045
 20
9.080248000000153
 30
0.0
 11
0.0135283505119908
 21
4.64998032079
 31
0.0
210
0.0
220
0.0
230
1.0
 40
0.9848077419354799
 41
-0.010048651665789
 42
0.4800008356345461
  0
ELLIPSE
  5
B8ED
330
1F
100
AcDbEntity
  8
AM_0
100
AcDbEllipse
 10
-16.41131600000045
 20
9.080248000000153
 30
0.0
 11
0.0135283505119908
 21
4.64998032079
 31
0.0
210
0.0
220
0.0
230
1.0
 40
0.9848077419354799
 41
2.66238214189821
 42
3.151641657008649
  0
ELLIPSE
  5
B8EE
330
1F
100
AcDbEntity
  8
AM_0
100
AcDbEllipse
 10
-15.97573100000028
 20
9.078981000000169
 30
0.0
 11
0.0141619610299904
 21
4.869439406179999
 31
0.0
210
0.0
220
0.0
230
1.0
 40
0.9848077610248399
 41
2.622406869577819
 42
2.66382896311464
  0
ELLIPSE
  5
B8EF
330
1F
100
AcDbEntity
  8
AM_0
100
AcDbEllipse
 10
-15.97573100000028
 20
9.078981000000169
 30
0.0
 11
0.0141668333789904
 21
4.869440392011
 31
0.0
210
0.0
220
0.0
230
1.0
 40
0.98480776414474
 41
0.5191851239015031
 42
0.558562879784301
  0
ELLIPSE
  5
B8F0
330
1F
100
AcDbEntity
  8
AM_0
100
AcDbEllipse
 10
-44.32561000000015
 20
8.137034000000085
 30
0.0
 11
-136.9868956285521
 21
78.73126389215968
 31
0.0
210
0.0
220
0.0
230
1.0
 40
0.08708646251975
 41
-1.647519010387109
 42
-1.622462419849489
  0
ELLIPSE
  5
B8F1
330
1F
100
AcDbEntity
  8
AM_0
100
AcDbEllipse
 10
-19.37802000000039
 20
18.7411610000002
 30
0.0
 11
0.0008727968069994
 21
0.299998730374
 31
0.0
210
0.0
220
0.0
230
1.0
 40
0.12244666666667
 41
0.0
 42
1.066396653605609
  0
ELLIPSE
  5
B8F2
330
1F
100
AcDbEntity
  8
AM_0
100
AcDbEllipse
 10
-31.70489700000036
 20
15.4770040000001
 30
0.0
 11
0.0011637290759992
 21
0.3999983071650001
 31
0.0
210
0.0
220
0.0
230
1.0
 40
0.9848075000000001
 41
3.14159300503297
 42
3.864326954499519
  0
ELLIPSE
  5
B8F3
330
1F
100
AcDbEntity
  8
AM_0
100
AcDbEllipse
 10
-43.15003300000017
 20
10.1824370000001
 30
0.0
 11
-136.9868366721921
 21
78.73123000783272
 31
0.0
210
0.0
220
0.0
230
1.0
 40
0.08708642405063
 41
-1.648115092976689
 42
-1.613747324288419
  0
ELLIPSE
  5
B8F4
330
1F
100
AcDbEntity
  8
AM_0
100
AcDbEllipse
 10
-10.90679400000024
 20
5.006598000000167
 30
0.0
 11
0.0008301810479994
 21
0.2853507923650001
 31
0.0
210
0.0
220
0.0
230
0.9999999999999998
 40
0.9848082368443201
 41
2.70567453772962
 42
3.401646733168789
  0
ELLIPSE
  5
B8F5
330
1F
100
AcDbEntity
  8
AM_0
100
AcDbEllipse
 10
-10.85167300000037
 20
5.006438000000173
 30
0.0
 11
0.0009109758489994
 21
0.3131216748359999
 31
0.0
210
0.0
220
0.0
230
1.0
 40
0.9848078869964799
 41
2.62240793257078
 42
3.40164682144249
  0
ELLIPSE
  5
B8F6
330
1F
100
AcDbEntity
  8
AM_0
100
AcDbEllipse
 10
-10.85167300000037
 20
5.006438000000173
 30
0.0
 11
0.0009109758489994
 21
0.3131216748359999
 31
0.0
210
0.0
220
0.0
230
1.0
 40
0.9848078869964799
 41
0.519185070161899
 42
2.62240793257078
  0
ELLIPSE
  5
B8F7
330
1F
100
AcDbEntity
  8
AM_0
100
AcDbEllipse
 10
-10.90679400000024
 20
5.006598000000167
 30
0.0
 11
0.0008301810479994
 21
0.2853507923650001
 31
0.0
210
0.0
220
0.0
230
0.9999999999999998
 40
0.9848082368443201
 41
0.260053728526292
 42
0.435917455755859
  0
ELLIPSE
  5
B8F8
330
1F
100
AcDbEntity
  8
AM_0
100
AcDbEllipse
 10
-10.33521500000031
 20
5.764758000000199
 30
0.0
 11
0.0008346177659994
 21
0.286875785911
 31
0.0
210
0.0
220
0.0
230
1.0
 40
0.9848053346904798
 41
3.660779189364069
 42
4.972442007799769
  0
ELLIPSE
  5
B8F9
330
1F
100
AcDbEntity
  8
AM_0
100
AcDbEllipse
 10
-10.39033600000019
 20
5.764918000000136
 30
0.0
 11
0.0009154125659994
 21
0.3146466683819998
 31
0.0
210
0.0
220
0.0
230
1.0
 40
0.9848084208385202
 41
3.40164668674335
 42
3.66077783937361
  0
ELLIPSE
  5
B8FA
330
1F
100
AcDbEntity
  8
AM_0
100
AcDbEllipse
 10
-9.939041000000372
 20
6.594352000000128
 30
0.0
 11
0.0009109758489994
 21
0.3131216748359999
 31
0.0
210
0.0
220
0.0
230
1.0
 40
0.9848078869964799
 41
0.519185070161899
 42
1.830850643191249
  0
ELLIPSE
  5
B8FB
330
1F
100
AcDbEntity
  8
AM_0
100
AcDbEllipse
 10
-9.994163000000128
 20
6.594512000000179
 30
0.0
 11
0.0008301810479994
 21
0.2853507923650001
 31
0.0
210
0.0
220
0.0
230
0.9999999999999998
 40
0.9848082368443201
 41
-1.310742263973649
 42
0.4359184657231451
  0
ELLIPSE
  5
B8FC
330
1F
100
AcDbEntity
  8
AM_0
100
AcDbEllipse
 10
-9.668624000000164
 20
5.337271000000157
 30
0.0
 11
0.0008301810479994
 21
0.2853507923650001
 31
0.0
210
0.0
220
0.0
230
0.9999999999999998
 40
0.9848082368443201
 41
3.401646733168789
 42
4.972442740071099
  0
ELLIPSE
  5
B8FD
330
1F
100
AcDbEntity
  8
AM_0
100
AcDbEllipse
 10
-10.92533100000017
 20
5.089870000000189
 30
0.0
 11
-0.0516044688100004
 21
0.1932277899239999
 31
0.0
210
0.0
220
0.0
230
1.0
 40
0.16781
 41
0.041958058580473
 42
1.525487778894409
  0
ELLIPSE
  5
B8FE
330
1F
100
AcDbEntity
  8
AM_0
100
AcDbEllipse
 10
-10.93849700000035
 20
5.006691000000159
 30
0.0
 11
0.0002505305049998
 21
0.086112635562
 31
0.0
210
0.0
220
0.0
230
1.0
 40
0.9847990431177599
 41
0.260056048306478
 42
3.401649052951819
  0
ELLIPSE
  5
B8FF
330
1F
100
AcDbEntity
  8
AM_0
100
AcDbEllipse
 10
-10.88220400000025
 20
4.923309000000188
 30
0.0
 11
-0.0516044688100004
 21
0.1932277899239999
 31
0.0
210
0.0
220
0.0
230
1.0
 40
0.16781
 41
1.525487778894409
 42
3.00901933219698
  0
ELLIPSE
  5
B900
330
1F
100
AcDbEntity
  8
AM_0
100
AcDbEllipse
 10
-10.25862400000031
 20
5.267924000000164
 30
0.0
 11
-0.0516044688100004
 21
0.1932277899239999
 31
0.0
210
0.0
220
0.0
230
1.0
 40
0.16781
 41
0.041958058580473
 42
1.525487778894409
  0
ELLIPSE
  5
B901
330
1F
100
AcDbEntity
  8
AM_0
100
AcDbEllipse
 10
-9.644033000000291
 20
5.253982000000178
 30
0.0
 11
-0.0516044688100004
 21
0.1932277899239999
 31
0.0
210
0.0
220
0.0
230
1.0
 40
0.16781
 41
1.525487778894409
 42
3.00901933219698
  0
ELLIPSE
  5
B902
330
1F
100
AcDbEntity
  8
AM_0
100
AcDbEllipse
 10
-9.897863000000398
 20
5.895623000000171
 30
0.0
 11
0.193614834539
 21
0.0501327821540004
 31
0.0
210
0.0
220
0.0
230
0.9999999999999998
 40
0.04465
 41
1.73957077086481
 42
2.6198503015092
  0
ELLIPSE
  5
B903
330
1F
100
AcDbEntity
  8
AM_0
100
AcDbEllipse
 10
-10.42203800000041
 20
5.765010000000131
 30
0.0
 11
0.001495063109999
 21
0.5138848251849995
 31
0.0
210
0.0
220
0.0
230
0.9999999999999998
 40
0.9848079441589302
 41
3.40164680701924
 42
4.97244266622075
  0
ELLIPSE
  5
B904
330
1F
100
AcDbEntity
  8
AM_0
100
AcDbEllipse
 10
-10.0731530000001
 20
6.572599000000138
 30
0.0
 11
0.193614834539
 21
0.0501327821540004
 31
0.0
210
0.0
220
0.0
230
0.9999999999999998
 40
0.04465
 41
1.73957077086481
 42
2.613924509923749
  0
ELLIPSE
  5
B905
330
1F
100
AcDbEntity
  8
AM_0
100
AcDbEllipse
 10
-10.02586500000035
 20
6.594604000000174
 30
0.0
 11
0.0002505305049998
 21
0.086112635562
 31
0.0
210
0.0
220
0.0
230
1.0
 40
0.9847990431177599
 41
-1.31074458373775
 42
1.830848411698159
  0
ELLIPSE
  5
B906
330
1F
100
AcDbEntity
  8
AM_0
100
AcDbEllipse
 10
-9.909119000000202
 20
6.616407000000151
 30
0.0
 11
0.193614834539
 21
0.0501327821540004
 31
0.0
210
0.0
220
0.0
230
0.9999999999999998
 40
0.04465
 41
0.256056746699429
 42
1.73957077086481
  0
ELLIPSE
  5
B907
330
1F
100
AcDbEntity
  8
AM_0
100
AcDbEllipse
 10
-9.700327000000271
 20
5.337363000000152
 30
0.0
 11
0.0002505305049998
 21
0.086112635562
 31
0.0
210
0.0
220
0.0
230
1.0
 40
0.9847990431177599
 41
3.401649052951819
 42
4.97244042030945
  0
ELLIPSE
  5
B908
330
1F
100
AcDbEntity
  8
AM_0
100
AcDbEllipse
 10
-9.583580000000239
 20
5.359166000000129
 30
0.0
 11
0.193614834539
 21
0.0501327821540004
 31
0.0
210
0.0
220
0.0
230
0.9999999999999998
 40
0.04465
 41
0.256056746699429
 42
1.73957077086481
  0
ELLIPSE
  5
B909
330
1F
100
AcDbEntity
  8
AM_0
100
AcDbEllipse
 10
-43.15003200000029
 20
10.1824370000001
 30
0.0
 11
-136.9868358051871
 21
78.73122950953373
 31
0.0
210
0.0
220
0.0
230
1.0
 40
0.08708642460181
 41
4.442729997339809
 42
4.49155695895398
  0
ELLIPSE
  5
B90A
330
1F
100
AcDbEntity
  8
AM_0
100
AcDbEllipse
 10
-45.7230210000003
 20
7.210338000000092
 30
0.0
 11
2.377794457969996
 21
1.829233040279004
 31
0.0
210
0.0
220
0.0
230
0.9999999999999998
 40
0.9588506666666699
 41
3.32158923733994
 42
4.156590415999419
  0
ELLIPSE
  5
B90B
330
1F
100
AcDbEntity
  8
AM_0
100
AcDbEllipse
 10
-18.82277900000033
 20
1.003249000000153
 30
0.0
 11
-17.69713090282901
 21
3.126133692361964
 31
0.0
210
0.0
220
0.0
230
1.0
 40
0.0301537132911
 41
4.061961233819689
 42
4.72772957698551
  0
ELLIPSE
  5
B90C
330
1F
100
AcDbEntity
  8
AM_0
100
AcDbEllipse
 10
-40.58791300000012
 20
7.822203000000115
 30
0.0
 11
2.377794457969996
 21
1.829233040279004
 31
0.0
210
0.0
220
0.0
230
0.9999999999999998
 40
0.9588506666666699
 41
4.156590415999419
 42
5.72738614002575
  0
ELLIPSE
  5
B90D
330
1F
100
AcDbEntity
  8
AM_0
100
AcDbEllipse
 10
-45.94050600000019
 20
7.514045000000123
 30
0.0
 11
1.188897228984998
 21
0.9146165201400023
 31
0.0
210
0.0
220
0.0
230
1.0
 40
0.9588506666666699
 41
3.141593015060279
 42
4.852894297777469
  0
ELLIPSE
  5
B90E
330
1F
100
AcDbEntity
  8
AM_0
100
AcDbEllipse
 10
-39.14173500000043
 20
8.324140000000113
 30
0.0
 11
1.188897228984998
 21
0.9146165201400023
 31
0.0
210
0.0
220
0.0
230
1.0
 40
0.9588506666666699
 41
3.45988555292424
 42
5.72738614002575
  0
ELLIPSE
  5
B90F
330
1F
100
AcDbEntity
  8
AM_0
100
AcDbEllipse
 10
-45.94050600000019
 20
7.514045000000123
 30
0.0
 11
1.188897228984998
 21
0.9146165201400023
 31
0.0
210
0.0
220
0.0
230
1.0
 40
0.9588506666666699
 41
2.02330287829611
 42
3.141593015060279
  0
ELLIPSE
  5
B910
330
1F
100
AcDbEntity
  8
AM_0
100
AcDbEllipse
 10
-46.59314100000012
 20
8.362396000000103
 30
0.0
 11
1.188897228984998
 21
0.9146165201400023
 31
0.0
210
0.0
220
0.0
230
1.0
 40
0.9588506666666699
 41
3.522854375845
 42
3.68725003779325
  0
ELLIPSE
  5
B911
330
1F
100
AcDbEntity
  8
AM_0
100
AcDbEllipse
 10
-35.69233400000013
 20
13.1885940000001
 30
0.0
 11
0.0058186453809961
 21
1.999991535824
 31
0.0
210
0.0
220
0.0
230
1.0
 40
0.9848079999999999
 41
0.0
 42
1.570796004964669
  0
ELLIPSE
  5
B912
330
1F
100
AcDbEntity
  8
AM_0
100
AcDbEllipse
 10
-35.6952430000004
 20
12.18859800000009
 30
0.0
 11
0.0058186453809961
 21
1.999991535824
 31
0.0
210
0.0
220
0.0
230
1.0
 40
0.9848079999999999
 41
1.570796004964669
 42
3.141593005269819
  0
ELLIPSE
  5
B913
330
1F
100
AcDbEntity
  8
AM_0
100
AcDbEllipse
 10
-26.16902200000029
 20
5.804838000000188
 30
0.0
 11
0.0087279680719941
 21
2.999987303734999
 31
0.0
210
0.0
220
0.0
230
0.9999999999999998
 40
0.9848076666666699
 41
2.35619483943865
 42
2.711370909040129
  0
ELLIPSE
  5
B914
330
1F
100
AcDbEntity
  8
AM_0
100
AcDbEllipse
 10
-43.11247300000042
 20
11.5148200000001
 30
0.0
 11
2.219274827437997
 21
1.707284170927004
 31
0.0
210
0.0
220
0.0
230
1.0
 40
0.95885071428571
 41
-0.5557988317212811
 42
0.0
  0
ELLIPSE
  5
B915
330
1F
100
AcDbEntity
  8
AM_0
100
AcDbEllipse
 10
-43.11247300000042
 20
11.5148200000001
 30
0.0
 11
2.219274827437997
 21
1.707284170927004
 31
0.0
210
0.0
220
0.0
230
1.0
 40
0.95885071428571
 41
3.14159301469166
 42
5.72738616228475
  0
ELLIPSE
  5
B916
330
1F
100
AcDbEntity
  8
AM_0
100
AcDbEllipse
 10
-43.11247300000042
 20
11.5148200000001
 30
0.0
 11
2.219274827437997
 21
1.707284170927004
 31
0.0
210
0.0
220
0.0
230
1.0
 40
0.95885071428571
 41
0.0
 42
1.708350769145759
  0
ELLIPSE
  5
B917
330
1F
100
AcDbEntity
  8
AM_0
100
AcDbEllipse
 10
-43.11246900000043
 20
11.51482300000009
 30
0.0
 11
2.219281290313997
 21
1.707285610113005
 31
0.0
210
0.0
220
0.0
230
1.0
 40
0.9588497310362901
 41
3.128029955603069
 42
3.14159301469089
  0
ELLIPSE
  5
B918
330
1F
100
AcDbEntity
  8
AM_0
100
AcDbEllipse
 10
-43.21634100000011
 20
11.6498360000001
 30
0.0
 11
2.219274827437997
 21
1.707284170927004
 31
0.0
210
0.0
220
0.0
230
1.0
 40
0.95885071428571
 41
0.0
 42
0.918009749416938
  0
ELLIPSE
  5
B919
330
1F
100
AcDbEntity
  8
AM_0
100
AcDbEllipse
 10
-15.95462300000036
 20
9.078920000000152
 30
0.0
 11
0.0120736891659918
 21
4.149982436833999
 31
0.0
210
0.0
220
0.0
230
1.0
 40
0.9848077108433699
 41
-1.567931199090169
 42
4.71525380557651
  0
ELLIPSE
  5
B91A
330
1F
100
AcDbEntity
  8
AM_0
100
AcDbEllipse
 10
-16.00475100000022
 20
9.079066000000182
 30
0.0
 11
0.0135283505119908
 21
4.64998032079
 31
0.0
210
0.0
220
0.0
230
1.0
 40
0.9848077419354799
 41
3.141593005332119
 42
4.71238899970199
  0
ELLIPSE
  5
B91B
330
1F
100
AcDbEntity
  8
AM_0
100
AcDbEllipse
 10
-16.31928300000009
 20
9.079981000000145
 30
0.0
 11
0.0135283505119908
 21
4.64998032079
 31
0.0
210
0.0
220
0.0
230
1.0
 40
0.9848077419354799
 41
0.0
 42
0.654089040995313
  0
ELLIPSE
  5
B91C
330
1F
100
AcDbEntity
  8
AM_0
100
AcDbEllipse
 10
-16.31928300000009
 20
9.079981000000145
 30
0.0
 11
0.0135283505119908
 21
4.64998032079
 31
0.0
210
0.0
220
0.0
230
1.0
 40
0.9848077419354799
 41
2.489794370741819
 42
3.141593005332119
  0
ELLIPSE
  5
B91D
330
1F
100
AcDbEntity
  8
AM_0
100
AcDbEllipse
 10
-16.00475100000022
 20
9.079066000000182
 30
0.0
 11
0.0135283505119908
 21
4.64998032079
 31
0.0
210
0.0
220
0.0
230
1.0
 40
0.9848077419354799
 41
4.71238899970199
 42
6.283184995035929
  0
ELLIPSE
  5
B91E
330
1F
100
AcDbEntity
  8
AM_0
100
AcDbEllipse
 10
-16.00475100000022
 20
9.079066000000182
 30
0.0
 11
0.0135283505119908
 21
4.64998032079
 31
0.0
210
0.0
220
0.0
230
1.0
 40
0.9848077419354799
 41
0.0
 42
3.141593005332119
  0
ELLIPSE
  5
B91F
330
1F
100
AcDbEntity
  8
AM_0
100
AcDbEllipse
 10
-42.85998800000044
 20
11.50280600000007
 30
0.0
 11
2.377794457969996
 21
1.829233040279004
 31
0.0
210
0.0
220
0.0
230
0.9999999999999998
 40
0.9588506666666699
 41
1.540030438972189
 42
2.06076093394133
  0
ELLIPSE
  5
B920
330
1F
100
AcDbEntity
  8
AM_0
100
AcDbEllipse
 10
-43.08987700000017
 20
11.80163600000014
 30
0.0
 11
2.377794457969996
 21
1.829233040279004
 31
0.0
210
0.0
220
0.0
230
0.9999999999999998
 40
0.9588506666666699
 41
4.78666777870915
 42
6.21760361929887
  0
ELLIPSE
  5
B921
330
1F
100
AcDbEntity
  8
AM_0
100
AcDbEllipse
 10
-42.85998800000044
 20
11.50280600000007
 30
0.0
 11
2.377794457969996
 21
1.829233040279004
 31
0.0
210
0.0
220
0.0
230
0.9999999999999998
 40
0.9588506666666699
 41
3.141593015060279
 42
3.631557838906819
  0
ELLIPSE
  5
B922
330
1F
100
AcDbEntity
  8
AM_0
100
AcDbEllipse
 10
-42.85998800000044
 20
11.50280600000007
 30
0.0
 11
2.377794457969996
 21
1.829233040279004
 31
0.0
210
0.0
220
0.0
230
0.9999999999999998
 40
0.9588506666666699
 41
0.0
 42
0.489964830489628
  0
ELLIPSE
  5
B923
330
1F
100
AcDbEntity
  8
AM_0
100
AcDbEllipse
 10
-42.85998800000044
 20
11.50280600000007
 30
0.0
 11
2.377794457969996
 21
1.829233040279004
 31
0.0
210
0.0
220
0.0
230
0.9999999999999998
 40
0.9588506666666699
 41
4.68162246581498
 42
5.20235392613586
  0
ELLIPSE
  5
B924
330
1F
100
AcDbEntity
  8
AM_0
100
AcDbEllipse
 10
-42.85998800000044
 20
11.50280600000007
 30
0.0
 11
2.377794457969996
 21
1.829233040279004
 31
0.0
210
0.0
220
0.0
230
0.9999999999999998
 40
0.9588506666666699
 41
3.11082675387392
 42
3.141593015060279
  0
ELLIPSE
  5
B925
330
1F
100
AcDbEntity
  8
AM_0
100
AcDbEllipse
 10
-42.85998500000033
 20
11.50280800000007
 30
0.0
 11
2.377792080174996
 21
1.829231211046004
 31
0.0
210
0.0
220
0.0
230
1.0
 40
0.9588512921846298
 41
-0.030766240906739
 42
0.0
  0
ELLIPSE
  5
B926
330
1F
100
AcDbEntity
  8
AM_0
100
AcDbEllipse
 10
-198.7793619999999
 20
-197.4185950000001
 30
0.0
 11
263.7060720032267
 21
140.7999920010345
 31
0.0
210
0.0
220
0.0
230
1.0
 40
0.58344730800773
 41
0.551421368181477
 42
0.564330676154455
  0
ELLIPSE
  5
B927
330
1F
100
AcDbEntity
  8
AM_0
100
AcDbEllipse
 10
122.8411939999991
 20
248.1184530000003
 30
0.0
 11
256.5405916702226
 21
165.6909993551254
 31
0.0
210
0.0
220
0.0
230
1.0
 40
0.6446122438234101
 41
3.768060887392799
 42
3.780786225044959
  0
ELLIPSE
  5
B928
330
1F
100
AcDbEntity
  8
AM_0
100
AcDbEllipse
 10
-36.26655100000045
 20
14.69027000000014
 30
0.0
 11
0.3073077736799993
 21
0.3055249381570006
 31
0.0
210
0.0
220
0.0
230
1.0
 40
0.8391009369086601
 41
0.6981304635312049
 42
1.6566169287291
  0
ELLIPSE
  5
B929
330
1F
100
AcDbEntity
  8
AM_0
100
AcDbEllipse
 10
-57.78360800000041
 20
-15.28501599999995
 30
0.0
 11
0.915121585414378
 21
314.9797166354339
 31
0.0
210
0.0
220
0.0
230
0.9999999999999998
 40
0.08706850570304
 41
-1.467544072518679
 42
-1.46252247102154
  0
ELLIPSE
  5
B92A
330
1F
100
AcDbEntity
  8
AM_0
100
AcDbEllipse
 10
-19.68937100000022
 20
18.74206600000019
 30
0.0
 11
-5.027977542069
 21
0.0450099154669901
 31
0.0
210
0.0
220
0.0
230
1.0
 40
0.02921395598685
 41
-1.62617502659872
 42
-1.132418891994679
  0
ELLIPSE
  5
B92B
330
1F
100
AcDbEntity
  8
AM_0
100
AcDbEllipse
 10
-30.97720500000042
 20
18.67490100000011
 30
0.0
 11
0.0011637290759992
 21
0.3999983071650001
 31
0.0
210
0.0
220
0.0
230
1.0
 40
0.8111599999999999
 41
0.7853982937803431
 42
1.57079606171195
  0
ELLIPSE
  5
B92C
330
1F
100
AcDbEntity
  8
AM_0
100
AcDbEllipse
 10
-30.97720500000042
 20
18.67490100000011
 30
0.0
 11
0.3073077736799993
 21
0.3055249381570006
 31
0.0
210
0.0
220
0.0
230
1.0
 40
0.8391009369086601
 41
0.6981304635312049
 42
1.48352991453887
  0
ELLIPSE
  5
B92D
330
1F
100
AcDbEntity
  8
AM_0
100
AcDbEllipse
 10
-41.17898500000026
 20
0.0000000000001137
 30
0.0
 11
-2.194765093465036
 21
17.99697302600499
 31
0.0
210
0.0
220
0.0
230
1.0
 40
0.15039331656105
 41
-0.018336572003372
 42
0.08584764347544
  0
ELLIPSE
  5
B92E
330
1F
100
AcDbEntity
  8
AM_0
100
AcDbEllipse
 10
-31.45115600000034
 20
0.0000000000001421
 30
0.0
 11
0.0540420383029644
 21
17.99999787400899
 31
0.0
210
0.0
220
0.0
230
0.9999999999999998
 40
0.17632617056847
 41
-0.319352473932929
 42
-0.029459855397596
  0
ELLIPSE
  5
B92F
330
1F
100
AcDbEntity
  8
AM_0
100
AcDbEllipse
 10
-31.45115600000034
 20
-0.0000039999998478
 30
0.0
 11
0.0540420473099644
 21
18.00000087399599
 31
0.0
210
0.0
220
0.0
230
0.9999999999999998
 40
0.17632619673622
 41
-0.029459851028127
 42
-0.002098380618879
  0
ELLIPSE
  5
B930
330
1F
100
AcDbEntity
  8
AM_0
100
AcDbEllipse
 10
1.64742599999974
 20
0.0000000000002274
 30
0.0
 11
102.0835175585399
 21
0.0094937671602017
 31
0.0
210
0.0
220
0.0
230
1.0
 40
0.17632619204993
 41
1.890148219715799
 42
1.979186822985919
  0
ELLIPSE
  5
B931
330
1F
100
AcDbEntity
  8
AM_0
100
AcDbEllipse
 10
-38.02755500000037
 20
0.1626820000001317
 30
0.0
 11
-2.185239623349035
 21
17.83367121755
 31
0.0
210
0.0
220
0.0
230
1.0
 40
0.15088314969353
 41
-0.4292181451888421
 42
-0.42621892348749
  0
ELLIPSE
  5
B932
330
1F
100
AcDbEntity
  8
AM_0
100
AcDbEllipse
 10
-21.02829000000045
 20
-0.003308999999831
 30
0.0
 11
102.4165533991509
 21
4.236108689560205
 31
0.0
210
0.0
220
0.0
230
1.0
 40
0.17084979275273
 41
1.73917150301806
 42
1.74384340179762
  0
ELLIPSE
  5
B933
330
1F
100
AcDbEntity
  8
AM_0
100
AcDbEllipse
 10
-21.03192100000026
 20
0.0000000000001705
 30
0.0
 11
102.4059770046129
 21
4.236286720533201
 31
0.0
210
0.0
220
0.0
230
1.0
 40
0.17083367636301
 41
1.781193354544329
 42
1.830320138261639
  0
ELLIPSE
  5
B934
330
1F
100
AcDbEntity
  8
AM_0
100
AcDbEllipse
 10
-47.43540800000007
 20
0.0000000000001137
 30
0.0
 11
-2.194765093465036
 21
17.99697302600499
 31
0.0
210
0.0
220
0.0
230
1.0
 40
0.15039331656105
 41
-0.597869399309825
 42
-0.5154402526988601
  0
ELLIPSE
  5
B935
330
1F
100
AcDbEntity
  8
AM_0
100
AcDbEllipse
 10
0.7457769999998334
 20
0.0000000000002274
 30
0.0
 11
102.4059770046129
 21
4.236286720533201
 31
0.0
210
0.0
220
0.0
230
1.0
 40
0.17083367636301
 41
2.05631035812543
 42
2.120320160594149
  0
ELLIPSE
  5
B936
330
1F
100
AcDbEntity
  8
AM_0
100
AcDbEllipse
 10
-44.33510200000026
 20
0.0000000000001137
 30
0.0
 11
-12.98384456049603
 21
17.99974437430597
 31
0.0
210
0.0
220
0.0
230
1.0
 40
0.007413329611
 41
-1.369482727149449
 42
-0.7924175862597672
  0
ELLIPSE
  5
B937
330
1F
100
AcDbEntity
  8
AM_0
100
AcDbEllipse
 10
-127.3714740000002
 20
-0.0000000000000568
 30
0.0
 11
228.7114428656619
 21
17.47151360589044
 31
0.0
210
0.0
220
0.0
230
1.0
 40
0.01892924200347
 41
-1.198902095218139
 42
-1.174054333694189
  0
ELLIPSE
  5
B938
330
1F
100
AcDbEntity
  8
AM_0
100
AcDbEllipse
 10
-38.01888300000044
 20
0.0000000000001137
 30
0.0
 11
-2.194765093465036
 21
17.99697302600499
 31
0.0
210
0.0
220
0.0
230
1.0
 40
0.15039331656105
 41
-1.232038104519709
 42
-1.073319805379439
  0
ELLIPSE
  5
B939
330
1F
100
AcDbEntity
  8
AM_0
100
AcDbEllipse
 10
-13.13803000000032
 20
0.0000000000001705
 30
0.0
 11
-101.946303608076
 21
17.9920436515488
 31
0.0
210
0.0
220
0.0
230
1.0
 40
0.00524308904723
 41
-1.512338898594959
 42
-1.436548811550309
  0
ELLIPSE
  5
B93A
330
1F
100
AcDbEntity
  8
AM_0
100
AcDbEllipse
 10
-45.25325100000034
 20
0.0000000000001137
 30
0.0
 11
-2.194765093465036
 21
17.99697302600499
 31
0.0
210
0.0
220
0.0
230
1.0
 40
0.15039331656105
 41
-0.155960155185535
 42
-0.018336572003372
  0
ELLIPSE
  5
B93B
330
1F
100
AcDbEntity
  8
AM_0
100
AcDbEllipse
 10
-56.50010900000032
 20
0.0000000000001137
 30
0.0
 11
102.4059770046129
 21
4.236286720533201
 31
0.0
210
0.0
220
0.0
230
1.0
 40
0.17083367636301
 41
1.431938176995559
 42
1.47083845990384
  0
ELLIPSE
  5
B93C
330
1F
100
AcDbEntity
  8
AM_0
100
AcDbEllipse
 10
-41.17898500000026
 20
0.0000000000001137
 30
0.0
 11
-2.194765093465036
 21
17.99697302600499
 31
0.0
210
0.0
220
0.0
230
1.0
 40
0.15039331656105
 41
-0.11705963634901
 42
-0.018336572003372
  0
ELLIPSE
  5
B93D
330
1F
100
AcDbEntity
  8
AM_0
100
AcDbEllipse
 10
-123.8799500000003
 20
17.992737
 30
0.0
 11
-99.04984259389198
 21
2.399521162354805
 31
0.0
210
0.0
220
0.0
230
1.0
 40
0.14992122995145
 41
2.628585819570119
 42
2.65088089315894
  0
ELLIPSE
  5
B93E
330
1F
100
AcDbEntity
  8
AM_0
100
AcDbEllipse
 10
-46.87802900000025
 20
14.95670500000011
 30
0.0
 11
-0.1769323219500015
 21
0.7923230980439996
 31
0.0
210
0.0
220
0.0
230
1.0
 40
0.97386424385161
 41
0.177222113905415
 42
0.833576532324505
  0
ELLIPSE
  5
B93F
330
1F
100
AcDbEntity
  8
AM_0
100
AcDbEllipse
 10
-46.83731800000015
 20
15.03046100000011
 30
0.0
 11
-0.8039552893490002
 21
0.0929351935979984
 31
0.0
210
0.0
220
0.0
230
1.0
 40
0.9171688440385599
 41
-1.31687138676412
 42
-1.016194810036609
  0
ELLIPSE
  5
B940
330
1F
100
AcDbEntity
  8
AM_0
100
AcDbEllipse
 10
-42.93922700000012
 20
11.60580800000013
 30
0.0
 11
2.644140628701996
 21
1.430674321616004
 31
0.0
210
0.0
220
0.0
230
0.9999999999999998
 40
0.9124411501148598
 41
1.160989217298429
 42
1.68602177171127
  0
ELLIPSE
  5
B941
330
1F
100
AcDbEntity
  8
AM_0
100
AcDbEllipse
 10
-42.93922700000012
 20
11.60580800000013
 30
0.0
 11
1.761983087875995
 21
2.451615107898003
 31
0.0
210
0.0
220
0.0
230
1.0
 40
0.9206732059092999
 41
1.790873263123069
 42
2.31590660061572
  0
ELLIPSE
  5
B942
330
1F
100
AcDbEntity
  8
AM_0
100
AcDbEllipse
 10
-42.93922700000012
 20
11.60580800000013
 30
0.0
 11
2.644140628701996
 21
1.430674321616004
 31
0.0
210
0.0
220
0.0
230
0.9999999999999998
 40
0.9124411501148598
 41
0.6359572502107161
 42
1.160989217298429
  0
ELLIPSE
  5
B943
330
1F
100
AcDbEntity
  8
AM_0
100
AcDbEllipse
 10
-42.93922700000012
 20
11.60580800000013
 30
0.0
 11
1.761983087875995
 21
2.451615107898003
 31
0.0
210
0.0
220
0.0
230
1.0
 40
0.9206732059092999
 41
2.31590660061572
 42
2.840938174451709
  0
ELLIPSE
  5
B944
330
1F
100
AcDbEntity
  8
AM_0
100
AcDbEllipse
 10
-40.72776600000025
 20
15.75843400000008
 30
0.0
 11
0.7305507559179988
 21
0.6281465648950015
 31
0.0
210
0.0
220
0.0
230
0.9999999999999998
 40
0.64714588637517
 41
0.606147175937408
 42
0.766676403576313
  0
ELLIPSE
  5
B945
330
1F
100
AcDbEntity
  8
AM_0
100
AcDbEllipse
 10
-42.93922700000012
 20
11.60580800000013
 30
0.0
 11
3.045026354101998
 21
0.080453084120006
 31
0.0
210
0.0
220
0.0
230
1.0
 40
0.95567430892531
 41
0.052106763034764
 42
0.577139143743036
  0
ELLIPSE
  5
B946
330
1F
100
AcDbEntity
  8
AM_0
100
AcDbEllipse
 10
-42.93922700000012
 20
11.60580800000013
 30
0.0
 11
3.045026354101998
 21
0.080453084120006
 31
0.0
210
0.0
220
0.0
230
1.0
 40
0.95567430892531
 41
5.81025918345718
 42
6.231078865496299
  0
ELLIPSE
  5
B947
330
1F
100
AcDbEntity
  8
AM_0
100
AcDbEllipse
 10
-42.93922700000012
 20
11.60580800000013
 30
0.0
 11
0.294691201967994
 21
3.027692371341999
 31
0.0
210
0.0
220
0.0
230
0.9999999999999998
 40
0.97391617357002
 41
3.351754836723029
 42
3.876787552240859
  0
ELLIPSE
  5
B948
330
1F
100
AcDbEntity
  8
AM_0
100
AcDbEllipse
 10
-42.93922700000012
 20
11.60580800000013
 30
0.0
 11
0.294691201967994
 21
3.027692371341999
 31
0.0
210
0.0
220
0.0
230
0.9999999999999998
 40
0.97391617357002
 41
2.82672204129318
 42
3.351754836723029
  0
SPLINE
  5
B949
330
1F
100
AcDbEntity
  8
AM_0
100
AcDbSpline
210
0.0
220
0.0
230
1.0
 70
     8
 71
     3
 72
    11
 73
     7
 74
     5
 42
0.0000000001
 43
0.0000000001
 44
0.0000000001
 40
0.0
 40
0.0
 40
0.0
 40
0.0
 40
4.859477114984778
 40
9.792047501703656
 40
14.73160334050311
 40
19.62077541609091
 40
19.62077541609091
 40
19.62077541609091
 40
19.62077541609091
 10
-21.38149000000024
 20
2.003410000000201
 30
0.0
 10
-22.92860599665629
 20
2.512386016995416
 30
0.0
 10
-26.04610875908037
 20
3.537993755794427
 30
0.0
 10
-30.07116259046206
 20
6.458768032746379
 30
0.0
 10
-33.43750983761857
 20
10.12096680932191
 30
0.0
 10
-34.88325632825572
 20
13.07836832072301
 30
0.0
 10
-35.60242400000044
 20
14.54948900000013
 30
0.0
 11
-21.38149000000024
 21
2.003410000000201
 31
0.0
 11
-25.91396600000033
 21
3.755888000000197
 31
0.0
 11
-29.95792200000034
 21
6.580188000000191
 31
0.0
 11
-33.24802600000049
 21
10.26453700000016
 31
0.0
 11
-35.60242400000044
 21
14.54948900000013
 31
0.0
  0
SPLINE
  5
B94A
330
1F
100
AcDbEntity
  8
AM_0
100
AcDbSpline
210
0.0
220
0.0
230
1.0
 70
     8
 71
     3
 72
    11
 73
     7
 74
     5
 42
0.0000000001
 43
0.0000000001
 44
0.0000000001
 40
0.0
 40
0.0
 40
0.0
 40
0.0
 40
0.0703648406595547
 40
0.1405927101843011
 40
0.210760222467394
 40
0.2809505865495798
 40
0.2809505865495798
 40
0.2809505865495798
 40
0.2809505865495798
 10
-13.94923000000042
 20
0.6980860000001599
 30
0.0
 10
-13.92714924739113
 20
0.7060448122977494
 30
0.0
 10
-13.88303072423168
 20
0.7219469443892592
 30
0.0
 10
-13.81986929366311
 20
0.7529645558653538
 30
0.0
 10
-13.75925868171305
 20
0.7886056974763774
 30
0.0
 10
-13.72182492544635
 20
0.8167270396714194
 30
0.0
 10
-13.7031050000003
 20
0.8307900000001495
 30
0.0
 11
-13.94923000000042
 21
0.6980860000001599
 31
0.0
 11
-13.88348500000009
 21
0.7231620000001726
 31
0.0
 11
-13.82026800000019
 21
0.7537490000001413
 31
0.0
 11
-13.76000600000023
 21
0.7896930000001703
 31
0.0
 11
-13.7031050000003
 21
0.8307900000001495
 31
0.0
  0
SPLINE
  5
B94B
330
1F
100
AcDbEntity
  8
AM_0
100
AcDbSpline
210
0.0
220
0.0
230
1.0
 70
     8
 71
     3
 72
    11
 73
     7
 74
     5
 42
0.0000000001
 43
0.0000000001
 44
0.0000000001
 40
0.0
 40
0.0
 40
0.0
 40
0.0
 40
0.1895151452337624
 40
0.3745337200120007
 40
0.5589884610464324
 40
0.7476636913786842
 40
0.7476636913786842
 40
0.7476636913786842
 40
0.7476636913786842
 10
-35.60242400000044
 20
14.54948900000013
 30
0.0
 10
-35.61894086293469
 20
14.61172863874687
 30
0.0
 10
-35.65158269802426
 20
14.73473117452452
 30
0.0
 10
-35.58967114840385
 20
14.92014228006842
 30
0.0
 10
-35.45076826491742
 20
15.05994059623928
 30
0.0
 10
-35.32468812096581
 20
15.07814290305245
 30
0.0
 10
-35.2609350000003
 20
15.08734700000016
 30
0.0
 11
-35.60242400000044
 21
14.54948900000013
 31
0.0
 11
-35.6329960000001
 21
14.73652200000012
 31
0.0
 11
-35.57681300000041
 21
14.91280400000013
 31
0.0
 11
-35.44370000000009
 21
15.04049300000011
 31
0.0
 11
-35.2609350000003
 21
15.08734700000016
 31
0.0
  0
SPLINE
  5
B94C
330
1F
100
AcDbEntity
  8
AM_0
100
AcDbSpline
210
0.0
220
0.0
230
1.0
 70
     8
 71
     3
 72
    11
 73
     7
 74
     5
 42
0.0000000001
 43
0.0000000001
 44
0.0000000001
 40
0.0
 40
0.0
 40
0.0
 40
0.0
 40
0.9494499673078696
 40
1.907835080933925
 40
2.871048854554894
 40
3.833328083986735
 40
3.833328083986735
 40
3.833328083986735
 40
3.833328083986735
 10
-27.28866500000032
 20
11.81068500000014
 30
0.0
 10
-27.19779230739954
 20
11.5064560587115
 30
0.0
 10
-27.01519173147422
 20
10.89513511836577
 30
0.0
 10
-26.52897161035559
 20
10.06256282972139
 30
0.0
 10
-25.90907346188059
 20
9.316969229309297
 30
0.0
 10
-25.38499970033482
 20
8.94226112117686
 30
0.0
 10
-25.12309000000033
 20
8.754998000000171
 30
0.0
 11
-27.28866500000032
 21
11.81068500000014
 31
0.0
 11
-26.98125100000044
 21
10.91238000000015
 31
0.0
 11
-26.50799300000045
 21
10.07899600000013
 31
0.0
 11
-25.88130000000029
 21
9.347534000000166
 31
0.0
 11
-25.12309000000033
 21
8.754998000000171
 31
0.0
  0
SPLINE
  5
B94D
330
1F
100
AcDbEntity
  8
AM_0
100
AcDbSpline
210
0.0
220
0.0
230
1.0
 70
     8
 71
     3
 72
    11
 73
     7
 74
     5
 42
0.0000000001
 43
0.0000000001
 44
0.0000000001
 40
0.0
 40
0.0
 40
0.0
 40
0.0
 40
1.061663981667368
 40
2.12478541897789
 40
3.187516151677874
 40
4.247988336028311
 40
4.247988336028311
 40
4.247988336028311
 40
4.247988336028311
 10
-22.24145300000035
 20
5.690880000000163
 30
0.0
 10
-22.42418547012358
 20
5.994521440579031
 30
0.0
 10
-22.78990126607804
 20
6.602221161658543
 30
0.0
 10
-23.475484995799
 20
7.418438512946543
 30
0.0
 10
-24.24509429326707
 20
8.155968528619052
 30
0.0
 10
-24.83063238566649
 20
8.555463163129942
 30
0.0
 10
-25.12309000000033
 20
8.754998000000171
 30
0.0
 11
-22.24145300000035
 21
5.690880000000163
 31
0.0
 11
-22.8124420000002
 21
6.58592300000015
 31
0.0
 11
-23.48963200000031
 21
7.405460000000175
 31
0.0
 11
-24.26385600000031
 21
8.133453000000201
 31
0.0
 11
-25.12309000000033
 21
8.754998000000171
 31
0.0
  0
SPLINE
  5
B94E
330
1F
100
AcDbEntity
  8
AM_0
100
AcDbSpline
210
0.0
220
0.0
230
1.0
 70
     8
 71
     3
 72
    11
 73
     7
 74
     5
 42
0.0000000001
 43
0.0000000001
 44
0.0000000001
 40
0.0
 40
0.0
 40
0.0
 40
0.0
 40
0.7709585386231631
 40
1.541556493071604
 40
2.306696763908154
 40
3.062048706637511
 40
3.062048706637511
 40
3.062048706637511
 40
3.062048706637511
 10
-22.24145300000035
 20
5.690880000000163
 30
0.0
 10
-22.10400626240157
 20
5.472655523192109
 30
0.0
 10
-21.82917707226732
 20
5.036308635107327
 30
0.0
 10
-21.26676011569675
 20
4.502733062177435
 30
0.0
 10
-20.62336792286859
 20
4.077829714020674
 30
0.0
 10
-20.13965398789228
 20
3.919750687903244
 30
0.0
 10
-19.89935400000038
 20
3.841220000000191
 30
0.0
 11
-22.24145300000035
 21
5.690880000000163
 31
0.0
 11
-21.8038430000004
 21
5.056156000000157
 31
0.0
 11
-21.25112100000027
 21
4.519202000000177
 31
0.0
 11
-20.6062550000004
 21
4.107392000000174
 31
0.0
 11
-19.89935400000038
 21
3.841220000000191
 31
0.0
  0
SPLINE
  5
B94F
330
1F
100
AcDbEntity
  8
AM_0
100
AcDbSpline
210
0.0
220
0.0
230
1.0
 70
     8
 71
     3
 72
    11
 73
     7
 74
     5
 42
0.0000000001
 43
0.0000000001
 44
0.0000000001
 40
0.0
 40
0.0
 40
0.0
 40
0.0
 40
0.4101078095487702
 40
0.8165748947525269
 40
1.219590930608406
 40
1.619509021448465
 40
1.619509021448465
 40
1.619509021448465
 40
1.619509021448465
 10
-17.19744400000016
 20
3.11837300000019
 30
0.0
 10
-17.06443694879245
 20
3.086147007882241
 30
0.0
 10
-16.79960361396575
 20
3.021981109283619
 30
0.0
 10
-16.39399209369786
 20
2.982048960893762
 30
0.0
 10
-15.98982978331659
 20
2.980237774335344
 30
0.0
 10
-15.7243144502357
 20
3.016191497961115
 30
0.0
 10
-15.59206900000006
 20
3.034099000000139
 30
0.0
 11
-17.19744400000016
 21
3.11837300000019
 31
0.0
 11
-16.7967220000003
 21
3.031136000000174
 31
0.0
 11
-16.39251700000025
 21
2.988313000000175
 31
0.0
 11
-15.98950300000026
 21
2.989594000000181
 31
0.0
 11
-15.59206900000006
 21
3.034099000000139
 31
0.0
  0
SPLINE
  5
B950
330
1F
100
AcDbEntity
  8
AM_0
100
AcDbSpline
210
0.0
220
0.0
230
1.0
 70
     8
 71
     3
 72
    11
 73
     7
 74
     5
 42
0.0000000001
 43
0.0000000001
 44
0.0000000001
 40
0.0
 40
0.0
 40
0.0
 40
0.0
 40
0.987861524518184
 40
1.983467291390062
 40
2.988094940802927
 40
4.0025260391797
 40
4.0025260391797
 40
4.0025260391797
 40
4.0025260391797
 10
-15.59206900000006
 20
3.034099000000139
 30
0.0
 10
-15.26479915146626
 20
3.075555144310421
 30
0.0
 10
-14.60769385491006
 20
3.158792424258839
 30
0.0
 10
-13.6088215298675
 20
3.105885826494665
 30
0.0
 10
-12.61494725341591
 20
2.929998267112507
 30
0.0
 10
-11.98332069592185
 20
2.693915518760687
 30
0.0
 10
-11.66597400000026
 20
2.575301000000138
 30
0.0
 11
-15.59206900000006
 21
3.034099000000139
 31
0.0
 11
-14.60878700000037
 21
3.129109000000141
 31
0.0
 11
-13.6141190000001
 21
3.08590700000019
 31
0.0
 11
-12.62660100000019
 21
2.901286000000197
 31
0.0
 11
-11.66597400000026
 21
2.575301000000138
 31
0.0
  0
SPLINE
  5
B951
330
1F
100
AcDbEntity
  8
AM_0
100
AcDbSpline
210
0.0
220
0.0
230
1.0
 70
     8
 71
     3
 72
    11
 73
     7
 74
     5
 42
0.0000000001
 43
0.0000000001
 44
0.0000000001
 40
0.0
 40
0.0
 40
0.0
 40
0.0
 40
0.1459552483809981
 40
0.2909916487121023
 40
0.4350934122682557
 40
0.5782801939663534
 40
0.5782801939663534
 40
0.5782801939663534
 40
0.5782801939663534
 10
-10.68863900000022
 20
0.2925760000001674
 30
0.0
 10
-10.65381096257141
 20
0.2585240916678861
 30
0.0
 10
-10.58437414446972
 20
0.1906346457088196
 30
0.0
 10
-10.4671026749256
 20
0.1046775529535755
 30
0.0
 10
-10.34467207407715
 20
0.0283598250932648
 30
0.0
 10
-10.25879151803995
 20
-0.0141325027379924
 30
0.0
 10
-10.21598800000018
 20
-0.0353109999998083
 30
0.0
 11
-10.68863900000022
 21
0.2925760000001674
 31
0.0
 11
-10.5818920000004
 21
0.1930370000001744
 31
0.0
 11
-10.46585700000039
 21
0.1060230000001638
 31
0.0
 11
-10.34327500000043
 21
0.0302670000001513
 31
0.0
 11
-10.21598800000018
 21
-0.0353109999998083
 31
0.0
  0
SPLINE
  5
B952
330
1F
100
AcDbEntity
  8
AM_0
100
AcDbSpline
210
0.0
220
0.0
230
1.0
 70
     8
 71
     3
 72
    11
 73
     7
 74
     5
 42
0.0000000001
 43
0.0000000001
 44
0.0000000001
 40
0.0
 40
0.0
 40
0.0
 40
0.0
 40
0.8737569738005257
 40
1.727228628843565
 40
2.557305239293522
 40
3.370953121442216
 40
3.370953121442216
 40
3.370953121442216
 40
3.370953121442216
 10
-10.68863900000022
 20
0.2925760000001674
 30
0.0
 10
-10.89054497156114
 20
0.5083467580809011
 30
0.0
 10
-11.28966942478022
 20
0.9348788966494506
 30
0.0
 10
-12.11737234506562
 20
1.221083634596127
 30
0.0
 10
-12.98037336148977
 20
1.247307341672195
 30
0.0
 10
-13.46380505788371
 20
0.9687009069560023
 30
0.0
 10
-13.7031050000003
 20
0.8307900000001495
 30
0.0
 11
-10.68863900000022
 21
0.2925760000001674
 31
0.0
 11
-11.33528000000026
 21
0.8802040000001625
 31
0.0
 11
-12.1344310000002
 21
1.179823000000169
 31
0.0
 11
-12.96447100000025
 21
1.172027000000127
 31
0.0
 11
-13.7031050000003
 21
0.8307900000001495
 31
0.0
  0
SPLINE
  5
B953
330
1F
100
AcDbEntity
  8
AM_0
100
AcDbSpline
210
0.0
220
0.0
230
1.0
 70
     8
 71
     3
 72
    11
 73
     7
 74
     5
 42
0.0000000001
 43
0.0000000001
 44
0.0000000001
 40
0.0
 40
0.0
 40
0.0
 40
0.0
 40
0.5240153685084139
 40
1.045063376294642
 40
1.563945404802105
 40
2.082026925307318
 40
2.082026925307318
 40
2.082026925307318
 40
2.082026925307318
 10
-27.07813700000025
 20
13.83796100000017
 30
0.0
 10
-27.15157239326001
 20
13.67871699571743
 30
0.0
 10
-27.2980273345302
 20
13.36113074391701
 30
0.0
 10
-27.38646945087936
 20
12.84243342807618
 30
0.0
 10
-27.39019666515781
 20
12.32024316739972
 30
0.0
 10
-27.32249146618791
 20
11.98045028547452
 30
0.0
 10
-27.28866500000032
 20
11.81068500000014
 30
0.0
 11
-27.07813700000025
 21
13.83796100000017
 31
0.0
 11
-27.27648000000027
 21
13.35293300000017
 31
0.0
 11
-27.37245300000023
 21
12.84080000000017
 31
0.0
 11
-27.37262500000025
 21
12.32191800000015
 31
0.0
 11
-27.28866500000032
 21
11.81068500000014
 31
0.0
  0
SPLINE
  5
B954
330
1F
100
AcDbEntity
  8
AM_0
100
AcDbSpline
210
0.0
220
0.0
230
1.0
 70
     8
 71
     3
 72
    11
 73
     7
 74
     5
 42
0.0000000001
 43
0.0000000001
 44
0.0000000001
 40
0.0
 40
0.0
 40
0.0
 40
0.0
 40
0.2189707665463932
 40
0.4380136464605905
 40
0.6571343771661259
 40
0.8763315298164924
 40
0.8763315298164924
 40
0.8763315298164924
 40
0.8763315298164924
 10
-25.73298500000038
 20
15.99514000000016
 30
0.0
 10
-25.78120632363241
 20
15.94032039750411
 30
0.0
 10
-25.87766485156446
 20
15.8306631388411
 30
0.0
 10
-26.01071404121775
 20
15.65648272143634
 30
0.0
 10
-26.13562505033094
 20
15.47628499662943
 30
0.0
 10
-26.21038867169527
 20
15.35071029697624
 30
0.0
 10
-26.24777700000032
 20
15.28791200000017
 30
0.0
 11
-25.73298500000038
 21
15.99514000000016
 31
0.0
 11
-25.87570600000009
 21
15.82907100000016
 31
0.0
 11
-26.00933500000047
 21
15.65551100000016
 31
0.0
 11
-26.13348000000025
 21
15.4749510000002
 31
0.0
 11
-26.24777700000032
 21
15.28791200000017
 31
0.0
  0
SPLINE
  5
B955
330
1F
100
AcDbEntity
  8
AM_0
100
AcDbSpline
210
0.0
220
0.0
230
1.0
 70
     8
 71
     3
 72
    11
 73
     7
 74
     5
 42
0.0000000001
 43
0.0000000001
 44
0.0000000001
 40
0.0
 40
0.0
 40
0.0
 40
0.0
 40
0.6728736047982542
 40
1.345628987983517
 40
2.017901261025694
 40
2.688149212357891
 40
2.688149212357891
 40
2.688149212357891
 40
2.688149212357891
 10
-23.30997700000017
 20
16.99583700000016
 30
0.0
 10
-23.53426446939927
 20
16.979435430234
 30
0.0
 10
-23.98280000164889
 20
16.94663517240193
 30
0.0
 10
-24.63186858262479
 20
16.75655688051421
 30
0.0
 10
-25.24295521146752
 20
16.458628967217
 30
0.0
 10
-25.56980601802915
 20
16.14948093925568
 30
0.0
 10
-25.73298500000038
 20
15.99514000000016
 30
0.0
 11
-23.30997700000017
 21
16.99583700000016
 31
0.0
 11
-23.97891200000032
 21
16.92314000000016
 31
0.0
 11
-24.62582300000013
 21
16.73846200000019
 31
0.0
 11
-25.22344900000035
 21
16.43057700000014
 31
0.0
 11
-25.73298500000038
 21
15.99514000000016
 31
0.0
  0
SPLINE
  5
B956
330
1F
100
AcDbEntity
  8
AM_0
100
AcDbSpline
210
0.0
220
0.0
230
1.0
 70
     8
 71
     3
 72
    11
 73
     7
 74
     5
 42
0.0000000001
 43
0.0000000001
 44
0.0000000001
 40
0.0
 40
0.0
 40
0.0
 40
0.0
 40
0.2372296542090352
 40
0.4744858789956101
 40
0.7117446780841429
 40
0.9489797440945885
 40
0.9489797440945885
 40
0.9489797440945885
 40
0.9489797440945885
 10
-22.3640370000001
 20
16.93782100000015
 30
0.0
 10
-22.44234806924596
 20
16.94891381275737
 30
0.0
 10
-22.5989789788601
 20
16.97110068070688
 30
0.0
 10
-22.83556755201642
 20
16.9902291942703
 30
0.0
 10
-23.07272373457882
 20
16.99998529664984
 30
0.0
 10
-23.23089521531609
 20
16.99721971944081
 30
0.0
 10
-23.30997700000017
 20
16.99583700000016
 30
0.0
 11
-22.3640370000001
 21
16.93782100000015
 31
0.0
 11
-22.5992430000004
 21
16.96874100000019
 31
0.0
 11
-22.83566100000035
 21
16.98866700000013
 31
0.0
 11
-23.07274900000021
 21
16.99766800000014
 31
0.0
 11
-23.30997700000017
 21
16.99583700000016
 31
0.0
  0
SPLINE
  5
B957
330
1F
100
AcDbEntity
  8
AM_0
100
AcDbSpline
210
0.0
220
0.0
230
1.0
 70
     8
 71
     3
 72
    11
 73
     7
 74
     5
 42
0.0000000001
 43
0.0000000001
 44
0.0000000001
 40
0.0
 40
0.0
 40
0.0
 40
0.0
 40
2.419340818157975
 40
4.855715080060493
 40
7.292083048563014
 40
9.711411129478216
 40
9.711411129478216
 40
9.711411129478216
 40
9.711411129478216
 10
-18.53026700000035
 20
4.957702000000153
 30
0.0
 10
-19.15088246430316
 20
5.501081228679804
 30
0.0
 10
-20.3964828552511
 20
6.59166536427931
 30
0.0
 10
-20.96133626630527
 20
9.094298116568801
 30
0.0
 10
-20.38114133847268
 20
11.59341705009613
 30
0.0
 10
-19.12887093307028
 20
12.67632708674051
 30
0.0
 10
-18.50493300000044
 20
13.21588200000013
 30
0.0
 11
-18.53026700000035
 21
4.957702000000153
 31
0.0
 11
-20.17626800000044
 21
6.730804000000148
 31
0.0
 11
-20.77004900000048
 21
9.093714000000147
 31
0.0
 11
-20.16178200000041
 21
11.45293000000015
 31
0.0
 11
-18.50493300000044
 21
13.21588200000013
 31
0.0
  0
SPLINE
  5
B958
330
1F
100
AcDbEntity
  8
AM_0
100
AcDbSpline
210
0.0
220
0.0
230
1.0
 70
     8
 71
     3
 72
    11
 73
     7
 74
     5
 42
0.0000000001
 43
0.0000000001
 44
0.0000000001
 40
0.0
 40
0.0
 40
0.0
 40
0.0
 40
0.0334022186687824
 40
0.0637753022297114
 40
0.0917446640383748
 40
0.11841831939368
 40
0.11841831939368
 40
0.11841831939368
 40
0.11841831939368
 10
-16.35331500000009
 20
4.177574000000163
 30
0.0
 10
-16.3435301468777
 20
4.182897100618883
 30
0.0
 10
-16.32484779612306
 20
4.193060567726392
 30
0.0
 10
-16.29687373717578
 20
4.205461438067866
 30
0.0
 10
-16.26974794315621
 20
4.214214294779804
 30
0.0
 10
-16.25158979110778
 20
4.216119826378999
 30
0.0
 10
-16.2427260000002
 20
4.217050000000142
 30
0.0
 11
-16.35331500000009
 21
4.177574000000163
 31
0.0
 11
-16.32375100000015
 21
4.193120000000192
 31
0.0
 11
-16.29591700000017
 21
4.205277000000194
 31
0.0
 11
-16.26914500000046
 21
4.21337300000016
 31
0.0
 11
-16.2427260000002
 21
4.217050000000142
 31
0.0
  0
SPLINE
  5
B959
330
1F
100
AcDbEntity
  8
AM_0
100
AcDbSpline
210
0.0
220
0.0
230
1.0
 70
     8
 71
     3
 72
    11
 73
     7
 74
     5
 42
0.0000000001
 43
0.0000000001
 44
0.0000000001
 40
0.0
 40
0.0
 40
0.0
 40
0.0
 40
0.1132219606130135
 40
0.2270603869723148
 40
0.3414391950880973
 40
0.4562928423659711
 40
0.4562928423659711
 40
0.4562928423659711
 40
0.4562928423659711
 10
-16.35331500000009
 20
4.177574000000163
 30
0.0
 10
-16.3910342228926
 20
4.178982737551544
 30
0.0
 10
-16.46667804057511
 20
4.181807882884015
 30
0.0
 10
-16.58011399907895
 20
4.191479699937029
 30
0.0
 10
-16.69370859649896
 20
4.204995553111507
 30
0.0
 10
-16.76904218273024
 20
4.217846977425356
 30
0.0
 10
-16.80678700000024
 20
4.224286000000176
 30
0.0
 11
-16.35331500000009
 21
4.177574000000163
 31
0.0
 11
-16.46642100000033
 21
4.182697000000132
 31
0.0
 11
-16.57987100000016
 21
4.19209300000017
 31
0.0
 11
-16.69341000000011
 21
4.205928000000142
 31
0.0
 11
-16.80678700000024
 21
4.224286000000176
 31
0.0
  0
SPLINE
  5
B95A
330
1F
100
AcDbEntity
  8
AM_0
100
AcDbSpline
210
0.0
220
0.0
230
1.0
 70
     8
 71
     3
 72
    11
 73
     7
 74
     5
 42
0.0000000001
 43
0.0000000001
 44
0.0000000001
 40
0.0
 40
0.0
 40
0.0
 40
0.0
 40
0.4607225617659531
 40
0.917160485173942
 40
1.371324918413464
 40
1.828928219118457
 40
1.828928219118457
 40
1.828928219118457
 40
1.828928219118457
 10
-16.80678700000024
 20
4.224286000000176
 30
0.0
 10
-16.95742055852801
 20
4.254372378116237
 30
0.0
 10
-17.25728681012475
 20
4.31426533635185
 30
0.0
 10
-17.69932211519457
 20
4.431563563656147
 30
0.0
 10
-18.13593283699373
 20
4.563784544919279
 30
0.0
 10
-18.43199340019864
 20
4.632864000496696
 30
0.0
 10
-18.5805820000003
 20
4.667534000000159
 30
0.0
 11
-16.80678700000024
 21
4.224286000000176
 31
0.0
 11
-17.25762100000045
 21
4.319228000000123
 31
0.0
 11
-17.69931600000043
 21
4.434298000000183
 31
0.0
 11
-18.13610200000019
 21
4.558730000000139
 31
0.0
 11
-18.5805820000003
 21
4.667534000000159
 31
0.0
  0
SPLINE
  5
B95B
330
1F
100
AcDbEntity
  8
AM_0
100
AcDbSpline
210
0.0
220
0.0
230
1.0
 70
     8
 71
     3
 72
    11
 73
     7
 74
     5
 42
0.0000000001
 43
0.0000000001
 44
0.0000000001
 40
0.0
 40
0.0
 40
0.0
 40
0.0
 40
0.0636098081194547
 40
0.1276241160357356
 40
0.1918039486311861
 40
0.256036421197799
 40
0.256036421197799
 40
0.256036421197799
 40
0.256036421197799
 10
-12.93546500000027
 20
4.89859500000017
 30
0.0
 10
-12.95667731832141
 20
4.898525038627417
 30
0.0
 10
-12.99923684577228
 20
4.898384670992008
 30
0.0
 10
-13.06297521008763
 20
4.892685831453357
 30
0.0
 10
-13.12660623290788
 20
4.88450189771453
 30
0.0
 10
-13.16876165072195
 20
4.877042318538407
 30
0.0
 10
-13.18984800000023
 20
4.873311000000171
 30
0.0
 11
-12.93546500000027
 21
4.89859500000017
 31
0.0
 11
-12.99906500000022
 21
4.897478000000148
 31
0.0
 11
-13.06286800000023
 21
4.892281000000195
 31
0.0
 11
-13.12651200000007
 21
4.884005000000172
 31
0.0
 11
-13.18984800000023
 21
4.873311000000171
 31
0.0
  0
SPLINE
  5
B95C
330
1F
100
AcDbEntity
  8
AM_0
100
AcDbSpline
210
0.0
220
0.0
230
1.0
 70
     8
 71
     3
 72
    11
 73
     7
 74
     5
 42
0.0000000001
 43
0.0000000001
 44
0.0000000001
 40
0.0
 40
0.0
 40
0.0
 40
0.0
 40
0.0962750004935751
 40
0.2023836285167427
 40
0.3182350051076453
 40
0.4384914250986044
 40
0.4384914250986044
 40
0.4384914250986044
 40
0.4384914250986044
 10
-13.62528400000044
 20
4.834753000000148
 30
0.0
 10
-13.59415791205035
 20
4.843137114331291
 30
0.0
 10
-13.52872648552657
 20
4.860761705050968
 30
0.0
 10
-13.42192268373502
 20
4.860080925327147
 30
0.0
 10
-13.30788350820374
 20
4.858183280341874
 30
0.0
 10
-13.22967951783577
 20
4.868206095174908
 30
0.0
 10
-13.18984800000023
 20
4.873311000000171
 30
0.0
 11
-13.62528400000044
 21
4.834753000000148
 31
0.0
 11
-13.53134200000025
 21
4.855819000000167
 31
0.0
 11
-13.42531300000044
 21
4.859929000000136
 31
0.0
 11
-13.30946600000041
 21
4.860936000000151
 31
0.0
 11
-13.18984800000023
 21
4.873311000000171
 31
0.0
  0
SPLINE
  5
B95D
330
1F
100
AcDbEntity
  8
AM_0
100
AcDbSpline
210
0.0
220
0.0
230
1.0
 70
     8
 71
     3
 72
    11
 73
     7
 74
     5
 42
0.0000000001
 43
0.0000000001
 44
0.0000000001
 40
0.0
 40
0.0
 40
0.0
 40
0.0
 40
0.0811264424094342
 40
0.17175002967015
 40
0.2721884225784616
 40
0.3789272391589277
 40
0.3789272391589277
 40
0.3789272391589277
 40
0.3789272391589277
 10
-36.54831500000028
 20
14.92099500000014
 30
0.0
 10
-36.5593843200563
 20
14.89621483849851
 30
0.0
 10
-36.58281880074577
 20
14.84375360210339
 30
0.0
 10
-36.59750533665632
 20
14.75339304148223
 30
0.0
 10
-36.59631056656837
 20
14.65320409826595
 30
0.0
 10
-36.57691612234638
 20
14.58660646178167
 30
0.0
 10
-36.56692400000048
 20
14.5522950000001
 30
0.0
 11
-36.54831500000028
 21
14.92099500000014
 31
0.0
 11
-36.57836200000048
 21
14.84563800000015
 31
0.0
 11
-36.59448400000048
 21
14.75646000000014
 31
0.0
 11
-36.59197300000033
 21
14.65605300000012
 31
0.0
 11
-36.56692400000048
 21
14.5522950000001
 31
0.0
  0
SPLINE
  5
B95E
330
1F
100
AcDbEntity
  8
AM_0
100
AcDbSpline
210
0.0
220
0.0
230
1.0
 70
     8
 71
     3
 72
    11
 73
     7
 74
     5
 42
0.0000000001
 43
0.0000000001
 44
0.0000000001
 40
0.0
 40
0.0
 40
0.0
 40
0.0
 40
0.0262668755848604
 40
0.052513226988614
 40
0.0787596967894087
 40
0.105024725268335
 40
0.105024725268335
 40
0.105024725268335
 40
0.105024725268335
 10
-22.45315800000031
 20
19.04439700000017
 30
0.0
 10
-22.46186793352315
 20
19.04529604036514
 30
0.0
 10
-22.47928099487728
 20
19.0470934186108
 30
0.0
 10
-22.50547634784973
 20
19.04889522632667
 30
0.0
 10
-22.53170524388178
 20
19.05010150662362
 30
0.0
 10
-22.54920901922559
 20
19.05030847782531
 30
0.0
 10
-22.55796400000036
 20
19.05041200000016
 30
0.0
 11
-22.45315800000031
 21
19.04439700000017
 31
0.0
 11
-22.47930100000013
 21
19.04694500000016
 31
0.0
 11
-22.50548200000031
 21
19.04879600000015
 31
0.0
 11
-22.53170300000039
 21
19.04995200000013
 31
0.0
 11
-22.55796400000036
 21
19.05041200000016
 31
0.0
  0
SPLINE
  5
B95F
330
1F
100
AcDbEntity
  8
AM_0
100
AcDbSpline
210
0.0
220
0.0
230
1.0
 70
     8
 71
     3
 72
    11
 73
     7
 74
     5
 42
0.0000000001
 43
0.0000000001
 44
0.0000000001
 40
0.0
 40
0.0
 40
0.0
 40
0.0
 40
1.327207794121469
 40
2.657981119332215
 40
3.989613166853423
 40
5.319726372836159
 40
5.319726372836159
 40
5.319726372836159
 40
5.319726372836159
 10
-17.53370500000011
 20
18.94117600000015
 30
0.0
 10
-17.90591294148179
 20
18.69356931692919
 30
0.0
 10
-18.65132875753244
 20
18.19769075779315
 30
0.0
 10
-20.01009593687445
 20
18.00500360939312
 30
0.0
 10
-21.34189736442309
 20
18.29501338101445
 30
0.0
 10
-22.08287872740804
 20
18.79469750336816
 30
0.0
 10
-22.45315800000031
 20
19.04439700000017
 30
0.0
 11
-17.53370500000011
 21
18.94117600000015
 31
0.0
 11
-18.69017900000045
 21
18.28998600000017
 31
0.0
 11
-20.00514600000025
 21
18.08548800000016
 31
0.0
 11
-21.30563500000044
 21
18.37179600000018
 31
0.0
 11
-22.45315800000031
 21
19.04439700000017
 31
0.0
  0
SPLINE
  5
B960
330
1F
100
AcDbEntity
  8
AM_0
100
AcDbSpline
210
0.0
220
0.0
230
1.0
 70
     8
 71
     3
 72
    11
 73
     7
 74
     5
 42
0.0000000001
 43
0.0000000001
 44
0.0000000001
 40
0.0
 40
0.0
 40
0.0
 40
0.0
 40
6.303102815680385
 40
12.52484308262529
 40
18.64199373054118
 40
24.69529122522765
 40
24.69529122522765
 40
24.69529122522765
 40
24.69529122522765
 10
-17.31142900000014
 20
18.94459500000016
 30
0.0
 10
-15.22718634018729
 20
18.54998357577398
 30
0.0
 10
-11.08560511842332
 20
17.76585450290709
 30
0.0
 10
-5.831923067590213
 20
14.17826685493313
 30
0.0
 10
-1.920614892562179
 20
9.266128049407067
 30
0.0
 10
-0.8769737841879978
 20
5.305387243611664
 30
0.0
 10
-0.3578910000003646
 20
3.335407000000259
 30
0.0
 11
-17.31142900000014
 21
18.94459500000016
 31
0.0
 11
-11.2136530000003
 21
17.34890300000017
 31
0.0
 11
-6.019414000000153
 21
13.92400400000016
 31
0.0
 11
-2.297234000000401
 21
9.069634000000206
 31
0.0
 11
-0.3578910000003646
 21
3.335407000000259
 31
0.0
  0
SPLINE
  5
B961
330
1F
100
AcDbEntity
  8
AM_0
100
AcDbSpline
210
0.0
220
0.0
230
1.0
 70
     8
 71
     3
 72
    11
 73
     7
 74
     5
 42
0.0000000001
 43
0.0000000001
 44
0.0000000001
 40
0.0
 40
0.0
 40
0.0
 40
0.0
 40
0.4934703986915883
 40
0.9879961468191467
 40
1.483977415974546
 40
1.981754168545268
 40
1.981754168545268
 40
1.981754168545268
 40
1.981754168545268
 10
-6.634742000000471
 20
7.119195000000189
 30
0.0
 10
-6.70727764929823
 20
7.267023484448881
 30
0.0
 10
-6.852504074638485
 20
7.562996603429629
 30
0.0
 10
-7.129555918393299
 20
7.974258183521556
 30
0.0
 10
-7.444753451368521
 20
8.359052361914024
 30
0.0
 10
-7.689030700239507
 20
8.583349037129654
 30
0.0
 10
-7.81139000000013
 20
8.695700000000186
 30
0.0
 11
-6.634742000000471
 21
7.119195000000189
 31
0.0
 11
-6.862135000000137
 21
7.557151000000175
 31
0.0
 11
-7.135479000000316
 21
7.969266000000203
 31
0.0
 11
-7.452796000000319
 21
8.350458000000202
 31
0.0
 11
-7.81139000000013
 21
8.695700000000186
 31
0.0
  0
SPLINE
  5
B962
330
1F
100
AcDbEntity
  8
AM_0
100
AcDbSpline
210
0.0
220
0.0
230
1.0
 70
     8
 71
     3
 72
    11
 73
     7
 74
     5
 42
0.0000000001
 43
0.0000000001
 44
0.0000000001
 40
0.0
 40
0.0
 40
0.0
 40
0.0
 40
1.006266031199081
 40
2.012873421007559
 40
3.020654519330377
 40
4.030484431514247
 40
4.030484431514247
 40
4.030484431514247
 40
4.030484431514247
 10
-10.01286100000044
 20
12.01671500000014
 30
0.0
 10
-9.895896672452355
 20
11.70176519349895
 30
0.0
 10
-9.661928339200539
 20
11.07175873913987
 30
0.0
 10
-9.155928024546525
 20
10.19687410876756
 30
0.0
 10
-8.55024520503872
 20
9.385744802436859
 30
0.0
 10
-8.057841741214497
 20
8.925870596237048
 30
0.0
 10
-7.81139000000013
 20
8.695700000000186
 30
0.0
 11
-10.01286100000044
 21
12.01671500000014
 31
0.0
 11
-9.636173000000155
 21
11.08361400000018
 31
0.0
 11
-9.139644000000146
 21
10.20799000000016
 31
0.0
 11
-8.52862000000033
 21
9.406571000000184
 31
0.0
 11
-7.81139000000013
 21
8.695700000000186
 31
0.0
  0
SPLINE
  5
B963
330
1F
100
AcDbEntity
  8
AM_0
100
AcDbSpline
210
0.0
220
0.0
230
1.0
 70
     8
 71
     3
 72
    11
 73
     7
 74
     5
 42
0.0000000001
 43
0.0000000001
 44
0.0000000001
 40
0.0
 40
0.0
 40
0.0
 40
0.0
 40
0.6741256125655636
 40
1.350597798477863
 40
2.030612276373875
 40
2.71477575094695
 40
2.71477575094695
 40
2.71477575094695
 40
2.71477575094695
 10
-10.01286100000044
 20
12.01671500000014
 30
0.0
 10
-10.09470154347582
 20
12.22678436192983
 30
0.0
 10
-10.25866751032795
 20
12.64765431919214
 30
0.0
 10
-10.65080771570418
 20
13.20582453535917
 30
0.0
 10
-11.13369399444618
 20
13.69296911179873
 30
0.0
 10
-11.52516446007748
 20
13.92749793941833
 30
0.0
 10
-11.72149500000028
 20
14.04511900000017
 30
0.0
 11
-10.01286100000044
 21
12.01671500000014
 31
0.0
 11
-10.28251200000028
 21
12.63456100000013
 31
0.0
 11
-10.66480500000017
 21
13.19265300000017
 31
0.0
 11
-11.14977300000038
 21
13.66933500000016
 31
0.0
 11
-11.72149500000028
 21
14.04511900000017
 31
0.0
  0
SPLINE
  5
B964
330
1F
100
AcDbEntity
  8
AM_0
100
AcDbSpline
210
0.0
220
0.0
230
1.0
 70
     8
 71
     3
 72
    11
 73
     7
 74
     5
 42
0.0000000001
 43
0.0000000001
 44
0.0000000001
 40
0.0
 40
0.0
 40
0.0
 40
0.0
 40
1.999741076866143
 40
4.006576440331925
 40
6.018833900419154
 40
8.034768272002203
 40
8.034768272002203
 40
8.034768272002203
 40
8.034768272002203
 10
-11.72149500000028
 20
14.04511900000017
 30
0.0
 10
-12.31960083725282
 20
14.34047417282185
 30
0.0
 10
-13.51793435356805
 20
14.93223232123774
 30
0.0
 10
-15.40807404492001
 20
15.61481047200455
 30
0.0
 10
-17.34836430347955
 20
16.15753402670252
 30
0.0
 10
-18.67382614305142
 20
16.37773234362741
 30
0.0
 10
-19.33716200000009
 20
16.48793200000017
 30
0.0
 11
-11.72149500000028
 21
14.04511900000017
 31
0.0
 11
-13.53073000000023
 21
14.89696000000015
 31
0.0
 11
-15.41385400000018
 21
15.59066900000016
 31
0.0
 11
-17.3547630000001
 21
16.12175500000017
 31
0.0
 11
-19.33716200000009
 21
16.48793200000017
 31
0.0
  0
SPLINE
  5
B965
330
1F
100
AcDbEntity
  8
AM_0
100
AcDbSpline
210
0.0
220
0.0
230
1.0
 70
     8
 71
     3
 72
    11
 73
     7
 74
     5
 42
0.0000000001
 43
0.0000000001
 44
0.0000000001
 40
0.0
 40
0.0
 40
0.0
 40
0.0
 40
0.6507323174163345
 40
1.309781639677661
 40
1.976015567803422
 40
2.647851194672107
 40
2.647851194672107
 40
2.647851194672107
 40
2.647851194672107
 10
-0.3578910000003646
 20
3.335407000000259
 30
0.0
 10
-0.323449814897995
 20
3.121235527710565
 30
0.0
 10
-0.2541272521660108
 20
2.690155259157836
 30
0.0
 10
-0.170180614847667
 20
2.036766445563522
 30
0.0
 10
-0.0990552277415794
 20
1.37479025285741
 30
0.0
 10
-0.0648627903579069
 20
0.9300560298857687
 30
0.0
 10
-0.0476950000004592
 20
0.7067580000002068
 30
0.0
 11
-0.3578910000003646
 21
3.335407000000259
 31
0.0
 11
-0.257944000000208
 21
2.692396000000258
 31
0.0
 11
-0.1727370000001258
 21
2.038878000000181
 31
0.0
 11
-0.1025920000004419
 21
1.376347000000237
 31
0.0
 11
-0.0476950000004592
 21
0.7067580000002068
 31
0.0
  0
SPLINE
  5
B966
330
1F
100
AcDbEntity
  8
AM_0
100
AcDbSpline
210
0.0
220
0.0
230
1.0
 70
     8
 71
     3
 72
    11
 73
     7
 74
     5
 42
0.0000000001
 43
0.0000000001
 44
0.0000000001
 40
0.0
 40
0.0
 40
0.0
 40
0.0
 40
0.2299167765998422
 40
0.4577649707050198
 40
0.6829858651709105
 40
0.9050596220175638
 40
0.9050596220175638
 40
0.9050596220175638
 40
0.9050596220175638
 10
-19.37714700000043
 20
19.04115900000016
 30
0.0
 10
-19.30050865779977
 20
19.04070026113841
 30
0.0
 10
-19.14792149564838
 20
19.03978691073088
 30
0.0
 10
-18.92029691734582
 20
19.0353795400323
 30
0.0
 10
-18.69533165073215
 20
19.02913386248741
 30
0.0
 10
-18.54635114435504
 20
19.02317865400253
 30
0.0
 10
-18.47238500000031
 20
19.02022200000016
 30
0.0
 11
-19.37714700000043
 21
19.04115900000016
 31
0.0
 11
-19.1472380000003
 21
19.03926800000016
 31
0.0
 11
-18.91942900000032
 21
19.03504200000014
 31
0.0
 11
-18.69429900000028
 21
19.02864400000015
 31
0.0
 11
-18.47238500000031
 21
19.02022200000016
 31
0.0
  0
SPLINE
  5
B967
330
1F
100
AcDbEntity
  8
AM_0
100
AcDbSpline
210
0.0
220
0.0
230
1.0
 70
     8
 71
     3
 72
    11
 73
     7
 74
     5
 42
0.0000000001
 43
0.0000000001
 44
0.0000000001
 40
0.0
 40
0.0
 40
0.0
 40
0.0
 40
0.6262679634612232
 40
1.305774957483311
 40
2.012273836591677
 40
2.712333615665236
 40
2.712333615665236
 40
2.712333615665236
 40
2.712333615665236
 10
-16.2427260000002
 20
4.217050000000142
 30
0.0
 10
-16.03370315548975
 20
4.221022157204947
 30
0.0
 10
-15.59788843746519
 20
4.229304144641371
 30
0.0
 10
-14.93593043954422
 20
4.352007630399329
 30
0.0
 10
-14.26681977615356
 20
4.54737307004016
 30
0.0
 10
-13.83847561827311
 20
4.73925249230495
 30
0.0
 10
-13.62528400000044
 20
4.834753000000148
 30
0.0
 11
-16.2427260000002
 21
4.217050000000142
 31
0.0
 11
-15.6170990000003
 21
4.245377000000132
 31
0.0
 11
-14.94754400000036
 21
4.361247000000162
 31
0.0
 11
-14.27051000000008
 21
4.563152000000172
 31
0.0
 11
-13.62528400000044
 21
4.834753000000148
 31
0.0
  0
SPLINE
  5
B968
330
1F
100
AcDbEntity
  8
AM_0
100
AcDbSpline
210
0.0
220
0.0
230
1.0
 70
     8
 71
     3
 72
    11
 73
     7
 74
     5
 42
0.0000000001
 43
0.0000000001
 44
0.0000000001
 40
0.0
 40
0.0
 40
0.0
 40
0.0
 40
0.1539892231164561
 40
0.307457548203497
 40
0.4615156330318696
 40
0.6166979561779116
 40
0.6166979561779116
 40
0.6166979561779116
 40
0.6166979561779116
 10
-30.78782800000027
 20
15.07433500000016
 30
0.0
 10
-30.73606890379519
 20
15.08019527227402
 30
0.0
 10
-30.63272579643756
 20
15.09189599332878
 30
0.0
 10
-30.50313586296801
 20
15.18463758038524
 30
0.0
 10
-30.41421856141823
 20
15.31699771607511
 30
0.0
 10
-30.40396727659761
 20
15.42100986055611
 30
0.0
 10
-30.39882300000027
 20
15.47320500000017
 30
0.0
 11
-30.78782800000027
 21
15.07433500000016
 31
0.0
 11
-30.63681800000023
 21
15.10447900000011
 31
0.0
 11
-30.51008900000016
 21
15.19103700000013
 31
0.0
 11
-30.42663900000031
 21
15.32053600000017
 31
0.0
 11
-30.39882300000027
 21
15.47320500000017
 31
0.0
  0
SPLINE
  5
B969
330
1F
100
AcDbEntity
  8
AM_0
100
AcDbSpline
210
0.0
220
0.0
230
1.0
 70
     8
 71
     3
 72
    11
 73
     7
 74
     5
 42
0.0000000001
 43
0.0000000001
 44
0.0000000001
 40
0.0
 40
0.0
 40
0.0
 40
0.0
 40
0.1277647843343188
 40
0.2556364375534651
 40
0.3836154883587145
 40
0.5117034770617362
 40
0.5117034770617362
 40
0.5117034770617362
 40
0.5117034770617362
 10
-30.39882300000027
 20
15.47320500000017
 30
0.0
 10
-30.39939504053518
 20
15.51578943635488
 30
0.0
 10
-30.40053960008844
 20
15.60099392882641
 30
0.0
 10
-30.4019200068129
 20
15.72885842421851
 30
0.0
 10
-30.40307556909224
 20
15.85683288859223
 30
0.0
 10
-30.40362111233464
 20
15.94218685889573
 30
0.0
 10
-30.40389400000032
 20
15.98488200000014
 30
0.0
 11
-30.39882300000027
 21
15.47320500000017
 31
0.0
 11
-30.40048300000018
 21
15.60095900000016
 31
0.0
 11
-30.4018820000004
 21
15.72882300000014
 31
0.0
 11
-30.40301900000014
 21
15.8567970000002
 31
0.0
 11
-30.40389400000032
 21
15.98488200000014
 31
0.0
  0
SPLINE
  5
B96A
330
1F
100
AcDbEntity
  8
AM_0
100
AcDbSpline
210
0.0
220
0.0
230
1.0
 70
     8
 71
     3
 72
    11
 73
     7
 74
     5
 42
0.0000000001
 43
0.0000000001
 44
0.0000000001
 40
0.0
 40
0.0
 40
0.0
 40
0.0
 40
0.1470868590356126
 40
0.2950679188643439
 40
0.4450376071349927
 40
0.5982454708756141
 40
0.5982454708756141
 40
0.5982454708756141
 40
0.5982454708756141
 10
-15.76716100000024
 20
4.062291000000129
 30
0.0
 10
-15.81596133323522
 20
4.067214035852354
 30
0.0
 10
-15.91385867676369
 20
4.077090036692504
 30
0.0
 10
-16.05984363572069
 20
4.104221529928071
 30
0.0
 10
-16.20638587658562
 20
4.138096132532451
 30
0.0
 10
-16.30399112517265
 20
4.164321342200397
 30
0.0
 10
-16.35331500000009
 20
4.177574000000163
 30
0.0
 11
-15.76716100000024
 21
4.062291000000129
 31
0.0
 11
-15.91328700000011
 21
4.079076000000156
 31
0.0
 11
-16.05895500000022
 21
4.105138000000181
 31
0.0
 11
-16.20512100000022
 21
4.138700000000142
 31
0.0
 11
-16.35331500000009
 21
4.177574000000163
 31
0.0
  0
SPLINE
  5
B96B
330
1F
100
AcDbEntity
  8
AM_0
100
AcDbSpline
210
0.0
220
0.0
230
1.0
 70
     8
 71
     3
 72
    11
 73
     7
 74
     5
 42
0.0000000001
 43
0.0000000001
 44
0.0000000001
 40
0.0
 40
0.0
 40
0.0
 40
0.0
 40
0.6768045831056818
 40
1.373307529599173
 40
2.065711154630168
 40
2.722643980427449
 40
2.722643980427449
 40
2.722643980427449
 40
2.722643980427449
 10
-13.18984800000023
 20
4.873311000000171
 30
0.0
 10
-13.38943362036826
 20
4.767682058508778
 30
0.0
 10
-13.7944137905577
 20
4.553349850490807
 30
0.0
 10
-14.44065263430863
 20
4.311432909096806
 30
0.0
 10
-15.10125112429365
 20
4.133176088498533
 30
0.0
 10
-15.54911546569887
 20
4.08550161386771
 30
0.0
 10
-15.76716100000024
 20
4.062291000000129
 30
0.0
 11
-13.18984800000023
 21
4.873311000000171
 31
0.0
 11
-13.79459100000011
 21
4.569419000000152
 31
0.0
 11
-14.44544800000019
 21
4.321424000000149
 31
0.0
 11
-15.11590800000024
 21
4.148490000000151
 31
0.0
 11
-15.76716100000024
 21
4.062291000000129
 31
0.0
  0
SPLINE
  5
B96C
330
1F
100
AcDbEntity
  8
AM_0
100
AcDbSpline
210
0.0
220
0.0
230
1.0
 70
     8
 71
     3
 72
    11
 73
     7
 74
     5
 42
0.0000000001
 43
0.0000000001
 44
0.0000000001
 40
0.0
 40
0.0
 40
0.0
 40
0.0
 40
0.0529530736882686
 40
0.105921343293724
 40
0.1588868503335759
 40
0.2118505188807857
 40
0.2118505188807857
 40
0.2118505188807857
 40
0.2118505188807857
 10
-17.32224500000012
 20
18.94558400000016
 30
0.0
 10
-17.33985936516556
 20
18.94679590560318
 30
0.0
 10
-17.37509315028204
 20
18.94922006458917
 30
0.0
 10
-17.42808890895937
 20
18.94914893637755
 30
0.0
 10
-17.4810292233827
 20
18.94681035679043
 30
0.0
 10
-17.51614661095853
 20
18.9430540971992
 30
0.0
 10
-17.53370500000011
 20
18.94117600000015
 30
0.0
 11
-17.32224500000012
 21
18.94558400000016
 31
0.0
 11
-17.37511200000045
 21
18.94860200000016
 31
0.0
 11
-17.42808000000042
 21
18.94877100000013
 31
0.0
 11
-17.48098600000031
 21
18.94626100000016
 31
0.0
 11
-17.53370500000011
 21
18.94117600000015
 31
0.0
  0
SPLINE
  5
B96D
330
1F
100
AcDbEntity
  8
AM_0
100
AcDbSpline
210
0.0
220
0.0
230
1.0
 70
     8
 71
     3
 72
    11
 73
     7
 74
     5
 42
0.0000000001
 43
0.0000000001
 44
0.0000000001
 40
0.0
 40
0.0
 40
0.0
 40
0.0
 40
0.2750166979460512
 40
0.5593916148496106
 40
0.8524585503986283
 40
1.153477427311674
 40
1.153477427311674
 40
1.153477427311674
 40
1.153477427311674
 10
-17.32212700000019
 20
18.94557400000013
 30
0.0
 10
-17.4134850953562
 20
18.9531664783079
 30
0.0
 10
-17.59931000297983
 20
18.96860979041589
 30
0.0
 10
-17.88276474143989
 20
18.98859786187481
 30
0.0
 10
-18.17504422173
 20
19.0065294165921
 30
0.0
 10
-18.37286545012332
 20
19.01564778853555
 30
0.0
 10
-18.47310000000044
 20
19.02026800000015
 30
0.0
 11
-17.32212700000019
 21
18.94557400000013
 31
0.0
 11
-17.59624500000046
 21
18.96778900000015
 31
0.0
 11
-17.87990300000029
 21
18.98796900000019
 31
0.0
 11
-18.17243700000045
 21
19.00563500000015
 31
0.0
 11
-18.47310000000044
 21
19.02026800000015
 31
0.0
  0
SPLINE
  5
B96E
330
1F
100
AcDbEntity
  8
AM_0
100
AcDbSpline
210
0.0
220
0.0
230
1.0
 70
     8
 71
     3
 72
    11
 73
     7
 74
     5
 42
0.0000000001
 43
0.0000000001
 44
0.0000000001
 40
0.0
 40
0.0
 40
0.0
 40
0.0
 40
0.1390803027211994
 40
0.279567658682364
 40
0.4216935882554698
 40
0.5654329223852112
 40
0.5654329223852112
 40
0.5654329223852112
 40
0.5654329223852112
 10
-18.08639300000032
 20
18.82357500000017
 30
0.0
 10
-18.04152097372146
 20
18.83523506571864
 30
0.0
 10
-17.95132295803074
 20
18.85867316018074
 30
0.0
 10
-17.81452112526457
 20
18.89096591297433
 30
0.0
 10
-17.67547710877588
 20
18.92071292012974
 30
0.0
 10
-17.58113984733743
 20
18.93432935662237
 30
0.0
 10
-17.53370500000011
 20
18.94117600000015
 30
0.0
 11
-18.08639300000032
 21
18.82357500000017
 31
0.0
 11
-17.95165400000024
 21
18.85805300000015
 31
0.0
 11
-17.81493300000039
 21
18.89036500000014
 31
0.0
 11
-17.67572900000033
 21
18.91903600000017
 31
0.0
 11
-17.53370500000011
 21
18.94117600000015
 31
0.0
  0
SPLINE
  5
B96F
330
1F
100
AcDbEntity
  8
AM_0
100
AcDbSpline
210
0.0
220
0.0
230
1.0
 70
     8
 71
     3
 72
    11
 73
     7
 74
     5
 42
0.0000000001
 43
0.0000000001
 44
0.0000000001
 40
0.0
 40
0.0
 40
0.0
 40
0.0
 40
0.3182968794600001
 40
0.646356096861537
 40
0.9826208260616194
 40
1.3251105730962
 40
1.3251105730962
 40
1.3251105730962
 40
1.3251105730962
 10
-18.08639300000032
 20
18.82357500000017
 30
0.0
 10
-18.19217608567781
 20
18.83179064586102
 30
0.0
 10
-18.40698668164868
 20
18.84847391589754
 30
0.0
 10
-18.73402664241633
 20
18.86691610320337
 30
0.0
 10
-19.06937555615272
 20
18.88068455586923
 30
0.0
 10
-19.29560491772412
 20
18.88437490360588
 30
0.0
 10
-19.40975700000018
 20
18.88623700000016
 30
0.0
 11
-18.08639300000032
 21
18.82357500000017
 31
0.0
 11
-18.40381800000028
 21
18.84711800000019
 31
0.0
 11
-18.73133700000045
 21
18.8659370000002
 31
0.0
 11
-19.06733900000046
 21
18.87922700000018
 31
0.0
 11
-19.40975700000018
 21
18.88623700000016
 31
0.0
  0
SPLINE
  5
B970
330
1F
100
AcDbEntity
  8
AM_0
100
AcDbSpline
210
0.0
220
0.0
230
1.0
 70
     8
 71
     3
 72
    11
 73
     7
 74
     5
 42
0.0000000001
 43
0.0000000001
 44
0.0000000001
 40
0.0
 40
0.0
 40
0.0
 40
0.0
 40
0.9863483733609946
 40
1.973133746945303
 40
2.95938647201833
 40
3.944096672737789
 40
3.944096672737789
 40
3.944096672737789
 40
3.944096672737789
 10
-21.82241300000015
 20
18.8941700000002
 30
0.0
 10
-21.53235560670629
 20
18.73543492618292
 30
0.0
 10
-20.95211231060907
 20
18.41789445120302
 30
0.0
 10
-19.96400914320726
 20
18.24539192809829
 30
0.0
 10
-18.96303860355453
 20
18.35768766663436
 30
0.0
 10
-18.37845569816967
 20
18.66836026890008
 30
0.0
 10
-18.08639300000032
 20
18.82357500000017
 30
0.0
 11
-21.82241300000015
 21
18.8941700000002
 31
0.0
 11
-20.93260900000024
 21
18.46857400000016
 31
0.0
 11
-19.96159300000027
 21
18.29286600000017
 31
0.0
 11
-18.98315800000028
 21
18.41679900000014
 31
0.0
 11
-18.08639300000032
 21
18.82357500000017
 31
0.0
  0
SPLINE
  5
B971
330
1F
100
AcDbEntity
  8
AM_0
100
AcDbSpline
210
0.0
220
0.0
230
1.0
 70
     8
 71
     3
 72
    11
 73
     7
 74
     5
 42
0.0000000001
 43
0.0000000001
 44
0.0000000001
 40
0.0
 40
0.0
 40
0.0
 40
0.0
 40
0.1648236700779985
 40
0.3278512350142462
 40
0.4891670594115696
 40
0.6491331369718918
 40
0.6491331369718918
 40
0.6491331369718918
 40
0.6491331369718918
 10
-22.45315800000031
 20
19.04439700000017
 30
0.0
 10
-22.39876105131872
 20
19.03647621803737
 30
0.0
 10
-22.29055992463694
 20
19.02072096791126
 30
0.0
 10
-22.13194041633024
 20
18.98227429831526
 30
0.0
 10
-21.97610552861479
 20
18.94016821183043
 30
0.0
 10
-21.87350015672429
 20
18.90945973384727
 30
0.0
 10
-21.82241300000015
 20
18.8941700000002
 30
0.0
 11
-22.45315800000031
 21
19.04439700000017
 31
0.0
 11
-22.29044500000037
 21
19.01810400000016
 31
0.0
 11
-22.13159000000024
 21
18.98145600000015
 31
0.0
 11
-21.97586600000028
 21
18.93935100000016
 31
0.0
 11
-21.82241300000015
 21
18.8941700000002
 31
0.0
  0
SPLINE
  5
B972
330
1F
100
AcDbEntity
  8
AM_0
100
AcDbSpline
210
0.0
220
0.0
230
1.0
 70
     8
 71
     3
 72
    11
 73
     7
 74
     5
 42
0.0000000001
 43
0.0000000001
 44
0.0000000001
 40
0.0
 40
0.0
 40
0.0
 40
0.0
 40
0.1445304379603009
 40
0.289070465443954
 40
0.4336870622265622
 40
0.5783754573730353
 40
0.5783754573730353
 40
0.5783754573730353
 40
0.5783754573730353
 10
-30.41801300000026
 20
18.72057400000016
 30
0.0
 10
-30.40741109010569
 20
18.76818848845167
 30
0.0
 10
-30.38620656688506
 20
18.86342062455253
 30
0.0
 10
-30.29174828331762
 20
18.97854179345086
 30
0.0
 10
-30.16555100517616
 20
19.0573075776731
 30
0.0
 10
-30.06846769961958
 20
19.06718037582946
 30
0.0
 10
-30.01991400000025
 20
19.07211800000015
 30
0.0
 11
-30.41801300000026
 21
18.72057400000016
 31
0.0
 11
-30.37576900000027
 21
18.85879300000016
 31
0.0
 11
-30.28648500000036
 21
18.97246000000012
 31
0.0
 11
-30.16234100000048
 21
19.0466370000002
 31
0.0
 11
-30.01991400000025
 21
19.07211800000015
 31
0.0
  0
SPLINE
  5
B973
330
1F
100
AcDbEntity
  8
AM_0
100
AcDbSpline
210
0.0
220
0.0
230
1.0
 70
     8
 71
     3
 72
    11
 73
     7
 74
     5
 42
0.0000000001
 43
0.0000000001
 44
0.0000000001
 40
0.0
 40
0.0
 40
0.0
 40
0.0
 40
0.5351365005475735
 40
1.070309625690938
 40
1.605561411516079
 40
2.140955705308305
 40
2.140955705308305
 40
2.140955705308305
 40
2.140955705308305
 10
-6.734623000000084
 20
3.940565000000191
 30
0.0
 10
-6.877753795827324
 20
4.047019607856777
 30
0.0
 10
-7.164025183314337
 20
4.259936109294205
 30
0.0
 10
-7.593461877100884
 20
4.579325210212592
 30
0.0
 10
-8.022974497011682
 20
4.898756215665826
 30
0.0
 10
-8.309357459369923
 20
5.111710623481753
 30
0.0
 10
-8.452568000000411
 20
5.218202000000218
 30
0.0
 11
-6.734623000000084
 21
3.940565000000191
 31
0.0
 11
-7.16401600000043
 21
4.259928000000201
 31
0.0
 11
-7.593442000000123
 21
4.579308000000168
 31
0.0
 11
-8.02294000000009
 21
4.898723000000217
 31
0.0
 11
-8.452568000000411
 21
5.218202000000218
 31
0.0
  0
SPLINE
  5
B974
330
1F
100
AcDbEntity
  8
AM_0
100
AcDbSpline
210
0.0
220
0.0
230
1.0
 70
     8
 71
     3
 72
    11
 73
     7
 74
     5
 42
0.0000000001
 43
0.0000000001
 44
0.0000000001
 40
0.0
 40
0.0
 40
0.0
 40
0.0
 40
0.4280505132854816
 40
0.8573418987662975
 40
1.287834527489455
 40
1.71941981398225
 40
1.71941981398225
 40
1.71941981398225
 40
1.71941981398225
 10
-7.904071000000186
 20
2.696367000000208
 30
0.0
 10
-7.789103929962942
 20
2.781124993795253
 30
0.0
 10
-7.558836512772414
 20
2.950886685652875
 30
0.0
 10
-7.250205705106995
 20
3.250759118474465
 30
0.0
 10
-6.96920905069246
 20
3.578201831701902
 30
0.0
 10
-6.81288439582672
 20
3.819675257138305
 30
0.0
 10
-6.734623000000084
 20
3.940565000000191
 30
0.0
 11
-7.904071000000186
 21
2.696367000000208
 31
0.0
 11
-7.565353000000214
 21
2.958087000000176
 31
0.0
 11
-7.255221000000148
 21
3.254919000000171
 31
0.0
 11
-6.977242000000188
 21
3.583631000000167
 31
0.0
 11
-6.734623000000084
 21
3.940565000000191
 31
0.0
  0
SPLINE
  5
B975
330
1F
100
AcDbEntity
  8
AM_0
100
AcDbSpline
210
0.0
220
0.0
230
1.0
 70
     8
 71
     3
 72
    11
 73
     7
 74
     5
 42
0.0000000001
 43
0.0000000001
 44
0.0000000001
 40
0.0
 40
0.0
 40
0.0
 40
0.0
 40
0.9561905091270585
 40
1.900620916399156
 40
2.845519991247698
 40
3.807582440344683
 40
3.807582440344683
 40
3.807582440344683
 40
3.807582440344683
 10
-11.55704600000015
 20
2.528419000000155
 30
0.0
 10
-11.25729056399022
 20
2.416060396847354
 30
0.0
 10
-10.66146635736329
 20
2.1927250789884
 30
0.0
 10
-9.708247527652712
 20
2.108379862185262
 30
0.0
 10
-8.747266285315097
 20
2.227784848723647
 30
0.0
 10
-8.186817512012366
 20
2.539238549246205
 30
0.0
 10
-7.904071000000186
 20
2.696367000000208
 30
0.0
 11
-11.55704600000015
 21
2.528419000000155
 31
0.0
 11
-10.64743700000033
 21
2.233611000000166
 31
0.0
 11
-9.707445000000262
 21
2.142157000000167
 31
0.0
 11
-8.773242000000465
 21
2.283928000000202
 31
0.0
 11
-7.904071000000186
 21
2.696367000000208
 31
0.0
  0
SPLINE
  5
B976
330
1F
100
AcDbEntity
  8
AM_0
100
AcDbSpline
210
0.0
220
0.0
230
1.0
 70
     8
 71
     3
 72
    11
 73
     7
 74
     5
 42
0.0000000001
 43
0.0000000001
 44
0.0000000001
 40
0.0
 40
0.0
 40
0.0
 40
0.0
 40
0.6614513654903565
 40
1.317667883363847
 40
1.965453340221321
 40
2.606372037649486
 40
2.606372037649486
 40
2.606372037649486
 40
2.606372037649486
 10
-6.454289000000272
 20
4.57698400000018
 30
0.0
 10
-6.396226242251731
 20
4.790663650177219
 30
0.0
 10
-6.280560246085753
 20
5.216331850526274
 30
0.0
 10
-6.285227985305001
 20
5.877848997933546
 30
0.0
 10
-6.394511001297516
 20
6.520713560303653
 30
0.0
 10
-6.554949962590768
 20
6.920411105818711
 30
0.0
 10
-6.634742000000471
 20
7.119195000000189
 30
0.0
 11
-6.454289000000272
 21
4.57698400000018
 31
0.0
 11
-6.31003600000011
 21
5.222514000000188
 31
0.0
 11
-6.303019000000205
 21
5.878693000000197
 31
0.0
 11
-6.417139000000418
 21
6.516347000000195
 31
0.0
 11
-6.634742000000471
 21
7.119195000000189
 31
0.0
  0
SPLINE
  5
B977
330
1F
100
AcDbEntity
  8
AM_0
100
AcDbSpline
210
0.0
220
0.0
230
1.0
 70
     8
 71
     3
 72
    11
 73
     7
 74
     5
 42
0.0000000001
 43
0.0000000001
 44
0.0000000001
 40
0.0
 40
0.0
 40
0.0
 40
0.0
 40
0.1738808035925339
 40
0.3478861486425515
 40
0.5219902791652076
 40
0.6961852275246788
 40
0.6961852275246788
 40
0.6961852275246788
 40
0.6961852275246788
 10
-6.734623000000084
 20
3.940565000000191
 30
0.0
 10
-6.707512185020233
 20
3.991804713082927
 30
0.0
 10
-6.653271137043468
 20
4.094320839496019
 30
0.0
 10
-6.580265707402105
 20
4.252333946967677
 30
0.0
 10
-6.512929975741695
 20
4.412957992642757
 30
0.0
 10
-6.473839389494586
 20
4.522299160764641
 30
0.0
 10
-6.454289000000272
 20
4.57698400000018
 30
0.0
 11
-6.734623000000084
 21
3.940565000000191
 31
0.0
 11
-6.654686000000111
 21
4.094982000000157
 31
0.0
 11
-6.581231000000371
 21
4.252723000000202
 31
0.0
 11
-6.514394000000066
 21
4.41348700000023
 31
0.0
 11
-6.454289000000272
 21
4.57698400000018
 31
0.0
  0
SPLINE
  5
B978
330
1F
100
AcDbEntity
  8
AM_0
100
AcDbSpline
210
0.0
220
0.0
230
1.0
 70
     8
 71
     3
 72
    11
 73
     7
 74
     5
 42
0.0000000001
 43
0.0000000001
 44
0.0000000001
 40
0.0
 40
0.0
 40
0.0
 40
0.0
 40
0.7937602794056538
 40
1.591607549424875
 40
2.391364994479225
 40
3.191597314738784
 40
3.191597314738784
 40
3.191597314738784
 40
3.191597314738784
 10
-46.7372420000004
 20
3.608615000000099
 30
0.0
 10
-46.56206820352773
 20
3.408558385230862
 30
0.0
 10
-46.21081865859444
 20
3.007415084614307
 30
0.0
 10
-45.52564777110696
 20
2.582118522983028
 30
0.0
 10
-44.75982890718702
 20
2.312991049934701
 30
0.0
 10
-44.22295208387969
 20
2.314614189396307
 30
0.0
 10
-43.95443400000025
 20
2.315426000000115
 30
0.0
 11
-46.7372420000004
 21
3.608615000000099
 31
0.0
 11
-46.18566100000023
 21
3.037814000000139
 31
0.0
 11
-45.51310200000014
 21
2.608600000000137
 31
0.0
 11
-44.75351600000024
 21
2.35831800000011
 31
0.0
 11
-43.95443400000025
 21
2.315426000000115
 31
0.0
  0
SPLINE
  5
B979
330
1F
100
AcDbEntity
  8
AM_0
100
AcDbSpline
210
0.0
220
0.0
230
1.0
 70
     8
 71
     3
 72
    11
 73
     7
 74
     5
 42
0.0000000001
 43
0.0000000001
 44
0.0000000001
 40
0.0
 40
0.0
 40
0.0
 40
0.0
 40
1.238824187278143
 40
2.467094523305608
 40
3.674336626665575
 40
4.855668605518334
 40
4.855668605518334
 40
4.855668605518334
 40
4.855668605518334
 10
-38.68925000000015
 20
2.758207000000084
 30
0.0
 10
-38.27798668250187
 20
2.846842924908937
 30
0.0
 10
-37.45896370195628
 20
3.023359663245483
 30
0.0
 10
-36.55419588636699
 20
3.935241552973141
 30
0.0
 10
-36.09600983357927
 20
5.092679715685736
 30
0.0
 10
-36.16253314903829
 20
5.895127429941944
 30
0.0
 10
-36.19543400000049
 20
6.291999000000174
 30
0.0
 11
-38.68925000000015
 21
2.758207000000084
 31
0.0
 11
-37.50879500000044
 21
3.13398800000013
 31
0.0
 11
-36.62307700000045
 21
3.984959000000145
 31
0.0
 11
-36.18701800000033
 21
5.110697000000101
 31
0.0
 11
-36.19543400000049
 21
6.291999000000174
 31
0.0
  0
SPLINE
  5
B97A
330
1F
100
AcDbEntity
  8
AM_0
100
AcDbSpline
210
0.0
220
0.0
230
1.0
 70
     8
 71
     3
 72
    11
 73
     7
 74
     5
 42
0.0000000001
 43
0.0000000001
 44
0.0000000001
 40
0.0
 40
0.0
 40
0.0
 40
0.0
 40
3.024335327634346
 40
6.033730545204063
 40
8.998031268980014
 40
11.85755933441556
 40
11.85755933441556
 40
11.85755933441556
 40
11.85755933441556
 10
-26.68948000000026
 20
2.937840000000164
 30
0.0
 10
-27.67441220047913
 20
3.16793960408205
 30
0.0
 10
-29.63941107103524
 20
3.627002128300957
 30
0.0
 10
-32.33301716435636
 20
4.999417325665479
 30
0.0
 10
-34.73204966028458
 20
6.735463400325707
 30
0.0
 10
-36.04367541774561
 20
8.172706631433964
 30
0.0
 10
-36.68769000000049
 20
8.878400000000141
 30
0.0
 11
-26.68948000000026
 21
2.937840000000164
 31
0.0
 11
-29.60438700000011
 21
3.744017000000155
 31
0.0
 11
-32.3044260000004
 21
5.073020000000127
 31
0.0
 11
-34.69053400000012
 21
6.831874000000112
 31
0.0
 11
-36.68769000000049
 21
8.878400000000141
 31
0.0
  0
SPLINE
  5
B97B
330
1F
100
AcDbEntity
  8
AM_0
100
AcDbSpline
210
0.0
220
0.0
230
1.0
 70
     8
 71
     3
 72
    11
 73
     7
 74
     5
 42
0.0000000001
 43
0.0000000001
 44
0.0000000001
 40
0.0
 40
0.0
 40
0.0
 40
0.0
 40
0.0210971062473893
 40
0.042903410106397
 40
0.0653420055171682
 40
0.0885466220402763
 40
0.0885466220402763
 40
0.0885466220402763
 40
0.0885466220402763
 10
-37.75699800000012
 20
8.613898000000119
 30
0.0
 10
-37.76387178690433
 20
8.612397665725209
 30
0.0
 10
-37.7778504290497
 20
8.609346562131269
 30
0.0
 10
-37.79947148709521
 20
8.60657040154302
 30
0.0
 10
-37.82186353138945
 20
8.604449869296642
 30
0.0
 10
-37.83707740000127
 20
8.604049529374519
 30
0.0
 10
-37.8448120000001
 20
8.603846000000089
 30
0.0
 11
-37.75699800000012
 21
8.613898000000119
 31
0.0
 11
-37.77767200000045
 21
8.609694000000104
 31
0.0
 11
-37.79927400000025
 21
8.606716000000119
 31
0.0
 11
-37.82162400000044
 21
8.604724000000146
 31
0.0
 11
-37.8448120000001
 21
8.603846000000089
 31
0.0
  0
SPLINE
  5
B97C
330
1F
100
AcDbEntity
  8
AM_0
100
AcDbSpline
210
0.0
220
0.0
230
1.0
 70
     8
 71
     3
 72
    11
 73
     7
 74
     5
 42
0.0000000001
 43
0.0000000001
 44
0.0000000001
 40
0.0
 40
0.0
 40
0.0
 40
0.0
 40
0.1152653515329866
 40
0.2299476802894095
 40
0.3439660890881696
 40
0.4572725766782752
 40
0.4572725766782752
 40
0.4572725766782752
 40
0.4572725766782752
 10
-47.68629200000015
 20
15.14786500000013
 30
0.0
 10
-47.70348099141402
 20
15.11341607800301
 30
0.0
 10
-47.73777203073818
 20
15.04469247983271
 30
0.0
 10
-47.76906962036097
 20
14.93383661856271
 30
0.0
 10
-47.78602264776077
 20
14.82056328667972
 30
0.0
 10
-47.78306446116886
 20
14.74469456199377
 30
0.0
 10
-47.78159000000033
 20
14.70687900000007
 30
0.0
 11
-47.68629200000015
 21
15.14786500000013
 31
0.0
 11
-47.73450000000031
 21
15.0431650000001
 31
0.0
 11
-47.76674800000029
 21
14.93311000000011
 31
0.0
 11
-47.78247900000025
 21
14.8201820000001
 31
0.0
 11
-47.78159000000033
 21
14.70687900000007
 31
0.0
  0
SPLINE
  5
B97D
330
1F
100
AcDbEntity
  8
AM_0
100
AcDbSpline
210
0.0
220
0.0
230
1.0
 70
     8
 71
     3
 72
    11
 73
     7
 74
     5
 42
0.0000000001
 43
0.0000000001
 44
0.0000000001
 40
0.0
 40
0.0
 40
0.0
 40
0.0
 40
0.190543520120804
 40
0.3821663214911217
 40
0.5740211873508231
 40
0.7651767441623604
 40
0.7651767441623604
 40
0.7651767441623604
 40
0.7651767441623604
 10
-47.07221700000019
 20
15.55837100000007
 30
0.0
 10
-47.13495915347145
 20
15.54659679050578
 30
0.0
 10
-47.26079884604846
 20
15.52298167975288
 30
0.0
 10
-47.4321666131741
 20
15.43285777796341
 30
0.0
 10
-47.58175079170361
 20
15.30940198617006
 30
0.0
 10
-47.65148737277427
 20
15.20164508039568
 30
0.0
 10
-47.68629200000015
 20
15.14786500000013
 30
0.0
 11
-47.07221700000019
 21
15.55837100000007
 31
0.0
 11
-47.25752300000027
 21
15.51400300000011
 31
0.0
 11
-47.42843700000031
 21
15.42735600000014
 31
0.0
 11
-47.57441400000044
 21
15.30286100000012
 31
0.0
 11
-47.68629200000015
 21
15.14786500000013
 31
0.0
  0
SPLINE
  5
B97E
330
1F
100
AcDbEntity
  8
AM_0
100
AcDbSpline
210
0.0
220
0.0
230
1.0
 70
     8
 71
     3
 72
    11
 73
     7
 74
     5
 42
0.0000000001
 43
0.0000000001
 44
0.0000000001
 40
0.0
 40
0.0
 40
0.0
 40
0.0
 40
0.2652621340862331
 40
0.5287176104859977
 40
0.793398303285657
 40
1.061413988149418
 40
1.061413988149418
 40
1.061413988149418
 40
1.061413988149418
 10
-38.43021300000037
 20
15.8211250000001
 30
0.0
 10
-38.44632247483375
 20
15.90912685311629
 30
0.0
 10
-38.47843170546116
 20
16.08453119289591
 30
0.0
 10
-38.64077765375133
 20
16.3032137916757
 30
0.0
 10
-38.86707192224814
 20
16.45630182983421
 30
0.0
 10
-39.04496140987301
 20
16.4813350357562
 30
0.0
 10
-39.13446300000015
 20
16.49393000000009
 30
0.0
 11
-38.43021300000037
 21
15.8211250000001
 31
0.0
 11
-38.49769100000031
 21
16.07766100000009
 31
0.0
 11
-38.65099000000038
 21
16.29192300000011
 31
0.0
 11
-38.87266100000016
 21
16.43655300000011
 31
0.0
 11
-39.13446300000015
 21
16.49393000000009
 31
0.0
  0
SPLINE
  5
B97F
330
1F
100
AcDbEntity
  8
AM_0
100
AcDbSpline
210
0.0
220
0.0
230
1.0
 70
     8
 71
     3
 72
    11
 73
     7
 74
     5
 42
0.0000000001
 43
0.0000000001
 44
0.0000000001
 40
0.0
 40
0.0
 40
0.0
 40
0.0
 40
0.0320389853928715
 40
0.0641139395626186
 40
0.0962763469974967
 40
0.1285783471989669
 40
0.1285783471989669
 40
0.1285783471989669
 40
0.1285783471989669
 10
-39.13446300000015
 20
16.49393000000009
 30
0.0
 10
-39.14513964272227
 20
16.49424489570328
 30
0.0
 10
-39.16650491436941
 20
16.49487504062941
 30
0.0
 10
-39.19860041639517
 20
16.49416349857847
 30
0.0
 10
-39.2307398238803
 20
16.49234604874315
 30
0.0
 10
-39.2521071848293
 20
16.49004101337398
 30
0.0
 10
-39.26281400000044
 20
16.48888600000009
 30
0.0
 11
-39.13446300000015
 21
16.49393000000009
 31
0.0
 11
-39.16649500000022
 21
16.4945990000001
 31
0.0
 11
-39.19856400000009
 21
16.49398100000007
 31
0.0
 11
-39.2306700000002
 21
16.4920770000001
 31
0.0
 11
-39.26281400000044
 21
16.48888600000009
 31
0.0
  0
SPLINE
  5
B980
330
1F
100
AcDbEntity
  8
AM_0
100
AcDbSpline
210
0.0
220
0.0
230
1.0
 70
     8
 71
     3
 72
    11
 73
     7
 74
     5
 42
0.0000000001
 43
0.0000000001
 44
0.0000000001
 40
0.0
 40
0.0
 40
0.0
 40
0.0
 40
0.2958911393012687
 40
0.5901682962707559
 40
0.8865407521178351
 40
1.187758429504457
 40
1.187758429504457
 40
1.187758429504457
 40
1.187758429504457
 10
-47.15749600000009
 20
7.012554000000136
 30
0.0
 10
-47.13829644422069
 20
6.914325139131808
 30
0.0
 10
-47.10000205950121
 20
6.718403221361048
 30
0.0
 10
-46.90107076476327
 20
6.484884020527553
 30
0.0
 10
-46.62862401185965
 20
6.341444270408027
 30
0.0
 10
-46.42668311180346
 20
6.343671404317596
 30
0.0
 10
-46.32489400000014
 20
6.344794000000092
 30
0.0
 11
-47.15749600000009
 21
7.012554000000136
 31
0.0
 11
-47.07623500000027
 21
6.728040000000078
 31
0.0
 11
-46.88965200000012
 21
6.500475000000108
 31
0.0
 11
-46.62533500000046
 21
6.366411000000084
 31
0.0
 11
-46.32489400000014
 21
6.344794000000092
 31
0.0
  0
SPLINE
  5
B981
330
1F
100
AcDbEntity
  8
AM_0
100
AcDbSpline
210
0.0
220
0.0
230
1.0
 70
     8
 71
     3
 72
    11
 73
     7
 74
     5
 42
0.0000000001
 43
0.0000000001
 44
0.0000000001
 40
0.0
 40
0.0
 40
0.0
 40
0.0
 40
0.3053687784383789
 40
0.6121843808596457
 40
0.9168866860066852
 40
1.217080398247691
 40
1.217080398247691
 40
1.217080398247691
 40
1.217080398247691
 10
-38.51549100000039
 20
7.275309000000106
 30
0.0
 10
-38.41505950486578
 20
7.298593494863391
 30
0.0
 10
-38.21372067454332
 20
7.345272805513307
 30
0.0
 10
-37.97325067561318
 20
7.549131178202082
 30
0.0
 10
-37.81624029851366
 20
7.821168538287599
 30
0.0
 10
-37.80947529184401
 20
8.025431002905527
 30
0.0
 10
-37.80611800000025
 20
8.126801000000114
 30
0.0
 11
-38.51549100000039
 21
7.275309000000106
 31
0.0
 11
-38.22434400000048
 21
7.367415000000107
 31
0.0
 11
-37.98655900000023
 21
7.561307000000113
 31
0.0
 11
-37.84018000000043
 21
7.828546000000073
 31
0.0
 11
-37.80611800000025
 21
8.126801000000114
 31
0.0
  0
ELLIPSE
  5
B982
330
1F
100
AcDbEntity
  8
AM_0
100
AcDbEllipse
 10
-18.82277900000033
 20
1.003249000000153
 30
0.0
 11
-17.69713090282901
 21
3.126133692361964
 31
0.0
210
0.0
220
0.0
230
1.0
 40
0.0301537132911
 41
3.266474973325339
 42
3.462878881120259
  0
ELLIPSE
  5
B983
330
1F
100
AcDbEntity
  8
AM_0
100
AcDbEllipse
 10
-5.219924000000247
 20
0.6702900000002217
 30
0.0
 11
0.0058186453809961
 21
1.999991535824
 31
0.0
210
0.0
220
0.0
230
1.0
 40
0.9848079999999999
 41
3.39110658889185
 42
3.521871046397479
  0
SPLINE
  5
B984
330
1F
100
AcDbEntity
  8
AM_0
100
AcDbSpline
210
0.0
220
0.0
230
1.0
 70
     8
 71
     3
 72
    11
 73
     7
 74
     5
 42
0.0000000001
 43
0.0000000001
 44
0.0000000001
 40
0.0
 40
0.0
 40
0.0
 40
0.0
 40
0.0812974389880736
 40
0.1621829811882372
 40
0.2427097522025031
 40
0.322972334892283
 40
0.322972334892283
 40
0.322972334892283
 40
0.322972334892283
 10
-0.4698820000001263
 20
-1.796374999999784
 30
0.0
 10
-0.4949214571562447
 20
-1.806812973317216
 30
0.0
 10
-0.5448735080383171
 20
-1.82763603553487
 30
0.0
 10
-0.6232763336458957
 20
-1.848381937579596
 30
0.0
 10
-0.7029235645521964
 20
-1.861755603810601
 30
0.0
 10
-0.7565572294909019
 20
-1.863260692259112
 30
0.0
 10
-0.7833300000004613
 20
-1.864011999999775
 30
0.0
 11
-0.4698820000001263
 21
-1.796374999999784
 31
0.0
 11
-0.5456130000002588
 21
-1.825939999999775
 31
0.0
 11
-0.6236570000003497
 21
-1.847190999999781
 31
0.0
 11
-0.7031720000002509
 21
-1.85991599999977
 31
0.0
 11
-0.7833300000004613
 21
-1.864011999999775
 31
0.0
  0
SPLINE
  5
B985
330
1F
100
AcDbEntity
  8
AM_0
100
AcDbSpline
210
0.0
220
0.0
230
1.0
 70
     8
 71
     3
 72
    11
 73
     7
 74
     5
 42
0.0000000001
 43
0.0000000001
 44
0.0000000001
 40
0.0
 40
0.0
 40
0.0
 40
0.0
 40
0.6237202821939575
 40
1.246120966764499
 40
1.867146733252687
 40
2.486735383782173
 40
2.486735383782173
 40
2.486735383782173
 40
2.486735383782173
 10
-3.383610000000118
 20
-1.391144999999795
 30
0.0
 10
-3.587970373326496
 20
-1.352908115614096
 30
0.0
 10
-3.996258757154666
 20
-1.27651524416671
 30
0.0
 10
-4.607994041506314
 20
-1.161887118514736
 30
0.0
 10
-5.218354700988671
 20
-1.04740076184167
 30
0.0
 10
-5.624782501030991
 20
-0.9710447705953788
 30
0.0
 10
-5.827761000000265
 20
-0.9329109999997911
 30
0.0
 11
-3.383610000000118
 21
-1.391144999999795
 31
0.0
 11
-3.99668600000021
 21
-1.276406999999807
 31
0.0
 11
-4.608441000000112
 21
-1.161783999999812
 31
0.0
 11
-5.218820000000306
 21
-1.047282999999794
 31
0.0
 11
-5.827761000000265
 21
-0.9329109999997911
 31
0.0
  0
SPLINE
  5
B986
330
1F
100
AcDbEntity
  8
AM_0
100
AcDbSpline
210
0.0
220
0.0
230
1.0
 70
     8
 71
     3
 72
    11
 73
     7
 74
     5
 42
0.0000000001
 43
0.0000000001
 44
0.0000000001
 40
0.0
 40
0.0
 40
0.0
 40
0.0
 40
0.2295733724629117
 40
0.4587404807768646
 40
0.6861120290586749
 40
0.9108808026236754
 40
0.9108808026236754
 40
0.9108808026236754
 40
0.9108808026236754
 10
-0.0000000000002558
 20
-1.068411999999796
 30
0.0
 10
-0.0074237904437279
 20
-1.145128144361367
 30
0.0
 10
-0.0222582338318664
 20
-1.298424672483156
 30
0.0
 10
-0.1234465044670959
 20
-1.507776420149632
 30
0.0
 10
-0.2714950541883581
 20
-1.685324587428428
 30
0.0
 10
-0.4040072897862099
 20
-1.759500528661257
 30
0.0
 10
-0.4698820000001263
 20
-1.796374999999784
 30
0.0
 11
-0.0000000000002558
 21
-1.068411999999796
 31
0.0
 11
-0.0355000000002122
 21
-1.295223999999791
 31
0.0
 11
-0.1317430000001707
 21
-1.50320199999976
 31
0.0
 11
-0.2807250000003307
 21
-1.674963999999818
 31
0.0
 11
-0.4698820000001263
 21
-1.796374999999784
 31
0.0
  0
SPLINE
  5
B987
330
1F
100
AcDbEntity
  8
AM_0
100
AcDbSpline
210
0.0
220
0.0
230
1.0
 70
     8
 71
     3
 72
    11
 73
     7
 74
     5
 42
0.0000000001
 43
0.0000000001
 44
0.0000000001
 40
0.0
 40
0.0
 40
0.0
 40
0.0
 40
0.0336459671578177
 40
0.0672774984640183
 40
0.1008910461047614
 40
0.1345182690797094
 40
0.1345182690797094
 40
0.1345182690797094
 40
0.1345182690797094
 10
-0.7833300000004613
 20
-1.864011999999775
 30
0.0
 10
-0.7945461068253957
 20
-1.863834733548564
 30
0.0
 10
-0.8169735081881606
 20
-1.863480276702575
 30
0.0
 10
-0.8505263405018965
 20
-1.860986852613405
 30
0.0
 10
-0.8839510712490811
 20
-1.857196076744015
 30
0.0
 10
-0.9060415261745752
 20
-1.853378284400287
 30
0.0
 10
-0.9170890000002884
 20
-1.851468999999781
 30
0.0
 11
-0.7833300000004613
 21
-1.864011999999775
 31
0.0
 11
-0.8169650000002377
 21
-1.863152999999783
 31
0.0
 11
-0.8505120000002364
 21
-1.860769999999774
 31
0.0
 11
-0.8838990000001842
 21
-1.856873999999777
 31
0.0
 11
-0.9170890000002884
 21
-1.851468999999781
 31
0.0
  0
ELLIPSE
  5
B988
330
1F
100
AcDbEntity
  8
AM_0
100
AcDbEllipse
 10
-45.35343100000028
 20
6.348681000000112
 30
0.0
 11
-137.2231762466791
 21
78.86706280644974
 31
0.0
210
0.0
220
0.0
230
1.0
 40
0.08708642310548
 41
4.470596116587449
 42
4.514686144099009
  0
ELLIPSE
  5
B989
330
1F
100
AcDbEntity
  8
AM_0
100
AcDbEllipse
 10
-44.32559700000029
 20
8.137040000000069
 30
0.0
 11
-136.9868366721921
 21
78.73123000783272
 31
0.0
210
0.0
220
0.0
230
1.0
 40
0.08708642405063
 41
4.436938295608139
 42
4.49363135438307
  0
ELLIPSE
  5
B98A
330
1F
100
AcDbEntity
  8
AM_0
100
AcDbEllipse
 10
-5.164906000000229
 20
2.313618000000218
 30
0.0
 11
-1.048389945996011
 21
6.269229420140995
 31
0.0
210
0.0
220
0.0
230
1.0
 40
0.5533452323173101
 41
1.93561133444003
 42
2.202810090366519
  0
ELLIPSE
  5
B98B
330
1F
100
AcDbEntity
  8
AM_0
100
AcDbEllipse
 10
0.2383569999999224
 20
-1.94156799999979
 30
0.0
 11
-8.287982464266002
 21
1.464041904052983
 31
0.0
210
0.0
220
0.0
230
0.9999999999999998
 40
0.03015363762072
 41
0.09788357802199
 42
1.302478966605179
  0
ELLIPSE
  5
B98C
330
1F
100
AcDbEntity
  8
AM_0
100
AcDbEllipse
 10
-64.26769700000026
 20
4.802734000000072
 30
0.0
 11
-168.730648379291
 21
29.91806831717466
 31
0.0
210
0.0
220
0.0
230
1.0
 40
0.02828555063435
 41
4.363731742243389
 42
4.37716345472944
  0
SPLINE
  5
B98D
330
1F
100
AcDbEntity
  8
AM_0
100
AcDbSpline
210
0.0
220
0.0
230
1.0
 70
     8
 71
     3
 72
    11
 73
     7
 74
     5
 42
0.0000000001
 43
0.0000000001
 44
0.0000000001
 40
0.0
 40
0.0
 40
0.0
 40
0.0
 40
0.4438259897178113
 40
0.88782906799544
 40
1.332000234182543
 40
1.776330116204895
 40
1.776330116204895
 40
1.776330116204895
 40
1.776330116204895
 10
-0.0476950000004592
 20
0.7067580000002068
 30
0.0
 10
-0.0382366543651622
 20
0.5591120979927009
 30
0.0
 10
-0.0193161891722527
 20
0.2637613826008091
 30
0.0
 10
-0.0032795481822138
 20
-0.1799942082006728
 30
0.0
 10
0.0045299753426798
 20
-0.6241385359270016
 30
0.0
 10
0.0015101715931815
 20
-0.9203032103554907
 30
0.0
 10
-0.0000000000002558
 20
-1.068411999999796
 30
0.0
 11
-0.0476950000004592
 21
0.7067580000002068
 31
0.0
 11
-0.0213770000002853
 21
0.263713000000223
 31
0.0
 11
-0.0046530000002178
 21
-0.1799749999997857
 31
0.0
 11
0.0024729999997533
 21
-0.624088999999799
 31
0.0
 11
-0.0000000000002558
 21
-1.068411999999796
 31
0.0
  0
LINE
  5
B98F
330
1F
100
AcDbEntity
  8
AM_0
100
AcDbLine
 10
-277.0330127018924
 20
20.99999999999967
 30
0.0
 11
-180.0000000000004
 21
20.99999999999984
 31
0.0
  0
ARC
  5
B990
330
1F
100
AcDbEntity
  8
AM_0
100
AcDbCircle
 10
-278.0000000000002
 20
18.67034417356036
 30
0.0
 40
2.0
100
AcDbArc
 50
104.9999999999944
 51
180.0
  0
LINE
  5
B991
330
1F
100
AcDbEntity
  8
AM_0
100
AcDbLine
 10
-278.5176380902053
 20
20.60219582613849
 30
0.0
 11
-277.0330127018924
 21
20.99999999999967
 31
0.0
  0
LINE
  5
B992
330
1F
100
AcDbEntity
  8
AM_0
100
AcDbLine
 10
-31.30363400000016
 20
18.00000000000014
 30
0.0
 11
-175.4174243050444
 21
17.99999999999982
 31
0.0
  0
LINE
  5
B993
330
1F
100
AcDbEntity
  8
AM_7
100
AcDbLine
 10
5.965856086889488
 20
0.0000000000002274
 30
0.0
 11
-285.8139880324052
 21
-0.0000000000003503
 31
0.0
1001
GENIUS_GENODEF_13
1002
{
1000
HIER
1070
     0
1002
}
1002
{
1000
MANEDIT
1070
     0
1002
}
1002
{
1000
NOSEL
1070
     0
1002
}
1002
{
1000
BEHIND
1070
     0
1002
}
1002
{
1000
REACTOR
1002
}
1001
GENIUS_GENOBJ-N-CEN_13
1002
{
1000
OWNER
1000
GEN
1002
}
  0
ARC
  5
B997
330
1F
100
AcDbEntity
  8
AM_0
100
AcDbCircle
 10
-175.4174243050444
 20
22.99999999999984
 30
0.0
 40
4.999999999999995
100
AcDbArc
 50
203.578178478203
 51
270.0
  0
LINE
  5
B998
330
1F
100
AcDbEntity
  8
AM_0
100
AcDbLine
 10
-28.26427700000024
 20
3.689604000000201
 30
0.0
 11
-34.62434500000046
 21
10.18547400000014
 31
0.0
  0
LINE
  5
B999
330
1F
100
AcDbEntity
  8
AM_0
100
AcDbLine
 10
-31.30363400000016
 20
18.00000000000014
 30
0.0
 11
-43.3237430000002
 21
18.00000000000011
 31
0.0
  0
LINE
  5
B99A
330
1F
100
AcDbEntity
  8
AM_0
100
AcDbLine
 10
-30.90137600000008
 20
15.17466600000014
 30
0.0
 11
-35.68651600000049
 21
15.18858500000013
 31
0.0
  0
LINE
  5
B99B
330
1F
100
AcDbEntity
  8
AM_0
100
AcDbLine
 10
-35.2609350000003
 20
15.08734700000016
 30
0.0
 11
-32.90820300000024
 21
15.08050300000016
 31
0.0
  0
LINE
  5
B99C
330
1F
100
AcDbEntity
  8
AM_11
100
AcDbLine
 10
-20.00000000000028
 20
20.00000000000017
 30
0.0
 11
-50.00000000000028
 21
20.00000000000011
 31
0.0
  0
LINE
  5
B99D
330
1F
100
AcDbEntity
  8
AM_0
100
AcDbLine
 10
-47.39800900000028
 20
18.00000000000011
 30
0.0
 11
-71.00000000000028
 21
18.00000000000005
 31
0.0
  0
LINE
  5
B99E
330
1F
100
AcDbEntity
  8
AM_0
100
AcDbLine
 10
-38.11816600000048
 20
11.97396300000014
 30
0.0
 11
-38.43021300000037
 21
15.8211250000001
 31
0.0
  0
LINE
  5
B99F
330
1F
100
AcDbEntity
  8
AM_0
100
AcDbLine
 10
-40.42936400000036
 20
13.26103900000009
 30
0.0
 11
-40.51505700000035
 21
14.31752900000009
 31
0.0
  0
LINE
  5
B9A0
330
1F
100
AcDbEntity
  8
AM_0
100
AcDbLine
 10
-41.5873480000003
 20
14.18976200000008
 30
0.0
 11
-40.51505700000035
 21
14.31752900000009
 31
0.0
  0
LINE
  5
B9A1
330
1F
100
AcDbEntity
  8
AM_0
100
AcDbLine
 10
-47.46954300000044
 20
10.8597170000001
 30
0.0
 11
-47.78159000000033
 21
14.70687900000007
 31
0.0
  0
LINE
  5
B9A2
330
1F
100
AcDbEntity
  8
AM_0
100
AcDbLine
 10
-45.61226600000037
 20
13.71018000000009
 30
0.0
 11
-47.07221700000019
 21
15.55837100000007
 31
0.0
  0
LINE
  5
B9A3
330
1F
100
AcDbEntity
  8
AM_0
100
AcDbLine
 10
-47.78159000000033
 20
14.70687900000007
 30
0.0
 11
-45.61226600000037
 21
13.71018000000009
 31
0.0
  0
LINE
  5
B9A4
330
1F
100
AcDbEntity
  8
AM_0
100
AcDbLine
 10
-46.32489400000014
 20
6.344794000000092
 30
0.0
 11
-42.42019300000021
 21
6.810052000000098
 31
0.0
  0
LINE
  5
B9A5
330
1F
100
AcDbEntity
  8
AM_0
100
AcDbLine
 10
-46.32489400000014
 20
6.344794000000092
 30
0.0
 11
-45.20491800000018
 21
8.688083000000119
 31
0.0
  0
LINE
  5
B9A6
330
1F
100
AcDbEntity
  8
AM_0
100
AcDbLine
 10
-45.20491800000018
 20
8.688083000000119
 30
0.0
 11
-47.15749600000009
 21
7.012554000000136
 31
0.0
  0
LINE
  5
B9A7
330
1F
100
AcDbEntity
  8
AM_0
100
AcDbLine
 10
-46.80057000000013
 20
3.693484000000125
 30
0.0
 11
-46.7372420000004
 21
3.608615000000099
 31
0.0
  0
LINE
  5
B9A8
330
1F
100
AcDbEntity
  8
AM_0
100
AcDbLine
 10
-47.15749600000009
 20
7.012554000000136
 30
0.0
 11
-47.46954300000044
 21
10.8597170000001
 31
0.0
  0
LINE
  5
B9A9
330
1F
100
AcDbEntity
  8
AM_0
100
AcDbLine
 10
-47.46954300000044
 20
10.8597170000001
 30
0.0
 11
-45.79296900000037
 21
11.13582900000011
 31
0.0
  0
LINE
  5
B9AA
330
1F
100
AcDbEntity
  8
AM_0
100
AcDbLine
 10
-40.35253600000013
 20
4.920289000000138
 30
0.0
 11
-38.68925000000015
 21
2.758207000000084
 31
0.0
  0
LINE
  5
B9AB
330
1F
100
AcDbEntity
  8
AM_0
100
AcDbLine
 10
-45.48764400000007
 20
4.308424000000115
 30
0.0
 11
-43.95443400000025
 21
2.315426000000115
 31
0.0
  0
LINE
  5
B9AC
330
1F
100
AcDbEntity
  8
AM_0
100
AcDbLine
 10
-45.48764400000007
 20
4.308424000000115
 30
0.0
 11
-40.35253600000013
 21
4.920289000000138
 31
0.0
  0
LINE
  5
B9AD
330
1F
100
AcDbEntity
  8
AM_0
100
AcDbLine
 10
-37.80611800000025
 20
8.126801000000114
 30
0.0
 11
-40.10771000000028
 21
9.295432000000118
 31
0.0
  0
LINE
  5
B9AE
330
1F
100
AcDbEntity
  8
AM_0
100
AcDbLine
 10
-42.42019300000021
 20
6.810052000000098
 30
0.0
 11
-38.51549100000039
 21
7.275309000000106
 31
0.0
  0
LINE
  5
B9AF
330
1F
100
AcDbEntity
  8
AM_0
100
AcDbLine
 10
-40.10771000000028
 20
9.295432000000118
 30
0.0
 11
-38.51549100000039
 21
7.275309000000106
 31
0.0
  0
LINE
  5
B9B0
330
1F
100
AcDbEntity
  8
AM_0
100
AcDbLine
 10
-40.19340300000027
 20
10.35192200000011
 30
0.0
 11
-40.10771000000028
 21
9.295432000000118
 31
0.0
  0
LINE
  5
B9B1
330
1F
100
AcDbEntity
  8
AM_0
100
AcDbLine
 10
-41.70776300000016
 20
12.52800200000012
 30
0.0
 11
-41.57186800000028
 21
10.8525810000001
 31
0.0
  0
LINE
  5
B9B2
330
1F
100
AcDbEntity
  8
AM_0
100
AcDbLine
 10
-43.24836900000019
 20
13.19024100000012
 30
0.0
 11
-41.70776300000016
 21
12.52800200000012
 31
0.0
  0
LINE
  5
B9B3
330
1F
100
AcDbEntity
  8
AM_0
100
AcDbLine
 10
-44.65307900000044
 20
12.1770580000001
 30
0.0
 11
-43.24836900000019
 21
13.19024100000012
 31
0.0
  0
LINE
  5
B9B4
330
1F
100
AcDbEntity
  8
AM_0
100
AcDbLine
 10
-44.65307900000044
 20
12.1770580000001
 30
0.0
 11
-44.5171840000001
 21
10.50163800000007
 31
0.0
  0
LINE
  5
B9B5
330
1F
100
AcDbEntity
  8
AM_0
100
AcDbLine
 10
-42.9765780000003
 20
9.839399000000071
 30
0.0
 11
-44.5171840000001
 21
10.50163800000007
 31
0.0
  0
LINE
  5
B9B6
330
1F
100
AcDbEntity
  8
AM_0
100
AcDbLine
 10
-41.57186800000028
 20
10.8525810000001
 30
0.0
 11
-42.9765780000003
 21
9.839399000000071
 31
0.0
  0
LINE
  5
B9B7
330
1F
100
AcDbEntity
  8
AM_0
100
AcDbLine
 10
-45.35185500000017
 20
9.833672000000092
 30
0.0
 11
-45.33174800000034
 21
9.807536000000141
 31
0.0
  0
LINE
  5
B9B8
330
1F
100
AcDbEntity
  8
AM_0
100
AcDbLine
 10
-40.89319900000037
 20
13.22210400000011
 30
0.0
 11
-40.99706600000018
 21
13.35712000000012
 31
0.0
  0
LINE
  5
B9B9
330
1F
100
AcDbEntity
  8
AM_0
100
AcDbLine
 10
-42.9765780000003
 20
9.839399000000071
 30
0.0
 11
-43.49591700000047
 21
10.5144800000001
 31
0.0
  0
LINE
  5
B9BA
330
1F
100
AcDbEntity
  8
AM_0
100
AcDbLine
 10
-43.49591700000047
 20
10.5144800000001
 30
0.0
 11
-44.55515700000029
 21
10.96980100000007
 31
0.0
  0
LINE
  5
B9BB
330
1F
100
AcDbEntity
  8
AM_0
100
AcDbLine
 10
-41.57186800000028
 20
10.8525810000001
 30
0.0
 11
-42.09120700000022
 21
11.52766200000007
 31
0.0
  0
LINE
  5
B9BC
330
1F
100
AcDbEntity
  8
AM_0
100
AcDbLine
 10
-42.18912900000015
 20
12.7349200000001
 30
0.0
 11
-42.09120700000022
 21
11.52766200000007
 31
0.0
  0
LINE
  5
B9BD
330
1F
100
AcDbEntity
  8
AM_0
100
AcDbLine
 10
-42.09120700000022
 20
11.52766200000007
 30
0.0
 11
-43.49591700000047
 21
10.5144800000001
 31
0.0
  0
LINE
  5
B9BE
330
1F
100
AcDbEntity
  8
AM_0
100
AcDbLine
 10
-44.53997500000042
 20
13.83794700000009
 30
0.0
 11
-45.61226600000037
 21
13.71018000000009
 31
0.0
  0
LINE
  5
B9BF
330
1F
100
AcDbEntity
  8
AM_0
100
AcDbLine
 10
-45.52657300000038
 20
12.65369000000009
 30
0.0
 11
-45.61226600000037
 21
13.71018000000009
 31
0.0
  0
LINE
  5
B9C0
330
1F
100
AcDbEntity
  8
AM_0
100
AcDbLine
 10
-45.29061100000018
 20
9.744573000000116
 30
0.0
 11
-45.20491800000018
 21
8.688083000000119
 31
0.0
  0
LINE
  5
B9C1
330
1F
100
AcDbEntity
  8
AM_0
100
AcDbLine
 10
-44.13262800000012
 20
8.815850000000068
 30
0.0
 11
-45.20491800000018
 21
8.688083000000119
 31
0.0
  0
LINE
  5
B9C2
330
1F
100
AcDbEntity
  8
AM_0
100
AcDbLine
 10
-41.18000100000045
 20
9.167665000000113
 30
0.0
 11
-40.10771000000028
 21
9.295432000000118
 31
0.0
  0
LINE
  5
B9C3
330
1F
100
AcDbEntity
  8
AM_0
100
AcDbLine
 10
-42.42019300000021
 20
6.810052000000098
 30
0.0
 11
-42.61227600000012
 21
8.584859000000108
 31
0.0
  0
LINE
  5
B9C4
330
1F
100
AcDbEntity
  8
AM_0
100
AcDbLine
 10
-37.6690770000003
 20
8.49961200000007
 30
0.0
 11
-37.6425970000003
 21
8.173146000000087
 31
0.0
  0
LINE
  5
B9C5
330
1F
100
AcDbEntity
  8
AM_0
100
AcDbLine
 10
-37.75699800000012
 20
8.613898000000119
 30
0.0
 11
-37.6690770000003
 21
8.49961200000007
 31
0.0
  0
LINE
  5
B9C6
330
1F
100
AcDbEntity
  8
AM_0
100
AcDbLine
 10
-37.66194100000012
 20
13.19432300000011
 30
0.0
 11
-37.6648500000004
 21
12.1943270000001
 31
0.0
  0
LINE
  5
B9C7
330
1F
100
AcDbEntity
  8
AM_0
100
AcDbLine
 10
-38.11816600000048
 20
11.97396300000014
 30
0.0
 11
-39.90233800000016
 21
11.83771700000011
 31
0.0
  0
LINE
  5
B9C8
330
1F
100
AcDbEntity
  8
AM_0
100
AcDbLine
 10
-37.80611800000025
 20
8.126801000000114
 30
0.0
 11
-38.11816600000048
 21
11.97396300000014
 31
0.0
  0
LINE
  5
B9C9
330
1F
100
AcDbEntity
  8
AM_0
100
AcDbLine
 10
-37.6425970000003
 20
8.173146000000087
 30
0.0
 11
-36.19543400000049
 21
6.291999000000174
 31
0.0
  0
LINE
  5
B9CA
330
1F
100
AcDbEntity
  8
AM_0
100
AcDbLine
 10
-34.62434500000046
 20
10.18547400000014
 30
0.0
 11
-35.70106000000015
 21
10.18860600000013
 31
0.0
  0
LINE
  5
B9CB
330
1F
100
AcDbEntity
  8
AM_0
100
AcDbLine
 10
-47.07221700000019
 20
15.55837100000007
 30
0.0
 11
-43.16751600000026
 21
16.02362800000014
 31
0.0
  0
LINE
  5
B9CC
330
1F
100
AcDbEntity
  8
AM_0
100
AcDbLine
 10
-40.48361800000049
 20
16.53882200000009
 30
0.0
 11
-46.9567710000004
 21
15.76752500000009
 31
0.0
  0
LINE
  5
B9CD
330
1F
100
AcDbEntity
  8
AM_0
100
AcDbLine
 10
-47.56822600000015
 20
15.3617630000001
 30
0.0
 11
-47.68638300000048
 21
15.1476990000001
 31
0.0
  0
LINE
  5
B9CE
330
1F
100
AcDbEntity
  8
AM_0
100
AcDbLine
 10
-46.9567710000004
 20
15.76752500000009
 30
0.0
 11
-47.07221700000019
 21
15.55837100000007
 31
0.0
  0
LINE
  5
B9CF
330
1F
100
AcDbEntity
  8
AM_0
100
AcDbLine
 10
-39.26281400000044
 20
16.48888600000009
 30
0.0
 11
-40.48361800000049
 21
16.53882200000009
 31
0.0
  0
LINE
  5
B9D0
330
1F
100
AcDbEntity
  8
AM_0
100
AcDbLine
 10
-39.13468100000028
 20
16.49393900000006
 30
0.0
 11
-40.3589500000001
 21
16.54401600000011
 31
0.0
  0
LINE
  5
B9D1
330
1F
100
AcDbEntity
  8
AM_0
100
AcDbLine
 10
-43.16751600000026
 20
16.02362800000014
 30
0.0
 11
-39.26281400000044
 21
16.48888600000009
 31
0.0
  0
LINE
  5
B9D2
330
1F
100
AcDbEntity
  8
AM_0
100
AcDbLine
 10
-40.51505700000035
 20
14.31752900000009
 30
0.0
 11
-38.43021300000037
 21
15.8211250000001
 31
0.0
  0
LINE
  5
B9D3
330
1F
100
AcDbEntity
  8
AM_0
100
AcDbLine
 10
-39.26281400000044
 20
16.48888600000009
 30
0.0
 11
-40.51505700000035
 21
14.31752900000009
 31
0.0
  0
LINE
  5
B9D4
330
1F
100
AcDbEntity
  8
AM_0
100
AcDbLine
 10
-43.16751600000026
 20
16.02362800000014
 30
0.0
 11
-43.0830310000004
 21
14.38868700000011
 31
0.0
  0
LINE
  5
B9D5
330
1F
100
AcDbEntity
  8
AM_0
100
AcDbLine
 10
-38.90483900000009
 20
16.53719400000011
 30
0.0
 11
-38.8973310000004
 21
16.44463600000011
 31
0.0
  0
LINE
  5
B9D6
330
1F
100
AcDbEntity
  8
AM_0
100
AcDbLine
 10
-38.88604500000047
 20
16.44057300000008
 30
0.0
 11
-38.89478200000013
 21
16.51591800000011
 31
0.0
  0
LINE
  5
B9D7
330
1F
100
AcDbEntity
  8
AM_0
100
AcDbLine
 10
-35.60242400000044
 20
14.54948900000013
 30
0.0
 11
-36.56692400000048
 21
14.5522950000001
 31
0.0
  0
LINE
  5
B9D8
330
1F
100
AcDbEntity
  8
AM_0
100
AcDbLine
 10
-36.19592900000026
 20
15.09006700000012
 30
0.0
 11
-35.2609350000003
 21
15.08734700000016
 31
0.0
  0
LINE
  5
B9D9
330
1F
100
AcDbEntity
  8
AM_0
100
AcDbLine
 10
-10.01286100000044
 20
12.01671500000014
 30
0.0
 11
-11.03097800000028
 21
11.80661600000013
 31
0.0
  0
LINE
  5
B9DA
330
1F
100
AcDbEntity
  8
AM_0
100
AcDbLine
 10
-11.55704600000015
 20
2.528419000000155
 30
0.0
 11
-10.55575600000045
 21
4.477823000000171
 31
0.0
  0
LINE
  5
B9DB
330
1F
100
AcDbEntity
  8
AM_0
100
AcDbLine
 10
-10.97825000000037
 20
5.282564000000149
 30
0.0
 11
-10.93008400000033
 21
5.30926200000016
 31
0.0
  0
LINE
  5
B9DC
330
1F
100
AcDbEntity
  8
AM_0
100
AcDbLine
 10
-10.31154300000005
 20
5.460619000000178
 30
0.0
 11
-10.97825000000037
 21
5.282564000000149
 31
0.0
  0
LINE
  5
B9DD
330
1F
100
AcDbEntity
  8
AM_0
100
AcDbLine
 10
-26.24777700000032
 20
15.28791200000017
 30
0.0
 11
-23.59496500000028
 21
13.98120200000016
 31
0.0
  0
LINE
  5
B9DE
330
1F
100
AcDbEntity
  8
AM_0
100
AcDbLine
 10
-26.98966000000047
 20
13.99708800000013
 30
0.0
 11
-26.24777700000032
 21
15.28791200000017
 31
0.0
  0
LINE
  5
B9DF
330
1F
100
AcDbEntity
  8
AM_0
100
AcDbLine
 10
-22.63443100000023
 20
13.27771500000017
 30
0.0
 11
-22.57235500000029
 21
13.25069600000017
 31
0.0
  0
LINE
  5
B9E0
330
1F
100
AcDbEntity
  8
AM_0
100
AcDbLine
 10
-22.63443100000023
 20
13.27771500000017
 30
0.0
 11
-22.25345600000019
 21
13.37946000000016
 31
0.0
  0
LINE
  5
B9E1
330
1F
100
AcDbEntity
  8
AM_0
100
AcDbLine
 10
-22.33505000000042
 20
13.57223800000014
 30
0.0
 11
-22.71602600000034
 21
13.47049300000014
 31
0.0
  0
LINE
  5
B9E2
330
1F
100
AcDbEntity
  8
AM_0
100
AcDbLine
 10
-23.30064000000021
 20
13.70372700000012
 30
0.0
 11
-22.3482010000003
 21
13.95809000000014
 31
0.0
  0
LINE
  5
B9E3
330
1F
100
AcDbEntity
  8
AM_0
100
AcDbLine
 10
-22.39636800000045
 20
13.93139200000013
 30
0.0
 11
-23.34880600000025
 21
13.67702900000017
 31
0.0
  0
LINE
  5
B9E4
330
1F
100
AcDbEntity
  8
AM_0
100
AcDbLine
 10
-23.33061700000035
 20
13.48443500000013
 30
0.0
 11
-22.37817800000021
 21
13.73879900000014
 31
0.0
  0
LINE
  5
B9E5
330
1F
100
AcDbEntity
  8
AM_0
100
AcDbLine
 10
-22.77375000000012
 20
12.90028400000017
 30
0.0
 11
-22.6735840000004
 21
12.51344100000017
 31
0.0
  0
LINE
  5
B9E6
330
1F
100
AcDbEntity
  8
AM_0
100
AcDbLine
 10
-22.75515600000045
 20
12.50653700000015
 30
0.0
 11
-22.6735840000004
 21
12.51344100000017
 31
0.0
  0
LINE
  5
B9E7
330
1F
100
AcDbEntity
  8
AM_0
100
AcDbLine
 10
-22.85532200000017
 20
12.89338100000014
 30
0.0
 11
-22.77375000000012
 21
12.90028400000017
 31
0.0
  0
LINE
  5
B9E8
330
1F
100
AcDbEntity
  8
AM_0
100
AcDbLine
 10
-22.75515600000045
 20
12.50653700000015
 30
0.0
 11
-22.85532200000017
 21
12.89338100000014
 31
0.0
  0
LINE
  5
B9E9
330
1F
100
AcDbEntity
  8
AM_0
100
AcDbLine
 10
-23.07678700000025
 20
12.84279400000019
 30
0.0
 11
-22.97662200000041
 21
12.4559500000002
 31
0.0
  0
LINE
  5
B9EA
330
1F
100
AcDbEntity
  8
AM_0
100
AcDbLine
 10
-24.42764700000026
 20
12.53239500000018
 30
0.0
 11
-23.59496500000028
 21
13.98120200000016
 31
0.0
  0
LINE
  5
B9EB
330
1F
100
AcDbEntity
  8
AM_0
100
AcDbLine
 10
-23.52046000000047
 20
13.32125500000017
 30
0.0
 11
-23.27004600000037
 21
12.35414700000018
 31
0.0
  0
LINE
  5
B9EC
330
1F
100
AcDbEntity
  8
AM_0
100
AcDbLine
 10
-25.12309000000033
 20
8.754998000000171
 30
0.0
 11
-23.90709400000042
 21
10.09018500000019
 31
0.0
  0
LINE
  5
B9ED
330
1F
100
AcDbEntity
  8
AM_0
100
AcDbLine
 10
-27.07813700000025
 20
13.83796100000017
 30
0.0
 11
-24.42764700000026
 21
12.53239500000018
 31
0.0
  0
LINE
  5
B9EE
330
1F
100
AcDbEntity
  8
AM_0
100
AcDbLine
 10
-23.34880600000025
 20
13.67702900000017
 30
0.0
 11
-23.30064000000021
 21
13.70372700000012
 31
0.0
  0
LINE
  5
B9EF
330
1F
100
AcDbEntity
  8
AM_0
100
AcDbLine
 10
-26.98966000000047
 20
13.99708800000013
 30
0.0
 11
-27.07813700000025
 21
13.83796100000017
 31
0.0
  0
LINE
  5
B9F0
330
1F
100
AcDbEntity
  8
AM_0
100
AcDbLine
 10
-23.14065600000032
 20
12.41214200000018
 30
0.0
 11
-23.39107000000041
 21
13.37925100000018
 31
0.0
  0
LINE
  5
B9F1
330
1F
100
AcDbEntity
  8
AM_0
100
AcDbLine
 10
-17.19744400000016
 20
3.11837300000019
 30
0.0
 11
-16.80678700000024
 21
4.224286000000176
 31
0.0
  0
LINE
  5
B9F2
330
1F
100
AcDbEntity
  8
AM_0
100
AcDbLine
 10
-19.54541700000007
 20
4.843183000000124
 30
0.0
 11
-18.5805820000003
 21
4.667534000000159
 31
0.0
  0
LINE
  5
B9F3
330
1F
100
AcDbEntity
  8
AM_0
100
AcDbLine
 10
-22.24145300000035
 20
5.690880000000163
 30
0.0
 11
-20.94832700000031
 21
6.067451000000176
 31
0.0
  0
LINE
  5
B9F4
330
1F
100
AcDbEntity
  8
AM_0
100
AcDbLine
 10
-19.89935400000038
 20
3.841220000000191
 30
0.0
 11
-19.54541700000007
 21
4.843183000000124
 31
0.0
  0
LINE
  5
B9F5
330
1F
100
AcDbEntity
  8
AM_0
100
AcDbLine
 10
-15.59206900000006
 20
3.034099000000139
 30
0.0
 11
-15.76716100000024
 21
4.062291000000129
 31
0.0
  0
LINE
  5
B9F6
330
1F
100
AcDbEntity
  8
AM_0
100
AcDbLine
 10
-16.33280900000025
 20
4.430000000000177
 30
0.0
 11
-16.01827700000038
 21
4.429085000000156
 31
0.0
  0
LINE
  5
B9F7
330
1F
100
AcDbEntity
  8
AM_0
100
AcDbLine
 10
-13.94923000000042
 20
0.6980860000001599
 30
0.0
 11
-13.90771500000008
 21
0.6645420000001537
 31
0.0
  0
LINE
  5
B9F8
330
1F
100
AcDbEntity
  8
AM_0
100
AcDbLine
 10
-11.66597400000026
 20
2.575301000000138
 30
0.0
 11
-11.55704600000015
 21
2.528419000000155
 31
0.0
  0
LINE
  5
B9F9
330
1F
100
AcDbEntity
  8
AM_0
100
AcDbLine
 10
-15.09739500000029
 20
10.57643300000018
 30
0.0
 11
-16.80312500000019
 21
10.58139400000015
 31
0.0
  0
LINE
  5
B9FA
330
1F
100
AcDbEntity
  8
AM_0
100
AcDbLine
 10
-16.81185100000021
 20
7.581407000000183
 30
0.0
 11
-15.10612100000008
 21
7.576445000000148
 31
0.0
  0
LINE
  5
B9FB
330
1F
100
AcDbEntity
  8
AM_0
100
AcDbLine
 10
-21.24921700000033
 20
12.46667600000017
 30
0.0
 11
-20.86824200000029
 21
12.56842200000017
 31
0.0
  0
LINE
  5
B9FC
330
1F
100
AcDbEntity
  8
AM_0
100
AcDbLine
 10
-21.97750200000047
 20
12.91970700000018
 30
0.0
 11
-21.02506300000033
 21
13.17407000000019
 31
0.0
  0
LINE
  5
B9FD
330
1F
100
AcDbEntity
  8
AM_0
100
AcDbLine
 10
-22.19732200000027
 20
12.53723600000017
 30
0.0
 11
-21.94690800000017
 21
11.57012700000012
 31
0.0
  0
LINE
  5
B9FE
330
1F
100
AcDbEntity
  8
AM_0
100
AcDbLine
 10
-21.45061200000037
 20
12.11626500000017
 30
0.0
 11
-21.3504460000002
 21
11.72942100000017
 31
0.0
  0
LINE
  5
B9FF
330
1F
100
AcDbEntity
  8
AM_0
100
AcDbLine
 10
-22.57235500000029
 20
13.25069600000017
 30
0.0
 11
-22.19138000000049
 21
13.35244200000016
 31
0.0
  0
LINE
  5
BA00
330
1F
100
AcDbEntity
  8
AM_0
100
AcDbLine
 10
-22.39636800000045
 20
13.93139200000013
 30
0.0
 11
-22.3482010000003
 21
13.95809000000014
 31
0.0
  0
LINE
  5
BA01
330
1F
100
AcDbEntity
  8
AM_0
100
AcDbLine
 10
-22.25345600000019
 20
13.37946000000016
 30
0.0
 11
-22.19138000000049
 21
13.35244200000016
 31
0.0
  0
LINE
  5
BA02
330
1F
100
AcDbEntity
  8
AM_0
100
AcDbLine
 10
-22.02566800000028
 20
12.89300900000017
 30
0.0
 11
-21.97750200000047
 21
12.91970700000018
 31
0.0
  0
LINE
  5
BA03
330
1F
100
AcDbEntity
  8
AM_0
100
AcDbLine
 10
-21.07323000000025
 20
13.14737200000019
 30
0.0
 11
-21.02506300000033
 21
13.17407000000019
 31
0.0
  0
LINE
  5
BA04
330
1F
100
AcDbEntity
  8
AM_0
100
AcDbLine
 10
-21.07323000000025
 20
13.14737200000019
 30
0.0
 11
-22.02566800000028
 21
12.89300900000017
 31
0.0
  0
LINE
  5
BA05
330
1F
100
AcDbEntity
  8
AM_0
100
AcDbLine
 10
-21.43201800000025
 20
11.72251700000015
 30
0.0
 11
-21.3504460000002
 21
11.72942100000017
 31
0.0
  0
LINE
  5
BA06
330
1F
100
AcDbEntity
  8
AM_0
100
AcDbLine
 10
-21.53218400000042
 20
12.10936100000014
 30
0.0
 11
-21.45061200000037
 21
12.11626500000017
 31
0.0
  0
LINE
  5
BA07
330
1F
100
AcDbEntity
  8
AM_0
100
AcDbLine
 10
-21.31129300000048
 20
12.49369500000017
 30
0.0
 11
-21.24921700000033
 21
12.46667600000017
 31
0.0
  0
LINE
  5
BA08
330
1F
100
AcDbEntity
  8
AM_0
100
AcDbLine
 10
-21.43201800000025
 20
11.72251700000015
 30
0.0
 11
-21.53218400000042
 21
12.10936100000014
 31
0.0
  0
LINE
  5
BA09
330
1F
100
AcDbEntity
  8
AM_0
100
AcDbLine
 10
-21.31129300000048
 20
12.49369500000017
 30
0.0
 11
-20.93031700000011
 21
12.59544000000016
 31
0.0
  0
LINE
  5
BA0A
330
1F
100
AcDbEntity
  8
AM_0
100
AcDbLine
 10
-20.93031700000011
 20
12.59544000000016
 30
0.0
 11
-20.86824200000029
 21
12.56842200000017
 31
0.0
  0
LINE
  5
BA0B
330
1F
100
AcDbEntity
  8
AM_0
100
AcDbLine
 10
-21.81751800000012
 20
11.62812300000013
 30
0.0
 11
-22.06793200000021
 21
12.59523100000018
 31
0.0
  0
LINE
  5
BA0C
330
1F
100
AcDbEntity
  8
AM_0
100
AcDbLine
 10
-22.00747900000016
 20
12.70041600000018
 30
0.0
 11
-21.05504000000047
 21
12.9547790000002
 31
0.0
  0
LINE
  5
BA0D
330
1F
100
AcDbEntity
  8
AM_0
100
AcDbLine
 10
-21.75364900000027
 20
12.05877400000014
 30
0.0
 11
-21.65348300000033
 21
11.67193100000014
 31
0.0
  0
LINE
  5
BA0E
330
1F
100
AcDbEntity
  8
AM_0
100
AcDbLine
 10
-21.01191200000022
 20
12.78821800000019
 30
0.0
 11
-21.39288800000014
 21
12.68647300000014
 31
0.0
  0
LINE
  5
BA0F
330
1F
100
AcDbEntity
  8
AM_0
100
AcDbLine
 10
-16.80312500000019
 20
10.58139400000015
 30
0.0
 11
-17.66035300000027
 21
9.083882000000187
 31
0.0
  0
LINE
  5
BA10
330
1F
100
AcDbEntity
  8
AM_0
100
AcDbLine
 10
-17.66035300000027
 20
9.083882000000187
 30
0.0
 11
-16.81185100000021
 21
7.581407000000183
 31
0.0
  0
LINE
  5
BA11
330
1F
100
AcDbEntity
  8
AM_0
100
AcDbLine
 10
-11.72149500000028
 20
14.04511900000017
 30
0.0
 11
-11.99801300000018
 21
13.14982200000014
 31
0.0
  0
LINE
  5
BA12
330
1F
100
AcDbEntity
  8
AM_0
100
AcDbLine
 10
-14.24889300000023
 20
9.073958000000175
 30
0.0
 11
-15.09739500000029
 21
10.57643300000018
 31
0.0
  0
LINE
  5
BA13
330
1F
100
AcDbEntity
  8
AM_0
100
AcDbLine
 10
-15.99122500000027
 20
13.72904600000015
 30
0.0
 11
-16.30575600000048
 21
13.72996100000017
 31
0.0
  0
LINE
  5
BA14
330
1F
100
AcDbEntity
  8
AM_0
100
AcDbLine
 10
-14.68301200000024
 20
9.075221000000169
 30
0.0
 11
-14.24889300000023
 21
9.073958000000175
 31
0.0
  0
LINE
  5
BA15
330
1F
100
AcDbEntity
  8
AM_0
100
AcDbLine
 10
-14.68301200000024
 20
9.075221000000169
 30
0.0
 11
-15.53151300000019
 21
10.57769500000017
 31
0.0
  0
LINE
  5
BA16
330
1F
100
AcDbEntity
  8
AM_0
100
AcDbLine
 10
-15.10612100000008
 20
7.576445000000148
 30
0.0
 11
-14.24889300000023
 21
9.073958000000175
 31
0.0
  0
LINE
  5
BA17
330
1F
100
AcDbEntity
  8
AM_0
100
AcDbLine
 10
-15.54024000000009
 20
7.5777080000002
 30
0.0
 11
-14.68301200000024
 21
9.075221000000169
 31
0.0
  0
LINE
  5
BA18
330
1F
100
AcDbEntity
  8
AM_0
100
AcDbLine
 10
-26.85313200000047
 20
19.06290600000017
 30
0.0
 11
-22.55796400000036
 21
19.05041200000016
 31
0.0
  0
LINE
  5
BA19
330
1F
100
AcDbEntity
  8
AM_0
100
AcDbLine
 10
-30.01991400000025
 20
19.07211800000015
 30
0.0
 11
-26.85313200000047
 21
19.06290600000017
 31
0.0
  0
LINE
  5
BA1A
330
1F
100
AcDbEntity
  8
AM_0
100
AcDbLine
 10
-31.30166800000035
 20
18.67584500000012
 30
0.0
 11
-31.30365700000021
 21
17.99190700000011
 31
0.0
  0
LINE
  5
BA1B
330
1F
100
AcDbEntity
  8
AM_0
100
AcDbLine
 10
-30.42051200000043
 20
18.67328200000014
 30
0.0
 11
-31.30166800000035
 21
18.67584500000012
 31
0.0
  0
LINE
  5
BA1C
330
1F
100
AcDbEntity
  8
AM_0
100
AcDbLine
 10
-30.90658300000024
 20
19.07469700000015
 30
0.0
 11
-30.01991400000025
 21
19.07211800000015
 31
0.0
  0
LINE
  5
BA1D
330
1F
100
AcDbEntity
  8
AM_0
100
AcDbLine
 10
-30.42051200000043
 20
18.67328200000014
 30
0.0
 11
-30.41801300000026
 21
18.72057400000016
 31
0.0
  0
LINE
  5
BA1E
330
1F
100
AcDbEntity
  8
AM_0
100
AcDbLine
 10
-30.60506200000037
 20
15.47380500000011
 30
0.0
 11
-30.39882300000027
 21
15.47320500000017
 31
0.0
  0
LINE
  5
BA1F
330
1F
100
AcDbEntity
  8
AM_0
100
AcDbLine
 10
-30.40752000000049
 20
15.67323100000015
 30
0.0
 11
-30.90137600000008
 21
15.17466600000014
 31
0.0
  0
LINE
  5
BA20
330
1F
100
AcDbEntity
  8
AM_0
100
AcDbLine
 10
-32.90820300000024
 20
15.08050300000016
 30
0.0
 11
-30.78782800000027
 21
15.07433500000016
 31
0.0
  0
LINE
  5
BA21
330
1F
100
AcDbEntity
  8
AM_0
100
AcDbLine
 10
-30.40340800000041
 20
17.08691000000015
 30
0.0
 11
-30.40752000000049
 21
15.67323100000015
 31
0.0
  0
LINE
  5
BA22
330
1F
100
AcDbEntity
  8
AM_0
100
AcDbLine
 10
-17.31142900000014
 20
18.94459500000016
 30
0.0
 11
-17.32224500000012
 21
18.94558400000016
 31
0.0
  0
LINE
  5
BA23
330
1F
100
AcDbEntity
  8
AM_0
100
AcDbLine
 10
-22.55796400000036
 20
19.05041200000016
 30
0.0
 11
-19.37714700000043
 21
19.04115900000016
 31
0.0
  0
LINE
  5
BA24
330
1F
100
AcDbEntity
  8
AM_0
100
AcDbLine
 10
-22.01607500000028
 20
14.89881800000017
 30
0.0
 11
-19.06451000000044
 21
14.89023300000013
 31
0.0
  0
LINE
  5
BA25
330
1F
100
AcDbEntity
  8
AM_0
100
AcDbLine
 10
-22.3640370000001
 20
16.93782100000015
 30
0.0
 11
-22.01607500000028
 21
14.89881800000017
 31
0.0
  0
LINE
  5
BA26
330
1F
100
AcDbEntity
  8
AM_0
100
AcDbLine
 10
-19.33716200000009
 20
16.48793200000017
 30
0.0
 11
-19.06451000000044
 21
14.89023300000013
 31
0.0
  0
LINE
  5
BA27
330
1F
100
AcDbEntity
  8
AM_0
100
AcDbLine
 10
-9.315272000000078
 20
5.416757000000131
 30
0.0
 11
-9.640811000000269
 21
6.673999000000151
 31
0.0
  0
LINE
  5
BA28
330
1F
100
AcDbEntity
  8
AM_0
100
AcDbLine
 10
-10.06198200000042
 20
5.83772800000014
 30
0.0
 11
-10.23727200000013
 21
6.514704000000165
 31
0.0
  0
LINE
  5
BA29
330
1F
100
AcDbEntity
  8
AM_0
100
AcDbLine
 10
-9.396844000000129
 20
5.409854000000166
 30
0.0
 11
-9.722383000000093
 21
6.667095000000188
 31
0.0
  0
LINE
  5
BA2A
330
1F
100
AcDbEntity
  8
AM_0
100
AcDbLine
 10
-9.932592000000369
 20
5.895724000000143
 30
0.0
 11
-10.1078820000003
 21
6.572700000000168
 31
0.0
  0
LINE
  5
BA2B
330
1F
100
AcDbEntity
  8
AM_0
100
AcDbLine
 10
-9.943848000000173
 20
6.616508000000123
 30
0.0
 11
-9.618310000000093
 21
5.359267000000158
 31
0.0
  0
LINE
  5
BA2C
330
1F
100
AcDbEntity
  8
AM_0
100
AcDbLine
 10
-9.535092000000332
 20
5.034286000000122
 30
0.0
 11
-10.77326300000029
 21
4.703614000000186
 31
0.0
  0
LINE
  5
BA2D
330
1F
100
AcDbEntity
  8
AM_0
100
AcDbLine
 10
-10.26337700000024
 20
5.487317000000132
 30
0.0
 11
-10.93008400000033
 21
5.30926200000016
 31
0.0
  0
LINE
  5
BA2E
330
1F
100
AcDbEntity
  8
AM_0
100
AcDbLine
 10
-10.83533800000012
 20
4.730632000000184
 30
0.0
 11
-10.77326300000029
 21
4.703614000000186
 31
0.0
  0
LINE
  5
BA2F
330
1F
100
AcDbEntity
  8
AM_0
100
AcDbLine
 10
-10.31154300000005
 20
5.460619000000178
 30
0.0
 11
-10.26337700000024
 21
5.487317000000132
 31
0.0
  0
LINE
  5
BA30
330
1F
100
AcDbEntity
  8
AM_0
100
AcDbLine
 10
-10.83533800000012
 20
4.730632000000184
 30
0.0
 11
-9.597168000000266
 21
5.061305000000174
 31
0.0
  0
LINE
  5
BA31
330
1F
100
AcDbEntity
  8
AM_0
100
AcDbLine
 10
-9.597168000000266
 20
5.061305000000174
 30
0.0
 11
-9.535092000000332
 21
5.034286000000122
 31
0.0
  0
LINE
  5
BA32
330
1F
100
AcDbEntity
  8
AM_0
100
AcDbLine
 10
-10.23738300000039
 20
5.49128700000017
 30
0.0
 11
-10.19576200000008
 21
5.515278000000137
 31
0.0
  0
LINE
  5
BA33
330
1F
100
AcDbEntity
  8
AM_0
100
AcDbLine
 10
-9.396844000000129
 20
5.409854000000166
 30
0.0
 11
-9.315272000000078
 21
5.416757000000131
 31
0.0
  0
LINE
  5
BA34
330
1F
100
AcDbEntity
  8
AM_0
100
AcDbLine
 10
-10.96006100000025
 20
5.089971000000161
 30
0.0
 11
-10.29335400000016
 21
5.268025000000136
 31
0.0
  0
LINE
  5
BA35
330
1F
100
AcDbEntity
  8
AM_0
100
AcDbLine
 10
-9.678763000000145
 20
5.25408300000015
 30
0.0
 11
-10.91693300000022
 21
4.92341000000016
 31
0.0
  0
LINE
  5
BA36
330
1F
100
AcDbEntity
  8
AM_0
100
AcDbLine
 10
-1.251760000000359
 20
-1.850495999999793
 30
0.0
 11
-0.9170890000002884
 21
-1.851468999999781
 31
0.0
  0
LINE
  5
BA37
330
1F
100
AcDbEntity
  8
AM_0
100
AcDbLine
 10
-1.251760000000359
 20
-1.862649999999803
 30
0.0
 11
-0.7833300000004613
 21
-1.864011999999775
 31
0.0
  0
LINE
  5
BA38
330
1F
100
AcDbEntity
  8
AM_0
100
AcDbLine
 10
-5.146977000000134
 20
-1.187052999999792
 30
0.0
 11
-4.494250000000448
 21
-1.188951999999773
 31
0.0
  0
LINE
  5
BA39
330
1F
100
AcDbEntity
  8
AM_0
100
AcDbLine
 10
-4.494250000000448
 20
-1.188951999999773
 30
0.0
 11
-3.38360800000035
 21
-1.391144999999795
 31
0.0
  0
LINE
  5
BA3A
330
1F
100
AcDbEntity
  8
AM_0
100
AcDbLine
 10
-3.38360800000035
 20
-1.391144999999795
 30
0.0
 11
-1.251760000000359
 21
-1.779249999999819
 31
0.0
  0
LINE
  5
BA3B
330
1F
100
AcDbEntity
  8
AM_0
100
AcDbLine
 10
-1.251760000000359
 20
-2.032055999999784
 30
0.0
 11
-1.251760000000359
 21
-1.779249999999819
 31
0.0
  0
LINE
  5
BA3C
330
1F
100
AcDbEntity
  8
AM_0
100
AcDbLine
 10
-0.9170890000002884
 20
-1.851468999999781
 30
0.0
 11
-1.25190400000045
 21
-1.789100999999789
 31
0.0
  0
LINE
  5
BA3D
330
1F
100
AcDbEntity
  8
AM_0
100
AcDbLine
 10
-9.722383000000093
 20
6.667095000000188
 30
0.0
 11
-9.640811000000269
 21
6.673999000000151
 31
0.0
  0
LINE
  5
BA3E
330
1F
100
AcDbEntity
  8
AM_0
100
AcDbLine
 10
-7.81139000000013
 20
8.695700000000186
 30
0.0
 11
-8.784212000000309
 21
7.376119000000215
 31
0.0
  0
DIMENSION
  5
BCDE
330
1F
100
AcDbEntity
  8
AM_5
100
AcDbDimension
  2
*D5
 10
-50.00000000000025
 20
35.00000100999973
 30
0.0
 11
-25.00000000000022
 21
38.10000100999968
 31
0.0
 70
    32
  1
<>
 51
359.9999999999998
  3
AM_JIS$0
100
AcDbAlignedDimension
 13
-0.0000000000002558
 23
0.000000000000199
 33
0.0
 14
-50.00000000000028
 24
20.00000000000011
 34
0.0
 50
180.0
100
AcDbRotatedDimension
1001
GENIUS_GENDTOL_13
1000

1000
h7
1000

1040
0.0
1001
ACAD
1000
DSTYLE
1002
{
1070
   287
1070
     3
1070
   147
1040
3.0
1070
    44
1040
2.0
1070
    41
1040
5.0
1070
    40
1040
0.5
1070
    42
1040
2.0
1070
    43
1040
12.0
1070
    48
1040
0.1
1070
    78
1070
     8
1070
   140
1040
6.4
1070
   176
1070
   256
1070
   177
1070
   256
1070
   271
1070
     1
1070
   272
1070
     3
1070
   275
1070
     0
1070
   284
1070
     0
1070
   289
1070
     3
1070
   340
1005
6B
1070
   371
1070
    -1
1070
   372
1070
    -1
1002
}
  0
DIMENSION
  5
BD73
330
1F
100
AcDbEntity
  8
AM_5
100
AcDbDimension
  2
*D6
 10
-180.0000000000002
 20
-35.00000101000003
 30
0.0
 11
-90.00000000000026
 21
-31.90000101000003
 31
0.0
 70
    32
  1
<>
 51
359.9999999999998
  3
AM_JIS$0
100
AcDbAlignedDimension
 13
-0.0000000000002274
 23
0.0000000000002274
 33
0.0
 14
-180.0000000000002
 24
-21.00000000000016
 34
0.0
100
AcDbRotatedDimension
1001
GENIUS_GENDTOL_13
1000

1000
h7
1000

1040
0.0
1001
ACAD
1000
DSTYLE
1002
{
1070
   287
1070
     3
1070
   147
1040
3.0
1070
    44
1040
2.0
1070
    41
1040
5.0
1070
    40
1040
0.5
1070
    42
1040
2.0
1070
    43
1040
12.0
1070
    48
1040
0.1
1070
    78
1070
     8
1070
   140
1040
6.4
1070
   176
1070
   256
1070
   177
1070
   256
1070
   271
1070
     1
1070
   272
1070
     3
1070
   275
1070
     0
1070
   284
1070
     0
1070
   289
1070
     3
1070
   340
1005
6B
1070
   371
1070
    -1
1070
   372
1070
    -1
1002
}
  0
DIMENSION
  5
BDFF
330
1F
100
AcDbEntity
  8
AM_5
100
AcDbDimension
  2
*D7
 10
-280.0000000000002
 20
-35.00000101000003
 30
0.0
 11
-230.0000000000001
 21
-31.90000101000003
 31
0.0
 70
    32
  1
<>
 51
359.9999999999998
  3
AM_JIS$0
100
AcDbAlignedDimension
 13
-180.0000000000001
 23
-21.00000000000001
 33
0.0
 14
-280.0000000000002
 24
-18.67034417356099
 34
0.0
100
AcDbRotatedDimension
1001
GENIUS_GENDTOL_13
1000

1000
h7
1000

1040
0.0
1001
ACAD
1000
DSTYLE
1002
{
1070
   287
1070
     3
1070
   147
1040
3.0
1070
    44
1040
2.0
1070
    41
1040
5.0
1070
    40
1040
0.5
1070
    42
1040
2.0
1070
    43
1040
12.0
1070
    48
1040
0.1
1070
    78
1070
     8
1070
   140
1040
6.4
1070
   176
1070
   256
1070
   177
1070
   256
1070
   271
1070
     1
1070
   272
1070
     3
1070
   275
1070
     0
1070
   284
1070
     0
1070
   289
1070
     3
1070
   340
1005
6B
1070
   371
1070
    -1
1070
   372
1070
    -1
1002
}
  0
DIMENSION
  5
BE94
330
1F
100
AcDbEntity
  8
AM_5
100
AcDbDimension
  2
*D8
 10
-280.0000000000002
 20
-45.00000101000003
 30
0.0
 11
-140.0051051059301
 21
-41.90000101000003
 31
0.0
 70
    32
  1
<>
 51
359.9999999999998
  3
AM_JIS$0
100
AcDbAlignedDimension
 13
-0.0102102118601124
 23
0.0000000000002558
 33
0.0
 14
-280.0000000000002
 24
-18.67034417356102
 34
0.0
100
AcDbRotatedDimension
1001
GENIUS_GENDTOL_13
1000

1000
h7
1000

1040
0.0
1001
ACAD
1000
DSTYLE
1002
{
1070
   287
1070
     3
1070
   147
1040
3.0
1070
    44
1040
2.0
1070
    41
1040
5.0
1070
    40
1040
0.5
1070
    42
1040
2.0
1070
    43
1040
12.0
1070
    48
1040
0.1
1070
    78
1070
     8
1070
   140
1040
6.4
1070
   176
1070
   256
1070
   177
1070
   256
1070
   271
1070
     1
1070
   272
1070
     3
1070
   275
1070
     0
1070
   284
1070
     0
1070
   289
1070
     3
1070
   340
1005
6B
1070
   371
1070
    -1
1070
   372
1070
    -1
1002
}
  0
DIMENSION
  5
BF3B
330
1F
100
AcDbEntity
  8
AM_5
100
AcDbDimension
  2
*D9
 10
19.96585708688948
 20
-19.99999999999984
 30
0.0
 11
16.86585708688948
 21
0.0000000000001626
 31
0.0
 70
    32
  1
%%c<>
 51
359.9999999999998
  3
AM_JIS$0
100
AcDbAlignedDimension
 13
-20.00000000000025
 23
20.00000000000017
 33
0.0
 14
-20.00000000000025
 24
-19.99999999999983
 34
0.0
 50
90.0
100
AcDbRotatedDimension
1001
GENIUS_GENDTOL_13
1000

1000
h7
1000

1040
0.0
1001
ACAD
1000
DSTYLE
1002
{
1070
   287
1070
     3
1070
   147
1040
3.0
1070
    44
1040
2.0
1070
    41
1040
5.0
1070
    40
1040
0.5
1070
    42
1040
2.0
1070
    43
1040
12.0
1070
    48
1040
0.1
1070
    78
1070
     8
1070
   140
1040
6.4
1070
   176
1070
   256
1070
   177
1070
   256
1070
   271
1070
     1
1070
   272
1070
     3
1070
   275
1070
     0
1070
   284
1070
     0
1070
   289
1070
     3
1070
   340
1005
6B
1070
   371
1070
    -1
1070
   372
1070
    -1
1002
}
  0
DIMENSION
  5
BFE2
330
1F
100
AcDbEntity
  8
AM_5
100
AcDbDimension
  2
*D10
 10
-299.8139890324052
 20
-21.00000000000035
 30
0.0
 11
-302.9139890324053
 21
-0.0000000000004005
 31
0.0
 70
    32
  1
%%c<>
 51
359.9999999999998
  3
AM_JIS$0
100
AcDbAlignedDimension
 13
-277.0330127018924
 23
20.99999999999964
 33
0.0
 14
-277.0330127018924
 24
-21.00000000000036
 34
0.0
 50
270.0
100
AcDbRotatedDimension
1001
GENIUS_GENDTOL_13
1000

1000
h7
1000

1040
0.0
1001
ACAD
1000
DSTYLE
1002
{
1070
   287
1070
     3
1070
   147
1040
3.0
1070
    44
1040
2.0
1070
    41
1040
5.0
1070
    40
1040
0.5
1070
    42
1040
2.0
1070
    43
1040
12.0
1070
    48
1040
0.1
1070
    78
1070
     8
1070
   140
1040
6.4
1070
   176
1070
   256
1070
   177
1070
   256
1070
   271
1070
     1
1070
   272
1070
     3
1070
   275
1070
     0
1070
   284
1070
     0
1070
   289
1070
     3
1070
   340
1005
6B
1070
   371
1070
    -1
1070
   372
1070
    -1
1002
}
  0
VIEWPORT
  5
110
330
101
100
AcDbEntity
 67
     1
  8
0
100
AcDbViewport
 10
420.5
 20
297.0
 30
0.0
 40
948.9782706766916
 41
628.452
 68
     1
 69
     1
1001
ACAD
1000
MVIEW
1002
{
1070
    16
1010
0.0
1020
0.0
1030
0.0
1010
0.0
1020
0.0
1030
1.0
1040
0.0
1040
628.452
1040
420.5
1040
297.0
1040
50.0
1040
0.0
1040
0.0
1070
     0
1070
   100
1070
     1
1070
     1
1070
     0
1070
     0
1070
     0
1070
     0
1040
0.0
1040
0.0
1040
0.0
1040
10.0
1040
10.0
1040
10.0
1040
10.0
1070
     0
1002
{
1002
}
1002
}
  0
ENDSEC
  0
SECTION
  2
OBJECTS
  0
DICTIONARY
  5
C
330
0
100
AcDbDictionary
  3
ACAD_GROUP
350
D
  3
ACAD_LAYOUT
350
1A
  3
ACAD_MLINESTYLE
350
17
  3
ACAD_PLOTSETTINGS
350
19
  3
ACAD_PLOTSTYLENAME
350
E
  3
ACDBVARIABLEDICTIONARY
350
34
  3
ACMDICTIONARY
350
43
  3
AMG
350
2B
  3
AMGSNAPSETTINGS
350
6E
  3
DWGPROPS
350
C34B
  3
ACDBHEADERROUNDTRIPXREC
350
C357
  0
DICTIONARY
  5
74
330
1F
100
AcDbDictionary
280
     1
  3
ACAD_INDEX
360
C34D
  3
ACAD_LAYOUTSELFREF
360
C37A
  0
DICTIONARY
  5
C37F
330
101
100
AcDbDictionary
280
     1
  3
ACAD_LAYOUTSELFREF
360
C380
  0
DICTIONARY
  5
D
102
{ACAD_REACTORS
330
C
102
}
330
C
100
AcDbDictionary
  0
DICTIONARY
  5
1A
102
{ACAD_REACTORS
330
C
102
}
330
C
100
AcDbDictionary
  0
DICTIONARY
  5
17
102
{ACAD_REACTORS
330
C
102
}
330
C
100
AcDbDictionary
  3
STANDARD
350
18
  0
DICTIONARY
  5
19
102
{ACAD_REACTORS
330
C
102
}
330
C
100
AcDbDictionary
  3
ASAMI
350
399D
  0
ACDBDICTIONARYWDFLT
  5
E
102
{ACAD_REACTORS
330
C
102
}
330
C
100
AcDbDictionary
281
     1
  3
Normal
350
F
100
AcDbDictionaryWithDefault
340
F
  0
DICTIONARY
  5
34
102
{ACAD_REACTORS
330
C
102
}
330
C
100
AcDbDictionary
  3
INDEXCTL
350
35
  3
SORTENTS
350
B5E
  0
DICTIONARY
  5
43
102
{ACAD_REACTORS
330
C
102
}
330
C
100
AcDbDictionary
  3
ACMSTDDICTIONARY
350
260
  0
DICTIONARY
  5
2B
102
{ACAD_REACTORS
330
C
102
}
330
C
100
AcDbDictionary
  3
ACMGSETTINGS
350
2C
  0
DICTIONARY
  5
6E
102
{ACAD_REACTORS
330
C
102
}
330
C
100
AcDbDictionary
  0
XRECORD
  5
C34B
102
{ACAD_REACTORS
330
C
102
}
330
C
100
AcDbXrecord
  1
DWGPROPS COOKIE
  2

  3

  4

  6

  7

  8

  9

300
AmdtFileType=82
301
=
302
=
303
=
304
=
305
=
306
=
307
=
308
=
309
=
 40
0.9511522569444444
 41
2452802.716478761
 42
2453075.665860995
  1

 90
        1
  0
DICTIONARY
  5
C357
102
{ACAD_REACTORS
330
C
102
}
330
C
100
AcDbDictionary
  3
TSTACKALIGN
350
C358
  3
TSTACKSIZE
350
C359
  3
HYPERLINKBASE
350
C35A
  3
STYLESHEET
350
C35B
  3
LAYOUTDICT
350
C35C
  3
PLOTSETDICT
350
C35D
  3
PLOTSTYLNAMDICT
350
C35E
  3
LWETCUNION
350
C35F
  3
INSUNITS
350
C360
  3
CEPSNTYPE
350
C361
  3
FINGERPRINTGUID
350
C362
  3
VERSIONGUID
350
C363
  3
PSVPSCALE
350
C364
  3
DIMSTYLEDATA
350
C365
  3
PUCSORTHOREF
350
C366
  3
PUCSORTHOVIEW
350
C367
  3
PUCSBASE
350
C368
  3
PUCSORGTOP
350
C369
  3
PUCSORGBOTTOM
350
C36A
  3
PUCSORGLEFT
350
C36B
  3
PUCSORGRIGHT
350
C36C
  3
PUCSORGFRONT
350
C36D
  3
PUCSORGBACK
350
C36E
  3
UCSORTHOREF
350
C36F
  3
UCSORTHOVIEW
350
C370
  3
UCSBASE
350
C371
  3
UCSORGTOP
350
C372
  3
UCSORGBOTTOM
350
C373
  3
UCSORGLEFT
350
C374
  3
UCSORGRIGHT
350
C375
  3
UCSORGFRONT
350
C376
  3
UCSORGBACK
350
C377
  0
DICTIONARY
  5
C34D
102
{ACAD_REACTORS
330
74
102
}
330
74
100
AcDbDictionary
  3
*A1
350
C34E
  0
XRECORD
  5
C37A
102
{ACAD_REACTORS
330
74
102
}
330
74
100
AcDbXrecord
340
1F
  0
XRECORD
  5
C380
102
{ACAD_REACTORS
330
C37F
102
}
330
C37F
100
AcDbXrecord
340
101
  0
MLINESTYLE
  5
18
102
{ACAD_REACTORS
330
17
102
}
330
17
100
AcDbMlineStyle
  2
STANDARD
 70
     0
  3

 62
   256
 51
90.0
 52
90.0
 71
     2
 49
0.5
 62
   256
  6
BYLAYER
 49
-0.5
 62
   256
  6
BYLAYER
  0
PLOTSETTINGS
  5
399D
102
{ACAD_REACTORS
330
19
102
}
330
19
100
AcDbPlotSettings
  1
asami
  2
RICOH imagio MF1540
  4
A4
  6

 40
5.831416606903076
 41
7.651742935180664
 42
4.90008544921875
 43
5.789077758789062
 44
296.9683227539062
 45
209.9733276367187
 46
0.0
 47
0.0
 48
-156.6707931774246
 49
-74.57609991074048
140
58.59973180214831
141
60.61068161925596
142
1.0
143
1.095343097833084
 70
  1712
 72
     1
 73
     1
 74
     4
  7
asami.ctb
 75
     0
147
0.9129559514076438
148
156.6707931774246
149
74.57609991074048
  0
ACDBPLACEHOLDER
  5
F
102
{ACAD_REACTORS
330
E
102
}
330
E
100
AcDbPlaceHolder
280
     0
  0
DICTIONARYVAR
  5
35
102
{ACAD_REACTORS
330
34
102
}
330
34
100
DictionaryVariables
280
     0
  1
1
  0
DICTIONARYVAR
  5
B5E
102
{ACAD_REACTORS
330
34
102
}
330
34
100
DictionaryVariables
280
     0
  1
96
  0
DICTIONARY
  5
260
102
{ACAD_REACTORS
330
43
102
}
330
43
100
AcDbDictionary
  0
DICTIONARY
  5
2C
102
{ACAD_REACTORS
330
2B
102
}
330
2B
100
AcDbDictionary
  3
DWGSETTINGS
350
2D
  0
XRECORD
  5
C358
102
{ACAD_REACTORS
330
C357
102
}
330
C357
100
AcDbXrecord
 90
        1
  0
XRECORD
  5
C359
102
{ACAD_REACTORS
330
C357
102
}
330
C357
100
AcDbXrecord
 90
       70
  0
XRECORD
  5
C35A
102
{ACAD_REACTORS
330
C357
102
}
330
C357
100
AcDbXrecord
  1

  0
XRECORD
  5
C35B
102
{ACAD_REACTORS
330
C357
102
}
330
C357
100
AcDbXrecord
  1
ASAMI.ctb
  0
XRECORD
  5
C35C
102
{ACAD_REACTORS
330
C357
102
}
330
C357
100
AcDbXrecord
340
1A
  0
XRECORD
  5
C35D
102
{ACAD_REACTORS
330
C357
102
}
330
C357
100
AcDbXrecord
340
19
  0
XRECORD
  5
C35E
102
{ACAD_REACTORS
330
C357
102
}
330
C357
100
AcDbXrecord
340
E
  0
XRECORD
  5
C35F
102
{ACAD_REACTORS
330
C357
102
}
330
C357
100
AcDbXrecord
 90
    10781
  0
XRECORD
  5
C360
102
{ACAD_REACTORS
330
C357
102
}
330
C357
100
AcDbXrecord
 90
        4
  0
XRECORD
  5
C361
102
{ACAD_REACTORS
330
C357
102
}
330
C357
100
AcDbXrecord
 90
        0
  0
XRECORD
  5
C362
102
{ACAD_REACTORS
330
C357
102
}
330
C357
100
AcDbXrecord
  1
{AFB28963-8C59-40AE-9337-C84526B81ACE}
  0
XRECORD
  5
C363
102
{ACAD_REACTORS
330
C357
102
}
330
C357
100
AcDbXrecord
  1
{3EECE85B-0248-46E2-9CE0-A12B530B0DC5}
  0
XRECORD
  5
C364
102
{ACAD_REACTORS
330
C357
102
}
330
C357
100
AcDbXrecord
 40
0.0
  0
XRECORD
  5
C365
102
{ACAD_REACTORS
330
C357
102
}
330
C357
100
AcDbXrecord
1000
DSTYLE
1002
{
1070
    79
 70
     2
1070
   341
340
59
1070
   342
340
59
1070
   371
 70
    -1
1070
   372
 70
    -1
1002
}
  0
XRECORD
  5
C366
102
{ACAD_REACTORS
330
C357
102
}
330
C357
100
AcDbXrecord
340
0
  0
XRECORD
  5
C367
102
{ACAD_REACTORS
330
C357
102
}
330
C357
100
AcDbXrecord
 70
     0
  0
XRECORD
  5
C368
102
{ACAD_REACTORS
330
C357
102
}
330
C357
100
AcDbXrecord
340
0
  0
XRECORD
  5
C369
102
{ACAD_REACTORS
330
C357
102
}
330
C357
100
AcDbXrecord
 10
0.0
 20
0.0
 30
0.0
  0
XRECORD
  5
C36A
102
{ACAD_REACTORS
330
C357
102
}
330
C357
100
AcDbXrecord
 10
0.0
 20
0.0
 30
0.0
  0
XRECORD
  5
C36B
102
{ACAD_REACTORS
330
C357
102
}
330
C357
100
AcDbXrecord
 10
0.0
 20
0.0
 30
0.0
  0
XRECORD
  5
C36C
102
{ACAD_REACTORS
330
C357
102
}
330
C357
100
AcDbXrecord
 10
0.0
 20
0.0
 30
0.0
  0
XRECORD
  5
C36D
102
{ACAD_REACTORS
330
C357
102
}
330
C357
100
AcDbXrecord
 10
0.0
 20
0.0
 30
0.0
  0
XRECORD
  5
C36E
102
{ACAD_REACTORS
330
C357
102
}
330
C357
100
AcDbXrecord
 10
0.0
 20
0.0
 30
0.0
  0
XRECORD
  5
C36F
102
{ACAD_REACTORS
330
C357
102
}
330
C357
100
AcDbXrecord
340
0
  0
XRECORD
  5
C370
102
{ACAD_REACTORS
330
C357
102
}
330
C357
100
AcDbXrecord
 70
     0
  0
XRECORD
  5
C371
102
{ACAD_REACTORS
330
C357
102
}
330
C357
100
AcDbXrecord
340
0
  0
XRECORD
  5
C372
102
{ACAD_REACTORS
330
C357
102
}
330
C357
100
AcDbXrecord
 10
0.0
 20
0.0
 30
0.0
  0
XRECORD
  5
C373
102
{ACAD_REACTORS
330
C357
102
}
330
C357
100
AcDbXrecord
 10
0.0
 20
0.0
 30
0.0
  0
XRECORD
  5
C374
102
{ACAD_REACTORS
330
C357
102
}
330
C357
100
AcDbXrecord
 10
0.0
 20
0.0
 30
0.0
  0
XRECORD
  5
C375
102
{ACAD_REACTORS
330
C357
102
}
330
C357
100
AcDbXrecord
 10
0.0
 20
0.0
 30
0.0
  0
XRECORD
  5
C376
102
{ACAD_REACTORS
330
C357
102
}
330
C357
100
AcDbXrecord
 10
0.0
 20
0.0
 30
0.0
  0
XRECORD
  5
C377
102
{ACAD_REACTORS
330
C357
102
}
330
C357
100
AcDbXrecord
 10
0.0
 20
0.0
 30
0.0
  0
LAYER_INDEX
  5
C34E
102
{ACAD_REACTORS
330
C34D
102
}
330
C34D
100
AcDbIndex
 40
2453152.411295208
100
AcDbLayerIndex
  8
0
360
C34F
 90
        0
  8
AM_0
360
C350
 90
      518
  8
AM_5
360
C351
 90
        6
  8
AM_7
360
C352
 90
        1
  8
AM_6
360
C353
 90
        1
  8
Defpoints
360
C354
 90
        0
  8
AM_11
360
C355
 90
        4
  0
XRECORD
  5
2D
102
{ACAD_REACTORS
330
2C
102
}
330
2C
100
AcDbXrecord
  1
VERSION
140
15.0
  1
PRODUCT
  2
AutoCAD Mechanical 2000
  0
IDBUFFER
  5
C34F
330
0
100
AcDbIdBuffer
  0
IDBUFFER
  5
C350
330
0
100
AcDbIdBuffer
330
BA29
330
BA2A
330
BA2B
330
BA2C
330
BA2D
330
BA2E
330
BA2F
330
BA30
330
BA31
330
BA32
330
BA33
330
BA34
330
BA35
330
BA36
330
BA37
330
BA38
330
BA39
330
BA3A
330
BA3B
330
BA3C
330
BA3D
330
BA3E
330
B82A
330
B82B
330
B82C
330
B82E
330
B830
330
B832
330
B833
330
B834
330
B839
330
B83A
330
B83B
330
B83C
330
B83D
330
B83E
330
B83F
330
B840
330
B841
330
B842
330
B843
330
B844
330
B845
330
B846
330
B847
330
B848
330
B849
330
B84A
330
B84B
330
B84C
330
B84D
330
B84E
330
B84F
330
B850
330
B851
330
B852
330
B853
330
B854
330
B855
330
B856
330
B857
330
B858
330
B859
330
B85A
330
B85B
330
B85C
330
B85D
330
B85E
330
B85F
330
B860
330
B861
330
B862
330
B863
330
B864
330
B865
330
B866
330
B867
330
B868
330
B869
330
B86A
330
B86B
330
B86C
330
B86D
330
B86E
330
B86F
330
B870
330
B871
330
B872
330
B873
330
B874
330
B876
330
B877
330
B878
330
B879
330
B87A
330
B87B
330
B87D
330
B87E
330
B87F
330
B880
330
B881
330
B882
330
B883
330
B884
330
B885
330
B886
330
B887
330
B888
330
B889
330
B88A
330
B88B
330
B88C
330
B88D
330
B88E
330
B88F
330
B890
330
B891
330
B892
330
B893
330
B894
330
B895
330
B896
330
B897
330
B898
330
B899
330
B89A
330
B89B
330
B89C
330
B89D
330
B89E
330
B89F
330
B8A0
330
B8A1
330
B8A2
330
B8A3
330
B8A4
330
B8A5
330
B8A6
330
B8A7
330
B8A8
330
B8A9
330
B8AA
330
B8AB
330
B8AC
330
B8AD
330
B8AE
330
B8AF
330
B8B0
330
B8B1
330
B8B2
330
B8B3
330
B8B4
330
B8B5
330
B8B6
330
B8B7
330
B8B8
330
B8B9
330
B8BA
330
B8BB
330
B8BC
330
B8BD
330
B8BE
330
B8BF
330
B8C0
330
B8C1
330
B8C2
330
B8C3
330
B8C4
330
B8C5
330
B8C6
330
B8C7
330
B8C8
330
B8C9
330
B8CA
330
B8CB
330
B8CC
330
B8CD
330
B8CE
330
B8CF
330
B8D0
330
B8D1
330
B8D2
330
B8D3
330
B8D4
330
B8D5
330
B8D6
330
B8D7
330
B8D8
330
B8D9
330
B8DA
330
B8DB
330
B8DC
330
B8DD
330
B8DE
330
B8DF
330
B8E0
330
B8E1
330
B8E2
330
B8E3
330
B8E4
330
B8E5
330
B8E6
330
B8E7
330
B8E8
330
B8E9
330
B8EA
330
B8EB
330
B8EC
330
B8ED
330
B8EE
330
B8EF
330
B8F0
330
B8F1
330
B8F2
330
B8F3
330
B8F4
330
B8F5
330
B8F6
330
B8F7
330
B8F8
330
B8F9
330
B8FA
330
B8FB
330
B8FC
330
B8FD
330
B8FE
330
B8FF
330
B900
330
B901
330
B902
330
B903
330
B904
330
B905
330
B906
330
B907
330
B908
330
B909
330
B90A
330
B90B
330
B90C
330
B90D
330
B90E
330
B90F
330
B910
330
B911
330
B912
330
B913
330
B914
330
B915
330
B916
330
B917
330
B918
330
B919
330
B91A
330
B91B
330
B91C
330
B91D
330
B91E
330
B91F
330
B920
330
B921
330
B922
330
B923
330
B924
330
B925
330
B926
330
B927
330
B928
330
B929
330
B92A
330
B92B
330
B92C
330
B92D
330
B92E
330
B92F
330
B930
330
B931
330
B932
330
B933
330
B934
330
B935
330
B936
330
B937
330
B938
330
B939
330
B93A
330
B93B
330
B93C
330
B93D
330
B93E
330
B93F
330
B940
330
B941
330
B942
330
B943
330
B944
330
B945
330
B946
330
B947
330
B948
330
B949
330
B94A
330
B94B
330
B94C
330
B94D
330
B94E
330
B94F
330
B950
330
B951
330
B952
330
B953
330
B954
330
B955
330
B956
330
B957
330
B958
330
B959
330
B95A
330
B95B
330
B95C
330
B95D
330
B95E
330
B95F
330
B960
330
B961
330
B962
330
B963
330
B964
330
B965
330
B966
330
B967
330
B968
330
B969
330
B96A
330
B96B
330
B96C
330
B96D
330
B96E
330
B96F
330
B970
330
B971
330
B972
330
B973
330
B974
330
B975
330
B976
330
B977
330
B978
330
B979
330
B97A
330
B97B
330
B97C
330
B97D
330
B97E
330
B97F
330
B980
330
B981
330
B982
330
B983
330
B984
330
B985
330
B986
330
B987
330
B988
330
B989
330
B98A
330
B98B
330
B98C
330
B98D
330
B98F
330
B990
330
B991
330
B992
330
B997
330
B998
330
B999
330
B99A
330
B99B
330
B99D
330
B99E
330
B99F
330
B9A0
330
B9A1
330
B9A2
330
B9A3
330
B9A4
330
B9A5
330
B9A6
330
B9A7
330
B9A8
330
B9A9
330
B9AA
330
B9AB
330
B9AC
330
B9AD
330
B9AE
330
B9AF
330
B9B0
330
B9B1
330
B9B2
330
B9B3
330
B9B4
330
B9B5
330
B9B6
330
B9B7
330
B9B8
330
B9B9
330
B9BA
330
B9BB
330
B9BC
330
B9BD
330
B9BE
330
B9BF
330
B9C0
330
B9C1
330
B9C2
330
B9C3
330
B9C4
330
B9C5
330
B9C6
330
B9C7
330
B9C8
330
B9C9
330
B9CA
330
B9CB
330
B9CC
330
B9CD
330
B9CE
330
B9CF
330
B9D0
330
B9D1
330
B9D2
330
B9D3
330
B9D4
330
B9D5
330
B9D6
330
B9D7
330
B9D8
330
B9D9
330
B9DA
330
B9DB
330
B9DC
330
B9DD
330
B9DE
330
B9DF
330
B9E0
330
B9E1
330
B9E2
330
B9E3
330
B9E4
330
B9E5
330
B9E6
330
B9E7
330
B9E8
330
B9E9
330
B9EA
330
B9EB
330
B9EC
330
B9ED
330
B9EE
330
B9EF
330
B9F0
330
B9F1
330
B9F2
330
B9F3
330
B9F4
330
B9F5
330
B9F6
330
B9F7
330
B9F8
330
B9F9
330
B9FA
330
B9FB
330
B9FC
330
B9FD
330
B9FE
330
B9FF
330
BA00
330
BA01
330
BA02
330
BA03
330
BA04
330
BA05
330
BA06
330
BA07
330
BA08
330
BA09
330
BA0A
330
BA0B
330
BA0C
330
BA0D
330
BA0E
330
BA0F
330
BA10
330
BA11
330
BA12
330
BA13
330
BA14
330
BA15
330
BA16
330
BA17
330
BA18
330
BA19
330
BA1A
330
BA1B
330
BA1C
330
BA1D
330
BA1E
330
BA1F
330
BA20
330
BA21
330
BA22
330
BA23
330
BA24
330
BA25
330
BA26
330
BA27
330
BA28
  0
IDBUFFER
  5
C351
330
0
100
AcDbIdBuffer
330
BCDE
330
BD73
330
BDFF
330
BE94
330
BF3B
330
BFE2
  0
IDBUFFER
  5
C352
330
0
100
AcDbIdBuffer
330
B993
  0
IDBUFFER
  5
C353
330
0
100
AcDbIdBuffer
330
388D
  0
IDBUFFER
  5
C354
330
0
100
AcDbIdBuffer
  0
IDBUFFER
  5
C355
330
0
100
AcDbIdBuffer
330
B831
330
B836
330
B87C
330
B99C
  0
ENDSEC
  0
EOF
