  0
SECTION
  2
HEADER
  9
$ACADVER
  1
AC1014
  9
$ACADMAINTVER
 70
     9
  9
$DWGCODEPAGE
  3
ANSI_932
  9
$INSBASE
 10
0.0
 20
0.0
 30
0.0
  9
$EXTMIN
 10
-111.9534067795733
 20
-54.50009255272981
 30
-0.00000001
  9
$EXTMAX
 10
18.48256401879898
 20
27.30003151758003
 30
0.00000001
  9
$LIMMIN
 10
-128.0707291245868
 20
-70.17529395329495
  9
$LIMMAX
 10
54.99366630053043
 20
33.93819547752696
  9
$ORTHOMODE
 70
     0
  9
$REGENMODE
 70
     1
  9
$FILLMODE
 70
     1
  9
$QTEXTMODE
 70
     0
  9
$MIRRTEXT
 70
     0
  9
$DRAGMODE
 70
     2
  9
$LTSCALE
 40
1.0
  9
$OSMODE
 70
    55
  9
$ATTMODE
 70
     1
  9
$TEXTSIZE
 40
2.5
  9
$TRACEWID
 40
1.0
  9
$TEXTSTYLE
  7
STANDARD
  9
$CLAYER
  8
AM_0
  9
$CELTYPE
  6
BYLAYER
  9
$CECOLOR
 62
   256
  9
$CELTSCALE
 40
1.0
  9
$DELOBJ
 70
     1
  9
$DISPSILH
 70
     0
  9
$DIMSCALE
 40
1.0
  9
$DIMASZ
 40
2.5
  9
$DIMEXO
 40
1.0
  9
$DIMDLI
 40
12.0
  9
$DIMRND
 40
0.0
  9
$DIMDLE
 40
0.0
  9
$DIMEXE
 40
1.0
  9
$DIMTP
 40
0.1
  9
$DIMTM
 40
0.1
  9
$DIMTXT
 40
3.2
  9
$DIMCEN
 40
0.0
  9
$DIMTSZ
 40
0.0
  9
$DIMTOL
 70
     0
  9
$DIMLIM
 70
     0
  9
$DIMTIH
 70
     0
  9
$DIMTOH
 70
     0
  9
$DIMSE1
 70
     0
  9
$DIMSE2
 70
     0
  9
$DIMTAD
 70
     3
  9
$DIMZIN
 70
     8
  9
$DIMBLK
  1
OPEN30
  9
$DIMASO
 70
     1
  9
$DIMSHO
 70
     1
  9
$DIMPOST
  1

  9
$DIMAPOST
  1
"
  9
$DIMALT
 70
     0
  9
$DIMALTD
 70
     2
  9
$DIMALTF
 40
0.0393701
  9
$DIMLFAC
 40
1.0
  9
$DIMTOFL
 70
     1
  9
$DIMTVP
 40
0.0
  9
$DIMTIX
 70
     0
  9
$DIMSOXD
 70
     0
  9
$DIMSAH
 70
     0
  9
$DIMBLK1
  1

  9
$DIMBLK2
  1

  9
$DIMSTYLE
  2
AM_JIS
  9
$DIMCLRD
 70
   256
  9
$DIMCLRE
 70
   256
  9
$DIMCLRT
 70
     2
  9
$DIMTFAC
 40
0.71
  9
$DIMGAP
 40
1.5
  9
$DIMJUST
 70
     0
  9
$DIMSD1
 70
     0
  9
$DIMSD2
 70
     0
  9
$DIMTOLJ
 70
     0
  9
$DIMTZIN
 70
     0
  9
$DIMALTZ
 70
     0
  9
$DIMALTTZ
 70
     0
  9
$DIMFIT
 70
     3
  9
$DIMUPT
 70
     0
  9
$DIMUNIT
 70
     2
  9
$DIMDEC
 70
     3
  9
$DIMTDEC
 70
     3
  9
$DIMALTU
 70
     2
  9
$DIMALTTD
 70
     2
  9
$DIMTXSTY
  7
ASAMI
  9
$DIMAUNIT
 70
     0
  9
$LUNITS
 70
     2
  9
$LUPREC
 70
     0
  9
$SKETCHINC
 40
1.0
  9
$FILLETRAD
 40
2.5
  9
$AUNITS
 70
     0
  9
$AUPREC
 70
     0
  9
$MENU
  1
.
  9
$ELEVATION
 40
0.0
  9
$PELEVATION
 40
0.0
  9
$THICKNESS
 40
0.0
  9
$LIMCHECK
 70
     0
  9
$BLIPMODE
 70
     0
  9
$CHAMFERA
 40
2.5
  9
$CHAMFERB
 40
2.5
  9
$CHAMFERC
 40
20.0
  9
$CHAMFERD
 40
0.0
  9
$SKPOLY
 70
     0
  9
$TDCREATE
 40
2452839.420061482
  9
$TDUPDATE
 40
2453152.406119120
  9
$TDINDWG
 40
0.0563344560
  9
$TDUSRTIMER
 40
0.0563344560
  9
$USRTIMER
 70
     1
  9
$ANGBASE
 50
0.0
  9
$ANGDIR
 70
     0
  9
$PDMODE
 70
     0
  9
$PDSIZE
 40
0.0
  9
$PLINEWID
 40
0.0
  9
$COORDS
 70
     1
  9
$SPLFRAME
 70
     0
  9
$SPLINETYPE
 70
     6
  9
$SPLINESEGS
 70
     8
  9
$ATTDIA
 70
     1
  9
$ATTREQ
 70
     1
  9
$HANDLING
 70
 12289
  9
$HANDSEED
  5
1E0F
  9
$SURFTAB1
 70
     6
  9
$SURFTAB2
 70
     6
  9
$SURFTYPE
 70
     6
  9
$SURFU
 70
     6
  9
$SURFV
 70
     6
  9
$UCSNAME
  2

  9
$UCSORG
 10
0.0
 20
0.0
 30
0.0
  9
$UCSXDIR
 10
1.0
 20
0.0
 30
0.0
  9
$UCSYDIR
 10
0.0
 20
1.0
 30
0.0
  9
$PUCSNAME
  2

  9
$PUCSORG
 10
0.0
 20
0.0
 30
0.0
  9
$PUCSXDIR
 10
1.0
 20
0.0
 30
0.0
  9
$PUCSYDIR
 10
0.0
 20
1.0
 30
0.0
  9
$USERI1
 70
     0
  9
$USERI2
 70
     0
  9
$USERI3
 70
     0
  9
$USERI4
 70
     0
  9
$USERI5
 70
     0
  9
$USERR1
 40
0.0
  9
$USERR2
 40
0.0
  9
$USERR3
 40
0.0
  9
$USERR4
 40
0.0
  9
$USERR5
 40
0.0
  9
$WORLDVIEW
 70
     1
  9
$SHADEDGE
 70
     3
  9
$SHADEDIF
 70
    70
  9
$TILEMODE
 70
     1
  9
$MAXACTVP
 70
    64
  9
$PINSBASE
 10
0.0
 20
0.0
 30
0.0
  9
$PLIMCHECK
 70
     0
  9
$PEXTMIN
 10
1.000000000000000E+20
 20
1.000000000000000E+20
 30
1.000000000000000E+20
  9
$PEXTMAX
 10
-1.000000000000000E+20
 20
-1.000000000000000E+20
 30
-1.000000000000000E+20
  9
$PLIMMIN
 10
0.0
 20
0.0
  9
$PLIMMAX
 10
841.0
 20
594.0
  9
$UNITMODE
 70
     0
  9
$VISRETAIN
 70
     1
  9
$PLINEGEN
 70
     0
  9
$PSLTSCALE
 70
     0
  9
$TREEDEPTH
 70
  3020
  9
$PICKSTYLE
 70
     0
  9
$CMLSTYLE
  2
STANDARD
  9
$CMLJUST
 70
     0
  9
$CMLSCALE
 40
20.0
  9
$PROXYGRAPHICS
 70
     1
  9
$MEASUREMENT
 70
     1
  0
ENDSEC
  0
SECTION
  2
CLASSES
  0
CLASS
  1
ACDBDICTIONARYWDFLT
  2
AcDbDictionaryWithDefault
  3
AutoCAD 2000
 90
        0
280
     0
281
     0
  0
CLASS
  1
ACDBPLACEHOLDER
  2
AcDbPlaceHolder
  3
AutoCAD 2000
 90
        0
280
     0
281
     0
  0
CLASS
  1
LAYOUT
  2
AcDbLayout
  3
AutoCAD 2000
 90
        0
280
     0
281
     0
  0
CLASS
  1
AMGSETTINGSOBJ
  2
AmgSettingsObj
  3
"AcadM|Product Description: AutoCAD Mechanical 2000|Company: Autodesk"
 90
        0
280
     0
281
     0
  0
CLASS
  1
ACME_DOCUMENT
  2
AcMeDbDoc
  3
AcMeServices
 90
        0
280
     0
281
     0
  0
CLASS
  1
ACMESCOPE
  2
AcMeScope
  3
AcMeServices
 90
        0
280
     0
281
     0
  0
CLASS
  1
ACMECOMMANDHISTORY
  2
AcMeCommandHistory
  3
AcMeServices
 90
        0
280
     0
281
     0
  0
CLASS
  1
DICTIONARYVAR
  2
AcDbDictionaryVar
  3
AutoCAD 2000
 90
        0
280
     0
281
     0
  0
CLASS
  1
ACIMSYSVARMAN
  2
AcImSysVarManager
  3
AcMeServices
 90
        0
280
     0
281
     0
  0
CLASS
  1
ACIMREALSYSVAR
  2
AcImRealSysVar
  3
AcMeServices
 90
        0
280
     0
281
     0
  0
CLASS
  1
ACIMINTSYSVAR
  2
AcImIntSysVar
  3
AcMeServices
 90
        0
280
     0
281
     0
  0
CLASS
  1
ACMEDRAWINGMAN
  2
AcMeDrawingMan
  3
AcMeServices
 90
        0
280
     0
281
     0
  0
CLASS
  1
ACMEVIEW
  2
AcMeView
  3
AcMeServices
 90
        0
280
     0
281
     0
  0
CLASS
  1
ACDBENTITYCACHE
  2
AcMeEntityCache
  3
AcMeServices
 90
        0
280
     0
281
     0
  0
CLASS
  1
GSMANAGER
  2
AcMeGSManager
  3
AcMeServices
 90
        0
280
     0
281
     0
  0
CLASS
  1
AmdtInternalReactor
  2
AmdtInternalReactor
  3
AcMeServices
 90
        0
280
     0
281
     0
  0
CLASS
  1
ACMESTATEMGR
  2
AcMeStateMgr
  3
AcMeServices
 90
        0
280
     0
281
     0
  0
CLASS
  1
ACME_DATABASE
  2
AcMeDbDatabase
  3
AcMeServices
 90
        0
280
     0
281
     0
  0
CLASS
  1
ACRFINSADJUSTERMGR
  2
AcRfInsAdjusterMgr
  3
AcMeServices
 90
        0
280
     0
281
     0
  0
CLASS
  1
ACMDATADICTIONARY
  2
AcmDataDictionary
  3
"AcmSymBB|Product Description: AutoCAD Mechanical 2000|Company: Autodesk"
 90
        0
280
     0
281
     0
  0
CLASS
  1
ACMDATAENTRYBLOCK
  2
AcmDataEntryBlock
  3
"AcmSymBB|Product Description: AutoCAD Mechanical 2000|Company: Autodesk"
 90
        0
280
     0
281
     0
  0
CLASS
  1
AMGOBJPROPCFG
  2
AmgObjPropCfg
  3
"AmgLay|Product Description: AutoCAD Mechanical 2000|Company: Autodesk"
 90
        1
280
     0
281
     0
  0
CLASS
  1
ACAMGFILTERDAT
  2
AcAmgFilterDat
  3
"AcadM|Product Description: AutoCAD Mechanical 2000|Company: Autodesk"
 90
        0
280
     0
281
     0
  0
CLASS
  1
LAYER_INDEX
  2
AcDbLayerIndex
  3
AutoCAD 2000
 90
        0
280
     0
281
     0
  0
CLASS
  1
IDBUFFER
  2
AcDbIdBuffer
  3
AutoCAD 2000
 90
        0
280
     0
281
     0
  0
CLASS
  1
ACIMSTRSYSVAR
  2
AcImStrSysVar
  3
AcMeServices
 90
        0
280
     0
281
     0
  0
CLASS
  1
ACMSTANDARDJIS
  2
AcmStandardJIS
  3
"AcmSymBB|Product Description: AutoCAD Mechanical 2000|Company: Autodesk"
 90
        0
280
     0
281
     0
  0
CLASS
  1
ACMSURFSTANDARDJIS
  2
AcmSurfTextStdJIS
  3
"AcmSymBB|Product Description: AutoCAD Mechanical 2000|Company: Autodesk"
 90
        0
280
     0
281
     0
  0
CLASS
  1
ACMFCFSTANDARDJIS
  2
AcmFCFStdJIS
  3
"AcmSymBB|Product Description: AutoCAD Mechanical 2000|Company: Autodesk"
 90
        0
280
     0
281
     0
  0
CLASS
  1
ACMWELDSTANDARDJIS
  2
AcmWeldingStdJIS
  3
"AcmSymBB|Product Description: AutoCAD Mechanical 2000|Company: Autodesk"
 90
        0
280
     0
281
     0
  0
CLASS
  1
ACMIDSTANDARDJIS
  2
AcmIdStdJIS
  3
"AcmSymBB|Product Description: AutoCAD Mechanical 2000|Company: Autodesk"
 90
        0
280
     0
281
     0
  0
CLASS
  1
ACMDATUMSTANDARDJIS
  2
AcmDatumStdJIS
  3
"AcmSymBB|Product Description: AutoCAD Mechanical 2000|Company: Autodesk"
 90
        0
280
     0
281
     0
  0
CLASS
  1
ACMBOMSTANDARDJIS
  2
AcmBOMStdJIS
  3
"AcmSymBB|Product Description: AutoCAD Mechanical 2000|Company: Autodesk"
 90
        0
280
     0
281
     0
  0
CLASS
  1
ACMSTANDARDANSI
  2
AcmStandardANSI
  3
"AcmSymBB|Product Description: AutoCAD Mechanical 2000|Company: Autodesk"
 90
        0
280
     0
281
     0
  0
CLASS
  1
ACMSURFSTANDARDANSI
  2
AcmSurfTextStdANSI
  3
"AcmSymBB|Product Description: AutoCAD Mechanical 2000|Company: Autodesk"
 90
        0
280
     0
281
     0
  0
CLASS
  1
ACMFCFSTANDARDANSI
  2
AcmFCFStdANSI
  3
"AcmSymBB|Product Description: AutoCAD Mechanical 2000|Company: Autodesk"
 90
        0
280
     0
281
     0
  0
CLASS
  1
ACMWELDSTANDARDANSI
  2
AcmWeldingStdANSI
  3
"AcmSymBB|Product Description: AutoCAD Mechanical 2000|Company: Autodesk"
 90
        0
280
     0
281
     0
  0
CLASS
  1
ACMIDSTANDARDANSI
  2
AcmIdStdANSI
  3
"AcmSymBB|Product Description: AutoCAD Mechanical 2000|Company: Autodesk"
 90
        0
280
     0
281
     0
  0
CLASS
  1
ACMDATUMSTANDARDANSI
  2
AcmDatumStdANSI
  3
"AcmSymBB|Product Description: AutoCAD Mechanical 2000|Company: Autodesk"
 90
        0
280
     0
281
     0
  0
CLASS
  1
ACMBOMSTANDARDANSI
  2
AcmBOMStdANSI
  3
"AcmSymBB|Product Description: AutoCAD Mechanical 2000|Company: Autodesk"
 90
        0
280
     0
281
     0
  0
CLASS
  1
ACMSTANDARDBSI
  2
AcmStandardBSI
  3
"AcmSymBB|Product Description: AutoCAD Mechanical 2000|Company: Autodesk"
 90
        0
280
     0
281
     0
  0
CLASS
  1
ACMSURFSTANDARDBSI
  2
AcmSurfTextStdBSI
  3
"AcmSymBB|Product Description: AutoCAD Mechanical 2000|Company: Autodesk"
 90
        0
280
     0
281
     0
  0
CLASS
  1
ACMFCFSTANDARDBSI
  2
AcmFCFStdBSI
  3
"AcmSymBB|Product Description: AutoCAD Mechanical 2000|Company: Autodesk"
 90
        0
280
     0
281
     0
  0
CLASS
  1
ACMWELDSTANDARDBSI
  2
AcmWeldingStdBSI
  3
"AcmSymBB|Product Description: AutoCAD Mechanical 2000|Company: Autodesk"
 90
        0
280
     0
281
     0
  0
CLASS
  1
ACMIDSTANDARDBSI
  2
AcmIdStdBSI
  3
"AcmSymBB|Product Description: AutoCAD Mechanical 2000|Company: Autodesk"
 90
        0
280
     0
281
     0
  0
CLASS
  1
ACMDATUMSTANDARDBSI
  2
AcmDatumStdBSI
  3
"AcmSymBB|Product Description: AutoCAD Mechanical 2000|Company: Autodesk"
 90
        0
280
     0
281
     0
  0
CLASS
  1
ACMBOMSTANDARDBSI
  2
AcmBOMStdBSI
  3
"AcmSymBB|Product Description: AutoCAD Mechanical 2000|Company: Autodesk"
 90
        0
280
     0
281
     0
  0
CLASS
  1
LONG_TRANSACTION
  2
AcDbLongTransaction
  3
AutoCAD 2000
 90
        0
280
     0
281
     0
  0
CLASS
  1
LWPOLYLINE
  2
AcDbPolyline
  3
AutoCAD 2000
 90
        0
280
     0
281
     1
  0
CLASS
  1
HATCH
  2
AcDbHatch
  3
AutoCAD 2000
 90
        0
280
     0
281
     1
  0
CLASS
  1
XRECORD
  2
AcDbXrecord
  3
AutoCAD 2000
 90
        0
280
     0
281
     0
  0
ENDSEC
  0
SECTION
  2
TABLES
  0
TABLE
  2
VPORT
  5
8
330
0
100
AcDbSymbolTable
 70
     3
  0
VPORT
  5
1DE4
330
8
100
AcDbSymbolTableRecord
100
AcDbViewportTableRecord
  2
*ACTIVE
 70
     0
 10
0.0
 20
0.0
 11
1.0
 21
1.0
 12
-42.28611854162038
 22
-12.71483444811927
 13
0.0
 23
0.0
 14
2.5
 24
2.5
 15
10.0
 25
10.0
 16
0.0
 26
0.0
 36
1.0
 17
0.0
 27
0.0
 37
0.0
 40
99.52956600548995
 41
1.56570841889117
 42
50.0
 43
0.0
 44
0.0
 50
0.0
 51
0.0
 71
     0
 72
   100
 73
     1
 74
     3
 75
     0
 76
     0
 77
     0
 78
     0
  0
ENDTAB
  0
TABLE
  2
LTYPE
  5
5
330
0
100
AcDbSymbolTable
 70
    10
  0
LTYPE
  5
14
330
5
100
AcDbSymbolTableRecord
100
AcDbLinetypeTableRecord
  2
BYBLOCK
 70
     0
  3

 72
    65
 73
     0
 40
0.0
  0
LTYPE
  5
15
330
5
100
AcDbSymbolTableRecord
100
AcDbLinetypeTableRecord
  2
BYLAYER
 70
     0
  3

 72
    65
 73
     0
 40
0.0
  0
LTYPE
  5
16
330
5
100
AcDbSymbolTableRecord
100
AcDbLinetypeTableRecord
  2
CONTINUOUS
 70
     0
  3
Solid line
 72
    65
 73
     0
 40
0.0
  0
LTYPE
  5
4B
330
5
100
AcDbSymbolTableRecord
100
AcDbLinetypeTableRecord
  2
AM_ISO02W050
 70
     0
  3
__ __ __ __ __ __ __ __ __ __ __ __ __ __ __
 72
    65
 73
     2
 40
7.5
 49
6.0
 74
     0
 49
-1.5
 74
     0
  0
LTYPE
  5
4C
330
5
100
AcDbSymbolTableRecord
100
AcDbLinetypeTableRecord
  2
AM_ISO08W050
 70
     0
  3
____ . ____ . ____ . ____ . ____ . ____ . ____
 72
    65
 73
     4
 40
18.0
 49
12.0
 74
     0
 49
-1.5
 74
     0
 49
3.0
 74
     0
 49
-1.5
 74
     0
  0
LTYPE
  5
4D
330
5
100
AcDbSymbolTableRecord
100
AcDbLinetypeTableRecord
  2
AM_ISO09W050
 70
     0
  3
_____ . . _____ . . _____ . . ____ .. ____
 72
    65
 73
     6
 40
22.5
 49
12.0
 74
     0
 49
-1.5
 74
     0
 49
3.0
 74
     0
 49
-1.5
 74
     0
 49
3.0
 74
     0
 49
-1.5
 74
     0
  0
LTYPE
  5
4E
330
5
100
AcDbSymbolTableRecord
100
AcDbLinetypeTableRecord
  2
AMCONSTR
 70
     0
  3
_______________________
 72
    65
 73
     2
 40
9999.0
 49
9999.0
 74
     0
 49
0.0
 74
     0
  0
LTYPE
  5
4F
330
5
100
AcDbSymbolTableRecord
100
AcDbLinetypeTableRecord
  2
AM_ISO02W050X2
 70
     0
  3
 _ _ _ _ _ _ _ _ _ _ _ _
 72
    65
 73
     2
 40
3.75
 49
3.0
 74
     0
 49
-0.75
 74
     0
  0
LTYPE
  5
50
330
5
100
AcDbSymbolTableRecord
100
AcDbLinetypeTableRecord
  2
AM_ISO08W050X2
 70
     0
  3
__ . __ . __ . __ . __ . __
 72
    65
 73
     4
 40
9.0
 49
6.0
 74
     0
 49
-0.75
 74
     0
 49
1.5
 74
     0
 49
-0.75
 74
     0
  0
LTYPE
  5
53
330
5
100
AcDbSymbolTableRecord
100
AcDbLinetypeTableRecord
  2
AMZIGZAG
 70
     0
  3
/\/-/\/-/\/-/\/-/\/-/\/
 72
    65
 73
     2
 40
11.00009999999999
 49
0.0001
 74
     4
 75
   135
340
52
 46
0.04
 50
0.0
 44
0.0
 45
0.0
 49
-11.0
 74
     0
  0
LTYPE
  5
166
330
5
100
AcDbSymbolTableRecord
100
AcDbLinetypeTableRecord
  2
ACJISTGL
 70
     0
  3
_ _ _ _ _
 72
    65
 73
     2
 40
3.0
 49
2.0
 74
     0
 49
-1.0
 74
     0
  0
LTYPE
  5
26A
330
5
100
AcDbSymbolTableRecord
100
AcDbLinetypeTableRecord
  2
ACJISTGB
 70
     0
  3
__ . . __ . .
 72
    65
 73
     6
 40
9.0
 49
4.0
 74
     0
 49
-1.0
 74
     0
 49
1.0
 74
     0
 49
-1.0
 74
     0
 49
1.0
 74
     0
 49
-1.0
 74
     0
  0
ENDTAB
  0
TABLE
  2
LAYER
  5
2
330
0
100
AcDbSymbolTable
 70
     7
  0
LAYER
  5
10
330
2
100
AcDbSymbolTableRecord
100
AcDbLayerTableRecord
  2
0
 70
     0
 62
     7
  6
CONTINUOUS
  0
LAYER
  5
3F9
330
2
100
AcDbSymbolTableRecord
100
AcDbLayerTableRecord
  2
AM_0
 70
     0
 62
     7
  6
CONTINUOUS
  0
LAYER
  5
CD5
330
2
100
AcDbSymbolTableRecord
100
AcDbLayerTableRecord
  2
AM_7
 70
     0
 62
     4
  6
AM_ISO08W050
  0
LAYER
  5
CDE
330
2
100
AcDbSymbolTableRecord
100
AcDbLayerTableRecord
  2
AM_11
 70
     0
 62
     3
  6
AM_ISO09W050
  0
LAYER
  5
CFB
330
2
100
AcDbSymbolTableRecord
100
AcDbLayerTableRecord
  2
AM_5
 70
     0
 62
     3
  6
CONTINUOUS
  0
LAYER
  5
CFD
330
2
100
AcDbSymbolTableRecord
100
AcDbLayerTableRecord
  2
DEFPOINTS
 70
     0
 62
     7
  6
CONTINUOUS
  0
LAYER
  5
113C
330
2
100
AcDbSymbolTableRecord
100
AcDbLayerTableRecord
  2
AM_6
 70
     0
 62
     2
  6
CONTINUOUS
  0
ENDTAB
  0
TABLE
  2
STYLE
  5
3
330
0
100
AcDbSymbolTable
 70
     5
  0
STYLE
  5
11
330
3
100
AcDbSymbolTableRecord
100
AcDbTextStyleTableRecord
  2
STANDARD
 70
     0
 40
0.0
 41
1.0
 50
0.0
 71
     0
 42
2.5
  3
simplex.shx
  4
EXTFONT.SHX
  0
STYLE
  5
52
330
3
100
AcDbSymbolTableRecord
100
AcDbTextStyleTableRecord
  2

 70
     1
 40
0.0
 41
1.0
 50
0.0
 71
     0
 42
2.5
  3
ltypeshp.shx
  4

  0
STYLE
  5
6B
330
3
100
AcDbSymbolTableRecord
100
AcDbTextStyleTableRecord
  2
ASAMI
 70
     0
 40
0.0
 41
1.0
 50
0.0
 71
     0
 42
2.5
  3
simplex.shx
  4
EXTFONT.SHX
  0
STYLE
  5
262
330
3
100
AcDbSymbolTableRecord
100
AcDbTextStyleTableRecord
  2
ACJISTS
 70
     0
 40
1.0
 41
1.0
 50
0.0
 71
     0
 42
2.5
  3
simplex.shx
  4
bigfont.shx
  0
STYLE
  5
269
330
3
100
AcDbSymbolTableRecord
100
AcDbTextStyleTableRecord
  2
ACJISGDT
 70
     0
 40
0.0
 41
1.0
 50
0.0
 71
     0
 42
2.5
  3
amgdtans.shx
  4

  0
ENDTAB
  0
TABLE
  2
VIEW
  5
6
330
0
100
AcDbSymbolTable
 70
     0
  0
ENDTAB
  0
TABLE
  2
UCS
  5
7
330
0
100
AcDbSymbolTable
 70
     0
  0
ENDTAB
  0
TABLE
  2
APPID
  5
9
330
0
100
AcDbSymbolTable
 70
    12
  0
APPID
  5
12
330
9
100
AcDbSymbolTableRecord
100
AcDbRegAppTableRecord
  2
ACAD
 70
     0
  0
APPID
  5
30
330
9
100
AcDbSymbolTableRecord
100
AcDbRegAppTableRecord
  2
MCAD_NO_VIS
 70
     0
  0
APPID
  5
31
330
9
100
AcDbSymbolTableRecord
100
AcDbRegAppTableRecord
  2
ACAD_TEMP_GRAPHIC
 70
     0
  0
APPID
  5
2C2
330
9
100
AcDbSymbolTableRecord
100
AcDbRegAppTableRecord
  2
GENIUS_GENDTOL_13
 70
     0
  0
APPID
  5
339
330
9
100
AcDbSymbolTableRecord
100
AcDbRegAppTableRecord
  2
GENIUS_GENODEF_13
 70
     0
  0
APPID
  5
33A
330
9
100
AcDbSymbolTableRecord
100
AcDbRegAppTableRecord
  2
GENIUS_GENOBJ-N-RSBK_13
 70
     0
  0
APPID
  5
33B
330
9
100
AcDbSymbolTableRecord
100
AcDbRegAppTableRecord
  2
GENIUS_GENOBJ-N-LIB_13
 70
     0
  0
APPID
  5
33C
330
9
100
AcDbSymbolTableRecord
100
AcDbRegAppTableRecord
  2
GENIUS_GENSCALE_13
 70
     0
  0
APPID
  5
378
330
9
100
AcDbSymbolTableRecord
100
AcDbRegAppTableRecord
  2
GENIUS_GENDIMSH_14
 70
     0
  0
APPID
  5
13A0
330
9
100
AcDbSymbolTableRecord
100
AcDbRegAppTableRecord
  2
GENIUS_GENOBJ-N-CEN_13
 70
     0
  0
APPID
  5
13D7
330
9
100
AcDbSymbolTableRecord
100
AcDbRegAppTableRecord
  2
GENIUS_GENREC_14
 70
     0
  0
APPID
  5
13D8
330
9
100
AcDbSymbolTableRecord
100
AcDbRegAppTableRecord
  2
GENIUS_GENOBJ-N-REC_13
 70
     0
  0
ENDTAB
  0
TABLE
  2
DIMSTYLE
  5
A
330
0
100
AcDbSymbolTable
 70
     9
  0
DIMSTYLE
105
58
330
A
100
AcDbSymbolTableRecord
100
AcDbDimStyleTableRecord
  2
AM_JIS
 70
     0
  3

  4
"
  5
OPEN30
  6

  7

 40
1.0
 41
2.5
 42
1.0
 43
12.0
 44
1.0
 45
0.0
 46
0.0
 47
0.1
 48
0.1
140
3.2
141
0.0
142
0.0
143
0.0393701
144
1.0
145
0.0
146
0.71
147
1.5
 71
     0
 72
     0
 73
     0
 74
     0
 75
     0
 76
     0
 77
     3
 78
     8
170
     0
171
     2
172
     1
173
     0
174
     0
175
     0
176
   256
177
   256
178
     2
270
     2
271
     3
272
     3
273
     2
274
     2
340
6B
275
     0
280
     0
281
     0
282
     0
283
     0
284
     0
285
     0
286
     0
287
     3
288
     0
  0
DIMSTYLE
105
5F
330
A
100
AcDbSymbolTableRecord
100
AcDbDimStyleTableRecord
  2
AM_JIS$3
 70
     0
  3

  4
"
  5
OPEN30
  6

  7

 40
1.0
 41
2.5
 42
1.0
 43
10.0
 44
1.0
 45
0.0
 46
0.0
 47
0.1
 48
0.1
140
3.2
141
0.0
142
0.0
143
0.0393701
144
1.0
145
0.0
146
0.71
147
1.5
 71
     0
 72
     0
 73
     0
 74
     1
 75
     0
 76
     0
 77
     3
 78
     8
170
     0
171
     2
172
     0
173
     0
174
     0
175
     0
176
   256
177
   256
178
     2
270
     2
271
     2
272
     3
273
     2
274
     2
340
6B
275
     0
280
     0
281
     0
282
     0
283
     0
284
     0
285
     0
286
     0
287
     0
288
     1
  0
DIMSTYLE
105
60
330
A
100
AcDbSymbolTableRecord
100
AcDbDimStyleTableRecord
  2
AM_JIS$4
 70
     0
  3

  4
"
  5
OPEN30
  6

  7

 40
1.0
 41
2.5
 42
1.0
 43
10.0
 44
1.0
 45
0.0
 46
0.0
 47
0.1
 48
0.1
140
3.2
141
0.0
142
0.0
143
0.0393701
144
1.0
145
0.0
146
0.71
147
1.5
 71
     0
 72
     0
 73
     0
 74
     1
 75
     0
 76
     0
 77
     3
 78
     8
170
     0
171
     2
172
     0
173
     0
174
     0
175
     0
176
   256
177
   256
178
     2
270
     2
271
     2
272
     3
273
     2
274
     2
340
6B
275
     0
280
     0
281
     0
282
     0
283
     0
284
     0
285
     0
286
     0
287
     0
288
     1
  0
DIMSTYLE
105
61
330
A
100
AcDbSymbolTableRecord
100
AcDbDimStyleTableRecord
  2
AM_JIS$6
 70
     0
  3

  4
"
  5
OPEN30
  6

  7

 40
1.0
 41
2.5
 42
1.0
 43
10.0
 44
1.0
 45
0.0
 46
0.0
 47
0.1
 48
0.1
140
3.2
141
0.0
142
0.0
143
0.0393701
144
1.0
145
0.0
146
0.71
147
1.5
 71
     0
 72
     0
 73
     0
 74
     0
 75
     0
 76
     0
 77
     0
 78
     8
170
     0
171
     2
172
     1
173
     0
174
     0
175
     0
176
   256
177
   256
178
     2
270
     2
271
     2
272
     2
273
     2
274
     2
340
6B
275
     0
280
     0
281
     0
282
     0
283
     0
284
     0
285
     0
286
     0
287
     3
288
     0
  0
DIMSTYLE
105
62
330
A
100
AcDbSymbolTableRecord
100
AcDbDimStyleTableRecord
  2
AM_JIS$7
 70
     0
  3

  4
"
  5
OPEN30
  6

  7

 40
1.0
 41
2.5
 42
1.0
 43
10.0
 44
1.0
 45
0.0
 46
0.0
 47
0.1
 48
0.1
140
3.2
141
0.0
142
0.0
143
0.0393701
144
1.0
145
0.0
146
0.71
147
1.5
 71
     0
 72
     0
 73
     0
 74
     0
 75
     0
 76
     0
 77
     3
 78
     8
170
     0
171
     2
172
     1
173
     0
174
     0
175
     0
176
   256
177
   256
178
     2
270
     2
271
     2
272
     3
273
     2
274
     2
340
6B
275
     0
280
     0
281
     0
282
     0
283
     0
284
     0
285
     0
286
     0
287
     3
288
     0
  0
DIMSTYLE
105
63
330
A
100
AcDbSymbolTableRecord
100
AcDbDimStyleTableRecord
  2
AM_JIS$SF
 70
     0
  3

  4
"
  5
OPEN30
  6

  7

 40
1.0
 41
2.5
 42
1.0
 43
10.0
 44
1.0
 45
0.0
 46
0.0
 47
0.1
 48
0.1
140
3.2
141
0.0
142
0.0
143
0.0393701
144
1.0
145
0.0
146
0.71
147
1.5
 71
     0
 72
     0
 73
     0
 74
     0
 75
     1
 76
     1
 77
     3
 78
     8
170
     0
171
     2
172
     1
173
     0
174
     0
175
     0
176
   256
177
   256
178
     2
270
     2
271
     2
272
     2
273
     2
274
     2
340
6B
275
     0
280
     0
281
     0
282
     0
283
     0
284
     0
285
     0
286
     0
287
     3
288
     0
  0
DIMSTYLE
105
68
330
A
100
AcDbSymbolTableRecord
100
AcDbDimStyleTableRecord
  2
AM_JIS$SH
 70
     0
  3

  4
"
  5

  6
GENAXEH
  7
OPEN30
 40
1.0
 41
2.5
 42
1.0
 43
10.0
 44
1.0
 45
0.0
 46
0.0
 47
0.1
 48
0.1
140
3.2
141
0.0
142
0.0
143
0.0393701
144
2.0
145
0.0
146
0.71
147
1.5
 71
     0
 72
     0
 73
     0
 74
     0
 75
     1
 76
     1
 77
     3
 78
     8
170
     0
171
     2
172
     1
173
     1
174
     0
175
     0
176
   256
177
   256
178
     2
270
     2
271
     2
272
     2
273
     2
274
     2
340
6B
275
     0
280
     0
281
     0
282
     0
283
     0
284
     0
285
     0
286
     0
287
     3
288
     0
  0
DIMSTYLE
105
B34
330
A
100
AcDbSymbolTableRecord
100
AcDbDimStyleTableRecord
  2
AM_JIS$2
 70
     0
  3

  4
"
  5
OPEN30
  6

  7

 40
1.0
 41
2.5
 42
1.0
 43
12.0
 44
1.0
 45
0.0
 46
0.0
 47
0.1
 48
0.1
140
3.2
141
0.0
142
0.0
143
0.0393701
144
1.0
145
0.0
146
0.71
147
1.5
 71
     0
 72
     0
 73
     0
 74
     0
 75
     0
 76
     0
 77
     3
 78
     8
170
     0
171
     2
172
     1
173
     0
174
     0
175
     0
176
   256
177
   256
178
     2
270
     2
271
     3
272
     3
273
     2
274
     2
340
6B
275
     0
280
     0
281
     0
282
     0
283
     0
284
     0
285
     0
286
     0
287
     3
288
     0
  0
DIMSTYLE
105
BA5
102
{ACAD_REACTORS
330
155D
330
15E8
330
1673
330
16FE
330
1895
330
1BE6
102
}
330
A
100
AcDbSymbolTableRecord
100
AcDbDimStyleTableRecord
  2
AM_JIS$0
 70
     0
  3

  4
"
  5
OPEN30
  6

  7

 40
1.0
 41
2.5
 42
0.0
 43
10.0
 44
1.0
 45
0.0
 46
0.0
 47
0.1
 48
0.1000000001
140
3.799999999999999
141
0.0
142
0.0
143
0.0393701
144
1.0
145
0.0
146
0.71
147
1.5
 71
     0
 72
     0
 73
     0
 74
     0
 75
     0
 76
     0
 77
     3
 78
     1
170
     0
171
     2
172
     1
173
     0
174
     0
175
     0
176
     3
177
     3
178
     2
270
     2
271
     2
272
     2
273
     2
274
     2
340
11
275
     1
280
     0
281
     0
282
     0
283
     0
284
     8
285
     0
286
     0
287
     0
288
     0
  0
ENDTAB
  0
TABLE
  2
BLOCK_RECORD
  5
1
330
0
100
AcDbSymbolTable
 70
    12
  0
BLOCK_RECORD
  5
1F
102
{ACAD_XDICTIONARY
360
74
102
}
330
1
100
AcDbSymbolTableRecord
100
AcDbBlockTableRecord
  2
*MODEL_SPACE
  0
BLOCK_RECORD
  5
101
102
{ACAD_XDICTIONARY
360
1E0D
102
}
330
1
100
AcDbSymbolTableRecord
100
AcDbBlockTableRecord
  2
*PAPER_SPACE
  0
BLOCK_RECORD
  5
59
330
1
100
AcDbSymbolTableRecord
100
AcDbBlockTableRecord
  2
_OPEN30
  0
BLOCK_RECORD
  5
64
330
1
100
AcDbSymbolTableRecord
100
AcDbBlockTableRecord
  2
GENAXEH
  0
BLOCK_RECORD
  5
155E
330
1
100
AcDbSymbolTableRecord
100
AcDbBlockTableRecord
  2
*D5
  0
BLOCK_RECORD
  5
15E9
330
1
100
AcDbSymbolTableRecord
100
AcDbBlockTableRecord
  2
*D6
  0
BLOCK_RECORD
  5
1674
330
1
100
AcDbSymbolTableRecord
100
AcDbBlockTableRecord
  2
*D7
  0
BLOCK_RECORD
  5
16FF
330
1
100
AcDbSymbolTableRecord
100
AcDbBlockTableRecord
  2
*D8
  0
BLOCK_RECORD
  5
1896
330
1
100
AcDbSymbolTableRecord
100
AcDbBlockTableRecord
  2
*D9
  0
BLOCK_RECORD
  5
1BE7
330
1
100
AcDbSymbolTableRecord
100
AcDbBlockTableRecord
  2
*D10
  0
BLOCK_RECORD
  5
1CE8
330
1
100
AcDbSymbolTableRecord
100
AcDbBlockTableRecord
  2
A$C20BF7E05
  0
ENDTAB
  0
ENDSEC
  0
SECTION
  2
BLOCKS
  0
BLOCK
  5
20
330
1F
100
AcDbEntity
  8
0
100
AcDbBlockBegin
  2
*MODEL_SPACE
 70
     0
 10
0.0
 20
0.0
 30
0.0
  3
*MODEL_SPACE
  1

  0
ENDBLK
  5
21
330
1F
100
AcDbEntity
  8
0
100
AcDbBlockEnd
  0
BLOCK
  5
103
330
101
100
AcDbEntity
 67
     1
  8
0
100
AcDbBlockBegin
  2
*PAPER_SPACE
 70
     0
 10
0.0
 20
0.0
 30
0.0
  3
*PAPER_SPACE
  1

  0
ENDBLK
  5
104
330
101
100
AcDbEntity
 67
     1
  8
0
100
AcDbBlockEnd
  0
BLOCK
  5
5D
330
59
100
AcDbEntity
  8
0
100
AcDbBlockBegin
  2
_OPEN30
 70
     0
 10
0.0
 20
0.0
 30
0.0
  3
_OPEN30
  1

  0
LINE
  5
5A
330
59
100
AcDbEntity
  8
0
 62
     0
100
AcDbLine
 10
-1.0
 20
0.26794919
 30
0.0
 11
0.0
 21
0.0
 31
0.0
  0
LINE
  5
5B
330
59
100
AcDbEntity
  8
0
 62
     0
100
AcDbLine
 10
0.0
 20
0.0
 30
0.0
 11
-1.0
 21
-0.26794919
 31
0.0
  0
LINE
  5
5C
330
59
100
AcDbEntity
  8
0
 62
     0
100
AcDbLine
 10
0.0
 20
0.0
 30
0.0
 11
-1.0
 21
0.0
 31
0.0
  0
ENDBLK
  5
5E
330
59
100
AcDbEntity
  8
0
100
AcDbBlockEnd
  0
BLOCK
  5
66
330
64
100
AcDbEntity
  8
0
100
AcDbBlockBegin
  2
GENAXEH
 70
     0
 10
0.0
 20
0.0
 30
0.0
  3
GENAXEH
  1

  0
LINE
  5
65
330
64
100
AcDbEntity
  8
0
100
AcDbLine
 10
-1.0
 20
0.0
 30
0.0
 11
1.0
 21
0.0
 31
0.0
  0
ENDBLK
  5
67
330
64
100
AcDbEntity
  8
0
100
AcDbBlockEnd
  0
BLOCK
  5
1568
330
155E
100
AcDbEntity
  8
0
100
AcDbBlockBegin
  2
*D5
 70
     1
 10
0.0
 20
0.0
 30
0.0
  3
*D5
  1

  0
LINE
  5
1BD6
330
155E
100
AcDbEntity
  8
AM_5
 62
     3
100
AcDbLine
 10
-0.0000000000000008
 20
-6.0
 30
0.0
 11
-0.0000000000000018
 21
-23.00009255272986
 31
0.0
  0
LINE
  5
1BD7
330
155E
100
AcDbEntity
  8
AM_5
 62
     3
100
AcDbLine
 10
-24.99995040893599
 20
-5.499877929689997
 30
0.0
 11
-24.99995040893599
 21
-23.00009255272986
 31
0.0
  0
LINE
  5
1BD8
330
155E
100
AcDbEntity
  8
AM_5
 62
     3
100
AcDbLine
 10
-2.500000000000001
 20
-22.00009255272986
 30
0.0
 11
-22.49995040893599
 21
-22.00009255272986
 31
0.0
  0
INSERT
  5
1BD9
330
155E
100
AcDbEntity
  8
AM_5
 62
     3
100
AcDbBlockReference
  2
_OPEN30
 10
-0.0000000000000018
 20
-22.00009255272986
 30
0.0
 41
2.5
 42
2.5
 43
2.5
  0
INSERT
  5
1BDA
330
155E
100
AcDbEntity
  8
AM_5
 62
     3
100
AcDbBlockReference
  2
_OPEN30
 10
-24.99995040893599
 20
-22.00009255272986
 30
0.0
 41
2.5
 42
2.5
 43
2.5
 50
180.0
  0
MTEXT
  5
1BDB
330
155E
100
AcDbEntity
  8
AM_5
 62
     2
100
AcDbMText
 10
-12.49997520446799
 20
-18.60009255272986
 30
0.0
 40
3.799999999999999
 41
0.0
 71
     5
 72
     1
  1
25
1001
ACAD
1000
MTEXTBEGIN
1070
    73
1070
     1
1070
    44
1040
1.0
1070
    74
1070
     0
1000
MTEXTEND
  0
POINT
  5
1BDC
330
155E
100
AcDbEntity
  8
DEFPOINTS
 62
     0
100
AcDbPoint
 10
-0.0000000000000008
 20
-6.0
 30
0.0
  0
POINT
  5
1BDD
330
155E
100
AcDbEntity
  8
DEFPOINTS
 62
     0
100
AcDbPoint
 10
-24.99995040893599
 20
-5.499877929689997
 30
0.0
  0
POINT
  5
1BDE
330
155E
100
AcDbEntity
  8
DEFPOINTS
 62
     0
100
AcDbPoint
 10
-24.99995040893599
 20
-22.00009255272986
 30
0.0
  0
ENDBLK
  5
1569
330
155E
100
AcDbEntity
  8
0
100
AcDbBlockEnd
  0
BLOCK
  5
15F3
330
15E9
100
AcDbEntity
  8
0
100
AcDbBlockBegin
  2
*D6
 70
     1
 10
0.0
 20
0.0
 30
0.0
  3
*D6
  1

  0
LINE
  5
1C7D
330
15E9
100
AcDbEntity
  8
AM_5
 62
     3
100
AcDbLine
 10
-25.000038146972
 20
-7.499969482419996
 30
0.0
 11
-25.000038146972
 21
-23.00009255272999
 31
0.0
  0
LINE
  5
1C7E
330
15E9
100
AcDbEntity
  8
AM_5
 62
     3
100
AcDbLine
 10
-90.0
 20
-5.661499023429986
 30
0.0
 11
-90.0
 21
-23.00009255272999
 31
0.0
  0
LINE
  5
1C7F
330
15E9
100
AcDbEntity
  8
AM_5
 62
     3
100
AcDbLine
 10
-27.500038146972
 20
-22.00009255272999
 30
0.0
 11
-87.5
 21
-22.00009255272999
 31
0.0
  0
INSERT
  5
1C80
330
15E9
100
AcDbEntity
  8
AM_5
 62
     3
100
AcDbBlockReference
  2
_OPEN30
 10
-25.000038146972
 20
-22.00009255272999
 30
0.0
 41
2.5
 42
2.5
 43
2.5
  0
INSERT
  5
1C81
330
15E9
100
AcDbEntity
  8
AM_5
 62
     3
100
AcDbBlockReference
  2
_OPEN30
 10
-90.0
 20
-22.00009255272999
 30
0.0
 41
2.5
 42
2.5
 43
2.5
 50
180.0
  0
MTEXT
  5
1C82
330
15E9
100
AcDbEntity
  8
AM_5
 62
     2
100
AcDbMText
 10
-57.500019073486
 20
-18.60009255272999
 30
0.0
 40
3.799999999999999
 41
0.0
 71
     5
 72
     1
  1
65
1001
ACAD
1000
MTEXTBEGIN
1070
    73
1070
     1
1070
    44
1040
1.0
1070
    74
1070
     0
1000
MTEXTEND
  0
POINT
  5
1C83
330
15E9
100
AcDbEntity
  8
DEFPOINTS
 62
     0
100
AcDbPoint
 10
-25.000038146972
 20
-7.499969482419996
 30
0.0
  0
POINT
  5
1C84
330
15E9
100
AcDbEntity
  8
DEFPOINTS
 62
     0
100
AcDbPoint
 10
-90.0
 20
-5.661499023429986
 30
0.0
  0
POINT
  5
1C85
330
15E9
100
AcDbEntity
  8
DEFPOINTS
 62
     0
100
AcDbPoint
 10
-90.0
 20
-22.00009255272999
 30
0.0
  0
ENDBLK
  5
15F4
330
15E9
100
AcDbEntity
  8
0
100
AcDbBlockEnd
  0
BLOCK
  5
167E
330
1674
100
AcDbEntity
  8
0
100
AcDbBlockBegin
  2
*D7
 70
     1
 10
0.0
 20
0.0
 30
0.0
  3
*D7
  1

  0
LINE
  5
1C74
330
1674
100
AcDbEntity
  8
AM_5
 62
     3
100
AcDbLine
 10
-90.0
 20
-5.661499023429986
 30
0.0
 11
-90.0
 21
-33.00009255272981
 31
0.0
  0
LINE
  5
1C75
330
1674
100
AcDbEntity
  8
AM_5
 62
     3
100
AcDbLine
 10
-0.0000000000000009
 20
-7.918792724599995
 30
0.0
 11
-0.0000000000000025
 21
-33.00009255272981
 31
0.0
  0
LINE
  5
1C76
330
1674
100
AcDbEntity
  8
AM_5
 62
     3
100
AcDbLine
 10
-87.5
 20
-32.00009255272981
 30
0.0
 11
-2.500000000000002
 21
-32.00009255272981
 31
0.0
  0
INSERT
  5
1C77
330
1674
100
AcDbEntity
  8
AM_5
 62
     3
100
AcDbBlockReference
  2
_OPEN30
 10
-90.0
 20
-32.00009255272981
 30
0.0
 41
2.5
 42
2.5
 43
2.5
 50
180.0
  0
INSERT
  5
1C78
330
1674
100
AcDbEntity
  8
AM_5
 62
     3
100
AcDbBlockReference
  2
_OPEN30
 10
-0.0000000000000024
 20
-32.00009255272981
 30
0.0
 41
2.5
 42
2.5
 43
2.5
  0
MTEXT
  5
1C79
330
1674
100
AcDbEntity
  8
AM_5
 62
     2
100
AcDbMText
 10
-45.0
 20
-28.60009255272981
 30
0.0
 40
3.799999999999999
 41
0.0
 71
     5
 72
     1
  1
90
1001
ACAD
1000
MTEXTBEGIN
1070
    73
1070
     1
1070
    44
1040
1.0
1070
    74
1070
     0
1000
MTEXTEND
  0
POINT
  5
1C7A
330
1674
100
AcDbEntity
  8
DEFPOINTS
 62
     0
100
AcDbPoint
 10
-90.0
 20
-5.661499023429986
 30
0.0
  0
POINT
  5
1C7B
330
1674
100
AcDbEntity
  8
DEFPOINTS
 62
     0
100
AcDbPoint
 10
-0.0000000000000009
 20
-7.918792724599995
 30
0.0
  0
POINT
  5
1C7C
330
1674
100
AcDbEntity
  8
DEFPOINTS
 62
     0
100
AcDbPoint
 10
-0.0000000000000024
 20
-32.00009255272981
 30
0.0
  0
ENDBLK
  5
167F
330
1674
100
AcDbEntity
  8
0
100
AcDbBlockEnd
  0
BLOCK
  5
1709
330
16FF
100
AcDbEntity
  8
0
100
AcDbBlockBegin
  2
*D8
 70
     1
 10
0.0
 20
0.0
 30
0.0
  3
*D8
  1

  0
LINE
  5
1BA9
330
16FF
100
AcDbEntity
  8
AM_5
 62
     3
100
AcDbLine
 10
-87.0
 20
-7.999999999999989
 30
0.0
 11
-107.6534067795733
 21
-7.999999999999983
 31
0.0
  0
LINE
  5
1BAA
330
16FF
100
AcDbEntity
  8
AM_5
 62
     3
100
AcDbLine
 10
-86.99998474121001
 20
7.999969482430014
 30
0.0
 11
-107.6534067795733
 21
7.999969482430019
 31
0.0
  0
LINE
  5
1BAB
330
16FF
100
AcDbEntity
  8
AM_5
 62
     3
100
AcDbLine
 10
-106.6534067795733
 20
-5.499999999999983
 30
0.0
 11
-106.6534067795733
 21
5.499969482430019
 31
0.0
  0
INSERT
  5
1BAC
330
16FF
100
AcDbEntity
  8
AM_5
 62
     3
100
AcDbBlockReference
  2
_OPEN30
 10
-106.6534067795733
 20
-7.999999999999983
 30
0.0
 41
2.5
 42
2.5
 43
2.5
 50
270.0
  0
INSERT
  5
1BAD
330
16FF
100
AcDbEntity
  8
AM_5
 62
     3
100
AcDbBlockReference
  2
_OPEN30
 10
-106.6534067795733
 20
7.999969482430019
 30
0.0
 41
2.5
 42
2.5
 43
2.5
 50
90.0
  0
MTEXT
  5
1BAE
330
16FF
100
AcDbEntity
  8
AM_5
 62
     2
100
AcDbMText
 10
-110.0534067795734
 20
-0.0000152587849988
 30
0.0
 40
3.799999999999999
 41
0.0
 71
     5
 72
     1
  1
%%c16
 11
0.0000000000000001
 21
1.0
 31
0.0
1001
ACAD
1000
MTEXTBEGIN
1070
    73
1070
     1
1070
    44
1040
1.0
1070
    74
1070
     0
1000
MTEXTEND
  0
POINT
  5
1BAF
330
16FF
100
AcDbEntity
  8
DEFPOINTS
 62
     0
100
AcDbPoint
 10
-87.0
 20
-7.999999999999989
 30
0.0
  0
POINT
  5
1BB0
330
16FF
100
AcDbEntity
  8
DEFPOINTS
 62
     0
100
AcDbPoint
 10
-86.99998474121001
 20
7.999969482430014
 30
0.0
  0
POINT
  5
1BB1
330
16FF
100
AcDbEntity
  8
DEFPOINTS
 62
     0
100
AcDbPoint
 10
-106.6534067795733
 20
7.999969482430019
 30
0.0
  0
ENDBLK
  5
170A
330
16FF
100
AcDbEntity
  8
0
100
AcDbBlockEnd
  0
BLOCK
  5
18A0
330
1896
100
AcDbEntity
  8
0
100
AcDbBlockBegin
  2
*D9
 70
     1
 10
0.0
 20
0.0
 30
0.0
  3
*D9
  1

  0
LINE
  5
1B73
330
1896
100
AcDbEntity
  8
AM_5
 62
     3
100
AcDbLine
 10
-0.0000000000000009
 20
-7.918792724599995
 30
0.0
 11
18.48256401879898
 21
-7.918792724600001
 31
0.0
  0
LINE
  5
1B74
330
1896
100
AcDbEntity
  8
AM_5
 62
     3
100
AcDbLine
 10
0.0000000000000005
 20
7.918884277350002
 30
0.0
 11
18.48256401879898
 21
7.918884277349997
 31
0.0
  0
LINE
  5
1B75
330
1896
100
AcDbEntity
  8
AM_5
 62
     3
100
AcDbLine
 10
17.48256401879898
 20
-5.4187927246
 30
0.0
 11
17.48256401879898
 21
5.418884277349998
 31
0.0
  0
INSERT
  5
1B76
330
1896
100
AcDbEntity
  8
AM_5
 62
     3
100
AcDbBlockReference
  2
_OPEN30
 10
17.48256401879898
 20
-7.9187927246
 30
0.0
 41
2.5
 42
2.5
 43
2.5
 50
270.0
  0
INSERT
  5
1B77
330
1896
100
AcDbEntity
  8
AM_5
 62
     3
100
AcDbBlockReference
  2
_OPEN30
 10
17.48256401879898
 20
7.918884277349998
 30
0.0
 41
2.5
 42
2.5
 43
2.5
 50
90.0
  0
MTEXT
  5
1B78
330
1896
100
AcDbEntity
  8
AM_5
 62
     2
100
AcDbMText
 10
14.08256401879898
 20
0.0000457763750019
 30
0.0
 40
3.799999999999999
 41
0.0
 71
     5
 72
     1
  1
%%c16
 11
0.0000000000000001
 21
1.0
 31
0.0
1001
ACAD
1000
MTEXTBEGIN
1070
    73
1070
     1
1070
    44
1040
1.0
1070
    74
1070
     0
1000
MTEXTEND
  0
POINT
  5
1B79
330
1896
100
AcDbEntity
  8
DEFPOINTS
 62
     0
100
AcDbPoint
 10
-0.0000000000000009
 20
-7.918792724599995
 30
0.0
  0
POINT
  5
1B7A
330
1896
100
AcDbEntity
  8
DEFPOINTS
 62
     0
100
AcDbPoint
 10
0.0000000000000005
 20
7.918884277350002
 30
0.0
  0
POINT
  5
1B7B
330
1896
100
AcDbEntity
  8
DEFPOINTS
 62
     0
100
AcDbPoint
 10
17.48256401879898
 20
7.918884277349998
 30
0.0
  0
ENDBLK
  5
18A1
330
1896
100
AcDbEntity
  8
0
100
AcDbBlockEnd
  0
BLOCK
  5
1BF1
330
1BE7
100
AcDbEntity
  8
0
100
AcDbBlockBegin
  2
*D10
 70
     1
 10
0.0
 20
0.0
 30
0.0
  3
*D10
  1

  0
LINE
  5
1C86
330
1BE7
100
AcDbEntity
  8
AM_5
 62
     3
100
AcDbLine
 10
-8.999999999999998
 20
7.918884277350003
 30
0.0
 11
-8.999999999999996
 21
23.00003151758004
 31
0.0
  0
LINE
  5
1C87
330
1BE7
100
AcDbEntity
  8
AM_5
 62
     3
100
AcDbLine
 10
0.0000000000000005
 20
7.918884277350002
 30
0.0
 11
0.0000000000000015
 21
23.00003151758004
 31
0.0
  0
LINE
  5
1C88
330
1BE7
100
AcDbEntity
  8
AM_5
 62
     3
100
AcDbLine
 10
-6.499999999999998
 20
22.00003151758004
 30
0.0
 11
-2.499999999999998
 21
22.00003151758004
 31
0.0
  0
INSERT
  5
1C89
330
1BE7
100
AcDbEntity
  8
AM_5
 62
     3
100
AcDbBlockReference
  2
_OPEN30
 10
-8.999999999999998
 20
22.00003151758004
 30
0.0
 41
2.5
 42
2.5
 43
2.5
 50
180.0
  0
INSERT
  5
1C8A
330
1BE7
100
AcDbEntity
  8
AM_5
 62
     3
100
AcDbBlockReference
  2
_OPEN30
 10
0.0000000000000014
 20
22.00003151758004
 30
0.0
 41
2.5
 42
2.5
 43
2.5
  0
MTEXT
  5
1C8B
330
1BE7
100
AcDbEntity
  8
AM_5
 62
     2
100
AcDbMText
 10
-4.499999999999998
 20
25.40003151758003
 30
0.0
 40
3.799999999999999
 41
0.0
 71
     5
 72
     1
  1
9
1001
ACAD
1000
MTEXTBEGIN
1070
    73
1070
     1
1070
    44
1040
1.0
1070
    74
1070
     0
1000
MTEXTEND
  0
POINT
  5
1C8C
330
1BE7
100
AcDbEntity
  8
DEFPOINTS
 62
     0
100
AcDbPoint
 10
-8.999999999999998
 20
7.918884277350003
 30
0.0
  0
POINT
  5
1C8D
330
1BE7
100
AcDbEntity
  8
DEFPOINTS
 62
     0
100
AcDbPoint
 10
0.0000000000000005
 20
7.918884277350002
 30
0.0
  0
POINT
  5
1C8E
330
1BE7
100
AcDbEntity
  8
DEFPOINTS
 62
     0
100
AcDbPoint
 10
0.0000000000000014
 20
22.00003151758004
 30
0.0
  0
ENDBLK
  5
1BF2
330
1BE7
100
AcDbEntity
  8
0
100
AcDbBlockEnd
  0
BLOCK
  5
1D91
330
1CE8
100
AcDbEntity
  8
0
100
AcDbBlockBegin
  2
A$C20BF7E05
 70
     0
 10
0.0
 20
0.0
 30
0.0
  3
A$C20BF7E05
  1

  0
SPLINE
  5
1CE9
330
1CE8
100
AcDbEntity
  8
AM_0
 48
0.5
100
AcDbSpline
210
0.0
220
0.0
230
1.0
 70
     8
 71
     3
 72
    11
 73
     7
 74
     5
 42
0.0000000001
 43
0.0000000001
 44
0.0000000001
 40
0.0
 40
0.0
 40
0.0
 40
0.0
 40
0.1029710039308823
 40
0.2042394945493775
 40
0.3055824867506534
 40
0.4086039557443598
 40
0.4086039557443598
 40
0.4086039557443598
 40
0.4086039557443598
 10
0.6072998046875
 20
-0.4948120117200006
 30
0.0
 10
0.6379742763473564
 20
-0.4793027820737966
 30
0.0
 10
0.698816050713114
 20
-0.4485407509886466
 30
0.0
 10
0.7961482934859571
 20
-0.4173559283873566
 30
0.0
 10
0.8963695067034471
 20
-0.3971914416616362
 30
0.0
 10
0.96453745573833
 20
-0.3945300843131339
 30
0.0
 10
0.9989013671875
 20
-0.3931884765700033
 30
0.0
 11
0.6072998046875
 21
-0.4948120117200006
 31
0.0
 11
0.7003936767578
 21
-0.4508056640700034
 31
0.0
 11
0.7966003417969
 21
-0.4191894531300023
 31
0.0
 11
0.8961029052734
 21
-0.3999633789100017
 31
0.0
 11
0.9989013671875
 21
-0.3931884765700033
 31
0.0
  0
SPLINE
  5
1CEA
330
1CE8
100
AcDbEntity
  8
AM_0
 48
0.5
100
AcDbSpline
210
0.0
220
0.0
230
1.0
 70
     8
 71
     3
 72
    11
 73
     7
 74
     5
 42
0.0000000001
 43
0.0000000001
 44
0.0000000001
 40
0.0
 40
0.0
 40
0.0
 40
0.0
 40
0.2121001823864323
 40
0.4244673277002886
 40
0.6370559361026161
 40
0.8490708097508708
 40
0.8490708097508708
 40
0.8490708097508708
 40
0.8490708097508708
 10
0.1941070556641
 20
-1.193664550790003
 30
0.0
 10
0.1996102017672541
 20
-1.122715472331215
 30
0.0
 10
0.2106234205870956
 20
-0.9807280143415201
 30
0.0
 10
0.297963044053787
 20
-0.7835098478105183
 30
0.0
 10
0.4289464647731016
 20
-0.612272835276624
 30
0.0
 10
0.5479022700606727
 20
-0.5339303334618235
 30
0.0
 10
0.6072998046875
 20
-0.4948120117200006
 30
0.0
 11
0.1941070556641
 21
-1.193664550790003
 31
0.0
 11
0.2223968505859
 21
-0.9834594726600016
 31
0.0
 11
0.3052062988281
 21
-0.7879028320400039
 31
0.0
 11
0.4369964599609001
 21
-0.62109375
 31
0.0
 11
0.6072998046875
 21
-0.4948120117200006
 31
0.0
  0
SPLINE
  5
1CEB
330
1CE8
100
AcDbEntity
  8
AM_0
 48
0.5
100
AcDbSpline
210
0.0
220
0.0
230
1.0
 70
     8
 71
     3
 72
    11
 73
     7
 74
     5
 42
0.0000000001
 43
0.0000000001
 44
0.0000000001
 40
0.0
 40
0.0
 40
0.0
 40
0.0
 40
0.1029710039308823
 40
0.2042394945493775
 40
0.3055824867506534
 40
0.4086039557443598
 40
0.4086039557443598
 40
0.4086039557443598
 40
0.4086039557443598
 10
-0.6072998046875
 20
0.4948120117099962
 30
0.0
 10
-0.6379742763473564
 20
0.4793027820637922
 30
0.0
 10
-0.698816050713114
 20
0.448540750978642
 30
0.0
 10
-0.7961482934859571
 20
0.4173559283773522
 30
0.0
 10
-0.8963695067034471
 20
0.3971914416516318
 30
0.0
 10
-0.96453745573833
 20
0.3945300843031295
 30
0.0
 10
-0.9989013671875
 20
0.3931884765599989
 30
0.0
 11
-0.6072998046875
 21
0.4948120117099962
 31
0.0
 11
-0.7003936767578
 21
0.4508056640599989
 31
0.0
 11
-0.7966003417969
 21
0.4191894531199978
 31
0.0
 11
-0.8961029052734
 21
0.3999633788999972
 31
0.0
 11
-0.9989013671875
 21
0.3931884765599989
 31
0.0
  0
SPLINE
  5
1CEC
330
1CE8
100
AcDbEntity
  8
AM_0
 48
0.5
100
AcDbSpline
210
0.0
220
0.0
230
1.0
 70
     8
 71
     3
 72
    11
 73
     7
 74
     5
 42
0.0000000001
 43
0.0000000001
 44
0.0000000001
 40
0.0
 40
0.0
 40
0.0
 40
0.0
 40
0.2121001823864323
 40
0.4244673277002886
 40
0.637055936094766
 40
0.8490708097489797
 40
0.8490708097489797
 40
0.8490708097489797
 40
0.8490708097489797
 10
-0.1941070556641
 20
1.193664550779999
 30
0.0
 10
-0.1996102017674443
 20
1.122715472321376
 30
0.0
 10
-0.2106234205876664
 20
0.9807280143320138
 30
0.0
 10
-0.2979630440504231
 20
0.7835098478009465
 30
0.0
 10
-0.4289464647794085
 20
0.6122728352765701
 30
0.0
 10
-0.5479022700614835
 20
0.5339303334559827
 30
0.0
 10
-0.6072998046875
 20
0.4948120117099962
 30
0.0
 11
-0.1941070556641
 21
1.193664550779999
 31
0.0
 11
-0.2223968505859
 21
0.9834594726499972
 31
0.0
 11
-0.3052062988281
 21
0.7879028320299995
 31
0.0
 11
-0.4369964599609001
 21
0.62109375
 31
0.0
 11
-0.6072998046875
 21
0.4948120117099962
 31
0.0
  0
SPLINE
  5
1CED
330
1CE8
100
AcDbEntity
  8
AM_0
 48
0.5
100
AcDbSpline
210
0.0
220
0.0
230
1.0
 70
     8
 71
     3
 72
    11
 73
     7
 74
     5
 42
0.0000000001
 43
0.0000000001
 44
0.0000000001
 40
0.0
 40
0.0
 40
0.0
 40
0.0
 40
0.1956505383375142
 40
0.7084484434385525
 40
1.352410156038452
 40
1.999876089339495
 40
1.999876089339495
 40
1.999876089339495
 40
1.999876089339495
 10
6.372894287109399
 20
3.309631347649997
 30
0.0
 10
6.355391997348842
 20
3.372627959316521
 30
0.0
 10
6.292016398984339
 20
3.600737995998668
 30
0.0
 10
6.051144928196821
 20
3.988210438346342
 30
0.0
 10
5.717835281894181
 20
4.488105971505147
 30
0.0
 10
5.424612408500222
 20
4.804627616307111
 30
0.0
 10
5.277603149414099
 20
4.963317871089998
 30
0.0
 11
6.372894287109399
 21
3.309631347649997
 31
0.0
 11
6.315597534179699
 21
3.496704101559998
 31
0.0
 11
6.072998046875
 21
3.948486328119997
 31
0.0
 11
5.704895019531299
 21
4.476867675779999
 31
0.0
 11
5.277603149414099
 21
4.963317871089998
 31
0.0
  0
SPLINE
  5
1CEE
330
1CE8
100
AcDbEntity
  8
AM_0
 48
0.5
100
AcDbSpline
210
0.0
220
0.0
230
1.0
 70
     8
 71
     3
 72
    11
 73
     7
 74
     5
 42
0.0000000001
 43
0.0000000001
 44
0.0000000001
 40
0.0
 40
0.0
 40
0.0
 40
0.0
 40
0.4689880603514842
 40
1.387577530861638
 40
2.341213401182434
 40
2.826506216093804
 40
2.826506216093804
 40
2.826506216093804
 40
2.826506216093804
 10
4.6116943359375
 20
5.515563964839998
 30
0.0
 10
4.716098683864338
 20
5.399260207170932
 30
0.0
 10
5.024995944913943
 20
5.055156605097514
 30
0.0
 10
5.559320276790417
 20
4.484083716059137
 30
0.0
 10
6.000514928088012
 20
3.831679994462369
 30
0.0
 10
6.278979409149195
 20
3.441293142985591
 30
0.0
 10
6.372894287109399
 20
3.309631347649997
 30
0.0
 11
4.6116943359375
 21
5.515563964839998
 31
0.0
 11
4.925796508789099
 21
5.167297363279999
 31
0.0
 11
5.532806396484399
 21
4.477844238279999
 31
0.0
 11
6.0921936035156
 21
3.705505371089998
 31
0.0
 11
6.372894287109399
 21
3.309631347649997
 31
0.0
  0
SPLINE
  5
1CEF
330
1CE8
100
AcDbEntity
  8
AM_0
 48
0.5
100
AcDbSpline
210
0.0
220
0.0
230
1.0
 70
     8
 71
     3
 72
    11
 73
     7
 74
     5
 42
0.0000000001
 43
0.0000000001
 44
0.0000000001
 40
0.0
 40
0.0
 40
0.0
 40
0.0
 40
0.4221973912049108
 40
1.347601231284901
 40
2.295644240023704
 40
2.863651406717634
 40
2.863651406717634
 40
2.863651406717634
 40
2.863651406717634
 10
-6.372894287109399
 20
-3.309631347660001
 30
0.0
 10
-6.323825754845318
 20
-3.441942249090177
 30
0.0
 10
-6.167205141184715
 20
-3.864262086668669
 30
0.0
 10
-5.711388421427983
 20
-4.489042931624027
 30
0.0
 10
-5.177057298755061
 20
-5.108673518560356
 30
0.0
 10
-4.765783289332607
 20
-5.40466649342248
 30
0.0
 10
-4.6116943359375
 20
-5.515563964850002
 30
0.0
 11
-6.372894287109399
 21
-3.309631347660001
 31
0.0
 11
-6.2147979736328
 21
-3.701110839850002
 31
0.0
 11
-5.706604003906299
 21
-4.474487304690001
 31
0.0
 11
-5.062805175781299
 21
-5.17041015625
 31
0.0
 11
-4.6116943359375
 21
-5.515563964850002
 31
0.0
  0
SPLINE
  5
1CF0
330
1CE8
100
AcDbEntity
  8
AM_0
 48
0.5
100
AcDbSpline
210
0.0
220
0.0
230
1.0
 70
     8
 71
     3
 72
    11
 73
     7
 74
     5
 42
0.0000000001
 43
0.0000000001
 44
0.0000000001
 40
0.0
 40
0.0
 40
0.0
 40
0.0
 40
0.4689267483398015
 40
1.38835748068819
 40
2.341060050546963
 40
2.826505398910086
 40
2.826505398910086
 40
2.826505398910086
 40
2.826505398910086
 10
-4.6116943359375
 20
-5.515563964850002
 30
0.0
 10
-4.71606345683667
 20
-5.399256057397489
 30
0.0
 10
-5.025070461163523
 20
-5.054901733515172
 30
0.0
 10
-5.559471717310934
 20
-4.483961482072054
 30
0.0
 10
-6.000624747336011
 20
-3.831500742628522
 30
0.0
 10
-6.278946923308788
 20
-3.44133230265986
 30
0.0
 10
-6.372894287109399
 20
-3.309631347660001
 30
0.0
 11
-4.6116943359375
 21
-5.515563964850002
 31
0.0
 11
-4.925704956054699
 21
-5.167297363290003
 31
0.0
 11
-5.533294677734399
 21
-4.47723388672
 31
0.0
 11
-6.092102050781299
 21
-3.705627441410001
 31
0.0
 11
-6.372894287109399
 21
-3.309631347660001
 31
0.0
  0
SPLINE
  5
1CF1
330
1CE8
100
AcDbEntity
  8
AM_0
 48
0.5
100
AcDbSpline
210
0.0
220
0.0
230
1.0
 70
     8
 71
     3
 72
    11
 73
     7
 74
     5
 42
0.0000000001
 43
0.0000000001
 44
0.0000000001
 40
0.0
 40
0.0
 40
0.0
 40
0.0
 40
1.356203480606112
 40
2.712300263873991
 40
4.06850397521565
 40
5.424615903243227
 40
5.424615903243227
 40
5.424615903243227
 40
5.424615903243227
 10
0.9989013671875
 20
-0.3931884765700033
 30
0.0
 10
1.450968430549568
 20
-0.3923576231654293
 30
0.0
 10
2.35506699155436
 20
-0.3906959817224654
 30
0.0
 10
3.711232583572876
 20
-0.3881442034394157
 30
0.0
 10
5.067367408918392
 20
-0.3854622021032236
 30
0.0
 10
5.971471128055087
 20
-0.383817785799018
 30
0.0
 10
6.423507690429699
 20
-0.3829956054700005
 30
0.0
 11
0.9989013671875
 21
-0.3931884765700033
 31
0.0
 11
2.3551025390625
 21
-0.3906860351600017
 31
0.0
 11
3.711196899414099
 21
-0.3881225586000028
 31
0.0
 11
5.067398071289099
 21
-0.3854980468800022
 31
0.0
 11
6.423507690429699
 21
-0.3829956054700005
 31
0.0
  0
SPLINE
  5
1CF2
330
1CE8
100
AcDbEntity
  8
AM_0
 48
0.5
100
AcDbSpline
210
0.0
220
0.0
230
1.0
 70
     8
 71
     3
 72
    11
 73
     7
 74
     5
 42
0.0000000001
 43
0.0000000001
 44
0.0000000001
 40
0.0
 40
0.0
 40
0.0
 40
0.0
 40
1.356203480606112
 40
2.712300263873991
 40
4.06850397521565
 40
5.424615903243227
 40
5.424615903243227
 40
5.424615903243227
 40
5.424615903243227
 10
-0.9989013671875
 20
0.3931884765599989
 30
0.0
 10
-1.450968430549568
 20
0.3923576231554249
 30
0.0
 10
-2.35506699155436
 20
0.390695981712461
 30
0.0
 10
-3.711232583572876
 20
0.3881442034294111
 30
0.0
 10
-5.067367408918392
 20
0.3854622020932191
 30
0.0
 10
-5.971471128055087
 20
0.3838177857890137
 30
0.0
 10
-6.423507690429699
 20
0.3829956054599961
 30
0.0
 11
-0.9989013671875
 21
0.3931884765599989
 31
0.0
 11
-2.3551025390625
 21
0.3906860351499972
 31
0.0
 11
-3.711196899414099
 21
0.3881225585899983
 31
0.0
 11
-5.067398071289099
 21
0.3854980468699978
 31
0.0
 11
-6.423507690429699
 21
0.3829956054599961
 31
0.0
  0
SPLINE
  5
1CF3
330
1CE8
100
AcDbEntity
  8
AM_0
 48
0.5
100
AcDbSpline
210
0.0
220
0.0
230
1.0
 70
     8
 71
     3
 72
    11
 73
     7
 74
     5
 42
0.0000000001
 43
0.0000000001
 44
0.0000000001
 40
0.0
 40
0.0
 40
0.0
 40
0.0
 40
0.2143835275299736
 40
0.4565391850224641
 40
0.7266804974203436
 40
1.024530821708281
 40
1.024530821708281
 40
1.024530821708281
 40
1.024530821708281
 10
0.9131927490234
 20
-2.544311523440001
 30
0.0
 10
0.9187631100745738
 20
-2.473066554787896
 30
0.0
 10
0.9306254398155019
 20
-2.321347249204424
 30
0.0
 10
0.9537829343116154
 20
-2.080220144337163
 30
0.0
 10
0.9817957799559716
 20
-1.811625209528924
 30
0.0
 10
1.003447194669747
 20
-1.623535237975841
 30
0.0
 10
1.014801025390599
 20
-1.52490234375
 30
0.0
 11
0.9131927490234
 21
-2.544311523440001
 31
0.0
 11
0.9304962158202998
 21
-2.330627441410001
 31
0.0
 11
0.9532012939452998
 21
-2.08953857422
 31
0.0
 11
0.9812927246094
 21
-1.820861816410001
 31
0.0
 11
1.014801025390599
 21
-1.52490234375
 31
0.0
  0
SPLINE
  5
1CF4
330
1CE8
100
AcDbEntity
  8
AM_0
 48
0.5
100
AcDbSpline
210
0.0
220
0.0
230
1.0
 70
     8
 71
     3
 72
    11
 73
     7
 74
     5
 42
0.0000000001
 43
0.0000000001
 44
0.0000000001
 40
0.0
 40
0.0
 40
0.0
 40
0.0
 40
0.1084050571720095
 40
0.205002423907559
 40
0.290163113191528
 40
0.3645325225740542
 40
0.3645325225740542
 40
0.3645325225740542
 40
0.3645325225740542
 10
0.6672058105469
 20
-1.41864013672
 30
0.0
 10
0.7026351058882311
 20
-1.425808074377622
 30
0.0
 10
0.769634668563477
 20
-1.43936320393121
 30
0.0
 10
0.8629464894665016
 20
-1.46493878115353
 30
0.0
 10
0.9441640118317041
 20
-1.49175529871457
 30
0.0
 10
0.9923416665713434
 20
-1.514363090450056
 30
0.0
 10
1.014801025390599
 20
-1.52490234375
 30
0.0
 11
0.6672058105469
 21
-1.41864013672
 31
0.0
 11
0.773193359375
 21
-1.44140625
 31
0.0
 11
0.8663940429687999
 21
-1.466796875
 31
0.0
 11
0.9468994140625
 21
-1.494567871100002
 31
0.0
 11
1.014801025390599
 21
-1.52490234375
 31
0.0
  0
SPLINE
  5
1CF5
330
1CE8
100
AcDbEntity
  8
AM_0
 48
0.5
100
AcDbSpline
210
0.0
220
0.0
230
1.0
 70
     8
 71
     3
 72
    11
 73
     7
 74
     5
 42
0.0000000001
 43
0.0000000001
 44
0.0000000001
 40
0.0
 40
0.0
 40
0.0
 40
0.0
 40
0.0285872018355255
 40
0.0632923338857583
 40
0.1040771218494714
 40
0.1510364957577271
 40
0.1510364957577271
 40
0.1510364957577271
 40
0.1510364957577271
 10
-2.415496826171899
 20
-7.192810058600002
 30
0.0
 10
-2.417135646465306
 20
-7.183421699535433
 30
0.0
 10
-2.420764010017144
 20
-7.162635784216652
 30
0.0
 10
-2.424983296789898
 20
-7.128188358032237
 30
0.0
 10
-2.428945818459028
 20
-7.087563312744761
 30
0.0
 10
-2.431128574352657
 20
-7.058395711876303
 30
0.0
 10
-2.432296752929699
 20
-7.042785644540003
 30
0.0
 11
-2.415496826171899
 21
-7.192810058600002
 31
0.0
 11
-2.4201965332031
 21
-7.164611816410001
 31
0.0
 11
-2.424606323242199
 21
-7.130187988290003
 31
0.0
 11
-2.428604125976599
 21
-7.089599609380002
 31
0.0
 11
-2.432296752929699
 21
-7.042785644540003
 31
0.0
  0
SPLINE
  5
1CF6
330
1CE8
100
AcDbEntity
  8
AM_0
 48
0.5
100
AcDbSpline
210
0.0
220
0.0
230
1.0
 70
     8
 71
     3
 72
    11
 73
     7
 74
     5
 42
0.0000000001
 43
0.0000000001
 44
0.0000000001
 40
0.0
 40
0.0
 40
0.0
 40
0.0
 40
0.403969879241976
 40
0.8231914530752472
 40
1.257897034476225
 40
1.70799977752192
 40
1.70799977752192
 40
1.70799977752192
 40
1.70799977752192
 10
1.75390625
 20
-7.73358154297
 30
0.0
 10
1.620381768336107
 20
-7.751023594032439
 30
0.0
 10
1.348291650408827
 20
-7.786566212669367
 30
0.0
 10
0.9316447576527979
 20
-7.833786144671565
 30
0.0
 10
0.4992935966337388
 20
-7.878782056123977
 30
0.0
 10
0.2055395164427272
 20
-7.905200865860924
 30
0.0
 10
0.0561065673828
 20
-7.91864013672
 30
0.0
 11
1.75390625
 21
-7.73358154297
 31
0.0
 11
1.353195190429699
 21
-7.784790039070003
 31
0.0
 11
0.9367065429687999
 21
-7.832580566410001
 31
0.0
 11
0.5043029785156001
 21
-7.877258300790003
 31
0.0
 11
0.0561065673828
 21
-7.91864013672
 31
0.0
  0
SPLINE
  5
1CF7
330
1CE8
100
AcDbEntity
  8
AM_0
 48
0.5
100
AcDbSpline
210
0.0
220
0.0
230
1.0
 70
     8
 71
     3
 72
    11
 73
     7
 74
     5
 42
0.0000000001
 43
0.0000000001
 44
0.0000000001
 40
0.0
 40
0.0
 40
0.0
 40
0.0
 40
0.0207630128011753
 40
0.0352283528767903
 40
0.0438462597446614
 40
0.0488597182789455
 40
0.0488597182789455
 40
0.0488597182789455
 40
0.0488597182789455
 10
-2.415496826171899
 20
-7.192810058600002
 30
0.0
 10
-2.414065030638282
 20
-7.199694357050921
 30
0.0
 10
-2.411635720461156
 20
-7.211374863028568
 30
0.0
 10
-2.406835425825267
 20
-7.224299502698758
 30
0.0
 10
-2.402557545164175
 20
-7.234442492625425
 30
0.0
 10
-2.397693485794108
 20
-7.234259278555767
 30
0.0
 10
-2.3959045410156
 20
-7.234191894540003
 30
0.0
 11
-2.415496826171899
 21
-7.192810058600002
 31
0.0
 11
-2.4107055664063
 21
-7.213012695320003
 31
0.0
 11
-2.405807495117199
 21
-7.226623535160001
 31
0.0
 11
-2.400894165039099
 21
-7.233703613290003
 31
0.0
 11
-2.3959045410156
 21
-7.234191894540003
 31
0.0
  0
SPLINE
  5
1CF8
330
1CE8
100
AcDbEntity
  8
AM_0
 48
0.5
100
AcDbSpline
210
0.0
220
0.0
230
1.0
 70
     8
 71
     3
 72
    11
 73
     7
 74
     5
 42
0.0000000001
 43
0.0000000001
 44
0.0000000001
 40
0.0
 40
0.0
 40
0.0
 40
0.0
 40
0.0565323946571458
 40
0.1131021423852809
 40
0.1695665588784068
 40
0.2261363066065419
 40
0.2261363066065419
 40
0.2261363066065419
 40
0.2261363066065419
 10
-2.3959045410156
 20
-7.234191894540003
 30
0.0
 10
-2.383898207847585
 20
-7.248715988478904
 30
0.0
 10
-2.359877608477446
 20
-7.27777377296968
 30
0.0
 10
-2.323914664439202
 20
-7.321379111287286
 30
0.0
 10
-2.287979685092754
 20
-7.365023618104968
 30
0.0
 10
-2.263999944474167
 20
-7.394085759552904
 30
0.0
 10
-2.251998901367199
 20
-7.408630371100002
 30
0.0
 11
-2.3959045410156
 21
-7.234191894540003
 31
0.0
 11
-2.3598937988281
 21
-7.277770996100002
 31
0.0
 11
-2.323898315429699
 21
-7.321411132820003
 31
0.0
 11
-2.2879943847656
 21
-7.364990234380002
 31
0.0
 11
-2.251998901367199
 21
-7.408630371100002
 31
0.0
  0
SPLINE
  5
1CF9
330
1CE8
100
AcDbEntity
  8
AM_0
 48
0.5
100
AcDbSpline
210
0.0
220
0.0
230
1.0
 70
     8
 71
     3
 72
    11
 73
     7
 74
     5
 42
0.0000000001
 43
0.0000000001
 44
0.0000000001
 40
0.0
 40
0.0
 40
0.0
 40
0.0
 40
0.0271221616866554
 40
0.046799356743181
 40
0.0599919896397692
 40
0.0690663518547532
 40
0.0690663518547532
 40
0.0690663518547532
 40
0.0690663518547532
 10
-1.6356048583984
 20
-1.88983154297
 30
0.0
 10
-1.637796442724698
 20
-1.88098170874701
 30
0.0
 10
-1.641578026873636
 20
-1.865711298014097
 30
0.0
 10
-1.649169618647899
 20
-1.847763833824925
 30
0.0
 10
-1.656989865500796
 20
-1.834568301980128
 30
0.0
 10
-1.664670749381149
 20
-1.833589716314526
 30
0.0
 10
-1.6678009033203
 20
-1.83319091797
 30
0.0
 11
-1.6356048583984
 21
-1.88983154297
 31
0.0
 11
-1.6428985595703
 21
-1.863708496100002
 31
0.0
 11
-1.650695800781299
 21
-1.845642089850002
 31
0.0
 11
-1.658996582031299
 21
-1.835388183600002
 31
0.0
 11
-1.6678009033203
 21
-1.83319091797
 31
0.0
  0
SPLINE
  5
1CFA
330
1CE8
100
AcDbEntity
  8
AM_0
 48
0.5
100
AcDbSpline
210
0.0
220
0.0
230
1.0
 70
     8
 71
     3
 72
    11
 73
     7
 74
     5
 42
0.0000000001
 43
0.0000000001
 44
0.0000000001
 40
0.0
 40
0.0
 40
0.0
 40
0.0
 40
0.0507405948251247
 40
0.193562446375554
 40
0.4126830314152828
 40
0.6804445057915015
 40
0.6804445057915015
 40
0.6804445057915015
 40
0.6804445057915015
 10
0.6734008789063
 20
-1.37420654297
 30
0.0
 10
0.6803919621725196
 20
-1.389637723930453
 30
0.0
 10
0.7070611643071898
 20
-1.448503749200032
 30
0.0
 10
0.7338574436277922
 20
-1.584474117721631
 30
0.0
 10
0.7814965246938739
 20
-1.788436535082503
 30
0.0
 10
0.809818155824772
 20
-1.948363731199256
 30
0.0
 10
0.8253936767577998
 20
-2.03631591797
 30
0.0
 11
0.6734008789063
 21
-1.37420654297
 31
0.0
 11
0.6934051513672001
 21
-1.420837402350002
 31
0.0
 11
0.7295074462891
 21
-1.559020996100002
 31
0.0
 11
0.7760925292969
 21
-1.77313232422
 31
0.0
 11
0.8253936767577998
 21
-2.03631591797
 31
0.0
  0
SPLINE
  5
1CFB
330
1CE8
100
AcDbEntity
  8
AM_0
 48
0.5
100
AcDbSpline
210
0.0
220
0.0
230
1.0
 70
     8
 71
     3
 72
    11
 73
     7
 74
     5
 42
0.0000000001
 43
0.0000000001
 44
0.0000000001
 40
0.0
 40
0.0
 40
0.0
 40
0.0
 40
0.038393878686543
 40
0.0768231200060542
 40
0.1152426328765268
 40
0.1536718741960378
 40
0.1536718741960378
 40
0.1536718741960378
 40
0.1536718741960378
 10
-1.7987976074219
 20
-1.986877441410001
 30
0.0
 10
-1.790588637182492
 20
-1.977059021899579
 30
0.0
 10
-1.774163135842115
 20
-1.957413139635973
 30
0.0
 10
-1.749701816663074
 20
-1.927793803932541
 30
0.0
 10
-1.725203432729796
 20
-1.898190013863012
 30
0.0
 10
-1.708867735259688
 20
-1.878458376311147
 30
0.0
 10
-1.700698852539099
 20
-1.868591308600002
 30
0.0
 11
-1.7987976074219
 21
-1.986877441410001
 31
0.0
 11
-1.774200439453099
 21
-1.957397460940001
 31
0.0
 11
-1.749694824218799
 21
-1.927795410160001
 31
0.0
 11
-1.7252044677734
 21
-1.898193359380002
 31
0.0
 11
-1.700698852539099
 21
-1.868591308600002
 31
0.0
  0
SPLINE
  5
1CFC
330
1CE8
100
AcDbEntity
  8
AM_0
 48
0.5
100
AcDbSpline
210
0.0
220
0.0
230
1.0
 70
     8
 71
     3
 72
    11
 73
     7
 74
     5
 42
0.0000000001
 43
0.0000000001
 44
0.0000000001
 40
0.0
 40
0.0
 40
0.0
 40
0.0
 40
0.0208224054374573
 40
0.0351994645067779
 40
0.0438610956593279
 40
0.048896033641583
 40
0.048896033641583
 40
0.048896033641583
 40
0.048896033641583
 10
-1.8249053955078
 20
-2.083435058600002
 30
0.0
 10
-1.826353034475729
 20
-2.076540624232137
 30
0.0
 10
-1.828800211706203
 20
-2.064885851753766
 30
0.0
 10
-1.833446054601824
 20
-2.051857400694625
 30
0.0
 10
-1.837833163449774
 20
-2.041834640447407
 30
0.0
 10
-1.842706290860487
 20
-2.041949839618746
 30
0.0
 10
-1.844497680664099
 20
-2.0419921875
 30
0.0
 11
-1.8249053955078
 21
-2.083435058600002
 31
0.0
 11
-1.8296966552734
 21
-2.06317138672
 31
0.0
 11
-1.834503173828099
 21
-2.049621582040003
 31
0.0
 11
-1.839492797851599
 21
-2.042541503910001
 31
0.0
 11
-1.844497680664099
 21
-2.0419921875
 31
0.0
  0
SPLINE
  5
1CFD
330
1CE8
100
AcDbEntity
  8
AM_0
 48
0.5
100
AcDbSpline
210
0.0
220
0.0
230
1.0
 70
     8
 71
     3
 72
    11
 73
     7
 74
     5
 42
0.0000000001
 43
0.0000000001
 44
0.0000000001
 40
0.0
 40
0.0
 40
0.0
 40
0.0
 40
0.0676619855547834
 40
0.1262695939876173
 40
0.1756494967292636
 40
0.2161463574021622
 40
0.2161463574021622
 40
0.2161463574021622
 40
0.2161463574021622
 10
-1.611495971679699
 20
-2.104431152350002
 30
0.0
 10
-1.612909454186969
 20
-2.081919666605862
 30
0.0
 10
-1.615547270101444
 20
-2.039909132305635
 30
0.0
 10
-1.620998034668636
 20
-1.98161292961505
 30
0.0
 10
-1.627066482063139
 20
-1.932455353842535
 30
0.0
 10
-1.632952654478764
 20
-1.903071418307785
 30
0.0
 10
-1.6356048583984
 20
-1.88983154297
 30
0.0
 11
-1.611495971679699
 21
-2.104431152350002
 31
0.0
 11
-1.616104125976599
 21
-2.036926269540003
 31
0.0
 11
-1.621597290039099
 21
-1.978576660160001
 31
0.0
 11
-1.628097534179699
 21
-1.929626464850002
 31
0.0
 11
-1.6356048583984
 21
-1.88983154297
 31
0.0
  0
SPLINE
  5
1CFE
330
1CE8
100
AcDbEntity
  8
AM_0
 48
0.5
100
AcDbSpline
210
0.0
220
0.0
230
1.0
 70
     8
 71
     3
 72
    11
 73
     7
 74
     5
 42
0.0000000001
 43
0.0000000001
 44
0.0000000001
 40
0.0
 40
0.0
 40
0.0
 40
0.0
 40
0.0559692382799995
 40
0.1092588371182028
 40
0.1600594870169051
 40
0.2082053553218155
 40
0.2082053553218155
 40
0.2082053553218155
 40
0.2082053553218155
 10
-1.607101440429699
 20
-2.312561035160001
 30
0.0
 10
-1.607036569909286
 20
-2.293904196905033
 30
0.0
 10
-1.60690993467462
 20
-2.257483753913785
 30
0.0
 10
-1.60781086474668
 20
-2.204136500903282
 30
0.0
 10
-1.609058496027491
 20
-2.153403234936369
 30
0.0
 10
-1.610698143970644
 20
-2.120460557370797
 30
0.0
 10
-1.611495971679699
 20
-2.104431152350002
 30
0.0
 11
-1.607101440429699
 21
-2.312561035160001
 31
0.0
 11
-1.607101440429699
 21
-2.256591796880002
 31
0.0
 11
-1.6078948974609
 21
-2.20330810547
 31
0.0
 11
-1.609298706054699
 21
-2.15252685547
 31
0.0
 11
-1.611495971679699
 21
-2.104431152350002
 31
0.0
  0
SPLINE
  5
1CFF
330
1CE8
100
AcDbEntity
  8
AM_0
 48
0.5
100
AcDbSpline
210
0.0
220
0.0
230
1.0
 70
     8
 71
     3
 72
    11
 73
     7
 74
     5
 42
0.0000000001
 43
0.0000000001
 44
0.0000000001
 40
0.0
 40
0.0
 40
0.0
 40
0.0
 40
0.0416461778075036
 40
0.0841408506415946
 40
0.1276054061591824
 40
0.1719806512321933
 40
0.1719806512321933
 40
0.1719806512321933
 40
0.1719806512321933
 10
-1.800598144531299
 20
-2.383361816410001
 30
0.0
 10
-1.800151550168953
 20
-2.397236716206085
 30
0.0
 10
-1.799249262575763
 20
-2.425269201607401
 30
0.0
 10
-1.798145747981505
 20
-2.467790306438134
 30
0.0
 10
-1.797318785275825
 20
-2.511227890825575
 30
0.0
 10
-1.797044222331974
 20
-2.540506680878525
 30
0.0
 10
-1.796905517578099
 20
-2.555297851570003
 30
0.0
 11
-1.800598144531299
 21
-2.383361816410001
 31
0.0
 11
-1.7993011474609
 21
-2.42498779297
 31
0.0
 11
-1.7982025146484
 21
-2.46746826172
 31
0.0
 11
-1.797393798828099
 21
-2.51092529297
 31
0.0
 11
-1.796905517578099
 21
-2.555297851570003
 31
0.0
  0
SPLINE
  5
1D00
330
1CE8
100
AcDbEntity
  8
AM_0
 48
0.5
100
AcDbSpline
210
0.0
220
0.0
230
1.0
 70
     8
 71
     3
 72
    11
 73
     7
 74
     5
 42
0.0000000001
 43
0.0000000001
 44
0.0000000001
 40
0.0
 40
0.0
 40
0.0
 40
0.0
 40
0.0516548211597604
 40
0.1024479540186342
 40
0.1522575872898666
 40
0.2013314565848039
 40
0.2013314565848039
 40
0.2013314565848039
 40
0.2013314565848039
 10
-1.6107025146484
 20
-2.51385498047
 30
0.0
 10
-1.610216321968625
 20
-2.496643548616583
 30
0.0
 10
-1.609252047111344
 20
-2.462507800209669
 30
0.0
 10
-1.608139130538584
 20
-2.411766981204997
 30
0.0
 10
-1.607442730241874
 20
-2.361879070786735
 30
0.0
 10
-1.607214637977234
 20
-2.328918630620005
 30
0.0
 10
-1.607101440429699
 20
-2.312561035160001
 30
0.0
 11
-1.6107025146484
 21
-2.51385498047
 31
0.0
 11
-1.609298706054699
 21
-2.462219238290003
 31
0.0
 11
-1.608200073242199
 21
-2.411437988290003
 31
0.0
 11
-1.6074981689453
 21
-2.361633300790003
 31
0.0
 11
-1.607101440429699
 21
-2.312561035160001
 31
0.0
  0
ELLIPSE
  5
1D01
330
1CE8
100
AcDbEntity
  8
AM_0
 48
0.5
100
AcDbEllipse
 10
-1.805801391601599
 20
-6.677795410160001
 30
0.0
 11
0.0007781988265001
 21
0.2286376971700292
 31
0.0
210
0.0
220
0.0
230
0.9999999999999998
 40
0.0782835045382
 41
3.141591536843587
 42
3.759068477770111
  0
SPLINE
  5
1D02
330
1CE8
100
AcDbEntity
  8
AM_0
 48
0.5
100
AcDbSpline
210
0.0
220
0.0
230
1.0
 70
     8
 71
     3
 72
    11
 73
     7
 74
     5
 42
0.0000000001
 43
0.0000000001
 44
0.0000000001
 40
0.0
 40
0.0
 40
0.0
 40
0.0
 40
0.0095344357560869
 40
0.0220600707605706
 40
0.0390928166455787
 40
0.0611518596178709
 40
0.0611518596178709
 40
0.0611518596178709
 40
0.0611518596178709
 10
-1.628799438476599
 20
-7.11346435547
 30
0.0
 10
-1.625741266041056
 20
-7.112395026299672
 30
0.0
 10
-1.618665493331273
 20
-7.109920891723989
 30
0.0
 10
-1.610651677433969
 20
-7.098912272334545
 30
0.0
 10
-1.603153993150635
 20
-7.083561492828559
 30
0.0
 10
-1.599151737169395
 20
-7.071112011797201
 30
0.0
 10
-1.5968933105469
 20
-7.064086914070003
 30
0.0
 11
-1.628799438476599
 21
-7.11346435547
 31
0.0
 11
-1.6201019287109
 21
-7.10955810547
 31
0.0
 11
-1.6118927001953
 21
-7.10009765625
 31
0.0
 11
-1.6042022705078
 21
-7.084899902350002
 31
0.0
 11
-1.5968933105469
 21
-7.064086914070003
 31
0.0
  0
SPLINE
  5
1D03
330
1CE8
100
AcDbEntity
  8
AM_0
 48
0.5
100
AcDbSpline
210
0.0
220
0.0
230
1.0
 70
     8
 71
     3
 72
    11
 73
     7
 74
     5
 42
0.0000000001
 43
0.0000000001
 44
0.0000000001
 40
0.0
 40
0.0
 40
0.0
 40
0.0
 40
0.115501885337834
 40
0.2242668463121288
 40
0.3156698203438904
 40
0.380614856549754
 40
0.380614856549754
 40
0.380614856549754
 40
0.380614856549754
 10
1.730895996093799
 20
-7.318786621100002
 30
0.0
 10
1.736782642883164
 20
-7.356840992853847
 30
0.0
 10
1.748212583675412
 20
-7.430730123898434
 30
0.0
 10
1.760303975103223
 20
-7.535236290145268
 30
0.0
 10
1.767935475773277
 20
-7.623419887515289
 30
0.0
 10
1.766572594010919
 20
-7.675550271101263
 30
0.0
 10
1.766006469726599
 20
-7.697204589850002
 30
0.0
 11
1.730895996093799
 21
-7.318786621100002
 31
0.0
 11
1.747802734375
 21
-7.433044433600002
 31
0.0
 11
1.760406494140599
 21
-7.541076660160001
 31
0.0
 11
1.7666931152344
 21
-7.632263183600002
 31
0.0
 11
1.766006469726599
 21
-7.697204589850002
 31
0.0
  0
SPLINE
  5
1D04
330
1CE8
100
AcDbEntity
  8
AM_0
 48
0.5
100
AcDbSpline
210
0.0
220
0.0
230
1.0
 70
     8
 71
     3
 72
    11
 73
     7
 74
     5
 42
0.0000000001
 43
0.0000000001
 44
0.0000000001
 40
0.0
 40
0.0
 40
0.0
 40
0.0
 40
1.054547289185363
 40
2.109128484469158
 40
3.163770122772858
 40
4.2183259837681
 40
4.2183259837681
 40
4.2183259837681
 40
4.2183259837681
 10
0.8253936767577998
 20
-2.03631591797
 30
0.0
 10
0.8857939630608033
 20
-2.382603571402523
 30
0.0
 10
1.006596477673653
 20
-3.075190012204743
 30
0.0
 10
1.187238901344436
 20
-4.114193699370046
 30
0.0
 10
1.367088710516981
 20
-5.153337774324857
 30
0.0
 10
1.486632509076237
 20
-5.84616592878428
 30
0.0
 10
1.546401977539099
 20
-6.19256591797
 30
0.0
 11
0.8253936767577998
 21
-2.03631591797
 31
0.0
 11
1.006500244140599
 21
-3.0751953125
 31
0.0
 11
1.1871032714844
 21
-4.114196777350002
 31
0.0
 11
1.367004394531299
 21
-5.153381347660001
 31
0.0
 11
1.546401977539099
 21
-6.19256591797
 31
0.0
  0
ELLIPSE
  5
1D05
330
1CE8
100
AcDbEntity
  8
AM_0
 48
0.5
100
AcDbEllipse
 10
-1.804801940918
 20
-6.699493408210003
 30
0.0
 11
0.0006942817435001
 21
0.2027893102500115
 31
0.0
210
0.0
220
0.0
230
1.0
 40
0.0783680369813
 41
3.758942696122047
 42
4.30527977282216
  0
SPLINE
  5
1D06
330
1CE8
100
AcDbEntity
  8
AM_0
 48
0.5
100
AcDbSpline
210
0.0
220
0.0
230
1.0
 70
     8
 71
     3
 72
    11
 73
     7
 74
     5
 42
0.0000000001
 43
0.0000000001
 44
0.0000000001
 40
0.0
 40
0.0
 40
0.0
 40
0.0
 40
0.0351333676223973
 40
0.0785379284965363
 40
0.1286021828312885
 40
0.184286327428344
 40
0.184286327428344
 40
0.184286327428344
 40
0.184286327428344
 10
-1.5968933105469
 20
-7.064086914070003
 30
0.0
 10
-1.594152868342709
 20
-7.052691565071073
 30
0.0
 10
-1.588026821554514
 20
-7.027218142924644
 30
0.0
 10
-1.583088926836534
 20
-6.984559797530659
 30
0.0
 10
-1.579273120332584
 20
-6.934984710591626
 30
0.0
 10
-1.578700948082172
 20
-6.899729144366481
 30
0.0
 10
-1.578399658203099
 20
-6.881164550790003
 30
0.0
 11
-1.5968933105469
 21
-7.064086914070003
 31
0.0
 11
-1.589294433593799
 21
-7.02978515625
 31
0.0
 11
-1.5836029052734
 21
-6.986755371100002
 31
0.0
 11
-1.579895019531299
 21
-6.936828613290003
 31
0.0
 11
-1.578399658203099
 21
-6.881164550790003
 31
0.0
  0
ELLIPSE
  5
1D07
330
1CE8
100
AcDbEntity
  8
AM_0
 48
0.5
100
AcDbEllipse
 10
-1.806999206543
 20
-6.68670654297
 30
0.0
 11
0.0008010829488001
 21
0.2340087887899926
 31
0.0
210
0.0
220
0.0
230
1.0
 40
0.0782146378959
 41
4.305501554462241
 42
4.504545741386369
  0
SPLINE
  5
1D08
330
1CE8
100
AcDbEntity
  8
AM_0
 48
0.5
100
AcDbSpline
210
0.0
220
0.0
230
1.0
 70
     8
 71
     3
 72
    11
 73
     7
 74
     5
 42
0.0000000001
 43
0.0000000001
 44
0.0000000001
 40
0.0
 40
0.0
 40
0.0
 40
0.0
 40
0.0247810673728957
 40
0.0500566285245428
 40
0.07583753913957
 40
0.1020033504832677
 40
0.1020033504832677
 40
0.1020033504832677
 40
0.1020033504832677
 10
-1.578399658203099
 20
-6.881164550790003
 30
0.0
 10
-1.578441109409879
 20
-6.872904201839522
 30
0.0
 10
-1.578524838961493
 20
-6.856218672815477
 30
0.0
 10
-1.579109201484418
 20
-6.830944295010456
 30
0.0
 10
-1.580246140643714
 20
-6.80522699875133
 30
0.0
 10
-1.581281069545495
 20
-6.78794225009768
 30
0.0
 10
-1.581802368164099
 20
-6.779235839850002
 30
0.0
 11
-1.578399658203099
 21
-6.881164550790003
 31
0.0
 11
-1.5785980224609
 21
-6.856384277350002
 31
0.0
 11
-1.5791931152344
 21
-6.831115722660001
 31
0.0
 11
-1.5803070068359
 21
-6.80535888672
 31
0.0
 11
-1.581802368164099
 21
-6.779235839850002
 31
0.0
  0
ELLIPSE
  5
1D09
330
1CE8
100
AcDbEntity
  8
AM_0
 48
0.5
100
AcDbEllipse
 10
-1.804702758789099
 20
-6.692687988290003
 30
0.0
 11
0.0006866418803
 21
0.2034912147599925
 31
0.0
210
0.0
220
0.0
230
1.0
 40
0.0785844109559
 41
4.50364593209878
 42
4.755376549726455
  0
SPLINE
  5
1D0A
330
1CE8
100
AcDbEntity
  8
AM_0
 48
0.5
100
AcDbSpline
210
0.0
220
0.0
230
1.0
 70
     8
 71
     3
 72
    11
 73
     7
 74
     5
 42
0.0000000001
 43
0.0000000001
 44
0.0000000001
 40
0.0
 40
0.0
 40
0.0
 40
0.0
 40
0.2143835275299736
 40
0.4565391850224641
 40
0.7266804974203436
 40
1.02453082169834
 40
1.02453082169834
 40
1.02453082169834
 40
1.02453082169834
 10
-0.9131927490234
 20
2.544311523429996
 30
0.0
 10
-0.9187631100745697
 20
2.473066554777891
 30
0.0
 10
-0.9306254398154887
 20
2.321347249194418
 30
0.0
 10
-0.9537829343116786
 20
2.080220144327165
 30
0.0
 10
-0.9817957799553493
 20
1.811625209522184
 30
0.0
 10
-1.003447194669651
 20
1.623535237972495
 30
0.0
 10
-1.014801025390599
 20
1.52490234375
 30
0.0
 11
-0.9131927490234
 21
2.544311523429996
 31
0.0
 11
-0.9304962158202998
 21
2.330627441399997
 31
0.0
 11
-0.9532012939452998
 21
2.089538574209996
 31
0.0
 11
-0.9812927246094
 21
1.820861816399997
 31
0.0
 11
-1.014801025390599
 21
1.52490234375
 31
0.0
  0
SPLINE
  5
1D0B
330
1CE8
100
AcDbEntity
  8
AM_0
 48
0.5
100
AcDbSpline
210
0.0
220
0.0
230
1.0
 70
     8
 71
     3
 72
    11
 73
     7
 74
     5
 42
0.0000000001
 43
0.0000000001
 44
0.0000000001
 40
0.0
 40
0.0
 40
0.0
 40
0.0
 40
0.1084050571741105
 40
0.20500242390966
 40
0.2901631131903666
 40
0.3645325225769735
 40
0.3645325225769735
 40
0.3645325225769735
 40
0.3645325225769735
 10
-0.6672058105469
 20
1.418640136709996
 30
0.0
 10
-0.7026351058882103
 20
1.425808074371375
 30
0.0
 10
-0.7696346685628055
 20
1.439363203931945
 30
0.0
 10
-0.8629464894639207
 20
1.464938781157248
 30
0.0
 10
-0.9441640118359922
 20
1.49175529870043
 30
0.0
 10
-0.9923416665719447
 20
1.514363090445202
 30
0.0
 10
-1.014801025390599
 20
1.52490234375
 30
0.0
 11
-0.6672058105469
 21
1.418640136709996
 31
0.0
 11
-0.773193359375
 21
1.44140625
 31
0.0
 11
-0.8663940429687999
 21
1.466796875
 31
0.0
 11
-0.9468994140625
 21
1.494567871089998
 31
0.0
 11
-1.014801025390599
 21
1.52490234375
 31
0.0
  0
SPLINE
  5
1D0C
330
1CE8
100
AcDbEntity
  8
AM_0
 48
0.5
100
AcDbSpline
210
0.0
220
0.0
230
1.0
 70
     8
 71
     3
 72
    11
 73
     7
 74
     5
 42
0.0000000001
 43
0.0000000001
 44
0.0000000001
 40
0.0
 40
0.0
 40
0.0
 40
0.0
 40
0.0285872018355255
 40
0.0632923338857583
 40
0.1040771218494714
 40
0.1510364957577271
 40
0.1510364957577271
 40
0.1510364957577271
 40
0.1510364957577271
 10
2.415496826171899
 20
7.192810058589998
 30
0.0
 10
2.417135646465306
 20
7.183421699525428
 30
0.0
 10
2.420764010017144
 20
7.162635784206647
 30
0.0
 10
2.424983296789898
 20
7.128188358022231
 30
0.0
 10
2.428945818459028
 20
7.087563312734757
 30
0.0
 10
2.431128574352657
 20
7.0583957118663
 30
0.0
 10
2.432296752929699
 20
7.042785644529999
 30
0.0
 11
2.415496826171899
 21
7.192810058589998
 31
0.0
 11
2.4201965332031
 21
7.164611816399997
 31
0.0
 11
2.424606323242199
 21
7.130187988279999
 31
0.0
 11
2.428604125976599
 21
7.089599609369997
 31
0.0
 11
2.432296752929699
 21
7.042785644529999
 31
0.0
  0
SPLINE
  5
1D0D
330
1CE8
100
AcDbEntity
  8
AM_0
 48
0.5
100
AcDbSpline
210
0.0
220
0.0
230
1.0
 70
     8
 71
     3
 72
    11
 73
     7
 74
     5
 42
0.0000000001
 43
0.0000000001
 44
0.0000000001
 40
0.0
 40
0.0
 40
0.0
 40
0.0
 40
0.403969879241976
 40
0.8231914530752472
 40
1.257897034476225
 40
1.70799977752192
 40
1.70799977752192
 40
1.70799977752192
 40
1.70799977752192
 10
-1.75390625
 20
7.733581542959996
 30
0.0
 10
-1.620381768336107
 20
7.751023594022436
 30
0.0
 10
-1.348291650408827
 20
7.786566212659364
 30
0.0
 10
-0.9316447576527979
 20
7.833786144661559
 30
0.0
 10
-0.4992935966337388
 20
7.878782056113973
 30
0.0
 10
-0.2055395164427272
 20
7.90520086585092
 30
0.0
 10
-0.0561065673828
 20
7.918640136709996
 30
0.0
 11
-1.75390625
 21
7.733581542959996
 31
0.0
 11
-1.353195190429699
 21
7.784790039059998
 31
0.0
 11
-0.9367065429687999
 21
7.832580566399997
 31
0.0
 11
-0.5043029785156001
 21
7.877258300779999
 31
0.0
 11
-0.0561065673828
 21
7.918640136709996
 31
0.0
  0
SPLINE
  5
1D0E
330
1CE8
100
AcDbEntity
  8
AM_0
 48
0.5
100
AcDbSpline
210
0.0
220
0.0
230
1.0
 70
     8
 71
     3
 72
    11
 73
     7
 74
     5
 42
0.0000000001
 43
0.0000000001
 44
0.0000000001
 40
0.0
 40
0.0
 40
0.0
 40
0.0
 40
0.0207630128011753
 40
0.0352283528767903
 40
0.0438462597446614
 40
0.0488597182789455
 40
0.0488597182789455
 40
0.0488597182789455
 40
0.0488597182789455
 10
2.415496826171899
 20
7.192810058589998
 30
0.0
 10
2.414065030638282
 20
7.199694357040916
 30
0.0
 10
2.411635720461156
 20
7.211374863018564
 30
0.0
 10
2.406835425825267
 20
7.224299502688753
 30
0.0
 10
2.402557545164175
 20
7.23444249261542
 30
0.0
 10
2.397693485794108
 20
7.234259278545763
 30
0.0
 10
2.3959045410156
 20
7.234191894529999
 30
0.0
 11
2.415496826171899
 21
7.192810058589998
 31
0.0
 11
2.4107055664063
 21
7.213012695309998
 31
0.0
 11
2.405807495117199
 21
7.226623535149997
 31
0.0
 11
2.400894165039099
 21
7.233703613279999
 31
0.0
 11
2.3959045410156
 21
7.234191894529999
 31
0.0
  0
SPLINE
  5
1D0F
330
1CE8
100
AcDbEntity
  8
AM_0
 48
0.5
100
AcDbSpline
210
0.0
220
0.0
230
1.0
 70
     8
 71
     3
 72
    11
 73
     7
 74
     5
 42
0.0000000001
 43
0.0000000001
 44
0.0000000001
 40
0.0
 40
0.0
 40
0.0
 40
0.0
 40
0.0565323946571458
 40
0.1131021423852809
 40
0.1695665588784068
 40
0.2261363066065419
 40
0.2261363066065419
 40
0.2261363066065419
 40
0.2261363066065419
 10
2.3959045410156
 20
7.234191894529999
 30
0.0
 10
2.383898207847585
 20
7.2487159884689
 30
0.0
 10
2.359877608477446
 20
7.277773772959676
 30
0.0
 10
2.323914664439202
 20
7.321379111277281
 30
0.0
 10
2.287979685092754
 20
7.365023618094963
 30
0.0
 10
2.263999944474167
 20
7.3940857595429
 30
0.0
 10
2.251998901367199
 20
7.408630371089998
 30
0.0
 11
2.3959045410156
 21
7.234191894529999
 31
0.0
 11
2.3598937988281
 21
7.277770996089998
 31
0.0
 11
2.323898315429699
 21
7.321411132809998
 31
0.0
 11
2.2879943847656
 21
7.364990234369997
 31
0.0
 11
2.251998901367199
 21
7.408630371089998
 31
0.0
  0
SPLINE
  5
1D10
330
1CE8
100
AcDbEntity
  8
AM_0
 48
0.5
100
AcDbSpline
210
0.0
220
0.0
230
1.0
 70
     8
 71
     3
 72
    11
 73
     7
 74
     5
 42
0.0000000001
 43
0.0000000001
 44
0.0000000001
 40
0.0
 40
0.0
 40
0.0
 40
0.0
 40
0.038393878686543
 40
0.0768231200060542
 40
0.1152426328765268
 40
0.1536718741960378
 40
0.1536718741960378
 40
0.1536718741960378
 40
0.1536718741960378
 10
1.7987976074219
 20
1.986877441399997
 30
0.0
 10
1.790588637182492
 20
1.977059021889574
 30
0.0
 10
1.774163135842115
 20
1.957413139625969
 30
0.0
 10
1.749701816663074
 20
1.927793803922537
 30
0.0
 10
1.725203432729796
 20
1.898190013853007
 30
0.0
 10
1.708867735259688
 20
1.878458376301143
 30
0.0
 10
1.700698852539099
 20
1.868591308589998
 30
0.0
 11
1.7987976074219
 21
1.986877441399997
 31
0.0
 11
1.774200439453099
 21
1.957397460929996
 31
0.0
 11
1.749694824218799
 21
1.927795410149997
 31
0.0
 11
1.7252044677734
 21
1.898193359369997
 31
0.0
 11
1.700698852539099
 21
1.868591308589998
 31
0.0
  0
SPLINE
  5
1D11
330
1CE8
100
AcDbEntity
  8
AM_0
 48
0.5
100
AcDbSpline
210
0.0
220
0.0
230
1.0
 70
     8
 71
     3
 72
    11
 73
     7
 74
     5
 42
0.0000000001
 43
0.0000000001
 44
0.0000000001
 40
0.0
 40
0.0
 40
0.0
 40
0.0
 40
0.0208224054374573
 40
0.0351994645067779
 40
0.0438610956593279
 40
0.0488960336404915
 40
0.0488960336404915
 40
0.0488960336404915
 40
0.0488960336404915
 10
1.8249053955078
 20
2.083435058589998
 30
0.0
 10
1.826353034475671
 20
2.076540624221665
 30
0.0
 10
1.82880021170605
 20
2.064885851742504
 30
0.0
 10
1.83344605460216
 20
2.051857400687369
 30
0.0
 10
1.837833163449002
 20
2.041834640432871
 30
0.0
 10
1.842706290860459
 20
2.041949839614844
 30
0.0
 10
1.844497680664099
 20
2.0419921875
 30
0.0
 11
1.8249053955078
 21
2.083435058589998
 31
0.0
 11
1.8296966552734
 21
2.063171386709996
 31
0.0
 11
1.834503173828099
 21
2.049621582029999
 31
0.0
 11
1.839492797851599
 21
2.042541503899997
 31
0.0
 11
1.844497680664099
 21
2.0419921875
 31
0.0
  0
SPLINE
  5
1D12
330
1CE8
100
AcDbEntity
  8
AM_0
 48
0.5
100
AcDbSpline
210
0.0
220
0.0
230
1.0
 70
     8
 71
     3
 72
    11
 73
     7
 74
     5
 42
0.0000000001
 43
0.0000000001
 44
0.0000000001
 40
0.0
 40
0.0
 40
0.0
 40
0.0
 40
0.0271221616866554
 40
0.046799356743181
 40
0.0599919896397692
 40
0.0690663518547532
 40
0.0690663518547532
 40
0.0690663518547532
 40
0.0690663518547532
 10
1.6356048583984
 20
1.889831542959996
 30
0.0
 10
1.637796442724698
 20
1.880981708737006
 30
0.0
 10
1.641578026873636
 20
1.865711298004092
 30
0.0
 10
1.649169618647899
 20
1.847763833814921
 30
0.0
 10
1.656989865500796
 20
1.834568301970123
 30
0.0
 10
1.664670749381149
 20
1.833589716304522
 30
0.0
 10
1.6678009033203
 20
1.833190917959996
 30
0.0
 11
1.6356048583984
 21
1.889831542959996
 31
0.0
 11
1.6428985595703
 21
1.863708496089998
 31
0.0
 11
1.650695800781299
 21
1.845642089839998
 31
0.0
 11
1.658996582031299
 21
1.835388183589998
 31
0.0
 11
1.6678009033203
 21
1.833190917959996
 31
0.0
  0
SPLINE
  5
1D13
330
1CE8
100
AcDbEntity
  8
AM_0
 48
0.5
100
AcDbSpline
210
0.0
220
0.0
230
1.0
 70
     8
 71
     3
 72
    11
 73
     7
 74
     5
 42
0.0000000001
 43
0.0000000001
 44
0.0000000001
 40
0.0
 40
0.0
 40
0.0
 40
0.0
 40
0.0507405948251247
 40
0.193562446375554
 40
0.4126830314152828
 40
0.6804445057915015
 40
0.6804445057915015
 40
0.6804445057915015
 40
0.6804445057915015
 10
-0.6734008789063
 20
1.374206542959996
 30
0.0
 10
-0.6803919621725196
 20
1.389637723920449
 30
0.0
 10
-0.7070611643071898
 20
1.448503749190027
 30
0.0
 10
-0.7338574436277922
 20
1.584474117711627
 30
0.0
 10
-0.7814965246938739
 20
1.788436535072499
 30
0.0
 10
-0.809818155824772
 20
1.948363731189251
 30
0.0
 10
-0.8253936767577998
 20
2.036315917959996
 30
0.0
 11
-0.6734008789063
 21
1.374206542959996
 31
0.0
 11
-0.6934051513672001
 21
1.420837402339998
 31
0.0
 11
-0.7295074462891
 21
1.559020996089998
 31
0.0
 11
-0.7760925292969
 21
1.773132324209996
 31
0.0
 11
-0.8253936767577998
 21
2.036315917959996
 31
0.0
  0
SPLINE
  5
1D14
330
1CE8
100
AcDbEntity
  8
AM_0
 48
0.5
100
AcDbSpline
210
0.0
220
0.0
230
1.0
 70
     8
 71
     3
 72
    11
 73
     7
 74
     5
 42
0.0000000001
 43
0.0000000001
 44
0.0000000001
 40
0.0
 40
0.0
 40
0.0
 40
0.0
 40
0.0676619855547834
 40
0.1262695939876173
 40
0.1756494967292636
 40
0.2161463574021622
 40
0.2161463574021622
 40
0.2161463574021622
 40
0.2161463574021622
 10
1.611495971679699
 20
2.104431152339998
 30
0.0
 10
1.612909454186969
 20
2.081919666595858
 30
0.0
 10
1.615547270101444
 20
2.039909132295631
 30
0.0
 10
1.620998034668636
 20
1.981612929605045
 30
0.0
 10
1.627066482063139
 20
1.932455353832531
 30
0.0
 10
1.632952654478764
 20
1.903071418297781
 30
0.0
 10
1.6356048583984
 20
1.889831542959996
 30
0.0
 11
1.611495971679699
 21
2.104431152339998
 31
0.0
 11
1.616104125976599
 21
2.036926269529999
 31
0.0
 11
1.621597290039099
 21
1.978576660149997
 31
0.0
 11
1.628097534179699
 21
1.929626464839998
 31
0.0
 11
1.6356048583984
 21
1.889831542959996
 31
0.0
  0
SPLINE
  5
1D15
330
1CE8
100
AcDbEntity
  8
AM_0
 48
0.5
100
AcDbSpline
210
0.0
220
0.0
230
1.0
 70
     8
 71
     3
 72
    11
 73
     7
 74
     5
 42
0.0000000001
 43
0.0000000001
 44
0.0000000001
 40
0.0
 40
0.0
 40
0.0
 40
0.0
 40
0.0559692382799995
 40
0.1092588371182028
 40
0.1600594870169051
 40
0.2082053553218155
 40
0.2082053553218155
 40
0.2082053553218155
 40
0.2082053553218155
 10
1.607101440429699
 20
2.312561035149997
 30
0.0
 10
1.607036569909286
 20
2.293904196895028
 30
0.0
 10
1.60690993467462
 20
2.257483753903781
 30
0.0
 10
1.60781086474668
 20
2.204136500893278
 30
0.0
 10
1.609058496027491
 20
2.153403234926365
 30
0.0
 10
1.610698143970644
 20
2.120460557360793
 30
0.0
 10
1.611495971679699
 20
2.104431152339998
 30
0.0
 11
1.607101440429699
 21
2.312561035149997
 31
0.0
 11
1.607101440429699
 21
2.256591796869997
 31
0.0
 11
1.6078948974609
 21
2.203308105459996
 31
0.0
 11
1.609298706054699
 21
2.152526855459996
 31
0.0
 11
1.611495971679699
 21
2.104431152339998
 31
0.0
  0
SPLINE
  5
1D16
330
1CE8
100
AcDbEntity
  8
AM_0
 48
0.5
100
AcDbSpline
210
0.0
220
0.0
230
1.0
 70
     8
 71
     3
 72
    11
 73
     7
 74
     5
 42
0.0000000001
 43
0.0000000001
 44
0.0000000001
 40
0.0
 40
0.0
 40
0.0
 40
0.0
 40
0.0416461778075036
 40
0.0841408506415946
 40
0.1276054061591824
 40
0.1719806512321933
 40
0.1719806512321933
 40
0.1719806512321933
 40
0.1719806512321933
 10
1.800598144531299
 20
2.383361816399997
 30
0.0
 10
1.800151550168953
 20
2.397236716196081
 30
0.0
 10
1.799249262575763
 20
2.425269201597397
 30
0.0
 10
1.798145747981505
 20
2.467790306428129
 30
0.0
 10
1.797318785275825
 20
2.511227890815571
 30
0.0
 10
1.797044222331974
 20
2.540506680868521
 30
0.0
 10
1.796905517578099
 20
2.555297851559998
 30
0.0
 11
1.800598144531299
 21
2.383361816399997
 31
0.0
 11
1.7993011474609
 21
2.424987792959996
 31
0.0
 11
1.7982025146484
 21
2.467468261709996
 31
0.0
 11
1.797393798828099
 21
2.510925292959996
 31
0.0
 11
1.796905517578099
 21
2.555297851559998
 31
0.0
  0
SPLINE
  5
1D17
330
1CE8
100
AcDbEntity
  8
AM_0
 48
0.5
100
AcDbSpline
210
0.0
220
0.0
230
1.0
 70
     8
 71
     3
 72
    11
 73
     7
 74
     5
 42
0.0000000001
 43
0.0000000001
 44
0.0000000001
 40
0.0
 40
0.0
 40
0.0
 40
0.0
 40
0.0516548211597604
 40
0.1024479540186342
 40
0.1522575872898666
 40
0.2013314565848039
 40
0.2013314565848039
 40
0.2013314565848039
 40
0.2013314565848039
 10
1.6107025146484
 20
2.513854980459996
 30
0.0
 10
1.610216321968625
 20
2.496643548606579
 30
0.0
 10
1.609252047111344
 20
2.462507800199665
 30
0.0
 10
1.608139130538584
 20
2.411766981194992
 30
0.0
 10
1.607442730241874
 20
2.361879070776731
 30
0.0
 10
1.607214637977234
 20
2.328918630610001
 30
0.0
 10
1.607101440429699
 20
2.312561035149997
 30
0.0
 11
1.6107025146484
 21
2.513854980459996
 31
0.0
 11
1.609298706054699
 21
2.462219238279999
 31
0.0
 11
1.608200073242199
 21
2.411437988279999
 31
0.0
 11
1.6074981689453
 21
2.361633300779999
 31
0.0
 11
1.607101440429699
 21
2.312561035149997
 31
0.0
  0
ELLIPSE
  5
1D18
330
1CE8
100
AcDbEntity
  8
AM_0
 48
0.5
100
AcDbEllipse
 10
1.805801391601599
 20
6.677795410149997
 30
0.0
 11
0.0007781988264
 21
0.2286376971700292
 31
0.0
210
0.0
220
0.0
230
1.0
 40
0.0782835045382
 41
0.0
 42
0.6174323318504892
  0
SPLINE
  5
1D19
330
1CE8
100
AcDbEntity
  8
AM_0
 48
0.5
100
AcDbSpline
210
0.0
220
0.0
230
1.0
 70
     8
 71
     3
 72
    11
 73
     7
 74
     5
 42
0.0000000001
 43
0.0000000001
 44
0.0000000001
 40
0.0
 40
0.0
 40
0.0
 40
0.0
 40
0.0095344357560869
 40
0.0220600707530144
 40
0.0390928166469492
 40
0.0611518596192413
 40
0.0611518596192413
 40
0.0611518596192413
 40
0.0611518596192413
 10
1.628799438476599
 20
7.113464355459996
 30
0.0
 10
1.625741266041396
 20
7.112395026289414
 30
0.0
 10
1.618665493334822
 20
7.109920891713988
 30
0.0
 10
1.610651677427415
 20
7.098912272332615
 30
0.0
 10
1.60315399315464
 20
7.083561492819478
 30
0.0
 10
1.59915173717051
 20
7.071112011786503
 30
0.0
 10
1.5968933105469
 20
7.064086914059998
 30
0.0
 11
1.628799438476599
 21
7.113464355459996
 31
0.0
 11
1.6201019287109
 21
7.109558105459996
 31
0.0
 11
1.6118927001953
 21
7.10009765625
 31
0.0
 11
1.6042022705078
 21
7.084899902339998
 31
0.0
 11
1.5968933105469
 21
7.064086914059998
 31
0.0
  0
SPLINE
  5
1D1A
330
1CE8
100
AcDbEntity
  8
AM_0
 48
0.5
100
AcDbSpline
210
0.0
220
0.0
230
1.0
 70
     8
 71
     3
 72
    11
 73
     7
 74
     5
 42
0.0000000001
 43
0.0000000001
 44
0.0000000001
 40
0.0
 40
0.0
 40
0.0
 40
0.0
 40
0.115501885337834
 40
0.2242668463121288
 40
0.3156698203438904
 40
0.380614856549754
 40
0.380614856549754
 40
0.380614856549754
 40
0.380614856549754
 10
-1.730895996093799
 20
7.318786621089998
 30
0.0
 10
-1.736782642883164
 20
7.356840992843842
 30
0.0
 10
-1.748212583675412
 20
7.430730123888429
 30
0.0
 10
-1.760303975103223
 20
7.535236290135264
 30
0.0
 10
-1.767935475773277
 20
7.623419887505285
 30
0.0
 10
-1.766572594010919
 20
7.675550271091258
 30
0.0
 10
-1.766006469726599
 20
7.697204589839998
 30
0.0
 11
-1.730895996093799
 21
7.318786621089998
 31
0.0
 11
-1.747802734375
 21
7.433044433589998
 31
0.0
 11
-1.760406494140599
 21
7.541076660149997
 31
0.0
 11
-1.7666931152344
 21
7.632263183589998
 31
0.0
 11
-1.766006469726599
 21
7.697204589839998
 31
0.0
  0
SPLINE
  5
1D1B
330
1CE8
100
AcDbEntity
  8
AM_0
 48
0.5
100
AcDbSpline
210
0.0
220
0.0
230
1.0
 70
     8
 71
     3
 72
    11
 73
     7
 74
     5
 42
0.0000000001
 43
0.0000000001
 44
0.0000000001
 40
0.0
 40
0.0
 40
0.0
 40
0.0
 40
1.054547289195219
 40
2.109128484469157
 40
3.163770122772857
 40
4.218325983768099
 40
4.218325983768099
 40
4.218325983768099
 40
4.218325983768099
 10
-0.8253936767577998
 20
2.036315917959996
 30
0.0
 10
-0.8857939630604619
 20
2.382603571395913
 30
0.0
 10
-1.0065964776715
 20
3.075190012198447
 30
0.0
 10
-1.187238901345721
 20
4.114193699363154
 30
0.0
 10
-1.3670887105168
 20
5.153337774314883
 30
0.0
 10
-1.486632509076176
 20
5.846165928774285
 30
0.0
 10
-1.546401977539099
 20
6.192565917959996
 30
0.0
 11
-0.8253936767577998
 21
2.036315917959996
 31
0.0
 11
-1.006500244140599
 21
3.0751953125
 31
0.0
 11
-1.1871032714844
 21
4.114196777339998
 31
0.0
 11
-1.367004394531299
 21
5.153381347649997
 31
0.0
 11
-1.546401977539099
 21
6.192565917959996
 31
0.0
  0
ELLIPSE
  5
1D1C
330
1CE8
100
AcDbEntity
  8
AM_0
 48
0.5
100
AcDbEllipse
 10
1.804801940918
 20
6.699493408199998
 30
0.0
 11
0.0006942817433999
 21
0.2027893102400071
 31
0.0
210
0.0
220
0.0
230
1.0
 40
0.0784421237648
 41
0.6168610571894267
 42
1.163333296066672
  0
SPLINE
  5
1D1D
330
1CE8
100
AcDbEntity
  8
AM_0
 48
0.5
100
AcDbSpline
210
0.0
220
0.0
230
1.0
 70
     8
 71
     3
 72
    11
 73
     7
 74
     5
 42
0.0000000001
 43
0.0000000001
 44
0.0000000001
 40
0.0
 40
0.0
 40
0.0
 40
0.0
 40
0.0351333676126297
 40
0.0785379284966867
 40
0.1286021828314389
 40
0.1842863274284944
 40
0.1842863274284944
 40
0.1842863274284944
 40
0.1842863274284944
 10
1.5968933105469
 20
7.064086914059998
 30
0.0
 10
1.594152868342549
 20
7.052691565064435
 30
0.0
 10
1.588026821552282
 20
7.027218142918398
 30
0.0
 10
1.58308892683769
 20
6.984559797523806
 30
0.0
 10
1.579273120332313
 20
6.934984710581663
 30
0.0
 10
1.578700948082079
 20
6.89972914435649
 30
0.0
 10
1.578399658203099
 20
6.881164550779999
 30
0.0
 11
1.5968933105469
 21
7.064086914059998
 31
0.0
 11
1.589294433593799
 21
7.02978515625
 31
0.0
 11
1.5836029052734
 21
6.986755371089998
 31
0.0
 11
1.579895019531299
 21
6.936828613279999
 31
0.0
 11
1.578399658203099
 21
6.881164550779999
 31
0.0
  0
ELLIPSE
  5
1D1E
330
1CE8
100
AcDbEntity
  8
AM_0
 48
0.5
100
AcDbEllipse
 10
1.806999206543
 20
6.686706542959996
 30
0.0
 11
0.0008010829487
 21
0.234008788799997
 31
0.0
210
0.0
220
0.0
230
1.0
 40
0.0782146378959
 41
1.163898787035222
 42
1.362949727489282
  0
SPLINE
  5
1D1F
330
1CE8
100
AcDbEntity
  8
AM_0
 48
0.5
100
AcDbSpline
210
0.0
220
0.0
230
1.0
 70
     8
 71
     3
 72
    11
 73
     7
 74
     5
 42
0.0000000001
 43
0.0000000001
 44
0.0000000001
 40
0.0
 40
0.0
 40
0.0
 40
0.0
 40
0.0247810673728957
 40
0.0500566285245428
 40
0.07583753913957
 40
0.1020033504832677
 40
0.1020033504832677
 40
0.1020033504832677
 40
0.1020033504832677
 10
1.578399658203099
 20
6.881164550779999
 30
0.0
 10
1.578441109409879
 20
6.872904201829518
 30
0.0
 10
1.578524838961493
 20
6.856218672805471
 30
0.0
 10
1.579109201484418
 20
6.830944295000451
 30
0.0
 10
1.580246140643714
 20
6.805226998741326
 30
0.0
 10
1.581281069545495
 20
6.787942250087675
 30
0.0
 10
1.581802368164099
 20
6.779235839839998
 30
0.0
 11
1.578399658203099
 21
6.881164550779999
 31
0.0
 11
1.5785980224609
 21
6.856384277339998
 31
0.0
 11
1.5791931152344
 21
6.831115722649997
 31
0.0
 11
1.5803070068359
 21
6.805358886709996
 31
0.0
 11
1.581802368164099
 21
6.779235839839998
 31
0.0
  0
ELLIPSE
  5
1D20
330
1CE8
100
AcDbEntity
  8
AM_0
 48
0.5
100
AcDbEllipse
 10
1.804702758789099
 20
6.692687988279999
 30
0.0
 11
0.0006866418802001
 21
0.2034912147599925
 31
0.0
210
0.0
220
0.0
230
1.0
 40
0.0786593863772
 41
1.361856377502831
 42
1.613824320474559
  0
ELLIPSE
  5
1D21
330
1CE8
100
AcDbEntity
  8
AM_0
 48
0.5
100
AcDbEllipse
 10
4.799697875976599
 20
4.415008544919999
 30
0.0
 11
0.0037383783353002
 21
1.100006069169978
 31
0.0
210
0.0
220
0.0
230
1.0
 40
0.0783605288194
 41
0.0
 42
0.5425083145233291
  0
ELLIPSE
  5
1D22
330
1CE8
100
AcDbEntity
  8
AM_0
 48
0.5
100
AcDbEllipse
 10
4.799697875976599
 20
4.415008544919999
 30
0.0
 11
0.0037383783353002
 21
1.100006069169978
 31
0.0
210
0.0
220
0.0
230
1.0
 40
0.0783605288194
 41
6.21504730553721
 42
6.283185307179586
  0
ELLIPSE
  5
1D23
330
1CE8
100
AcDbEntity
  8
AM_0
 48
0.5
100
AcDbEllipse
 10
5.2482986450195
 20
4.413391113279999
 30
0.0
 11
0.0022049281278997
 21
0.6500244295299922
 31
0.0
210
0.0
220
0.0
230
1.0
 40
0.0782981740771
 41
5.283936730242416
 42
6.215021116274669
  0
ELLIPSE
  5
1D24
330
1CE8
100
AcDbEntity
  8
AM_0
 48
0.5
100
AcDbEllipse
 10
5.2482986450195
 20
4.413391113279999
 30
0.0
 11
0.0022049281278997
 21
0.6500244295299922
 31
0.0
210
0.0
220
0.0
230
1.0
 40
0.0782981740771
 41
6.215021116274669
 42
7.099181959936083
  0
SPLINE
  5
1D25
330
1CE8
100
AcDbEntity
  8
AM_0
 48
0.5
100
AcDbSpline
210
0.0
220
0.0
230
1.0
 70
     8
 71
     3
 72
    11
 73
     7
 74
     5
 42
0.0000000001
 43
0.0000000001
 44
0.0000000001
 40
0.0
 40
0.0
 40
0.0
 40
0.0
 40
2.350837749150477
 40
4.089220005400119
 40
5.275407665922211
 40
5.951106751782814
 40
5.951106751782814
 40
5.951106751782814
 40
5.951106751782814
 10
4.590301513671899
 20
-5.931213378910001
 30
0.0
 10
5.171066523037723
 20
-5.394218293066101
 30
0.0
 10
6.181291875933013
 20
-4.46012956294087
 30
0.0
 10
6.97363214658815
 20
-2.862063528122236
 30
0.0
 10
7.336095853876111
 20
-1.713298224035995
 30
0.0
 10
7.418861688023404
 20
-1.09741289599756
 30
0.0
 10
7.448898315429699
 20
-0.8739013671900011
 30
0.0
 11
4.590301513671899
 21
-5.931213378910001
 31
0.0
 11
6.201705932617199
 21
-4.219543457040003
 31
0.0
 11
7.0054016113281
 21
-2.678100585940001
 31
0.0
 11
7.3450012207031
 21
-1.541564941410001
 31
0.0
 11
7.448898315429699
 21
-0.8739013671900011
 31
0.0
  0
SPLINE
  5
1D26
330
1CE8
100
AcDbEntity
  8
AM_0
 48
0.5
100
AcDbSpline
210
0.0
220
0.0
230
1.0
 70
     8
 71
     3
 72
    11
 73
     7
 74
     5
 42
0.0000000001
 43
0.0000000001
 44
0.0000000001
 40
0.0
 40
0.0
 40
0.0
 40
0.0
 40
2.350837749150477
 40
4.089220005400119
 40
5.275407665922211
 40
5.951106751782814
 40
5.951106751782814
 40
5.951106751782814
 40
5.951106751782814
 10
-4.590301513671899
 20
5.931213378899997
 30
0.0
 10
-5.171066523037723
 20
5.394218293056098
 30
0.0
 10
-6.181291875933013
 20
4.460129562930866
 30
0.0
 10
-6.97363214658815
 20
2.862063528112231
 30
0.0
 10
-7.336095853876111
 20
1.713298224025991
 30
0.0
 10
-7.418861688023404
 20
1.097412895987556
 30
0.0
 10
-7.448898315429699
 20
0.8739013671799966
 30
0.0
 11
-4.590301513671899
 21
5.931213378899997
 31
0.0
 11
-6.201705932617199
 21
4.219543457029999
 31
0.0
 11
-7.0054016113281
 21
2.678100585929996
 31
0.0
 11
-7.3450012207031
 21
1.541564941399997
 31
0.0
 11
-7.448898315429699
 21
0.8739013671799966
 31
0.0
  0
ELLIPSE
  5
1D27
330
1CE8
100
AcDbEntity
  8
AM_0
 48
0.5
100
AcDbEllipse
 10
-10.936405181884
 20
0.0375061035099975
 30
0.0
 11
-14.05902495309699
 21
0.0477003089599748
 31
0.0
210
0.0
220
0.0
230
1.0
 40
0.6283996225489
 41
2.219491573665479
 42
2.276655018718953
  0
ELLIPSE
  5
1D28
330
1CE8
100
AcDbEntity
  8
AM_0
 48
0.5
100
AcDbEllipse
 10
10.936401367187
 20
-0.037506103520002
 30
0.0
 11
-14.0590211384204
 21
0.0477002960200252
 31
0.0
210
0.0
220
0.0
230
1.0
 40
0.6283954517276001
 41
5.361171652476816
 42
5.418236604333658
  0
LINE
  5
1D29
330
1CE8
100
AcDbEntity
  8
AM_7
 48
0.5
100
AcDbLine
 10
-10.0
 20
0.0
 30
0.0
 11
10.0
 21
0.0
 31
0.0
  0
LINE
  5
1D2A
330
1CE8
100
AcDbEntity
  8
AM_7
 48
0.5
100
AcDbLine
 10
0.0
 20
10.0
 30
0.0
 11
0.0
 21
-10.0
 31
0.0
  0
ARC
  5
1D2B
330
1CE8
100
AcDbEntity
  8
AM_0
 48
0.5
100
AcDbCircle
 10
0.0
 20
0.0
 30
0.0
 40
8.000013351440399
100
AcDbArc
 50
90.64888413600828
 51
270.0966888411388
  0
ARC
  5
1D2C
330
1CE8
100
AcDbEntity
  8
AM_0
 48
0.5
100
AcDbCircle
 10
0.0
 20
0.0
 30
0.0
 40
7.999994277954099
100
AcDbArc
 50
282.8125854350102
 51
90.19337199007273
  0
ARC
  5
1D2D
330
1CE8
100
AcDbEntity
  8
AM_0
 48
0.5
100
AcDbCircle
 10
0.0
 20
0.0
 30
0.0
 40
7.4999876022339
100
AcDbArc
 50
173.3086872451462
 51
250.9156598402864
  0
ARC
  5
1D2E
330
1CE8
100
AcDbEntity
  8
AM_0
 48
0.5
100
AcDbCircle
 10
0.0
 20
0.0
 30
0.0
 40
6.9650149345398
100
AcDbArc
 50
176.6763803173115
 51
254.6835473563039
  0
ARC
  5
1D2F
330
1CE8
100
AcDbEntity
  8
AM_0
 48
0.5
100
AcDbCircle
 10
0.0
 20
0.0
 30
0.0
 40
6.434907913207999
100
AcDbArc
 50
176.5877927637803
 51
253.7525106101579
  0
LINE
  5
1D30
330
1CE8
100
AcDbEntity
  8
AM_0
 48
0.5
100
AcDbLine
 10
-1.8003978729248
 20
-6.177825927740002
 30
0.0
 11
-1.7986979484558
 21
-1.706756591800001
 31
0.0
  0
LINE
  5
1D31
330
1CE8
100
AcDbEntity
  8
AM_0
 48
0.5
100
AcDbLine
 10
-1.796915650367699
 20
-2.555297851570003
 30
0.0
 11
-1.788715839386
 21
-3.671783447270001
 31
0.0
  0
LINE
  5
1D32
330
1CE8
100
AcDbEntity
  8
AM_0
 48
0.5
100
AcDbLine
 10
-1.602918028831499
 20
-3.663330078130002
 30
0.0
 11
-1.6110174655914
 21
-2.54690551758
 31
0.0
  0
ARC
  5
1D33
330
1CE8
100
AcDbEntity
  8
AM_0
 48
0.5
100
AcDbCircle
 10
0.0
 20
0.0
 30
0.0
 40
7.500044345855699
100
AcDbArc
 50
283.405343402126
 51
307.7371580749646
  0
LINE
  5
1D34
330
1CE8
100
AcDbEntity
  8
AM_0
 48
0.5
100
AcDbLine
 10
-2.2284016609192
 20
-7.4443359375
 30
0.0
 11
0.0504153184593
 21
-7.918853759770001
 31
0.0
  0
LINE
  5
1D35
330
1CE8
100
AcDbEntity
  8
AM_0
 48
0.5
100
AcDbLine
 10
1.766020298004199
 20
-7.697204589850002
 30
0.0
 11
1.754021525383
 21
-7.733612060550001
 31
0.0
  0
LINE
  5
1D36
330
1CE8
100
AcDbEntity
  8
AM_0
 48
0.5
100
AcDbLine
 10
0.0560962110758
 20
-7.918609619150004
 30
0.0
 11
0.0503975823522
 21
-7.918914794930003
 31
0.0
  0
LINE
  5
1D37
330
1CE8
100
AcDbEntity
  8
AM_0
 48
0.5
100
AcDbLine
 10
1.546372890472399
 20
-6.19256591797
 30
0.0
 11
-1.5888053178787
 21
-3.805908203130002
 31
0.0
  0
ARC
  5
1D38
330
1CE8
100
AcDbEntity
  8
AM_0
 48
0.5
100
AcDbCircle
 10
0.0247955322266
 20
0.0277709960899983
 30
0.0
 40
7.485939979553199
100
AcDbArc
 50
250.5629798347693
 51
250.8345686467362
  0
LINE
  5
1D39
330
1CE8
100
AcDbEntity
  8
AM_0
 48
0.5
100
AcDbLine
 10
-1.800383448600799
 20
-6.177886962900004
 30
0.0
 11
-1.8397831916809
 21
-6.717590332040003
 31
0.0
  0
LINE
  5
1D3A
330
1CE8
100
AcDbEntity
  8
AM_0
 48
0.5
100
AcDbLine
 10
-2.228406190872199
 20
-7.444427490240002
 30
0.0
 11
-2.226200103759799
 21
-7.443420410160001
 31
0.0
  0
LINE
  5
1D3B
330
1CE8
100
AcDbEntity
  8
AM_0
 48
0.5
100
AcDbLine
 10
-2.432301759719799
 20
-7.042846679690001
 30
0.0
 11
-2.433904409408599
 21
-7.016723632820003
 31
0.0
  0
LINE
  5
1D3C
330
1CE8
100
AcDbEntity
  8
AM_0
 48
0.5
100
AcDbLine
 10
-2.224712371826199
 20
-7.442199707040003
 30
0.0
 11
-2.2262065410614
 21
-7.44338989258
 31
0.0
  0
LINE
  5
1D3D
330
1CE8
100
AcDbEntity
  8
AM_0
 48
0.5
100
AcDbLine
 10
-2.3959164619446
 20
-7.233184814460003
 30
0.0
 11
-1.805809140205399
 21
-6.906188964850002
 31
0.0
  0
LINE
  5
1D3E
330
1CE8
100
AcDbEntity
  8
AM_0
 48
0.5
100
AcDbLine
 10
-2.251987934112499
 20
-7.408569335940001
 30
0.0
 11
-2.224760055542
 21
-7.442199707040003
 31
0.0
  0
LINE
  5
1D3F
330
1CE8
100
AcDbEntity
  8
AM_0
 48
0.5
100
AcDbLine
 10
-2.2248089313507
 20
-7.442199707040003
 30
0.0
 11
-1.6346085071564
 21
-7.114990234380002
 31
0.0
  0
LINE
  5
1D40
330
1CE8
100
AcDbEntity
  8
AM_0
 48
0.5
100
AcDbLine
 10
-2.3959045410156
 20
-7.233215332040003
 30
0.0
 11
-2.3959045410156
 21
-7.234191894540003
 31
0.0
  0
LINE
  5
1D41
330
1CE8
100
AcDbEntity
  8
AM_0
 48
0.5
100
AcDbLine
 10
-2.395908117294299
 20
-7.233184814460003
 30
0.0
 11
-2.2520201206207
 21
-7.408569335940001
 31
0.0
  0
LINE
  5
1D42
330
1CE8
100
AcDbEntity
  8
AM_0
 48
0.5
100
AcDbLine
 10
-1.628796100616499
 20
-7.113586425790003
 30
0.0
 11
-1.634595513343799
 21
-7.11508178711
 31
0.0
  0
LINE
  5
1D43
330
1CE8
100
AcDbEntity
  8
AM_0
 48
0.5
100
AcDbLine
 10
-1.7886962890625
 20
-3.671813964850002
 30
0.0
 11
-1.7886962890625
 21
-6.68377685547
 31
0.0
  0
LINE
  5
1D44
330
1CE8
100
AcDbEntity
  8
AM_0
 48
0.5
100
AcDbLine
 10
-1.6029093265533
 20
-3.663391113290003
 30
0.0
 11
-1.788707971572899
 21
-3.671813964850002
 31
0.0
  0
LINE
  5
1D45
330
1CE8
100
AcDbEntity
  8
AM_0
 48
0.5
100
AcDbLine
 10
-1.588791489601099
 20
-3.805938720710003
 30
0.0
 11
-1.602895259857199
 21
-3.663391113290003
 31
0.0
  0
LINE
  5
1D46
330
1CE8
100
AcDbEntity
  8
AM_0
 48
0.5
100
AcDbLine
 10
-1.5817847251892
 20
-6.779205322270001
 30
0.0
 11
-1.587182521820099
 21
-6.71063232422
 31
0.0
  0
LINE
  5
1D47
330
1CE8
100
AcDbEntity
  8
AM_0
 48
0.5
100
AcDbLine
 10
-1.588806152343799
 20
-6.6748046875
 30
0.0
 11
-1.588806152343799
 21
-3.805908203130002
 31
0.0
  0
LINE
  5
1D48
330
1CE8
100
AcDbEntity
  8
AM_0
 48
0.5
100
AcDbLine
 10
-1.587209820747399
 20
-6.71063232422
 30
0.0
 11
-1.5888094902039
 21
-6.67483520508
 31
0.0
  0
LINE
  5
1D49
330
1CE8
100
AcDbEntity
  8
AM_0
 48
0.5
100
AcDbLine
 10
1.546397447586099
 20
-6.192596435550001
 30
0.0
 11
1.730892896652199
 21
-7.318756103520001
 31
0.0
  0
ARC
  5
1D4A
330
1CE8
100
AcDbEntity
  8
AM_0
 48
0.5
100
AcDbCircle
 10
0.0
 20
0.0
 30
0.0
 40
7.500044345855699
100
AcDbArc
 50
103.4053415808939
 51
127.7371596688248
  0
LINE
  5
1D4B
330
1CE8
100
AcDbEntity
  8
AM_0
 48
0.5
100
AcDbLine
 10
-7.351264953613299
 20
0.7034912109299967
 30
0.0
 11
-6.9532980918884
 21
0.4038391113199964
 31
0.0
  0
LINE
  5
1D4C
330
1CE8
100
AcDbEntity
  8
AM_0
 48
0.5
100
AcDbLine
 10
-6.953297615051299
 20
0.4038391113199964
 30
0.0
 11
-6.423493862152099
 21
0.3830261230399969
 31
0.0
  0
LINE
  5
1D4D
330
1CE8
100
AcDbEntity
  8
AM_0
 48
0.5
100
AcDbLine
 10
-7.448897838592499
 20
0.8739318847599975
 30
0.0
 11
-7.351312637329099
 21
0.7035522460899984
 31
0.0
  0
ARC
  5
1D4E
330
1CE8
100
AcDbEntity
  8
AM_0
 48
0.5
100
AcDbCircle
 10
0.0
 20
0.0
 30
0.0
 40
7.4999876022339
100
AcDbArc
 50
353.3086847975098
 51
70.91566849170731
  0
ARC
  5
1D4F
330
1CE8
100
AcDbEntity
  8
AM_0
 48
0.5
100
AcDbCircle
 10
0.0
 20
0.0
 30
0.0
 40
6.9650149345398
100
AcDbArc
 50
356.6763868343009
 51
74.68355600772499
  0
ARC
  5
1D50
330
1CE8
100
AcDbEntity
  8
AM_0
 48
0.5
100
AcDbCircle
 10
0.0
 20
0.0
 30
0.0
 40
6.434907913207999
100
AcDbArc
 50
356.5877894623704
 51
73.75251243138972
  0
LINE
  5
1D51
330
1CE8
100
AcDbEntity
  8
AM_0
 48
0.5
100
AcDbLine
 10
-1.546398639678999
 20
6.192596435539996
 30
0.0
 11
1.588828086852999
 21
3.805877685539996
 31
0.0
  0
LINE
  5
1D52
330
1CE8
100
AcDbEntity
  8
AM_0
 48
0.5
100
AcDbLine
 10
1.800400376319899
 20
6.177856445309998
 30
0.0
 11
1.798700332641599
 21
1.706726074209996
 31
0.0
  0
LINE
  5
1D53
330
1CE8
100
AcDbEntity
  8
AM_0
 48
0.5
100
AcDbLine
 10
1.7886962890625
 20
3.671813964839998
 30
0.0
 11
1.7886962890625
 21
6.683776855459996
 31
0.0
  0
LINE
  5
1D54
330
1CE8
100
AcDbEntity
  8
AM_0
 48
0.5
100
AcDbLine
 10
1.588806152343799
 20
6.6748046875
 30
0.0
 11
1.588806152343799
 21
3.805908203119997
 31
0.0
  0
LINE
  5
1D55
330
1CE8
100
AcDbEntity
  8
AM_0
 48
0.5
100
AcDbLine
 10
0.6733984947205
 20
-1.374145507820003
 30
0.0
 11
-1.667799592018099
 21
-1.833129882820003
 31
0.0
  0
LINE
  5
1D56
330
1CE8
100
AcDbEntity
  8
AM_0
 48
0.5
100
AcDbLine
 10
0.1655387729406
 20
-1.473724365240002
 30
0.0
 11
0.1941442489624
 21
-1.457885742190001
 31
0.0
  0
LINE
  5
1D57
330
1CE8
100
AcDbEntity
  8
AM_0
 48
0.5
100
AcDbLine
 10
-1.0981158018112
 20
-1.707641601570003
 30
0.0
 11
-1.136621475219699
 21
-1.728942871100002
 31
0.0
  0
LINE
  5
1D58
330
1CE8
100
AcDbEntity
  8
AM_0
 48
0.5
100
AcDbLine
 10
-1.098097443580599
 20
-1.707641601570003
 30
0.0
 11
-1.7987042665482
 21
-1.70672607422
 31
0.0
  0
LINE
  5
1D59
330
1CE8
100
AcDbEntity
  8
AM_0
 48
0.5
100
AcDbLine
 10
-1.0980837345123
 20
-1.707733154300001
 30
0.0
 11
0.1941211670637
 21
-1.457916259770001
 31
0.0
  0
LINE
  5
1D5A
330
1CE8
100
AcDbEntity
  8
AM_0
 48
0.5
100
AcDbLine
 10
0.1941070556641
 20
-1.193664550790003
 30
0.0
 11
0.1941070556641
 21
-1.457885742190001
 31
0.0
  0
LINE
  5
1D5B
330
1CE8
100
AcDbEntity
  8
AM_0
 48
0.5
100
AcDbLine
 10
-1.844497680664099
 20
-2.043029785160001
 30
0.0
 11
-1.844497680664099
 21
-2.0419921875
 31
0.0
  0
LINE
  5
1D5C
330
1CE8
100
AcDbEntity
  8
AM_0
 48
0.5
100
AcDbLine
 10
-1.7987921237946
 20
-1.904907226570003
 30
0.0
 11
-1.6729834079742
 21
-1.835205078130002
 31
0.0
  0
LINE
  5
1D5D
330
1CE8
100
AcDbEntity
  8
AM_0
 48
0.5
100
AcDbLine
 10
-1.667786955833399
 20
-1.833221435550001
 30
0.0
 11
-1.670390605926499
 21
-1.834045410160001
 31
0.0
  0
LINE
  5
1D5E
330
1CE8
100
AcDbEntity
  8
AM_0
 48
0.5
100
AcDbLine
 10
-1.670394301414499
 20
-1.834045410160001
 30
0.0
 11
-1.672901749610899
 21
-1.835235595710003
 31
0.0
  0
LINE
  5
1D5F
330
1CE8
100
AcDbEntity
  8
AM_0
 48
0.5
100
AcDbLine
 10
-1.7006604671478
 20
-1.86865234375
 30
0.0
 11
-1.672951102256799
 21
-1.835235595710003
 31
0.0
  0
LINE
  5
1D60
330
1CE8
100
AcDbEntity
  8
AM_0
 48
0.5
100
AcDbLine
 10
-1.672836542129499
 20
-1.835205078130002
 30
0.0
 11
-1.700644135475199
 21
-1.868591308600002
 31
0.0
  0
LINE
  5
1D61
330
1CE8
100
AcDbEntity
  8
AM_0
 48
0.5
100
AcDbLine
 10
-1.635633826255799
 20
-1.889770507820003
 30
0.0
 11
-1.7988324165344
 21
-2.05667114258
 31
0.0
  0
LINE
  5
1D62
330
1CE8
100
AcDbEntity
  8
AM_0
 48
0.5
100
AcDbLine
 10
-1.6115401983261
 20
-2.104370117190001
 30
0.0
 11
-1.798930525779699
 21
-2.227264404300001
 31
0.0
  0
LINE
  5
1D63
330
1CE8
100
AcDbEntity
  8
AM_0
 48
0.5
100
AcDbLine
 10
-1.6071488857269
 20
-2.31253051758
 30
0.0
 11
-1.798945307731599
 21
-2.382751464850002
 31
0.0
  0
LINE
  5
1D64
330
1CE8
100
AcDbEntity
  8
AM_0
 48
0.5
100
AcDbLine
 10
-1.6110045909882
 20
-2.546844482430003
 30
0.0
 11
-1.7969114780426
 21
-2.555267333990002
 31
0.0
  0
LINE
  5
1D65
330
1CE8
100
AcDbEntity
  8
AM_0
 48
0.5
100
AcDbLine
 10
-1.611004114151
 20
-2.54690551758
 30
0.0
 11
-1.6107041835785
 21
-2.513885498050001
 31
0.0
  0
LINE
  5
1D66
330
1CE8
100
AcDbEntity
  8
AM_0
 48
0.5
100
AcDbLine
 10
1.0980857610703
 20
1.707672119139999
 30
0.0
 11
-0.194115370512
 21
1.457855224599995
 31
0.0
  0
LINE
  5
1D67
330
1CE8
100
AcDbEntity
  8
AM_0
 48
0.5
100
AcDbLine
 10
-0.6733956933022
 20
1.374298095699998
 30
0.0
 11
1.667806148529099
 21
1.833282470699998
 31
0.0
  0
LINE
  5
1D68
330
1CE8
100
AcDbEntity
  8
AM_0
 48
0.5
100
AcDbLine
 10
-0.1654207706451
 20
1.4736328125
 30
0.0
 11
-0.1940262466669
 21
1.457824707029999
 31
0.0
  0
LINE
  5
1D69
330
1CE8
100
AcDbEntity
  8
AM_0
 48
0.5
100
AcDbLine
 10
-0.1941070556641
 20
1.193664550779999
 30
0.0
 11
-0.1941070556641
 21
1.457885742179996
 31
0.0
  0
LINE
  5
1D6A
330
1CE8
100
AcDbEntity
  8
AM_0
 48
0.5
100
AcDbLine
 10
1.0980483293533
 20
1.707733154289996
 30
0.0
 11
1.136554002761799
 21
1.729034423819996
 31
0.0
  0
LINE
  5
1D6B
330
1CE8
100
AcDbEntity
  8
AM_0
 48
0.5
100
AcDbLine
 10
1.098090529441799
 20
1.707702636709996
 30
0.0
 11
1.7986972332001
 21
1.706787109369997
 31
0.0
  0
LINE
  5
1D6C
330
1CE8
100
AcDbEntity
  8
AM_0
 48
0.5
100
AcDbLine
 10
1.844497680664099
 20
2.043029785149997
 30
0.0
 11
1.844497680664099
 21
2.0419921875
 31
0.0
  0
LINE
  5
1D6D
330
1CE8
100
AcDbEntity
  8
AM_0
 48
0.5
100
AcDbLine
 10
1.798858046531699
 20
1.904846191399997
 30
0.0
 11
1.673062682151799
 21
1.835144042959996
 31
0.0
  0
LINE
  5
1D6E
330
1CE8
100
AcDbEntity
  8
AM_0
 48
0.5
100
AcDbLine
 10
1.6704297065735
 20
1.834014892569996
 30
0.0
 11
1.672937154769899
 21
1.835205078119997
 31
0.0
  0
LINE
  5
1D6F
330
1CE8
100
AcDbEntity
  8
AM_0
 48
0.5
100
AcDbLine
 10
1.6677792072296
 20
1.833221435539996
 30
0.0
 11
1.670382857322699
 21
1.834045410149997
 31
0.0
  0
LINE
  5
1D70
330
1CE8
100
AcDbEntity
  8
AM_0
 48
0.5
100
AcDbLine
 10
1.7007594108582
 20
1.868560791009997
 30
0.0
 11
1.6730499267578
 21
1.835174560539996
 31
0.0
  0
LINE
  5
1D71
330
1CE8
100
AcDbEntity
  8
AM_0
 48
0.5
100
AcDbLine
 10
1.6729156970978
 20
1.835174560539996
 30
0.0
 11
1.7007234096527
 21
1.868560791009997
 31
0.0
  0
LINE
  5
1D72
330
1CE8
100
AcDbEntity
  8
AM_0
 48
0.5
100
AcDbLine
 10
1.635568022728
 20
1.889831542959996
 30
0.0
 11
1.798766613006599
 21
2.056732177729998
 31
0.0
  0
LINE
  5
1D73
330
1CE8
100
AcDbEntity
  8
AM_0
 48
0.5
100
AcDbLine
 10
1.6115027666092
 20
2.104400634759997
 30
0.0
 11
1.798905849456799
 21
2.227294921869997
 31
0.0
  0
LINE
  5
1D74
330
1CE8
100
AcDbEntity
  8
AM_0
 48
0.5
100
AcDbLine
 10
1.607092499733
 20
2.312622070309998
 30
0.0
 11
1.7988889217377
 21
2.382843017569996
 31
0.0
  0
LINE
  5
1D75
330
1CE8
100
AcDbEntity
  8
AM_0
 48
0.5
100
AcDbLine
 10
1.7968952655792
 20
2.555328369139999
 30
0.0
 11
1.788695454597499
 21
3.671813964839998
 31
0.0
  0
LINE
  5
1D76
330
1CE8
100
AcDbEntity
  8
AM_0
 48
0.5
100
AcDbLine
 10
1.6110100746155
 20
2.546905517569996
 30
0.0
 11
1.796916961669899
 21
2.555297851559998
 31
0.0
  0
LINE
  5
1D77
330
1CE8
100
AcDbEntity
  8
AM_0
 48
0.5
100
AcDbLine
 10
1.602900147438
 20
3.663269042959996
 30
0.0
 11
1.7886987924576
 21
3.671691894529999
 31
0.0
  0
LINE
  5
1D78
330
1CE8
100
AcDbEntity
  8
AM_0
 48
0.5
100
AcDbLine
 10
1.588806390762299
 20
3.805938720699998
 30
0.0
 11
1.602910041809099
 21
3.663391113279999
 31
0.0
  0
LINE
  5
1D79
330
1CE8
100
AcDbEntity
  8
AM_0
 48
0.5
100
AcDbLine
 10
1.611001968383799
 20
2.546844482419999
 30
0.0
 11
1.610702037811299
 21
2.513824462889999
 31
0.0
  0
LINE
  5
1D7A
330
1CE8
100
AcDbEntity
  8
AM_0
 48
0.5
100
AcDbLine
 10
1.602903842926
 20
3.663421630849995
 30
0.0
 11
1.611003756523099
 21
2.546936035149997
 31
0.0
  0
LINE
  5
1D7B
330
1CE8
100
AcDbEntity
  8
AM_0
 48
0.5
100
AcDbLine
 10
7.4489188194275
 20
-0.8739013671900011
 30
0.0
 11
7.3513031005859
 21
-0.7034606933600003
 31
0.0
  0
LINE
  5
1D7C
330
1CE8
100
AcDbEntity
  8
AM_0
 48
0.5
100
AcDbLine
 10
7.3512954711914
 20
-0.7034912109400011
 30
0.0
 11
6.9533042907715
 21
-0.40380859375
 31
0.0
  0
LINE
  5
1D7D
330
1CE8
100
AcDbEntity
  8
AM_0
 48
0.5
100
AcDbLine
 10
6.953302860259999
 20
-0.4038391113300009
 30
0.0
 11
6.423499107360799
 21
-0.3830261230500014
 31
0.0
  0
LINE
  5
1D7E
330
1CE8
100
AcDbEntity
  8
AM_0
 48
0.5
100
AcDbLine
 10
2.228384971618699
 20
7.444458007809998
 30
0.0
 11
-0.0504020452499
 21
7.918975830069996
 31
0.0
  0
LINE
  5
1D7F
330
1CE8
100
AcDbEntity
  8
AM_0
 48
0.5
100
AcDbLine
 10
-1.546410441398599
 20
6.192596435539996
 30
0.0
 11
-1.7309058904648
 21
7.318756103509997
 31
0.0
  0
LINE
  5
1D80
330
1CE8
100
AcDbEntity
  8
AM_0
 48
0.5
100
AcDbLine
 10
-0.0561155192554
 20
7.918670654289996
 30
0.0
 11
-0.0504168905318
 21
7.918975830069996
 31
0.0
  0
LINE
  5
1D81
330
1CE8
100
AcDbEntity
  8
AM_0
 48
0.5
100
AcDbLine
 10
-1.766020655631999
 20
7.697174072259997
 30
0.0
 11
-1.7540123462677
 21
7.733612060539996
 31
0.0
  0
ARC
  5
1D82
330
1CE8
100
AcDbEntity
  8
AM_0
 48
0.5
100
AcDbCircle
 10
-0.0157012939453
 20
-0.0017089843800022
 30
0.0
 40
7.4582991600037
100
AcDbArc
 50
70.56217888140327
 51
70.83477856137031
  0
LINE
  5
1D83
330
1CE8
100
AcDbEntity
  8
AM_0
 48
0.5
100
AcDbLine
 10
1.5871976613998
 20
6.710662841789996
 30
0.0
 11
1.588800072669999
 21
6.674835205069996
 31
0.0
  0
LINE
  5
1D84
330
1CE8
100
AcDbEntity
  8
AM_0
 48
0.5
100
AcDbLine
 10
1.800407409668
 20
6.177856445309998
 30
0.0
 11
1.839807271957399
 21
6.717559814449998
 31
0.0
  0
LINE
  5
1D85
330
1CE8
100
AcDbEntity
  8
AM_0
 48
0.5
100
AcDbLine
 10
2.228417873382599
 20
7.4443359375
 30
0.0
 11
2.2262258529663
 21
7.443328857419999
 31
0.0
  0
LINE
  5
1D86
330
1CE8
100
AcDbEntity
  8
AM_0
 48
0.5
100
AcDbLine
 10
2.4322836399078
 20
7.042846679679996
 30
0.0
 11
2.433882474899299
 21
7.016754150389999
 31
0.0
  0
LINE
  5
1D87
330
1CE8
100
AcDbEntity
  8
AM_0
 48
0.5
100
AcDbLine
 10
2.224710226058999
 20
7.442230224599995
 30
0.0
 11
2.2262163162231
 21
7.443420410149997
 31
0.0
  0
LINE
  5
1D88
330
1CE8
100
AcDbEntity
  8
AM_0
 48
0.5
100
AcDbLine
 10
2.395907640457199
 20
7.233184814449998
 30
0.0
 11
1.805800437927199
 21
6.906188964839998
 31
0.0
  0
LINE
  5
1D89
330
1CE8
100
AcDbEntity
  8
AM_0
 48
0.5
100
AcDbLine
 10
2.252044916152999
 20
7.408630371089998
 30
0.0
 11
2.224855422973599
 21
7.442230224599995
 31
0.0
  0
LINE
  5
1D8A
330
1CE8
100
AcDbEntity
  8
AM_0
 48
0.5
100
AcDbLine
 10
2.2248034477234
 20
7.442199707029999
 30
0.0
 11
1.6346031427383
 21
7.114990234369997
 31
0.0
  0
LINE
  5
1D8B
330
1CE8
100
AcDbEntity
  8
AM_0
 48
0.5
100
AcDbLine
 10
2.3959045410156
 20
7.233215332029999
 30
0.0
 11
2.3959045410156
 21
7.234191894529999
 31
0.0
  0
LINE
  5
1D8C
330
1CE8
100
AcDbEntity
  8
AM_0
 48
0.5
100
AcDbLine
 10
2.395930767059299
 20
7.233123779289996
 30
0.0
 11
2.2520043849945
 21
7.408569335929996
 31
0.0
  0
LINE
  5
1D8D
330
1CE8
100
AcDbEntity
  8
AM_0
 48
0.5
100
AcDbLine
 10
1.6288051605225
 20
7.113433837889999
 30
0.0
 11
1.6346046924591
 21
7.114929199209996
 31
0.0
  0
LINE
  5
1D8E
330
1CE8
100
AcDbEntity
  8
AM_0
 48
0.5
100
AcDbLine
 10
1.581804275512699
 20
6.779174804679996
 30
0.0
 11
1.5872068405151
 21
6.710540771479998
 31
0.0
  0
LINE
  5
1D8F
330
1CE8
100
AcDbEntity
  8
AM_0
 48
0.5
100
AcDbLine
 10
4.8034954071045
 20
5.514984130849995
 30
0.0
 11
4.611693382263199
 21
5.515563964839998
 31
0.0
  0
LINE
  5
1D90
330
1CE8
100
AcDbEntity
  8
AM_0
 48
0.5
100
AcDbLine
 10
5.254465579986599
 20
5.061431884759997
 30
0.0
 11
4.8101696968079
 21
5.511535644529999
 31
0.0
  0
ENDBLK
  5
1D92
330
1CE8
100
AcDbEntity
  8
0
100
AcDbBlockEnd
  0
ENDSEC
  0
SECTION
  2
ENTITIES
  0
TEXT
  5
1142
330
1F
100
AcDbEntity
  8
AM_6
100
AcDbText
 10
-63.57142857142857
 20
-54.50009255272981
 30
0.0
 40
5.0
  1
WEM2016E
 72
     4
 11
-45.0
 21
-52.00009255272981
 31
0.0
100
AcDbText
  0
DIMENSION
  5
155D
330
1F
100
AcDbEntity
  8
AM_5
100
AcDbDimension
  2
*D5
 10
-24.99995040893599
 20
-22.00009255272986
 30
0.0
 11
-12.49997520446799
 21
-18.60009255272986
 31
0.0
 70
    32
  1
<>
  3
AM_JIS$0
100
AcDbAlignedDimension
 13
-0.0000000000000008
 23
-6.0
 33
0.0
 14
-24.99995040893599
 24
-5.499877929689997
 34
0.0
 50
0.0000000000001132
100
AcDbRotatedDimension
1001
ACAD
1000
DSTYLE
1002
{
1070
   171
1070
     0
1070
   271
1070
     0
1002
}
1001
GENIUS_GENDTOL_13
1000

1000
h7
1000

1040
0.0
  0
DIMENSION
  5
15E8
330
1F
100
AcDbEntity
  8
AM_5
100
AcDbDimension
  2
*D6
 10
-90.0
 20
-22.00009255272999
 30
0.0
 11
-57.500019073486
 21
-18.60009255272999
 31
0.0
 70
    32
  1
<>
  3
AM_JIS$0
100
AcDbAlignedDimension
 13
-25.000038146972
 23
-7.499969482419996
 33
0.0
 14
-90.0
 24
-5.661499023429986
 34
0.0
 50
0.0000000000001132
100
AcDbRotatedDimension
1001
ACAD
1000
DSTYLE
1002
{
1070
   171
1070
     0
1070
   271
1070
     0
1002
}
1001
GENIUS_GENDTOL_13
1000

1000
h7
1000

1040
0.0
  0
DIMENSION
  5
1673
330
1F
100
AcDbEntity
  8
AM_5
100
AcDbDimension
  2
*D7
 10
-0.0000000000000024
 20
-32.00009255272981
 30
0.0
 11
-45.0
 21
-28.60009255272981
 31
0.0
 70
    32
  1
<>
  3
AM_JIS$0
100
AcDbAlignedDimension
 13
-90.0
 23
-5.661499023429986
 33
0.0
 14
-0.0000000000000009
 24
-7.918792724599995
 34
0.0
 50
0.0000000000001132
100
AcDbRotatedDimension
1001
ACAD
1000
DSTYLE
1002
{
1070
   171
1070
     0
1070
   271
1070
     0
1002
}
1001
GENIUS_GENDTOL_13
1000

1000
h7
1000

1040
0.0
  0
DIMENSION
  5
16FE
330
1F
100
AcDbEntity
  8
AM_5
100
AcDbDimension
  2
*D8
 10
-106.6534067795733
 20
7.999969482430019
 30
0.0
 11
-110.0534067795734
 21
-0.0000152587849988
 31
0.0
 70
    32
  1
%%c<>
  3
AM_JIS$0
100
AcDbAlignedDimension
 13
-87.0
 23
-7.999999999999989
 33
0.0
 14
-86.99998474121001
 24
7.999969482430014
 34
0.0
 50
270.0
100
AcDbRotatedDimension
1001
ACAD
1000
DSTYLE
1002
{
1070
   171
1070
     0
1070
   271
1070
     0
1002
}
1001
GENIUS_GENDTOL_13
1000

1000
h7
1000

1040
0.0
  0
DIMENSION
  5
1895
330
1F
100
AcDbEntity
  8
AM_5
100
AcDbDimension
  2
*D9
 10
17.48256401879898
 20
7.918884277349998
 30
0.0
 11
14.08256401879898
 21
0.0000457763750019
 31
0.0
 70
    32
  1
%%c<>
  3
AM_JIS$0
100
AcDbAlignedDimension
 13
-0.0000000000000009
 23
-7.918792724599995
 33
0.0
 14
0.0000000000000005
 24
7.918884277350002
 34
0.0
 50
90.00000000000003
100
AcDbRotatedDimension
1001
ACAD
1000
DSTYLE
1002
{
1070
   171
1070
     0
1070
   271
1070
     0
1002
}
1001
GENIUS_GENDTOL_13
1000

1000
h7
1000

1040
0.0
  0
LINE
  5
1A74
330
1F
100
AcDbEntity
  8
AM_7
  6
AM_ISO08W050X2
100
AcDbLine
 10
3.482563018798998
 20
-0.0000000000000004
 30
0.0
 11
-92.6534057795734
 21
0.0000000000000113
 31
0.0
  0
LINE
  5
1A75
330
1F
100
AcDbEntity
  8
AM_0
100
AcDbLine
 10
-25.86599731445299
 20
8.000000000000003
 30
0.0
 11
-87.0
 21
8.00000000000001
 31
0.0
  0
LINE
  5
1A76
330
1F
100
AcDbEntity
  8
AM_0
100
AcDbLine
 10
-87.0
 20
-7.999999999999989
 30
0.0
 11
-25.86599731445299
 21
-7.999999999999996
 31
0.0
  0
ELLIPSE
  5
1A77
330
1F
100
AcDbEntity
  8
AM_0
100
AcDbEllipse
 10
-3.736709594725994
 20
0.0000000000000005
 30
0.0
 11
95.38789722697
 21
-0.0278963986900297
 31
0.0
210
0.0
220
0.0
230
0.9999999999999998
 40
0.0786263286448
 41
4.533225452642247
 42
4.648313160087708
  0
ELLIPSE
  5
1A78
330
1F
100
AcDbEntity
  8
AM_0
100
AcDbEllipse
 10
-13.95510101318299
 20
0.0000000000000017
 30
0.0
 11
-8.224883776075001
 21
-7.494995218919993
 31
0.0
210
0.0
220
0.0
230
1.0
 40
0.0340116246433
 41
0.0395354251876962
 42
0.1254422122353532
  0
ELLIPSE
  5
1A79
330
1F
100
AcDbEntity
  8
AM_0
100
AcDbEllipse
 10
-13.95510101318299
 20
0.0000000000000017
 30
0.0
 11
8.224936629664993
 21
-7.494934386049975
 31
0.0
210
0.0
220
0.0
230
1.0
 40
0.0340116304731
 41
3.102009875835012
 42
3.763340194904513
  0
ELLIPSE
  5
1A7A
330
1F
100
AcDbEntity
  8
AM_0
100
AcDbEllipse
 10
-13.95510101318299
 20
0.0000000000000017
 30
0.0
 11
8.224936629664993
 21
-7.494934386049975
 31
0.0
210
0.0
220
0.0
230
1.0
 40
0.0340116304731
 41
3.015817088352763
 42
3.102009875835012
  0
SPLINE
  5
1A7B
330
1F
100
AcDbEntity
  8
AM_0
100
AcDbSpline
210
0.0
220
0.0
230
1.0
 70
     8
 71
     3
 72
    11
 73
     7
 74
     5
 42
0.0000000001
 43
0.0000000001
 44
0.0000000001
 40
0.0
 40
0.0
 40
0.0
 40
0.0
 40
0.3399417342177739
 40
0.6747198833856983
 40
1.009710967666448
 40
1.347352262298238
 40
1.347352262298238
 40
1.347352262298238
 40
1.347352262298238
 10
-9.981300354002996
 20
1.314880371100004
 30
0.0
 10
-10.09447763037405
 20
1.327305832177309
 30
0.0
 10
-10.31911306353351
 20
1.351968016325966
 30
0.0
 10
-10.63269329674777
 20
1.48468313038448
 30
0.0
 10
-10.91167530136291
 20
1.678243184338327
 30
0.0
 10
-11.05344109297965
 20
1.853251929411088
 30
0.0
 10
-11.124603271484
 20
1.941101074220001
 30
0.0
 11
-9.981300354002996
 21
1.314880371100004
 31
0.0
 11
-10.31700134277299
 21
1.368408203130003
 31
0.0
 11
-10.626998901367
 21
1.494812011720001
 31
0.0
 11
-10.89990234375
 21
1.689086914070004
 31
0.0
 11
-11.124603271484
 21
1.941101074220001
 31
0.0
  0
SPLINE
  5
1A7C
330
1F
100
AcDbEntity
  8
AM_0
100
AcDbSpline
210
0.0
220
0.0
230
1.0
 70
     8
 71
     3
 72
    11
 73
     7
 74
     5
 42
0.0000000001
 43
0.0000000001
 44
0.0000000001
 40
0.0
 40
0.0
 40
0.0
 40
0.0
 40
0.197085820449605
 40
0.3947234939460657
 40
0.5923862304336165
 40
0.789737586199778
 40
0.789737586199778
 40
0.789737586199778
 40
0.789737586199778
 10
-9.218101501464005
 20
1.482727050790004
 30
0.0
 10
-9.277633776421298
 20
1.45469131733442
 30
0.0
 10
-9.396865020556941
 20
1.398541348555927
 30
0.0
 10
-9.5878339562312
 20
1.345509143782456
 30
0.0
 10
-9.783532433005902
 20
1.313737161671888
 30
0.0
 10
-9.915412366332041
 20
1.314499501602437
 30
0.0
 10
-9.981300354002996
 20
1.314880371100004
 30
0.0
 11
-9.218101501464005
 21
1.482727050790004
 31
0.0
 11
-9.398696899414005
 21
1.403808593750001
 31
0.0
 11
-9.588600158690994
 21
1.349060058600003
 31
0.0
 11
-9.783996582030994
 21
1.319213867190002
 31
0.0
 11
-9.981300354002996
 21
1.314880371100004
 31
0.0
  0
ELLIPSE
  5
1A7D
330
1F
100
AcDbEntity
  8
AM_0
100
AcDbEllipse
 10
-5.495796203612997
 20
1.10629272461
 30
0.0
 11
1.499397305309997
 21
-0.0425719390499923
 31
0.0
210
0.0
220
0.0
230
1.0
 40
0.1902010263909
 41
0.0
 42
2.98796276979844
  0
SPLINE
  5
1A7E
330
1F
100
AcDbEntity
  8
AM_0
100
AcDbSpline
210
0.0
220
0.0
230
1.0
 70
     8
 71
     3
 72
    11
 73
     7
 74
     5
 42
0.0000000001
 43
0.0000000001
 44
0.0000000001
 40
0.0
 40
0.0
 40
0.0
 40
0.0
 40
0.0579959273630408
 40
0.11647987460699
 40
0.1752059722971031
 40
0.2344202664800306
 40
0.2344202664800306
 40
0.2344202664800306
 40
0.2344202664800306
 10
-3.996002197265
 20
1.080505371100003
 30
0.0
 10
-3.995601195983704
 20
1.099833184945137
 30
0.0
 10
-3.994795819104905
 20
1.138651450907432
 30
0.0
 10
-3.993569584811518
 20
1.197040606946565
 30
0.0
 10
-3.992502039147223
 20
1.2558390688731
 30
0.0
 10
-3.991769472074768
 20
1.295145702394133
 30
0.0
 10
-3.991401672362997
 20
1.314880371100003
 30
0.0
 11
-3.996002197265
 21
1.080505371100003
 31
0.0
 11
-3.994796752929005
 21
1.138488769540004
 31
0.0
 11
-3.993598937987997
 21
1.19696044922
 31
0.0
 11
-3.992500305175
 21
1.255676269540004
 31
0.0
 11
-3.991401672362997
 21
1.314880371100003
 31
0.0
  0
SPLINE
  5
1A7F
330
1F
100
AcDbEntity
  8
AM_0
100
AcDbSpline
210
0.0
220
0.0
230
1.0
 70
     8
 71
     3
 72
    11
 73
     7
 74
     5
 42
0.0000000001
 43
0.0000000001
 44
0.0000000001
 40
0.0
 40
0.0
 40
0.0
 40
0.0
 40
0.4091062543184863
 40
0.8026926857789545
 40
1.147000450071174
 40
1.349873966822818
 40
1.349873966822818
 40
1.349873966822818
 40
1.349873966822818
 10
-20.73880004882799
 20
7.375305175790006
 30
0.0
 10
-20.87522167884478
 20
7.374876278074335
 30
0.0
 10
-21.14288965859477
 20
7.374034753273179
 30
0.0
 10
-21.52444103682434
 20
7.396026521150755
 30
0.0
 10
-21.83813585117909
 20
7.417352103845025
 30
0.0
 10
-22.01655263806623
 20
7.456050201252899
 30
0.0
 10
-22.08270263671799
 20
7.470397949220003
 30
0.0
 11
-20.73880004882799
 21
7.375305175790006
 31
0.0
 11
-21.14789581298799
 21
7.378234863290006
 31
0.0
 11
-21.54100036621
 21
7.397705078130004
 31
0.0
 11
-21.88369750976499
 21
7.430969238290006
 31
0.0
 11
-22.08270263671799
 21
7.470397949220003
 31
0.0
  0
ELLIPSE
  5
1A80
330
1F
100
AcDbEntity
  8
AM_0
100
AcDbEllipse
 10
-3.736709594725994
 20
0.0000000000000005
 30
0.0
 11
-95.38789701095399
 21
-0.0286254882000091
 31
0.0
210
0.0
220
0.0
230
1.0
 40
0.0786263286448
 41
4.776463275581084
 42
4.891555828155334
  0
SPLINE
  5
1A81
330
1F
100
AcDbEntity
  8
AM_0
100
AcDbSpline
210
0.0
220
0.0
230
1.0
 70
     8
 71
     3
 72
    11
 73
     7
 74
     5
 42
0.0000000001
 43
0.0000000001
 44
0.0000000001
 40
0.0
 40
0.0
 40
0.0
 40
0.0
 40
2.660751293033864
 40
5.679723988144301
 40
8.791314895006056
 40
11.91315303544476
 40
11.91315303544476
 40
11.91315303544476
 40
11.91315303544476
 10
-20.791297912597
 20
5.931213378910004
 30
0.0
 10
-20.12980716363643
 20
5.337328363223265
 30
0.0
 10
-18.71776805849973
 20
4.069602597712382
 30
0.0
 10
-16.16096006093965
 20
2.600967031506916
 30
0.0
 10
-13.28648945068633
 20
1.439054517223142
 30
0.0
 10
-11.23808318621917
 20
1.06249209619396
 30
0.0
 10
-10.212196350097
 20
0.8739013671900023
 30
0.0
 11
-20.791297912597
 21
5.931213378910004
 31
0.0
 11
-18.754196166992
 21
4.219543457040006
 31
0.0
 11
-16.158401489257
 21
2.678100585940002
 31
0.0
 11
-13.261802673339
 21
1.541564941410003
 31
0.0
 11
-10.212196350097
 21
0.8739013671900023
 31
0.0
  0
ELLIPSE
  5
1A82
330
1F
100
AcDbEntity
  8
AM_0
100
AcDbEllipse
 10
-5.513900756834999
 20
0.3344116211000034
 30
0.0
 11
-0.3430784017249959
 21
-7.864379822509989
 31
0.0
210
0.0
220
0.0
230
1.0
 40
0.1904635137347
 41
4.573856423623537
 42
4.579120602663026
  0
SPLINE
  5
1A83
330
1F
100
AcDbEntity
  8
AM_0
100
AcDbSpline
210
0.0
220
0.0
230
1.0
 70
     8
 71
     3
 72
    11
 73
     7
 74
     5
 42
0.0000000001
 43
0.0000000001
 44
0.0000000001
 40
0.0
 40
0.0
 40
0.0
 40
0.0
 40
0.0650358521671934
 40
0.1289413531146146
 40
0.1916779232673134
 40
0.2532299269949507
 40
0.2532299269949507
 40
0.2532299269949507
 40
0.2532299269949507
 10
-6.952896118164005
 20
1.444213867190001
 30
0.0
 10
-6.954640431922269
 20
1.422605533718716
 30
0.0
 10
-6.95809874251177
 20
1.379764428951201
 30
0.0
 10
-6.963645737492019
 20
1.316112032483551
 30
0.0
 10
-6.969786136938003
 20
1.253680801339061
 30
0.0
 10
-6.974144625961987
 20
1.212481136682562
 30
0.0
 10
-6.976303100584999
 20
1.192077636720001
 30
0.0
 11
-6.952896118164005
 21
1.444213867190001
 31
0.0
 11
-6.958198547362997
 21
1.37939453125
 31
0.0
 11
-6.963798522949005
 21
1.315734863290004
 31
0.0
 11
-6.969902038574005
 21
1.253295898440001
 31
0.0
 11
-6.976303100584999
 21
1.192077636720001
 31
0.0
  0
SPLINE
  5
1A84
330
1F
100
AcDbEntity
  8
AM_0
100
AcDbSpline
210
0.0
220
0.0
230
1.0
 70
     8
 71
     3
 72
    11
 73
     7
 74
     5
 42
0.0000000001
 43
0.0000000001
 44
0.0000000001
 40
0.0
 40
0.0
 40
0.0
 40
0.0
 40
0.3070174517871469
 40
0.5668772719083353
 40
0.7399345926177733
 40
0.8017969306870199
 40
0.8017969306870199
 40
0.8017969306870199
 40
0.8017969306870199
 10
-1.215797424315994
 20
1.193664550790004
 30
0.0
 10
-1.220526500838241
 20
1.09136771364378
 30
0.0
 10
-1.229258271563236
 20
0.9024867505951171
 30
0.0
 10
-1.233167956818042
 20
0.6565126417117011
 30
0.0
 10
-1.24108450515908
 20
0.4903822547477612
 30
0.0
 10
-1.225742616812238
 20
0.413447907491417
 30
0.0
 10
-1.221702575682997
 20
0.3931884765700035
 30
0.0
 11
-1.215797424315994
 21
1.193664550790004
 31
0.0
 11
-1.228302001952997
 21
0.8869018554700007
 31
0.0
 11
-1.235298156737997
 21
0.6271362304700007
 31
0.0
 11
-1.232498168945
 21
0.4541015625000002
 31
0.0
 11
-1.221702575682997
 21
0.3931884765700035
 31
0.0
  0
ELLIPSE
  5
1A85
330
1F
100
AcDbEntity
  8
AM_0
100
AcDbEllipse
 10
-5.517700195312002
 20
0.3374023437500007
 30
0.0
 11
-0.3426212176279942
 21
-7.853942805509974
 31
0.0
210
0.0
220
0.0
230
1.0
 40
0.1902205048386
 41
1.703971441103777
 42
1.718553835249031
  0
ELLIPSE
  5
1A86
330
1F
100
AcDbEntity
  8
AM_0
100
AcDbEllipse
 10
-10.55190277099599
 20
0.0606994629000055
 30
0.0
 11
0.9985122555889907
 21
-7.520294232149978
 31
0.0
210
0.0
220
0.0
230
0.9999999999999998
 40
0.0777194285266
 41
0.2314496598076003
 42
0.328851664526297
  0
ELLIPSE
  5
1A87
330
1F
100
AcDbEntity
  8
AM_0
100
AcDbEllipse
 10
-117.4524841308499
 20
0.0375061035200163
 30
0.0
 11
178.8089980782097
 21
-0.0523357130600394
 31
0.0
210
0.0
220
0.0
230
1.0
 40
0.0494085084969
 41
5.361149042443667
 42
5.418394768414517
  0
ELLIPSE
  5
1A88
330
1F
100
AcDbEntity
  8
AM_0
100
AcDbEllipse
 10
-10.949302673339
 20
0.061492919930005
 30
0.0
 11
1.088462499092002
 21
-7.538116263059976
 31
0.0
210
0.0
220
0.0
230
0.9999999999999998
 40
0.2742010532084
 41
0.0045703444328025
 42
0.2138350507001421
  0
SPLINE
  5
1A89
330
1F
100
AcDbEntity
  8
AM_0
100
AcDbSpline
210
0.0
220
0.0
230
1.0
 70
     8
 71
     3
 72
    11
 73
     7
 74
     5
 42
0.0000000001
 43
0.0000000001
 44
0.0000000001
 40
0.0
 40
0.0
 40
0.0
 40
0.0
 40
0.4091062543184863
 40
0.8026926857789545
 40
1.147000450071174
 40
1.349873966822818
 40
1.349873966822818
 40
1.349873966822818
 40
1.349873966822818
 10
-20.73880004882799
 20
-7.375305175779996
 30
0.0
 10
-20.87522167884478
 20
-7.374876278064325
 30
0.0
 10
-21.14288965859477
 20
-7.374034753263169
 30
0.0
 10
-21.52444103682434
 20
-7.396026521140746
 30
0.0
 10
-21.83813585117909
 20
-7.417352103835014
 30
0.0
 10
-22.01655263806623
 20
-7.456050201242891
 30
0.0
 10
-22.08270263671799
 20
-7.470397949209993
 30
0.0
 11
-20.73880004882799
 21
-7.375305175779996
 31
0.0
 11
-21.14789581298799
 21
-7.378234863279996
 31
0.0
 11
-21.54100036621
 21
-7.397705078119995
 31
0.0
 11
-21.88369750976499
 21
-7.430969238279996
 31
0.0
 11
-22.08270263671799
 21
-7.470397949209993
 31
0.0
  0
SPLINE
  5
1A8A
330
1F
100
AcDbEntity
  8
AM_0
100
AcDbSpline
210
0.0
220
0.0
230
1.0
 70
     8
 71
     3
 72
    11
 73
     7
 74
     5
 42
0.0000000001
 43
0.0000000001
 44
0.0000000001
 40
0.0
 40
0.0
 40
0.0
 40
0.0
 40
0.7082526422030695
 40
1.374434476823652
 40
2.094281643830705
 40
2.904982882747868
 40
2.904982882747868
 40
2.904982882747868
 40
2.904982882747868
 10
-4.597198486327997
 20
-5.379455566399996
 30
0.0
 10
-4.404540044458315
 20
-5.231025278414243
 30
0.0
 10
-4.030667235550538
 20
-4.94298158742581
 30
0.0
 10
-3.883166427179125
 20
-4.206251592180199
 30
0.0
 10
-4.234454592787729
 20
-3.46215263980617
 30
0.0
 10
-4.764791235724682
 20
-3.363083091664417
 30
0.0
 10
-5.045700073242002
 20
-3.310607910149996
 30
0.0
 11
-4.597198486327997
 21
-5.379455566399996
 31
0.0
 11
-4.092796325682997
 21
-4.882263183589997
 31
0.0
 11
-3.960700988769006
 21
-4.229309082029998
 31
0.0
 11
-4.283096313475994
 21
-3.585693359369997
 31
0.0
 11
-5.045700073242002
 21
-3.310607910149996
 31
0.0
  0
SPLINE
  5
1A8B
330
1F
100
AcDbEntity
  8
AM_0
100
AcDbSpline
210
0.0
220
0.0
230
1.0
 70
     8
 71
     3
 72
    11
 73
     7
 74
     5
 42
0.0000000001
 43
0.0000000001
 44
0.0000000001
 40
0.0
 40
0.0
 40
0.0
 40
0.0
 40
0.9382313250434027
 40
1.761378987157534
 40
2.49957576292681
 40
3.349334289398659
 40
3.349334289398659
 40
3.349334289398659
 40
3.349334289398659
 10
-5.045700073242002
 20
-3.310607910149996
 30
0.0
 10
-5.3608516824282
 20
-3.41093483677707
 30
0.0
 10
-5.952498334349325
 20
-3.59928256690519
 30
0.0
 10
-6.248667309970366
 20
-4.483428828509747
 30
0.0
 10
-5.938554280357619
 20
-5.332951974590614
 30
0.0
 10
-5.384948831892375
 20
-5.451271416836936
 30
0.0
 10
-5.08869934082
 20
-5.514587402339997
 30
0.0
 11
-5.045700073242002
 21
-3.310607910149996
 31
0.0
 11
-5.882499694824006
 21
-3.734924316399996
 31
0.0
 11
-6.151496887207003
 21
-4.512878417959995
 31
0.0
 11
-5.877403259277003
 21
-5.198303222649996
 31
0.0
 11
-5.08869934082
 21
-5.514587402339997
 31
0.0
  0
SPLINE
  5
1A8C
330
1F
100
AcDbEntity
  8
AM_0
100
AcDbSpline
210
0.0
220
0.0
230
1.0
 70
     8
 71
     3
 72
    11
 73
     7
 74
     5
 42
0.0000000001
 43
0.0000000001
 44
0.0000000001
 40
0.0
 40
0.0
 40
0.0
 40
0.0
 40
0.7631727090938818
 40
1.530342045612815
 40
2.301271708012601
 40
3.070829245365412
 40
3.070829245365412
 40
3.070829245365412
 40
3.070829245365412
 10
-5.122299194334998
 20
6.039489746100003
 30
0.0
 10
-4.866605650398104
 20
5.985071353786343
 30
0.0
 10
-4.353879531636644
 20
5.875949587743212
 30
0.0
 10
-3.845756790271666
 20
5.232370346255994
 30
0.0
 10
-3.716834883908056
 20
4.420487291983969
 30
0.0
 10
-3.985092926560513
 20
3.966158724121867
 30
0.0
 10
-4.119102478027001
 20
3.739196777350003
 30
0.0
 11
-5.122299194334998
 21
6.039489746100003
 31
0.0
 11
-4.398696899414004
 21
5.796936035160002
 31
0.0
 11
-3.909698486327997
 21
5.205810546880003
 31
0.0
 11
-3.805496215819999
 21
4.441955566410002
 31
0.0
 11
-4.119102478027001
 21
3.739196777350003
 31
0.0
  0
SPLINE
  5
1A8D
330
1F
100
AcDbEntity
  8
AM_0
100
AcDbSpline
210
0.0
220
0.0
230
1.0
 70
     8
 71
     3
 72
    11
 73
     7
 74
     5
 42
0.0000000001
 43
0.0000000001
 44
0.0000000001
 40
0.0
 40
0.0
 40
0.0
 40
0.0
 40
1.331332689951398
 40
2.673104209833154
 40
4.010789089558294
 40
5.351161594901556
 40
5.351161594901556
 40
5.351161594901556
 40
5.351161594901556
 10
-5.280700683592995
 20
6.396667480470001
 30
0.0
 10
-5.73846912297852
 20
6.304890933200917
 30
0.0
 10
-6.657595312612508
 20
6.120618229074726
 30
0.0
 10
-7.289619345984132
 20
4.734708667432784
 30
0.0
 10
-6.791936804257163
 20
3.287495068420738
 30
0.0
 10
-5.886550485211992
 20
3.029308358675558
 30
0.0
 10
-5.433403015135993
 20
2.90008544922
 30
0.0
 11
-5.280700683592995
 21
6.396667480470001
 31
0.0
 11
-6.530502319334998
 21
5.937927246100003
 31
0.0
 11
-7.101196289062001
 21
4.723571777350003
 31
0.0
 11
-6.649101257324005
 21
3.464599609380003
 31
0.0
 11
-5.433403015135993
 21
2.90008544922
 31
0.0
  0
SPLINE
  5
1A8E
330
1F
100
AcDbEntity
  8
AM_0
100
AcDbSpline
210
0.0
220
0.0
230
1.0
 70
     8
 71
     3
 72
    11
 73
     7
 74
     5
 42
0.0000000001
 43
0.0000000001
 44
0.0000000001
 40
0.0
 40
0.0
 40
0.0
 40
0.0
 40
1.340900683460699
 40
2.67729456694165
 40
4.019287383409639
 40
5.347534803975568
 40
5.347534803975568
 40
5.347534803975568
 40
5.347534803975568
 10
-5.433403015135993
 20
2.90008544922
 30
0.0
 10
-4.970507089730054
 20
2.989772281880018
 30
0.0
 10
-4.046271043440444
 20
3.168844507562798
 30
0.0
 10
-3.427143274794184
 20
4.567764051594214
 30
0.0
 10
-3.935386980293674
 20
6.001771272273429
 30
0.0
 10
-4.83380435446141
 20
6.265487915883521
 30
0.0
 10
-5.280700683592995
 20
6.396667480470001
 30
0.0
 11
-5.433403015135993
 21
2.90008544922
 31
0.0
 11
-4.173103332519005
 21
3.357971191410002
 31
0.0
 11
-3.615303039549999
 21
4.572387695320003
 31
0.0
 11
-4.078498840332001
 21
5.831909179690001
 31
0.0
 11
-5.280700683592995
 21
6.396667480470001
 31
0.0
  0
SPLINE
  5
1A8F
330
1F
100
AcDbEntity
  8
AM_0
100
AcDbSpline
210
0.0
220
0.0
230
1.0
 70
     8
 71
     3
 72
    11
 73
     7
 74
     5
 42
0.0000000001
 43
0.0000000001
 44
0.0000000001
 40
0.0
 40
0.0
 40
0.0
 40
0.0
 40
2.187298436130415
 40
4.37142272714482
 40
6.552582562265882
 40
8.730572771301041
 40
8.730572771301041
 40
8.730572771301041
 40
8.730572771301041
 10
-0.3657989501949994
 20
7.73358154297
 30
0.0
 10
-1.094692972586489
 20
7.750896711567453
 30
0.0
 10
-2.551423267149817
 20
7.785501921483461
 30
0.0
 10
-4.735102822084639
 20
7.832961127118064
 30
0.0
 10
-6.915731271947443
 20
7.877945708710526
 30
0.0
 10
-8.368528209009397
 20
7.90508190447561
 30
0.0
 10
-9.094398498534998
 20
7.918640136720001
 30
0.0
 11
-0.3657989501949994
 21
7.73358154297
 31
0.0
 11
-2.552497863769005
 21
7.784790039070003
 31
0.0
 11
-4.736099243164004
 21
7.832580566410002
 31
0.0
 11
-6.916801452635993
 21
7.877258300790004
 31
0.0
 11
-9.094398498534998
 21
7.918640136720001
 31
0.0
  0
SPLINE
  5
1A90
330
1F
100
AcDbEntity
  8
AM_0
100
AcDbSpline
210
0.0
220
0.0
230
1.0
 70
     8
 71
     3
 72
    11
 73
     7
 74
     5
 42
0.0000000001
 43
0.0000000001
 44
0.0000000001
 40
0.0
 40
0.0
 40
0.0
 40
0.0
 40
0.2878070128582816
 40
0.5766420921886293
 40
0.8648951652601512
 40
1.15100768013298
 40
1.15100768013298
 40
1.15100768013298
 40
1.15100768013298
 10
-9.094398498534998
 20
7.918640136720001
 30
0.0
 10
-9.191186245904846
 20
7.911972817877229
 30
0.0
 10
-9.385107473144209
 20
7.898614364069578
 30
0.0
 10
-9.643099366447348
 20
7.753525380382066
 30
0.0
 10
-9.844002009746709
 20
7.536137359626136
 30
0.0
 10
-9.898670797066497
 20
7.350234440551079
 30
0.0
 10
-9.925903320312
 20
7.257629394540004
 30
0.0
 11
-9.094398498534998
 21
7.918640136720001
 31
0.0
 11
-9.379302978514997
 21
7.877868652350003
 31
0.0
 11
-9.633796691894003
 21
7.741271972660002
 31
0.0
 11
-9.824600219725992
 21
7.525207519540004
 31
0.0
 11
-9.925903320312
 21
7.257629394540004
 31
0.0
  0
SPLINE
  5
1A91
330
1F
100
AcDbEntity
  8
AM_0
100
AcDbSpline
210
0.0
220
0.0
230
1.0
 70
     8
 71
     3
 72
    11
 73
     7
 74
     5
 42
0.0000000001
 43
0.0000000001
 44
0.0000000001
 40
0.0
 40
0.0
 40
0.0
 40
0.0
 40
1.05443345306874
 40
2.109047109709806
 40
3.163609398966977
 40
4.21835055108202
 40
4.21835055108202
 40
4.21835055108202
 40
4.21835055108202
 10
-9.925903320312
 20
7.257629394540004
 30
0.0
 10
-9.988231875405444
 20
6.911722171641882
 30
0.0
 10
-10.11289963759531
 20
6.219848610007574
 30
0.0
 10
-10.29996835045364
 20
5.182037215603802
 30
0.0
 10
-10.48660437224936
 20
4.144043708988832
 30
0.0
 10
-10.61106573727933
 20
3.452046173735716
 30
0.0
 10
-10.673301696777
 20
3.106018066410002
 30
0.0
 11
-9.925903320312
 21
7.257629394540004
 31
0.0
 11
-10.11289978027299
 21
6.219909667970001
 31
0.0
 11
-10.299896240234
 21
5.182006835940001
 31
0.0
 11
-10.48660278320299
 21
4.144104003910002
 31
0.0
 11
-10.673301696777
 21
3.106018066410002
 31
0.0
  0
SPLINE
  5
1A92
330
1F
100
AcDbEntity
  8
AM_0
100
AcDbSpline
210
0.0
220
0.0
230
1.0
 70
     8
 71
     3
 72
    11
 73
     7
 74
     5
 42
0.0000000001
 43
0.0000000001
 44
0.0000000001
 40
0.0
 40
0.0
 40
0.0
 40
0.0
 40
0.114232774025189
 40
0.2284304956037874
 40
0.3427921383215777
 40
0.4572270383207772
 40
0.4572270383207772
 40
0.4572270383207772
 40
0.4572270383207772
 10
-10.783203125
 20
1.981018066410003
 30
0.0
 10
-10.78392812308023
 20
1.942672890459556
 30
0.0
 10
-10.78537789677426
 20
1.865994304816144
 30
0.0
 10
-10.74625453518243
 20
1.756326648502248
 30
0.0
 10
-10.67722723548026
 20
1.661815281599737
 30
0.0
 10
-10.61101355748407
 20
1.622586819725054
 30
0.0
 10
-10.577896118164
 20
1.602966308600004
 30
0.0
 11
-10.783203125
 21
1.981018066410003
 31
0.0
 11
-10.778495788574
 21
1.866882324220001
 31
0.0
 11
-10.741302490234
 21
1.758911132820004
 31
0.0
 11
-10.672203063964
 21
1.667785644540005
 31
0.0
 11
-10.577896118164
 21
1.602966308600004
 31
0.0
  0
SPLINE
  5
1A93
330
1F
100
AcDbEntity
  8
AM_0
100
AcDbSpline
210
0.0
220
0.0
230
1.0
 70
     8
 71
     3
 72
    11
 73
     7
 74
     5
 42
0.0000000001
 43
0.0000000001
 44
0.0000000001
 40
0.0
 40
0.0
 40
0.0
 40
0.0
 40
2.221423395289873
 40
4.4433050608985
 40
6.665758667775641
 40
8.888781086871135
 40
8.888781086871135
 40
8.888781086871135
 40
8.888781086871135
 10
-1.539001464842997
 20
1.374572753910001
 30
0.0
 10
-2.279339315410567
 20
1.388802579820819
 30
0.0
 10
-3.760167745135621
 20
1.417265167195788
 30
0.0
 10
-5.981600058805456
 20
1.463838343570981
 30
0.0
 10
-8.203505736233534
 20
1.513184273744551
 30
0.0
 10
-9.68490361339206
 20
1.548786143105589
 30
0.0
 10
-10.42569732665999
 20
1.566589355470001
 30
0.0
 11
-1.539001464842997
 21
1.374572753910001
 31
0.0
 11
-3.76000213623
 21
1.417907714850003
 31
0.0
 11
-5.981399536132002
 21
1.464294433600003
 31
0.0
 11
-8.203300476074005
 21
1.513854980470001
 31
0.0
 11
-10.42569732665999
 21
1.566589355470001
 31
0.0
  0
SPLINE
  5
1A94
330
1F
100
AcDbEntity
  8
AM_0
100
AcDbSpline
210
0.0
220
0.0
230
1.0
 70
     8
 71
     3
 72
    11
 73
     7
 74
     5
 42
0.0000000001
 43
0.0000000001
 44
0.0000000001
 40
0.0
 40
0.0
 40
0.0
 40
0.0
 40
0.2881997458496859
 40
0.5748100826377094
 40
0.8598309098574702
 40
1.143917593252924
 40
1.143917593252924
 40
1.143917593252924
 40
1.143917593252924
 10
-1.539001464842997
 20
1.374572753910001
 30
0.0
 10
-1.44205575427408
 20
1.381131634213337
 30
0.0
 10
-1.248698984512893
 20
1.394213222880446
 30
0.0
 10
-0.992407107898688
 20
1.539305282317641
 30
0.0
 10
-0.7960979384050527
 20
1.758074913156818
 30
0.0
 10
-0.7465400362505986
 20
1.943670463046749
 30
0.0
 10
-0.7218017578120028
 20
2.03631591797
 30
0.0
 11
-1.539001464842997
 21
1.374572753910001
 31
0.0
 11
-1.253700256347002
 21
1.415344238290004
 31
0.0
 11
-1.001800537109005
 21
1.552062988290004
 31
0.0
 11
-0.8162002563470027
 21
1.768371582040003
 31
0.0
 11
-0.7218017578120028
 21
2.03631591797
 31
0.0
  0
SPLINE
  5
1A95
330
1F
100
AcDbEntity
  8
AM_0
100
AcDbSpline
210
0.0
220
0.0
230
1.0
 70
     8
 71
     3
 72
    11
 73
     7
 74
     5
 42
0.0000000001
 43
0.0000000001
 44
0.0000000001
 40
0.0
 40
0.0
 40
0.0
 40
0.0
 40
1.051158925011395
 40
2.102423384932659
 40
3.153852555944628
 40
4.205282887949078
 40
4.205282887949078
 40
4.205282887949078
 40
4.205282887949078
 10
-0.7218017578120028
 20
2.03631591797
 30
0.0
 10
-0.6683939758311627
 20
2.382607953620378
 30
0.0
 10
-0.5615730498016509
 20
3.07522679216508
 30
0.0
 10
-0.4014585501225237
 20
4.114246424564028
 30
0.0
 10
-0.2415101549016248
 20
5.153383171371933
 30
0.0
 10
-0.1348348661870821
 20
5.846171541607414
 30
0.0
 10
-0.0814971923820022
 20
6.19256591797
 30
0.0
 11
-0.7218017578120028
 21
2.03631591797
 31
0.0
 11
-0.561599731445
 21
3.0751953125
 31
0.0
 11
-0.4014968872070028
 21
4.114196777350002
 31
0.0
 11
-0.2415008544920025
 21
5.153381347660001
 31
0.0
 11
-0.0814971923820022
 21
6.19256591797
 31
0.0
  0
SPLINE
  5
1A96
330
1F
100
AcDbEntity
  8
AM_0
100
AcDbSpline
210
0.0
220
0.0
230
1.0
 70
     8
 71
     3
 72
    11
 73
     7
 74
     5
 42
0.0000000001
 43
0.0000000001
 44
0.0000000001
 40
0.0
 40
0.0
 40
0.0
 40
0.0
 40
0.114503681773724
 40
0.2296006821541771
 40
0.3451682412697898
 40
0.4605725521117952
 40
0.4605725521117952
 40
0.4605725521117952
 40
0.4605725521117952
 10
0.0000000000000005
 20
7.318786621100002
 30
0.0
 10
-0.0002371511375321
 20
7.357224250344451
 30
0.0
 10
-0.0007126822480403
 20
7.4342986793777
 30
0.0
 10
-0.0424595389966339
 20
7.543790398054547
 30
0.0
 10
-0.1132418445462379
 20
7.638114795568295
 30
0.0
 10
-0.1801631537144898
 20
7.677517274829859
 30
0.0
 10
-0.2136001586910007
 20
7.697204589850002
 30
0.0
 11
0.0000000000000005
 21
7.318786621100002
 31
0.0
 11
-0.007499694823998
 21
7.433044433600002
 31
0.0
 11
-0.0472030639639977
 21
7.541076660160001
 31
0.0
 11
-0.1182022094720021
 21
7.632263183600002
 31
0.0
 11
-0.2136001586910007
 21
7.697204589850002
 31
0.0
  0
SPLINE
  5
1A97
330
1F
100
AcDbEntity
  8
AM_0
100
AcDbSpline
210
0.0
220
0.0
230
1.0
 70
     8
 71
     3
 72
    11
 73
     7
 74
     5
 42
0.0000000001
 43
0.0000000001
 44
0.0000000001
 40
0.0
 40
0.0
 40
0.0
 40
0.0
 40
0.114503681773724
 40
0.2296006821541771
 40
0.3451682412697898
 40
0.4605725521117952
 40
0.4605725521117952
 40
0.4605725521117952
 40
0.4605725521117952
 10
-0.0000000000000013
 20
-7.318786621089998
 30
0.0
 10
-0.000237151137534
 20
-7.357224250334446
 30
0.0
 10
-0.0007126822480421
 20
-7.434298679367696
 30
0.0
 10
-0.0424595389966357
 20
-7.543790398044544
 30
0.0
 10
-0.1132418445462398
 20
-7.638114795558291
 30
0.0
 10
-0.1801631537144918
 20
-7.677517274819854
 30
0.0
 10
-0.2136001586910026
 20
-7.697204589839998
 30
0.0
 11
-0.0000000000000013
 21
-7.318786621089998
 31
0.0
 11
-0.0074996948239998
 21
-7.433044433589998
 31
0.0
 11
-0.0472030639639996
 21
-7.541076660149997
 31
0.0
 11
-0.1182022094720039
 21
-7.632263183589998
 31
0.0
 11
-0.2136001586910026
 21
-7.697204589839998
 31
0.0
  0
SPLINE
  5
1A98
330
1F
100
AcDbEntity
  8
AM_0
100
AcDbSpline
210
0.0
220
0.0
230
1.0
 70
     8
 71
     3
 72
    11
 73
     7
 74
     5
 42
0.0000000001
 43
0.0000000001
 44
0.0000000001
 40
0.0
 40
0.0
 40
0.0
 40
0.0
 40
2.187298436130415
 40
4.37142272714482
 40
6.552582562265882
 40
8.730572771301043
 40
8.730572771301043
 40
8.730572771301043
 40
8.730572771301043
 10
-0.3657989501950012
 20
-7.733581542959996
 30
0.0
 10
-1.094692972586491
 20
-7.75089671155745
 30
0.0
 10
-2.551423267149819
 20
-7.785501921473459
 30
0.0
 10
-4.73510282208464
 20
-7.832961127108056
 30
0.0
 10
-6.915731271947445
 20
-7.877945708700522
 30
0.0
 10
-8.368528209009401
 20
-7.905081904465604
 30
0.0
 10
-9.094398498535001
 20
-7.918640136709995
 30
0.0
 11
-0.3657989501950012
 21
-7.733581542959996
 31
0.0
 11
-2.552497863769006
 21
-7.784790039059998
 31
0.0
 11
-4.736099243164006
 21
-7.832580566399996
 31
0.0
 11
-6.916801452635994
 21
-7.877258300779998
 31
0.0
 11
-9.094398498535001
 21
-7.918640136709995
 31
0.0
  0
SPLINE
  5
1A99
330
1F
100
AcDbEntity
  8
AM_0
100
AcDbSpline
210
0.0
220
0.0
230
1.0
 70
     8
 71
     3
 72
    11
 73
     7
 74
     5
 42
0.0000000001
 43
0.0000000001
 44
0.0000000001
 40
0.0
 40
0.0
 40
0.0
 40
0.0
 40
1.051158925021282
 40
2.102423384932659
 40
3.153852555944628
 40
4.205282887949078
 40
4.205282887949078
 40
4.205282887949078
 40
4.205282887949078
 10
-0.7218017578120034
 20
-2.036315917959996
 30
0.0
 10
-0.668393975831468
 20
-2.382607953613756
 30
0.0
 10
-0.5615730498035704
 20
-3.075226792158705
 30
0.0
 10
-0.4014585501213776
 20
-4.114246424557181
 30
0.0
 10
-0.2415101549017875
 20
-5.153383171361953
 30
0.0
 10
-0.1348348661871373
 20
-5.846171541597416
 30
0.0
 10
-0.0814971923820037
 20
-6.192565917959996
 30
0.0
 11
-0.7218017578120034
 21
-2.036315917959996
 31
0.0
 11
-0.5615997314450007
 21
-3.0751953125
 31
0.0
 11
-0.4014968872070038
 21
-4.114196777339998
 31
0.0
 11
-0.2415008544920038
 21
-5.153381347649997
 31
0.0
 11
-0.0814971923820037
 21
-6.192565917959996
 31
0.0
  0
SPLINE
  5
1A9A
330
1F
100
AcDbEntity
  8
AM_0
100
AcDbSpline
210
0.0
220
0.0
230
1.0
 70
     8
 71
     3
 72
    11
 73
     7
 74
     5
 42
0.0000000001
 43
0.0000000001
 44
0.0000000001
 40
0.0
 40
0.0
 40
0.0
 40
0.0
 40
0.1366579610357771
 40
0.2734104228852544
 40
0.4100336665051155
 40
0.5463383315918949
 40
0.5463383315918949
 40
0.5463383315918949
 40
0.5463383315918949
 10
-0.9823989868160019
 20
-1.568298339839998
 30
0.0
 10
-0.9491935902953843
 20
-1.599691637411341
 30
0.0
 10
-0.8827598352769131
 20
-1.662499941440524
 30
0.0
 10
-0.80726023368692
 20
-1.777561965893956
 30
0.0
 10
-0.7495492254144491
 20
-1.902332074091082
 30
0.0
 10
-0.7310437134156325
 20
-1.991689404492838
 30
0.0
 10
-0.7218017578120034
 20
-2.036315917959996
 30
0.0
 11
-0.9823989868160019
 21
-1.568298339839998
 31
0.0
 11
-0.8868026733389989
 21
-1.665954589839998
 31
0.0
 11
-0.8101959228510018
 21
-1.779235839839998
 31
0.0
 11
-0.7545013427729977
 21
-1.903991699209996
 31
0.0
 11
-0.7218017578120034
 21
-2.036315917959996
 31
0.0
  0
SPLINE
  5
1A9B
330
1F
100
AcDbEntity
  8
AM_0
100
AcDbSpline
210
0.0
220
0.0
230
1.0
 70
     8
 71
     3
 72
    11
 73
     7
 74
     0
 42
0.0000000001
 43
0.0000000001
 40
0.0
 40
0.0
 40
0.0
 40
0.0
 40
0.2332756665270807
 40
0.4674449501582113
 40
0.7017633995125247
 40
0.9230499104008549
 40
0.9230499104008549
 40
0.9230499104008549
 40
0.9230499104008549
 10
-9.094398498535001
 20
-7.918640136709995
 30
0.0
 10
-9.172639157725518
 20
-7.914818935370712
 30
0.0
 10
-9.329420195285692
 20
-7.907161894684996
 30
0.0
 10
-9.547798949093657
 20
-7.812448591718254
 30
0.0
 10
-9.732681817382811
 20
-7.668821771732938
 30
0.0
 10
-9.812920756744137
 20
-7.538760856668229
 30
0.0
 10
-9.851404858571667
 20
-7.475180565883335
 30
0.0
  0
SPLINE
  5
1A9C
330
1F
100
AcDbEntity
  8
AM_0
100
AcDbSpline
210
0.0
220
0.0
230
1.0
 70
     8
 71
     3
 72
    11
 73
     7
 74
     5
 42
0.0000000001
 43
0.0000000001
 44
0.0000000001
 40
0.0
 40
0.0
 40
0.0
 40
0.0
 40
0.0620416583966837
 40
0.1245952502665824
 40
0.1871550837797131
 40
0.2496925340784119
 40
0.2496925340784119
 40
0.2496925340784119
 40
0.2496925340784119
 10
-0.7985992431639999
 20
-7.064086914059998
 30
0.0
 10
-0.7809014388460087
 20
-7.053269720362727
 30
0.0
 10
-0.7453597977107843
 20
-7.031546075464707
 30
0.0
 10
-0.7004334951603343
 20
-6.987706338603485
 30
0.0
 10
-0.6617778332145337
 20
-6.938035904982639
 30
0.0
 10
-0.6441246799440931
 20
-6.900119407425956
 30
0.0
 10
-0.6352996826170041
 20
-6.881164550779999
 30
0.0
 11
-0.7985992431639999
 21
-7.064086914059998
 31
0.0
 11
-0.7469024658200012
 21
-7.02978515625
 31
0.0
 11
-0.7014999389639996
 21
-6.986755371089998
 31
0.0
 11
-0.663803100585001
 21
-6.936828613279999
 31
0.0
 11
-0.6352996826170041
 21
-6.881164550779999
 31
0.0
  0
SPLINE
  5
1A9D
330
1F
100
AcDbEntity
  8
AM_0
100
AcDbSpline
210
0.0
220
0.0
230
1.0
 70
     8
 71
     3
 72
    11
 73
     7
 74
     5
 42
0.0000000001
 43
0.0000000001
 44
0.0000000001
 40
0.0
 40
0.0
 40
0.0
 40
0.0
 40
0.0264333363250899
 40
0.0527633086811413
 40
0.0791009875138847
 40
0.1054988910388359
 40
0.1054988910388359
 40
0.1054988910388359
 40
0.1054988910388359
 10
-0.6352996826170041
 20
-6.881164550779999
 30
0.0
 10
-0.6321095119450475
 20
-6.872947330679215
 30
0.0
 10
-0.6257416453299579
 20
-6.856545022800016
 30
0.0
 10
-0.6184020391465096
 20
-6.831186994326516
 30
0.0
 10
-0.6128398726991971
 20
-6.805397383121568
 30
0.0
 10
-0.6105460895313849
 20
-6.787962991031529
 30
0.0
 10
-0.6093978881829982
 20
-6.779235839839998
 30
0.0
 11
-0.6352996826170041
 21
-6.881164550779999
 31
0.0
 11
-0.626098632812004
 21
-6.856384277339998
 31
0.0
 11
-0.6186981201170041
 21
-6.831115722649997
 31
0.0
 11
-0.6131973266600013
 21
-6.805358886709996
 31
0.0
 11
-0.6093978881829982
 21
-6.779235839839998
 31
0.0
  0
SPLINE
  5
1A9E
330
1F
100
AcDbEntity
  8
AM_0
100
AcDbSpline
210
0.0
220
0.0
230
1.0
 70
     8
 71
     3
 72
    11
 73
     7
 74
     5
 42
0.0000000001
 43
0.0000000001
 44
0.0000000001
 40
0.0
 40
0.0
 40
0.0
 40
0.0
 40
0.0485582523155015
 40
0.0965952910807688
 40
0.1448502754497143
 40
0.1940688590283269
 40
0.1940688590283269
 40
0.1940688590283269
 40
0.1940688590283269
 10
-0.984497070312004
 20
-7.113464355459996
 30
0.0
 10
-0.9683162047233359
 20
-7.112564016146064
 30
0.0
 10
-0.9361281553816752
 20
-7.11077300156145
 30
0.0
 10
-0.8887012541397012
 20
-7.100935396575831
 30
0.0
 10
-0.8424384671279517
 20
-7.08587629932213
 30
0.0
 10
-0.8133083089609272
 20
-7.071397752905113
 30
0.0
 10
-0.7985992431639999
 20
-7.064086914059998
 30
0.0
 11
-0.984497070312004
 21
-7.113464355459996
 31
0.0
 11
-0.9360961914060027
 21
-7.109558105459996
 31
0.0
 11
-0.8889999389639996
 21
-7.10009765625
 31
0.0
 11
-0.8432006835929982
 21
-7.084899902339998
 31
0.0
 11
-0.7985992431639999
 21
-7.064086914059998
 31
0.0
  0
SPLINE
  5
1A9F
330
1F
100
AcDbEntity
  8
AM_0
100
AcDbSpline
210
0.0
220
0.0
230
1.0
 70
     8
 71
     3
 72
    11
 73
     7
 74
     5
 42
0.0000000001
 43
0.0000000001
 44
0.0000000001
 40
0.0
 40
0.0
 40
0.0
 40
0.0
 40
0.0523305393133712
 40
0.1044653496566845
 40
0.1564796610220688
 40
0.2088541208507027
 40
0.2088541208507027
 40
0.2088541208507027
 40
0.2088541208507027
 10
-0.9125976562500007
 20
-2.513854980459996
 30
0.0
 10
-0.9151896714292746
 20
-2.496597921955284
 30
0.0
 10
-0.9203640070193742
 20
-2.462148350550239
 30
0.0
 10
-0.9324310587030396
 20
-2.411354438604262
 30
0.0
 10
-0.9472551541294823
 20
-2.361281964080882
 30
0.0
 10
-0.9598717301745368
 20
-2.328838655344847
 30
0.0
 10
-0.9662017822260018
 20
-2.312561035149997
 30
0.0
 11
-0.9125976562500007
 21
-2.513854980459996
 31
0.0
 11
-0.9210968017570031
 21
-2.462219238279999
 31
0.0
 11
-0.9328994750970032
 21
-2.411437988279999
 31
0.0
 11
-0.947898864746002
 21
-2.361633300779999
 31
0.0
 11
-0.9662017822260018
 21
-2.312561035149997
 31
0.0
  0
SPLINE
  5
1AA0
330
1F
100
AcDbEntity
  8
AM_0
100
AcDbSpline
210
0.0
220
0.0
230
1.0
 70
     8
 71
     3
 72
    11
 73
     7
 74
     5
 42
0.0000000001
 43
0.0000000001
 44
0.0000000001
 40
0.0
 40
0.0
 40
0.0
 40
0.0
 40
0.0435905608411553
 40
0.087239982560251
 40
0.1308283821207533
 40
0.174479962099147
 40
0.174479962099147
 40
0.174479962099147
 40
0.174479962099147
 10
-8.514099121092996
 20
-7.234191894529998
 30
0.0
 10
-8.514440678621859
 20
-7.248718078624174
 30
0.0
 10
-8.515124254888977
 20
-7.277790061700068
 30
0.0
 10
-8.515997872504101
 20
-7.321390807961543
 30
0.0
 10
-8.516875255802904
 20
-7.365011819113863
 30
0.0
 10
-8.51755729366717
 20
-7.394083835643789
 30
0.0
 10
-8.517898559570001
 20
-7.408630371089997
 30
0.0
 11
-8.514099121092996
 21
-7.234191894529998
 31
0.0
 11
-8.515098571777004
 21
-7.277770996089997
 31
0.0
 11
-8.515998840332004
 21
-7.321411132809998
 31
0.0
 11
-8.516899108885995
 21
-7.364990234369996
 31
0.0
 11
-8.517898559570001
 21
-7.408630371089997
 31
0.0
  0
SPLINE
  5
1AA1
330
1F
100
AcDbEntity
  8
AM_0
100
AcDbSpline
210
0.0
220
0.0
230
1.0
 70
     8
 71
     3
 72
    11
 73
     7
 74
     5
 42
0.0000000001
 43
0.0000000001
 44
0.0000000001
 40
0.0
 40
0.0
 40
0.0
 40
0.0
 40
0.0648280297761622
 40
0.1286959953936833
 40
0.1922856477493679
 40
0.2562905010033766
 40
0.2562905010033766
 40
0.2562905010033766
 40
0.2562905010033766
 10
-8.765296936034999
 20
-7.192810058589997
 30
0.0
 10
-8.744896375390874
 20
-7.20000034449308
 30
0.0
 10
-8.704397374144804
 20
-7.21427443248646
 30
0.0
 10
-8.641543698822246
 20
-7.227545026406922
 30
0.0
 10
-8.578023807184427
 20
-7.235131069173563
 30
0.0
 10
-8.535453525287538
 20
-7.234505631149984
 30
0.0
 10
-8.514099121092996
 20
-7.234191894529998
 30
0.0
 11
-8.765296936034999
 21
-7.192810058589997
 31
0.0
 11
-8.703697204589005
 21
-7.213012695309998
 31
0.0
 11
-8.641296386717996
 21
-7.226623535149996
 31
0.0
 11
-8.578102111815994
 21
-7.233703613279998
 31
0.0
 11
-8.514099121092996
 21
-7.234191894529998
 31
0.0
  0
SPLINE
  5
1AA2
330
1F
100
AcDbEntity
  8
AM_0
100
AcDbSpline
210
0.0
220
0.0
230
1.0
 70
     8
 71
     3
 72
    11
 73
     7
 74
     5
 42
0.0000000001
 43
0.0000000001
 44
0.0000000001
 40
0.0
 40
0.0
 40
0.0
 40
0.0
 40
0.086650088889608
 40
0.1718734966284555
 40
0.2565945203473795
 40
0.3419906823260843
 40
0.3419906823260843
 40
0.3419906823260843
 40
0.3419906823260843
 10
-8.882102966307998
 20
-7.387634277339997
 30
0.0
 10
-8.854927957595702
 20
-7.397514543093008
 30
0.0
 10
-8.801025372749638
 20
-7.417112397455879
 30
0.0
 10
-8.717175995685103
 20
-7.435029233022989
 30
0.0
 10
-8.632452116674004
 20
-7.445166470220178
 30
0.0
 10
-8.575694498873215
 20
-7.444003968034286
 30
0.0
 10
-8.547203063964007
 20
-7.443420410149996
 30
0.0
 11
-8.882102966307998
 21
-7.387634277339997
 31
0.0
 11
-8.800003051757004
 21
-7.415344238279998
 31
0.0
 11
-8.716796875000001
 21
-7.433776855459995
 31
0.0
 11
-8.632598876952998
 21
-7.443176269529998
 31
0.0
 11
-8.547203063964007
 21
-7.443420410149996
 31
0.0
  0
SPLINE
  5
1AA3
330
1F
100
AcDbEntity
  8
AM_0
100
AcDbSpline
210
0.0
220
0.0
230
1.0
 70
     8
 71
     3
 72
    11
 73
     7
 74
     5
 42
0.0000000001
 43
0.0000000001
 44
0.0000000001
 40
0.0
 40
0.0
 40
0.0
 40
0.0
 40
0.0679344427913574
 40
0.1347769280739726
 40
0.2013770593678803
 40
0.2685655574065132
 40
0.2685655574065132
 40
0.2685655574065132
 40
0.2685655574065132
 10
-8.765296936034999
 20
-7.192810058589997
 30
0.0
 10
-8.786145939248786
 20
-7.183902674713243
 30
0.0
 10
-8.827508825159082
 20
-7.166231081530801
 30
0.0
 10
-8.884951778077255
 20
-7.13114628053601
 30
0.0
 10
-8.938457811741898
 20
-7.090702159877824
 30
0.0
 10
-8.96970502418706
 20
-7.058804575338576
 30
0.0
 10
-8.985397338867002
 20
-7.042785644529998
 30
0.0
 11
-8.765296936034999
 21
-7.192810058589997
 31
0.0
 11
-8.827102661132002
 21
-7.164611816399996
 31
0.0
 11
-8.884399414062002
 21
-7.130187988279998
 31
0.0
 11
-8.937202453612997
 21
-7.089599609369996
 31
0.0
 11
-8.985397338867002
 21
-7.042785644529998
 31
0.0
  0
SPLINE
  5
1AA4
330
1F
100
AcDbEntity
  8
AM_0
100
AcDbSpline
210
0.0
220
0.0
230
1.0
 70
     8
 71
     3
 72
    11
 73
     7
 74
     5
 42
0.0000000001
 43
0.0000000001
 44
0.0000000001
 40
0.0
 40
0.0
 40
0.0
 40
0.0
 40
0.0937135347318265
 40
0.1856511770628047
 40
0.2771801300704879
 40
0.3694693141193281
 40
0.3694693141193281
 40
0.3694693141193281
 40
0.3694693141193281
 10
-9.178802490234005
 20
-7.173095703119996
 30
0.0
 10
-9.157679858597923
 20
-7.196162891428734
 30
0.0
 10
-9.115834873910019
 20
-7.241860139678964
 30
0.0
 10
-9.043782146787822
 20
-7.300145265382006
 30
0.0
 10
-8.966268755346646
 20
-7.350098178463413
 30
0.0
 10
-8.910235476391783
 20
-7.375087793879043
 30
0.0
 10
-8.882102966307998
 20
-7.387634277339997
 30
0.0
 11
-9.178802490234005
 21
-7.173095703119996
 31
0.0
 11
-9.113800048827997
 21
-7.240600585929995
 31
0.0
 11
-9.042701721190995
 21
-7.298889160149996
 31
0.0
 11
-8.965400695800001
 21
-7.347900390619996
 31
0.0
 11
-8.882102966307998
 21
-7.387634277339997
 31
0.0
  0
SPLINE
  5
1AA5
330
1F
100
AcDbEntity
  8
AM_0
100
AcDbSpline
210
0.0
220
0.0
230
1.0
 70
     8
 71
     3
 72
    11
 73
     7
 74
     5
 42
0.0000000001
 43
0.0000000001
 44
0.0000000001
 40
0.0
 40
0.0
 40
0.0
 40
0.0
 40
0.0439158049134773
 40
0.0875775340150218
 40
0.1313374532348823
 40
0.1752375071380667
 40
0.1752375071380667
 40
0.1752375071380667
 40
0.1752375071380667
 10
-9.275802612304005
 20
-7.027587890619996
 30
0.0
 10
-9.26893126679975
 20
-7.040519323000375
 30
0.0
 10
-9.255228330105017
 20
-7.066307372687427
 30
0.0
 10
-9.231762812233522
 20
-7.103304383869865
 30
0.0
 10
-9.206604039043309
 20
-7.139162708598965
 30
0.0
 10
-9.188079544358334
 20
-7.161772656733933
 30
0.0
 10
-9.178802490234005
 20
-7.173095703119996
 30
0.0
 11
-9.275802612304005
 21
-7.027587890619996
 31
0.0
 11
-9.254699707030994
 21
-7.066101074209995
 31
0.0
 11
-9.231498718260993
 21
-7.103088378899996
 31
0.0
 11
-9.206199645995994
 21
-7.138793945309998
 31
0.0
 11
-9.178802490234005
 21
-7.173095703119996
 31
0.0
  0
LWPOLYLINE
  5
1AA6
330
1F
100
AcDbEntity
  8
AM_11
100
AcDbPolyline
 90
        4
 70
     1
 43
0.0
 10
-0.0000000000000014
 20
-7.918792724599995
 10
-9.000000000000001
 20
-7.918792724599994
 10
-8.999999999999998
 20
7.918884277350003
 10
0.0000000000000005
 20
7.918884277350002
1001
GENIUS_GENREC_14
1002
{
1000
PYDIR
1011
0.0000000000000005
1021
7.918884277350002
1031
0.0
1002
}
1002
{
1000
PXDIR
1011
-9.000000000000001
1021
-7.918792724599994
1031
0.0
1002
}
1002
{
1000
PORI
1011
-0.0000000000000014
1021
-7.918792724599995
1031
0.0
1002
}
1002
{
1000
PINS
1011
-0.0000000000000014
1021
-7.918792724599995
1031
0.0
1002
}
1002
{
1000
PINS2
1011
-8.999999999999998
1021
7.918884277350003
1031
0.0
1002
}
1002
{
1000
C
1070
     1
1002
}
1001
GENIUS_GENODEF_13
1002
{
1000
HIER
1070
     0
1002
}
1002
{
1000
MANEDIT
1070
     0
1002
}
1002
{
1000
NOSEL
1070
     0
1002
}
1002
{
1000
BEHIND
1070
     0
1002
}
1002
{
1000
REACTOR
1002
}
1001
GENIUS_GENOBJ-N-REC_13
1002
{
1000
OWNER
1000
GEN
1002
}
  0
ARC
  5
1AA7
330
1F
100
AcDbEntity
  8
AM_0
100
AcDbCircle
 10
-9.751800537109005
 20
2.806335449220001
 30
0.0
 40
1.498629212379499
100
AcDbArc
 50
120.1716751351338
 51
265.085681396654
  0
ARC
  5
1AA8
330
1F
100
AcDbEntity
  8
AM_0
100
AcDbCircle
 10
-9.907699584959999
 20
2.813110351570004
 30
0.0
 40
1.498825669288599
100
AcDbArc
 50
117.423288975394
 51
215.6244328049934
  0
ARC
  5
1AA9
330
1F
100
AcDbEntity
  8
AM_0
100
AcDbCircle
 10
-5.462600708007001
 20
4.429870605470001
 30
0.0
 40
1.500026345253
100
AcDbArc
 50
267.5011573060633
 51
87.49717348454039
  0
ARC
  5
1AAA
330
1F
100
AcDbEntity
  8
AM_0
100
AcDbCircle
 10
-5.515602111815993
 20
4.432189941410002
 30
0.0
 40
1.4999264478683
100
AcDbArc
 50
87.50098837256262
 51
267.4973392303152
  0
ARC
  5
1AAB
330
1F
100
AcDbEntity
  8
AM_0
100
AcDbCircle
 10
-5.515602111815993
 20
4.432189941410002
 30
0.0
 40
1.5000307559967
100
AcDbArc
 50
267.4973392303152
 51
87.50099839047829
  0
ARC
  5
1AAC
330
1F
100
AcDbEntity
  8
AM_0
100
AcDbCircle
 10
-5.482498168944998
 20
3.792602539070004
 30
0.0
 40
0.2243606448174
100
AcDbArc
 50
192.431860388546
 51
257.4214783176556
  0
ARC
  5
1AAD
330
1F
100
AcDbEntity
  8
AM_0
100
AcDbCircle
 10
-5.545196533202996
 20
3.79541015625
 30
0.0
 40
0.2250178903341
100
AcDbArc
 50
267.4783717949888
 51
342.542369339485
  0
ARC
  5
1AAE
330
1F
100
AcDbEntity
  8
AM_0
100
AcDbCircle
 10
-5.545196533202996
 20
3.79541015625
 30
0.0
 40
0.2243821918964
100
AcDbArc
 50
192.4567965554341
 51
267.4783717949888
  0
LINE
  5
1AAF
330
1F
100
AcDbEntity
  8
AM_0
100
AcDbLine
 10
-25.86599731445299
 20
-7.999999999999996
 30
0.0
 11
-25.86599731445299
 21
8.000000000000003
 31
0.0
  0
LINE
  5
1AB0
330
1F
100
AcDbEntity
  8
AM_0
100
AcDbLine
 10
-25.0
 20
-7.499999999999997
 30
0.0
 11
-25.0
 21
7.500000000000002
 31
0.0
  0
LINE
  5
1AB1
330
1F
100
AcDbEntity
  8
AM_0
100
AcDbLine
 10
-0.3657875061029964
 20
7.733703613290003
 30
0.0
 11
-0.2135848999020022
 21
7.69729614258
 31
0.0
  0
LINE
  5
1AB2
330
1F
100
AcDbEntity
  8
AM_0
100
AcDbLine
 10
-0.2136116027829965
 20
7.697204589850002
 30
0.0
 11
-0.3650093078610008
 21
7.733642578130002
 31
0.0
  0
LINE
  5
1AB3
330
1F
100
AcDbEntity
  8
AM_0
100
AcDbLine
 10
-0.0814781188960009
 20
6.192596435550001
 30
0.0
 11
0.0000152587900009
 21
7.318756103520001
 31
0.0
  0
ARC
  5
1AB4
330
1F
100
AcDbEntity
  8
AM_0
100
AcDbCircle
 10
-5.252899169920993
 20
4.643859863290004
 30
0.0
 40
1.749939084053
100
AcDbArc
 50
88.71642053536868
 51
180.5221699363997
  0
ARC
  5
1AB5
330
1F
100
AcDbEntity
  8
AM_0
100
AcDbCircle
 10
-5.121398925780993
 20
4.638122558600003
 30
0.0
 40
1.4000450372696
100
AcDbArc
 50
88.55522124076644
 51
109.6689752106792
  0
ARC
  5
1AB6
330
1F
100
AcDbEntity
  8
AM_0
100
AcDbCircle
 10
-6.018501281737996
 20
4.135070800790004
 30
0.0
 40
0.2246122211218
100
AcDbArc
 50
132.3114382149596
 51
257.8412275931024
  0
ARC
  5
1AB7
330
1F
100
AcDbEntity
  8
AM_0
100
AcDbCircle
 10
-6.081199645995993
 20
4.137756347660002
 30
0.0
 40
0.2250135093927
100
AcDbArc
 50
267.503807419459
 51
282.5536716329105
  0
ARC
  5
1AB8
330
1F
100
AcDbEntity
  8
AM_0
100
AcDbCircle
 10
-6.081199645995993
 20
4.137756347660002
 30
0.0
 40
0.2246122211218
100
AcDbArc
 50
132.3114382149596
 51
267.503807419459
  0
ARC
  5
1AB9
330
1F
100
AcDbEntity
  8
AM_0
100
AcDbCircle
 10
-5.990699768065993
 20
4.772033691410002
 30
0.0
 40
0.2248999774456
100
AcDbArc
 50
97.04917619070535
 51
222.6906459919639
  0
ARC
  5
1ABA
330
1F
100
AcDbEntity
  8
AM_0
100
AcDbCircle
 10
-6.053398132324004
 20
4.774719238290004
 30
0.0
 40
0.2250135093927
100
AcDbArc
 50
87.50380924069075
 51
222.6906459919639
  0
ARC
  5
1ABB
330
1F
100
AcDbEntity
  8
AM_0
100
AcDbCircle
 10
-6.053398132324004
 20
4.774719238290004
 30
0.0
 40
0.224960193038
100
AcDbArc
 50
72.45909498987801
 51
87.50380924069075
  0
ARC
  5
1ABC
330
1F
100
AcDbEntity
  8
AM_0
100
AcDbCircle
 10
-6.320999145507001
 20
4.46728515625
 30
0.0
 40
0.2246795445681
100
AcDbArc
 50
312.3302979611216
 51
42.69210241611834
  0
ARC
  5
1ABD
330
1F
100
AcDbEntity
  8
AM_0
100
AcDbCircle
 10
-5.920700073242001
 20
3.695861816410002
 30
0.0
 40
0.2243821918964
100
AcDbArc
 50
12.45679837666643
 51
87.50380924069075
  0
ARC
  5
1ABE
330
1F
100
AcDbEntity
  8
AM_0
100
AcDbCircle
 10
-5.983398437499999
 20
3.698669433600003
 30
0.0
 40
0.2249136120081
100
AcDbArc
 50
87.50270275004551
 51
102.5592059073685
  0
ARC
  5
1ABF
330
1F
100
AcDbEntity
  8
AM_0
100
AcDbCircle
 10
-5.983398437499999
 20
3.698669433600003
 30
0.0
 40
0.2243606448174
100
AcDbArc
 50
12.43185452581378
 51
87.50270275004551
  0
ARC
  5
1AC0
330
1F
100
AcDbEntity
  8
AM_0
100
AcDbCircle
 10
-5.855003356932996
 20
5.200866699220001
 30
0.0
 40
0.2250135093927
100
AcDbArc
 50
267.503807419459
 51
342.5667394544442
  0
ARC
  5
1AC1
330
1F
100
AcDbEntity
  8
AM_0
100
AcDbCircle
 10
-5.917701721190993
 20
5.203674316410002
 30
0.0
 40
0.2250135093927
100
AcDbArc
 50
267.503807419459
 51
342.542369339485
  0
ARC
  5
1AC2
330
1F
100
AcDbEntity
  8
AM_0
100
AcDbCircle
 10
-5.917701721190993
 20
5.203674316410002
 30
0.0
 40
0.2249903529882
100
AcDbArc
 50
252.4348118461436
 51
267.503807419459
  0
ARC
  5
1AC3
330
1F
100
AcDbEntity
  8
AM_0
100
AcDbCircle
 10
-5.426902770995993
 20
5.06640625
 30
0.0
 40
0.224974244833
100
AcDbArc
 50
93.72090014023935
 51
162.5500278027768
  0
ARC
  5
1AC4
330
1F
100
AcDbEntity
  8
AM_0
100
AcDbCircle
 10
-5.489601135252995
 20
5.069091796880003
 30
0.0
 40
0.2250135093927
100
AcDbArc
 50
87.50380924069075
 51
162.5500278027768
  0
ARC
  5
1AC5
330
1F
100
AcDbEntity
  8
AM_0
100
AcDbCircle
 10
-5.489601135252995
 20
5.069091796880003
 30
0.0
 40
0.2242845445871
100
AcDbArc
 50
12.46230350913746
 51
87.50380924069075
  0
ARC
  5
1AC6
330
1F
100
AcDbEntity
  8
AM_0
100
AcDbCircle
 10
-5.054496765135993
 20
3.658142089850003
 30
0.0
 40
0.2249903529882
100
AcDbArc
 50
72.43481366737592
 51
87.50380924069075
  0
ARC
  5
1AC7
330
1F
100
AcDbEntity
  8
AM_0
100
AcDbCircle
 10
-5.117202758789004
 20
3.66082763672
 30
0.0
 40
0.2250135093927
100
AcDbArc
 50
87.50380924069075
 51
162.5423694531725
  0
ARC
  5
1AC8
330
1F
100
AcDbEntity
  8
AM_0
100
AcDbCircle
 10
-5.117202758789004
 20
3.66082763672
 30
0.0
 40
0.2249903529882
100
AcDbArc
 50
72.43481366737592
 51
87.50380924069075
  0
ARC
  5
1AC9
330
1F
100
AcDbEntity
  8
AM_0
100
AcDbCircle
 10
-4.988800048827996
 20
5.1630859375
 30
0.0
 40
0.2250135093927
100
AcDbArc
 50
267.503807419459
 51
282.5536716329105
  0
ARC
  5
1ACA
330
1F
100
AcDbEntity
  8
AM_0
100
AcDbCircle
 10
-5.051498413084998
 20
5.165832519540004
 30
0.0
 40
0.2249136120081
100
AcDbArc
 50
267.5027009288137
 51
282.5592040861362
  0
ARC
  5
1ACB
330
1F
100
AcDbEntity
  8
AM_0
100
AcDbCircle
 10
-5.051498413084998
 20
5.165832519540004
 30
0.0
 40
0.2243606448174
100
AcDbArc
 50
192.431860388546
 51
267.5027009288137
  0
ARC
  5
1ACC
330
1F
100
AcDbEntity
  8
AM_0
100
AcDbCircle
 10
-4.918800354002995
 20
4.087097167970001
 30
0.0
 40
0.224960193038
100
AcDbArc
 50
252.4590931686457
 51
256.8469637858137
  0
ARC
  5
1ACD
330
1F
100
AcDbEntity
  8
AM_0
100
AcDbCircle
 10
-4.981498718260993
 20
4.089782714850003
 30
0.0
 40
0.2250135093927
100
AcDbArc
 50
267.503807419459
 51
42.67336037703794
  0
ARC
  5
1ACE
330
1F
100
AcDbEntity
  8
AM_0
100
AcDbCircle
 10
-4.981498718260993
 20
4.089782714850003
 30
0.0
 40
0.224960193038
100
AcDbArc
 50
252.4590931686457
 51
267.503807419459
  0
ARC
  5
1ACF
330
1F
100
AcDbEntity
  8
AM_0
100
AcDbCircle
 10
-4.890998840332001
 20
4.723999023440001
 30
0.0
 40
0.2249024957418
100
AcDbArc
 50
96.84378557217229
 51
102.5592059073685
  0
ARC
  5
1AD0
330
1F
100
AcDbEntity
  8
AM_0
100
AcDbCircle
 10
-4.953697204589004
 20
4.726745605470001
 30
0.0
 40
0.2250135093927
100
AcDbArc
 50
87.50380924069075
 51
102.5536666239531
  0
ARC
  5
1AD1
330
1F
100
AcDbEntity
  8
AM_0
100
AcDbCircle
 10
-4.953697204589004
 20
4.726745605470001
 30
0.0
 40
0.2246795445681
100
AcDbArc
 50
312.3302979611216
 51
87.50381242841664
  0
ARC
  5
1AD2
330
1F
100
AcDbEntity
  8
AM_0
100
AcDbCircle
 10
-6.383697509764998
 20
4.470092773440001
 30
0.0
 40
0.2247534841299
100
AcDbArc
 50
312.3131268655433
 51
42.67336037703794
  0
ARC
  5
1AD3
330
1F
100
AcDbEntity
  8
AM_0
100
AcDbCircle
 10
-4.651199340819998
 20
4.394409179690001
 30
0.0
 40
0.2246861755848
100
AcDbArc
 50
132.2942739495712
 51
222.6906459919639
  0
LINE
  5
1AD4
330
1F
100
AcDbEntity
  8
AM_0
100
AcDbLine
 10
-5.910896301269004
 20
3.920715332040004
 30
0.0
 11
-5.973594665527001
 21
3.923431396490003
 31
0.0
  0
LINE
  5
1AD5
330
1F
100
AcDbEntity
  8
AM_0
100
AcDbLine
 10
-5.927497863769004
 20
4.978973388680004
 30
0.0
 11
-5.864807128905993
 21
4.976165771490003
 31
0.0
  0
LINE
  5
1AD6
330
1F
100
AcDbEntity
  8
AM_0
100
AcDbLine
 10
-5.397109985350993
 20
5.928466796880003
 30
0.0
 11
-5.450202941894004
 21
5.930755615240003
 31
0.0
  0
LINE
  5
1AD7
330
1F
100
AcDbEntity
  8
AM_0
100
AcDbLine
 10
-5.044708251952996
 20
3.882904052740002
 30
0.0
 11
-5.107406616209998
 21
3.88558959961
 31
0.0
  0
LINE
  5
1AD8
330
1F
100
AcDbEntity
  8
AM_0
100
AcDbLine
 10
-5.061279296874999
 20
4.941101074220001
 30
0.0
 11
-4.998580932617001
 21
4.938293457040004
 31
0.0
  0
LINE
  5
1AD9
330
1F
100
AcDbEntity
  8
AM_0
100
AcDbLine
 10
-10.59801483154299
 20
4.143432617190001
 30
0.0
 11
-10.475105285644
 21
4.207672119150005
 31
0.0
  0
LINE
  5
1ADA
330
1F
100
AcDbEntity
  8
AM_0
100
AcDbLine
 10
-24.99996948242099
 20
7.500030517580003
 30
0.0
 11
-25.86595916748
 21
8.000030517580004
 31
0.0
  0
LINE
  5
1ADB
330
1F
100
AcDbEntity
  8
AM_0
100
AcDbLine
 10
-22.165000915527
 20
7.500000000000002
 30
0.0
 11
-25.0
 21
7.500000000000002
 31
0.0
  0
LINE
  5
1ADC
330
1F
100
AcDbEntity
  8
AM_0
100
AcDbLine
 10
-8.329299926757002
 20
0.703521728520003
 30
0.0
 11
-1.464904785155994
 21
0.403839111330001
 31
0.0
  0
LINE
  5
1ADD
330
1F
100
AcDbEntity
  8
AM_0
100
AcDbLine
 10
-8.521598815917998
 20
-7.442260742179995
 30
0.0
 11
-1.028900146484006
 21
-7.115051269529999
 31
0.0
  0
LINE
  5
1ADE
330
1F
100
AcDbEntity
  8
AM_0
100
AcDbLine
 10
-8.514213562010993
 20
-7.233215332029998
 30
0.0
 11
-1.024604797362998
 21
-6.906219482419999
 31
0.0
  0
LINE
  5
1ADF
330
1F
100
AcDbEntity
  8
AM_0
100
AcDbLine
 10
-0.9876022338860023
 20
-6.177917480459996
 30
0.0
 11
-0.9876022338860014
 21
0.3829956054700006
 31
0.0
  0
LINE
  5
1AE0
330
1F
100
AcDbEntity
  8
AM_0
100
AcDbLine
 10
-1.464897155760995
 20
-6.717590332029999
 30
0.0
 11
-1.464897155760994
 21
0.4038085937500002
 31
0.0
  0
LINE
  5
1AE1
330
1F
100
AcDbEntity
  8
AM_0
100
AcDbLine
 10
-0.0814590454100012
 20
-6.192657470699998
 30
0.0
 11
-0.7347640991210023
 21
-3.805969238279999
 31
0.0
  0
LINE
  5
1AE2
330
1F
100
AcDbEntity
  8
AM_0
100
AcDbLine
 10
-0.6094970703120039
 20
-6.674774169919999
 30
0.0
 11
-0.7348022460929978
 21
-3.805877685539996
 31
0.0
  0
LINE
  5
1AE3
330
1F
100
AcDbEntity
  8
AM_0
100
AcDbLine
 10
-0.9478874206539993
 20
-3.671844482419999
 30
0.0
 11
-0.8163871765129981
 21
-6.683807373039996
 31
0.0
  0
LINE
  5
1AE4
330
1F
100
AcDbEntity
  8
AM_0
100
AcDbLine
 10
-1.464889526367003
 20
0.4038696289100019
 30
0.0
 11
-0.9876098632810016
 21
0.3830566406300023
 31
0.0
  0
LINE
  5
1AE5
330
1F
100
AcDbEntity
  8
AM_0
100
AcDbLine
 10
-0.9876022338860012
 20
1.584289550790004
 30
0.0
 11
-0.9876022338860014
 21
0.3883056640700034
 31
0.0
  0
LINE
  5
1AE6
330
1F
100
AcDbEntity
  8
AM_0
100
AcDbLine
 10
-1.215797424315994
 20
1.193664550790004
 30
0.0
 11
-1.20499420166
 21
1.442810058600002
 31
0.0
  0
LINE
  5
1AE7
330
1F
100
AcDbEntity
  8
AM_0
100
AcDbLine
 10
-0.734809875487998
 20
-3.805938720699998
 30
0.0
 11
-0.7556114196770034
 21
-3.663391113279999
 31
0.0
  0
LINE
  5
1AE8
330
1F
100
AcDbEntity
  8
AM_0
100
AcDbLine
 10
-0.9662017822260018
 20
-2.312622070309998
 30
0.0
 11
-0.9845962524410019
 21
-2.271209716789996
 31
0.0
  0
LINE
  5
1AE9
330
1F
100
AcDbEntity
  8
AM_0
100
AcDbLine
 10
-0.9080848693839989
 20
-2.546905517569996
 30
0.0
 11
-0.9125862121579977
 21
-2.513885498039996
 31
0.0
  0
LINE
  5
1AEA
330
1F
100
AcDbEntity
  8
AM_0
100
AcDbLine
 10
-0.9662055969229975
 20
-2.312591552729998
 30
0.0
 11
-0.9876022338860018
 21
-2.320587158199998
 31
0.0
  0
LINE
  5
1AEB
330
1F
100
AcDbEntity
  8
AM_0
100
AcDbLine
 10
-0.755603790282998
 20
-3.663299560539996
 30
0.0
 11
-0.9479026794429978
 21
-3.671722412099995
 31
0.0
  0
LINE
  5
1AEC
330
1F
100
AcDbEntity
  8
AM_0
100
AcDbLine
 10
-0.7555809020989992
 20
-3.663421630849995
 30
0.0
 11
-0.9080848693839989
 21
-2.546875
 31
0.0
  0
LINE
  5
1AED
330
1F
100
AcDbEntity
  8
AM_0
100
AcDbLine
 10
-0.9080924987789991
 20
-2.546905517569996
 30
0.0
 11
-0.9875946044920034
 21
-2.550415039059998
 31
0.0
  0
LINE
  5
1AEE
330
1F
100
AcDbEntity
  8
AM_0
100
AcDbLine
 10
-0.9876022338860019
 20
-3.380645751949998
 30
0.0
 11
-0.9478950500479976
 21
-3.671783447259997
 31
0.0
  0
ARC
  5
1AEF
330
1F
100
AcDbEntity
  8
AM_0
100
AcDbCircle
 10
-1.034500122070001
 20
-6.677795410149997
 30
0.0
 40
0.2286144644022
100
AcDbArc
 50
272.4819293243212
 51
303.0291239343109
  0
LINE
  5
1AF0
330
1F
100
AcDbEntity
  8
AM_0
100
AcDbLine
 10
-0.9875907897939994
 20
-6.177947998039996
 30
0.0
 11
-1.464874267577998
 21
-6.717651367179996
 31
0.0
  0
LINE
  5
1AF1
330
1F
100
AcDbEntity
  8
AM_0
100
AcDbLine
 10
-0.9844856262200011
 20
-7.113433837889999
 30
0.0
 11
-1.028892517089006
 21
-7.114929199209996
 31
0.0
  0
ARC
  5
1AF2
330
1F
100
AcDbEntity
  8
AM_0
100
AcDbCircle
 10
-1.020500183105001
 20
-6.699523925779999
 30
0.0
 40
0.2025889754295
100
AcDbArc
 50
303.0546961625661
 51
335.6896268848324
  0
ARC
  5
1AF3
330
1F
100
AcDbEntity
  8
AM_0
100
AcDbCircle
 10
-1.048797607420995
 20
-6.686706542959996
 30
0.0
 40
0.2334020137787
100
AcDbArc
 50
335.6860751864609
 51
348.5744372446025
  0
ARC
  5
1AF4
330
1F
100
AcDbEntity
  8
AM_0
100
AcDbCircle
 10
-1.019096374510995
 20
-6.692687988279999
 30
0.0
 40
0.2029217779636
100
AcDbArc
 50
348.5737815464449
 51
2.514088359412744
  0
LINE
  5
1AF5
330
1F
100
AcDbEntity
  8
AM_0
100
AcDbLine
 10
-0.2135848999020041
 20
-7.697143554679996
 30
0.0
 11
-0.3649826049800012
 21
-7.733551025389999
 31
0.0
  0
LINE
  5
1AF6
330
1F
100
AcDbEntity
  8
AM_0
100
AcDbLine
 10
-0.0814971923820037
 20
-6.192596435539996
 30
0.0
 11
-0.0000000000000013
 21
-7.318817138669999
 31
0.0
  0
LINE
  5
1AF7
330
1F
100
AcDbEntity
  8
AM_0
100
AcDbLine
 10
-0.6093978881829982
 20
-6.779235839839998
 30
0.0
 11
-0.6076965332029984
 21
-6.710662841789996
 31
0.0
  0
LINE
  5
1AF8
330
1F
100
AcDbEntity
  8
AM_0
100
AcDbLine
 10
-0.6077079772939995
 20
-6.710632324209996
 30
0.0
 11
-0.6095085144039997
 21
-6.674835205069996
 31
0.0
  0
ARC
  5
1AF9
330
1F
100
AcDbEntity
  8
AM_0
100
AcDbCircle
 10
-5.121597290039006
 20
-4.414978027339997
 30
0.0
 40
1.099947810173
100
AcDbArc
 50
272.5010948351334
 51
89.68747854758309
  0
CIRCLE
  5
1AFA
330
1F
100
AcDbEntity
  8
AM_0
100
AcDbCircle
 10
-5.086296081542998
 20
-4.413391113279998
 30
0.0
 40
0.6480000019073
  0
LINE
  5
1AFB
330
1F
100
AcDbEntity
  8
AM_0
100
AcDbLine
 10
-10.212196350097
 20
-7.480895996089997
 30
0.0
 11
-10.212196350097
 21
0.8739013671900023
 31
0.0
  0
LINE
  5
1AFC
330
1F
100
AcDbEntity
  8
AM_0
100
AcDbLine
 10
-10.212203979492
 20
0.8739013671900023
 30
0.0
 11
-8.329322814940994
 21
0.7034912109400021
 31
0.0
  0
LINE
  5
1AFD
330
1F
100
AcDbEntity
  8
AM_0
100
AcDbLine
 10
-6.976303100584999
 20
1.192138671880003
 30
0.0
 11
-3.99649810791
 21
1.062042236330001
 31
0.0
  0
ARC
  5
1AFE
330
1F
100
AcDbEntity
  8
AM_0
100
AcDbCircle
 10
-5.252899169920993
 20
4.643859863290004
 30
0.0
 40
1.7498425245285
100
AcDbArc
 50
257.7190901503612
 51
265.5822088285581
  0
LINE
  5
1AFF
330
1F
100
AcDbEntity
  8
AM_0
100
AcDbLine
 10
-3.99649810791
 20
1.06201171875
 30
0.0
 11
-3.996002197265
 21
1.08056640625
 31
0.0
  0
LINE
  5
1B00
330
1F
100
AcDbEntity
  8
AM_0
100
AcDbLine
 10
-5.581077575682996
 20
2.93359375
 30
0.0
 11
-5.527984619139999
 21
2.931304931650005
 31
0.0
  0
LINE
  5
1B01
330
1F
100
AcDbEntity
  8
AM_0
100
AcDbLine
 10
-9.122779846190994
 20
1.532165527350003
 30
0.0
 11
-9.218078613280994
 21
1.482666015630003
 31
0.0
  0
LINE
  5
1B02
330
1F
100
AcDbEntity
  8
AM_0
100
AcDbLine
 10
-10.67331695556599
 20
3.105987548830002
 30
0.0
 11
-10.783218383789
 21
1.980987548830002
 31
0.0
  0
LINE
  5
1B03
330
1F
100
AcDbEntity
  8
AM_0
100
AcDbLine
 10
-10.42568969726499
 20
1.566711425790005
 30
0.0
 11
-10.577888488769
 21
1.603118896490003
 31
0.0
  0
LINE
  5
1B04
330
1F
100
AcDbEntity
  8
AM_0
100
AcDbLine
 10
-10.57787322997999
 20
1.603027343750001
 30
0.0
 11
-10.426467895507
 21
1.566619873050002
 31
0.0
  0
ARC
  5
1B05
330
1F
100
AcDbEntity
  8
AM_0
100
AcDbCircle
 10
-5.121597290039006
 20
-4.414978027339997
 30
0.0
 40
1.098862290382399
100
AcDbArc
 50
237.5999893085255
 51
272.5010948351334
  0
LINE
  5
1B06
330
1F
100
AcDbEntity
  8
AM_0
100
AcDbLine
 10
-5.088706970214006
 20
-5.514587402339997
 30
0.0
 11
-5.073616027832003
 21
-5.513885498039996
 31
0.0
  0
LINE
  5
1B07
330
1F
100
AcDbEntity
  8
AM_0
100
AcDbLine
 10
-8.514198303222002
 20
-7.233154296869996
 30
0.0
 11
-8.514106750487997
 21
-7.234130859369996
 31
0.0
  0
LINE
  5
1B08
330
1F
100
AcDbEntity
  8
AM_0
100
AcDbLine
 10
-8.521682739257004
 20
-7.442230224599994
 30
0.0
 11
-8.547195434570001
 21
-7.443420410149996
 31
0.0
  0
LINE
  5
1B09
330
1F
100
AcDbEntity
  8
AM_0
100
AcDbLine
 10
-8.882110595702998
 20
-7.387603759759996
 30
0.0
 11
-8.765319824217996
 21
-7.192840576169998
 31
0.0
  0
LINE
  5
1B0A
330
1F
100
AcDbEntity
  8
AM_0
100
AcDbLine
 10
-8.517898559570001
 20
-7.408599853509996
 30
0.0
 11
-8.521606445312004
 21
-7.442199707029998
 31
0.0
  0
LINE
  5
1B0B
330
1F
100
AcDbEntity
  8
AM_0
100
AcDbLine
 10
-8.985389709472002
 20
-7.042785644529998
 30
0.0
 11
-9.008087158202997
 21
-7.016693115229997
 31
0.0
  0
LINE
  5
1B0C
330
1F
100
AcDbEntity
  8
AM_0
100
AcDbLine
 10
-9.178825378417997
 20
-7.173126220699997
 30
0.0
 11
-8.985435485839005
 21
-7.042816162099994
 31
0.0
  0
LINE
  5
1B0D
330
1F
100
AcDbEntity
  8
AM_0
100
AcDbLine
 10
-25.0
 20
-7.499999999999997
 30
0.0
 11
-22.165000915527
 21
-7.499999999999997
 31
0.0
  0
LINE
  5
1B0E
330
1F
100
AcDbEntity
  8
AM_0
100
AcDbLine
 10
-25.86602783203099
 20
-7.999969482419995
 30
0.0
 11
-25.000038146972
 21
-7.499969482419996
 31
0.0
  0
LINE
  5
1B0F
330
1F
100
AcDbEntity
  8
AM_0
100
AcDbLine
 10
-90.0
 20
-5.661499023429986
 30
0.0
 11
-90.0
 21
5.661499023440011
 31
0.0
  0
LINE
  5
1B10
330
1F
100
AcDbEntity
  8
AM_0
100
AcDbLine
 10
-87.0
 20
-7.999999999999989
 30
0.0
 11
-87.0
 21
8.00000000000001
 31
0.0
  0
ARC
  5
1B11
330
1F
100
AcDbEntity
  8
AM_0
100
AcDbCircle
 10
-88.0
 20
5.661499023440011
 30
0.0
 40
2.000036954879799
100
AcDbArc
 50
104.9985874788713
 51
180.0
  0
LINE
  5
1B12
330
1F
100
AcDbEntity
  8
AM_0
100
AcDbLine
 10
-86.99998474121001
 20
7.999969482430014
 30
0.0
 11
-88.51756286621
 21
7.593383789070013
 31
0.0
  0
LINE
  5
1B13
330
1F
100
AcDbEntity
  8
AM_0
100
AcDbLine
 10
-88.517578125
 20
-7.593505859369987
 30
0.0
 11
-86.99998474121001
 21
-8.000091552729987
 31
0.0
  0
ARC
  5
1B14
330
1F
100
AcDbEntity
  8
AM_0
100
AcDbCircle
 10
-88.0
 20
-5.661499023429986
 30
0.0
 40
2.0
100
AcDbArc
 50
180.0
 51
255.0014125211286
  0
DIMENSION
  5
1BE6
330
1F
100
AcDbEntity
  8
AM_5
100
AcDbDimension
  2
*D10
 10
0.0000000000000014
 20
22.00003151758004
 30
0.0
 11
-4.499999999999998
 21
25.40003151758003
 31
0.0
 70
    32
  1
<>
  3
AM_JIS$0
100
AcDbAlignedDimension
 13
-8.999999999999998
 23
7.918884277350003
 33
0.0
 14
0.0000000000000005
 24
7.918884277350002
 34
0.0
 50
180.0
100
AcDbRotatedDimension
1001
ACAD
1000
DSTYLE
1002
{
1070
   271
1070
     0
1002
}
1001
GENIUS_GENDTOL_13
1000

1000
h7
1000

1040
0.0
  0
VIEWPORT
  5
110
330
101
100
AcDbEntity
 67
     1
  8
0
100
AcDbViewport
 10
420.5
 20
297.0
 30
0.0
 40
948.9782706766916
 41
628.452
 68
     1
 69
     1
1001
ACAD
1000
MVIEW
1002
{
1070
    16
1010
0.0
1020
0.0
1030
0.0
1010
0.0
1020
0.0
1030
1.0
1040
0.0
1040
628.452
1040
420.5
1040
297.0
1040
50.0
1040
0.0
1040
0.0
1070
     0
1070
   100
1070
     1
1070
     1
1070
     0
1070
     0
1070
     0
1070
     0
1040
0.0
1040
0.0
1040
0.0
1040
10.0
1040
10.0
1040
10.0
1040
10.0
1070
     0
1002
{
1002
}
1002
}
  0
ENDSEC
  0
SECTION
  2
OBJECTS
  0
DICTIONARY
  5
C
330
0
100
AcDbDictionary
  3
ACAD_GROUP
350
D
  3
ACAD_LAYOUT
350
1A
  3
ACAD_MLINESTYLE
350
17
  3
ACAD_PLOTSETTINGS
350
19
  3
ACAD_PLOTSTYLENAME
350
E
  3
ACDBVARIABLEDICTIONARY
350
34
  3
ACMDICTIONARY
350
43
  3
AMG
350
2B
  3
AMGSNAPSETTINGS
350
6E
  3
DWGPROPS
350
1DD9
  3
ACDBHEADERROUNDTRIPXREC
350
1DE5
  0
DICTIONARY
  5
74
330
1F
100
AcDbDictionary
280
     1
  3
ACAD_INDEX
360
1DDB
  3
ACAD_LAYOUTSELFREF
360
1E08
  0
DICTIONARY
  5
1E0D
330
101
100
AcDbDictionary
280
     1
  3
ACAD_LAYOUTSELFREF
360
1E0E
  0
DICTIONARY
  5
D
102
{ACAD_REACTORS
330
C
102
}
330
C
100
AcDbDictionary
  0
DICTIONARY
  5
1A
102
{ACAD_REACTORS
330
C
102
}
330
C
100
AcDbDictionary
  0
DICTIONARY
  5
17
102
{ACAD_REACTORS
330
C
102
}
330
C
100
AcDbDictionary
  3
STANDARD
350
18
  0
DICTIONARY
  5
19
102
{ACAD_REACTORS
330
C
102
}
330
C
100
AcDbDictionary
  0
ACDBDICTIONARYWDFLT
  5
E
102
{ACAD_REACTORS
330
C
102
}
330
C
100
AcDbDictionary
281
     1
  3
Normal
350
F
100
AcDbDictionaryWithDefault
340
F
  0
DICTIONARY
  5
34
102
{ACAD_REACTORS
330
C
102
}
330
C
100
AcDbDictionary
  3
INDEXCTL
350
35
  3
SORTENTS
350
B5E
  0
DICTIONARY
  5
43
102
{ACAD_REACTORS
330
C
102
}
330
C
100
AcDbDictionary
  3
ACMSTDDICTIONARY
350
260
  0
DICTIONARY
  5
2B
102
{ACAD_REACTORS
330
C
102
}
330
C
100
AcDbDictionary
  3
ACMGSETTINGS
350
2C
  0
DICTIONARY
  5
6E
102
{ACAD_REACTORS
330
C
102
}
330
C
100
AcDbDictionary
  0
XRECORD
  5
1DD9
102
{ACAD_REACTORS
330
C
102
}
330
C
100
AcDbXrecord
  1
DWGPROPS COOKIE
  2

  3

  4

  6

  7

  8

  9

300
AmdtFileType=82
301
=
302
=
303
=
304
=
305
=
306
=
307
=
308
=
309
=
 40
0.0562371643518519
 41
2452839.420061482
 42
2453075.59439941
  1

 90
        1
  0
DICTIONARY
  5
1DE5
102
{ACAD_REACTORS
330
C
102
}
330
C
100
AcDbDictionary
  3
TSTACKALIGN
350
1DE6
  3
TSTACKSIZE
350
1DE7
  3
HYPERLINKBASE
350
1DE8
  3
STYLESHEET
350
1DE9
  3
LAYOUTDICT
350
1DEA
  3
PLOTSETDICT
350
1DEB
  3
PLOTSTYLNAMDICT
350
1DEC
  3
LWETCUNION
350
1DED
  3
INSUNITS
350
1DEE
  3
CEPSNTYPE
350
1DEF
  3
FINGERPRINTGUID
350
1DF0
  3
VERSIONGUID
350
1DF1
  3
PSVPSCALE
350
1DF2
  3
DIMSTYLEDATA
350
1DF3
  3
PUCSORTHOREF
350
1DF4
  3
PUCSORTHOVIEW
350
1DF5
  3
PUCSBASE
350
1DF6
  3
PUCSORGTOP
350
1DF7
  3
PUCSORGBOTTOM
350
1DF8
  3
PUCSORGLEFT
350
1DF9
  3
PUCSORGRIGHT
350
1DFA
  3
PUCSORGFRONT
350
1DFB
  3
PUCSORGBACK
350
1DFC
  3
UCSORTHOREF
350
1DFD
  3
UCSORTHOVIEW
350
1DFE
  3
UCSBASE
350
1DFF
  3
UCSORGTOP
350
1E00
  3
UCSORGBOTTOM
350
1E01
  3
UCSORGLEFT
350
1E02
  3
UCSORGRIGHT
350
1E03
  3
UCSORGFRONT
350
1E04
  3
UCSORGBACK
350
1E05
  0
DICTIONARY
  5
1DDB
102
{ACAD_REACTORS
330
74
102
}
330
74
100
AcDbDictionary
  3
*A1
350
1DDC
  0
XRECORD
  5
1E08
102
{ACAD_REACTORS
330
74
102
}
330
74
100
AcDbXrecord
340
1F
  0
XRECORD
  5
1E0E
102
{ACAD_REACTORS
330
1E0D
102
}
330
1E0D
100
AcDbXrecord
340
101
  0
MLINESTYLE
  5
18
102
{ACAD_REACTORS
330
17
102
}
330
17
100
AcDbMlineStyle
  2
STANDARD
 70
     0
  3

 62
   256
 51
90.0
 52
90.0
 71
     2
 49
0.5
 62
   256
  6
BYLAYER
 49
-0.5
 62
   256
  6
BYLAYER
  0
ACDBPLACEHOLDER
  5
F
102
{ACAD_REACTORS
330
E
102
}
330
E
100
AcDbPlaceHolder
280
     0
  0
DICTIONARYVAR
  5
35
102
{ACAD_REACTORS
330
34
102
}
330
34
100
DictionaryVariables
280
     0
  1
1
  0
DICTIONARYVAR
  5
B5E
102
{ACAD_REACTORS
330
34
102
}
330
34
100
DictionaryVariables
280
     0
  1
96
  0
DICTIONARY
  5
260
102
{ACAD_REACTORS
330
43
102
}
330
43
100
AcDbDictionary
  0
DICTIONARY
  5
2C
102
{ACAD_REACTORS
330
2B
102
}
330
2B
100
AcDbDictionary
  3
DWGSETTINGS
350
2D
  0
XRECORD
  5
1DE6
102
{ACAD_REACTORS
330
1DE5
102
}
330
1DE5
100
AcDbXrecord
 90
        1
  0
XRECORD
  5
1DE7
102
{ACAD_REACTORS
330
1DE5
102
}
330
1DE5
100
AcDbXrecord
 90
       70
  0
XRECORD
  5
1DE8
102
{ACAD_REACTORS
330
1DE5
102
}
330
1DE5
100
AcDbXrecord
  1

  0
XRECORD
  5
1DE9
102
{ACAD_REACTORS
330
1DE5
102
}
330
1DE5
100
AcDbXrecord
  1
ASAMI.ctb
  0
XRECORD
  5
1DEA
102
{ACAD_REACTORS
330
1DE5
102
}
330
1DE5
100
AcDbXrecord
340
1A
  0
XRECORD
  5
1DEB
102
{ACAD_REACTORS
330
1DE5
102
}
330
1DE5
100
AcDbXrecord
340
19
  0
XRECORD
  5
1DEC
102
{ACAD_REACTORS
330
1DE5
102
}
330
1DE5
100
AcDbXrecord
340
E
  0
XRECORD
  5
1DED
102
{ACAD_REACTORS
330
1DE5
102
}
330
1DE5
100
AcDbXrecord
 90
    10781
  0
XRECORD
  5
1DEE
102
{ACAD_REACTORS
330
1DE5
102
}
330
1DE5
100
AcDbXrecord
 90
        4
  0
XRECORD
  5
1DEF
102
{ACAD_REACTORS
330
1DE5
102
}
330
1DE5
100
AcDbXrecord
 90
        0
  0
XRECORD
  5
1DF0
102
{ACAD_REACTORS
330
1DE5
102
}
330
1DE5
100
AcDbXrecord
  1
{AFB28963-8C59-40AE-9337-C84526B81ACE}
  0
XRECORD
  5
1DF1
102
{ACAD_REACTORS
330
1DE5
102
}
330
1DE5
100
AcDbXrecord
  1
{A5E46272-5ADD-43BB-ABEC-33EB7A918268}
  0
XRECORD
  5
1DF2
102
{ACAD_REACTORS
330
1DE5
102
}
330
1DE5
100
AcDbXrecord
 40
0.0
  0
XRECORD
  5
1DF3
102
{ACAD_REACTORS
330
1DE5
102
}
330
1DE5
100
AcDbXrecord
1000
DSTYLE
1002
{
1070
    79
 70
     2
1070
   341
340
59
1070
   342
340
59
1070
   371
 70
    -1
1070
   372
 70
    -1
1002
}
  0
XRECORD
  5
1DF4
102
{ACAD_REACTORS
330
1DE5
102
}
330
1DE5
100
AcDbXrecord
340
0
  0
XRECORD
  5
1DF5
102
{ACAD_REACTORS
330
1DE5
102
}
330
1DE5
100
AcDbXrecord
 70
     0
  0
XRECORD
  5
1DF6
102
{ACAD_REACTORS
330
1DE5
102
}
330
1DE5
100
AcDbXrecord
340
0
  0
XRECORD
  5
1DF7
102
{ACAD_REACTORS
330
1DE5
102
}
330
1DE5
100
AcDbXrecord
 10
0.0
 20
0.0
 30
0.0
  0
XRECORD
  5
1DF8
102
{ACAD_REACTORS
330
1DE5
102
}
330
1DE5
100
AcDbXrecord
 10
0.0
 20
0.0
 30
0.0
  0
XRECORD
  5
1DF9
102
{ACAD_REACTORS
330
1DE5
102
}
330
1DE5
100
AcDbXrecord
 10
0.0
 20
0.0
 30
0.0
  0
XRECORD
  5
1DFA
102
{ACAD_REACTORS
330
1DE5
102
}
330
1DE5
100
AcDbXrecord
 10
0.0
 20
0.0
 30
0.0
  0
XRECORD
  5
1DFB
102
{ACAD_REACTORS
330
1DE5
102
}
330
1DE5
100
AcDbXrecord
 10
0.0
 20
0.0
 30
0.0
  0
XRECORD
  5
1DFC
102
{ACAD_REACTORS
330
1DE5
102
}
330
1DE5
100
AcDbXrecord
 10
0.0
 20
0.0
 30
0.0
  0
XRECORD
  5
1DFD
102
{ACAD_REACTORS
330
1DE5
102
}
330
1DE5
100
AcDbXrecord
340
0
  0
XRECORD
  5
1DFE
102
{ACAD_REACTORS
330
1DE5
102
}
330
1DE5
100
AcDbXrecord
 70
     0
  0
XRECORD
  5
1DFF
102
{ACAD_REACTORS
330
1DE5
102
}
330
1DE5
100
AcDbXrecord
340
0
  0
XRECORD
  5
1E00
102
{ACAD_REACTORS
330
1DE5
102
}
330
1DE5
100
AcDbXrecord
 10
0.0
 20
0.0
 30
0.0
  0
XRECORD
  5
1E01
102
{ACAD_REACTORS
330
1DE5
102
}
330
1DE5
100
AcDbXrecord
 10
0.0
 20
0.0
 30
0.0
  0
XRECORD
  5
1E02
102
{ACAD_REACTORS
330
1DE5
102
}
330
1DE5
100
AcDbXrecord
 10
0.0
 20
0.0
 30
0.0
  0
XRECORD
  5
1E03
102
{ACAD_REACTORS
330
1DE5
102
}
330
1DE5
100
AcDbXrecord
 10
0.0
 20
0.0
 30
0.0
  0
XRECORD
  5
1E04
102
{ACAD_REACTORS
330
1DE5
102
}
330
1DE5
100
AcDbXrecord
 10
0.0
 20
0.0
 30
0.0
  0
XRECORD
  5
1E05
102
{ACAD_REACTORS
330
1DE5
102
}
330
1DE5
100
AcDbXrecord
 10
0.0
 20
0.0
 30
0.0
  0
LAYER_INDEX
  5
1DDC
102
{ACAD_REACTORS
330
1DDB
102
}
330
1DDB
100
AcDbIndex
 40
2453152.40611912
100
AcDbLayerIndex
  8
0
360
1DDD
 90
        0
  8
AM_0
360
1DDE
 90
      159
  8
AM_7
360
1DDF
 90
        1
  8
AM_11
360
1DE0
 90
        1
  8
AM_5
360
1DE1
 90
        6
  8
Defpoints
360
1DE2
 90
        0
  8
AM_6
360
1DE3
 90
        1
  0
XRECORD
  5
2D
102
{ACAD_REACTORS
330
2C
102
}
330
2C
100
AcDbXrecord
  1
VERSION
140
15.0
  1
PRODUCT
  2
AutoCAD Mechanical 2000
  0
IDBUFFER
  5
1DDD
330
0
100
AcDbIdBuffer
  0
IDBUFFER
  5
1DDE
330
0
100
AcDbIdBuffer
330
1AE6
330
1AE7
330
1AE8
330
1AE9
330
1AEA
330
1AEB
330
1AEC
330
1AED
330
1AEE
330
1AEF
330
1AF0
330
1AF1
330
1AF2
330
1AF3
330
1AF4
330
1AF5
330
1AF6
330
1AF7
330
1AF8
330
1AF9
330
1AFA
330
1AFB
330
1AFC
330
1AFD
330
1AFE
330
1AFF
330
1B00
330
1B01
330
1B02
330
1B03
330
1B04
330
1B05
330
1B06
330
1B07
330
1B08
330
1B09
330
1B0A
330
1B0B
330
1B0C
330
1B0D
330
1B0E
330
1B0F
330
1B10
330
1B11
330
1B12
330
1B13
330
1B14
330
1A75
330
1A76
330
1A77
330
1A78
330
1A79
330
1A7A
330
1A7B
330
1A7C
330
1A7D
330
1A7E
330
1A7F
330
1A80
330
1A81
330
1A82
330
1A83
330
1A84
330
1A85
330
1A86
330
1A87
330
1A88
330
1A89
330
1A8A
330
1A8B
330
1A8C
330
1A8D
330
1A8E
330
1A8F
330
1A90
330
1A91
330
1A92
330
1A93
330
1A94
330
1A95
330
1A96
330
1A97
330
1A98
330
1A99
330
1A9A
330
1A9B
330
1A9C
330
1A9D
330
1A9E
330
1A9F
330
1AA0
330
1AA1
330
1AA2
330
1AA3
330
1AA4
330
1AA5
330
1AA7
330
1AA8
330
1AA9
330
1AAA
330
1AAB
330
1AAC
330
1AAD
330
1AAE
330
1AAF
330
1AB0
330
1AB1
330
1AB2
330
1AB3
330
1AB4
330
1AB5
330
1AB6
330
1AB7
330
1AB8
330
1AB9
330
1ABA
330
1ABB
330
1ABC
330
1ABD
330
1ABE
330
1ABF
330
1AC0
330
1AC1
330
1AC2
330
1AC3
330
1AC4
330
1AC5
330
1AC6
330
1AC7
330
1AC8
330
1AC9
330
1ACA
330
1ACB
330
1ACC
330
1ACD
330
1ACE
330
1ACF
330
1AD0
330
1AD1
330
1AD2
330
1AD3
330
1AD4
330
1AD5
330
1AD6
330
1AD7
330
1AD8
330
1AD9
330
1ADA
330
1ADB
330
1ADC
330
1ADD
330
1ADE
330
1ADF
330
1AE0
330
1AE1
330
1AE2
330
1AE3
330
1AE4
330
1AE5
  0
IDBUFFER
  5
1DDF
330
0
100
AcDbIdBuffer
330
1A74
  0
IDBUFFER
  5
1DE0
330
0
100
AcDbIdBuffer
330
1AA6
  0
IDBUFFER
  5
1DE1
330
0
100
AcDbIdBuffer
330
155D
330
15E8
330
1673
330
16FE
330
1895
330
1BE6
  0
IDBUFFER
  5
1DE2
330
0
100
AcDbIdBuffer
  0
IDBUFFER
  5
1DE3
330
0
100
AcDbIdBuffer
330
1142
  0
ENDSEC
  0
EOF
