  0
SECTION
  2
HEADER
  9
$ACADVER
  1
AC1014
  9
$ACADMAINTVER
 70
     9
  9
$DWGCODEPAGE
  3
ANSI_932
  9
$INSBASE
 10
0.0
 20
0.0
 30
0.0
  9
$EXTMIN
 10
-172.6566610729114
 20
-62.49999999999992
 30
-0.00000001
  9
$EXTMAX
 10
16.22210030419901
 20
29.79999718530113
 30
0.00000001
  9
$LIMMIN
 10
-175.6932616948147
 20
-83.53029965992153
  9
$LIMMAX
 10
37.18489129382999
 20
32.66990527806746
  9
$ORTHOMODE
 70
     0
  9
$REGENMODE
 70
     1
  9
$FILLMODE
 70
     1
  9
$QTEXTMODE
 70
     0
  9
$MIRRTEXT
 70
     0
  9
$DRAGMODE
 70
     2
  9
$LTSCALE
 40
1.0
  9
$OSMODE
 70
    55
  9
$ATTMODE
 70
     1
  9
$TEXTSIZE
 40
2.5
  9
$TRACEWID
 40
1.0
  9
$TEXTSTYLE
  7
STANDARD
  9
$CLAYER
  8
AM_11
  9
$CELTYPE
  6
BYLAYER
  9
$CECOLOR
 62
   256
  9
$CELTSCALE
 40
1.0
  9
$DELOBJ
 70
     1
  9
$DISPSILH
 70
     0
  9
$DIMSCALE
 40
1.0
  9
$DIMASZ
 40
2.5
  9
$DIMEXO
 40
1.0
  9
$DIMDLI
 40
12.0
  9
$DIMRND
 40
0.0
  9
$DIMDLE
 40
0.0
  9
$DIMEXE
 40
1.0
  9
$DIMTP
 40
0.1
  9
$DIMTM
 40
0.1
  9
$DIMTXT
 40
3.2
  9
$DIMCEN
 40
0.0
  9
$DIMTSZ
 40
0.0
  9
$DIMTOL
 70
     0
  9
$DIMLIM
 70
     0
  9
$DIMTIH
 70
     0
  9
$DIMTOH
 70
     0
  9
$DIMSE1
 70
     0
  9
$DIMSE2
 70
     0
  9
$DIMTAD
 70
     3
  9
$DIMZIN
 70
     8
  9
$DIMBLK
  1
OPEN30
  9
$DIMASO
 70
     1
  9
$DIMSHO
 70
     1
  9
$DIMPOST
  1

  9
$DIMAPOST
  1
"
  9
$DIMALT
 70
     0
  9
$DIMALTD
 70
     2
  9
$DIMALTF
 40
0.0393701
  9
$DIMLFAC
 40
1.0
  9
$DIMTOFL
 70
     1
  9
$DIMTVP
 40
0.0
  9
$DIMTIX
 70
     0
  9
$DIMSOXD
 70
     0
  9
$DIMSAH
 70
     0
  9
$DIMBLK1
  1

  9
$DIMBLK2
  1

  9
$DIMSTYLE
  2
AM_JIS
  9
$DIMCLRD
 70
   256
  9
$DIMCLRE
 70
   256
  9
$DIMCLRT
 70
     2
  9
$DIMTFAC
 40
0.71
  9
$DIMGAP
 40
1.5
  9
$DIMJUST
 70
     0
  9
$DIMSD1
 70
     0
  9
$DIMSD2
 70
     0
  9
$DIMTOLJ
 70
     0
  9
$DIMTZIN
 70
     0
  9
$DIMALTZ
 70
     0
  9
$DIMALTTZ
 70
     0
  9
$DIMFIT
 70
     3
  9
$DIMUPT
 70
     0
  9
$DIMUNIT
 70
     2
  9
$DIMDEC
 70
     3
  9
$DIMTDEC
 70
     3
  9
$DIMALTU
 70
     2
  9
$DIMALTTD
 70
     2
  9
$DIMTXSTY
  7
ASAMI
  9
$DIMAUNIT
 70
     0
  9
$LUNITS
 70
     2
  9
$LUPREC
 70
     0
  9
$SKETCHINC
 40
1.0
  9
$FILLETRAD
 40
2.5
  9
$AUNITS
 70
     0
  9
$AUPREC
 70
     0
  9
$MENU
  1
.
  9
$ELEVATION
 40
0.0
  9
$PELEVATION
 40
0.0
  9
$THICKNESS
 40
0.0
  9
$LIMCHECK
 70
     0
  9
$BLIPMODE
 70
     0
  9
$CHAMFERA
 40
2.5
  9
$CHAMFERB
 40
2.5
  9
$CHAMFERC
 40
20.0
  9
$CHAMFERD
 40
0.0
  9
$SKPOLY
 70
     0
  9
$TDCREATE
 40
2452839.420061482
  9
$TDUPDATE
 40
2453152.399696064
  9
$TDINDWG
 40
0.0894625347
  9
$TDUSRTIMER
 40
0.0894625347
  9
$USRTIMER
 70
     1
  9
$ANGBASE
 50
0.0
  9
$ANGDIR
 70
     0
  9
$PDMODE
 70
     0
  9
$PDSIZE
 40
0.0
  9
$PLINEWID
 40
0.0
  9
$COORDS
 70
     1
  9
$SPLFRAME
 70
     0
  9
$SPLINETYPE
 70
     6
  9
$SPLINESEGS
 70
     8
  9
$ATTDIA
 70
     1
  9
$ATTREQ
 70
     1
  9
$HANDLING
 70
 12289
  9
$HANDSEED
  5
35B3
  9
$SURFTAB1
 70
     6
  9
$SURFTAB2
 70
     6
  9
$SURFTYPE
 70
     6
  9
$SURFU
 70
     6
  9
$SURFV
 70
     6
  9
$UCSNAME
  2

  9
$UCSORG
 10
0.0
 20
0.0
 30
0.0
  9
$UCSXDIR
 10
1.0
 20
0.0
 30
0.0
  9
$UCSYDIR
 10
0.0
 20
1.0
 30
0.0
  9
$PUCSNAME
  2

  9
$PUCSORG
 10
0.0
 20
0.0
 30
0.0
  9
$PUCSXDIR
 10
1.0
 20
0.0
 30
0.0
  9
$PUCSYDIR
 10
0.0
 20
1.0
 30
0.0
  9
$USERI1
 70
     0
  9
$USERI2
 70
     0
  9
$USERI3
 70
     0
  9
$USERI4
 70
     0
  9
$USERI5
 70
     0
  9
$USERR1
 40
0.0
  9
$USERR2
 40
0.0
  9
$USERR3
 40
0.0
  9
$USERR4
 40
0.0
  9
$USERR5
 40
0.0
  9
$WORLDVIEW
 70
     1
  9
$SHADEDGE
 70
     3
  9
$SHADEDIF
 70
    70
  9
$TILEMODE
 70
     1
  9
$MAXACTVP
 70
    64
  9
$PINSBASE
 10
0.0
 20
0.0
 30
0.0
  9
$PLIMCHECK
 70
     0
  9
$PEXTMIN
 10
1.000000000000000E+20
 20
1.000000000000000E+20
 30
1.000000000000000E+20
  9
$PEXTMAX
 10
-1.000000000000000E+20
 20
-1.000000000000000E+20
 30
-1.000000000000000E+20
  9
$PLIMMIN
 10
0.0
 20
0.0
  9
$PLIMMAX
 10
841.0
 20
594.0
  9
$UNITMODE
 70
     0
  9
$VISRETAIN
 70
     1
  9
$PLINEGEN
 70
     0
  9
$PSLTSCALE
 70
     0
  9
$TREEDEPTH
 70
  3020
  9
$PICKSTYLE
 70
     0
  9
$CMLSTYLE
  2
STANDARD
  9
$CMLJUST
 70
     0
  9
$CMLSCALE
 40
20.0
  9
$PROXYGRAPHICS
 70
     1
  9
$MEASUREMENT
 70
     1
  0
ENDSEC
  0
SECTION
  2
CLASSES
  0
CLASS
  1
ACDBDICTIONARYWDFLT
  2
AcDbDictionaryWithDefault
  3
AutoCAD 2000
 90
        0
280
     0
281
     0
  0
CLASS
  1
ACDBPLACEHOLDER
  2
AcDbPlaceHolder
  3
AutoCAD 2000
 90
        0
280
     0
281
     0
  0
CLASS
  1
LAYOUT
  2
AcDbLayout
  3
AutoCAD 2000
 90
        0
280
     0
281
     0
  0
CLASS
  1
AMGSETTINGSOBJ
  2
AmgSettingsObj
  3
"AcadM|Product Description: AutoCAD Mechanical 2000|Company: Autodesk"
 90
        0
280
     0
281
     0
  0
CLASS
  1
ACME_DOCUMENT
  2
AcMeDbDoc
  3
AcMeServices
 90
        0
280
     0
281
     0
  0
CLASS
  1
ACMESCOPE
  2
AcMeScope
  3
AcMeServices
 90
        0
280
     0
281
     0
  0
CLASS
  1
ACMECOMMANDHISTORY
  2
AcMeCommandHistory
  3
AcMeServices
 90
        0
280
     0
281
     0
  0
CLASS
  1
DICTIONARYVAR
  2
AcDbDictionaryVar
  3
AutoCAD 2000
 90
        0
280
     0
281
     0
  0
CLASS
  1
ACIMSYSVARMAN
  2
AcImSysVarManager
  3
AcMeServices
 90
        0
280
     0
281
     0
  0
CLASS
  1
ACIMREALSYSVAR
  2
AcImRealSysVar
  3
AcMeServices
 90
        0
280
     0
281
     0
  0
CLASS
  1
ACIMINTSYSVAR
  2
AcImIntSysVar
  3
AcMeServices
 90
        0
280
     0
281
     0
  0
CLASS
  1
ACMEDRAWINGMAN
  2
AcMeDrawingMan
  3
AcMeServices
 90
        0
280
     0
281
     0
  0
CLASS
  1
ACMEVIEW
  2
AcMeView
  3
AcMeServices
 90
        0
280
     0
281
     0
  0
CLASS
  1
ACDBENTITYCACHE
  2
AcMeEntityCache
  3
AcMeServices
 90
        0
280
     0
281
     0
  0
CLASS
  1
GSMANAGER
  2
AcMeGSManager
  3
AcMeServices
 90
        0
280
     0
281
     0
  0
CLASS
  1
AmdtInternalReactor
  2
AmdtInternalReactor
  3
AcMeServices
 90
        0
280
     0
281
     0
  0
CLASS
  1
ACMESTATEMGR
  2
AcMeStateMgr
  3
AcMeServices
 90
        0
280
     0
281
     0
  0
CLASS
  1
ACME_DATABASE
  2
AcMeDbDatabase
  3
AcMeServices
 90
        0
280
     0
281
     0
  0
CLASS
  1
ACRFINSADJUSTERMGR
  2
AcRfInsAdjusterMgr
  3
AcMeServices
 90
        0
280
     0
281
     0
  0
CLASS
  1
ACMDATADICTIONARY
  2
AcmDataDictionary
  3
"AcmSymBB|Product Description: AutoCAD Mechanical 2000|Company: Autodesk"
 90
        0
280
     0
281
     0
  0
CLASS
  1
ACMDATAENTRYBLOCK
  2
AcmDataEntryBlock
  3
"AcmSymBB|Product Description: AutoCAD Mechanical 2000|Company: Autodesk"
 90
        0
280
     0
281
     0
  0
CLASS
  1
AMGOBJPROPCFG
  2
AmgObjPropCfg
  3
"AmgLay|Product Description: AutoCAD Mechanical 2000|Company: Autodesk"
 90
        1
280
     0
281
     0
  0
CLASS
  1
ACAMGFILTERDAT
  2
AcAmgFilterDat
  3
"AcadM|Product Description: AutoCAD Mechanical 2000|Company: Autodesk"
 90
        0
280
     0
281
     0
  0
CLASS
  1
LAYER_INDEX
  2
AcDbLayerIndex
  3
AutoCAD 2000
 90
        0
280
     0
281
     0
  0
CLASS
  1
IDBUFFER
  2
AcDbIdBuffer
  3
AutoCAD 2000
 90
        0
280
     0
281
     0
  0
CLASS
  1
ACIMSTRSYSVAR
  2
AcImStrSysVar
  3
AcMeServices
 90
        0
280
     0
281
     0
  0
CLASS
  1
ACMSTANDARDJIS
  2
AcmStandardJIS
  3
"AcmSymBB|Product Description: AutoCAD Mechanical 2000|Company: Autodesk"
 90
        0
280
     0
281
     0
  0
CLASS
  1
ACMSURFSTANDARDJIS
  2
AcmSurfTextStdJIS
  3
"AcmSymBB|Product Description: AutoCAD Mechanical 2000|Company: Autodesk"
 90
        0
280
     0
281
     0
  0
CLASS
  1
ACMFCFSTANDARDJIS
  2
AcmFCFStdJIS
  3
"AcmSymBB|Product Description: AutoCAD Mechanical 2000|Company: Autodesk"
 90
        0
280
     0
281
     0
  0
CLASS
  1
ACMWELDSTANDARDJIS
  2
AcmWeldingStdJIS
  3
"AcmSymBB|Product Description: AutoCAD Mechanical 2000|Company: Autodesk"
 90
        0
280
     0
281
     0
  0
CLASS
  1
ACMIDSTANDARDJIS
  2
AcmIdStdJIS
  3
"AcmSymBB|Product Description: AutoCAD Mechanical 2000|Company: Autodesk"
 90
        0
280
     0
281
     0
  0
CLASS
  1
ACMDATUMSTANDARDJIS
  2
AcmDatumStdJIS
  3
"AcmSymBB|Product Description: AutoCAD Mechanical 2000|Company: Autodesk"
 90
        0
280
     0
281
     0
  0
CLASS
  1
ACMBOMSTANDARDJIS
  2
AcmBOMStdJIS
  3
"AcmSymBB|Product Description: AutoCAD Mechanical 2000|Company: Autodesk"
 90
        0
280
     0
281
     0
  0
CLASS
  1
ACMSTANDARDANSI
  2
AcmStandardANSI
  3
"AcmSymBB|Product Description: AutoCAD Mechanical 2000|Company: Autodesk"
 90
        0
280
     0
281
     0
  0
CLASS
  1
ACMSURFSTANDARDANSI
  2
AcmSurfTextStdANSI
  3
"AcmSymBB|Product Description: AutoCAD Mechanical 2000|Company: Autodesk"
 90
        0
280
     0
281
     0
  0
CLASS
  1
ACMFCFSTANDARDANSI
  2
AcmFCFStdANSI
  3
"AcmSymBB|Product Description: AutoCAD Mechanical 2000|Company: Autodesk"
 90
        0
280
     0
281
     0
  0
CLASS
  1
ACMWELDSTANDARDANSI
  2
AcmWeldingStdANSI
  3
"AcmSymBB|Product Description: AutoCAD Mechanical 2000|Company: Autodesk"
 90
        0
280
     0
281
     0
  0
CLASS
  1
ACMIDSTANDARDANSI
  2
AcmIdStdANSI
  3
"AcmSymBB|Product Description: AutoCAD Mechanical 2000|Company: Autodesk"
 90
        0
280
     0
281
     0
  0
CLASS
  1
ACMDATUMSTANDARDANSI
  2
AcmDatumStdANSI
  3
"AcmSymBB|Product Description: AutoCAD Mechanical 2000|Company: Autodesk"
 90
        0
280
     0
281
     0
  0
CLASS
  1
ACMBOMSTANDARDANSI
  2
AcmBOMStdANSI
  3
"AcmSymBB|Product Description: AutoCAD Mechanical 2000|Company: Autodesk"
 90
        0
280
     0
281
     0
  0
CLASS
  1
ACMSTANDARDBSI
  2
AcmStandardBSI
  3
"AcmSymBB|Product Description: AutoCAD Mechanical 2000|Company: Autodesk"
 90
        0
280
     0
281
     0
  0
CLASS
  1
ACMSURFSTANDARDBSI
  2
AcmSurfTextStdBSI
  3
"AcmSymBB|Product Description: AutoCAD Mechanical 2000|Company: Autodesk"
 90
        0
280
     0
281
     0
  0
CLASS
  1
ACMFCFSTANDARDBSI
  2
AcmFCFStdBSI
  3
"AcmSymBB|Product Description: AutoCAD Mechanical 2000|Company: Autodesk"
 90
        0
280
     0
281
     0
  0
CLASS
  1
ACMWELDSTANDARDBSI
  2
AcmWeldingStdBSI
  3
"AcmSymBB|Product Description: AutoCAD Mechanical 2000|Company: Autodesk"
 90
        0
280
     0
281
     0
  0
CLASS
  1
ACMIDSTANDARDBSI
  2
AcmIdStdBSI
  3
"AcmSymBB|Product Description: AutoCAD Mechanical 2000|Company: Autodesk"
 90
        0
280
     0
281
     0
  0
CLASS
  1
ACMDATUMSTANDARDBSI
  2
AcmDatumStdBSI
  3
"AcmSymBB|Product Description: AutoCAD Mechanical 2000|Company: Autodesk"
 90
        0
280
     0
281
     0
  0
CLASS
  1
ACMBOMSTANDARDBSI
  2
AcmBOMStdBSI
  3
"AcmSymBB|Product Description: AutoCAD Mechanical 2000|Company: Autodesk"
 90
        0
280
     0
281
     0
  0
CLASS
  1
LONG_TRANSACTION
  2
AcDbLongTransaction
  3
AutoCAD 2000
 90
        0
280
     0
281
     0
  0
CLASS
  1
LWPOLYLINE
  2
AcDbPolyline
  3
AutoCAD 2000
 90
        0
280
     0
281
     1
  0
CLASS
  1
HATCH
  2
AcDbHatch
  3
AutoCAD 2000
 90
        0
280
     0
281
     1
  0
CLASS
  1
XRECORD
  2
AcDbXrecord
  3
AutoCAD 2000
 90
        0
280
     0
281
     0
  0
ENDSEC
  0
SECTION
  2
TABLES
  0
TABLE
  2
VPORT
  5
8
330
0
100
AcDbSymbolTable
 70
     3
  0
VPORT
  5
3588
330
8
100
AcDbSymbolTableRecord
100
AcDbViewportTableRecord
  2
*ACTIVE
 70
     0
 10
0.0
 20
0.0
 11
1.0
 21
1.0
 12
-72.60294320738122
 22
-11.74042347294306
 13
0.0
 23
0.0
 14
2.5
 24
2.5
 15
10.0
 25
10.0
 16
0.0
 26
0.0
 36
1.0
 17
0.0
 27
0.0
 37
0.0
 40
146.4527552572868
 41
1.56570841889117
 42
50.0
 43
0.0
 44
0.0
 50
0.0
 51
0.0
 71
     0
 72
   100
 73
     1
 74
     3
 75
     0
 76
     0
 77
     0
 78
     0
  0
ENDTAB
  0
TABLE
  2
LTYPE
  5
5
330
0
100
AcDbSymbolTable
 70
    10
  0
LTYPE
  5
14
330
5
100
AcDbSymbolTableRecord
100
AcDbLinetypeTableRecord
  2
BYBLOCK
 70
     0
  3

 72
    65
 73
     0
 40
0.0
  0
LTYPE
  5
15
330
5
100
AcDbSymbolTableRecord
100
AcDbLinetypeTableRecord
  2
BYLAYER
 70
     0
  3

 72
    65
 73
     0
 40
0.0
  0
LTYPE
  5
16
330
5
100
AcDbSymbolTableRecord
100
AcDbLinetypeTableRecord
  2
CONTINUOUS
 70
     0
  3
Solid line
 72
    65
 73
     0
 40
0.0
  0
LTYPE
  5
4B
330
5
100
AcDbSymbolTableRecord
100
AcDbLinetypeTableRecord
  2
AM_ISO02W050
 70
     0
  3
__ __ __ __ __ __ __ __ __ __ __ __ __ __ __
 72
    65
 73
     2
 40
7.5
 49
6.0
 74
     0
 49
-1.5
 74
     0
  0
LTYPE
  5
4C
330
5
100
AcDbSymbolTableRecord
100
AcDbLinetypeTableRecord
  2
AM_ISO08W050
 70
     0
  3
____ . ____ . ____ . ____ . ____ . ____ . ____
 72
    65
 73
     4
 40
18.0
 49
12.0
 74
     0
 49
-1.5
 74
     0
 49
3.0
 74
     0
 49
-1.5
 74
     0
  0
LTYPE
  5
4D
330
5
100
AcDbSymbolTableRecord
100
AcDbLinetypeTableRecord
  2
AM_ISO09W050
 70
     0
  3
_____ . . _____ . . _____ . . ____ .. ____
 72
    65
 73
     6
 40
22.5
 49
12.0
 74
     0
 49
-1.5
 74
     0
 49
3.0
 74
     0
 49
-1.5
 74
     0
 49
3.0
 74
     0
 49
-1.5
 74
     0
  0
LTYPE
  5
4E
330
5
100
AcDbSymbolTableRecord
100
AcDbLinetypeTableRecord
  2
AMCONSTR
 70
     0
  3
_______________________
 72
    65
 73
     2
 40
9999.0
 49
9999.0
 74
     0
 49
0.0
 74
     0
  0
LTYPE
  5
4F
330
5
100
AcDbSymbolTableRecord
100
AcDbLinetypeTableRecord
  2
AM_ISO02W050X2
 70
     0
  3
 _ _ _ _ _ _ _ _ _ _ _ _
 72
    65
 73
     2
 40
3.75
 49
3.0
 74
     0
 49
-0.75
 74
     0
  0
LTYPE
  5
50
330
5
100
AcDbSymbolTableRecord
100
AcDbLinetypeTableRecord
  2
AM_ISO08W050X2
 70
     0
  3
__ . __ . __ . __ . __ . __
 72
    65
 73
     4
 40
9.0
 49
6.0
 74
     0
 49
-0.75
 74
     0
 49
1.5
 74
     0
 49
-0.75
 74
     0
  0
LTYPE
  5
53
330
5
100
AcDbSymbolTableRecord
100
AcDbLinetypeTableRecord
  2
AMZIGZAG
 70
     0
  3
/\/-/\/-/\/-/\/-/\/-/\/
 72
    65
 73
     2
 40
11.00009999999999
 49
0.0001
 74
     4
 75
   135
340
52
 46
0.04
 50
0.0
 44
0.0
 45
0.0
 49
-11.0
 74
     0
  0
LTYPE
  5
166
330
5
100
AcDbSymbolTableRecord
100
AcDbLinetypeTableRecord
  2
ACJISTGL
 70
     0
  3
_ _ _ _ _
 72
    65
 73
     2
 40
3.0
 49
2.0
 74
     0
 49
-1.0
 74
     0
  0
LTYPE
  5
26A
330
5
100
AcDbSymbolTableRecord
100
AcDbLinetypeTableRecord
  2
ACJISTGB
 70
     0
  3
__ . . __ . .
 72
    65
 73
     6
 40
9.0
 49
4.0
 74
     0
 49
-1.0
 74
     0
 49
1.0
 74
     0
 49
-1.0
 74
     0
 49
1.0
 74
     0
 49
-1.0
 74
     0
  0
ENDTAB
  0
TABLE
  2
LAYER
  5
2
330
0
100
AcDbSymbolTable
 70
     8
  0
LAYER
  5
10
330
2
100
AcDbSymbolTableRecord
100
AcDbLayerTableRecord
  2
0
 70
     0
 62
     7
  6
CONTINUOUS
  0
LAYER
  5
3F9
330
2
100
AcDbSymbolTableRecord
100
AcDbLayerTableRecord
  2
AM_0
 70
     0
 62
     7
  6
CONTINUOUS
  0
LAYER
  5
CD5
330
2
100
AcDbSymbolTableRecord
100
AcDbLayerTableRecord
  2
AM_7
 70
     0
 62
     4
  6
AM_ISO08W050
  0
LAYER
  5
CDE
330
2
100
AcDbSymbolTableRecord
100
AcDbLayerTableRecord
  2
AM_11
 70
     0
 62
     3
  6
AM_ISO09W050
  0
LAYER
  5
CFB
330
2
100
AcDbSymbolTableRecord
100
AcDbLayerTableRecord
  2
AM_5
 70
     0
 62
     3
  6
CONTINUOUS
  0
LAYER
  5
CFD
330
2
100
AcDbSymbolTableRecord
100
AcDbLayerTableRecord
  2
DEFPOINTS
 70
     0
 62
     7
  6
CONTINUOUS
  0
LAYER
  5
113C
330
2
100
AcDbSymbolTableRecord
100
AcDbLayerTableRecord
  2
AM_6
 70
     0
 62
     2
  6
CONTINUOUS
  0
LAYER
  5
3272
330
2
100
AcDbSymbolTableRecord
100
AcDbLayerTableRecord
  2
AM_CL
 70
     0
 62
     1
  6
AMCONSTR
  0
ENDTAB
  0
TABLE
  2
STYLE
  5
3
330
0
100
AcDbSymbolTable
 70
     5
  0
STYLE
  5
11
330
3
100
AcDbSymbolTableRecord
100
AcDbTextStyleTableRecord
  2
STANDARD
 70
     0
 40
0.0
 41
1.0
 50
0.0
 71
     0
 42
2.5
  3
simplex.shx
  4
EXTFONT.SHX
  0
STYLE
  5
52
330
3
100
AcDbSymbolTableRecord
100
AcDbTextStyleTableRecord
  2

 70
     1
 40
0.0
 41
1.0
 50
0.0
 71
     0
 42
2.5
  3
ltypeshp.shx
  4

  0
STYLE
  5
6B
330
3
100
AcDbSymbolTableRecord
100
AcDbTextStyleTableRecord
  2
ASAMI
 70
     0
 40
0.0
 41
1.0
 50
0.0
 71
     0
 42
2.5
  3
simplex.shx
  4
EXTFONT.SHX
  0
STYLE
  5
262
330
3
100
AcDbSymbolTableRecord
100
AcDbTextStyleTableRecord
  2
ACJISTS
 70
     0
 40
1.0
 41
1.0
 50
0.0
 71
     0
 42
2.5
  3
simplex.shx
  4
bigfont.shx
  0
STYLE
  5
269
330
3
100
AcDbSymbolTableRecord
100
AcDbTextStyleTableRecord
  2
ACJISGDT
 70
     0
 40
0.0
 41
1.0
 50
0.0
 71
     0
 42
2.5
  3
amgdtans.shx
  4

  0
ENDTAB
  0
TABLE
  2
VIEW
  5
6
330
0
100
AcDbSymbolTable
 70
     0
  0
ENDTAB
  0
TABLE
  2
UCS
  5
7
330
0
100
AcDbSymbolTable
 70
     0
  0
ENDTAB
  0
TABLE
  2
APPID
  5
9
330
0
100
AcDbSymbolTable
 70
    13
  0
APPID
  5
12
330
9
100
AcDbSymbolTableRecord
100
AcDbRegAppTableRecord
  2
ACAD
 70
     0
  0
APPID
  5
30
330
9
100
AcDbSymbolTableRecord
100
AcDbRegAppTableRecord
  2
MCAD_NO_VIS
 70
     0
  0
APPID
  5
31
330
9
100
AcDbSymbolTableRecord
100
AcDbRegAppTableRecord
  2
ACAD_TEMP_GRAPHIC
 70
     0
  0
APPID
  5
2C2
330
9
100
AcDbSymbolTableRecord
100
AcDbRegAppTableRecord
  2
GENIUS_GENDTOL_13
 70
     0
  0
APPID
  5
339
330
9
100
AcDbSymbolTableRecord
100
AcDbRegAppTableRecord
  2
GENIUS_GENODEF_13
 70
     0
  0
APPID
  5
33A
330
9
100
AcDbSymbolTableRecord
100
AcDbRegAppTableRecord
  2
GENIUS_GENOBJ-N-RSBK_13
 70
     0
  0
APPID
  5
33B
330
9
100
AcDbSymbolTableRecord
100
AcDbRegAppTableRecord
  2
GENIUS_GENOBJ-N-LIB_13
 70
     0
  0
APPID
  5
33C
330
9
100
AcDbSymbolTableRecord
100
AcDbRegAppTableRecord
  2
GENIUS_GENSCALE_13
 70
     0
  0
APPID
  5
378
330
9
100
AcDbSymbolTableRecord
100
AcDbRegAppTableRecord
  2
GENIUS_GENDIMSH_14
 70
     0
  0
APPID
  5
13A0
330
9
100
AcDbSymbolTableRecord
100
AcDbRegAppTableRecord
  2
GENIUS_GENOBJ-N-CEN_13
 70
     0
  0
APPID
  5
13D7
330
9
100
AcDbSymbolTableRecord
100
AcDbRegAppTableRecord
  2
GENIUS_GENREC_14
 70
     0
  0
APPID
  5
13D8
330
9
100
AcDbSymbolTableRecord
100
AcDbRegAppTableRecord
  2
GENIUS_GENOBJ-N-REC_13
 70
     0
  0
APPID
  5
31E2
330
9
100
AcDbSymbolTableRecord
100
AcDbRegAppTableRecord
  2
DCO15
 70
     0
  0
ENDTAB
  0
TABLE
  2
DIMSTYLE
  5
A
330
0
100
AcDbSymbolTable
 70
     9
  0
DIMSTYLE
105
58
330
A
100
AcDbSymbolTableRecord
100
AcDbDimStyleTableRecord
  2
AM_JIS
 70
     0
  3

  4
"
  5
OPEN30
  6

  7

 40
1.0
 41
2.5
 42
1.0
 43
12.0
 44
1.0
 45
0.0
 46
0.0
 47
0.1
 48
0.1
140
3.2
141
0.0
142
0.0
143
0.0393701
144
1.0
145
0.0
146
0.71
147
1.5
 71
     0
 72
     0
 73
     0
 74
     0
 75
     0
 76
     0
 77
     3
 78
     8
170
     0
171
     2
172
     1
173
     0
174
     0
175
     0
176
   256
177
   256
178
     2
270
     2
271
     3
272
     3
273
     2
274
     2
340
6B
275
     0
280
     0
281
     0
282
     0
283
     0
284
     0
285
     0
286
     0
287
     3
288
     0
  0
DIMSTYLE
105
5F
330
A
100
AcDbSymbolTableRecord
100
AcDbDimStyleTableRecord
  2
AM_JIS$3
 70
     0
  3

  4
"
  5
OPEN30
  6

  7

 40
1.0
 41
2.5
 42
1.0
 43
10.0
 44
1.0
 45
0.0
 46
0.0
 47
0.1
 48
0.1
140
3.2
141
0.0
142
0.0
143
0.0393701
144
1.0
145
0.0
146
0.71
147
1.5
 71
     0
 72
     0
 73
     0
 74
     1
 75
     0
 76
     0
 77
     3
 78
     8
170
     0
171
     2
172
     0
173
     0
174
     0
175
     0
176
   256
177
   256
178
     2
270
     2
271
     2
272
     3
273
     2
274
     2
340
6B
275
     0
280
     0
281
     0
282
     0
283
     0
284
     0
285
     0
286
     0
287
     0
288
     1
  0
DIMSTYLE
105
60
330
A
100
AcDbSymbolTableRecord
100
AcDbDimStyleTableRecord
  2
AM_JIS$4
 70
     0
  3

  4
"
  5
OPEN30
  6

  7

 40
1.0
 41
2.5
 42
1.0
 43
10.0
 44
1.0
 45
0.0
 46
0.0
 47
0.1
 48
0.1
140
3.2
141
0.0
142
0.0
143
0.0393701
144
1.0
145
0.0
146
0.71
147
1.5
 71
     0
 72
     0
 73
     0
 74
     1
 75
     0
 76
     0
 77
     3
 78
     8
170
     0
171
     2
172
     0
173
     0
174
     0
175
     0
176
   256
177
   256
178
     2
270
     2
271
     2
272
     3
273
     2
274
     2
340
6B
275
     0
280
     0
281
     0
282
     0
283
     0
284
     0
285
     0
286
     0
287
     0
288
     1
  0
DIMSTYLE
105
61
330
A
100
AcDbSymbolTableRecord
100
AcDbDimStyleTableRecord
  2
AM_JIS$6
 70
     0
  3

  4
"
  5
OPEN30
  6

  7

 40
1.0
 41
2.5
 42
1.0
 43
10.0
 44
1.0
 45
0.0
 46
0.0
 47
0.1
 48
0.1
140
3.2
141
0.0
142
0.0
143
0.0393701
144
1.0
145
0.0
146
0.71
147
1.5
 71
     0
 72
     0
 73
     0
 74
     0
 75
     0
 76
     0
 77
     0
 78
     8
170
     0
171
     2
172
     1
173
     0
174
     0
175
     0
176
   256
177
   256
178
     2
270
     2
271
     2
272
     2
273
     2
274
     2
340
6B
275
     0
280
     0
281
     0
282
     0
283
     0
284
     0
285
     0
286
     0
287
     3
288
     0
  0
DIMSTYLE
105
62
330
A
100
AcDbSymbolTableRecord
100
AcDbDimStyleTableRecord
  2
AM_JIS$7
 70
     0
  3

  4
"
  5
OPEN30
  6

  7

 40
1.0
 41
2.5
 42
1.0
 43
10.0
 44
1.0
 45
0.0
 46
0.0
 47
0.1
 48
0.1
140
3.2
141
0.0
142
0.0
143
0.0393701
144
1.0
145
0.0
146
0.71
147
1.5
 71
     0
 72
     0
 73
     0
 74
     0
 75
     0
 76
     0
 77
     3
 78
     8
170
     0
171
     2
172
     1
173
     0
174
     0
175
     0
176
   256
177
   256
178
     2
270
     2
271
     2
272
     3
273
     2
274
     2
340
6B
275
     0
280
     0
281
     0
282
     0
283
     0
284
     0
285
     0
286
     0
287
     3
288
     0
  0
DIMSTYLE
105
63
330
A
100
AcDbSymbolTableRecord
100
AcDbDimStyleTableRecord
  2
AM_JIS$SF
 70
     0
  3

  4
"
  5
OPEN30
  6

  7

 40
1.0
 41
2.5
 42
1.0
 43
10.0
 44
1.0
 45
0.0
 46
0.0
 47
0.1
 48
0.1
140
3.2
141
0.0
142
0.0
143
0.0393701
144
1.0
145
0.0
146
0.71
147
1.5
 71
     0
 72
     0
 73
     0
 74
     0
 75
     1
 76
     1
 77
     3
 78
     8
170
     0
171
     2
172
     1
173
     0
174
     0
175
     0
176
   256
177
   256
178
     2
270
     2
271
     2
272
     2
273
     2
274
     2
340
6B
275
     0
280
     0
281
     0
282
     0
283
     0
284
     0
285
     0
286
     0
287
     3
288
     0
  0
DIMSTYLE
105
68
330
A
100
AcDbSymbolTableRecord
100
AcDbDimStyleTableRecord
  2
AM_JIS$SH
 70
     0
  3

  4
"
  5

  6
GENAXEH
  7
OPEN30
 40
1.0
 41
2.5
 42
1.0
 43
10.0
 44
1.0
 45
0.0
 46
0.0
 47
0.1
 48
0.1
140
3.2
141
0.0
142
0.0
143
0.0393701
144
2.0
145
0.0
146
0.71
147
1.5
 71
     0
 72
     0
 73
     0
 74
     0
 75
     1
 76
     1
 77
     3
 78
     8
170
     0
171
     2
172
     1
173
     1
174
     0
175
     0
176
   256
177
   256
178
     2
270
     2
271
     2
272
     2
273
     2
274
     2
340
6B
275
     0
280
     0
281
     0
282
     0
283
     0
284
     0
285
     0
286
     0
287
     3
288
     0
  0
DIMSTYLE
105
B34
330
A
100
AcDbSymbolTableRecord
100
AcDbDimStyleTableRecord
  2
AM_JIS$2
 70
     0
  3

  4
"
  5
OPEN30
  6

  7

 40
1.0
 41
2.5
 42
1.0
 43
12.0
 44
1.0
 45
0.0
 46
0.0
 47
0.1
 48
0.1
140
3.2
141
0.0
142
0.0
143
0.0393701
144
1.0
145
0.0
146
0.71
147
1.5
 71
     0
 72
     0
 73
     0
 74
     0
 75
     0
 76
     0
 77
     3
 78
     8
170
     0
171
     2
172
     1
173
     0
174
     0
175
     0
176
   256
177
   256
178
     2
270
     2
271
     3
272
     3
273
     2
274
     2
340
6B
275
     0
280
     0
281
     0
282
     0
283
     0
284
     0
285
     0
286
     0
287
     3
288
     0
  0
DIMSTYLE
105
BA5
102
{ACAD_REACTORS
330
1673
330
155D
330
15E8
330
2B71
330
300D
330
3468
102
}
330
A
100
AcDbSymbolTableRecord
100
AcDbDimStyleTableRecord
  2
AM_JIS$0
 70
     0
  3

  4
"
  5
OPEN30
  6

  7

 40
1.0
 41
2.5
 42
0.0
 43
10.0
 44
1.0
 45
0.0
 46
0.0
 47
0.1
 48
0.1000000001
140
3.799999999999999
141
0.0
142
0.0
143
0.0393701
144
1.0
145
0.0
146
0.71
147
1.5
 71
     0
 72
     0
 73
     0
 74
     0
 75
     0
 76
     0
 77
     3
 78
     1
170
     0
171
     2
172
     1
173
     0
174
     0
175
     0
176
     3
177
     3
178
     2
270
     2
271
     2
272
     2
273
     2
274
     2
340
11
275
     1
280
     0
281
     0
282
     0
283
     0
284
     8
285
     0
286
     0
287
     0
288
     0
  0
ENDTAB
  0
TABLE
  2
BLOCK_RECORD
  5
1
330
0
100
AcDbSymbolTable
 70
    13
  0
BLOCK_RECORD
  5
1F
102
{ACAD_XDICTIONARY
360
74
102
}
330
1
100
AcDbSymbolTableRecord
100
AcDbBlockTableRecord
  2
*MODEL_SPACE
  0
BLOCK_RECORD
  5
101
102
{ACAD_XDICTIONARY
360
35B1
102
}
330
1
100
AcDbSymbolTableRecord
100
AcDbBlockTableRecord
  2
*PAPER_SPACE
  0
BLOCK_RECORD
  5
59
330
1
100
AcDbSymbolTableRecord
100
AcDbBlockTableRecord
  2
_OPEN30
  0
BLOCK_RECORD
  5
64
330
1
100
AcDbSymbolTableRecord
100
AcDbBlockTableRecord
  2
GENAXEH
  0
BLOCK_RECORD
  5
155E
330
1
100
AcDbSymbolTableRecord
100
AcDbBlockTableRecord
  2
*D5
  0
BLOCK_RECORD
  5
15E9
330
1
100
AcDbSymbolTableRecord
100
AcDbBlockTableRecord
  2
*D6
  0
BLOCK_RECORD
  5
1674
330
1
100
AcDbSymbolTableRecord
100
AcDbBlockTableRecord
  2
*D7
  0
BLOCK_RECORD
  5
2B72
330
1
100
AcDbSymbolTableRecord
100
AcDbBlockTableRecord
  2
*D8
  0
BLOCK_RECORD
  5
300E
330
1
100
AcDbSymbolTableRecord
100
AcDbBlockTableRecord
  2
*D9
  0
BLOCK_RECORD
  5
3283
330
1
100
AcDbSymbolTableRecord
100
AcDbBlockTableRecord
  2
A$C74E8618C
  0
BLOCK_RECORD
  5
33A9
330
1
100
AcDbSymbolTableRecord
100
AcDbBlockTableRecord
  2
A$C2DD67FEF
  0
BLOCK_RECORD
  5
3469
330
1
100
AcDbSymbolTableRecord
100
AcDbBlockTableRecord
  2
*D12
  0
ENDTAB
  0
ENDSEC
  0
SECTION
  2
BLOCKS
  0
BLOCK
  5
20
330
1F
100
AcDbEntity
  8
0
100
AcDbBlockBegin
  2
*MODEL_SPACE
 70
     0
 10
0.0
 20
0.0
 30
0.0
  3
*MODEL_SPACE
  1

  0
ENDBLK
  5
21
330
1F
100
AcDbEntity
  8
0
100
AcDbBlockEnd
  0
BLOCK
  5
103
330
101
100
AcDbEntity
 67
     1
  8
0
100
AcDbBlockBegin
  2
*PAPER_SPACE
 70
     0
 10
0.0
 20
0.0
 30
0.0
  3
*PAPER_SPACE
  1

  0
ENDBLK
  5
104
330
101
100
AcDbEntity
 67
     1
  8
0
100
AcDbBlockEnd
  0
BLOCK
  5
5D
330
59
100
AcDbEntity
  8
0
100
AcDbBlockBegin
  2
_OPEN30
 70
     0
 10
0.0
 20
0.0
 30
0.0
  3
_OPEN30
  1

  0
LINE
  5
5A
330
59
100
AcDbEntity
  8
0
 62
     0
100
AcDbLine
 10
-1.0
 20
0.26794919
 30
0.0
 11
0.0
 21
0.0
 31
0.0
  0
LINE
  5
5B
330
59
100
AcDbEntity
  8
0
 62
     0
100
AcDbLine
 10
0.0
 20
0.0
 30
0.0
 11
-1.0
 21
-0.26794919
 31
0.0
  0
LINE
  5
5C
330
59
100
AcDbEntity
  8
0
 62
     0
100
AcDbLine
 10
0.0
 20
0.0
 30
0.0
 11
-1.0
 21
0.0
 31
0.0
  0
ENDBLK
  5
5E
330
59
100
AcDbEntity
  8
0
100
AcDbBlockEnd
  0
BLOCK
  5
66
330
64
100
AcDbEntity
  8
0
100
AcDbBlockBegin
  2
GENAXEH
 70
     0
 10
0.0
 20
0.0
 30
0.0
  3
GENAXEH
  1

  0
LINE
  5
65
330
64
100
AcDbEntity
  8
0
100
AcDbLine
 10
-1.0
 20
0.0
 30
0.0
 11
1.0
 21
0.0
 31
0.0
  0
ENDBLK
  5
67
330
64
100
AcDbEntity
  8
0
100
AcDbBlockEnd
  0
BLOCK
  5
1568
330
155E
100
AcDbEntity
  8
0
100
AcDbBlockBegin
  2
*D5
 70
     1
 10
0.0
 20
0.0
 30
0.0
  3
*D5
  1

  0
LINE
  5
3458
330
155E
100
AcDbEntity
  8
AM_5
 62
     3
100
AcDbLine
 10
-0.0000000000000008
 20
-6.0
 30
0.0
 11
-0.0000000000000023
 21
-30.99999999999997
 31
0.0
  0
LINE
  5
3459
330
155E
100
AcDbEntity
  8
AM_5
 62
     3
100
AcDbLine
 10
-30.00000381469698
 20
-9.500005722046887
 30
0.0
 11
-30.00000381469698
 21
-30.99999999999997
 31
0.0
  0
LINE
  5
345A
330
155E
100
AcDbEntity
  8
AM_5
 62
     3
100
AcDbLine
 10
-2.500000000000002
 20
-29.99999999999997
 30
0.0
 11
-27.50000381469698
 21
-29.99999999999997
 31
0.0
  0
INSERT
  5
345B
330
155E
100
AcDbEntity
  8
AM_5
 62
     3
100
AcDbBlockReference
  2
_OPEN30
 10
-0.0000000000000022
 20
-29.99999999999997
 30
0.0
 41
2.5
 42
2.5
 43
2.5
  0
INSERT
  5
345C
330
155E
100
AcDbEntity
  8
AM_5
 62
     3
100
AcDbBlockReference
  2
_OPEN30
 10
-30.00000381469698
 20
-29.99999999999997
 30
0.0
 41
2.5
 42
2.5
 43
2.5
 50
180.0
  0
MTEXT
  5
345D
330
155E
100
AcDbEntity
  8
AM_5
 62
     2
100
AcDbMText
 10
-15.00000190734849
 20
-26.59999999999997
 30
0.0
 40
3.799999999999999
 41
0.0
 71
     5
 72
     1
  1
30
1001
ACAD
1000
MTEXTBEGIN
1070
    73
1070
     1
1070
    44
1040
1.0
1070
    74
1070
     0
1000
MTEXTEND
  0
POINT
  5
345E
330
155E
100
AcDbEntity
  8
DEFPOINTS
 62
     0
100
AcDbPoint
 10
-0.0000000000000008
 20
-6.0
 30
0.0
  0
POINT
  5
345F
330
155E
100
AcDbEntity
  8
DEFPOINTS
 62
     0
100
AcDbPoint
 10
-30.00000381469698
 20
-9.500005722046887
 30
0.0
  0
POINT
  5
3460
330
155E
100
AcDbEntity
  8
DEFPOINTS
 62
     0
100
AcDbPoint
 10
-30.00000381469698
 20
-29.99999999999997
 30
0.0
  0
ENDBLK
  5
1569
330
155E
100
AcDbEntity
  8
0
100
AcDbBlockEnd
  0
BLOCK
  5
15F3
330
15E9
100
AcDbEntity
  8
0
100
AcDbBlockBegin
  2
*D6
 70
     1
 10
0.0
 20
0.0
 30
0.0
  3
*D6
  1

  0
LINE
  5
3507
330
15E9
100
AcDbEntity
  8
AM_5
 62
     3
100
AcDbLine
 10
-30.00000381469698
 20
-9.500005722046887
 30
0.0
 11
-30.00000381469698
 21
-31.0000000000002
 31
0.0
  0
LINE
  5
3508
330
15E9
100
AcDbEntity
  8
AM_5
 62
     3
100
AcDbLine
 10
-149.9999999999989
 20
-7.66150474548387
 30
0.0
 11
-149.9999999999989
 21
-31.0000000000002
 31
0.0
  0
LINE
  5
3509
330
15E9
100
AcDbEntity
  8
AM_5
 62
     3
100
AcDbLine
 10
-32.50000381469698
 20
-30.00000000000021
 30
0.0
 11
-147.4999999999989
 21
-30.00000000000021
 31
0.0
  0
INSERT
  5
350A
330
15E9
100
AcDbEntity
  8
AM_5
 62
     3
100
AcDbBlockReference
  2
_OPEN30
 10
-30.00000381469698
 20
-30.00000000000021
 30
0.0
 41
2.5
 42
2.5
 43
2.5
  0
INSERT
  5
350B
330
15E9
100
AcDbEntity
  8
AM_5
 62
     3
100
AcDbBlockReference
  2
_OPEN30
 10
-149.9999999999989
 20
-30.00000000000021
 30
0.0
 41
2.5
 42
2.5
 43
2.5
 50
180.0
  0
MTEXT
  5
350C
330
15E9
100
AcDbEntity
  8
AM_5
 62
     2
100
AcDbMText
 10
-90.00000190734798
 20
-26.60000000000021
 30
0.0
 40
3.799999999999999
 41
0.0
 71
     5
 72
     1
  1
120
1001
ACAD
1000
MTEXTBEGIN
1070
    73
1070
     1
1070
    44
1040
1.0
1070
    74
1070
     0
1000
MTEXTEND
  0
POINT
  5
350D
330
15E9
100
AcDbEntity
  8
DEFPOINTS
 62
     0
100
AcDbPoint
 10
-30.00000381469698
 20
-9.500005722046887
 30
0.0
  0
POINT
  5
350E
330
15E9
100
AcDbEntity
  8
DEFPOINTS
 62
     0
100
AcDbPoint
 10
-149.9999999999989
 20
-7.66150474548387
 30
0.0
  0
POINT
  5
350F
330
15E9
100
AcDbEntity
  8
DEFPOINTS
 62
     0
100
AcDbPoint
 10
-149.9999999999989
 20
-30.00000000000021
 30
0.0
  0
ENDBLK
  5
15F4
330
15E9
100
AcDbEntity
  8
0
100
AcDbBlockEnd
  0
BLOCK
  5
167E
330
1674
100
AcDbEntity
  8
0
100
AcDbBlockBegin
  2
*D7
 70
     1
 10
0.0
 20
0.0
 30
0.0
  3
*D7
  1

  0
LINE
  5
34FE
330
1674
100
AcDbEntity
  8
AM_5
 62
     3
100
AcDbLine
 10
-149.9999999999989
 20
-7.66150474548387
 30
0.0
 11
-149.9999999999989
 21
-40.99999999999991
 31
0.0
  0
LINE
  5
34FF
330
1674
100
AcDbEntity
  8
AM_5
 62
     3
100
AcDbLine
 10
0.0000000000000196
 20
-15.99999999999991
 30
0.0
 11
0.000000000000018
 21
-40.99999999999991
 31
0.0
  0
LINE
  5
3500
330
1674
100
AcDbEntity
  8
AM_5
 62
     3
100
AcDbLine
 10
-147.4999999999989
 20
-39.99999999999991
 30
0.0
 11
-2.499999999999981
 21
-39.99999999999991
 31
0.0
  0
INSERT
  5
3501
330
1674
100
AcDbEntity
  8
AM_5
 62
     3
100
AcDbBlockReference
  2
_OPEN30
 10
-149.9999999999989
 20
-39.99999999999991
 30
0.0
 41
2.5
 42
2.5
 43
2.5
 50
180.0
  0
INSERT
  5
3502
330
1674
100
AcDbEntity
  8
AM_5
 62
     3
100
AcDbBlockReference
  2
_OPEN30
 10
0.0000000000000181
 20
-39.99999999999991
 30
0.0
 41
2.5
 42
2.5
 43
2.5
  0
MTEXT
  5
3503
330
1674
100
AcDbEntity
  8
AM_5
 62
     2
100
AcDbMText
 10
-74.99999999999947
 20
-36.59999999999991
 30
0.0
 40
3.799999999999999
 41
0.0
 71
     5
 72
     1
  1
150
1001
ACAD
1000
MTEXTBEGIN
1070
    73
1070
     1
1070
    44
1040
1.0
1070
    74
1070
     0
1000
MTEXTEND
  0
POINT
  5
3504
330
1674
100
AcDbEntity
  8
DEFPOINTS
 62
     0
100
AcDbPoint
 10
-149.9999999999989
 20
-7.66150474548387
 30
0.0
  0
POINT
  5
3505
330
1674
100
AcDbEntity
  8
DEFPOINTS
 62
     0
100
AcDbPoint
 10
0.0000000000000196
 20
-15.99999999999991
 30
0.0
  0
POINT
  5
3506
330
1674
100
AcDbEntity
  8
DEFPOINTS
 62
     0
100
AcDbPoint
 10
0.0000000000000181
 20
-39.99999999999991
 30
0.0
  0
ENDBLK
  5
167F
330
1674
100
AcDbEntity
  8
0
100
AcDbBlockEnd
  0
BLOCK
  5
2B7C
330
2B72
100
AcDbEntity
  8
0
100
AcDbBlockBegin
  2
*D8
 70
     1
 10
0.0
 20
0.0
 30
0.0
  3
*D8
  1

  0
LINE
  5
3522
330
2B72
100
AcDbEntity
  8
AM_5
 62
     3
100
AcDbLine
 10
0.0000000000000271
 20
-10.50000572204687
 30
0.0
 11
16.222100304199
 21
-10.50000572204687
 31
0.0
  0
LINE
  5
3523
330
2B72
100
AcDbEntity
  8
AM_5
 62
     3
100
AcDbLine
 10
0.0000000000000302
 20
10.49999618530112
 30
0.0
 11
16.22210030419901
 21
10.49999618530111
 31
0.0
  0
LINE
  5
3524
330
2B72
100
AcDbEntity
  8
AM_5
 62
     3
100
AcDbLine
 10
15.22210030419901
 20
-8.000005722046877
 30
0.0
 11
15.22210030419901
 21
7.999996185301119
 31
0.0
  0
INSERT
  5
3525
330
2B72
100
AcDbEntity
  8
AM_5
 62
     3
100
AcDbBlockReference
  2
_OPEN30
 10
15.22210030419901
 20
-10.50000572204687
 30
0.0
 41
2.5
 42
2.5
 43
2.5
 50
270.0
  0
INSERT
  5
3526
330
2B72
100
AcDbEntity
  8
AM_5
 62
     3
100
AcDbBlockReference
  2
_OPEN30
 10
15.22210030419901
 20
10.49999618530111
 30
0.0
 41
2.5
 42
2.5
 43
2.5
 50
90.0
  0
MTEXT
  5
3527
330
2B72
100
AcDbEntity
  8
AM_5
 62
     2
100
AcDbMText
 10
11.82210030419901
 20
-0.0000047683728757
 30
0.0
 40
3.799999999999999
 41
0.0
 71
     5
 72
     1
  1
%%c21
 11
0.0000000000000001
 21
1.0
 31
0.0
1001
ACAD
1000
MTEXTBEGIN
1070
    73
1070
     1
1070
    44
1040
1.0
1070
    74
1070
     0
1000
MTEXTEND
  0
POINT
  5
3528
330
2B72
100
AcDbEntity
  8
DEFPOINTS
 62
     0
100
AcDbPoint
 10
0.0000000000000271
 20
-10.50000572204687
 30
0.0
  0
POINT
  5
3529
330
2B72
100
AcDbEntity
  8
DEFPOINTS
 62
     0
100
AcDbPoint
 10
0.0000000000000302
 20
10.49999618530112
 30
0.0
  0
POINT
  5
352A
330
2B72
100
AcDbEntity
  8
DEFPOINTS
 62
     0
100
AcDbPoint
 10
15.22210030419901
 20
10.49999618530111
 30
0.0
  0
ENDBLK
  5
2B7D
330
2B72
100
AcDbEntity
  8
0
100
AcDbBlockEnd
  0
BLOCK
  5
3018
330
300E
100
AcDbEntity
  8
0
100
AcDbBlockBegin
  2
*D9
 70
     1
 10
0.0
 20
0.0
 30
0.0
  3
*D9
  1

  0
LINE
  5
3510
330
300E
100
AcDbEntity
  8
AM_5
 62
     3
100
AcDbLine
 10
-146.9999580383289
 20
-9.99995994567887
 30
0.0
 11
-168.3566610729113
 21
-9.999959945678863
 31
0.0
  0
LINE
  5
3511
330
300E
100
AcDbEntity
  8
AM_5
 62
     3
100
AcDbLine
 10
-146.9999580383289
 20
9.999994277953128
 30
0.0
 11
-168.3566610729113
 21
9.999994277953135
 31
0.0
  0
LINE
  5
3512
330
300E
100
AcDbEntity
  8
AM_5
 62
     3
100
AcDbLine
 10
-167.3566610729113
 20
-7.499959945678863
 30
0.0
 11
-167.3566610729113
 21
7.499994277953135
 31
0.0
  0
INSERT
  5
3513
330
300E
100
AcDbEntity
  8
AM_5
 62
     3
100
AcDbBlockReference
  2
_OPEN30
 10
-167.3566610729113
 20
-9.999959945678863
 30
0.0
 41
2.5
 42
2.5
 43
2.5
 50
270.0
  0
INSERT
  5
3514
330
300E
100
AcDbEntity
  8
AM_5
 62
     3
100
AcDbBlockReference
  2
_OPEN30
 10
-167.3566610729113
 20
9.999994277953135
 30
0.0
 41
2.5
 42
2.5
 43
2.5
 50
90.0
  0
MTEXT
  5
3515
330
300E
100
AcDbEntity
  8
AM_5
 62
     2
100
AcDbMText
 10
-170.7566610729113
 20
0.0000171661371091
 30
0.0
 40
3.799999999999999
 41
0.0
 71
     5
 72
     1
  1
%%c20
 11
0.0000000000000001
 21
1.0
 31
0.0
1001
ACAD
1000
MTEXTBEGIN
1070
    73
1070
     1
1070
    44
1040
1.0
1070
    74
1070
     0
1000
MTEXTEND
  0
POINT
  5
3516
330
300E
100
AcDbEntity
  8
DEFPOINTS
 62
     0
100
AcDbPoint
 10
-146.9999580383289
 20
-9.99995994567887
 30
0.0
  0
POINT
  5
3517
330
300E
100
AcDbEntity
  8
DEFPOINTS
 62
     0
100
AcDbPoint
 10
-146.9999580383289
 20
9.999994277953128
 30
0.0
  0
POINT
  5
3518
330
300E
100
AcDbEntity
  8
DEFPOINTS
 62
     0
100
AcDbPoint
 10
-167.3566610729113
 20
9.999994277953135
 30
0.0
  0
ENDBLK
  5
3019
330
300E
100
AcDbEntity
  8
0
100
AcDbBlockEnd
  0
BLOCK
  5
32FF
330
3283
100
AcDbEntity
  8
0
100
AcDbBlockBegin
  2
A$C74E8618C
 70
     0
 10
0.0
 20
0.0
 30
0.0
  3
A$C74E8618C
  1

  0
LINE
  5
3284
330
3283
100
AcDbEntity
  8
AM_7
  6
AM_ISO08W050X2
100
AcDbLine
 10
152.5596407533638
 20
0.0
 30
0.0
 11
-5.117897033690994
 21
0.0
 31
0.0
  0
LINE
  5
3285
330
3283
100
AcDbEntity
  8
AM_0
100
AcDbLine
 10
146.9999999999989
 20
10.0
 30
0.0
 11
30.86600112915
 21
10.0
 31
0.0
  0
LINE
  5
3286
330
3283
100
AcDbEntity
  8
AM_0
100
AcDbLine
 10
30.86600112915
 20
-9.999998092651001
 30
0.0
 11
146.9999999999989
 21
-9.999998092651001
 31
0.0
  0
ELLIPSE
  5
3287
330
3283
100
AcDbEntity
  8
AM_0
100
AcDbEllipse
 10
8.607604980469005
 20
0.0
 30
0.0
 11
-120.824694234892
 21
0.0353354454829997
 31
0.0
210
0.0
220
0.0
230
1.0
 40
0.0786252816632
 41
4.598505665002967
 42
4.685869322380568
  0
ELLIPSE
  5
3288
330
3283
100
AcDbEntity
  8
AM_0
100
AcDbEllipse
 10
13.283905029297
 20
0.0
 30
0.0
 11
10.41813851166899
 21
9.493589951672994
 31
0.0
210
0.0
220
0.0
230
1.0
 40
0.0340140325379
 41
0.0395361354166059
 42
0.0803846717970638
  0
ELLIPSE
  5
3289
330
3283
100
AcDbEntity
  8
AM_0
100
AcDbEllipse
 10
13.283905029297
 20
0.0
 30
0.0
 11
-10.41829112866099
 21
9.493590962858995
 31
0.0
210
0.0
220
0.0
230
1.0
 40
0.0340130292063
 41
3.102011501915874
 42
3.476488768190908
  0
ELLIPSE
  5
328A
330
3283
100
AcDbEntity
  8
AM_0
100
AcDbEllipse
 10
13.283905029297
 20
0.0
 30
0.0
 11
-10.41821399643499
 21
9.493529769552999
 31
0.0
210
0.0
220
0.0
230
1.0
 40
0.0340132662457
 41
3.057684566785773
 42
3.102011777470014
  0
SPLINE
  5
328B
330
3283
100
AcDbEntity
  8
AM_0
100
AcDbSpline
210
0.0
220
0.0
230
1.0
 70
     8
 71
     3
 72
    11
 73
     7
 74
     5
 42
0.0000000001
 43
0.0000000001
 44
0.0000000001
 40
0.0
 40
0.0
 40
0.0
 40
0.0
 40
1.016916393465317
 40
1.849084796161213
 40
2.578414852660399
 40
3.431668423595991
 40
3.431668423595991
 40
3.431668423595991
 40
3.431668423595991
 10
5.040603637694999
 20
-5.282285690307002
 30
0.0
 10
5.359161342064962
 20
-5.440790399619704
 30
0.0
 10
5.938402872278926
 20
-5.729003521163867
 30
0.0
 10
6.17593341792724
 20
-6.634364434764792
 30
0.0
 10
5.901730203040632
 20
-7.474920511414909
 30
0.0
 10
5.373566705972294
 20
-7.656694135709598
 30
0.0
 10
5.088806152344005
 20
-7.754697799682002
 30
0.0
 11
5.040603637694999
 21
-5.282285690307002
 31
0.0
 11
5.872604370117002
 21
-5.867002487182002
 31
0.0
 11
6.094192504882997
 21
-6.669126510620003
 31
0.0
 11
5.841796875
 21
-7.353391647339002
 31
0.0
 11
5.088806152344005
 21
-7.754697799682002
 31
0.0
  0
SPLINE
  5
328C
330
3283
100
AcDbEntity
  8
AM_0
100
AcDbSpline
210
0.0
220
0.0
230
1.0
 70
     8
 71
     3
 72
    11
 73
     7
 74
     5
 42
0.0000000001
 43
0.0000000001
 44
0.0000000001
 40
0.0
 40
0.0
 40
0.0
 40
0.0
 40
0.2005227975038873
 40
0.3978938768335852
 40
0.595657155360337
 40
0.7975887996184818
 40
0.7975887996184818
 40
0.7975887996184818
 40
0.7975887996184818
 10
9.915100097656008
 20
-2.887022018432002
 30
0.0
 10
9.981826932819744
 20
-2.892507503589858
 30
0.0
 10
10.11423182374801
 20
-2.903392255762388
 30
0.0
 10
10.30722605781391
 20
-2.953280724313368
 30
0.0
 10
10.49337274321199
 20
-3.025818859573352
 30
0.0
 10
10.60785639637483
 20
-3.094385537547768
 30
0.0
 10
10.66569519043
 20
-3.129026412964002
 30
0.0
 11
9.915100097656008
 21
-2.887022018432002
 31
0.0
 11
10.114395141602
 21
-2.909177780151001
 31
0.0
 11
10.305892944336
 21
-2.956968307495003
 31
0.0
 11
10.489593505859
 21
-3.030210494995003
 31
0.0
 11
10.66569519043
 21
-3.129026412964002
 31
0.0
  0
SPLINE
  5
328D
330
3283
100
AcDbEntity
  8
AM_0
100
AcDbSpline
210
0.0
220
0.0
230
1.0
 70
     8
 71
     3
 72
    11
 73
     7
 74
     5
 42
0.0000000001
 43
0.0000000001
 44
0.0000000001
 40
0.0
 40
0.0
 40
0.0
 40
0.0
 40
0.1478409520514681
 40
0.293779801360862
 40
0.4390585036479214
 40
0.5850561411301261
 40
0.5850561411301261
 40
0.5850561411301261
 40
0.5850561411301261
 10
9.340194702149005
 20
-2.974973678589002
 30
0.0
 10
9.387065327454266
 20
-2.959616485045653
 30
0.0
 10
9.480203546606464
 20
-2.929099681642937
 30
0.0
 10
9.624069977605733
 20
-2.900722299139867
 30
0.0
 10
9.769227401005219
 20
-2.884590376908432
 30
0.0
 10
9.866395920887846
 20
-2.886210138612681
 30
0.0
 10
9.915100097656008
 20
-2.887022018432002
 30
0.0
 11
9.340194702149005
 21
-2.974973678589002
 31
0.0
 11
9.481597900391008
 21
-2.931821823120003
 31
0.0
 11
9.624603271484005
 21
-2.902708053589002
 31
0.0
 11
9.769104003906008
 21
-2.887693405151001
 31
0.0
 11
9.915100097656008
 21
-2.887022018432002
 31
0.0
  0
ELLIPSE
  5
328E
330
3283
100
AcDbEntity
  8
AM_0
100
AcDbEllipse
 10
4.579605102539005
 20
-3.137876510620003
 30
0.0
 11
-1.499389639911
 21
0.042602489699
 31
0.0
210
0.0
220
0.0
230
1.0
 40
0.1901815627407
 41
1.960944359535209
 42
3.064536478916175
  0
ELLIPSE
  5
328F
330
3283
100
AcDbEntity
  8
AM_0
100
AcDbEllipse
 10
4.579605102539005
 20
-3.137876510620003
 30
0.0
 11
-1.499389639911
 21
0.042602489699
 31
0.0
210
0.0
220
0.0
230
1.0
 40
0.1901815627407
 41
0.2150637215954514
 42
1.32596175060827
  0
SPLINE
  5
3290
330
3283
100
AcDbEntity
  8
AM_0
100
AcDbSpline
210
0.0
220
0.0
230
1.0
 70
     8
 71
     3
 72
    11
 73
     7
 74
     5
 42
0.0000000001
 43
0.0000000001
 44
0.0000000001
 40
0.0
 40
0.0
 40
0.0
 40
0.0
 40
0.4015997055946637
 40
0.7887894584790512
 40
1.121723817370377
 40
1.30393901006713
 40
1.30393901006713
 40
1.30393901006713
 40
1.30393901006713
 10
22.34061050415
 20
-9.434690475464002
 30
0.0
 10
22.47449791479227
 20
-9.434360403582902
 30
0.0
 10
22.73746867066299
 20
-9.433712103256169
 30
0.0
 10
23.11107185299508
 20
-9.447598130120583
 30
0.0
 10
23.41185672711977
 20
-9.460756953358277
 30
0.0
 10
23.58216023625585
 20
-9.483161999449663
 30
0.0
 10
23.642398834229
 20
-9.491086959839002
 30
0.0
 11
22.34061050415
 21
-9.434690475464002
 31
0.0
 11
22.742206573486
 21
-9.436399459839002
 31
0.0
 11
23.12919998169
 21
-9.448728561401001
 31
0.0
 11
23.461505889893
 21
-9.469175338745003
 31
0.0
 11
23.642398834229
 21
-9.491086959839002
 31
0.0
  0
ELLIPSE
  5
3291
330
3283
100
AcDbEntity
  8
AM_0
100
AcDbEllipse
 10
8.607604980469005
 20
0.0
 30
0.0
 11
120.8246939624999
 21
0.0362548834789962
 31
0.0
210
0.0
220
0.0
230
1.0
 40
0.0786252974493
 41
4.738911588444624
 42
4.826283325787043
  0
SPLINE
  5
3292
330
3283
100
AcDbEntity
  8
AM_0
100
AcDbSpline
210
0.0
220
0.0
230
1.0
 70
     8
 71
     3
 72
    11
 73
     7
 74
     5
 42
0.0000000001
 43
0.0000000001
 44
0.0000000001
 40
0.0
 40
0.0
 40
0.0
 40
0.0
 40
0.0610132883951558
 40
0.2341194997774916
 40
0.4939596530548862
 40
0.8006028672393375
 40
0.8006028672393375
 40
0.8006028672393375
 40
0.8006028672393375
 10
1.250198364257997
 20
-1.807981491089002
 30
0.0
 10
1.252197938096756
 20
-1.828234606233085
 30
0.0
 10
1.259870680202815
 20
-1.905949630471068
 30
0.0
 10
1.251347184452901
 20
-2.070901400765958
 30
0.0
 10
1.245535640821881
 20
-2.317136110641531
 30
0.0
 10
1.23727494401232
 20
-2.505828287594118
 30
0.0
 10
1.232803344727003
 20
-2.607969284057002
 30
0.0
 11
1.250198364257997
 21
-1.807981491089002
 31
0.0
 11
1.255401611327997
 21
-1.868772506714002
 31
0.0
 11
1.253494262694999
 21
-2.041868209839002
 31
0.0
 11
1.245101928711008
 21
-2.301572799682002
 31
0.0
 11
1.232803344727003
 21
-2.607969284057002
 31
0.0
  0
ELLIPSE
  5
3293
330
3283
100
AcDbEntity
  8
AM_0
100
AcDbEllipse
 10
177.09210205078
 20
-0.0524291992190058
 30
0.0
 11
-249.3922927843529
 21
0.0729947799890027
 31
0.0
210
0.0
220
0.0
230
1.0
 40
0.049408427584
 41
5.452966409719943
 42
5.495318038511363
  0
ELLIPSE
  5
3294
330
3283
100
AcDbEntity
  8
AM_0
100
AcDbEllipse
 10
10.778793334961
 20
-0.0761108398440058
 30
0.0
 11
-1.252869038486011
 21
9.435973512232001
 31
0.0
210
0.0
220
0.0
230
1.0
 40
0.0777201345133
 41
0.1437939060235275
 42
0.2195995663239452
  0
ELLIPSE
  5
3295
330
3283
100
AcDbEntity
  8
AM_0
100
AcDbEllipse
 10
11.113998413086
 20
-0.0770874023440058
 30
0.0
 11
-1.364303905222001
 21
9.448424233044001
 31
0.0
210
0.0
220
0.0
230
1.0
 40
0.274196859545
 41
6.273705414291014
 42
6.409537218162833
  0
SPLINE
  5
3296
330
3283
100
AcDbEntity
  8
AM_0
100
AcDbSpline
210
0.0
220
0.0
230
1.0
 70
     8
 71
     3
 72
    11
 73
     7
 74
     5
 42
0.0000000001
 43
0.0000000001
 44
0.0000000001
 40
0.0
 40
0.0
 40
0.0
 40
0.0
 40
0.4015997055946637
 40
0.7887894584790513
 40
1.121723817370377
 40
1.30393901006713
 40
1.30393901006713
 40
1.30393901006713
 40
1.30393901006713
 10
22.34061050415
 20
9.434692382812997
 30
0.0
 10
22.47449791479227
 20
9.434362310931897
 30
0.0
 10
22.73746867066298
 20
9.433714010605161
 30
0.0
 10
23.11107185299508
 20
9.447600037469587
 30
0.0
 10
23.41185672711977
 20
9.460758860707271
 30
0.0
 10
23.58216023625585
 20
9.483163906798656
 30
0.0
 10
23.642398834229
 20
9.491088867187997
 30
0.0
 11
22.34061050415
 21
9.434692382812997
 31
0.0
 11
22.742206573486
 21
9.436401367187997
 31
0.0
 11
23.12919998169
 21
9.44873046875
 31
0.0
 11
23.461505889893
 21
9.469177246093998
 31
0.0
 11
23.642398834229
 21
9.491088867187997
 31
0.0
  0
SPLINE
  5
3297
330
3283
100
AcDbEntity
  8
AM_0
100
AcDbSpline
210
0.0
220
0.0
230
1.0
 70
     8
 71
     3
 72
    11
 73
     7
 74
     5
 42
0.0000000001
 43
0.0000000001
 44
0.0000000001
 40
0.0
 40
0.0
 40
0.0
 40
0.0
 40
1.034930872673532
 40
1.875158151704346
 40
2.76220004179021
 40
3.853481397343914
 40
3.853481397343914
 40
3.853481397343914
 40
3.853481397343914
 10
4.918701171875
 20
7.759094238280994
 30
0.0
 10
4.573080882815022
 20
7.656571576286282
 30
0.0
 10
3.946862533804896
 20
7.470814043633708
 30
0.0
 10
3.500033602923059
 20
6.575054187602577
 30
0.0
 10
3.736405889637141
 20
5.51858008325067
 30
0.0
 10
4.432639980144674
 20
5.346978234072683
 30
0.0
 10
4.816696166992002
 20
5.252319335937997
 30
0.0
 11
4.918701171875
 21
7.759094238280994
 31
0.0
 11
3.980194091797002
 21
7.322875976562997
 31
0.0
 11
3.608001708984005
 21
6.569580078125
 31
0.0
 11
3.825897216797002
 21
5.709716796875
 31
0.0
 11
4.816696166992002
 21
5.252319335937997
 31
0.0
  0
SPLINE
  5
3298
330
3283
100
AcDbEntity
  8
AM_0
100
AcDbSpline
210
0.0
220
0.0
230
1.0
 70
     8
 71
     3
 72
    11
 73
     7
 74
     5
 42
0.0000000001
 43
0.0000000001
 44
0.0000000001
 40
0.0
 40
0.0
 40
0.0
 40
0.0
 40
1.125377757588979
 40
2.0413072306357
 40
2.834113426511825
 40
3.79909789028325
 40
3.79909789028325
 40
3.79909789028325
 40
3.79909789028325
 10
4.816696166992002
 20
5.252319335937997
 30
0.0
 10
5.194471594259187
 20
5.378271222023201
 30
0.0
 10
5.879713244040081
 20
5.606733615245504
 30
0.0
 10
6.195146491295356
 20
6.607350308929805
 30
0.0
 10
5.871643210509482
 20
7.549994884356028
 30
0.0
 10
5.256435366024033
 20
7.684986896037884
 30
0.0
 10
4.918701171875
 20
7.759094238280994
 30
0.0
 11
4.816696166992002
 21
5.252319335937997
 31
0.0
 11
5.810806274414005
 21
5.77978515625
 31
0.0
 11
6.094802856444999
 21
6.650573730468998
 31
0.0
 11
5.810592651367002
 21
7.390686035155994
 31
0.0
 11
4.918701171875
 21
7.759094238280994
 31
0.0
  0
SPLINE
  5
3299
330
3283
100
AcDbEntity
  8
AM_0
100
AcDbSpline
210
0.0
220
0.0
230
1.0
 70
     8
 71
     3
 72
    11
 73
     7
 74
     5
 42
0.0000000001
 43
0.0000000001
 44
0.0000000001
 40
0.0
 40
0.0
 40
0.0
 40
0.0
 40
2.954182462135608
 40
6.038630764834215
 40
9.121777811304125
 40
12.20225590176119
 40
12.20225590176119
 40
12.20225590176119
 40
12.20225590176119
 10
22.144702911377
 20
-4.385007858276001
 30
0.0
 10
21.53753557549808
 20
-3.60264302825483
 30
0.0
 10
20.29642762064602
 20
-2.003414682530102
 30
0.0
 10
17.73053435153076
 20
-0.2906389791028829
 30
0.0
 10
14.86253298482893
 20
0.8961791708834386
 30
0.0
 10
12.83034918181169
 20
1.23672313524424
 30
0.0
 10
11.814697265625
 20
1.406921386718998
 30
0.0
 11
22.144702911377
 21
-4.385007858276001
 31
0.0
 11
20.213703155518
 21
-2.149290084839002
 31
0.0
 11
17.685703277588
 21
-0.3820781707760012
 31
0.0
 11
14.83149719238299
 21
0.7838134765629974
 31
0.0
 11
11.814697265625
 21
1.406921386718998
 31
0.0
  0
ELLIPSE
  5
329A
330
3283
100
AcDbEntity
  8
AM_0
100
AcDbEllipse
 10
8.45329284668
 20
-22.141523361206
 30
0.0
 11
-12.59962553203199
 21
15.766893832005
 31
0.0
210
0.0
220
0.0
230
1.0
 40
0.9789422224481999
 41
4.877696070355336
 42
5.575891767516575
  0
ELLIPSE
  5
329B
330
3283
100
AcDbEntity
  8
AM_0
100
AcDbEllipse
 10
12.080001831055
 20
0.0
 30
0.0
 11
-11.11390846699899
 21
8.890257686424002
 31
0.0
210
0.0
220
0.0
230
1.0
 40
0.3013603065437
 41
3.154309336326788
 42
3.872358369322887
  0
SPLINE
  5
329C
330
3283
100
AcDbEntity
  8
AM_0
100
AcDbSpline
210
0.0
220
0.0
230
1.0
 70
     8
 71
     3
 72
    11
 73
     7
 74
     5
 42
0.0000000001
 43
0.0000000001
 44
0.0000000001
 40
0.0
 40
0.0
 40
0.0
 40
0.0
 40
0.1144432779707226
 40
0.2295923089352429
 40
0.3451598680492758
 40
0.4605641788912872
 40
0.4605641788912872
 40
0.4605641788912872
 40
0.4605641788912872
 10
0.0
 20
9.286804199218998
 30
0.0
 10
0.0002467608870827
 20
9.325219655253972
 30
0.0
 10
0.000741804395315
 20
9.402287469163727
 30
0.0
 10
0.0424305635015805
 20
9.511797495795033
 30
0.0
 10
0.1132368908210581
 20
9.606131448551957
 30
0.0
 10
0.1801564157895944
 20
9.645534544715658
 30
0.0
 10
0.2135925292970029
 20
9.665222167968998
 30
0.0
 11
0.0
 21
9.286804199218998
 31
0.0
 11
0.0075073242190058
 21
9.401000976562997
 31
0.0
 11
0.0471954345699999
 21
9.509094238280994
 31
0.0
 11
0.1181945800779971
 21
9.600280761718998
 31
0.0
 11
0.2135925292970029
 21
9.665222167968998
 31
0.0
  0
SPLINE
  5
329D
330
3283
100
AcDbEntity
  8
AM_0
100
AcDbSpline
210
0.0
220
0.0
230
1.0
 70
     8
 71
     3
 72
    11
 73
     7
 74
     5
 42
0.0000000001
 43
0.0000000001
 44
0.0000000001
 40
0.0
 40
0.0
 40
0.0
 40
0.0
 40
2.178097001278012
 40
4.359141170068854
 40
6.543367293759883
 40
8.730670502728074
 40
8.730670502728074
 40
8.730670502728074
 40
8.730670502728074
 10
9.094497680664005
 20
9.886596679687997
 30
0.0
 10
8.368592013639402
 20
9.873027759013613
 30
0.0
 10
6.915798461811106
 20
9.845871557655083
 30
0.0
 10
4.735135583471414
 20
9.801049439170949
 30
0.0
 10
2.551465005116334
 20
9.753319542467259
 30
0.0
 10
1.094696104577304
 20
9.71884734978728
 30
0.0
 10
0.3657989501949999
 20
9.701599121093998
 30
0.0
 11
9.094497680664005
 21
9.886596679687997
 31
0.0
 11
6.916793823242002
 21
9.84521484375
 31
0.0
 11
4.736206054687997
 21
9.800598144530994
 31
0.0
 11
2.552505493164005
 21
9.752685546875
 31
0.0
 11
0.3657989501949999
 21
9.701599121093998
 31
0.0
  0
SPLINE
  5
329E
330
3283
100
AcDbEntity
  8
AM_0
100
AcDbSpline
210
0.0
220
0.0
230
1.0
 70
     8
 71
     3
 72
    11
 73
     7
 74
     5
 42
0.0000000001
 43
0.0000000001
 44
0.0000000001
 40
0.0
 40
0.0
 40
0.0
 40
0.0
 40
1.051158925013527
 40
2.102542869693457
 40
3.153852553276206
 40
4.205343209618391
 40
4.205343209618391
 40
4.205343209618391
 40
4.205343209618391
 10
0.7218017578129974
 20
4.004211425780994
 30
0.0
 10
0.6683902338751265
 20
4.350502884956871
 30
0.0
 10
0.5615557522922522
 20
5.043159933287232
 30
0.0
 10
0.4014974032681521
 20
6.082188215196927
 30
0.0
 10
0.2414875097641565
 20
7.121335835767622
 30
0.0
 10
0.1348303579123019
 20
7.814107045284988
 30
0.0
 10
0.0814971923829973
 20
8.160522460937997
 30
0.0
 11
0.7218017578129974
 21
4.004211425780994
 31
0.0
 11
0.5615997314449999
 21
5.043090820312997
 31
0.0
 11
0.4015045166020031
 21
6.082214355468998
 31
0.0
 11
0.2415008544920028
 21
7.121276855468998
 31
0.0
 11
0.0814971923829973
 21
8.160522460937997
 31
0.0
  0
SPLINE
  5
329F
330
3283
100
AcDbEntity
  8
AM_0
100
AcDbSpline
210
0.0
220
0.0
230
1.0
 70
     8
 71
     3
 72
    11
 73
     7
 74
     5
 42
0.0000000001
 43
0.0000000001
 44
0.0000000001
 40
0.0
 40
0.0
 40
0.0
 40
0.0
 40
0.1309630602387509
 40
0.2622571092300351
 40
0.3932400797015483
 40
0.5239586630714405
 40
0.5239586630714405
 40
0.5239586630714405
 40
0.5239586630714405
 10
0.9656066894529971
 20
3.551086425780994
 30
0.0
 10
0.9346218581926311
 20
3.582015488224727
 30
0.0
 10
0.8725738863331617
 20
3.643951781503925
 30
0.0
 10
0.8020946243457895
 20
3.755456223202945
 30
0.0
 10
0.7481350714500849
 20
3.875708645520981
 30
0.0
 10
0.7305736151354508
 20
3.961406024625862
 30
0.0
 10
0.7218017578129974
 20
4.004211425780994
 30
0.0
 11
0.9656066894529971
 21
3.551086425780994
 31
0.0
 11
0.8764038085940057
 21
3.64697265625
 31
0.0
 11
0.8047943115240059
 21
3.757019042968998
 31
0.0
 11
0.7527008056640057
 21
3.877197265625
 31
0.0
 11
0.7218017578129974
 21
4.004211425780994
 31
0.0
  0
SPLINE
  5
32A0
330
3283
100
AcDbEntity
  8
AM_0
100
AcDbSpline
210
0.0
220
0.0
230
1.0
 70
     8
 71
     3
 72
    11
 73
     7
 74
     5
 42
0.0000000001
 43
0.0000000001
 44
0.0000000001
 40
0.0
 40
0.0
 40
0.0
 40
0.0
 40
0.2466688550930566
 40
0.4944260795202543
 40
0.7421119142392956
 40
0.9881755426554734
 40
0.9881755426554734
 40
0.9881755426554734
 40
0.9881755426554734
 10
9.094497680664005
 20
9.886596679687997
 30
0.0
 10
9.177289759439302
 20
9.88218284619519
 30
0.0
 10
9.34323921790969
 20
9.87333570418904
 30
0.0
 10
9.571932780878984
 20
9.766917718573802
 30
0.0
 10
9.76476678922777
 20
9.604327615984342
 30
0.0
 10
9.841544025590847
 20
9.457140720230487
 30
0.0
 10
9.879806518555
 20
9.3837890625
 30
0.0
 11
9.094497680664005
 21
9.886596679687997
 31
0.0
 11
9.339492797852003
 21
9.85791015625
 31
0.0
 11
9.565994262694999
 21
9.757507324218998
 31
0.0
 11
9.752197265625
 21
9.594177246093998
 31
0.0
 11
9.879806518555
 21
9.3837890625
 31
0.0
  0
SPLINE
  5
32A1
330
3283
100
AcDbEntity
  8
AM_0
100
AcDbSpline
210
0.0
220
0.0
230
1.0
 70
     8
 71
     3
 72
    11
 73
     7
 74
     5
 42
0.0000000001
 43
0.0000000001
 44
0.0000000001
 40
0.0
 40
0.0
 40
0.0
 40
0.0
 40
0.0620330488507977
 40
0.1244971882319506
 40
0.1871590752671081
 40
0.2496297503532444
 40
0.2496297503532444
 40
0.2496297503532444
 40
0.2496297503532444
 10
0.7985992431640057
 20
9.032104492187997
 30
0.0
 10
0.7809477616962062
 20
9.021227430502284
 30
0.0
 10
0.7455221321071301
 20
8.999397718418425
 30
0.0
 10
0.7004357999574351
 20
8.955725977736578
 30
0.0
 10
0.6619560535834347
 20
8.905941060046734
 30
0.0
 10
0.6441760832293135
 20
8.868082489040022
 30
0.0
 10
0.6352996826170028
 20
8.849182128905994
 30
0.0
 11
0.7985992431640057
 21
9.032104492187997
 31
0.0
 11
0.7469940185550002
 21
8.997680664062997
 31
0.0
 11
0.7015991210940058
 21
8.954772949218998
 31
0.0
 11
0.6638946533199999
 21
8.904724121093998
 31
0.0
 11
0.6352996826170028
 21
8.849182128905994
 31
0.0
  0
SPLINE
  5
32A2
330
3283
100
AcDbEntity
  8
AM_0
100
AcDbSpline
210
0.0
220
0.0
230
1.0
 70
     8
 71
     3
 72
    11
 73
     7
 74
     5
 42
0.0000000001
 43
0.0000000001
 44
0.0000000001
 40
0.0
 40
0.0
 40
0.0
 40
0.0
 40
0.026547806721817
 40
0.0527893218779913
 40
0.0791478939950381
 40
0.1056666026542517
 40
0.1056666026542517
 40
0.1056666026542517
 40
0.1056666026542517
 10
0.6352996826170028
 20
8.849182128905994
 30
0.0
 10
0.6320997054500862
 20
8.840926614756625
 30
0.0
 10
0.6257366704002734
 20
8.824510833284886
 30
0.0
 10
0.6185611472033788
 20
8.799093316427937
 30
0.0
 10
0.612797436885316
 20
8.773330738815769
 30
0.0
 10
0.6105384377739151
 20
8.755841443128716
 30
0.0
 10
0.6094055175779971
 20
8.7470703125
 30
0.0
 11
0.6352996826170028
 21
8.849182128905994
 31
0.0
 11
0.6260986328129974
 21
8.824279785155994
 31
0.0
 11
0.6188049316410087
 21
8.799072265625
 31
0.0
 11
0.6132049560550002
 21
8.773315429687997
 31
0.0
 11
0.6094055175779971
 21
8.7470703125
 31
0.0
  0
SPLINE
  5
32A3
330
3283
100
AcDbEntity
  8
AM_0
100
AcDbSpline
210
0.0
220
0.0
230
1.0
 70
     8
 71
     3
 72
    11
 73
     7
 74
     5
 42
0.0000000001
 43
0.0000000001
 44
0.0000000001
 40
0.0
 40
0.0
 40
0.0
 40
0.0
 40
0.0484517877219817
 40
0.0965860701386781
 40
0.1448482956951248
 40
0.194066879275069
 40
0.194066879275069
 40
0.194066879275069
 40
0.194066879275069
 10
0.9844970703129973
 20
9.081481933593998
 30
0.0
 10
0.9683524990565764
 20
9.080576982788601
 30
0.0
 10
0.9361691521658668
 20
9.078773011334263
 30
0.0
 10
0.8887366175049644
 20
9.068967521034586
 30
0.0
 10
0.8424406891444425
 20
9.053894147767623
 30
0.0
 10
0.8133083284117285
 20
9.039415060858161
 30
0.0
 10
0.7985992431640057
 20
9.032104492187997
 30
0.0
 11
0.9844970703129973
 21
9.081481933593998
 31
0.0
 11
0.9362030029300001
 21
9.077575683593998
 31
0.0
 11
0.8890075683590055
 21
9.068115234375
 31
0.0
 11
0.8432006835940057
 21
9.052917480468998
 31
0.0
 11
0.7985992431640057
 21
9.032104492187997
 31
0.0
  0
SPLINE
  5
32A4
330
3283
100
AcDbEntity
  8
AM_0
100
AcDbSpline
210
0.0
220
0.0
230
1.0
 70
     8
 71
     3
 72
    11
 73
     7
 74
     5
 42
0.0000000001
 43
0.0000000001
 44
0.0000000001
 40
0.0
 40
0.0
 40
0.0
 40
0.0
 40
0.0523479929674949
 40
0.104460439255194
 40
0.1565331959120865
 40
0.2088478045623941
 40
0.2088478045623941
 40
0.2088478045623941
 40
0.2088478045623941
 10
0.91259765625
 20
4.481811523437997
 30
0.0
 10
0.9152444957648306
 20
4.464558258887757
 30
0.0
 10
0.9205262649919506
 20
4.430129363120479
 30
0.0
 10
0.9324116486127948
 20
4.379278136170809
 30
0.0
 10
0.9472510954352683
 20
4.32921399657467
 30
0.0
 10
0.9598751372069919
 20
4.296774770102408
 30
0.0
 10
0.966201782227003
 20
4.280517578125
 30
0.0
 11
0.91259765625
 21
4.481811523437997
 31
0.0
 11
0.9212036132810084
 21
4.43017578125
 31
0.0
 11
0.9329071044920027
 21
4.37939453125
 31
0.0
 11
0.9479064941410086
 21
4.329528808593998
 31
0.0
 11
0.966201782227003
 21
4.280517578125
 31
0.0
  0
SPLINE
  5
32A5
330
3283
100
AcDbEntity
  8
AM_0
100
AcDbSpline
210
0.0
220
0.0
230
1.0
 70
     8
 71
     3
 72
    11
 73
     7
 74
     5
 42
0.0000000001
 43
0.0000000001
 44
0.0000000001
 40
0.0
 40
0.0
 40
0.0
 40
0.0
 40
0.0436494217180941
 40
0.0872378212806206
 40
0.1308282078642168
 40
0.1744776295812884
 40
0.1744776295812884
 40
0.1744776295812884
 40
0.1744776295812884
 10
8.514205932617002
 20
9.202087402343998
 30
0.0
 10
8.514508645492295
 20
9.216634057522185
 30
0.0
 10
8.515113648048446
 20
9.245707031566634
 30
0.0
 10
8.51597380991045
 20
9.289308012121885
 30
0.0
 10
8.517030107987636
 20
9.332904734822484
 30
0.0
 10
8.517608945142942
 20
9.361978939378394
 30
0.0
 10
8.517898559569999
 20
9.376525878905994
 30
0.0
 11
8.514205932617002
 21
9.202087402343998
 31
0.0
 11
8.515106201172002
 21
9.245727539062997
 31
0.0
 11
8.516006469727003
 21
9.289306640625
 31
0.0
 11
8.516998291016008
 21
9.332885742187997
 31
0.0
 11
8.517898559569999
 21
9.376525878905994
 31
0.0
  0
SPLINE
  5
32A6
330
3283
100
AcDbEntity
  8
AM_0
100
AcDbSpline
210
0.0
220
0.0
230
1.0
 70
     8
 71
     3
 72
    11
 73
     7
 74
     5
 42
0.0000000001
 43
0.0000000001
 44
0.0000000001
 40
0.0
 40
0.0
 40
0.0
 40
0.0
 40
0.0866038970905603
 40
0.1718670953691157
 40
0.2565746628125192
 40
0.3419784541540674
 40
0.3419784541540674
 40
0.3419784541540674
 40
0.3419784541540674
 10
8.882095336914005
 20
9.355590820312997
 30
0.0
 10
8.854914515347326
 20
9.365396155541972
 30
0.0
 10
8.800973653453702
 20
9.384855031430225
 30
0.0
 10
8.717214533022159
 20
9.403156353507725
 30
0.0
 10
8.63243647059985
 20
9.413003756894212
 30
0.0
 10
8.575686534417608
 20
9.411880063943574
 30
0.0
 10
8.547195434569999
 20
9.411315917968998
 30
0.0
 11
8.882095336914005
 21
9.355590820312997
 31
0.0
 11
8.800003051757997
 21
9.383178710937997
 31
0.0
 11
8.716796875
 21
9.401794433593998
 31
0.0
 11
8.632598876952997
 21
9.411071777343998
 31
0.0
 11
8.547195434569999
 21
9.411315917968998
 31
0.0
  0
SPLINE
  5
32A7
330
3283
100
AcDbEntity
  8
AM_0
100
AcDbSpline
210
0.0
220
0.0
230
1.0
 70
     8
 71
     3
 72
    11
 73
     7
 74
     5
 42
0.0000000001
 43
0.0000000001
 44
0.0000000001
 40
0.0
 40
0.0
 40
0.0
 40
0.0
 40
0.0647900923089672
 40
0.1286785455383566
 40
0.1922690139355005
 40
0.2561594296076894
 40
0.2561594296076894
 40
0.2561594296076894
 40
0.2561594296076894
 10
8.76530456543
 20
9.160827636718998
 30
0.0
 10
8.744898991788607
 20
9.16795846585137
 30
0.0
 10
8.704371814816411
 20
9.182120889279632
 30
0.0
 10
8.641559482302833
 20
9.195549859958751
 30
0.0
 10
8.578050434766243
 20
9.202995445140851
 30
0.0
 10
8.535520789056858
 20
9.202390557685566
 30
0.0
 10
8.514205932617002
 20
9.202087402343998
 30
0.0
 11
8.76530456543
 21
9.160827636718998
 31
0.0
 11
8.703704833984005
 21
9.180908203125
 31
0.0
 11
8.641296386719005
 21
9.194580078125
 31
0.0
 11
8.578094482422002
 21
9.201599121093998
 31
0.0
 11
8.514205932617002
 21
9.202087402343998
 31
0.0
  0
SPLINE
  5
32A8
330
3283
100
AcDbEntity
  8
AM_0
100
AcDbSpline
210
0.0
220
0.0
230
1.0
 70
     8
 71
     3
 72
    11
 73
     7
 74
     5
 42
0.0000000001
 43
0.0000000001
 44
0.0000000001
 40
0.0
 40
0.0
 40
0.0
 40
0.0
 40
0.0937029514367497
 40
0.1857291232019152
 40
0.2771678861344367
 40
0.3695797537117454
 40
0.3695797537117454
 40
0.3695797537117454
 40
0.3695797537117454
 10
9.178894042969005
 20
9.140991210937997
 30
0.0
 10
9.157783030992915
 20
9.164066532130577
 30
0.0
 10
9.115938780794763
 20
9.209804250174533
 30
0.0
 10
9.043795450435897
 20
9.26796909475216
 30
0.0
 10
8.966319699119544
 20
9.318047573750288
 30
0.0
 10
8.910269014705287
 20
9.343032324122603
 30
0.0
 10
8.882095336914005
 20
9.355590820312997
 30
0.0
 11
9.178894042969005
 21
9.140991210937997
 31
0.0
 11
9.113906860352003
 21
9.20849609375
 31
0.0
 11
9.042694091797002
 21
9.266784667968998
 31
0.0
 11
8.96549987793
 21
9.315795898437997
 31
0.0
 11
8.882095336914005
 21
9.355590820312997
 31
0.0
  0
SPLINE
  5
32A9
330
3283
100
AcDbEntity
  8
AM_0
100
AcDbSpline
210
0.0
220
0.0
230
1.0
 70
     8
 71
     3
 72
    11
 73
     7
 74
     5
 42
0.0000000001
 43
0.0000000001
 44
0.0000000001
 40
0.0
 40
0.0
 40
0.0
 40
0.0
 40
1.064184972689308
 40
2.136998043422624
 40
3.209537556956676
 40
4.273216780131171
 40
4.273216780131171
 40
4.273216780131171
 40
4.273216780131171
 10
5.122299194336008
 20
-8.007383346557002
 30
0.0
 10
4.763476523513126
 20
-7.903216196295241
 30
0.0
 10
4.042921953430836
 20
-7.69403733922517
 30
0.0
 10
3.642495065517394
 20
-6.541143219642071
 30
0.0
 10
4.142606328490538
 20
-5.428404249952681
 30
0.0
 10
4.878223694890544
 20
-5.282653976524591
 30
0.0
 10
5.244506835937997
 20
-5.210081100464002
 30
0.0
 11
5.122299194336008
 21
-8.007383346557002
 31
0.0
 11
4.158401489257997
 21
-7.556394577026001
 31
0.0
 11
3.792999267577997
 21
-6.547727584839002
 31
0.0
 11
4.245498657227003
 21
-5.575315475464002
 31
0.0
 11
5.244506835937997
 21
-5.210081100464002
 31
0.0
  0
SPLINE
  5
32AA
330
3283
100
AcDbEntity
  8
AM_0
100
AcDbSpline
210
0.0
220
0.0
230
1.0
 70
     8
 71
     3
 72
    11
 73
     7
 74
     5
 42
0.0000000001
 43
0.0000000001
 44
0.0000000001
 40
0.0
 40
0.0
 40
0.0
 40
0.0
 40
1.330733811582871
 40
2.672378458009132
 40
4.009807455976297
 40
5.351227999198989
 40
5.351227999198989
 40
5.351227999198989
 40
5.351227999198989
 10
5.280700683594005
 20
-8.364683151245003
 30
0.0
 10
5.738217827546719
 20
-8.272970168408047
 30
0.0
 10
6.657003349509802
 20
-8.088792237765616
 30
0.0
 10
7.289781424800734
 20
-6.703653963521224
 30
0.0
 10
6.792417242475945
 20
-5.256080608046328
 30
0.0
 10
5.886852441868604
 20
-4.997474678661048
 30
0.0
 10
5.433395385742002
 20
-4.867979049682002
 30
0.0
 11
5.280700683594005
 21
-8.364683151245003
 31
0.0
 11
6.529998779297002
 21
-7.906309127807002
 31
0.0
 11
7.101303100586008
 21
-6.692380905151001
 31
0.0
 11
6.649795532227003
 21
-5.433469772339002
 31
0.0
 11
5.433395385742002
 21
-4.867979049682002
 31
0.0
  0
SPLINE
  5
32AB
330
3283
100
AcDbEntity
  8
AM_0
100
AcDbSpline
210
0.0
220
0.0
230
1.0
 70
     8
 71
     3
 72
    11
 73
     7
 74
     5
 42
0.0000000001
 43
0.0000000001
 44
0.0000000001
 40
0.0
 40
0.0
 40
0.0
 40
0.0
 40
1.341547238370675
 40
2.678136656299494
 40
4.020220437993414
 40
5.34750216461076
 40
5.34750216461076
 40
5.34750216461076
 40
5.34750216461076
 10
5.433395385742002
 20
-4.867979049682002
 30
0.0
 10
4.970258153439038
 20
-4.957800721487352
 30
0.0
 10
4.045695258259831
 20
-5.137112120230319
 30
0.0
 10
3.427280042678502
 20
-6.536763042366382
 30
0.0
 10
3.935959976361063
 20
-7.970302548313836
 30
0.0
 10
4.834113916528322
 20
-8.233709828648963
 30
0.0
 10
5.280700683594005
 20
-8.364683151245003
 30
0.0
 11
5.433395385742002
 21
-4.867979049682002
 31
0.0
 11
4.172607421875
 21
-5.326414108276001
 31
0.0
 11
3.61540222168
 21
-6.541318893432002
 31
0.0
 11
4.079193115234005
 21
-7.800718307495003
 31
0.0
 11
5.280700683594005
 21
-8.364683151245003
 31
0.0
  0
SPLINE
  5
32AC
330
3283
100
AcDbEntity
  8
AM_0
100
AcDbSpline
210
0.0
220
0.0
230
1.0
 70
     8
 71
     3
 72
    11
 73
     7
 74
     5
 42
0.0000000001
 43
0.0000000001
 44
0.0000000001
 40
0.0
 40
0.0
 40
0.0
 40
0.0
 40
2.223036226566461
 40
4.445480845699622
 40
6.667370139040392
 40
8.888694371075857
 40
8.888694371075857
 40
8.888694371075857
 40
8.888694371075857
 10
10.42570495605499
 20
-3.534482955932002
 30
0.0
 10
9.684906179757133
 20
-3.516698698404035
 30
0.0
 10
8.203505772874725
 20
-3.481134916198975
 30
0.0
 10
5.981594145111579
 20
-3.431871043348013
 30
0.0
 10
3.760195789090358
 20
-3.385277804961335
 30
0.0
 10
2.279397835074847
 20
-3.356817011617322
 30
0.0
 10
1.539093017577997
 20
-3.342588424682002
 30
0.0
 11
10.42570495605499
 21
-3.534482955932002
 31
0.0
 11
8.20329284668
 21
-3.481809616089002
 31
0.0
 11
5.981399536132997
 21
-3.432310104370003
 31
0.0
 11
3.759994506836008
 21
-3.385923385620003
 31
0.0
 11
1.539093017577997
 21
-3.342588424682002
 31
0.0
  0
SPLINE
  5
32AD
330
3283
100
AcDbEntity
  8
AM_0
100
AcDbSpline
210
0.0
220
0.0
230
1.0
 70
     8
 71
     3
 72
    11
 73
     7
 74
     5
 42
0.0000000001
 43
0.0000000001
 44
0.0000000001
 40
0.0
 40
0.0
 40
0.0
 40
0.0
 40
0.2882893054633058
 40
0.5748929368560989
 40
0.8599187322546617
 40
1.143945313782392
 40
1.143945313782392
 40
1.143945313782392
 40
1.143945313782392
 10
1.539093017577997
 20
-3.342588424682002
 30
0.0
 10
1.442112115865803
 20
-3.349116585169648
 30
0.0
 10
1.248717375416883
 20
-3.362134734937567
 30
0.0
 10
0.9924065108229381
 20
-3.507269134264432
 30
0.0
 10
0.796104009629619
 20
-3.726010142869656
 30
0.0
 10
0.7465401649371547
 20
-3.91158501182441
 30
0.0
 10
0.7218017578129974
 20
-4.004209518432002
 30
0.0
 11
1.539093017577997
 21
-3.342588424682002
 31
0.0
 11
1.253692626952997
 21
-3.383298873901001
 31
0.0
 11
1.001800537109005
 21
-3.520017623901001
 31
0.0
 11
0.8161926269529971
 21
-3.736326217651001
 31
0.0
 11
0.7218017578129974
 21
-4.004209518432002
 31
0.0
  0
SPLINE
  5
32AE
330
3283
100
AcDbEntity
  8
AM_0
100
AcDbSpline
210
0.0
220
0.0
230
1.0
 70
     8
 71
     3
 72
    11
 73
     7
 74
     5
 42
0.0000000001
 43
0.0000000001
 44
0.0000000001
 40
0.0
 40
0.0
 40
0.0
 40
0.0
 40
1.051158925013523
 40
2.102542869693453
 40
3.153852553276203
 40
4.205343209618387
 40
4.205343209618387
 40
4.205343209618387
 40
4.205343209618387
 10
0.7218017578129974
 20
-4.004209518432002
 30
0.0
 10
0.6683902338751267
 20
-4.350500977607879
 30
0.0
 10
0.5615557522922519
 20
-5.043158025938238
 30
0.0
 10
0.4014974032681523
 20
-6.082186307847932
 30
0.0
 10
0.2414875097641565
 20
-7.121333928418629
 30
0.0
 10
0.1348303579123019
 20
-7.814105137935992
 30
0.0
 10
0.0814971923829973
 20
-8.160520553589002
 30
0.0
 11
0.7218017578129974
 21
-4.004209518432002
 31
0.0
 11
0.5615997314449999
 21
-5.043088912964002
 31
0.0
 11
0.4015045166020031
 21
-6.082212448120003
 31
0.0
 11
0.2415008544920028
 21
-7.121274948120003
 31
0.0
 11
0.0814971923829973
 21
-8.160520553589002
 31
0.0
  0
SPLINE
  5
32AF
330
3283
100
AcDbEntity
  8
AM_0
100
AcDbSpline
210
0.0
220
0.0
230
1.0
 70
     8
 71
     3
 72
    11
 73
     7
 74
     5
 42
0.0000000001
 43
0.0000000001
 44
0.0000000001
 40
0.0
 40
0.0
 40
0.0
 40
0.0
 40
0.1144432779707226
 40
0.2295923089352462
 40
0.3451598680492763
 40
0.4605641788912875
 40
0.4605641788912875
 40
0.4605641788912875
 40
0.4605641788912875
 10
0.0
 20
-9.286802291870003
 30
0.0
 10
0.0002467608870829
 20
-9.325217747904977
 30
0.0
 10
0.0007418043953156
 20
-9.402285561814734
 30
0.0
 10
0.0424305635015785
 20
-9.511795588446039
 30
0.0
 10
0.1132368908210595
 20
-9.606129541202962
 30
0.0
 10
0.1801564157895946
 20
-9.645532637366665
 30
0.0
 10
0.2135925292970029
 20
-9.665220260620003
 30
0.0
 11
0.0
 21
-9.286802291870003
 31
0.0
 11
0.0075073242190058
 21
-9.400999069214002
 31
0.0
 11
0.0471954345699999
 21
-9.509092330932002
 31
0.0
 11
0.1181945800779971
 21
-9.600278854370003
 31
0.0
 11
0.2135925292970029
 21
-9.665220260620003
 31
0.0
  0
SPLINE
  5
32B0
330
3283
100
AcDbEntity
  8
AM_0
100
AcDbSpline
210
0.0
220
0.0
230
1.0
 70
     8
 71
     3
 72
    11
 73
     7
 74
     5
 42
0.0000000001
 43
0.0000000001
 44
0.0000000001
 40
0.0
 40
0.0
 40
0.0
 40
0.0
 40
2.178097001278012
 40
4.359141170068854
 40
6.543367293759883
 40
8.730670502728074
 40
8.730670502728074
 40
8.730670502728074
 40
8.730670502728074
 10
9.094497680664005
 20
-9.886594772339002
 30
0.0
 10
8.368592013639402
 20
-9.873025851664614
 30
0.0
 10
6.915798461811106
 20
-9.845869650306079
 30
0.0
 10
4.735135583471414
 20
-9.801047531821961
 30
0.0
 10
2.551465005116334
 20
-9.753317635118257
 30
0.0
 10
1.094696104577304
 20
-9.718845442438281
 30
0.0
 10
0.3657989501949999
 20
-9.701597213745003
 30
0.0
 11
9.094497680664005
 21
-9.886594772339002
 31
0.0
 11
6.916793823242002
 21
-9.845212936401001
 31
0.0
 11
4.736206054687997
 21
-9.800596237182002
 31
0.0
 11
2.552505493164005
 21
-9.752683639526001
 31
0.0
 11
0.3657989501949999
 21
-9.701597213745003
 31
0.0
  0
SPLINE
  5
32B1
330
3283
100
AcDbEntity
  8
AM_0
100
AcDbSpline
210
0.0
220
0.0
230
1.0
 70
     8
 71
     3
 72
    11
 73
     7
 74
     5
 42
0.0000000001
 43
0.0000000001
 44
0.0000000001
 40
0.0
 40
0.0
 40
0.0
 40
0.0
 40
0.2877001883214205
 40
0.5765419899621194
 40
0.8648607243077336
 40
1.150992527798941
 40
1.150992527798941
 40
1.150992527798941
 40
1.150992527798941
 10
9.094497680664005
 20
-9.886594772339002
 30
0.0
 10
9.191254206503199
 20
-9.87994953506279
 30
0.0
 10
9.385151194456605
 20
-9.866632691770645
 30
0.0
 10
9.643095011819976
 20
-9.721505887817667
 30
0.0
 10
9.844153498676458
 20
-9.504196647457515
 30
0.0
 10
9.898722627918298
 20
-9.318218897074132
 30
0.0
 10
9.925903320312997
 20
-9.225584030151001
 30
0.0
 11
9.094497680664005
 21
-9.886594772339002
 31
0.0
 11
9.379302978516008
 21
-9.845884323120003
 31
0.0
 11
9.633804321289005
 21
-9.709287643432002
 31
0.0
 11
9.82470703125
 21
-9.493223190307002
 31
0.0
 11
9.925903320312997
 21
-9.225584030151001
 31
0.0
  0
SPLINE
  5
32B2
330
3283
100
AcDbEntity
  8
AM_0
100
AcDbSpline
210
0.0
220
0.0
230
1.0
 70
     8
 71
     3
 72
    11
 73
     7
 74
     5
 42
0.0000000001
 43
0.0000000001
 44
0.0000000001
 40
0.0
 40
0.0
 40
0.0
 40
0.0
 40
1.054512467253982
 40
2.108987052099393
 40
3.163685694577378
 40
4.218409295057902
 40
4.218409295057902
 40
4.218409295057902
 40
4.218409295057902
 10
9.925903320312997
 20
-9.225584030151001
 30
0.0
 10
9.988287633862729
 20
-8.879660092975694
 30
0.0
 10
10.11305401986203
 20
-8.187824645630289
 30
0.0
 10
10.29991770981607
 20
-7.149950485183598
 30
0.0
 10
10.48674444429831
 20
-6.111998163442217
 30
0.0
 10
10.61111036920228
 20
-5.419943228450882
 30
0.0
 10
10.67329406738299
 20
-5.073911666870003
 30
0.0
 11
9.925903320312997
 21
-9.225584030151001
 31
0.0
 11
10.113006591797
 21
-8.187803268432002
 31
0.0
 11
10.299896240234
 21
-7.150022506714002
 31
0.0
 11
10.48669433593799
 21
-6.111997604370003
 31
0.0
 11
10.67329406738299
 21
-5.073911666870003
 31
0.0
  0
SPLINE
  5
32B3
330
3283
100
AcDbEntity
  8
AM_0
100
AcDbSpline
210
0.0
220
0.0
230
1.0
 70
     8
 71
     3
 72
    11
 73
     7
 74
     5
 42
0.0000000001
 43
0.0000000001
 44
0.0000000001
 40
0.0
 40
0.0
 40
0.0
 40
0.0
 40
0.1141104930345906
 40
0.2283106996805336
 40
0.3426769523828969
 40
0.4571401500833074
 40
0.4571401500833074
 40
0.4571401500833074
 40
0.4571401500833074
 10
10.783203125
 20
-3.948911666870003
 30
0.0
 10
10.78392771372402
 20
-3.910607767451817
 30
0.0
 10
10.78537746084337
 20
-3.833969854109284
 30
0.0
 10
10.74625473405592
 20
-3.724337905644056
 30
0.0
 10
10.67720547007088
 20
-3.629837896135431
 30
0.0
 10
10.61100858370507
 20
-3.590565474188501
 30
0.0
 10
10.577896118164
 20
-3.570920944214002
 30
0.0
 11
10.783203125
 21
-3.948911666870003
 31
0.0
 11
10.778503417969
 21
-3.834897994995003
 31
0.0
 11
10.741302490234
 21
-3.726926803589002
 31
0.0
 11
10.67219543456999
 21
-3.635801315307002
 31
0.0
 11
10.577896118164
 21
-3.570920944214002
 31
0.0
  0
LWPOLYLINE
  5
32B4
330
3283
100
AcDbEntity
  8
AM_11
100
AcDbPolyline
 90
        4
 70
     1
 43
0.0
 10
0.0
 20
10.0
 10
9.0
 20
10.0
 10
9.0
 20
-9.999998092651001
 10
0.0
 20
-9.999998092651001
1001
GENIUS_GENREC_14
1002
{
1000
PYDIR
1011
0.0
1021
-9.999998092651001
1031
0.0
1002
}
1002
{
1000
PXDIR
1011
9.0
1021
10.0
1031
0.0
1002
}
1002
{
1000
PORI
1011
0.0
1021
10.0
1031
0.0
1002
}
1002
{
1000
PINS
1011
0.0
1021
10.0
1031
0.0
1002
}
1002
{
1000
PINS2
1011
9.0
1021
-9.999998092651001
1031
0.0
1002
}
1002
{
1000
C
1070
     1
1002
}
1001
GENIUS_GENODEF_13
1002
{
1000
HIER
1070
     0
1002
}
1002
{
1000
MANEDIT
1070
     0
1002
}
1002
{
1000
NOSEL
1070
     0
1002
}
1002
{
1000
BEHIND
1070
     0
1002
}
1002
{
1000
REACTOR
1002
}
1001
GENIUS_GENOBJ-N-REC_13
1002
{
1000
OWNER
1000
GEN
1002
}
  0
LINE
  5
32B5
330
3283
100
AcDbEntity
  8
AM_0
100
AcDbLine
 10
0.972305297852003
 20
1.060466766357997
 30
0.0
 11
1.17399597168
 21
-1.804695129394001
 31
0.0
  0
LINE
  5
32B6
330
3283
100
AcDbEntity
  8
AM_0
100
AcDbLine
 10
30.000003814697
 20
9.5
 30
0.0
 11
30.000003814697
 21
-9.499998092651001
 31
0.0
  0
LINE
  5
32B7
330
3283
100
AcDbEntity
  8
AM_0
100
AcDbLine
 10
30.86600112915
 20
10.0
 30
0.0
 11
30.86600112915
 21
-9.999998092651001
 31
0.0
  0
LINE
  5
32B8
330
3283
100
AcDbEntity
  8
AM_0
100
AcDbLine
 10
0.3658065795900001
 20
-9.701593399048004
 30
0.0
 11
0.2136001586920031
 21
-9.665216445923004
 31
0.0
  0
LINE
  5
32B9
330
3283
100
AcDbEntity
  8
AM_0
100
AcDbLine
 10
0.2136077880860085
 20
-9.665214538574002
 30
0.0
 11
0.3649978637700002
 21
-9.701463699341001
 31
0.0
  0
LINE
  5
32BA
330
3283
100
AcDbEntity
  8
AM_0
100
AcDbLine
 10
0.0815048217770027
 20
-8.160507202148004
 30
0.0
 11
0.0000076293950002
 21
-9.286804199219002
 31
0.0
  0
ARC
  5
32BB
330
3283
100
AcDbEntity
  8
AM_0
100
AcDbCircle
 10
5.205307006836008
 20
-6.520505905151001
 30
0.0
 40
1.2500885725021
100
AcDbArc
 50
87.50128707965728
 51
267.5010803527499
  0
ARC
  5
32BC
330
3283
100
AcDbEntity
  8
AM_0
100
AcDbCircle
 10
5.205307006836008
 20
-6.520505905151001
 30
0.0
 40
1.2499886751175
100
AcDbArc
 50
267.5010908254038
 51
87.50128707965728
  0
ARC
  5
32BD
330
3283
100
AcDbEntity
  8
AM_0
100
AcDbCircle
 10
5.121398925781008
 20
-6.606077194214002
 30
0.0
 40
1.399960398673999
100
AcDbArc
 50
268.5305710880514
 51
86.18293079625086
  0
ARC
  5
32BE
330
3283
100
AcDbEntity
  8
AM_0
100
AcDbCircle
 10
5.252899169922002
 20
-6.611814498901001
 30
0.0
 40
1.749966859817499
100
AcDbArc
 50
268.3037678264732
 51
86.53068304765378
  0
LINE
  5
32BF
330
3283
100
AcDbEntity
  8
AM_0
100
AcDbLine
 10
6.073486328125
 20
-3.203073501587002
 30
0.0
 11
6.107681274414005
 21
-3.127939224243004
 31
0.0
  0
LINE
  5
32C0
330
3283
100
AcDbEntity
  8
AM_0
100
AcDbLine
 10
3.119789123534999
 20
-2.997476577759002
 30
0.0
 11
6.107696533202997
 21
-3.127969741821001
 31
0.0
  0
LINE
  5
32C1
330
3283
100
AcDbEntity
  8
AM_0
100
AcDbLine
 10
6.107688903809005
 20
-3.127956390381001
 30
0.0
 11
6.094398498534999
 21
-3.434797286987002
 31
0.0
  0
LINE
  5
32C2
330
3283
100
AcDbEntity
  8
AM_0
100
AcDbLine
 10
8.905601501465
 20
-2.142192840576001
 30
0.0
 11
1.17399597168
 21
-1.804668426514002
 31
0.0
  0
LINE
  5
32C3
330
3283
100
AcDbEntity
  8
AM_0
100
AcDbLine
 10
3.103370666504005
 20
-3.374151229858004
 30
0.0
 11
3.119773864746008
 21
-2.997493743896001
 31
0.0
  0
LINE
  5
32C4
330
3283
100
AcDbEntity
  8
AM_0
100
AcDbLine
 10
1.198188781737997
 20
-3.414171218872002
 30
0.0
 11
1.232795715332002
 21
-2.607969284057002
 31
0.0
  0
LINE
  5
32C5
330
3283
100
AcDbEntity
  8
AM_0
100
AcDbLine
 10
0.972305297852003
 20
-3.603574752807002
 30
0.0
 11
0.972305297852003
 21
-1.060483932495003
 31
0.0
  0
LINE
  5
32C6
330
3283
100
AcDbEntity
  8
AM_0
100
AcDbLine
 10
0.9723281860349999
 20
-1.060472488403004
 30
0.0
 11
1.055717468262002
 21
-0.0001487731930041
 31
0.0
  0
ARC
  5
32C7
330
3283
100
AcDbEntity
  8
AM_0
100
AcDbCircle
 10
9.69189453125
 20
-4.378721237182002
 30
0.0
 40
1.497893333435099
100
AcDbArc
 50
309.9138061747598
 51
86.204473212891
  0
ARC
  5
32C8
330
3283
100
AcDbEntity
  8
AM_0
100
AcDbCircle
 10
9.848693847656008
 20
-4.385496139526001
 30
0.0
 40
1.4993606805801
100
AcDbArc
 50
109.8247631742222
 51
129.9108673721789
  0
LINE
  5
32C9
330
3283
100
AcDbEntity
  8
AM_0
100
AcDbLine
 10
8.584083557129005
 20
-3.492101669311001
 30
0.0
 11
8.887672424317003
 21
-3.236543655395003
 31
0.0
  0
ARC
  5
32CA
330
3283
100
AcDbEntity
  8
AM_0
100
AcDbCircle
 10
9.848693847656008
 20
-4.385496139526001
 30
0.0
 40
1.497893333435099
100
AcDbArc
 50
309.9138061747598
 51
56.96731913098851
  0
LINE
  5
32CB
330
3283
100
AcDbEntity
  8
AM_0
100
AcDbLine
 10
10.652992248535
 20
-5.527576446533004
 30
0.0
 11
10.580795288086
 21
-5.588359832764002
 31
0.0
  0
LINE
  5
32CC
330
3283
100
AcDbEntity
  8
AM_0
100
AcDbLine
 10
10.809791564942
 20
-5.534448623657002
 30
0.0
 11
10.551399230957
 21
-5.751914978027002
 31
0.0
  0
LINE
  5
32CD
330
3283
100
AcDbEntity
  8
AM_0
100
AcDbLine
 10
10.673278808594
 20
-5.073909759521001
 30
0.0
 11
10.783195495606
 21
-3.948894500732002
 31
0.0
  0
LINE
  5
32CE
330
3283
100
AcDbEntity
  8
AM_0
100
AcDbLine
 10
10.425689697266
 20
-3.534425735474002
 30
0.0
 11
10.57788085937499
 21
-3.570863723755003
 31
0.0
  0
LINE
  5
32CF
330
3283
100
AcDbEntity
  8
AM_0
100
AcDbLine
 10
10.57791137695299
 20
-3.570980072021001
 30
0.0
 11
10.426498413086
 21
-3.534540176391001
 31
0.0
  0
LINE
  5
32D0
330
3283
100
AcDbEntity
  8
AM_0
100
AcDbLine
 10
23.22721862793
 20
-8.846775054932003
 30
0.0
 11
21.603729248047
 21
-7.380176544189001
 31
0.0
  0
LINE
  5
32D1
330
3283
100
AcDbEntity
  8
AM_0
100
AcDbLine
 10
23.683002471924
 20
-9.499998092651001
 30
0.0
 11
30.000003814697
 21
-9.499998092651001
 31
0.0
  0
LINE
  5
32D2
330
3283
100
AcDbEntity
  8
AM_0
100
AcDbLine
 10
30.000011444092
 20
-9.500026702881001
 30
0.0
 11
30.86600112915
 21
-10.000022888183
 31
0.0
  0
LINE
  5
32D3
330
3283
100
AcDbEntity
  8
AM_0
100
AcDbLine
 10
0.2135925292970029
 20
9.665222167968998
 30
0.0
 11
0.3650054931640057
 21
9.701477050780994
 31
0.0
  0
LINE
  5
32D4
330
3283
100
AcDbEntity
  8
AM_0
100
AcDbLine
 10
0.0814819335940058
 20
8.160564422607997
 30
0.0
 11
0.73477935791
 21
5.774002075194999
 31
0.0
  0
LINE
  5
32D5
330
3283
100
AcDbEntity
  8
AM_0
100
AcDbLine
 10
0.0814895629879971
 20
8.160560607909999
 30
0.0
 11
-0.0000076293939912
 21
9.286827087401995
 31
0.0
  0
LINE
  5
32D6
330
3283
100
AcDbEntity
  8
AM_0
100
AcDbLine
 10
1.028999328612997
 20
9.08304977417
 30
0.0
 11
8.521697998047002
 21
9.410137176513998
 31
0.0
  0
LINE
  5
32D7
330
3283
100
AcDbEntity
  8
AM_0
100
AcDbLine
 10
8.882110595702997
 20
9.355590820312997
 30
0.0
 11
8.765312194824005
 21
9.16081237793
 31
0.0
  0
LINE
  5
32D8
330
3283
100
AcDbEntity
  8
AM_0
100
AcDbLine
 10
11.814697265625
 20
9.495727539062997
 30
0.0
 11
11.814697265625
 21
1.406921386718998
 31
0.0
  0
LINE
  5
32D9
330
3283
100
AcDbEntity
  8
AM_0
100
AcDbLine
 10
9.556777954102003
 20
1.46305847168
 30
0.0
 11
1.163185119629005
 21
1.175216674805
 31
0.0
  0
LINE
  5
32DA
330
3283
100
AcDbEntity
  8
AM_0
100
AcDbLine
 10
8.514221191406008
 20
9.201148986816996
 30
0.0
 11
1.024604797362997
 21
8.874183654784999
 31
0.0
  0
LINE
  5
32DB
330
3283
100
AcDbEntity
  8
AM_0
100
AcDbLine
 10
0.7556076049810088
 20
5.631278991698998
 30
0.0
 11
0.9082107543950002
 21
4.514892578125
 31
0.0
  0
LINE
  5
32DC
330
3283
100
AcDbEntity
  8
AM_0
100
AcDbLine
 10
0.972305297852003
 20
8.516418457030994
 30
0.0
 11
0.972305297852003
 21
1.060485839843998
 31
0.0
  0
LINE
  5
32DD
330
3283
100
AcDbEntity
  8
AM_0
100
AcDbLine
 10
1.163192749024005
 20
8.728820800780994
 30
0.0
 11
1.163192749024005
 21
1.175170898437997
 31
0.0
  0
LINE
  5
32DE
330
3283
100
AcDbEntity
  8
AM_0
100
AcDbLine
 10
1.163162231444999
 20
1.175163269042997
 30
0.0
 11
0.9722824096679971
 21
1.060482025146995
 31
0.0
  0
LINE
  5
32DF
330
3283
100
AcDbEntity
  8
AM_0
100
AcDbLine
 10
0.966201782227003
 20
4.280509948730994
 30
0.0
 11
0.9710998535160086
 21
4.268665313720994
 31
0.0
  0
LINE
  5
32E0
330
3283
100
AcDbEntity
  8
AM_0
100
AcDbLine
 10
0.908203125
 20
4.514896392821995
 30
0.0
 11
0.91259765625
 21
4.481800079345994
 31
0.0
  0
LINE
  5
32E1
330
3283
100
AcDbEntity
  8
AM_0
100
AcDbLine
 10
0.9661941528320028
 20
4.280563354491995
 30
0.0
 11
0.9722976684570028
 21
4.282821655273998
 31
0.0
  0
LINE
  5
32E2
330
3283
100
AcDbEntity
  8
AM_0
100
AcDbLine
 10
0.908203125
 20
4.514926910400994
 30
0.0
 11
0.972305297852003
 21
4.517734527587997
 31
0.0
  0
ARC
  5
32E3
330
3283
100
AcDbEntity
  8
AM_0
100
AcDbCircle
 10
1.034606933594005
 20
8.645812988280994
 30
0.0
 40
0.2286188155413
100
AcDbArc
 50
92.50696879781854
 51
123.0501472565803
  0
ARC
  5
32E4
330
3283
100
AcDbEntity
  8
AM_0
100
AcDbCircle
 10
1.020492553711008
 20
8.667419433593998
 30
0.0
 40
0.2026727944613
100
AcDbArc
 50
123.0392735954196
 51
155.6521564670437
  0
ARC
  5
32E5
330
3283
100
AcDbEntity
  8
AM_0
100
AcDbCircle
 10
1.048904418944999
 20
8.654602050780994
 30
0.0
 40
0.2334432005882
100
AcDbArc
 50
155.6636994867445
 51
168.5793003392896
  0
ARC
  5
32E6
330
3283
100
AcDbEntity
  8
AM_0
100
AcDbCircle
 10
1.019104003906008
 20
8.660583496093998
 30
0.0
 40
0.2029217779636
100
AcDbArc
 50
168.5737815464438
 51
182.4858796781371
  0
LINE
  5
32E7
330
3283
100
AcDbEntity
  8
AM_0
100
AcDbLine
 10
1.163162231444999
 20
8.728836059569999
 30
0.0
 11
0.9722671508790057
 21
8.516426086425994
 31
0.0
  0
LINE
  5
32E8
330
3283
100
AcDbEntity
  8
AM_0
100
AcDbLine
 10
0.6094055175779971
 20
8.747097015380994
 30
0.0
 11
0.6077041625979973
 21
8.678634643555
 31
0.0
  0
LINE
  5
32E9
330
3283
100
AcDbEntity
  8
AM_0
100
AcDbLine
 10
0.6077346801760087
 20
8.678592681885
 30
0.0
 11
0.609535217285
 21
8.642749786376995
 31
0.0
  0
LINE
  5
32EA
330
3283
100
AcDbEntity
  8
AM_0
100
AcDbLine
 10
1.029014587402002
 20
9.083030700683998
 30
0.0
 11
0.9844970703129973
 21
9.081504821776995
 31
0.0
  0
LINE
  5
32EB
330
3283
100
AcDbEntity
  8
AM_0
100
AcDbLine
 10
0.6094894409179972
 20
8.642757415771995
 30
0.0
 11
0.7347946166990056
 21
5.773971557616995
 31
0.0
  0
LINE
  5
32EC
330
3283
100
AcDbEntity
  8
AM_0
100
AcDbLine
 10
0.7348022460940058
 20
5.773960113525994
 30
0.0
 11
0.7555999755860086
 21
5.631301879882997
 31
0.0
  0
LINE
  5
32ED
330
3283
100
AcDbEntity
  8
AM_0
100
AcDbLine
 10
0.7555999755860086
 20
5.631301879882997
 30
0.0
 11
0.9479064941410086
 21
5.639724731444999
 31
0.0
  0
LINE
  5
32EE
330
3283
100
AcDbEntity
  8
AM_0
100
AcDbLine
 10
0.9479217529300001
 20
5.639705657958998
 30
0.0
 11
0.8164215087890056
 21
8.651790618896995
 31
0.0
  0
LINE
  5
32EF
330
3283
100
AcDbEntity
  8
AM_0
100
AcDbLine
 10
0.9722976684570028
 20
5.461383819579999
 30
0.0
 11
0.9478988647460084
 21
5.639778137206995
 31
0.0
  0
ARC
  5
32F0
330
3283
100
AcDbEntity
  8
AM_0
100
AcDbCircle
 10
5.205307006836008
 20
6.5205078125
 30
0.0
 40
1.2499597072601
100
AcDbArc
 50
95.35711111581726
 51
262.3632481345235
  0
LINE
  5
32F1
330
3283
100
AcDbEntity
  8
AM_0
100
AcDbLine
 10
11.814697265625
 20
1.406829833985
 30
0.0
 11
9.556793212891008
 21
1.462921142577997
 31
0.0
  0
LINE
  5
32F2
330
3283
100
AcDbEntity
  8
AM_0
100
AcDbLine
 10
8.765289306641008
 20
9.160831451415994
 30
0.0
 11
8.891288757324005
 21
9.093383789062997
 31
0.0
  0
LINE
  5
32F3
330
3283
100
AcDbEntity
  8
AM_0
100
AcDbLine
 10
9.207389831542997
 20
9.105255126952997
 30
0.0
 11
9.178855895996008
 21
9.141056060790994
 31
0.0
  0
LINE
  5
32F4
330
3283
100
AcDbEntity
  8
AM_0
100
AcDbLine
 10
9.178909301757997
 20
9.140972137450994
 30
0.0
 11
9.119529724121008
 21
9.101001739501995
 31
0.0
  0
LINE
  5
32F5
330
3283
100
AcDbEntity
  8
AM_0
100
AcDbLine
 10
8.547203063965
 20
9.411369323730994
 30
0.0
 11
8.521705627442003
 21
9.410148620605994
 31
0.0
  0
LINE
  5
32F6
330
3283
100
AcDbEntity
  8
AM_0
100
AcDbLine
 10
8.517921447754005
 20
9.376556396485
 30
0.0
 11
8.521713256836008
 21
9.410095214843998
 31
0.0
  0
LINE
  5
32F7
330
3283
100
AcDbEntity
  8
AM_0
100
AcDbLine
 10
30.000003814697
 20
9.5
 30
0.0
 11
23.683002471924
 21
9.5
 31
0.0
  0
LINE
  5
32F8
330
3283
100
AcDbEntity
  8
AM_0
100
AcDbLine
 10
30.86601638794
 20
9.999958038329999
 30
0.0
 11
30.000022888184
 21
9.499961853026995
 31
0.0
  0
LINE
  5
32F9
330
3283
100
AcDbEntity
  8
AM_0
100
AcDbLine
 10
149.999999999999
 20
7.661499023437997
 30
0.0
 11
149.999999999999
 21
-7.661497116089002
 31
0.0
  0
LINE
  5
32FA
330
3283
100
AcDbEntity
  8
AM_0
100
AcDbLine
 10
146.9999999999989
 20
10.0
 30
0.0
 11
146.9999999999989
 21
-9.999998092651001
 31
0.0
  0
LINE
  5
32FB
330
3283
100
AcDbEntity
  8
AM_0
100
AcDbLine
 10
146.99998474121
 20
-9.999946594238004
 30
0.0
 11
148.5175933837879
 21
-9.593328475952002
 31
0.0
  0
ARC
  5
32FC
330
3283
100
AcDbEntity
  8
AM_0
100
AcDbCircle
 10
147.9999999999989
 20
-7.661497116089002
 30
0.0
 40
2.000036954879799
100
AcDbArc
 50
284.9985874788711
 51
0.0
  0
ARC
  5
32FD
330
3283
100
AcDbEntity
  8
AM_0
100
AcDbCircle
 10
147.9999999999989
 20
7.661499023437997
 30
0.0
 40
2.0
100
AcDbArc
 50
0.0
 51
75.00141252112884
  0
LINE
  5
32FE
330
3283
100
AcDbEntity
  8
AM_0
100
AcDbLine
 10
148.517623901366
 20
9.593399047851995
 30
0.0
 11
147.0000152587879
 21
10.00001907348599
 31
0.0
  0
ENDBLK
  5
3300
330
3283
100
AcDbEntity
  8
0
100
AcDbBlockEnd
  0
BLOCK
  5
342F
330
33A9
100
AcDbEntity
  8
0
100
AcDbBlockBegin
  2
A$C2DD67FEF
 70
     0
 10
0.0
 20
0.0
 30
0.0
  3
A$C2DD67FEF
  1

  0
LINE
  5
33AA
330
33A9
100
AcDbEntity
  8
AM_7
100
AcDbLine
 10
153.3566600729114
 20
0.0
 30
0.0
 11
-1.222099304199005
 21
0.0
 31
0.0
  0
LINE
  5
33AB
330
33A9
100
AcDbEntity
  8
AM_0
100
AcDbLine
 10
30.432987213135
 20
-10.00000190734799
 30
0.0
 11
146.9999961853019
 21
-10.00000190734799
 31
0.0
  0
LINE
  5
33AC
330
33A9
100
AcDbEntity
  8
AM_0
100
AcDbLine
 10
146.9999961853019
 20
10.0
 30
0.0
 11
30.432987213135
 21
10.0
 31
0.0
  0
ELLIPSE
  5
33AD
330
33A9
100
AcDbEntity
  8
AM_0
100
AcDbEllipse
 10
10.820892333984
 20
0.0
 30
0.0
 11
-1.294490577021008
 21
9.749436901502001
 31
0.0
210
0.0
220
0.0
230
1.0
 40
0.077722965612
 41
0.1224194291145691
 42
0.1957016309811431
  0
ELLIPSE
  5
33AE
330
33A9
100
AcDbEntity
  8
AM_0
100
AcDbEllipse
 10
10.005294799805
 20
0.0
 30
0.0
 11
-124.004297666925
 21
0.0362948923760058
 31
0.0
210
0.0
220
0.0
230
0.9999999999999998
 40
0.0786254886027
 41
4.614734478529939
 42
4.714152779896607
  0
ELLIPSE
  5
33AF
330
33A9
100
AcDbEntity
  8
AM_0
100
AcDbEllipse
 10
11.09328460693299
 20
0.0
 30
0.0
 11
-1.406745622616995
 21
9.742360614517005
 31
0.0
210
0.0
220
0.0
230
1.0
 40
0.2741734698257
 41
6.245305552009858
 42
6.376697199947157
  0
ELLIPSE
  5
33B0
330
33A9
100
AcDbEntity
  8
AM_0
100
AcDbEllipse
 10
12.741394042969
 20
0.0
 30
0.0
 11
-10.692433539901
 21
9.743415211784002
 31
0.0
210
0.0
220
0.0
230
1.0
 40
0.0340112641275
 41
3.102009449922168
 42
3.475779283686597
  0
SPLINE
  5
33B1
330
33A9
100
AcDbEntity
  8
AM_0
100
AcDbSpline
210
0.0
220
0.0
230
1.0
 70
     8
 71
     3
 72
    11
 73
     7
 74
     5
 42
0.0000000001
 43
0.0000000001
 44
0.0000000001
 40
0.0
 40
0.0
 40
0.0
 40
0.0
 40
0.1979665849187385
 40
0.3786223279096961
 40
0.5432961065554036
 40
0.6917212546574059
 40
0.6917212546574059
 40
0.6917212546574059
 40
0.6917212546574059
 10
5.017784118652002
 20
-8.246801376341995
 30
0.0
 10
5.083671186292673
 20
-8.240686457445914
 30
0.0
 10
5.209683942129696
 20
-8.228991328046356
 30
0.0
 10
5.383381298577117
 20
-8.174126140739961
 30
0.0
 10
5.53285814528424
 20
-8.10330711634444
 30
0.0
 10
5.61720406849082
 20
-8.041500740489732
 30
0.0
 10
5.657188415527002
 20
-8.012201309203994
 30
0.0
 11
5.017784118652002
 21
-8.246801376341995
 31
0.0
 11
5.214088439940994
 21
-8.221200942992997
 31
0.0
 11
5.38688659668
 21
-8.168500900267996
 31
0.0
 11
5.534889221190994
 21
-8.096302032469996
 31
0.0
 11
5.657188415527002
 21
-8.012201309203994
 31
0.0
  0
SPLINE
  5
33B2
330
33A9
100
AcDbEntity
  8
AM_0
100
AcDbSpline
210
0.0
220
0.0
230
1.0
 70
     8
 71
     3
 72
    11
 73
     7
 74
     5
 42
0.0000000001
 43
0.0000000001
 44
0.0000000001
 40
0.0
 40
0.0
 40
0.0
 40
0.0
 40
0.3495630168487127
 40
0.6980416072879507
 40
1.046372879735594
 40
1.395610785737467
 40
1.395610785737467
 40
1.395610785737467
 40
1.395610785737467
 10
9.704490661620994
 20
-3.134601593016995
 30
0.0
 10
9.820835539447802
 20
-3.145648587039801
 30
0.0
 10
10.05316436602128
 20
-3.167708304720741
 30
0.0
 10
10.38625700336344
 20
-3.278834670547439
 30
0.0
 10
10.69874785486322
 20
-3.438858283222485
 30
0.0
 10
10.87669872040975
 20
-3.589620843936354
 30
0.0
 10
10.965789794922
 20
-3.665100097655994
 30
0.0
 11
9.704490661620994
 21
-3.134601593016995
 31
0.0
 11
10.050987243652
 21
-3.180801391600994
 31
0.0
 11
10.38288879394499
 21
-3.287002563475994
 31
0.0
 11
10.690887451172
 21
-3.449703216551995
 31
0.0
 11
10.965789794922
 21
-3.665100097655994
 31
0.0
  0
SPLINE
  5
33B3
330
33A9
100
AcDbEntity
  8
AM_0
100
AcDbSpline
210
0.0
220
0.0
230
1.0
 70
     8
 71
     3
 72
    11
 73
     7
 74
     5
 42
0.0000000001
 43
0.0000000001
 44
0.0000000001
 40
0.0
 40
0.0
 40
0.0
 40
0.0
 40
0.2812176211464663
 40
0.5564567604930299
 40
0.8310001722639583
 40
1.110204407637129
 40
1.110204407637129
 40
1.110204407637129
 40
1.110204407637129
 10
8.63688659668
 20
-3.387401580809999
 30
0.0
 10
8.720777254942481
 20
-3.345224782348569
 30
0.0
 10
8.886775117174785
 20
-3.261767833441403
 30
0.0
 10
9.152956313161391
 20
-3.181169792289186
 30
0.0
 10
9.426364387200475
 20
-3.133840278004845
 30
0.0
 10
9.611263147023043
 20
-3.134346401354299
 30
0.0
 10
9.704490661620994
 20
-3.134601593016995
 30
0.0
 11
8.63688659668
 21
-3.387401580809999
 31
0.0
 11
8.89168548584
 21
-3.268402099608998
 31
0.0
 11
9.154487609862997
 21
-3.186599731444999
 31
0.0
 11
9.425384521484005
 21
-3.142002105711995
 31
0.0
 11
9.704490661620994
 21
-3.134601593016995
 31
0.0
  0
SPLINE
  5
33B4
330
33A9
100
AcDbEntity
  8
AM_0
100
AcDbSpline
210
0.0
220
0.0
230
1.0
 70
     8
 71
     3
 72
    11
 73
     7
 74
     5
 42
0.0000000001
 43
0.0000000001
 44
0.0000000001
 40
0.0
 40
0.0
 40
0.0
 40
0.0
 40
0.1764966933074805
 40
0.5073375345172887
 40
0.8919767250073784
 40
1.291477530940874
 40
1.291477530940874
 40
1.291477530940874
 40
1.291477530940874
 10
23.38849258422799
 20
-9.745901107787997
 30
0.0
 10
23.32995688593873
 20
-9.739909222939282
 30
0.0
 10
23.1616967542909
 20
-9.722685624982329
 30
0.0
 10
22.86444815887326
 20
-9.710952299805011
 30
0.0
 10
22.49297717343718
 20
-9.699499681754712
 30
0.0
 10
22.23157216413782
 20
-9.699964314921608
 30
0.0
 10
22.098392486572
 20
-9.700201034544996
 30
0.0
 11
23.38849258422799
 21
-9.745901107787997
 31
0.0
 11
23.21278762817399
 21
-9.729202270506995
 31
0.0
 11
22.88238906860299
 21
-9.712100982665997
 31
0.0
 11
22.497890472412
 21
-9.701702117918998
 31
0.0
 11
22.098392486572
 21
-9.700201034544996
 31
0.0
  0
ELLIPSE
  5
33B5
330
33A9
100
AcDbEntity
  8
AM_0
100
AcDbEllipse
 10
4.613685607909999
 20
-3.551101684569999
 30
0.0
 11
-1.499397337952004
 21
0.0425833887020062
 31
0.0
210
0.0
220
0.0
230
0.9999999999999998
 40
0.1902008419662
 41
0.0745090774776104
 42
3.064544258643298
  0
ELLIPSE
  5
33B6
330
33A9
100
AcDbEntity
  8
AM_0
100
AcDbEllipse
 10
10.005294799805
 20
0.0
 30
0.0
 11
124.0042973984289
 21
0.0372009275940002
 31
0.0
210
0.0
220
0.0
230
1.0
 40
0.0786254732214
 41
4.71166089853836
 42
4.81005765326196
  0
SPLINE
  5
33B7
330
33A9
100
AcDbEntity
  8
AM_0
100
AcDbSpline
210
0.0
220
0.0
230
1.0
 70
     8
 71
     3
 72
    11
 73
     7
 74
     5
 42
0.0000000001
 43
0.0000000001
 44
0.0000000001
 40
0.0
 40
0.0
 40
0.0
 40
0.0
 40
0.0609539919249524
 40
0.2341692588827204
 40
0.493913206522741
 40
0.8005645347590919
 40
0.8005645347590919
 40
0.8005645347590919
 40
0.8005645347590919
 10
1.252288818359005
 20
-2.296199798583998
 30
0.0
 10
1.253951906344674
 20
-2.316460177708322
 30
0.0
 10
1.260341054434277
 20
-2.39429524337666
 30
0.0
 10
1.252215714246451
 20
-2.559129855989818
 30
0.0
 10
1.245911456428138
 20
-2.805411727297473
 30
0.0
 10
1.237654955734437
 20
-2.994064563907521
 30
0.0
 10
1.233184814452997
 20
-3.096202850340993
 30
0.0
 11
1.252288818359005
 21
-2.296199798583998
 31
0.0
 11
1.256584167479999
 21
-2.357002258299999
 31
0.0
 11
1.254188537597002
 21
-2.530200958250993
 31
0.0
 11
1.245590209960994
 21
-2.789802551268998
 31
0.0
 11
1.233184814452997
 21
-3.096202850340993
 31
0.0
  0
ELLIPSE
  5
33B8
330
33A9
100
AcDbEntity
  8
AM_0
100
AcDbEllipse
 10
4.613494873047002
 20
-3.557201385497997
 30
0.0
 11
0.3426172078009984
 21
7.853829385258002
 31
0.0
210
0.0
220
0.0
230
1.0
 40
0.1902236754928
 41
1.570796176374841
 42
1.619008831191404
  0
ELLIPSE
  5
33B9
330
33A9
100
AcDbEntity
  8
AM_0
100
AcDbEllipse
 10
4.613494873047002
 20
-3.557201385497997
 30
0.0
 11
0.3426172078009984
 21
7.853829385258002
 31
0.0
210
0.0
220
0.0
230
1.0
 40
0.1902236754928
 41
4.674170894540745
 42
4.712389040099039
  0
SPLINE
  5
33BA
330
33A9
100
AcDbEntity
  8
AM_0
100
AcDbSpline
210
0.0
220
0.0
230
1.0
 70
     8
 71
     3
 72
    11
 73
     7
 74
     5
 42
0.0000000001
 43
0.0000000001
 44
0.0000000001
 40
0.0
 40
0.0
 40
0.0
 40
0.0
 40
0.1764968737771309
 40
0.5073377149869906
 40
0.8919769054770533
 40
1.291477704248433
 40
1.291477704248433
 40
1.291477704248433
 40
1.291477704248433
 10
23.38849258422799
 20
9.74589920044
 30
0.0
 10
23.32995689733638
 20
9.739906556653885
 30
0.0
 10
23.16169691064515
 20
9.722680788626876
 30
0.0
 10
22.86444812085317
 20
9.710948992416287
 30
0.0
 10
22.49297718810555
 20
9.699495264366515
 30
0.0
 10
22.23157216831278
 20
9.699961560390363
 30
0.0
 10
22.098392486572
 20
9.700199127198004
 30
0.0
 11
23.38849258422799
 21
9.74589920044
 31
0.0
 11
23.21278762817399
 21
9.729198455811001
 31
0.0
 11
22.88238906860299
 21
9.712097167969005
 31
0.0
 11
22.497890472412
 21
9.701698303223004
 31
0.0
 11
22.098392486572
 21
9.700199127198004
 31
0.0
  0
ELLIPSE
  5
33BB
330
33A9
100
AcDbEntity
  8
AM_0
100
AcDbEllipse
 10
7.152282714844005
 20
-0.0258026123039983
 30
0.0
 11
-0.4236951593399994
 21
9.644396573824003
 31
0.0
210
0.0
220
0.0
230
1.0
 40
0.0786224849315
 41
0.5795726581697202
 42
0.7423477759567608
  0
ELLIPSE
  5
33BC
330
33A9
100
AcDbEntity
  8
AM_0
100
AcDbEllipse
 10
191.3983840942299
 20
-0.0559005737299998
 30
0.0
 11
-265.9867744954099
 21
0.0778518288090026
 31
0.0
210
0.0
220
0.0
230
0.9999999999999998
 40
0.0494084666679
 41
5.468924155737419
 42
5.509750985271141
  0
SPLINE
  5
33BD
330
33A9
100
AcDbEntity
  8
AM_0
100
AcDbSpline
210
0.0
220
0.0
230
1.0
 70
     8
 71
     3
 72
    11
 73
     7
 74
     5
 42
0.0000000001
 43
0.0000000001
 44
0.0000000001
 40
0.0
 40
0.0
 40
0.0
 40
0.0
 40
0.1775467325537816
 40
0.372506757036171
 40
0.5819652011945033
 40
0.8054972893873868
 40
0.8054972893873868
 40
0.8054972893873868
 40
0.8054972893873868
 10
4.160186767577997
 20
7.979099273682003
 30
0.0
 10
4.209350316256569
 20
8.012201835207207
 30
0.0
 10
4.312499238341615
 20
8.081653565835983
 30
0.0
 10
4.489551634250444
 20
8.162587856199234
 30
0.0
 10
4.690260659808656
 20
8.226039021837365
 30
0.0
 10
4.834320349793333
 20
8.23979638785468
 30
0.0
 10
4.90869140625
 20
8.246898651124006
 30
0.0
 11
4.160186767577997
 21
7.979099273682003
 31
0.0
 11
4.309989929199005
 21
8.074398040772003
 31
0.0
 11
4.486587524414005
 21
8.156997680665
 31
0.0
 11
4.687088012694999
 21
8.217597961426001
 31
0.0
 11
4.90869140625
 21
8.246898651124006
 31
0.0
  0
SPLINE
  5
33BE
330
33A9
100
AcDbEntity
  8
AM_0
100
AcDbSpline
210
0.0
220
0.0
230
1.0
 70
     8
 71
     3
 72
    11
 73
     7
 74
     5
 42
0.0000000001
 43
0.0000000001
 44
0.0000000001
 40
0.0
 40
0.0
 40
0.0
 40
0.0
 40
0.2320128301738086
 40
0.4422450486050181
 40
0.6308801326749677
 40
0.8004238578798851
 40
0.8004238578798851
 40
0.8004238578798851
 40
0.8004238578798851
 10
4.90869140625
 20
8.246898651124006
 30
0.0
 10
4.986289196052382
 20
8.246115090062914
 30
0.0
 10
5.134200146912678
 20
8.244621526110922
 30
0.0
 10
5.339518879606317
 20
8.191958512575391
 30
0.0
 10
5.51395241193034
 20
8.114978268552864
 30
0.0
 10
5.611170358600207
 20
8.045219617582251
 30
0.0
 10
5.657188415527002
 20
8.012199401856001
 30
0.0
 11
4.90869140625
 21
8.246898651124006
 31
0.0
 11
5.140388488769005
 21
8.234798431397003
 31
0.0
 11
5.344490051269005
 21
8.184398651124006
 31
0.0
 11
5.516288757324005
 21
8.106498718262002
 31
0.0
 11
5.657188415527002
 21
8.012199401856001
 31
0.0
  0
ELLIPSE
  5
33BF
330
33A9
100
AcDbEntity
  8
AM_0
100
AcDbEllipse
 10
8.453186035155994
 20
-22.62969970703099
 30
0.0
 11
-12.59962553203199
 21
15.76689383200499
 31
0.0
210
0.0
220
0.0
230
0.9999999999999998
 40
0.9789422224481999
 41
4.87769490199116
 42
5.575891588070072
  0
SPLINE
  5
33C0
330
33A9
100
AcDbEntity
  8
AM_0
100
AcDbSpline
210
0.0
220
0.0
230
1.0
 70
     8
 71
     3
 72
    11
 73
     7
 74
     5
 42
0.0000000001
 43
0.0000000001
 44
0.0000000001
 40
0.0
 40
0.0
 40
0.0
 40
0.0
 40
3.675954364137837
 40
7.355715096265782
 40
11.03072444604249
 40
14.52669951095066
 40
14.52669951095066
 40
14.52669951095066
 40
14.52669951095066
 10
9.590591430664005
 20
1.162097930909006
 30
0.0
 10
10.8191745409228
 20
1.094951796636444
 30
0.0
 10
13.27761293159293
 20
0.9605899997808922
 30
0.0
 10
16.79827150997144
 20
-0.2044206298457448
 30
0.0
 10
19.97092763818796
 20
-2.089381743591947
 30
0.0
 10
21.42271747605388
 20
-4.013675734480776
 30
0.0
 10
22.13048934936499
 20
-4.951801300047996
 30
0.0
 11
9.590591430664005
 21
1.162097930909006
 31
0.0
 11
13.24868774413999
 21
0.8001976013190059
 31
0.0
 11
16.75048828125
 21
-0.3303031921379969
 31
0.0
 11
19.853889465332
 21
-2.298702239989999
 31
0.0
 11
22.13048934936499
 21
-4.951801300047996
 31
0.0
  0
ELLIPSE
  5
33C1
330
33A9
100
AcDbEntity
  8
AM_0
100
AcDbEllipse
 10
11.52088928222599
 20
0.0
 30
0.0
 11
-11.40635800829599
 21
9.124181071595998
 31
0.0
210
0.0
220
0.0
230
0.9999999999999998
 40
0.3013619535087999
 41
3.15162683848101
 42
3.819398120442973
  0
ELLIPSE
  5
33C2
330
33A9
100
AcDbEntity
  8
AM_0
100
AcDbEllipse
 10
79.34978485107359
 20
-0.1517028808589984
 30
0.0
 11
-179.4954768685534
 21
0.0884416970529997
 31
0.0
210
0.0
220
0.0
230
1.0
 40
0.0496419163326
 41
5.131069487977156
 42
5.135487946771978
  0
ELLIPSE
  5
33C3
330
33A9
100
AcDbEntity
  8
AM_0
100
AcDbEllipse
 10
78.0594863891595
 20
-0.0090026855459939
 30
0.0
 11
-177.6562924828494
 21
0.0342085703600006
 31
0.0
210
0.0
220
0.0
230
1.0
 40
0.0493514793544
 41
5.141351027182144
 42
5.146325939963089
  0
ELLIPSE
  5
33C4
330
33A9
100
AcDbEntity
  8
AM_0
100
AcDbEllipse
 10
4.140090942382997
 20
-0.0252990722649997
 30
0.0
 11
-0.4156031807559942
 21
9.460176513277003
 31
0.0
210
0.0
220
0.0
230
1.0
 40
0.0786224207853
 41
0.5624493436058956
 42
0.7416548999210003
  0
SPLINE
  5
33C5
330
33A9
100
AcDbEntity
  8
AM_0
100
AcDbSpline
210
0.0
220
0.0
230
1.0
 70
     8
 71
     3
 72
    11
 73
     7
 74
     5
 42
0.0000000001
 43
0.0000000001
 44
0.0000000001
 40
0.0
 40
0.0
 40
0.0
 40
0.0
 40
0.4835175484269987
 40
1.018485336320891
 40
1.623930565209401
 40
2.293010326980216
 40
2.293010326980216
 40
2.293010326980216
 40
2.293010326980216
 10
3.331085205077997
 20
6.92679977417
 30
0.0
 10
3.340248250731653
 20
6.764091000143439
 30
0.0
 10
3.35954936537506
 20
6.42135990180809
 30
0.0
 10
3.635904645179626
 20
5.935918566731109
 30
0.0
 10
4.132568313614035
 20
5.546502412870713
 30
0.0
 10
4.564327217747608
 20
5.508859021334975
 30
0.0
 10
4.790985107422002
 20
5.489097595215
 30
0.0
 11
3.331085205077997
 21
6.92679977417
 31
0.0
 11
3.393287658690994
 21
6.447299957276001
 31
0.0
 11
3.650085449219005
 21
5.977996826172002
 31
0.0
 11
4.133590698242002
 21
5.613597869874006
 31
0.0
 11
4.790985107422002
 21
5.489097595215
 31
0.0
  0
SPLINE
  5
33C6
330
33A9
100
AcDbEntity
  8
AM_0
100
AcDbSpline
210
0.0
220
0.0
230
1.0
 70
     8
 71
     3
 72
    11
 73
     7
 74
     5
 42
0.0000000001
 43
0.0000000001
 44
0.0000000001
 40
0.0
 40
0.0
 40
0.0
 40
0.0
 40
0.6874541138984082
 40
1.325243452091415
 40
1.891499824431868
 40
2.391928737678537
 40
2.391928737678537
 40
2.391928737678537
 40
2.391928737678537
 10
4.790985107422002
 20
5.489097595215
 30
0.0
 10
5.02047624169535
 20
5.530277377946704
 30
0.0
 10
5.462879039002242
 20
5.609661930777827
 30
0.0
 10
5.957631921653061
 20
6.037294327355411
 30
0.0
 10
6.256881677079102
 20
6.535310671106644
 30
0.0
 10
6.304871033892874
 20
6.890815286284528
 30
0.0
 10
6.327384948729999
 20
7.057598114014005
 30
0.0
 11
4.790985107422002
 21
5.489097595215
 31
0.0
 11
5.453689575194999
 21
5.671897888184005
 31
0.0
 11
5.947288513182996
 21
6.075798034668004
 31
0.0
 11
6.229187011719005
 21
6.566898345948004
 31
0.0
 11
6.327384948729999
 21
7.057598114014005
 31
0.0
  0
SPLINE
  5
33C7
330
33A9
100
AcDbEntity
  8
AM_0
100
AcDbSpline
210
0.0
220
0.0
230
1.0
 70
     8
 71
     3
 72
    11
 73
     7
 74
     5
 42
0.0000000001
 43
0.0000000001
 44
0.0000000001
 40
0.0
 40
0.0
 40
0.0
 40
0.0
 40
0.1144401276242913
 40
0.2296358122093705
 40
0.3452124012935249
 40
0.4605931042814358
 40
0.4605931042814358
 40
0.4605931042814358
 40
0.4605931042814358
 10
-0.0000152587890057
 20
9.774898529053004
 30
0.0
 10
0.0001756852055458
 20
9.813320125190225
 30
0.0
 10
0.0005588338456737
 20
9.890416984644256
 30
0.0
 10
0.0424626470853793
 20
9.999875429672659
 30
0.0
 10
0.1132032886292869
 20
10.09425377332969
 30
0.0
 10
0.1801432878325575
 20
10.13362733886562
 30
0.0
 10
0.2135848999020027
 20
10.153297424317
 30
0.0
 11
-0.0000152587890057
 21
9.774898529053004
 31
0.0
 11
0.0073852539059942
 21
9.889099121094005
 31
0.0
 11
0.0471878051759944
 21
9.997200012207002
 31
0.0
 11
0.1181869506829969
 21
10.088397979737
 31
0.0
 11
0.2135848999020027
 21
10.153297424317
 31
0.0
  0
SPLINE
  5
33C8
330
33A9
100
AcDbEntity
  8
AM_0
100
AcDbSpline
210
0.0
220
0.0
230
1.0
 70
     8
 71
     3
 72
    11
 73
     7
 74
     5
 42
0.0000000001
 43
0.0000000001
 44
0.0000000001
 40
0.0
 40
0.0
 40
0.0
 40
0.0
 40
2.177996316465063
 40
4.359156542360705
 40
6.543273456244239
 40
8.730571713770306
 40
8.730571713770306
 40
8.730571713770306
 40
8.730571713770306
 10
9.094390869139999
 20
10.374698638916
 30
0.0
 10
8.36851786507707
 20
10.36117603037507
 30
0.0
 10
6.915717403173859
 20
10.33411116940845
 30
0.0
 10
4.735090297677663
 20
10.28907282874334
 30
0.0
 10
2.551413310618479
 20
10.24160712479624
 30
0.0
 10
1.094685367131392
 20
10.20700894507919
 30
0.0
 10
0.3657913208009944
 20
10.18969726562499
 30
0.0
 11
9.094390869139999
 21
10.374698638916
 31
0.0
 11
6.916786193847002
 21
10.333396911622
 31
0.0
 11
4.736083984375
 21
10.28870010376
 31
0.0
 11
2.552490234375
 21
10.240898132325
 31
0.0
 11
0.3657913208009944
 21
10.18969726562499
 31
0.0
  0
SPLINE
  5
33C9
330
33A9
100
AcDbEntity
  8
AM_0
100
AcDbSpline
210
0.0
220
0.0
230
1.0
 70
     8
 71
     3
 72
    11
 73
     7
 74
     5
 42
0.0000000001
 43
0.0000000001
 44
0.0000000001
 40
0.0
 40
0.0
 40
0.0
 40
0.0
 40
1.051181545824759
 40
2.102441073641205
 40
3.153788459821439
 40
4.205345834652534
 40
4.205345834652534
 40
4.205345834652534
 40
4.205345834652534
 10
0.721786499022997
 20
4.49239730835
 30
0.0
 10
0.6683780792164246
 20
4.838696875182255
 30
0.0
 10
0.5615572774951494
 20
5.531321699109357
 30
0.0
 10
0.4014590442176131
 20
6.570322219818617
 30
0.0
 10
0.2414962792224191
 20
7.609470354960903
 30
0.0
 10
0.1347625663308224
 20
8.302264991254181
 30
0.0
 10
0.0813903808590055
 20
8.648696899415
 30
0.0
 11
0.721786499022997
 21
4.49239730835
 31
0.0
 11
0.5615844726559942
 21
5.531299591065
 31
0.0
 11
0.4014892578120027
 21
6.570297241211001
 31
0.0
 11
0.2414855957029971
 21
7.609397888184005
 31
0.0
 11
0.0813903808590055
 21
8.648696899415
 31
0.0
  0
SPLINE
  5
33CA
330
33A9
100
AcDbEntity
  8
AM_0
100
AcDbSpline
210
0.0
220
0.0
230
1.0
 70
     8
 71
     3
 72
    11
 73
     7
 74
     5
 42
0.0000000001
 43
0.0000000001
 44
0.0000000001
 40
0.0
 40
0.0
 40
0.0
 40
0.0
 40
0.132225767653955
 40
0.2647172615695199
 40
0.3971390765162175
 40
0.5291060396642703
 40
0.5291060396642703
 40
0.5291060396642703
 40
0.5291060396642703
 10
0.9693908691399997
 20
4.035797119141001
 30
0.0
 10
0.9379313680787957
 20
4.066845881960711
 30
0.0
 10
0.8749491436680438
 20
4.129005804452257
 30
0.0
 10
0.8031407676312644
 20
4.24123607849328
 30
0.0
 10
0.7484870369872676
 20
4.362629445734274
 30
0.0
 10
0.7306764646344842
 20
4.449190994017541
 30
0.0
 10
0.721786499022997
 20
4.49239730835
 30
0.0
 11
0.9693908691399997
 21
4.035797119141001
 31
0.0
 11
0.8787841796870026
 21
4.132099151612003
 31
0.0
 11
0.8059844970699998
 21
4.242797851563004
 31
0.0
 11
0.753089904785
 21
4.364196777344005
 31
0.0
 11
0.721786499022997
 21
4.49239730835
 31
0.0
  0
SPLINE
  5
33CB
330
33A9
100
AcDbEntity
  8
AM_0
100
AcDbSpline
210
0.0
220
0.0
230
1.0
 70
     8
 71
     3
 72
    11
 73
     7
 74
     5
 42
0.0000000001
 43
0.0000000001
 44
0.0000000001
 40
0.0
 40
0.0
 40
0.0
 40
0.0
 40
0.2785698390395481
 40
0.5582371687385422
 40
0.8374102278935497
 40
1.114796647575277
 40
1.114796647575277
 40
1.114796647575277
 40
1.114796647575277
 10
9.094390869139999
 20
10.374698638916
 30
0.0
 10
9.188039457428176
 20
10.36861568633215
 30
0.0
 10
9.375705584395106
 20
10.35642581595824
 30
0.0
 10
9.627389458567861
 20
10.22036368570892
 30
0.0
 10
9.827632675920529
 20
10.01586695583475
 30
0.0
 10
9.888267473459544
 20
9.838297524464922
 30
0.0
 10
9.918487548827997
 20
9.749797821045
 30
0.0
 11
9.094390869139999
 21
10.374698638916
 31
0.0
 11
9.370384216307996
 21
10.336898803711
 31
0.0
 11
9.618988037109005
 21
10.208797454834
 31
0.0
 11
9.809783935547002
 21
10.004997253418
 31
0.0
 11
9.918487548827997
 21
9.749797821045
 31
0.0
  0
SPLINE
  5
33CC
330
33A9
100
AcDbEntity
  8
AM_0
100
AcDbSpline
210
0.0
220
0.0
230
1.0
 70
     8
 71
     3
 72
    11
 73
     7
 74
     5
 42
0.0000000001
 43
0.0000000001
 44
0.0000000001
 40
0.0
 40
0.0
 40
0.0
 40
0.0
 40
0.0620416583983475
 40
0.1245742615511331
 40
0.1871919533830256
 40
0.2496716883607104
 40
0.2496716883607104
 40
0.2496716883607104
 40
0.2496716883607104
 10
0.798583984375
 20
9.520198822022003
 30
0.0
 10
0.7808888896118984
 20
9.509379151018768
 30
0.0
 10
0.7453586762021065
 20
9.48765419136666
 30
0.0
 10
0.7003810271948887
 20
9.443845256610241
 30
0.0
 10
0.6618029074304923
 20
9.39412461054235
 30
0.0
 10
0.6441174172036677
 20
9.356227170423849
 30
0.0
 10
0.6352844238279971
 20
9.337299346924005
 30
0.0
 11
0.798583984375
 21
9.520198822022003
 31
0.0
 11
0.7468872070309942
 21
9.485897064209005
 31
0.0
 11
0.7014846801759945
 21
9.442897796631001
 31
0.0
 11
0.6637878417970029
 21
9.392898559571001
 31
0.0
 11
0.6352844238279971
 21
9.337299346924005
 31
0.0
  0
SPLINE
  5
33CD
330
33A9
100
AcDbEntity
  8
AM_0
100
AcDbSpline
210
0.0
220
0.0
230
1.0
 70
     8
 71
     3
 72
    11
 73
     7
 74
     5
 42
0.0000000001
 43
0.0000000001
 44
0.0000000001
 40
0.0
 40
0.0
 40
0.0
 40
0.0
 40
0.0264485649268953
 40
0.0528114873137456
 40
0.0790932103247089
 40
0.1055666156994501
 40
0.1055666156994501
 40
0.1055666156994501
 40
0.1055666156994501
 10
0.6352844238279971
 20
9.337299346924005
 30
0.0
 10
0.6320965150787563
 20
9.329075729838184
 30
0.0
 10
0.6257310202803331
 20
9.31265512438752
 30
0.0
 10
0.6184089057622588
 20
9.2872955013539
 30
0.0
 10
0.6128170738637727
 20
9.261494301441928
 30
0.0
 10
0.6105352940472989
 20
9.24405133094355
 30
0.0
 10
0.6093902587890057
 20
9.235298156739006
 30
0.0
 11
0.6352844238279971
 21
9.337299346924005
 31
0.0
 11
0.6260910034179972
 21
9.3125
 31
0.0
 11
0.6186904907220026
 21
9.287197113038004
 31
0.0
 11
0.6131896972649998
 21
9.261497497559005
 31
0.0
 11
0.6093902587890057
 21
9.235298156739006
 31
0.0
  0
SPLINE
  5
33CE
330
33A9
100
AcDbEntity
  8
AM_0
100
AcDbSpline
210
0.0
220
0.0
230
1.0
 70
     8
 71
     3
 72
    11
 73
     7
 74
     5
 42
0.0000000001
 43
0.0000000001
 44
0.0000000001
 40
0.0
 40
0.0
 40
0.0
 40
0.0
 40
0.0485579455925268
 40
0.0966099904358044
 40
0.1448649748037987
 40
0.1940787201304623
 40
0.1940787201304623
 40
0.1940787201304623
 40
0.1940787201304623
 10
0.9844894409179971
 20
9.569599151612003
 30
0.0
 10
0.9683077703741286
 20
9.568704335889655
 30
0.0
 10
0.9361130179520033
 20
9.566924027078751
 30
0.0
 10
0.8886930697616005
 20
9.557024991745482
 30
0.0
 10
0.8424252051326913
 20
9.541978203748623
 30
0.0
 10
0.8132932444475848
 20
9.527506068136512
 30
0.0
 10
0.798583984375
 20
9.520198822022003
 30
0.0
 11
0.9844894409179971
 21
9.569599151612003
 31
0.0
 11
0.9360885620120029
 21
9.565696716309005
 31
0.0
 11
0.8889846801759944
 21
9.556198120118004
 31
0.0
 11
0.8431854248050001
 21
9.541000366211001
 31
0.0
 11
0.798583984375
 21
9.520198822022003
 31
0.0
  0
SPLINE
  5
33CF
330
33A9
100
AcDbEntity
  8
AM_0
100
AcDbSpline
210
0.0
220
0.0
230
1.0
 70
     8
 71
     3
 72
    11
 73
     7
 74
     5
 42
0.0000000001
 43
0.0000000001
 44
0.0000000001
 40
0.0
 40
0.0
 40
0.0
 40
0.0
 40
0.0523945292159035
 40
0.1045461919693204
 40
0.1565553990048983
 40
0.2088592863474464
 40
0.2088592863474464
 40
0.2088592863474464
 40
0.2088592863474464
 10
0.9125900268549997
 20
4.969997406006001
 30
0.0
 10
0.9151821902571271
 20
4.9527188498145
 30
0.0
 10
0.9203545015024085
 20
4.918241829415946
 30
0.0
 10
0.9324085067850019
 20
4.867418672861306
 30
0.0
 10
0.9472403452879174
 20
4.817368352720349
 30
0.0
 10
0.9598592480892438
 20
4.784953072193822
 30
0.0
 10
0.9661865234370026
 20
4.768699645997003
 30
0.0
 11
0.9125900268549997
 21
4.969997406006001
 31
0.0
 11
0.921089172362997
 21
4.918296813965
 31
0.0
 11
0.9328842163079968
 21
4.867496490479005
 31
0.0
 11
0.947891235350994
 21
4.817699432374006
 31
0.0
 11
0.9661865234370026
 21
4.768699645997003
 31
0.0
  0
ELLIPSE
  5
33D0
330
33A9
100
AcDbEntity
  8
AM_0
100
AcDbEllipse
 10
-15.81880187988
 20
-0.1194992065429972
 30
0.0
 11
-124.8087000257599
 21
0.0115644502360013
 31
0.0
210
0.0
220
0.0
230
1.0
 40
0.0790770280396
 41
4.508917091946802
 42
4.512762558416784
  0
SPLINE
  5
33D1
330
33A9
100
AcDbEntity
  8
AM_0
100
AcDbSpline
210
0.0
220
0.0
230
1.0
 70
     8
 71
     3
 72
    11
 73
     7
 74
     5
 42
0.0000000001
 43
0.0000000001
 44
0.0000000001
 40
0.0
 40
0.0
 40
0.0
 40
0.0
 40
0.0436098048366033
 40
0.0872210877033081
 40
0.1308283998455749
 40
0.1744420183619961
 40
0.1744420183619961
 40
0.1744420183619961
 40
0.1744420183619961
 10
8.514083862305
 20
9.690299987793004
 30
0.0
 10
8.514428234956373
 20
9.704832522669605
 30
0.0
 10
8.515116991930646
 20
9.733898084961673
 30
0.0
 10
8.515993873179791
 20
9.777498774011336
 30
0.0
 10
8.516854647786169
 20
9.821101065622055
 30
0.0
 10
8.517545486062722
 20
9.850166532951503
 30
0.0
 10
8.517890930175994
 20
9.864700317383004
 30
0.0
 11
8.514083862305
 21
9.690299987793004
 31
0.0
 11
8.515090942382997
 21
9.733898162842002
 31
0.0
 11
8.515991210937002
 21
9.777500152588004
 31
0.0
 11
8.516883850097002
 21
9.821098327637002
 31
0.0
 11
8.517890930175994
 21
9.864700317383004
 31
0.0
  0
SPLINE
  5
33D2
330
33A9
100
AcDbEntity
  8
AM_0
100
AcDbSpline
210
0.0
220
0.0
230
1.0
 70
     8
 71
     3
 72
    11
 73
     7
 74
     5
 42
0.0000000001
 43
0.0000000001
 44
0.0000000001
 40
0.0
 40
0.0
 40
0.0
 40
0.0
 40
0.0865524578105537
 40
0.1717832955949466
 40
0.2566104722622323
 40
0.3419073337770401
 40
0.3419073337770401
 40
0.3419073337770401
 40
0.3419073337770401
 10
8.881988525389999
 20
9.843700408936001
 30
0.0
 10
8.854845105948815
 20
9.853569831357233
 30
0.0
 10
8.800972735790033
 20
9.873157974224866
 30
0.0
 10
8.717141151897928
 20
9.891181220669524
 30
0.0
 10
8.632404411767346
 20
9.901289044775751
 30
0.0
 10
8.575645574684321
 20
9.900096103324466
 30
0.0
 10
8.547187805175994
 20
9.89949798584
 30
0.0
 11
8.881988525389999
 21
9.843700408936001
 31
0.0
 11
8.799987792969005
 21
9.871398925782003
 31
0.0
 11
8.716789245604999
 21
9.88990020752
 31
0.0
 11
8.632484436034999
 21
9.899299621582002
 31
0.0
 11
8.547187805175994
 21
9.89949798584
 31
0.0
  0
SPLINE
  5
33D3
330
33A9
100
AcDbEntity
  8
AM_0
100
AcDbSpline
210
0.0
220
0.0
230
1.0
 70
     8
 71
     3
 72
    11
 73
     7
 74
     5
 42
0.0000000001
 43
0.0000000001
 44
0.0000000001
 40
0.0
 40
0.0
 40
0.0
 40
0.0
 40
0.064826841085558
 40
0.1286923688434071
 40
0.192292155298664
 40
0.2562970968795856
 40
0.2562970968795856
 40
0.2562970968795856
 40
0.2562970968795856
 10
8.765289306639999
 20
9.64889907837
 30
0.0
 10
8.744888994245732
 20
9.656089648995338
 30
0.0
 10
8.704390884462796
 20
9.670364161706659
 30
0.0
 10
8.641530303415761
 20
9.683608879336466
 30
0.0
 10
8.578012894630294
 20
9.691232943064463
 30
0.0
 10
8.535438598668159
 20
9.69061163045575
 30
0.0
 10
8.514083862305
 20
9.690299987793004
 30
0.0
 11
8.765289306639999
 21
9.64889907837
 31
0.0
 11
8.703689575194999
 21
9.669097900391001
 31
0.0
 11
8.641288757324005
 21
9.682697296143004
 31
0.0
 11
8.578086853027002
 21
9.689800262452003
 31
0.0
 11
8.514083862305
 21
9.690299987793004
 31
0.0
  0
SPLINE
  5
33D4
330
33A9
100
AcDbEntity
  8
AM_0
100
AcDbSpline
210
0.0
220
0.0
230
1.0
 70
     8
 71
     3
 72
    11
 73
     7
 74
     5
 42
0.0000000001
 43
0.0000000001
 44
0.0000000001
 40
0.0
 40
0.0
 40
0.0
 40
0.0
 40
0.0482282440072024
 40
0.095828036488202
 40
0.1432897954519532
 40
0.190648633950365
 40
0.190648633950365
 40
0.190648633950365
 40
0.190648633950365
 10
8.765289306639999
 20
9.64889907837
 30
0.0
 10
8.780134629493417
 20
9.642707056702469
 30
0.0
 10
8.809631829098364
 20
9.63040370022523
 30
0.0
 10
8.851737824340101
 20
9.607719045897368
 30
0.0
 10
8.891842452499876
 20
9.582182026464874
 30
0.0
 10
8.916613510327954
 20
9.562520256858757
 30
0.0
 10
8.928985595702997
 20
9.552700042725
 30
0.0
 11
8.765289306639999
 21
9.64889907837
 31
0.0
 11
8.809486389159999
 21
9.629596710206001
 31
0.0
 11
8.851486206055
 21
9.607196807862003
 31
0.0
 11
8.891387939452997
 21
9.581497192383004
 31
0.0
 11
8.928985595702997
 21
9.552700042725
 31
0.0
  0
SPLINE
  5
33D5
330
33A9
100
AcDbEntity
  8
AM_0
100
AcDbSpline
210
0.0
220
0.0
230
1.0
 70
     8
 71
     3
 72
    11
 73
     7
 74
     5
 42
0.0000000001
 43
0.0000000001
 44
0.0000000001
 40
0.0
 40
0.0
 40
0.0
 40
0.0
 40
0.0937080391840209
 40
0.1856529375075545
 40
0.2771757630284954
 40
0.3695413539660024
 40
0.3695413539660024
 40
0.3695413539660024
 40
0.3695413539660024
 10
9.178787231444999
 20
9.62919998169
 30
0.0
 10
9.157663543533356
 20
9.652263534013346
 30
0.0
 10
9.115813615331479
 20
9.697956691990752
 30
0.0
 10
9.043772590642245
 20
9.756252098050369
 30
0.0
 10
8.966235397794099
 20
9.806222017115374
 30
0.0
 10
8.910156486563096
 20
9.831169500007185
 30
0.0
 10
8.881988525389999
 20
9.843700408936001
 30
0.0
 11
9.178787231444999
 21
9.62919998169
 31
0.0
 11
9.113784790039005
 21
9.696697235108004
 31
0.0
 11
9.042686462402002
 21
9.754997253418004
 31
0.0
 11
8.965385437012002
 21
9.803997039795
 31
0.0
 11
8.881988525389999
 21
9.843700408936001
 31
0.0
  0
SPLINE
  5
33D6
330
33A9
100
AcDbEntity
  8
AM_0
100
AcDbSpline
210
0.0
220
0.0
230
1.0
 70
     8
 71
     3
 72
    11
 73
     7
 74
     5
 42
0.0000000001
 43
0.0000000001
 44
0.0000000001
 40
0.0
 40
0.0
 40
0.0
 40
0.0
 40
0.0251838677608433
 40
0.0504064256903582
 40
0.0755907071724838
 40
0.1008912910071546
 40
0.1008912910071546
 40
0.1008912910071546
 40
0.1008912910071546
 10
9.238685607909999
 20
9.548099517823004
 30
0.0
 10
9.234109432561696
 20
9.555138638774439
 30
0.0
 10
9.224950051451902
 20
9.569227694932667
 30
0.0
 10
9.210179706002652
 20
9.589650354867558
 30
0.0
 10
9.194897131129522
 20
9.609738113379288
 30
0.0
 10
9.184165438899068
 20
9.62270273668733
 30
0.0
 10
9.178787231444999
 20
9.62919998169
 30
0.0
 11
9.238685607909999
 21
9.548099517823004
 31
0.0
 11
9.224784851074005
 21
9.56909942627
 31
0.0
 11
9.210090637207002
 21
9.589599609375
 31
0.0
 11
9.194786071777002
 21
9.609600067139005
 31
0.0
 11
9.178787231444999
 21
9.62919998169
 31
0.0
  0
SPLINE
  5
33D7
330
33A9
100
AcDbEntity
  8
AM_0
100
AcDbSpline
210
0.0
220
0.0
230
1.0
 70
     8
 71
     3
 72
    11
 73
     7
 74
     5
 42
0.0000000001
 43
0.0000000001
 44
0.0000000001
 40
0.0
 40
0.0
 40
0.0
 40
0.0
 40
1.064496416464884
 40
2.13717917081852
 40
3.20971456454129
 40
4.27339990272005
 40
4.27339990272005
 40
4.27339990272005
 40
4.27339990272005
 10
5.122283935547002
 20
-8.495601654051995
 30
0.0
 10
4.763360118619877
 20
-8.391339505132121
 30
0.0
 10
4.042752239079272
 20
-8.182013396063265
 30
0.0
 10
3.642609866853141
 20
-7.029124054669511
 30
0.0
 10
4.142297644429072
 20
-5.916194026246979
 30
0.0
 10
4.878038414657788
 20
-5.770663855773858
 30
0.0
 10
5.244384765625
 20
-5.698200225829999
 30
0.0
 11
5.122283935547002
 21
-8.495601654051995
 31
0.0
 11
4.158187866210994
 21
-8.044301986693998
 31
0.0
 11
3.792984008789005
 21
-7.035701751708995
 31
0.0
 11
4.24528503418
 21
-6.063201904295993
 31
0.0
 11
5.244384765625
 21
-5.698200225829999
 31
0.0
  0
SPLINE
  5
33D8
330
33A9
100
AcDbEntity
  8
AM_0
100
AcDbSpline
210
0.0
220
0.0
230
1.0
 70
     8
 71
     3
 72
    11
 73
     7
 74
     5
 42
0.0000000001
 43
0.0000000001
 44
0.0000000001
 40
0.0
 40
0.0
 40
0.0
 40
0.0
 40
1.330649898193866
 40
2.672221159182254
 40
4.009668500245153
 40
5.351093867890686
 40
5.351093867890686
 40
5.351093867890686
 40
5.351093867890686
 10
5.280685424805
 20
-8.852802276610997
 30
0.0
 10
5.738148363633085
 20
-8.761065459646893
 30
0.0
 10
6.656828886840104
 20
-8.576838892087502
 30
0.0
 10
7.289842326657572
 20
-7.191855896197575
 30
0.0
 10
6.792271036634005
 20
-5.744322090599658
 30
0.0
 10
5.8867309594966
 20
-5.485702824788086
 30
0.0
 10
5.433288574219005
 20
-5.356201171875
 30
0.0
 11
5.280685424805
 21
-8.852802276610997
 31
0.0
 11
6.529884338379005
 21
-8.394401550292997
 31
0.0
 11
7.101287841797002
 21
-7.180601119994996
 31
0.0
 11
6.649688720702997
 21
-5.921703338622997
 31
0.0
 11
5.433288574219005
 21
-5.356201171875
 31
0.0
  0
SPLINE
  5
33D9
330
33A9
100
AcDbEntity
  8
AM_0
100
AcDbSpline
210
0.0
220
0.0
230
1.0
 70
     8
 71
     3
 72
    11
 73
     7
 74
     5
 42
0.0000000001
 43
0.0000000001
 44
0.0000000001
 40
0.0
 40
0.0
 40
0.0
 40
0.0
 40
1.341549847061655
 40
2.67799938426551
 40
4.020180664237822
 40
5.347427930744683
 40
5.347427930744683
 40
5.347427930744683
 40
5.347427930744683
 10
5.433288574219005
 20
-5.356201171875
 30
0.0
 10
4.97013491860403
 20
-5.446003232236701
 30
0.0
 10
4.045588426892329
 20
-5.625265943108865
 30
0.0
 10
3.427293833569665
 20
-7.02492795516393
 30
0.0
 10
3.935902879645519
 20
-8.458476251335628
 30
0.0
 10
4.834099551787809
 20
-8.721851415533221
 30
0.0
 10
5.280685424805
 20
-8.852802276610997
 30
0.0
 11
5.433288574219005
 21
-5.356201171875
 31
0.0
 11
4.172485351562002
 21
-5.814601898192996
 31
0.0
 11
3.615386962889999
 21
-7.029401779173998
 31
0.0
 11
4.07918548584
 21
-8.288902282713998
 31
0.0
 11
5.280685424805
 21
-8.852802276610997
 31
0.0
  0
SPLINE
  5
33DA
330
33A9
100
AcDbEntity
  8
AM_0
100
AcDbSpline
210
0.0
220
0.0
230
1.0
 70
     8
 71
     3
 72
    11
 73
     7
 74
     5
 42
0.0000000001
 43
0.0000000001
 44
0.0000000001
 40
0.0
 40
0.0
 40
0.0
 40
0.0
 40
2.223029232182582
 40
4.445483690060651
 40
6.667464834782497
 40
8.888788397306988
 40
8.888788397306988
 40
8.888788397306988
 40
8.888788397306988
 10
10.42568969726499
 20
-4.022701263426995
 30
0.0
 10
9.684893283559244
 20
-4.004916301111725
 30
0.0
 10
8.203491992425044
 20
-3.969350974863969
 30
0.0
 10
5.981552150383892
 20
-3.919936672757422
 30
0.0
 10
3.760119900189144
 20
-3.873350206075559
 30
0.0
 10
2.279291052864842
 20
-3.844915279728866
 30
0.0
 10
1.538986206055
 20
-3.830699920653998
 30
0.0
 11
10.42568969726499
 21
-4.022701263426995
 31
0.0
 11
8.203285217284999
 21
-3.970001220702997
 31
0.0
 11
5.981384277344005
 21
-3.920402526854999
 31
0.0
 11
3.759887695312002
 21
-3.874000549315994
 31
0.0
 11
1.538986206055
 21
-3.830699920653998
 31
0.0
  0
SPLINE
  5
33DB
330
33A9
100
AcDbEntity
  8
AM_0
100
AcDbSpline
210
0.0
220
0.0
230
1.0
 70
     8
 71
     3
 72
    11
 73
     7
 74
     5
 42
0.0000000001
 43
0.0000000001
 44
0.0000000001
 40
0.0
 40
0.0
 40
0.0
 40
0.0
 40
0.2881900399241365
 40
0.5748385987522047
 40
0.8598536358990843
 40
1.143897144441953
 40
1.143897144441953
 40
1.143897144441953
 40
1.143897144441953
 10
1.538986206055
 20
-3.830699920653998
 30
0.0
 10
1.442036012240104
 20
-3.837223607444217
 30
0.0
 10
1.24865419524192
 20
-3.850236086897618
 30
0.0
 10
0.9924163237914127
 20
-3.995462017319387
 30
0.0
 10
0.7960894757158459
 20
-4.21418911064717
 30
0.0
 10
0.7465259520465867
 20
-4.399769396597254
 30
0.0
 10
0.721786499022997
 20
-4.492401123045993
 30
0.0
 11
1.538986206055
 21
-3.830699920653998
 31
0.0
 11
1.253684997557996
 21
-3.871402740477996
 31
0.0
 11
1.001785278319999
 21
-4.008201599120994
 31
0.0
 11
0.8161849975579968
 21
-4.224502563475994
 31
0.0
 11
0.721786499022997
 21
-4.492401123045993
 31
0.0
  0
SPLINE
  5
33DC
330
33A9
100
AcDbEntity
  8
AM_0
100
AcDbSpline
210
0.0
220
0.0
230
1.0
 70
     8
 71
     3
 72
    11
 73
     7
 74
     5
 42
0.0000000001
 43
0.0000000001
 44
0.0000000001
 40
0.0
 40
0.0
 40
0.0
 40
0.0
 40
1.051181545824759
 40
2.102441073642195
 40
3.153788459821435
 40
4.205345834652538
 40
4.205345834652538
 40
4.205345834652538
 40
4.205345834652538
 10
0.721786499022997
 20
-4.492401123045993
 30
0.0
 10
0.6683780792164031
 20
-4.838700689878246
 30
0.0
 10
0.5615572774950345
 20
-5.531325513805664
 30
0.0
 10
0.4014590442178216
 20
-6.570326034514977
 30
0.0
 10
0.2414962792223032
 20
-7.609474169657211
 30
0.0
 10
0.1347625663308007
 20
-8.302268805950172
 30
0.0
 10
0.0813903808590055
 20
-8.648700714110997
 30
0.0
 11
0.721786499022997
 21
-4.492401123045993
 31
0.0
 11
0.5615844726559942
 21
-5.531303405760993
 31
0.0
 11
0.4014892578120027
 21
-6.570301055907997
 31
0.0
 11
0.2414855957029971
 21
-7.609401702879996
 31
0.0
 11
0.0813903808590055
 21
-8.648700714110997
 31
0.0
  0
SPLINE
  5
33DD
330
33A9
100
AcDbEntity
  8
AM_0
100
AcDbSpline
210
0.0
220
0.0
230
1.0
 70
     8
 71
     3
 72
    11
 73
     7
 74
     5
 42
0.0000000001
 43
0.0000000001
 44
0.0000000001
 40
0.0
 40
0.0
 40
0.0
 40
0.0
 40
0.1144382242676436
 40
0.2296339088527261
 40
0.3452120029730545
 40
0.4605927059609654
 40
0.4605927059609654
 40
0.4605927059609654
 40
0.4605927059609654
 10
-0.0000152587890057
 20
-9.774902343749996
 30
0.0
 10
0.0001757212056992
 20
-9.813323318137552
 30
0.0
 10
0.0005589452811986
 20
-9.890419573230701
 30
0.0
 10
0.042463206800252
 20
-9.99987752835176
 30
0.0
 10
0.1132025749105206
 20
-10.09425753597813
 30
0.0
 10
0.1801431953841446
 20
-10.13363122169969
 30
0.0
 10
0.2135848999020027
 20
-10.15330123901299
 30
0.0
 11
-0.0000152587890057
 21
-9.774902343749996
 31
0.0
 11
0.0073852539059942
 21
-9.889101028441995
 31
0.0
 11
0.0471878051759944
 21
-9.997201919554996
 31
0.0
 11
0.1181869506829969
 21
-10.08840179443299
 31
0.0
 11
0.2135848999020027
 21
-10.15330123901299
 31
0.0
  0
SPLINE
  5
33DE
330
33A9
100
AcDbEntity
  8
AM_0
100
AcDbSpline
210
0.0
220
0.0
230
1.0
 70
     8
 71
     3
 72
    11
 73
     7
 74
     5
 42
0.0000000001
 43
0.0000000001
 44
0.0000000001
 40
0.0
 40
0.0
 40
0.0
 40
0.0
 40
2.177996280296523
 40
4.359156545278786
 40
6.543273417418594
 40
8.730571674944638
 40
8.730571674944638
 40
8.730571674944638
 40
8.730571674944638
 10
9.094390869139999
 20
-10.37470054626399
 30
0.0
 10
8.368517856204796
 20
-10.36117901522635
 30
0.0
 10
6.915717351445926
 20
-10.33411631036401
 30
0.0
 10
4.735090356067511
 20
-10.28907323819261
 30
0.0
 10
2.55141327836966
 20
-10.24161179232423
 30
0.0
 10
1.094685361015703
 20
-10.20701304430126
 30
0.0
 10
0.3657913208009944
 20
-10.18970108032199
 30
0.0
 11
9.094390869139999
 21
-10.37470054626399
 31
0.0
 11
6.916786193847002
 21
-10.33340072631799
 31
0.0
 11
4.736083984375
 21
-10.28870201110799
 31
0.0
 11
2.552490234375
 21
-10.24090194702099
 31
0.0
 11
0.3657913208009944
 21
-10.18970108032199
 31
0.0
  0
SPLINE
  5
33DF
330
33A9
100
AcDbEntity
  8
AM_0
100
AcDbSpline
210
0.0
220
0.0
230
1.0
 70
     8
 71
     3
 72
    11
 73
     7
 74
     5
 42
0.0000000001
 43
0.0000000001
 44
0.0000000001
 40
0.0
 40
0.0
 40
0.0
 40
0.0
 40
0.2877892014863417
 40
0.5766328071624905
 40
0.8649065657874096
 40
1.151040486260741
 40
1.151040486260741
 40
1.151040486260741
 40
1.151040486260741
 10
9.094390869139999
 20
-10.37470054626399
 30
0.0
 10
9.19117618956767
 20
-10.36806235444628
 30
0.0
 10
9.385101433190746
 20
-10.35476164975492
 30
0.0
 10
9.64310179681555
 20
-10.20965384996301
 30
0.0
 10
9.84398332482403
 20
-9.992228317806025
 30
0.0
 10
9.898654371218333
 20
-9.80631274124765
 30
0.0
 10
9.925888061522996
 20
-9.713701248167996
 30
0.0
 11
9.094390869139999
 21
-10.37470054626399
 31
0.0
 11
9.379287719725994
 21
-10.33400154113699
 31
0.0
 11
9.6337890625
 21
-10.19740104675199
 31
0.0
 11
9.824584960937002
 21
-9.981302261351995
 31
0.0
 11
9.925888061522996
 21
-9.713701248167996
 31
0.0
  0
SPLINE
  5
33E0
330
33A9
100
AcDbEntity
  8
AM_0
100
AcDbSpline
210
0.0
220
0.0
230
1.0
 70
     8
 71
     3
 72
    11
 73
     7
 74
     5
 42
0.0000000001
 43
0.0000000001
 44
0.0000000001
 40
0.0
 40
0.0
 40
0.0
 40
0.0
 40
1.054414681912343
 40
2.109008354626346
 40
3.163584979634708
 40
4.218319843685149
 40
4.218319843685149
 40
4.218319843685149
 40
4.218319843685149
 10
9.925888061522996
 20
-9.713701248167996
 30
0.0
 10
9.988230097027079
 20
-9.367802810571907
 30
0.0
 10
10.11292475082691
 20
-8.675947217837478
 30
0.0
 10
10.29979310140197
 20
-7.638108014527603
 30
0.0
 10
10.48665228574961
 20
-6.600158707958613
 30
0.0
 10
10.61100582285134
 20
-5.908139055248976
 30
0.0
 10
10.673187255859
 20
-5.562103271483998
 30
0.0
 11
9.925888061522996
 21
-9.713701248167996
 31
0.0
 11
10.112884521484
 21
-8.676000595091995
 31
0.0
 11
10.29978942871099
 21
-7.638101577757996
 31
0.0
 11
10.486587524414
 21
-6.600200653075994
 31
0.0
 11
10.673187255859
 21
-5.562103271483998
 31
0.0
  0
SPLINE
  5
33E1
330
33A9
100
AcDbEntity
  8
AM_0
100
AcDbSpline
210
0.0
220
0.0
230
1.0
 70
     8
 71
     3
 72
    11
 73
     7
 74
     5
 42
0.0000000001
 43
0.0000000001
 44
0.0000000001
 40
0.0
 40
0.0
 40
0.0
 40
0.0
 40
0.1141981566842656
 40
0.2284272167698033
 40
0.3427675832728934
 40
0.4571853925883321
 40
0.4571853925883321
 40
0.4571853925883321
 40
0.4571853925883321
 10
10.78318786621099
 20
-4.437103271483998
 30
0.0
 10
10.78391391862615
 20
-4.398770073483616
 30
0.0
 10
10.78536621993504
 20
-4.322093304056222
 30
0.0
 10
10.7462518532878
 20
-4.212428157881475
 30
0.0
 10
10.67720776955157
 20
-4.117931781847718
 30
0.0
 10
10.61100238665871
 20
-4.078715755781695
 30
0.0
 10
10.577888488769
 20
-4.059101104735994
 30
0.0
 11
10.78318786621099
 21
-4.437103271483998
 31
0.0
 11
10.77848815917999
 21
-4.323001861571995
 31
0.0
 11
10.741287231445
 21
-4.215000152586995
 31
0.0
 11
10.67218780517599
 21
-4.123901367186995
 31
0.0
 11
10.577888488769
 21
-4.059101104735994
 31
0.0
  0
SPLINE
  5
33E2
330
33A9
100
AcDbEntity
  8
AM_0
100
AcDbSpline
210
0.0
220
0.0
230
1.0
 70
     8
 71
     3
 72
     9
 73
     5
 74
     3
 42
0.0000000001
 43
0.0000000001
 44
0.0000000001
 40
0.0
 40
0.0
 40
0.0
 40
0.0
 40
0.1702042781886687
 40
0.7149056447186599
 40
0.7149056447186599
 40
0.7149056447186599
 40
0.7149056447186599
 10
8.875686645507997
 20
1.160999298096001
 30
0.0
 10
8.932421371011406
 20
1.16106212826496
 30
0.0
 10
9.170723110224987
 20
1.161326032574096
 30
0.0
 10
9.409024603976472
 20
1.161764133086278
 30
0.0
 10
9.590591430664005
 20
1.162097930909006
 30
0.0
 11
8.875686645507997
 21
1.160999298096001
 31
0.0
 11
9.045890808104999
 21
1.161197662354005
 31
0.0
 11
9.590591430664005
 21
1.162097930909006
 31
0.0
  0
LWPOLYLINE
  5
33E3
330
33A9
100
AcDbEntity
  8
AM_11
100
AcDbPolyline
 90
        4
 70
     1
 43
0.0
 10
0.0
 20
10.5
 10
8.999984741210994
 20
10.5
 10
8.999984741210994
 20
-10.50000190734799
 10
0.0
 20
-10.50000190734799
1001
GENIUS_GENREC_14
1002
{
1000
PYDIR
1011
0.0
1021
-10.50000190734799
1031
0.0
1002
}
1002
{
1000
PXDIR
1011
8.999984741210994
1021
10.5
1031
0.0
1002
}
1002
{
1000
PORI
1011
0.0
1021
10.5
1031
0.0
1002
}
1002
{
1000
PINS
1011
0.0
1021
10.5
1031
0.0
1002
}
1002
{
1000
PINS2
1011
8.999984741210994
1021
-10.50000190734799
1031
0.0
1002
}
1002
{
1000
C
1070
     1
1002
}
1001
GENIUS_GENODEF_13
1002
{
1000
HIER
1070
     0
1002
}
1002
{
1000
MANEDIT
1070
     0
1002
}
1002
{
1000
NOSEL
1070
     0
1002
}
1002
{
1000
BEHIND
1070
     0
1002
}
1002
{
1000
REACTOR
1002
}
1001
GENIUS_GENOBJ-N-REC_13
1002
{
1000
OWNER
1000
GEN
1002
}
  0
ARC
  5
33E4
330
33A9
100
AcDbEntity
  8
AM_0
100
AcDbCircle
 10
9.449890136719005
 20
-5.125400543211995
 30
0.0
 40
1.9981107711792
100
AcDbArc
 50
300.4960749697627
 51
84.47098486192039
  0
ARC
  5
33E5
330
33A9
100
AcDbEntity
  8
AM_0
100
AcDbCircle
 10
9.610588073729999
 20
-5.132400512694999
 30
0.0
 40
1.998648285865799
100
AcDbArc
 50
295.0738746556353
 51
47.27439618924605
  0
LINE
  5
33E6
330
33A9
100
AcDbEntity
  8
AM_0
100
AcDbLine
 10
29.99998855590799
 20
9.75
 30
0.0
 11
29.99998855590799
 21
-9.750001907347996
 31
0.0
  0
LINE
  5
33E7
330
33A9
100
AcDbEntity
  8
AM_0
100
AcDbLine
 10
10.673187255859
 20
-5.562103271483998
 30
0.0
 11
10.78318786621099
 21
-4.437103271483998
 31
0.0
  0
LINE
  5
33E8
330
33A9
100
AcDbEntity
  8
AM_0
100
AcDbLine
 10
30.432987213135
 20
10.0
 30
0.0
 11
30.432987213135
 21
-10.00000190734799
 31
0.0
  0
LINE
  5
33E9
330
33A9
100
AcDbEntity
  8
AM_0
100
AcDbLine
 10
0.0813903808590055
 20
-8.648702621459996
 30
0.0
 11
-0.0000152587890057
 21
-9.774900436400997
 31
0.0
  0
LINE
  5
33EA
330
33A9
100
AcDbEntity
  8
AM_0
100
AcDbLine
 10
0.3657913208009944
 20
-10.18970108032199
 30
0.0
 11
0.2135925292970029
 21
-10.15330314636199
 31
0.0
  0
LINE
  5
33EB
330
33A9
100
AcDbEntity
  8
AM_0
100
AcDbLine
 10
0.2135925292970029
 20
-10.15330314636199
 30
0.0
 11
0.3648910522459943
 21
-10.18970108032199
 31
0.0
  0
ARC
  5
33EC
330
33A9
100
AcDbEntity
  8
AM_0
100
AcDbCircle
 10
5.121391296387002
 20
-7.094202041625997
 30
0.0
 40
1.400007724762
100
AcDbArc
 50
268.4569279884225
 51
86.38792526381106
  0
ARC
  5
33ED
330
33A9
100
AcDbEntity
  8
AM_0
100
AcDbCircle
 10
5.252883911132997
 20
-7.100002288817996
 30
0.0
 40
1.749966859817499
100
AcDbArc
 50
268.3037678264732
 51
86.53068304765376
  0
ARC
  5
33EE
330
33A9
100
AcDbEntity
  8
AM_0
100
AcDbCircle
 10
4.930885314940994
 20
-6.996601104735997
 30
0.0
 40
1.248581171035799
100
AcDbArc
 50
305.5702190890748
 51
80.89035381219231
  0
ARC
  5
33EF
330
33A9
100
AcDbEntity
  8
AM_0
100
AcDbCircle
 10
5.205184936522996
 20
-7.008602142333995
 30
0.0
 40
1.2499886751175
100
AcDbArc
 50
267.5010908254038
 51
87.49651277742776
  0
ARC
  5
33F0
330
33A9
100
AcDbEntity
  8
AM_0
100
AcDbCircle
 10
5.205184936522996
 20
-7.008602142333995
 30
0.0
 40
1.2499930858612
100
AcDbArc
 50
87.49651277742776
 51
267.5010803527499
  0
LINE
  5
33F1
330
33A9
100
AcDbEntity
  8
AM_0
100
AcDbLine
 10
23.41418838501
 20
-9.750001907347996
 30
0.0
 11
29.99998855590799
 21
-9.750001907347996
 31
0.0
  0
LINE
  5
33F2
330
33A9
100
AcDbEntity
  8
AM_0
100
AcDbLine
 10
21.603584289551
 20
-7.868400573729996
 30
0.0
 11
22.954692840576
 21
-9.088802337645997
 31
0.0
  0
LINE
  5
33F3
330
33A9
100
AcDbEntity
  8
AM_0
100
AcDbLine
 10
29.99998855590799
 20
-9.750001907347996
 30
0.0
 11
30.432983398437
 21
-10.00000190734799
 31
0.0
  0
ARC
  5
33F4
330
33A9
100
AcDbEntity
  8
AM_0
100
AcDbCircle
 10
4.930885314940994
 20
6.99659729004
 30
0.0
 40
1.248713254928599
100
AcDbArc
 50
128.1116179598796
 51
272.4989210137442
  0
ARC
  5
33F5
330
33A9
100
AcDbEntity
  8
AM_0
100
AcDbCircle
 10
4.930885314940994
 20
6.99659729004
 30
0.0
 40
1.495422005653399
100
AcDbArc
 50
182.4988743404065
 51
270.3285159342192
  0
LINE
  5
33F6
330
33A9
100
AcDbEntity
  8
AM_0
100
AcDbLine
 10
3.119789123534999
 20
-3.485702514647996
 30
0.0
 11
6.107681274414005
 21
-3.616100311278998
 31
0.0
  0
LINE
  5
33F7
330
33A9
100
AcDbEntity
  8
AM_0
100
AcDbLine
 10
1.166687011719005
 20
0.8923988342290058
 30
0.0
 11
8.875686645507997
 21
1.160999298096001
 31
0.0
  0
LINE
  5
33F8
330
33A9
100
AcDbEntity
  8
AM_0
100
AcDbLine
 10
1.181793212889999
 20
-2.293102264403998
 30
0.0
 11
8.905487060547002
 21
-2.630401611327997
 31
0.0
  0
LINE
  5
33F9
330
33A9
100
AcDbEntity
  8
AM_0
100
AcDbLine
 10
1.028884887694999
 20
9.571098327637002
 30
0.0
 11
8.521591186522996
 21
9.898300170899005
 31
0.0
  0
LINE
  5
33FA
330
33A9
100
AcDbEntity
  8
AM_0
100
AcDbLine
 10
8.514190673827997
 20
9.68930053711
 30
0.0
 11
1.024589538574005
 21
9.362300872803004
 31
0.0
  0
LINE
  5
33FB
330
33A9
100
AcDbEntity
  8
AM_0
100
AcDbLine
 10
1.166687011719005
 20
9.180797576905
 30
0.0
 11
1.166687011719005
 21
0.8923988342290058
 31
0.0
  0
LINE
  5
33FC
330
33A9
100
AcDbEntity
  8
AM_0
100
AcDbLine
 10
0.9757843017579972
 20
8.968799591065
 30
0.0
 11
0.9757843017579972
 21
0.7757987976080046
 31
0.0
  0
LINE
  5
33FD
330
33A9
100
AcDbEntity
  8
AM_0
100
AcDbLine
 10
0.9757843017579972
 20
-4.074600219725994
 30
0.0
 11
0.9757843017579972
 21
-0.7758026123039983
 31
0.0
  0
LINE
  5
33FE
330
33A9
100
AcDbEntity
  8
AM_0
100
AcDbLine
 10
0.9757843017579972
 20
0.7757987976080046
 30
0.0
 11
1.181785583495994
 21
-2.293102264403998
 31
0.0
  0
LINE
  5
33FF
330
33A9
100
AcDbEntity
  8
AM_0
100
AcDbLine
 10
3.119483947754005
 20
-3.491901397704999
 30
0.0
 11
3.119789123534999
 21
-3.485702514647996
 31
0.0
  0
LINE
  5
3400
330
33A9
100
AcDbEntity
  8
AM_0
100
AcDbLine
 10
1.198684692382997
 20
-3.902000427245994
 30
0.0
 11
1.233184814452997
 21
-3.096199035643998
 31
0.0
  0
LINE
  5
3401
330
33A9
100
AcDbEntity
  8
AM_0
100
AcDbLine
 10
0.9757843017579972
 20
-0.7758026123039983
 30
0.0
 11
1.036186218262002
 21
-0.0001029968259942
 31
0.0
  0
LINE
  5
3402
330
33A9
100
AcDbEntity
  8
AM_0
100
AcDbLine
 10
0.9757843017579972
 20
0.7757987976080046
 30
0.0
 11
1.166687011719005
 21
0.8923988342290058
 31
0.0
  0
LINE
  5
3403
330
33A9
100
AcDbEntity
  8
AM_0
100
AcDbLine
 10
3.436889648437002
 20
6.931400299073004
 30
0.0
 11
3.391990661620994
 21
7.961795806885
 31
0.0
  0
LINE
  5
3404
330
33A9
100
AcDbEntity
  8
AM_0
100
AcDbLine
 10
0.0813903808590055
 20
8.648700714112003
 30
0.0
 11
0.7347946166990056
 21
6.261997222901001
 31
0.0
  0
LINE
  5
3405
330
33A9
100
AcDbEntity
  8
AM_0
100
AcDbLine
 10
0.609481811522997
 20
9.13090133667
 30
0.0
 11
0.7347869873050002
 21
6.262001037598004
 31
0.0
  0
LINE
  5
3406
330
33A9
100
AcDbEntity
  8
AM_0
100
AcDbLine
 10
0.9478836059570028
 20
6.127899169922002
 30
0.0
 11
0.8162841796870026
 21
9.139896392823004
 31
0.0
  0
LINE
  5
3407
330
33A9
100
AcDbEntity
  8
AM_0
100
AcDbLine
 10
0.7555923461909942
 20
6.119499206543004
 30
0.0
 11
0.947891235350994
 21
6.127899169922002
 31
0.0
  0
LINE
  5
3408
330
33A9
100
AcDbEntity
  8
AM_0
100
AcDbLine
 10
0.7555847167970029
 20
6.119499206543004
 30
0.0
 11
0.9080886840820028
 21
5.002998352051001
 31
0.0
  0
LINE
  5
3409
330
33A9
100
AcDbEntity
  8
AM_0
100
AcDbLine
 10
0.7347869873050002
 20
6.262001037598004
 30
0.0
 11
0.7555847167970029
 21
6.119495391846001
 31
0.0
  0
LINE
  5
340A
330
33A9
100
AcDbEntity
  8
AM_0
100
AcDbLine
 10
0.9661865234370026
 20
4.768699645997003
 30
0.0
 11
0.9740905761720028
 21
4.75
 31
0.0
  0
LINE
  5
340B
330
33A9
100
AcDbEntity
  8
AM_0
100
AcDbLine
 10
0.9080886840820028
 20
5.002998352051001
 30
0.0
 11
0.9125900268549997
 21
4.969997406006001
 31
0.0
  0
LINE
  5
340C
330
33A9
100
AcDbEntity
  8
AM_0
100
AcDbLine
 10
0.9661865234370026
 20
4.768699645997003
 30
0.0
 11
0.9757843017579972
 21
4.772300720215
 31
0.0
  0
LINE
  5
340D
330
33A9
100
AcDbEntity
  8
AM_0
100
AcDbLine
 10
0.9080886840820028
 20
5.002998352051001
 30
0.0
 11
0.9757843017579972
 21
5.005996704102003
 31
0.0
  0
LINE
  5
340E
330
33A9
100
AcDbEntity
  8
AM_0
100
AcDbLine
 10
0.9757843017579972
 20
5.923397064209005
 30
0.0
 11
0.947891235350994
 21
6.127899169922002
 31
0.0
  0
LINE
  5
340F
330
33A9
100
AcDbEntity
  8
AM_0
100
AcDbLine
 10
0.2135925292970029
 20
10.153297424317
 30
0.0
 11
0.3648910522459943
 21
10.18969726562499
 31
0.0
  0
LINE
  5
3410
330
33A9
100
AcDbEntity
  8
AM_0
100
AcDbLine
 10
0.0813903808590055
 20
8.648696899415
 30
0.0
 11
-0.0000152587890057
 21
9.774898529053004
 31
0.0
  0
LINE
  5
3411
330
33A9
100
AcDbEntity
  8
AM_0
100
AcDbLine
 10
0.6093902587890057
 20
9.235298156739006
 30
0.0
 11
0.6076889038079969
 21
9.166698455811001
 31
0.0
  0
LINE
  5
3412
330
33A9
100
AcDbEntity
  8
AM_0
100
AcDbLine
 10
0.6076889038079969
 20
9.166698455811001
 30
0.0
 11
0.6094894409179972
 21
9.130897521973004
 31
0.0
  0
ARC
  5
3413
330
33A9
100
AcDbEntity
  8
AM_0
100
AcDbCircle
 10
1.034484863280994
 20
9.133899688721001
 30
0.0
 40
0.2286144644022
100
AcDbArc
 50
92.48192932432127
 51
123.0501472565804
  0
ARC
  5
3414
330
33A9
100
AcDbEntity
  8
AM_0
100
AcDbCircle
 10
1.020484924315994
 20
9.155597686768004
 30
0.0
 40
0.2026435285807
100
AcDbArc
 50
123.0783969189832
 51
155.6896268848316
  0
ARC
  5
3415
330
33A9
100
AcDbEntity
  8
AM_0
100
AcDbCircle
 10
1.048789978027002
 20
9.142799377442003
 30
0.0
 40
0.2334020137787
100
AcDbArc
 50
155.6860751864619
 51
168.5793003392896
  0
ARC
  5
3416
330
33A9
100
AcDbEntity
  8
AM_0
100
AcDbCircle
 10
1.019088745117002
 20
9.148799896241001
 30
0.0
 40
0.203019797802
100
AcDbArc
 50
168.5793686411816
 51
182.5128452649833
  0
LINE
  5
3417
330
33A9
100
AcDbEntity
  8
AM_0
100
AcDbLine
 10
0.9757843017579972
 20
8.968799591065
 30
0.0
 11
1.166687011719005
 21
9.180797576905
 31
0.0
  0
LINE
  5
3418
330
33A9
100
AcDbEntity
  8
AM_0
100
AcDbLine
 10
1.02889251709
 20
9.571098327637002
 30
0.0
 11
0.9844894409179971
 21
9.569595336915
 31
0.0
  0
LINE
  5
3419
330
33A9
100
AcDbEntity
  8
AM_0
100
AcDbLine
 10
8.875686645507997
 20
9.552997589112003
 30
0.0
 11
8.875686645507997
 21
1.160999298096001
 31
0.0
  0
LINE
  5
341A
330
33A9
100
AcDbEntity
  8
AM_0
100
AcDbLine
 10
6.107688903807996
 20
-3.616100311278998
 30
0.0
 11
6.107391357422002
 21
-3.622402191161995
 31
0.0
  0
ARC
  5
341B
330
33A9
100
AcDbEntity
  8
AM_0
100
AcDbCircle
 10
9.610588073729999
 20
-5.132400512694999
 30
0.0
 40
1.9980818033218
100
AcDbArc
 50
120.8599924577009
 51
143.0979545838617
  0
LINE
  5
341C
330
33A9
100
AcDbEntity
  8
AM_0
100
AcDbLine
 10
8.585685729979999
 20
-3.417198181151995
 30
0.0
 11
8.63688659668
 21
-3.387397766112997
 31
0.0
  0
LINE
  5
341D
330
33A9
100
AcDbEntity
  8
AM_0
100
AcDbLine
 10
10.42568206787099
 20
-4.022701263426995
 30
0.0
 11
10.577888488769
 21
-4.059101104735994
 31
0.0
  0
LINE
  5
341E
330
33A9
100
AcDbEntity
  8
AM_0
100
AcDbLine
 10
10.577888488769
 20
-4.059101104735994
 30
0.0
 11
10.42649078369099
 21
-4.022705078125
 31
0.0
  0
ARC
  5
341F
330
33A9
100
AcDbEntity
  8
AM_0
100
AcDbCircle
 10
4.930885314940994
 20
6.99659729004
 30
0.0
 40
1.2499886751175
100
AcDbArc
 50
272.4989109958284
 51
54.4297809109252
  0
ARC
  5
3420
330
33A9
100
AcDbEntity
  8
AM_0
100
AcDbCircle
 10
5.205184936522996
 20
7.008598327637002
 30
0.0
 40
1.249963402748099
100
AcDbArc
 50
98.7245583011748
 51
269.2940869721455
  0
LINE
  5
3421
330
33A9
100
AcDbEntity
  8
AM_0
100
AcDbLine
 10
8.875694274902002
 20
9.552997589112003
 30
0.0
 11
8.928588867187002
 21
9.552097320557003
 31
0.0
  0
LINE
  5
3422
330
33A9
100
AcDbEntity
  8
AM_0
100
AcDbLine
 10
8.514190673827997
 20
9.68930053711
 30
0.0
 11
8.514083862305
 21
9.690296173096001
 31
0.0
  0
LINE
  5
3423
330
33A9
100
AcDbEntity
  8
AM_0
100
AcDbLine
 10
8.547187805175994
 20
9.899501800538004
 30
0.0
 11
8.521591186522996
 21
9.898300170899005
 31
0.0
  0
LINE
  5
3424
330
33A9
100
AcDbEntity
  8
AM_0
100
AcDbLine
 10
8.881988525389999
 20
9.843696594239006
 30
0.0
 11
8.765289306639999
 21
9.64889907837
 31
0.0
  0
LINE
  5
3425
330
33A9
100
AcDbEntity
  8
AM_0
100
AcDbLine
 10
8.517890930175994
 20
9.864700317383004
 30
0.0
 11
8.521591186522996
 21
9.898296356202003
 31
0.0
  0
LINE
  5
3426
330
33A9
100
AcDbEntity
  8
AM_0
100
AcDbLine
 10
9.178787231444999
 20
9.629196166993004
 30
0.0
 11
9.061187744139999
 21
9.549995422364006
 31
0.0
  0
LINE
  5
3427
330
33A9
100
AcDbEntity
  8
AM_0
100
AcDbLine
 10
29.99998855590799
 20
9.75
 30
0.0
 11
23.41418838501
 21
9.75
 31
0.0
  0
LINE
  5
3428
330
33A9
100
AcDbEntity
  8
AM_0
100
AcDbLine
 10
30.432987213135
 20
9.999996185303004
 30
0.0
 11
29.99998855590799
 21
9.749996185303004
 31
0.0
  0
LINE
  5
3429
330
33A9
100
AcDbEntity
  8
AM_0
100
AcDbLine
 10
146.9999961853019
 20
10.0
 30
0.0
 11
146.9999961853019
 21
-10.00000190734799
 31
0.0
  0
LINE
  5
342A
330
33A9
100
AcDbEntity
  8
AM_0
100
AcDbLine
 10
149.9999923706039
 20
7.661499023438004
 30
0.0
 11
149.9999923706039
 21
-7.661500930785997
 31
0.0
  0
ARC
  5
342B
330
33A9
100
AcDbEntity
  8
AM_0
100
AcDbCircle
 10
147.9999961853019
 20
-7.661500930785997
 30
0.0
 40
2.000036954879799
100
AcDbArc
 50
284.9985874788711
 51
0.0
  0
LINE
  5
342C
330
33A9
100
AcDbEntity
  8
AM_0
100
AcDbLine
 10
147.000003814696
 20
-9.999999999999996
 30
0.0
 11
148.517585754393
 21
-9.593402862547996
 31
0.0
  0
ARC
  5
342D
330
33A9
100
AcDbEntity
  8
AM_0
100
AcDbCircle
 10
147.9999961853019
 20
7.661499023438004
 30
0.0
 40
2.0
100
AcDbArc
 50
0.0
 51
75.00141252112884
  0
LINE
  5
342E
330
33A9
100
AcDbEntity
  8
AM_0
100
AcDbLine
 10
148.517578124999
 20
9.593399047852003
 30
0.0
 11
146.9999999999989
 21
9.999996185303004
 31
0.0
  0
ENDBLK
  5
3430
330
33A9
100
AcDbEntity
  8
0
100
AcDbBlockEnd
  0
BLOCK
  5
3473
330
3469
100
AcDbEntity
  8
0
100
AcDbBlockBegin
  2
*D12
 70
     1
 10
0.0
 20
0.0
 30
0.0
  3
*D12
  1

  0
LINE
  5
3519
330
3469
100
AcDbEntity
  8
AM_5
 62
     3
100
AcDbLine
 10
-8.999984741210964
 20
10.49999618530112
 30
0.0
 11
-8.999984741210962
 21
25.49999718530113
 31
0.0
  0
LINE
  5
351A
330
3469
100
AcDbEntity
  8
AM_5
 62
     3
100
AcDbLine
 10
0.0000000000000302
 20
10.49999618530112
 30
0.0
 11
0.0000000000000311
 21
25.49999718530113
 31
0.0
  0
LINE
  5
351B
330
3469
100
AcDbEntity
  8
AM_5
 62
     3
100
AcDbLine
 10
-6.499984741210964
 20
24.49999718530113
 30
0.0
 11
-2.499999999999968
 21
24.49999718530113
 31
0.0
  0
INSERT
  5
351C
330
3469
100
AcDbEntity
  8
AM_5
 62
     3
100
AcDbBlockReference
  2
_OPEN30
 10
-8.999984741210964
 20
24.49999718530113
 30
0.0
 41
2.5
 42
2.5
 43
2.5
 50
180.0
  0
INSERT
  5
351D
330
3469
100
AcDbEntity
  8
AM_5
 62
     3
100
AcDbBlockReference
  2
_OPEN30
 10
0.0000000000000311
 20
24.49999718530113
 30
0.0
 41
2.5
 42
2.5
 43
2.5
  0
MTEXT
  5
351E
330
3469
100
AcDbEntity
  8
AM_5
 62
     2
100
AcDbMText
 10
-4.499992370605466
 20
27.89999718530113
 30
0.0
 40
3.799999999999999
 41
0.0
 71
     5
 72
     1
  1
9
1001
ACAD
1000
MTEXTBEGIN
1070
    73
1070
     1
1070
    44
1040
1.0
1070
    74
1070
     0
1000
MTEXTEND
  0
POINT
  5
351F
330
3469
100
AcDbEntity
  8
DEFPOINTS
 62
     0
100
AcDbPoint
 10
-8.999984741210964
 20
10.49999618530112
 30
0.0
  0
POINT
  5
3520
330
3469
100
AcDbEntity
  8
DEFPOINTS
 62
     0
100
AcDbPoint
 10
0.0000000000000302
 20
10.49999618530112
 30
0.0
  0
POINT
  5
3521
330
3469
100
AcDbEntity
  8
DEFPOINTS
 62
     0
100
AcDbPoint
 10
0.0000000000000311
 20
24.49999718530113
 30
0.0
  0
ENDBLK
  5
3474
330
3469
100
AcDbEntity
  8
0
100
AcDbBlockEnd
  0
ENDSEC
  0
SECTION
  2
ENTITIES
  0
TEXT
  5
1142
330
1F
100
AcDbEntity
  8
AM_6
100
AcDbText
 10
-101.1904761904756
 20
-62.49999999999992
 30
0.0
 40
5.0
  1
WEM2021EL-C
 72
     4
 11
-74.99999999999947
 21
-59.99999999999992
 31
0.0
100
AcDbText
  0
DIMENSION
  5
155D
330
1F
100
AcDbEntity
  8
AM_5
100
AcDbDimension
  2
*D5
 10
-30.00000381469698
 20
-29.99999999999997
 30
0.0
 11
-15.00000190734849
 21
-26.59999999999997
 31
0.0
 70
    32
  1
<>
  3
AM_JIS$0
100
AcDbAlignedDimension
 13
-0.0000000000000008
 23
-6.0
 33
0.0
 14
-30.00000381469698
 24
-9.500005722046887
 34
0.0
 50
0.0000000000001132
100
AcDbRotatedDimension
1001
ACAD
1000
DSTYLE
1002
{
1070
   171
1070
     0
1070
   271
1070
     0
1002
}
1001
GENIUS_GENDTOL_13
1000

1000
h7
1000

1040
0.0
  0
DIMENSION
  5
15E8
330
1F
100
AcDbEntity
  8
AM_5
100
AcDbDimension
  2
*D6
 10
-149.9999999999989
 20
-30.00000000000021
 30
0.0
 11
-90.00000190734798
 21
-26.60000000000021
 31
0.0
 70
    32
  1
<>
  3
AM_JIS$0
100
AcDbAlignedDimension
 13
-30.00000381469698
 23
-9.500005722046887
 33
0.0
 14
-149.9999999999989
 24
-7.66150474548387
 34
0.0
 50
0.0000000000001132
100
AcDbRotatedDimension
1001
ACAD
1000
DSTYLE
1002
{
1070
   171
1070
     0
1070
   271
1070
     0
1002
}
1001
GENIUS_GENDTOL_13
1000

1000
h7
1000

1040
0.0
  0
DIMENSION
  5
1673
330
1F
100
AcDbEntity
  8
AM_5
100
AcDbDimension
  2
*D7
 10
0.0000000000000181
 20
-39.99999999999991
 30
0.0
 11
-74.99999999999947
 21
-36.59999999999991
 31
0.0
 70
    32
  1
<>
  3
AM_JIS$0
100
AcDbAlignedDimension
 13
-149.9999999999989
 23
-7.66150474548387
 33
0.0
 14
0.0000000000000196
 24
-15.99999999999991
 34
0.0
 50
0.0000000000001132
100
AcDbRotatedDimension
1001
ACAD
1000
DSTYLE
1002
{
1070
   171
1070
     0
1070
   271
1070
     0
1002
}
1001
GENIUS_GENDTOL_13
1000

1000
h7
1000

1040
0.0
  0
DIMENSION
  5
2B71
330
1F
100
AcDbEntity
  8
AM_5
100
AcDbDimension
  2
*D8
 10
15.22210030419901
 20
10.49999618530111
 30
0.0
 11
11.82210030419901
 21
-0.0000047683728757
 31
0.0
 70
    32
  1
%%c<>
  3
AM_JIS$0
100
AcDbAlignedDimension
 13
0.0000000000000271
 23
-10.50000572204687
 33
0.0
 14
0.0000000000000302
 24
10.49999618530112
 34
0.0
 50
90.00000000000003
100
AcDbRotatedDimension
1001
ACAD
1000
DSTYLE
1002
{
1070
   171
1070
     0
1070
   271
1070
     0
1002
}
1001
GENIUS_GENDTOL_13
1000

1000
h7
1000

1040
0.0
  0
DIMENSION
  5
300D
330
1F
100
AcDbEntity
  8
AM_5
100
AcDbDimension
  2
*D9
 10
-167.3566610729113
 20
9.999994277953135
 30
0.0
 11
-170.7566610729113
 21
0.0000171661371091
 31
0.0
 70
    32
  1
%%c<>
  3
AM_JIS$0
100
AcDbAlignedDimension
 13
-146.9999580383289
 23
-9.99995994567887
 33
0.0
 14
-146.9999580383289
 24
9.999994277953128
 34
0.0
 50
270.0
100
AcDbRotatedDimension
1001
ACAD
1000
DSTYLE
1002
{
1070
   171
1070
     0
1070
   271
1070
     0
1002
}
1001
GENIUS_GENDTOL_13
1000

1000
h7
1000

1040
0.0
  0
INSERT
  5
3431
330
1F
100
AcDbEntity
  8
AM_11
100
AcDbBlockReference
  2
A$C2DD67FEF
 10
0.0000000000000284
 20
-0.0000057220468723
 30
0.0
 50
180.0
  0
DIMENSION
  5
3468
330
1F
100
AcDbEntity
  8
AM_5
100
AcDbDimension
  2
*D12
 10
0.0000000000000311
 20
24.49999718530113
 30
0.0
 11
-4.499992370605466
 21
27.89999718530113
 31
0.0
 70
    32
  1
<>
  3
AM_JIS$0
100
AcDbAlignedDimension
 13
-8.999984741210964
 23
10.49999618530112
 33
0.0
 14
0.0000000000000302
 24
10.49999618530112
 34
0.0
 50
180.0
100
AcDbRotatedDimension
1001
ACAD
1000
DSTYLE
1002
{
1070
   271
1070
     0
1002
}
1001
GENIUS_GENDTOL_13
1000

1000
h7
1000

1040
0.0
  0
VIEWPORT
  5
110
330
101
100
AcDbEntity
 67
     1
  8
0
100
AcDbViewport
 10
420.5
 20
297.0
 30
0.0
 40
948.9782706766916
 41
628.452
 68
     1
 69
     1
1001
ACAD
1000
MVIEW
1002
{
1070
    16
1010
0.0
1020
0.0
1030
0.0
1010
0.0
1020
0.0
1030
1.0
1040
0.0
1040
628.452
1040
420.5
1040
297.0
1040
50.0
1040
0.0
1040
0.0
1070
     0
1070
   100
1070
     1
1070
     1
1070
     0
1070
     0
1070
     0
1070
     0
1040
0.0
1040
0.0
1040
0.0
1040
10.0
1040
10.0
1040
10.0
1040
10.0
1070
     0
1002
{
1002
}
1002
}
  0
ENDSEC
  0
SECTION
  2
OBJECTS
  0
DICTIONARY
  5
C
330
0
100
AcDbDictionary
  3
ACAD_GROUP
350
D
  3
ACAD_LAYOUT
350
1A
  3
ACAD_MLINESTYLE
350
17
  3
ACAD_PLOTSETTINGS
350
19
  3
ACAD_PLOTSTYLENAME
350
E
  3
ACDBVARIABLEDICTIONARY
350
34
  3
ACMDICTIONARY
350
43
  3
AMG
350
2B
  3
AMGSNAPSETTINGS
350
6E
  3
ASE_INDEX_DICTIONARY
350
31E1
  3
DWGPROPS
350
357C
  3
ACDBHEADERROUNDTRIPXREC
350
3589
  0
DICTIONARY
  5
74
330
1F
100
AcDbDictionary
280
     1
  3
ACAD_INDEX
360
357E
  3
ACAD_LAYOUTSELFREF
360
35AC
  0
DICTIONARY
  5
35B1
330
101
100
AcDbDictionary
280
     1
  3
ACAD_LAYOUTSELFREF
360
35B2
  0
DICTIONARY
  5
D
102
{ACAD_REACTORS
330
C
102
}
330
C
100
AcDbDictionary
  0
DICTIONARY
  5
1A
102
{ACAD_REACTORS
330
C
102
}
330
C
100
AcDbDictionary
  0
DICTIONARY
  5
17
102
{ACAD_REACTORS
330
C
102
}
330
C
100
AcDbDictionary
  3
STANDARD
350
18
  0
DICTIONARY
  5
19
102
{ACAD_REACTORS
330
C
102
}
330
C
100
AcDbDictionary
  0
ACDBDICTIONARYWDFLT
  5
E
102
{ACAD_REACTORS
330
C
102
}
330
C
100
AcDbDictionary
281
     1
  3
Normal
350
F
100
AcDbDictionaryWithDefault
340
F
  0
DICTIONARY
  5
34
102
{ACAD_REACTORS
330
C
102
}
330
C
100
AcDbDictionary
  3
INDEXCTL
350
35
  3
SORTENTS
350
B5E
  0
DICTIONARY
  5
43
102
{ACAD_REACTORS
330
C
102
}
330
C
100
AcDbDictionary
  3
ACMSTDDICTIONARY
350
260
  0
DICTIONARY
  5
2B
102
{ACAD_REACTORS
330
C
102
}
330
C
100
AcDbDictionary
  3
ACMGSETTINGS
350
2C
  0
DICTIONARY
  5
6E
102
{ACAD_REACTORS
330
C
102
}
330
C
100
AcDbDictionary
  0
DICTIONARY
  5
31E1
102
{ACAD_REACTORS
330
C
102
}
330
C
100
AcDbDictionary
  3
ASEBLOCKHIERARCHYINDEXRECORD
350
31E3
1001
DCO15
1040
1471945566.875
  0
XRECORD
  5
357C
102
{ACAD_REACTORS
330
C
102
}
330
C
100
AcDbXrecord
  1
DWGPROPS COOKIE
  2

  3

  4

  6

  7

  8

  9

300
AmdtFileType=82
301
=
302
=
303
=
304
=
305
=
306
=
307
=
308
=
309
=
 40
0.0893717476851852
 41
2452839.420061482
 42
2452872.432698738
  1

 90
        1
  0
DICTIONARY
  5
3589
102
{ACAD_REACTORS
330
C
102
}
330
C
100
AcDbDictionary
  3
TSTACKALIGN
350
358A
  3
TSTACKSIZE
350
358B
  3
HYPERLINKBASE
350
358C
  3
STYLESHEET
350
358D
  3
LAYOUTDICT
350
358E
  3
PLOTSETDICT
350
358F
  3
PLOTSTYLNAMDICT
350
3590
  3
LWETCUNION
350
3591
  3
INSUNITS
350
3592
  3
CEPSNTYPE
350
3593
  3
FINGERPRINTGUID
350
3594
  3
VERSIONGUID
350
3595
  3
PSVPSCALE
350
3596
  3
DIMSTYLEDATA
350
3597
  3
PUCSORTHOREF
350
3598
  3
PUCSORTHOVIEW
350
3599
  3
PUCSBASE
350
359A
  3
PUCSORGTOP
350
359B
  3
PUCSORGBOTTOM
350
359C
  3
PUCSORGLEFT
350
359D
  3
PUCSORGRIGHT
350
359E
  3
PUCSORGFRONT
350
359F
  3
PUCSORGBACK
350
35A0
  3
UCSORTHOREF
350
35A1
  3
UCSORTHOVIEW
350
35A2
  3
UCSBASE
350
35A3
  3
UCSORGTOP
350
35A4
  3
UCSORGBOTTOM
350
35A5
  3
UCSORGLEFT
350
35A6
  3
UCSORGRIGHT
350
35A7
  3
UCSORGFRONT
350
35A8
  3
UCSORGBACK
350
35A9
  0
DICTIONARY
  5
357E
102
{ACAD_REACTORS
330
74
102
}
330
74
100
AcDbDictionary
  3
*A1
350
357F
  0
XRECORD
  5
35AC
102
{ACAD_REACTORS
330
74
102
}
330
74
100
AcDbXrecord
340
1F
  0
XRECORD
  5
35B2
102
{ACAD_REACTORS
330
35B1
102
}
330
35B1
100
AcDbXrecord
340
101
  0
MLINESTYLE
  5
18
102
{ACAD_REACTORS
330
17
102
}
330
17
100
AcDbMlineStyle
  2
STANDARD
 70
     0
  3

 62
   256
 51
90.0
 52
90.0
 71
     2
 49
0.5
 62
   256
  6
BYLAYER
 49
-0.5
 62
   256
  6
BYLAYER
  0
ACDBPLACEHOLDER
  5
F
102
{ACAD_REACTORS
330
E
102
}
330
E
100
AcDbPlaceHolder
280
     0
  0
DICTIONARYVAR
  5
35
102
{ACAD_REACTORS
330
34
102
}
330
34
100
DictionaryVariables
280
     0
  1
1
  0
DICTIONARYVAR
  5
B5E
102
{ACAD_REACTORS
330
34
102
}
330
34
100
DictionaryVariables
280
     0
  1
96
  0
DICTIONARY
  5
260
102
{ACAD_REACTORS
330
43
102
}
330
43
100
AcDbDictionary
  0
DICTIONARY
  5
2C
102
{ACAD_REACTORS
330
2B
102
}
330
2B
100
AcDbDictionary
  3
DWGSETTINGS
350
2D
  0
XRECORD
  5
31E3
102
{ACAD_REACTORS
330
31E1
102
}
330
31E1
100
AcDbXrecord
330
3431
330
0
330
0
330
0
330
0
330
0
330
0
330
0
330
0
330
0
330
0
330
0
330
0
  0
XRECORD
  5
358A
102
{ACAD_REACTORS
330
3589
102
}
330
3589
100
AcDbXrecord
 90
        1
  0
XRECORD
  5
358B
102
{ACAD_REACTORS
330
3589
102
}
330
3589
100
AcDbXrecord
 90
       70
  0
XRECORD
  5
358C
102
{ACAD_REACTORS
330
3589
102
}
330
3589
100
AcDbXrecord
  1

  0
XRECORD
  5
358D
102
{ACAD_REACTORS
330
3589
102
}
330
3589
100
AcDbXrecord
  1
ASAMI.ctb
  0
XRECORD
  5
358E
102
{ACAD_REACTORS
330
3589
102
}
330
3589
100
AcDbXrecord
340
1A
  0
XRECORD
  5
358F
102
{ACAD_REACTORS
330
3589
102
}
330
3589
100
AcDbXrecord
340
19
  0
XRECORD
  5
3590
102
{ACAD_REACTORS
330
3589
102
}
330
3589
100
AcDbXrecord
340
E
  0
XRECORD
  5
3591
102
{ACAD_REACTORS
330
3589
102
}
330
3589
100
AcDbXrecord
 90
    10781
  0
XRECORD
  5
3592
102
{ACAD_REACTORS
330
3589
102
}
330
3589
100
AcDbXrecord
 90
        4
  0
XRECORD
  5
3593
102
{ACAD_REACTORS
330
3589
102
}
330
3589
100
AcDbXrecord
 90
        0
  0
XRECORD
  5
3594
102
{ACAD_REACTORS
330
3589
102
}
330
3589
100
AcDbXrecord
  1
{AFB28963-8C59-40AE-9337-C84526B81ACE}
  0
XRECORD
  5
3595
102
{ACAD_REACTORS
330
3589
102
}
330
3589
100
AcDbXrecord
  1
{A150CFDA-6786-4AA5-8754-015CB4EA2F61}
  0
XRECORD
  5
3596
102
{ACAD_REACTORS
330
3589
102
}
330
3589
100
AcDbXrecord
 40
0.0
  0
XRECORD
  5
3597
102
{ACAD_REACTORS
330
3589
102
}
330
3589
100
AcDbXrecord
1000
DSTYLE
1002
{
1070
    79
 70
     2
1070
   341
340
59
1070
   342
340
59
1070
   371
 70
    -1
1070
   372
 70
    -1
1002
}
  0
XRECORD
  5
3598
102
{ACAD_REACTORS
330
3589
102
}
330
3589
100
AcDbXrecord
340
0
  0
XRECORD
  5
3599
102
{ACAD_REACTORS
330
3589
102
}
330
3589
100
AcDbXrecord
 70
     0
  0
XRECORD
  5
359A
102
{ACAD_REACTORS
330
3589
102
}
330
3589
100
AcDbXrecord
340
0
  0
XRECORD
  5
359B
102
{ACAD_REACTORS
330
3589
102
}
330
3589
100
AcDbXrecord
 10
0.0
 20
0.0
 30
0.0
  0
XRECORD
  5
359C
102
{ACAD_REACTORS
330
3589
102
}
330
3589
100
AcDbXrecord
 10
0.0
 20
0.0
 30
0.0
  0
XRECORD
  5
359D
102
{ACAD_REACTORS
330
3589
102
}
330
3589
100
AcDbXrecord
 10
0.0
 20
0.0
 30
0.0
  0
XRECORD
  5
359E
102
{ACAD_REACTORS
330
3589
102
}
330
3589
100
AcDbXrecord
 10
0.0
 20
0.0
 30
0.0
  0
XRECORD
  5
359F
102
{ACAD_REACTORS
330
3589
102
}
330
3589
100
AcDbXrecord
 10
0.0
 20
0.0
 30
0.0
  0
XRECORD
  5
35A0
102
{ACAD_REACTORS
330
3589
102
}
330
3589
100
AcDbXrecord
 10
0.0
 20
0.0
 30
0.0
  0
XRECORD
  5
35A1
102
{ACAD_REACTORS
330
3589
102
}
330
3589
100
AcDbXrecord
340
0
  0
XRECORD
  5
35A2
102
{ACAD_REACTORS
330
3589
102
}
330
3589
100
AcDbXrecord
 70
     0
  0
XRECORD
  5
35A3
102
{ACAD_REACTORS
330
3589
102
}
330
3589
100
AcDbXrecord
340
0
  0
XRECORD
  5
35A4
102
{ACAD_REACTORS
330
3589
102
}
330
3589
100
AcDbXrecord
 10
0.0
 20
0.0
 30
0.0
  0
XRECORD
  5
35A5
102
{ACAD_REACTORS
330
3589
102
}
330
3589
100
AcDbXrecord
 10
0.0
 20
0.0
 30
0.0
  0
XRECORD
  5
35A6
102
{ACAD_REACTORS
330
3589
102
}
330
3589
100
AcDbXrecord
 10
0.0
 20
0.0
 30
0.0
  0
XRECORD
  5
35A7
102
{ACAD_REACTORS
330
3589
102
}
330
3589
100
AcDbXrecord
 10
0.0
 20
0.0
 30
0.0
  0
XRECORD
  5
35A8
102
{ACAD_REACTORS
330
3589
102
}
330
3589
100
AcDbXrecord
 10
0.0
 20
0.0
 30
0.0
  0
XRECORD
  5
35A9
102
{ACAD_REACTORS
330
3589
102
}
330
3589
100
AcDbXrecord
 10
0.0
 20
0.0
 30
0.0
  0
LAYER_INDEX
  5
357F
102
{ACAD_REACTORS
330
357E
102
}
330
357E
100
AcDbIndex
 40
2453152.399696064
100
AcDbLayerIndex
  8
0
360
3580
 90
        0
  8
AM_0
360
3581
 90
        0
  8
AM_7
360
3582
 90
        0
  8
AM_11
360
3583
 90
        1
  8
AM_5
360
3584
 90
        6
  8
Defpoints
360
3585
 90
        0
  8
AM_6
360
3586
 90
        1
  8
AM_CL
360
3587
 90
        0
  0
XRECORD
  5
2D
102
{ACAD_REACTORS
330
2C
102
}
330
2C
100
AcDbXrecord
  1
VERSION
140
15.0
  1
PRODUCT
  2
AutoCAD Mechanical 2000
  0
IDBUFFER
  5
3580
330
0
100
AcDbIdBuffer
  0
IDBUFFER
  5
3581
330
0
100
AcDbIdBuffer
  0
IDBUFFER
  5
3582
330
0
100
AcDbIdBuffer
  0
IDBUFFER
  5
3583
330
0
100
AcDbIdBuffer
330
3431
  0
IDBUFFER
  5
3584
330
0
100
AcDbIdBuffer
330
155D
330
15E8
330
1673
330
2B71
330
300D
330
3468
  0
IDBUFFER
  5
3585
330
0
100
AcDbIdBuffer
  0
IDBUFFER
  5
3586
330
0
100
AcDbIdBuffer
330
1142
  0
IDBUFFER
  5
3587
330
0
100
AcDbIdBuffer
  0
ENDSEC
  0
EOF
