  0
SECTION
  2
HEADER
  9
$ACADVER
  1
AC1014
  9
$ACADMAINTVER
 70
     9
  9
$DWGCODEPAGE
  3
ANSI_932
  9
$INSBASE
 10
0.0
 20
0.0
 30
0.0
  9
$EXTMIN
 10
-132.0691480587334
 20
-59.00008873803675
 30
-0.00000001
  9
$EXTMAX
 10
16.72850136621099
 20
31.80002961022907
 30
0.00000001
  9
$LIMMIN
 10
-144.988552373739
 20
-78.32833282211424
  9
$LIMMAX
 10
69.28015948733514
 20
39.80700802676142
  9
$ORTHOMODE
 70
     0
  9
$REGENMODE
 70
     1
  9
$FILLMODE
 70
     1
  9
$QTEXTMODE
 70
     0
  9
$MIRRTEXT
 70
     0
  9
$DRAGMODE
 70
     2
  9
$LTSCALE
 40
1.0
  9
$OSMODE
 70
    55
  9
$ATTMODE
 70
     1
  9
$TEXTSIZE
 40
2.5
  9
$TRACEWID
 40
1.0
  9
$TEXTSTYLE
  7
STANDARD
  9
$CLAYER
  8
AM_0
  9
$CELTYPE
  6
BYLAYER
  9
$CECOLOR
 62
   256
  9
$CELTSCALE
 40
1.0
  9
$DELOBJ
 70
     1
  9
$DISPSILH
 70
     0
  9
$DIMSCALE
 40
1.0
  9
$DIMASZ
 40
2.5
  9
$DIMEXO
 40
1.0
  9
$DIMDLI
 40
12.0
  9
$DIMRND
 40
0.0
  9
$DIMDLE
 40
0.0
  9
$DIMEXE
 40
1.0
  9
$DIMTP
 40
0.1
  9
$DIMTM
 40
0.1
  9
$DIMTXT
 40
3.2
  9
$DIMCEN
 40
0.0
  9
$DIMTSZ
 40
0.0
  9
$DIMTOL
 70
     0
  9
$DIMLIM
 70
     0
  9
$DIMTIH
 70
     0
  9
$DIMTOH
 70
     0
  9
$DIMSE1
 70
     0
  9
$DIMSE2
 70
     0
  9
$DIMTAD
 70
     3
  9
$DIMZIN
 70
     8
  9
$DIMBLK
  1
OPEN30
  9
$DIMASO
 70
     1
  9
$DIMSHO
 70
     1
  9
$DIMPOST
  1

  9
$DIMAPOST
  1
"
  9
$DIMALT
 70
     0
  9
$DIMALTD
 70
     2
  9
$DIMALTF
 40
0.0393701
  9
$DIMLFAC
 40
1.0
  9
$DIMTOFL
 70
     1
  9
$DIMTVP
 40
0.0
  9
$DIMTIX
 70
     0
  9
$DIMSOXD
 70
     0
  9
$DIMSAH
 70
     0
  9
$DIMBLK1
  1

  9
$DIMBLK2
  1

  9
$DIMSTYLE
  2
AM_JIS
  9
$DIMCLRD
 70
   256
  9
$DIMCLRE
 70
   256
  9
$DIMCLRT
 70
     2
  9
$DIMTFAC
 40
0.71
  9
$DIMGAP
 40
1.5
  9
$DIMJUST
 70
     0
  9
$DIMSD1
 70
     0
  9
$DIMSD2
 70
     0
  9
$DIMTOLJ
 70
     0
  9
$DIMTZIN
 70
     0
  9
$DIMALTZ
 70
     0
  9
$DIMALTTZ
 70
     0
  9
$DIMFIT
 70
     3
  9
$DIMUPT
 70
     0
  9
$DIMUNIT
 70
     2
  9
$DIMDEC
 70
     3
  9
$DIMTDEC
 70
     3
  9
$DIMALTU
 70
     2
  9
$DIMALTTD
 70
     2
  9
$DIMTXSTY
  7
ASAMI
  9
$DIMAUNIT
 70
     0
  9
$LUNITS
 70
     2
  9
$LUPREC
 70
     0
  9
$SKETCHINC
 40
1.0
  9
$FILLETRAD
 40
2.5
  9
$AUNITS
 70
     0
  9
$AUPREC
 70
     0
  9
$MENU
  1
.
  9
$ELEVATION
 40
0.0
  9
$PELEVATION
 40
0.0
  9
$THICKNESS
 40
0.0
  9
$LIMCHECK
 70
     0
  9
$BLIPMODE
 70
     0
  9
$CHAMFERA
 40
2.5
  9
$CHAMFERB
 40
2.5
  9
$CHAMFERC
 40
20.0
  9
$CHAMFERD
 40
0.0
  9
$SKPOLY
 70
     0
  9
$TDCREATE
 40
2452839.420061482
  9
$TDUPDATE
 40
2453152.406508668
  9
$TDINDWG
 40
0.0729927662
  9
$TDUSRTIMER
 40
0.0729927662
  9
$USRTIMER
 70
     1
  9
$ANGBASE
 50
0.0
  9
$ANGDIR
 70
     0
  9
$PDMODE
 70
     0
  9
$PDSIZE
 40
0.0
  9
$PLINEWID
 40
0.0
  9
$COORDS
 70
     1
  9
$SPLFRAME
 70
     0
  9
$SPLINETYPE
 70
     6
  9
$SPLINESEGS
 70
     8
  9
$ATTDIA
 70
     1
  9
$ATTREQ
 70
     1
  9
$HANDLING
 70
 12289
  9
$HANDSEED
  5
241E
  9
$SURFTAB1
 70
     6
  9
$SURFTAB2
 70
     6
  9
$SURFTYPE
 70
     6
  9
$SURFU
 70
     6
  9
$SURFV
 70
     6
  9
$UCSNAME
  2

  9
$UCSORG
 10
0.0
 20
0.0
 30
0.0
  9
$UCSXDIR
 10
1.0
 20
0.0
 30
0.0
  9
$UCSYDIR
 10
0.0
 20
1.0
 30
0.0
  9
$PUCSNAME
  2

  9
$PUCSORG
 10
0.0
 20
0.0
 30
0.0
  9
$PUCSXDIR
 10
1.0
 20
0.0
 30
0.0
  9
$PUCSYDIR
 10
0.0
 20
1.0
 30
0.0
  9
$USERI1
 70
     0
  9
$USERI2
 70
     0
  9
$USERI3
 70
     0
  9
$USERI4
 70
     0
  9
$USERI5
 70
     0
  9
$USERR1
 40
0.0
  9
$USERR2
 40
0.0
  9
$USERR3
 40
0.0
  9
$USERR4
 40
0.0
  9
$USERR5
 40
0.0
  9
$WORLDVIEW
 70
     1
  9
$SHADEDGE
 70
     3
  9
$SHADEDIF
 70
    70
  9
$TILEMODE
 70
     1
  9
$MAXACTVP
 70
    64
  9
$PINSBASE
 10
0.0
 20
0.0
 30
0.0
  9
$PLIMCHECK
 70
     0
  9
$PEXTMIN
 10
1.000000000000000E+20
 20
1.000000000000000E+20
 30
1.000000000000000E+20
  9
$PEXTMAX
 10
-1.000000000000000E+20
 20
-1.000000000000000E+20
 30
-1.000000000000000E+20
  9
$PLIMMIN
 10
0.0
 20
0.0
  9
$PLIMMAX
 10
841.0
 20
594.0
  9
$UNITMODE
 70
     0
  9
$VISRETAIN
 70
     1
  9
$PLINEGEN
 70
     0
  9
$PSLTSCALE
 70
     0
  9
$TREEDEPTH
 70
  3020
  9
$PICKSTYLE
 70
     0
  9
$CMLSTYLE
  2
STANDARD
  9
$CMLJUST
 70
     0
  9
$CMLSCALE
 40
20.0
  9
$PROXYGRAPHICS
 70
     1
  9
$MEASUREMENT
 70
     1
  0
ENDSEC
  0
SECTION
  2
CLASSES
  0
CLASS
  1
ACDBDICTIONARYWDFLT
  2
AcDbDictionaryWithDefault
  3
AutoCAD 2000
 90
        0
280
     0
281
     0
  0
CLASS
  1
ACDBPLACEHOLDER
  2
AcDbPlaceHolder
  3
AutoCAD 2000
 90
        0
280
     0
281
     0
  0
CLASS
  1
LAYOUT
  2
AcDbLayout
  3
AutoCAD 2000
 90
        0
280
     0
281
     0
  0
CLASS
  1
AMGSETTINGSOBJ
  2
AmgSettingsObj
  3
"AcadM|Product Description: AutoCAD Mechanical 2000|Company: Autodesk"
 90
        0
280
     0
281
     0
  0
CLASS
  1
ACME_DOCUMENT
  2
AcMeDbDoc
  3
AcMeServices
 90
        0
280
     0
281
     0
  0
CLASS
  1
ACMESCOPE
  2
AcMeScope
  3
AcMeServices
 90
        0
280
     0
281
     0
  0
CLASS
  1
ACMECOMMANDHISTORY
  2
AcMeCommandHistory
  3
AcMeServices
 90
        0
280
     0
281
     0
  0
CLASS
  1
DICTIONARYVAR
  2
AcDbDictionaryVar
  3
AutoCAD 2000
 90
        0
280
     0
281
     0
  0
CLASS
  1
ACIMSYSVARMAN
  2
AcImSysVarManager
  3
AcMeServices
 90
        0
280
     0
281
     0
  0
CLASS
  1
ACIMREALSYSVAR
  2
AcImRealSysVar
  3
AcMeServices
 90
        0
280
     0
281
     0
  0
CLASS
  1
ACIMINTSYSVAR
  2
AcImIntSysVar
  3
AcMeServices
 90
        0
280
     0
281
     0
  0
CLASS
  1
ACMEDRAWINGMAN
  2
AcMeDrawingMan
  3
AcMeServices
 90
        0
280
     0
281
     0
  0
CLASS
  1
ACMEVIEW
  2
AcMeView
  3
AcMeServices
 90
        0
280
     0
281
     0
  0
CLASS
  1
ACDBENTITYCACHE
  2
AcMeEntityCache
  3
AcMeServices
 90
        0
280
     0
281
     0
  0
CLASS
  1
GSMANAGER
  2
AcMeGSManager
  3
AcMeServices
 90
        0
280
     0
281
     0
  0
CLASS
  1
AmdtInternalReactor
  2
AmdtInternalReactor
  3
AcMeServices
 90
        0
280
     0
281
     0
  0
CLASS
  1
ACMESTATEMGR
  2
AcMeStateMgr
  3
AcMeServices
 90
        0
280
     0
281
     0
  0
CLASS
  1
ACME_DATABASE
  2
AcMeDbDatabase
  3
AcMeServices
 90
        0
280
     0
281
     0
  0
CLASS
  1
ACRFINSADJUSTERMGR
  2
AcRfInsAdjusterMgr
  3
AcMeServices
 90
        0
280
     0
281
     0
  0
CLASS
  1
ACMDATADICTIONARY
  2
AcmDataDictionary
  3
"AcmSymBB|Product Description: AutoCAD Mechanical 2000|Company: Autodesk"
 90
        0
280
     0
281
     0
  0
CLASS
  1
ACMDATAENTRYBLOCK
  2
AcmDataEntryBlock
  3
"AcmSymBB|Product Description: AutoCAD Mechanical 2000|Company: Autodesk"
 90
        0
280
     0
281
     0
  0
CLASS
  1
AMGOBJPROPCFG
  2
AmgObjPropCfg
  3
"AmgLay|Product Description: AutoCAD Mechanical 2000|Company: Autodesk"
 90
        1
280
     0
281
     0
  0
CLASS
  1
ACAMGFILTERDAT
  2
AcAmgFilterDat
  3
"AcadM|Product Description: AutoCAD Mechanical 2000|Company: Autodesk"
 90
        0
280
     0
281
     0
  0
CLASS
  1
LAYER_INDEX
  2
AcDbLayerIndex
  3
AutoCAD 2000
 90
        0
280
     0
281
     0
  0
CLASS
  1
IDBUFFER
  2
AcDbIdBuffer
  3
AutoCAD 2000
 90
        0
280
     0
281
     0
  0
CLASS
  1
ACIMSTRSYSVAR
  2
AcImStrSysVar
  3
AcMeServices
 90
        0
280
     0
281
     0
  0
CLASS
  1
ACMSTANDARDJIS
  2
AcmStandardJIS
  3
"AcmSymBB|Product Description: AutoCAD Mechanical 2000|Company: Autodesk"
 90
        0
280
     0
281
     0
  0
CLASS
  1
ACMSURFSTANDARDJIS
  2
AcmSurfTextStdJIS
  3
"AcmSymBB|Product Description: AutoCAD Mechanical 2000|Company: Autodesk"
 90
        0
280
     0
281
     0
  0
CLASS
  1
ACMFCFSTANDARDJIS
  2
AcmFCFStdJIS
  3
"AcmSymBB|Product Description: AutoCAD Mechanical 2000|Company: Autodesk"
 90
        0
280
     0
281
     0
  0
CLASS
  1
ACMWELDSTANDARDJIS
  2
AcmWeldingStdJIS
  3
"AcmSymBB|Product Description: AutoCAD Mechanical 2000|Company: Autodesk"
 90
        0
280
     0
281
     0
  0
CLASS
  1
ACMIDSTANDARDJIS
  2
AcmIdStdJIS
  3
"AcmSymBB|Product Description: AutoCAD Mechanical 2000|Company: Autodesk"
 90
        0
280
     0
281
     0
  0
CLASS
  1
ACMDATUMSTANDARDJIS
  2
AcmDatumStdJIS
  3
"AcmSymBB|Product Description: AutoCAD Mechanical 2000|Company: Autodesk"
 90
        0
280
     0
281
     0
  0
CLASS
  1
ACMBOMSTANDARDJIS
  2
AcmBOMStdJIS
  3
"AcmSymBB|Product Description: AutoCAD Mechanical 2000|Company: Autodesk"
 90
        0
280
     0
281
     0
  0
CLASS
  1
ACMSTANDARDANSI
  2
AcmStandardANSI
  3
"AcmSymBB|Product Description: AutoCAD Mechanical 2000|Company: Autodesk"
 90
        0
280
     0
281
     0
  0
CLASS
  1
ACMSURFSTANDARDANSI
  2
AcmSurfTextStdANSI
  3
"AcmSymBB|Product Description: AutoCAD Mechanical 2000|Company: Autodesk"
 90
        0
280
     0
281
     0
  0
CLASS
  1
ACMFCFSTANDARDANSI
  2
AcmFCFStdANSI
  3
"AcmSymBB|Product Description: AutoCAD Mechanical 2000|Company: Autodesk"
 90
        0
280
     0
281
     0
  0
CLASS
  1
ACMWELDSTANDARDANSI
  2
AcmWeldingStdANSI
  3
"AcmSymBB|Product Description: AutoCAD Mechanical 2000|Company: Autodesk"
 90
        0
280
     0
281
     0
  0
CLASS
  1
ACMIDSTANDARDANSI
  2
AcmIdStdANSI
  3
"AcmSymBB|Product Description: AutoCAD Mechanical 2000|Company: Autodesk"
 90
        0
280
     0
281
     0
  0
CLASS
  1
ACMDATUMSTANDARDANSI
  2
AcmDatumStdANSI
  3
"AcmSymBB|Product Description: AutoCAD Mechanical 2000|Company: Autodesk"
 90
        0
280
     0
281
     0
  0
CLASS
  1
ACMBOMSTANDARDANSI
  2
AcmBOMStdANSI
  3
"AcmSymBB|Product Description: AutoCAD Mechanical 2000|Company: Autodesk"
 90
        0
280
     0
281
     0
  0
CLASS
  1
ACMSTANDARDBSI
  2
AcmStandardBSI
  3
"AcmSymBB|Product Description: AutoCAD Mechanical 2000|Company: Autodesk"
 90
        0
280
     0
281
     0
  0
CLASS
  1
ACMSURFSTANDARDBSI
  2
AcmSurfTextStdBSI
  3
"AcmSymBB|Product Description: AutoCAD Mechanical 2000|Company: Autodesk"
 90
        0
280
     0
281
     0
  0
CLASS
  1
ACMFCFSTANDARDBSI
  2
AcmFCFStdBSI
  3
"AcmSymBB|Product Description: AutoCAD Mechanical 2000|Company: Autodesk"
 90
        0
280
     0
281
     0
  0
CLASS
  1
ACMWELDSTANDARDBSI
  2
AcmWeldingStdBSI
  3
"AcmSymBB|Product Description: AutoCAD Mechanical 2000|Company: Autodesk"
 90
        0
280
     0
281
     0
  0
CLASS
  1
ACMIDSTANDARDBSI
  2
AcmIdStdBSI
  3
"AcmSymBB|Product Description: AutoCAD Mechanical 2000|Company: Autodesk"
 90
        0
280
     0
281
     0
  0
CLASS
  1
ACMDATUMSTANDARDBSI
  2
AcmDatumStdBSI
  3
"AcmSymBB|Product Description: AutoCAD Mechanical 2000|Company: Autodesk"
 90
        0
280
     0
281
     0
  0
CLASS
  1
ACMBOMSTANDARDBSI
  2
AcmBOMStdBSI
  3
"AcmSymBB|Product Description: AutoCAD Mechanical 2000|Company: Autodesk"
 90
        0
280
     0
281
     0
  0
CLASS
  1
LONG_TRANSACTION
  2
AcDbLongTransaction
  3
AutoCAD 2000
 90
        0
280
     0
281
     0
  0
CLASS
  1
LWPOLYLINE
  2
AcDbPolyline
  3
AutoCAD 2000
 90
        0
280
     0
281
     1
  0
CLASS
  1
HATCH
  2
AcDbHatch
  3
AutoCAD 2000
 90
        0
280
     0
281
     1
  0
CLASS
  1
XRECORD
  2
AcDbXrecord
  3
AutoCAD 2000
 90
        0
280
     0
281
     0
  0
ENDSEC
  0
SECTION
  2
TABLES
  0
TABLE
  2
VPORT
  5
8
330
0
100
AcDbSymbolTable
 70
     3
  0
VPORT
  5
23F3
330
8
100
AcDbSymbolTableRecord
100
AcDbViewportTableRecord
  2
*ACTIVE
 70
     0
 10
0.0
 20
0.0
 11
1.0
 21
1.0
 12
-53.27575269539955
 22
-13.95536735665296
 13
0.0
 23
0.0
 14
2.5
 24
2.5
 15
10.0
 25
10.0
 16
0.0
 26
0.0
 36
1.0
 17
0.0
 27
0.0
 37
0.0
 40
116.0755258708286
 41
1.56570841889117
 42
50.0
 43
0.0
 44
0.0
 50
0.0
 51
0.0
 71
     0
 72
   100
 73
     1
 74
     3
 75
     0
 76
     0
 77
     0
 78
     0
  0
ENDTAB
  0
TABLE
  2
LTYPE
  5
5
330
0
100
AcDbSymbolTable
 70
    10
  0
LTYPE
  5
14
330
5
100
AcDbSymbolTableRecord
100
AcDbLinetypeTableRecord
  2
BYBLOCK
 70
     0
  3

 72
    65
 73
     0
 40
0.0
  0
LTYPE
  5
15
330
5
100
AcDbSymbolTableRecord
100
AcDbLinetypeTableRecord
  2
BYLAYER
 70
     0
  3

 72
    65
 73
     0
 40
0.0
  0
LTYPE
  5
16
330
5
100
AcDbSymbolTableRecord
100
AcDbLinetypeTableRecord
  2
CONTINUOUS
 70
     0
  3
Solid line
 72
    65
 73
     0
 40
0.0
  0
LTYPE
  5
4B
330
5
100
AcDbSymbolTableRecord
100
AcDbLinetypeTableRecord
  2
AM_ISO02W050
 70
     0
  3
__ __ __ __ __ __ __ __ __ __ __ __ __ __ __
 72
    65
 73
     2
 40
7.5
 49
6.0
 74
     0
 49
-1.5
 74
     0
  0
LTYPE
  5
4C
330
5
100
AcDbSymbolTableRecord
100
AcDbLinetypeTableRecord
  2
AM_ISO08W050
 70
     0
  3
____ . ____ . ____ . ____ . ____ . ____ . ____
 72
    65
 73
     4
 40
18.0
 49
12.0
 74
     0
 49
-1.5
 74
     0
 49
3.0
 74
     0
 49
-1.5
 74
     0
  0
LTYPE
  5
4D
330
5
100
AcDbSymbolTableRecord
100
AcDbLinetypeTableRecord
  2
AM_ISO09W050
 70
     0
  3
_____ . . _____ . . _____ . . ____ .. ____
 72
    65
 73
     6
 40
22.5
 49
12.0
 74
     0
 49
-1.5
 74
     0
 49
3.0
 74
     0
 49
-1.5
 74
     0
 49
3.0
 74
     0
 49
-1.5
 74
     0
  0
LTYPE
  5
4E
330
5
100
AcDbSymbolTableRecord
100
AcDbLinetypeTableRecord
  2
AMCONSTR
 70
     0
  3
_______________________
 72
    65
 73
     2
 40
9999.0
 49
9999.0
 74
     0
 49
0.0
 74
     0
  0
LTYPE
  5
4F
330
5
100
AcDbSymbolTableRecord
100
AcDbLinetypeTableRecord
  2
AM_ISO02W050X2
 70
     0
  3
 _ _ _ _ _ _ _ _ _ _ _ _
 72
    65
 73
     2
 40
3.75
 49
3.0
 74
     0
 49
-0.75
 74
     0
  0
LTYPE
  5
50
330
5
100
AcDbSymbolTableRecord
100
AcDbLinetypeTableRecord
  2
AM_ISO08W050X2
 70
     0
  3
__ . __ . __ . __ . __ . __
 72
    65
 73
     4
 40
9.0
 49
6.0
 74
     0
 49
-0.75
 74
     0
 49
1.5
 74
     0
 49
-0.75
 74
     0
  0
LTYPE
  5
53
330
5
100
AcDbSymbolTableRecord
100
AcDbLinetypeTableRecord
  2
AMZIGZAG
 70
     0
  3
/\/-/\/-/\/-/\/-/\/-/\/
 72
    65
 73
     2
 40
11.00009999999999
 49
0.0001
 74
     4
 75
   135
340
52
 46
0.04
 50
0.0
 44
0.0
 45
0.0
 49
-11.0
 74
     0
  0
LTYPE
  5
166
330
5
100
AcDbSymbolTableRecord
100
AcDbLinetypeTableRecord
  2
ACJISTGL
 70
     0
  3
_ _ _ _ _
 72
    65
 73
     2
 40
3.0
 49
2.0
 74
     0
 49
-1.0
 74
     0
  0
LTYPE
  5
26A
330
5
100
AcDbSymbolTableRecord
100
AcDbLinetypeTableRecord
  2
ACJISTGB
 70
     0
  3
__ . . __ . .
 72
    65
 73
     6
 40
9.0
 49
4.0
 74
     0
 49
-1.0
 74
     0
 49
1.0
 74
     0
 49
-1.0
 74
     0
 49
1.0
 74
     0
 49
-1.0
 74
     0
  0
ENDTAB
  0
TABLE
  2
LAYER
  5
2
330
0
100
AcDbSymbolTable
 70
     7
  0
LAYER
  5
10
330
2
100
AcDbSymbolTableRecord
100
AcDbLayerTableRecord
  2
0
 70
     0
 62
     7
  6
CONTINUOUS
  0
LAYER
  5
3F9
330
2
100
AcDbSymbolTableRecord
100
AcDbLayerTableRecord
  2
AM_0
 70
     0
 62
     7
  6
CONTINUOUS
  0
LAYER
  5
CD5
330
2
100
AcDbSymbolTableRecord
100
AcDbLayerTableRecord
  2
AM_7
 70
     0
 62
     4
  6
AM_ISO08W050
  0
LAYER
  5
CDE
330
2
100
AcDbSymbolTableRecord
100
AcDbLayerTableRecord
  2
AM_11
 70
     0
 62
     3
  6
AM_ISO09W050
  0
LAYER
  5
CFB
330
2
100
AcDbSymbolTableRecord
100
AcDbLayerTableRecord
  2
AM_5
 70
     0
 62
     3
  6
CONTINUOUS
  0
LAYER
  5
CFD
330
2
100
AcDbSymbolTableRecord
100
AcDbLayerTableRecord
  2
DEFPOINTS
 70
     0
 62
     7
  6
CONTINUOUS
  0
LAYER
  5
113C
330
2
100
AcDbSymbolTableRecord
100
AcDbLayerTableRecord
  2
AM_6
 70
     0
 62
     2
  6
CONTINUOUS
  0
ENDTAB
  0
TABLE
  2
STYLE
  5
3
330
0
100
AcDbSymbolTable
 70
     5
  0
STYLE
  5
11
330
3
100
AcDbSymbolTableRecord
100
AcDbTextStyleTableRecord
  2
STANDARD
 70
     0
 40
0.0
 41
1.0
 50
0.0
 71
     0
 42
2.5
  3
simplex.shx
  4
EXTFONT.SHX
  0
STYLE
  5
52
330
3
100
AcDbSymbolTableRecord
100
AcDbTextStyleTableRecord
  2

 70
     1
 40
0.0
 41
1.0
 50
0.0
 71
     0
 42
2.5
  3
ltypeshp.shx
  4

  0
STYLE
  5
6B
330
3
100
AcDbSymbolTableRecord
100
AcDbTextStyleTableRecord
  2
ASAMI
 70
     0
 40
0.0
 41
1.0
 50
0.0
 71
     0
 42
2.5
  3
simplex.shx
  4
EXTFONT.SHX
  0
STYLE
  5
262
330
3
100
AcDbSymbolTableRecord
100
AcDbTextStyleTableRecord
  2
ACJISTS
 70
     0
 40
1.0
 41
1.0
 50
0.0
 71
     0
 42
2.5
  3
simplex.shx
  4
bigfont.shx
  0
STYLE
  5
269
330
3
100
AcDbSymbolTableRecord
100
AcDbTextStyleTableRecord
  2
ACJISGDT
 70
     0
 40
0.0
 41
1.0
 50
0.0
 71
     0
 42
2.5
  3
amgdtans.shx
  4

  0
ENDTAB
  0
TABLE
  2
VIEW
  5
6
330
0
100
AcDbSymbolTable
 70
     0
  0
ENDTAB
  0
TABLE
  2
UCS
  5
7
330
0
100
AcDbSymbolTable
 70
     0
  0
ENDTAB
  0
TABLE
  2
APPID
  5
9
330
0
100
AcDbSymbolTable
 70
    12
  0
APPID
  5
12
330
9
100
AcDbSymbolTableRecord
100
AcDbRegAppTableRecord
  2
ACAD
 70
     0
  0
APPID
  5
30
330
9
100
AcDbSymbolTableRecord
100
AcDbRegAppTableRecord
  2
MCAD_NO_VIS
 70
     0
  0
APPID
  5
31
330
9
100
AcDbSymbolTableRecord
100
AcDbRegAppTableRecord
  2
ACAD_TEMP_GRAPHIC
 70
     0
  0
APPID
  5
2C2
330
9
100
AcDbSymbolTableRecord
100
AcDbRegAppTableRecord
  2
GENIUS_GENDTOL_13
 70
     0
  0
APPID
  5
339
330
9
100
AcDbSymbolTableRecord
100
AcDbRegAppTableRecord
  2
GENIUS_GENODEF_13
 70
     0
  0
APPID
  5
33A
330
9
100
AcDbSymbolTableRecord
100
AcDbRegAppTableRecord
  2
GENIUS_GENOBJ-N-RSBK_13
 70
     0
  0
APPID
  5
33B
330
9
100
AcDbSymbolTableRecord
100
AcDbRegAppTableRecord
  2
GENIUS_GENOBJ-N-LIB_13
 70
     0
  0
APPID
  5
33C
330
9
100
AcDbSymbolTableRecord
100
AcDbRegAppTableRecord
  2
GENIUS_GENSCALE_13
 70
     0
  0
APPID
  5
378
330
9
100
AcDbSymbolTableRecord
100
AcDbRegAppTableRecord
  2
GENIUS_GENDIMSH_14
 70
     0
  0
APPID
  5
13A0
330
9
100
AcDbSymbolTableRecord
100
AcDbRegAppTableRecord
  2
GENIUS_GENOBJ-N-CEN_13
 70
     0
  0
APPID
  5
13D7
330
9
100
AcDbSymbolTableRecord
100
AcDbRegAppTableRecord
  2
GENIUS_GENREC_14
 70
     0
  0
APPID
  5
13D8
330
9
100
AcDbSymbolTableRecord
100
AcDbRegAppTableRecord
  2
GENIUS_GENOBJ-N-REC_13
 70
     0
  0
ENDTAB
  0
TABLE
  2
DIMSTYLE
  5
A
330
0
100
AcDbSymbolTable
 70
     9
  0
DIMSTYLE
105
58
330
A
100
AcDbSymbolTableRecord
100
AcDbDimStyleTableRecord
  2
AM_JIS
 70
     0
  3

  4
"
  5
OPEN30
  6

  7

 40
1.0
 41
2.5
 42
1.0
 43
12.0
 44
1.0
 45
0.0
 46
0.0
 47
0.1
 48
0.1
140
3.2
141
0.0
142
0.0
143
0.0393701
144
1.0
145
0.0
146
0.71
147
1.5
 71
     0
 72
     0
 73
     0
 74
     0
 75
     0
 76
     0
 77
     3
 78
     8
170
     0
171
     2
172
     1
173
     0
174
     0
175
     0
176
   256
177
   256
178
     2
270
     2
271
     3
272
     3
273
     2
274
     2
340
6B
275
     0
280
     0
281
     0
282
     0
283
     0
284
     0
285
     0
286
     0
287
     3
288
     0
  0
DIMSTYLE
105
5F
330
A
100
AcDbSymbolTableRecord
100
AcDbDimStyleTableRecord
  2
AM_JIS$3
 70
     0
  3

  4
"
  5
OPEN30
  6

  7

 40
1.0
 41
2.5
 42
1.0
 43
10.0
 44
1.0
 45
0.0
 46
0.0
 47
0.1
 48
0.1
140
3.2
141
0.0
142
0.0
143
0.0393701
144
1.0
145
0.0
146
0.71
147
1.5
 71
     0
 72
     0
 73
     0
 74
     1
 75
     0
 76
     0
 77
     3
 78
     8
170
     0
171
     2
172
     0
173
     0
174
     0
175
     0
176
   256
177
   256
178
     2
270
     2
271
     2
272
     3
273
     2
274
     2
340
6B
275
     0
280
     0
281
     0
282
     0
283
     0
284
     0
285
     0
286
     0
287
     0
288
     1
  0
DIMSTYLE
105
60
330
A
100
AcDbSymbolTableRecord
100
AcDbDimStyleTableRecord
  2
AM_JIS$4
 70
     0
  3

  4
"
  5
OPEN30
  6

  7

 40
1.0
 41
2.5
 42
1.0
 43
10.0
 44
1.0
 45
0.0
 46
0.0
 47
0.1
 48
0.1
140
3.2
141
0.0
142
0.0
143
0.0393701
144
1.0
145
0.0
146
0.71
147
1.5
 71
     0
 72
     0
 73
     0
 74
     1
 75
     0
 76
     0
 77
     3
 78
     8
170
     0
171
     2
172
     0
173
     0
174
     0
175
     0
176
   256
177
   256
178
     2
270
     2
271
     2
272
     3
273
     2
274
     2
340
6B
275
     0
280
     0
281
     0
282
     0
283
     0
284
     0
285
     0
286
     0
287
     0
288
     1
  0
DIMSTYLE
105
61
330
A
100
AcDbSymbolTableRecord
100
AcDbDimStyleTableRecord
  2
AM_JIS$6
 70
     0
  3

  4
"
  5
OPEN30
  6

  7

 40
1.0
 41
2.5
 42
1.0
 43
10.0
 44
1.0
 45
0.0
 46
0.0
 47
0.1
 48
0.1
140
3.2
141
0.0
142
0.0
143
0.0393701
144
1.0
145
0.0
146
0.71
147
1.5
 71
     0
 72
     0
 73
     0
 74
     0
 75
     0
 76
     0
 77
     0
 78
     8
170
     0
171
     2
172
     1
173
     0
174
     0
175
     0
176
   256
177
   256
178
     2
270
     2
271
     2
272
     2
273
     2
274
     2
340
6B
275
     0
280
     0
281
     0
282
     0
283
     0
284
     0
285
     0
286
     0
287
     3
288
     0
  0
DIMSTYLE
105
62
330
A
100
AcDbSymbolTableRecord
100
AcDbDimStyleTableRecord
  2
AM_JIS$7
 70
     0
  3

  4
"
  5
OPEN30
  6

  7

 40
1.0
 41
2.5
 42
1.0
 43
10.0
 44
1.0
 45
0.0
 46
0.0
 47
0.1
 48
0.1
140
3.2
141
0.0
142
0.0
143
0.0393701
144
1.0
145
0.0
146
0.71
147
1.5
 71
     0
 72
     0
 73
     0
 74
     0
 75
     0
 76
     0
 77
     3
 78
     8
170
     0
171
     2
172
     1
173
     0
174
     0
175
     0
176
   256
177
   256
178
     2
270
     2
271
     2
272
     3
273
     2
274
     2
340
6B
275
     0
280
     0
281
     0
282
     0
283
     0
284
     0
285
     0
286
     0
287
     3
288
     0
  0
DIMSTYLE
105
63
330
A
100
AcDbSymbolTableRecord
100
AcDbDimStyleTableRecord
  2
AM_JIS$SF
 70
     0
  3

  4
"
  5
OPEN30
  6

  7

 40
1.0
 41
2.5
 42
1.0
 43
10.0
 44
1.0
 45
0.0
 46
0.0
 47
0.1
 48
0.1
140
3.2
141
0.0
142
0.0
143
0.0393701
144
1.0
145
0.0
146
0.71
147
1.5
 71
     0
 72
     0
 73
     0
 74
     0
 75
     1
 76
     1
 77
     3
 78
     8
170
     0
171
     2
172
     1
173
     0
174
     0
175
     0
176
   256
177
   256
178
     2
270
     2
271
     2
272
     2
273
     2
274
     2
340
6B
275
     0
280
     0
281
     0
282
     0
283
     0
284
     0
285
     0
286
     0
287
     3
288
     0
  0
DIMSTYLE
105
68
330
A
100
AcDbSymbolTableRecord
100
AcDbDimStyleTableRecord
  2
AM_JIS$SH
 70
     0
  3

  4
"
  5

  6
GENAXEH
  7
OPEN30
 40
1.0
 41
2.5
 42
1.0
 43
10.0
 44
1.0
 45
0.0
 46
0.0
 47
0.1
 48
0.1
140
3.2
141
0.0
142
0.0
143
0.0393701
144
2.0
145
0.0
146
0.71
147
1.5
 71
     0
 72
     0
 73
     0
 74
     0
 75
     1
 76
     1
 77
     3
 78
     8
170
     0
171
     2
172
     1
173
     1
174
     0
175
     0
176
   256
177
   256
178
     2
270
     2
271
     2
272
     2
273
     2
274
     2
340
6B
275
     0
280
     0
281
     0
282
     0
283
     0
284
     0
285
     0
286
     0
287
     3
288
     0
  0
DIMSTYLE
105
B34
330
A
100
AcDbSymbolTableRecord
100
AcDbDimStyleTableRecord
  2
AM_JIS$2
 70
     0
  3

  4
"
  5
OPEN30
  6

  7

 40
1.0
 41
2.5
 42
1.0
 43
12.0
 44
1.0
 45
0.0
 46
0.0
 47
0.1
 48
0.1
140
3.2
141
0.0
142
0.0
143
0.0393701
144
1.0
145
0.0
146
0.71
147
1.5
 71
     0
 72
     0
 73
     0
 74
     0
 75
     0
 76
     0
 77
     3
 78
     8
170
     0
171
     2
172
     1
173
     0
174
     0
175
     0
176
   256
177
   256
178
     2
270
     2
271
     3
272
     3
273
     2
274
     2
340
6B
275
     0
280
     0
281
     0
282
     0
283
     0
284
     0
285
     0
286
     0
287
     3
288
     0
  0
DIMSTYLE
105
BA5
102
{ACAD_REACTORS
330
155D
330
15E8
330
1673
330
1895
330
1E16
330
208C
102
}
330
A
100
AcDbSymbolTableRecord
100
AcDbDimStyleTableRecord
  2
AM_JIS$0
 70
     0
  3

  4
"
  5
OPEN30
  6

  7

 40
1.0
 41
2.5
 42
0.0
 43
10.0
 44
1.0
 45
0.0
 46
0.0
 47
0.1
 48
0.1000000001
140
3.799999999999999
141
0.0
142
0.0
143
0.0393701
144
1.0
145
0.0
146
0.71
147
1.5
 71
     0
 72
     0
 73
     0
 74
     0
 75
     0
 76
     0
 77
     3
 78
     1
170
     0
171
     2
172
     1
173
     0
174
     0
175
     0
176
     3
177
     3
178
     2
270
     2
271
     2
272
     2
273
     2
274
     2
340
11
275
     1
280
     0
281
     0
282
     0
283
     0
284
     8
285
     0
286
     0
287
     0
288
     0
  0
ENDTAB
  0
TABLE
  2
BLOCK_RECORD
  5
1
330
0
100
AcDbSymbolTable
 70
    12
  0
BLOCK_RECORD
  5
1F
102
{ACAD_XDICTIONARY
360
74
102
}
330
1
100
AcDbSymbolTableRecord
100
AcDbBlockTableRecord
  2
*MODEL_SPACE
  0
BLOCK_RECORD
  5
101
102
{ACAD_XDICTIONARY
360
241C
102
}
330
1
100
AcDbSymbolTableRecord
100
AcDbBlockTableRecord
  2
*PAPER_SPACE
  0
BLOCK_RECORD
  5
59
330
1
100
AcDbSymbolTableRecord
100
AcDbBlockTableRecord
  2
_OPEN30
  0
BLOCK_RECORD
  5
64
330
1
100
AcDbSymbolTableRecord
100
AcDbBlockTableRecord
  2
GENAXEH
  0
BLOCK_RECORD
  5
155E
330
1
100
AcDbSymbolTableRecord
100
AcDbBlockTableRecord
  2
*D5
  0
BLOCK_RECORD
  5
15E9
330
1
100
AcDbSymbolTableRecord
100
AcDbBlockTableRecord
  2
*D6
  0
BLOCK_RECORD
  5
1674
330
1
100
AcDbSymbolTableRecord
100
AcDbBlockTableRecord
  2
*D7
  0
BLOCK_RECORD
  5
1896
330
1
100
AcDbSymbolTableRecord
100
AcDbBlockTableRecord
  2
*D8
  0
BLOCK_RECORD
  5
1E17
330
1
100
AcDbSymbolTableRecord
100
AcDbBlockTableRecord
  2
*D9
  0
BLOCK_RECORD
  5
208D
330
1
100
AcDbSymbolTableRecord
100
AcDbBlockTableRecord
  2
*D10
  0
BLOCK_RECORD
  5
21A9
330
1
100
AcDbSymbolTableRecord
100
AcDbBlockTableRecord
  2
A$C151C5092
  0
ENDTAB
  0
ENDSEC
  0
SECTION
  2
BLOCKS
  0
BLOCK
  5
20
330
1F
100
AcDbEntity
  8
0
100
AcDbBlockBegin
  2
*MODEL_SPACE
 70
     0
 10
0.0
 20
0.0
 30
0.0
  3
*MODEL_SPACE
  1

  0
ENDBLK
  5
21
330
1F
100
AcDbEntity
  8
0
100
AcDbBlockEnd
  0
BLOCK
  5
103
330
101
100
AcDbEntity
 67
     1
  8
0
100
AcDbBlockBegin
  2
*PAPER_SPACE
 70
     0
 10
0.0
 20
0.0
 30
0.0
  3
*PAPER_SPACE
  1

  0
ENDBLK
  5
104
330
101
100
AcDbEntity
 67
     1
  8
0
100
AcDbBlockEnd
  0
BLOCK
  5
5D
330
59
100
AcDbEntity
  8
0
100
AcDbBlockBegin
  2
_OPEN30
 70
     0
 10
0.0
 20
0.0
 30
0.0
  3
_OPEN30
  1

  0
LINE
  5
5A
330
59
100
AcDbEntity
  8
0
 62
     0
100
AcDbLine
 10
-1.0
 20
0.26794919
 30
0.0
 11
0.0
 21
0.0
 31
0.0
  0
LINE
  5
5B
330
59
100
AcDbEntity
  8
0
 62
     0
100
AcDbLine
 10
0.0
 20
0.0
 30
0.0
 11
-1.0
 21
-0.26794919
 31
0.0
  0
LINE
  5
5C
330
59
100
AcDbEntity
  8
0
 62
     0
100
AcDbLine
 10
0.0
 20
0.0
 30
0.0
 11
-1.0
 21
0.0
 31
0.0
  0
ENDBLK
  5
5E
330
59
100
AcDbEntity
  8
0
100
AcDbBlockEnd
  0
BLOCK
  5
66
330
64
100
AcDbEntity
  8
0
100
AcDbBlockBegin
  2
GENAXEH
 70
     0
 10
0.0
 20
0.0
 30
0.0
  3
GENAXEH
  1

  0
LINE
  5
65
330
64
100
AcDbEntity
  8
0
100
AcDbLine
 10
-1.0
 20
0.0
 30
0.0
 11
1.0
 21
0.0
 31
0.0
  0
ENDBLK
  5
67
330
64
100
AcDbEntity
  8
0
100
AcDbBlockEnd
  0
BLOCK
  5
1568
330
155E
100
AcDbEntity
  8
0
100
AcDbBlockBegin
  2
*D5
 70
     1
 10
0.0
 20
0.0
 30
0.0
  3
*D5
  1

  0
LINE
  5
213E
330
155E
100
AcDbEntity
  8
AM_5
 62
     3
100
AcDbLine
 10
-0.0000000000000008
 20
-6.0
 30
0.0
 11
-0.0000000000000021
 21
-27.50008873803681
 31
0.0
  0
LINE
  5
213F
330
155E
100
AcDbEntity
  8
AM_5
 62
     3
100
AcDbLine
 10
-29.99999237060499
 20
-9.499999999999982
 30
0.0
 11
-29.99999237060499
 21
-27.50008873803681
 31
0.0
  0
LINE
  5
2140
330
155E
100
AcDbEntity
  8
AM_5
 62
     3
100
AcDbLine
 10
-2.500000000000002
 20
-26.50008873803681
 30
0.0
 11
-27.49999237060499
 21
-26.50008873803681
 31
0.0
  0
INSERT
  5
2141
330
155E
100
AcDbEntity
  8
AM_5
 62
     3
100
AcDbBlockReference
  2
_OPEN30
 10
-0.000000000000002
 20
-26.50008873803681
 30
0.0
 41
2.5
 42
2.5
 43
2.5
  0
INSERT
  5
2142
330
155E
100
AcDbEntity
  8
AM_5
 62
     3
100
AcDbBlockReference
  2
_OPEN30
 10
-29.99999237060499
 20
-26.50008873803681
 30
0.0
 41
2.5
 42
2.5
 43
2.5
 50
180.0
  0
MTEXT
  5
2143
330
155E
100
AcDbEntity
  8
AM_5
 62
     2
100
AcDbMText
 10
-14.99999618530249
 20
-23.10008873803681
 30
0.0
 40
3.799999999999999
 41
0.0
 71
     5
 72
     1
  1
30
1001
ACAD
1000
MTEXTBEGIN
1070
    73
1070
     1
1070
    44
1040
1.0
1070
    74
1070
     0
1000
MTEXTEND
  0
POINT
  5
2144
330
155E
100
AcDbEntity
  8
DEFPOINTS
 62
     0
100
AcDbPoint
 10
-0.0000000000000008
 20
-6.0
 30
0.0
  0
POINT
  5
2145
330
155E
100
AcDbEntity
  8
DEFPOINTS
 62
     0
100
AcDbPoint
 10
-29.99999237060499
 20
-9.499999999999982
 30
0.0
  0
POINT
  5
2146
330
155E
100
AcDbEntity
  8
DEFPOINTS
 62
     0
100
AcDbPoint
 10
-29.99999237060499
 20
-26.50008873803681
 30
0.0
  0
ENDBLK
  5
1569
330
155E
100
AcDbEntity
  8
0
100
AcDbBlockEnd
  0
BLOCK
  5
15F3
330
15E9
100
AcDbEntity
  8
0
100
AcDbBlockBegin
  2
*D6
 70
     1
 10
0.0
 20
0.0
 30
0.0
  3
*D6
  1

  0
LINE
  5
2123
330
15E9
100
AcDbEntity
  8
AM_5
 62
     3
100
AcDbLine
 10
-29.99999237060499
 20
-9.499999999999982
 30
0.0
 11
-29.99999237060499
 21
-27.50008873803697
 31
0.0
  0
LINE
  5
2124
330
15E9
100
AcDbEntity
  8
AM_5
 62
     3
100
AcDbLine
 10
-109.9999999999989
 20
-7.661499023436975
 30
0.0
 11
-109.9999999999989
 21
-27.50008873803697
 31
0.0
  0
LINE
  5
2125
330
15E9
100
AcDbEntity
  8
AM_5
 62
     3
100
AcDbLine
 10
-32.49999237060499
 20
-26.50008873803697
 30
0.0
 11
-107.4999999999989
 21
-26.50008873803697
 31
0.0
  0
INSERT
  5
2126
330
15E9
100
AcDbEntity
  8
AM_5
 62
     3
100
AcDbBlockReference
  2
_OPEN30
 10
-29.99999237060499
 20
-26.50008873803697
 30
0.0
 41
2.5
 42
2.5
 43
2.5
  0
INSERT
  5
2127
330
15E9
100
AcDbEntity
  8
AM_5
 62
     3
100
AcDbBlockReference
  2
_OPEN30
 10
-109.9999999999989
 20
-26.50008873803697
 30
0.0
 41
2.5
 42
2.5
 43
2.5
 50
180.0
  0
MTEXT
  5
2128
330
15E9
100
AcDbEntity
  8
AM_5
 62
     2
100
AcDbMText
 10
-69.999996185302
 20
-23.10008873803697
 30
0.0
 40
3.799999999999999
 41
0.0
 71
     5
 72
     1
  1
80
1001
ACAD
1000
MTEXTBEGIN
1070
    73
1070
     1
1070
    44
1040
1.0
1070
    74
1070
     0
1000
MTEXTEND
  0
POINT
  5
2129
330
15E9
100
AcDbEntity
  8
DEFPOINTS
 62
     0
100
AcDbPoint
 10
-29.99999237060499
 20
-9.499999999999982
 30
0.0
  0
POINT
  5
212A
330
15E9
100
AcDbEntity
  8
DEFPOINTS
 62
     0
100
AcDbPoint
 10
-109.9999999999989
 20
-7.661499023436975
 30
0.0
  0
POINT
  5
212B
330
15E9
100
AcDbEntity
  8
DEFPOINTS
 62
     0
100
AcDbPoint
 10
-109.9999999999989
 20
-26.50008873803697
 30
0.0
  0
ENDBLK
  5
15F4
330
15E9
100
AcDbEntity
  8
0
100
AcDbBlockEnd
  0
BLOCK
  5
167E
330
1674
100
AcDbEntity
  8
0
100
AcDbBlockBegin
  2
*D7
 70
     1
 10
0.0
 20
0.0
 30
0.0
  3
*D7
  1

  0
LINE
  5
211A
330
1674
100
AcDbEntity
  8
AM_5
 62
     3
100
AcDbLine
 10
-109.9999999999989
 20
-7.661499023436975
 30
0.0
 11
-109.9999999999989
 21
-37.50008873803675
 31
0.0
  0
LINE
  5
211B
330
1674
100
AcDbEntity
  8
AM_5
 62
     3
100
AcDbLine
 10
-0.0000000000000009
 20
-7.918792724599995
 30
0.0
 11
-0.0000000000000028
 21
-37.50008873803675
 31
0.0
  0
LINE
  5
211C
330
1674
100
AcDbEntity
  8
AM_5
 62
     3
100
AcDbLine
 10
-107.4999999999989
 20
-36.50008873803675
 30
0.0
 11
-2.500000000000002
 21
-36.50008873803675
 31
0.0
  0
INSERT
  5
211D
330
1674
100
AcDbEntity
  8
AM_5
 62
     3
100
AcDbBlockReference
  2
_OPEN30
 10
-109.9999999999989
 20
-36.50008873803675
 30
0.0
 41
2.5
 42
2.5
 43
2.5
 50
180.0
  0
INSERT
  5
211E
330
1674
100
AcDbEntity
  8
AM_5
 62
     3
100
AcDbBlockReference
  2
_OPEN30
 10
-0.0000000000000027
 20
-36.50008873803675
 30
0.0
 41
2.5
 42
2.5
 43
2.5
  0
MTEXT
  5
211F
330
1674
100
AcDbEntity
  8
AM_5
 62
     2
100
AcDbMText
 10
-54.9999999999995
 20
-33.10008873803675
 30
0.0
 40
3.799999999999999
 41
0.0
 71
     5
 72
     1
  1
110
1001
ACAD
1000
MTEXTBEGIN
1070
    73
1070
     1
1070
    44
1040
1.0
1070
    74
1070
     0
1000
MTEXTEND
  0
POINT
  5
2120
330
1674
100
AcDbEntity
  8
DEFPOINTS
 62
     0
100
AcDbPoint
 10
-109.9999999999989
 20
-7.661499023436975
 30
0.0
  0
POINT
  5
2121
330
1674
100
AcDbEntity
  8
DEFPOINTS
 62
     0
100
AcDbPoint
 10
-0.0000000000000009
 20
-7.918792724599995
 30
0.0
  0
POINT
  5
2122
330
1674
100
AcDbEntity
  8
DEFPOINTS
 62
     0
100
AcDbPoint
 10
-0.0000000000000027
 20
-36.50008873803675
 30
0.0
  0
ENDBLK
  5
167F
330
1674
100
AcDbEntity
  8
0
100
AcDbBlockEnd
  0
BLOCK
  5
18A0
330
1896
100
AcDbEntity
  8
0
100
AcDbBlockBegin
  2
*D8
 70
     1
 10
0.0
 20
0.0
 30
0.0
  3
*D8
  1

  0
LINE
  5
2147
330
1896
100
AcDbEntity
  8
AM_5
 62
     3
100
AcDbLine
 10
0.0000000000000064
 20
-10.99999999999997
 30
0.0
 11
16.72850136621098
 21
-10.99999999999998
 31
0.0
  0
LINE
  5
2148
330
1896
100
AcDbEntity
  8
AM_5
 62
     3
100
AcDbLine
 10
0.0000000000000089
 20
11.00000000000002
 30
0.0
 11
16.72850136621099
 21
11.00000000000002
 31
0.0
  0
LINE
  5
2149
330
1896
100
AcDbEntity
  8
AM_5
 62
     3
100
AcDbLine
 10
15.72850136621099
 20
-8.49999999999998
 30
0.0
 11
15.72850136621099
 21
8.500000000000019
 31
0.0
  0
INSERT
  5
214A
330
1896
100
AcDbEntity
  8
AM_5
 62
     3
100
AcDbBlockReference
  2
_OPEN30
 10
15.72850136621099
 20
-10.99999999999998
 30
0.0
 41
2.5
 42
2.5
 43
2.5
 50
270.0
  0
INSERT
  5
214B
330
1896
100
AcDbEntity
  8
AM_5
 62
     3
100
AcDbBlockReference
  2
_OPEN30
 10
15.72850136621099
 20
11.00000000000002
 30
0.0
 41
2.5
 42
2.5
 43
2.5
 50
90.0
  0
MTEXT
  5
214C
330
1896
100
AcDbEntity
  8
AM_5
 62
     2
100
AcDbMText
 10
12.32850136621099
 20
0.0000000000000225
 30
0.0
 40
3.799999999999999
 41
0.0
 71
     5
 72
     1
  1
%%c22
 11
0.0000000000000001
 21
1.0
 31
0.0
1001
ACAD
1000
MTEXTBEGIN
1070
    73
1070
     1
1070
    44
1040
1.0
1070
    74
1070
     0
1000
MTEXTEND
  0
POINT
  5
214D
330
1896
100
AcDbEntity
  8
DEFPOINTS
 62
     0
100
AcDbPoint
 10
0.0000000000000064
 20
-10.99999999999997
 30
0.0
  0
POINT
  5
214E
330
1896
100
AcDbEntity
  8
DEFPOINTS
 62
     0
100
AcDbPoint
 10
0.0000000000000089
 20
11.00000000000002
 30
0.0
  0
POINT
  5
214F
330
1896
100
AcDbEntity
  8
DEFPOINTS
 62
     0
100
AcDbPoint
 10
15.72850136621099
 20
11.00000000000002
 30
0.0
  0
ENDBLK
  5
18A1
330
1896
100
AcDbEntity
  8
0
100
AcDbBlockEnd
  0
BLOCK
  5
1E21
330
1E17
100
AcDbEntity
  8
0
100
AcDbBlockBegin
  2
*D9
 70
     1
 10
0.0
 20
0.0
 30
0.0
  3
*D9
  1

  0
LINE
  5
212C
330
1E17
100
AcDbEntity
  8
AM_5
 62
     3
100
AcDbLine
 10
-106.9999847412099
 20
12.50000000000003
 30
0.0
 11
-127.7691480587334
 21
12.50000000000004
 31
0.0
  0
LINE
  5
212D
330
1E17
100
AcDbEntity
  8
AM_5
 62
     3
100
AcDbLine
 10
-106.999961853026
 20
-12.49999999999996
 30
0.0
 11
-127.7691480587334
 21
-12.49999999999995
 31
0.0
  0
LINE
  5
212E
330
1E17
100
AcDbEntity
  8
AM_5
 62
     3
100
AcDbLine
 10
-126.7691480587334
 20
10.00000000000004
 30
0.0
 11
-126.7691480587334
 21
-9.999999999999955
 31
0.0
  0
INSERT
  5
212F
330
1E17
100
AcDbEntity
  8
AM_5
 62
     3
100
AcDbBlockReference
  2
_OPEN30
 10
-126.7691480587334
 20
12.50000000000004
 30
0.0
 41
2.5
 42
2.5
 43
2.5
 50
90.0
  0
INSERT
  5
2130
330
1E17
100
AcDbEntity
  8
AM_5
 62
     3
100
AcDbBlockReference
  2
_OPEN30
 10
-126.7691480587334
 20
-12.49999999999995
 30
0.0
 41
2.5
 42
2.5
 43
2.5
 50
270.0
  0
MTEXT
  5
2131
330
1E17
100
AcDbEntity
  8
AM_5
 62
     2
100
AcDbMText
 10
-130.1691480587333
 20
0.0000000000000242
 30
0.0
 40
3.799999999999999
 41
0.0
 71
     5
 72
     1
  1
%%c25
 11
0.0000000000000001
 21
1.0
 31
0.0
1001
ACAD
1000
MTEXTBEGIN
1070
    73
1070
     1
1070
    44
1040
1.0
1070
    74
1070
     0
1000
MTEXTEND
  0
POINT
  5
2132
330
1E17
100
AcDbEntity
  8
DEFPOINTS
 62
     0
100
AcDbPoint
 10
-106.9999847412099
 20
12.50000000000003
 30
0.0
  0
POINT
  5
2133
330
1E17
100
AcDbEntity
  8
DEFPOINTS
 62
     0
100
AcDbPoint
 10
-106.999961853026
 20
-12.49999999999996
 30
0.0
  0
POINT
  5
2134
330
1E17
100
AcDbEntity
  8
DEFPOINTS
 62
     0
100
AcDbPoint
 10
-126.7691480587334
 20
-12.49999999999995
 30
0.0
  0
ENDBLK
  5
1E22
330
1E17
100
AcDbEntity
  8
0
100
AcDbBlockEnd
  0
BLOCK
  5
2097
330
208D
100
AcDbEntity
  8
0
100
AcDbBlockBegin
  2
*D10
 70
     1
 10
0.0
 20
0.0
 30
0.0
  3
*D10
  1

  0
LINE
  5
2135
330
208D
100
AcDbEntity
  8
AM_5
 62
     3
100
AcDbLine
 10
-8.999999999999991
 20
11.00000000000002
 30
0.0
 11
-8.999999999999989
 21
27.50002961022907
 31
0.0
  0
LINE
  5
2136
330
208D
100
AcDbEntity
  8
AM_5
 62
     3
100
AcDbLine
 10
0.0000000000000085
 20
11.00000000000002
 30
0.0
 11
0.0000000000000095
 21
27.50002961022907
 31
0.0
  0
LINE
  5
2137
330
208D
100
AcDbEntity
  8
AM_5
 62
     3
100
AcDbLine
 10
-6.499999999999989
 20
26.50002961022907
 30
0.0
 11
-2.49999999999999
 21
26.50002961022907
 31
0.0
  0
INSERT
  5
2138
330
208D
100
AcDbEntity
  8
AM_5
 62
     3
100
AcDbBlockReference
  2
_OPEN30
 10
-8.999999999999989
 20
26.50002961022907
 30
0.0
 41
2.5
 42
2.5
 43
2.5
 50
180.0
  0
INSERT
  5
2139
330
208D
100
AcDbEntity
  8
AM_5
 62
     3
100
AcDbBlockReference
  2
_OPEN30
 10
0.0000000000000094
 20
26.50002961022907
 30
0.0
 41
2.5
 42
2.5
 43
2.5
  0
MTEXT
  5
213A
330
208D
100
AcDbEntity
  8
AM_5
 62
     2
100
AcDbMText
 10
-4.49999999999999
 20
29.90002961022907
 30
0.0
 40
3.799999999999999
 41
0.0
 71
     5
 72
     1
  1
9
1001
ACAD
1000
MTEXTBEGIN
1070
    73
1070
     1
1070
    44
1040
1.0
1070
    74
1070
     0
1000
MTEXTEND
  0
POINT
  5
213B
330
208D
100
AcDbEntity
  8
DEFPOINTS
 62
     0
100
AcDbPoint
 10
-8.999999999999991
 20
11.00000000000002
 30
0.0
  0
POINT
  5
213C
330
208D
100
AcDbEntity
  8
DEFPOINTS
 62
     0
100
AcDbPoint
 10
0.0000000000000085
 20
11.00000000000002
 30
0.0
  0
POINT
  5
213D
330
208D
100
AcDbEntity
  8
DEFPOINTS
 62
     0
100
AcDbPoint
 10
0.0000000000000094
 20
26.50002961022907
 30
0.0
  0
ENDBLK
  5
2098
330
208D
100
AcDbEntity
  8
0
100
AcDbBlockEnd
  0
BLOCK
  5
22A5
330
21A9
100
AcDbEntity
  8
0
100
AcDbBlockBegin
  2
A$C151C5092
 70
     0
 10
0.0
 20
0.0
 30
0.0
  3
A$C151C5092
  1

  0
ELLIPSE
  5
21AA
330
21A9
100
AcDbEntity
  8
AM_0
 48
0.5
100
AcDbEllipse
 10
-7.720993041989999
 20
5.871032714843998
 30
0.0
 11
-0.1975860677000014
 21
0.1149902263300007
 31
0.0
210
0.0
220
0.0
230
1.0
 40
0.0781877217101
 41
0.0
 42
0.6177700365849846
  0
SPLINE
  5
21AB
330
21A9
100
AcDbEntity
  8
AM_0
 48
0.5
100
AcDbSpline
210
0.0
220
0.0
230
1.0
 70
     8
 71
     3
 72
    11
 73
     7
 74
     5
 42
0.0000000001
 43
0.0000000001
 44
0.0000000001
 40
0.0
 40
0.0
 40
0.0
 40
0.0
 40
0.009573002359483
 40
0.0221353605405369
 40
0.0391761490887772
 40
0.061201723518626
 40
0.061201723518626
 40
0.061201723518626
 40
0.061201723518626
 10
-8.186798095699998
 20
5.935607910156001
 30
0.0
 10
-8.187421184063534
 20
5.932409433382899
 30
0.0
 10
-8.188861932227755
 20
5.925013693374229
 30
0.0
 10
-8.183108903679743
 20
5.912624105958069
 30
0.0
 10
-8.173853571933669
 20
5.898283471138891
 30
0.0
 10
-8.16498723485555
 20
5.888663484474824
 30
0.0
 10
-8.159988403319999
 20
5.883239746093998
 30
0.0
 11
-8.186798095699998
 21
5.935607910156001
 31
0.0
 11
-8.187789916989999
 21
5.926086425781001
 31
0.0
 11
-8.18359375
 21
5.914245605468998
 31
0.0
 11
-8.174392700189997
 21
5.89990234375
 31
0.0
 11
-8.159988403319999
 21
5.883239746093998
 31
0.0
  0
SPLINE
  5
21AC
330
21A9
100
AcDbEntity
  8
AM_0
 48
0.5
100
AcDbSpline
210
0.0
220
0.0
230
1.0
 70
     8
 71
     3
 72
    11
 73
     7
 74
     5
 42
0.0000000001
 43
0.0000000001
 44
0.0000000001
 40
0.0
 40
0.0
 40
0.0
 40
0.0
 40
0.1153804854945066
 40
0.2242254323513602
 40
0.3156842172056806
 40
0.3805544837753306
 40
0.3805544837753306
 40
0.3805544837753306
 40
0.3805544837753306
 10
-10.04449462889999
 20
3.128601074218998
 30
0.0
 10
-10.08036650745317
 20
3.142491825205074
 30
0.0
 10
-10.15007836074768
 20
3.169486508337053
 30
0.0
 10
-10.246545520277
 20
3.211464806933433
 30
0.0
 10
-10.32683939277413
 20
3.248773831909229
 30
0.0
 10
-10.37126102412665
 20
3.2760825369376
 30
0.0
 10
-10.38969421387
 20
3.287414550781001
 30
0.0
 11
-10.04449462889999
 21
3.128601074218998
 31
0.0
 11
-10.15179443358999
 21
3.171020507812997
 31
0.0
 11
-10.25169372557999
 21
3.214233398437997
 31
0.0
 11
-10.33389282225999
 21
3.254333496093998
 31
0.0
 11
-10.38969421387
 21
3.287414550781001
 31
0.0
  0
SPLINE
  5
21AD
330
21A9
100
AcDbEntity
  8
AM_0
 48
0.5
100
AcDbSpline
210
0.0
220
0.0
230
1.0
 70
     8
 71
     3
 72
    11
 73
     7
 74
     5
 42
0.0000000001
 43
0.0000000001
 44
0.0000000001
 40
0.0
 40
0.0
 40
0.0
 40
0.0
 40
1.054588485529313
 40
2.109207414219396
 40
3.163808414618868
 40
4.218391749813212
 40
4.218391749813212
 40
4.218391749813212
 40
4.218391749813212
 10
-5.016891479489999
 20
1.271545410156001
 30
0.0
 10
-5.347013420770685
 20
1.392344841038077
 30
0.0
 10
-6.00726683307325
 20
1.633947189960059
 30
0.0
 10
-6.997315165612716
 20
1.997253641472251
 30
0.0
 10
-7.987232400332422
 20
2.360912010069016
 30
0.0
 10
-8.647011437649275
 20
2.603784499114217
 30
0.0
 10
-8.97689819336
 20
2.725219726562997
 30
0.0
 11
-5.016891479489999
 21
1.271545410156001
 31
0.0
 11
-6.007202148440001
 21
1.634094238281001
 31
0.0
 11
-6.997299194329997
 21
1.997314453125
 31
0.0
 11
-7.987197875969997
 21
2.361022949218998
 31
0.0
 11
-8.97689819336
 21
2.725219726562997
 31
0.0
  0
ELLIPSE
  5
21AE
330
21A9
100
AcDbEntity
  8
AM_0
 48
0.5
100
AcDbEllipse
 10
-7.740188598629998
 20
5.880920410156001
 30
0.0
 11
-0.1752777140600017
 21
0.1019897483540006
 31
0.0
210
0.0
220
0.0
230
1.0
 40
0.0783612612703
 41
0.6169773121725726
 42
1.163222932195248
  0
SPLINE
  5
21AF
330
21A9
100
AcDbEntity
  8
AM_0
 48
0.5
100
AcDbSpline
210
0.0
220
0.0
230
1.0
 70
     8
 71
     3
 72
    11
 73
     7
 74
     5
 42
0.0000000001
 43
0.0000000001
 44
0.0000000001
 40
0.0
 40
0.0
 40
0.0
 40
0.0
 40
0.0351990366524961
 40
0.0785382956335354
 40
0.1287151338803365
 40
0.1842731287248544
 40
0.1842731287248544
 40
0.1842731287248544
 40
0.1842731287248544
 10
-8.159988403319999
 20
5.883239746093998
 30
0.0
 10
-8.151456052546084
 20
5.875174565881894
 30
0.0
 10
-8.132418136987585
 20
5.857179030546951
 30
0.0
 10
-8.098045993799448
 20
5.831381472234221
 30
0.0
 10
-8.056968187772108
 20
5.803403011904006
 30
0.0
 10
-8.026704939589771
 20
5.785319689187964
 30
0.0
 10
-8.010803222649997
 20
5.775817871093998
 30
0.0
 11
-8.159988403319999
 21
5.883239746093998
 31
0.0
 11
-8.134002685550001
 21
5.859497070312997
 31
0.0
 11
-8.099700927729998
 21
5.8330078125
 31
0.0
 11
-8.058197021479998
 21
5.804809570312997
 31
0.0
 11
-8.010803222649997
 21
5.775817871093998
 31
0.0
  0
ELLIPSE
  5
21B0
330
21A9
100
AcDbEntity
  8
AM_0
 48
0.5
100
AcDbEllipse
 10
-7.727996826169999
 20
5.876403808593998
 30
0.0
 11
-0.2022552674799982
 21
0.1176757627990028
 31
0.0
210
0.0
220
0.0
230
1.0
 40
0.0781669348587
 41
1.163804603015796
 42
1.362893776516335
  0
SPLINE
  5
21B1
330
21A9
100
AcDbEntity
  8
AM_0
 48
0.5
100
AcDbSpline
210
0.0
220
0.0
230
1.0
 70
     8
 71
     3
 72
    11
 73
     7
 74
     5
 42
0.0000000001
 43
0.0000000001
 44
0.0000000001
 40
0.0
 40
0.0
 40
0.0
 40
0.0
 40
0.0248765999341686
 40
0.0501833878419383
 40
0.0758999300311995
 40
0.1020765594559554
 40
0.1020765594559554
 40
0.1020765594559554
 40
0.1020765594559554
 10
-8.010803222649997
 20
5.775817871093998
 30
0.0
 10
-8.003616124573438
 20
5.771681484992782
 30
0.0
 10
-7.989117642819968
 20
5.763337182775815
 30
0.0
 10
-7.966911495985677
 20
5.751209571377501
 30
0.0
 10
-7.944102723492857
 20
5.739290809196038
 30
0.0
 10
-7.928607784756377
 20
5.731601107460566
 30
0.0
 10
-7.920791625969997
 20
5.727722167968998
 30
0.0
 11
-8.010803222649997
 21
5.775817871093998
 31
0.0
 11
-7.989196777339998
 21
5.763488769531001
 31
0.0
 11
-7.96699523926
 21
5.751342773437997
 31
0.0
 11
-7.9441986084
 21
5.739440917968998
 31
0.0
 11
-7.920791625969997
 21
5.727722167968998
 31
0.0
  0
ELLIPSE
  5
21B2
330
21A9
100
AcDbEntity
  8
AM_0
 48
0.5
100
AcDbEllipse
 10
-7.73439025879
 20
5.87744140625
 30
0.0
 11
-0.1758880691100018
 21
0.1023559573560036
 31
0.0
210
0.0
220
0.0
230
1.0
 40
0.0787188372182
 41
1.362002572363657
 42
1.613948531481803
  0
SPLINE
  5
21B3
330
21A9
100
AcDbEntity
  8
AM_0
 48
0.5
100
AcDbSpline
210
0.0
220
0.0
230
1.0
 70
     8
 71
     3
 72
    11
 73
     7
 74
     5
 42
0.0000000001
 43
0.0000000001
 44
0.0000000001
 40
0.0
 40
0.0
 40
0.0
 40
0.0
 40
0.5368959490524494
 40
1.378533272190288
 40
2.28104992321519
 40
3.155418231348999
 40
3.155418231348999
 40
3.155418231348999
 40
3.155418231348999
 10
10.01480102538799
 20
0.1243896484379974
 30
0.0
 10
10.03029396285441
 20
-0.0541277132315326
 30
0.0
 10
10.07007360697188
 20
-0.5124886361615611
 30
0.0
 10
10.00855420856747
 20
-1.273275525704576
 30
0.0
 10
9.87612911077838
 20
-2.137695528449671
 30
0.0
 10
9.702533843687541
 20
-2.704817657884228
 30
0.0
 10
9.617111206052001
 20
-2.98388671875
 30
0.0
 11
10.01480102538799
 21
0.1243896484379974
 31
0.0
 11
10.04960632323999
 21
-0.411376953125
 31
0.0
 11
10.00061035155999
 21
-1.251586914062002
 31
0.0
 11
9.853103637692996
 21
-2.141967773437002
 31
0.0
 11
9.617111206052001
 21
-2.98388671875
 31
0.0
  0
SPLINE
  5
21B4
330
21A9
100
AcDbEntity
  8
AM_0
 48
0.5
100
AcDbSpline
210
0.0
220
0.0
230
1.0
 70
     8
 71
     3
 72
    10
 73
     6
 74
     4
 42
0.0000000001
 43
0.0000000001
 44
0.0000000001
 40
0.0
 40
0.0
 40
0.0
 40
0.0
 40
0.0411014680368518
 40
0.5717669352559595
 40
0.7316863244200748
 40
0.7316863244200748
 40
0.7316863244200748
 40
0.7316863244200748
 10
-1.899398803709999
 20
9.166320800781001
 30
0.0
 10
-1.902544324430332
 20
9.179669643544023
 30
0.0
 10
-1.946302000930747
 20
9.365366828593089
 30
0.0
 10
-2.091346647145736
 20
9.570923326037139
 30
0.0
 10
-2.199378673339841
 20
9.77366791850722
 30
0.0
 10
-2.224395751949998
 20
9.820617675781001
 30
0.0
 11
-1.899398803709999
 21
9.166320800781001
 31
0.0
 11
-1.90919494629
 21
9.206237792968998
 31
0.0
 11
-2.14779663086
 21
9.680236816406001
 31
0.0
 11
-2.224395751949998
 21
9.820617675781001
 31
0.0
  0
SPLINE
  5
21B5
330
21A9
100
AcDbEntity
  8
AM_0
 48
0.5
100
AcDbSpline
210
0.0
220
0.0
230
1.0
 70
     8
 71
     3
 72
    11
 73
     7
 74
     5
 42
0.0000000001
 43
0.0000000001
 44
0.0000000001
 40
0.0
 40
0.0
 40
0.0
 40
0.0
 40
0.4047021472964591
 40
0.5820559505311908
 40
0.6218661311990136
 40
0.6271623379626446
 40
0.6271623379626446
 40
0.6271623379626446
 40
0.6271623379626446
 10
-2.250900268549997
 20
9.681823730468998
 30
0.0
 10
-2.181145070582507
 20
9.561556613273914
 30
0.0
 10
-2.080820848611633
 20
9.388584486280599
 30
0.0
 10
-1.957631517777857
 20
9.245511751805537
 30
0.0
 10
-1.916499773813058
 20
9.165176391193043
 30
0.0
 10
-1.901195740454443
 20
9.166200548442864
 30
0.0
 10
-1.899398803709999
 20
9.166320800781001
 30
0.0
 11
-2.250900268549997
 21
9.681823730468998
 31
0.0
 11
-2.034393310550001
 21
9.339904785156001
 31
0.0
 11
-1.93229675293
 21
9.194885253906001
 31
0.0
 11
-1.904693603509997
 21
9.166198730468998
 31
0.0
 11
-1.899398803709999
 21
9.166320800781001
 31
0.0
  0
SPLINE
  5
21B6
330
21A9
100
AcDbEntity
  8
AM_0
 48
0.5
100
AcDbSpline
210
0.0
220
0.0
230
1.0
 70
     8
 71
     3
 72
    10
 73
     6
 74
     4
 42
0.0000000001
 43
0.0000000001
 44
0.0000000001
 40
0.0
 40
0.0
 40
0.0
 40
0.0
 40
0.0201860342416858
 40
0.2113337179873757
 40
0.6260841554930402
 40
0.6260841554930402
 40
0.6260841554930402
 40
0.6260841554930402
 10
8.888000488279999
 20
-2.938293457031001
 30
0.0
 10
8.893860070125512
 20
-2.934931686919592
 30
0.0
 10
8.955205810573447
 20
-2.899736295484278
 30
0.0
 10
9.176381200652118
 20
-2.919093454517734
 30
0.0
 10
9.374554320583436
 20
-2.902773159367877
 30
0.0
 10
9.510208129879998
 20
-2.8916015625
 30
0.0
 11
8.888000488279999
 21
-2.938293457031001
 31
0.0
 11
8.905700683600002
 21
-2.928588867187002
 31
0.0
 11
9.095809936530002
 21
-2.90869140625
 31
0.0
 11
9.510208129879998
 21
-2.8916015625
 31
0.0
  0
SPLINE
  5
21B7
330
21A9
100
AcDbEntity
  8
AM_0
 48
0.5
100
AcDbSpline
210
0.0
220
0.0
230
1.0
 70
     8
 71
     3
 72
    10
 73
     6
 74
     4
 42
0.0000000001
 43
0.0000000001
 44
0.0000000001
 40
0.0
 40
0.0
 40
0.0
 40
0.0
 40
0.4668773517814334
 40
0.6985070207158369
 40
0.7318128294898539
 40
0.7318128294898539
 40
0.7318128294898539
 40
0.7318128294898539
 10
9.617111206052001
 20
-2.98388671875
 30
0.0
 10
9.46248865241837
 20
-2.976131174956106
 30
0.0
 10
9.231153937076115
 20
-2.964527909625642
 30
0.0
 10
8.982348897414862
 20
-2.970148796428416
 30
0.0
 10
8.898536756111461
 20
-2.941850871414888
 30
0.0
 10
8.888000488279999
 20
-2.938293457031001
 30
0.0
 11
9.617111206052001
 21
-2.98388671875
 31
0.0
 11
9.150497436530002
 21
-2.968200683593998
 31
0.0
 11
8.919708251949998
 21
-2.948486328125
 31
0.0
 11
8.888000488279999
 21
-2.938293457031001
 31
0.0
  0
SPLINE
  5
21B8
330
21A9
100
AcDbEntity
  8
AM_0
 48
0.5
100
AcDbSpline
210
0.0
220
0.0
230
1.0
 70
     8
 71
     3
 72
    10
 73
     6
 74
     4
 42
0.0000000001
 43
0.0000000001
 44
0.0000000001
 40
0.0
 40
0.0
 40
0.0
 40
0.0
 40
0.0388983615879791
 40
0.3381710792061845
 40
0.7318293063211124
 40
0.7318293063211124
 40
0.7318293063211124
 40
0.7318293063211124
 10
-6.988601684569999
 20
-6.228088378906001
 30
0.0
 10
-6.99812737060292
 20
-6.236911106071302
 30
0.0
 10
-7.080940923524582
 20
-6.313613338382129
 30
0.0
 10
-7.198196023115242
 20
-6.532965710512545
 30
0.0
 10
-7.32223366612269
 20
-6.726719373672438
 30
0.0
 10
-7.392700195309998
 20
-6.836791992187002
 30
0.0
 11
-6.988601684569999
 21
-6.228088378906001
 31
0.0
 11
-7.01679992676
 21
-6.2548828125
 31
0.0
 11
-7.185501098629998
 21
-6.502075195312002
 31
0.0
 11
-7.392700195309998
 21
-6.836791992187002
 31
0.0
  0
SPLINE
  5
21B9
330
21A9
100
AcDbEntity
  8
AM_0
 48
0.5
100
AcDbSpline
210
0.0
220
0.0
230
1.0
 70
     8
 71
     3
 72
    11
 73
     7
 74
     5
 42
0.0000000001
 43
0.0000000001
 44
0.0000000001
 40
0.0
 40
0.0
 40
0.0
 40
0.0
 40
0.441532582167148
 40
0.5953040084004761
 40
0.625131288051397
 40
0.6274122090813293
 40
0.6274122090813293
 40
0.6274122090813293
 40
0.6274122090813293
 10
-7.25929260254
 20
-6.790283203125
 30
0.0
 10
-7.181267873715848
 20
-6.653681530961737
 30
0.0
 10
-7.076069671591335
 20
-6.469505942845767
 30
0.0
 10
-7.022640743395609
 20
-6.311084071337328
 30
0.0
 10
-6.978112515608081
 20
-6.233395000117972
 30
0.0
 10
-6.987905971365313
 20
-6.228440350207335
 30
0.0
 10
-6.988601684569999
 20
-6.228088378906001
 30
0.0
 11
-7.25929260254
 21
-6.790283203125
 31
0.0
 11
-7.055099487299997
 21
-6.398803710937002
 31
0.0
 11
-6.99220275879
 21
-6.258483886718998
 31
0.0
 11
-6.986602783199998
 21
-6.229187011718998
 31
0.0
 11
-6.988601684569999
 21
-6.228088378906001
 31
0.0
  0
SPLINE
  5
21BA
330
21A9
100
AcDbEntity
  8
AM_0
 48
0.5
100
AcDbSpline
210
0.0
220
0.0
230
1.0
 70
     8
 71
     3
 72
    11
 73
     7
 74
     5
 42
0.0000000001
 43
0.0000000001
 44
0.0000000001
 40
0.0
 40
0.0
 40
0.0
 40
0.0
 40
0.8177826995904547
 40
2.118316693900249
 40
3.847237717642213
 40
6.01038329792609
 40
6.01038329792609
 40
6.01038329792609
 40
6.01038329792609
 10
9.867507934567996
 20
-3.589294433593998
 30
0.0
 10
9.764286670419313
 20
-3.84166365516847
 30
0.0
 10
9.496910841704488
 20
-4.4953800218213
 30
0.0
 10
8.906087757152995
 20
-5.636194052292334
 30
0.0
 10
7.883888179921781
 20
-7.050400796439584
 30
0.0
 10
6.8944248596739
 20
-7.896311850077903
 30
0.0
 10
6.344497680670002
 20
-8.366455078125
 30
0.0
 11
9.867507934567996
 21
-3.589294433593998
 31
0.0
 11
9.549209594724004
 21
-4.342590332031001
 31
0.0
 11
8.947708129879998
 21
-5.495666503906001
 31
0.0
 11
7.92530822754
 21
-6.889892578125
 31
0.0
 11
6.344497680670002
 21
-8.366455078125
 31
0.0
  0
SPLINE
  5
21BB
330
21A9
100
AcDbEntity
  8
AM_0
 48
0.5
100
AcDbSpline
210
0.0
220
0.0
230
1.0
 70
     8
 71
     3
 72
    11
 73
     7
 74
     5
 42
0.0000000001
 43
0.0000000001
 44
0.0000000001
 40
0.0
 40
0.0
 40
0.0
 40
0.0
 40
0.8286232978582336
 40
2.120552459497369
 40
3.840329909876715
 40
6.010790500210626
 40
6.010790500210626
 40
6.010790500210626
 40
6.010790500210626
 10
-1.825302124019998
 20
10.340087890625
 30
0.0
 10
-1.551718269134265
 20
10.37865018754485
 30
0.0
 10
-0.8515823716085268
 20
10.47733601232026
 30
0.0
 10
0.4299809208207228
 20
10.53341632683354
 30
0.0
 10
2.161167421975441
 20
10.34933861235164
 30
0.0
 10
3.388596701326647
 20
9.918249638703377
 30
0.0
 10
4.07341003418
 20
9.677734375
 30
0.0
 11
-1.825302124019998
 21
10.340087890625
 31
0.0
 11
-1.003402709959999
 21
10.44543457031299
 31
0.0
 11
0.287399291989999
 21
10.49938964843799
 31
0.0
 11
1.996505737310002
 21
10.30810546874999
 31
0.0
 11
4.07341003418
 21
9.677734375
 31
0.0
  0
SPLINE
  5
21BC
330
21A9
100
AcDbEntity
  8
AM_0
 48
0.5
100
AcDbSpline
210
0.0
220
0.0
230
1.0
 70
     8
 71
     3
 72
    11
 73
     7
 74
     5
 42
0.0000000001
 43
0.0000000001
 44
0.0000000001
 40
0.0
 40
0.0
 40
0.0
 40
0.0
 40
0.8286856786616072
 40
2.120537655539827
 40
3.840237409891297
 40
6.010863556994669
 40
6.010863556994669
 40
6.010863556994669
 40
6.010863556994669
 10
-8.042098999019998
 20
-6.750854492187002
 30
0.0
 10
-8.212290606192508
 20
-6.533181673446186
 30
0.0
 10
-8.647796758837777
 20
-5.976175053671012
 30
0.0
 10
-9.337142821916065
 20
-4.894388790530214
 30
0.0
 10
-10.04338691025623
 20
-3.30311823800507
 30
0.0
 10
-10.2837109457235
 20
-2.024543938881786
 30
0.0
 10
-10.41780090332
 20
-1.311157226562002
 30
0.0
 11
-8.042098999019998
 21
-6.750854492187002
 31
0.0
 11
-8.54429626465
 21
-6.091674804687002
 31
0.0
 11
-9.236389160149997
 21
-5.000854492187002
 31
0.0
 11
-9.92529296875
 21
-3.425170898437002
 31
0.0
 11
-10.41780090332
 21
-1.311157226562002
 31
0.0
  0
ELLIPSE
  5
21BD
330
21A9
100
AcDbEntity
  8
AM_0
 48
0.5
100
AcDbEllipse
 10
8.665100097660001
 20
-15.12808227538999
 30
0.0
 11
-11.13993731867
 21
19.44711420840899
 31
0.0
210
0.0
220
0.0
230
1.0
 40
0.6284011450325
 41
5.481462060653031
 42
5.522398234959525
  0
ELLIPSE
  5
21BE
330
21A9
100
AcDbEntity
  8
AM_0
 48
0.5
100
AcDbEllipse
 10
8.768798828130002
 20
15.06822967529299
 30
0.0
 11
11.27177298936
 21
19.37102511758
 31
0.0
210
0.0
220
0.0
230
1.0
 40
0.6284006734838
 41
2.339877214610505
 42
2.380813751437858
  0
ELLIPSE
  5
21BF
330
21A9
100
AcDbEntity
  8
AM_0
 48
0.5
100
AcDbEllipse
 10
-17.43379211426
 20
0.059814453125
 30
0.0
 11
-22.41166753796
 21
0.0760503460209989
 31
0.0
210
0.0
220
0.0
230
0.9999999999999998
 40
0.628400187026
 41
2.339877871230156
 42
2.380814175638118
  0
SPLINE
  5
21C0
330
21A9
100
AcDbEntity
  8
AM_0
 48
0.5
100
AcDbSpline
210
0.0
220
0.0
230
1.0
 70
     8
 71
     3
 72
    11
 73
     7
 74
     5
 42
0.0000000001
 43
0.0000000001
 44
0.0000000001
 40
0.0
 40
0.0
 40
0.0
 40
0.0
 40
0.102821093934801
 40
0.2039811265238595
 40
0.3051350401083645
 40
0.4078570188172241
 40
0.4078570188172241
 40
0.4078570188172241
 40
0.4078570188172241
 10
-3.09880065918
 20
0.418701171875
 30
0.0
 10
-3.100680949892072
 20
0.3844287221489054
 30
0.0
 10
-3.104411155465297
 20
0.3164374896466129
 30
0.0
 10
-3.126189899828247
 20
0.2167272101199021
 30
0.0
 10
-3.158818937417406
 20
0.1200580372909512
 30
0.0
 10
-3.190584037867103
 20
0.0598676696945965
 30
0.0
 10
-3.206588745120001
 20
0.029541015625
 30
0.0
 11
-3.09880065918
 21
0.418701171875
 31
0.0
 11
-3.107192993159998
 21
0.3162231445310013
 31
0.0
 11
-3.127990722649997
 21
0.2172241210939987
 31
0.0
 11
-3.161102294919999
 21
0.1216430664060013
 31
0.0
 11
-3.206588745120001
 21
0.029541015625
 31
0.0
  0
SPLINE
  5
21C1
330
21A9
100
AcDbEntity
  8
AM_0
 48
0.5
100
AcDbSpline
210
0.0
220
0.0
230
1.0
 70
     8
 71
     3
 72
    11
 73
     7
 74
     5
 42
0.0000000001
 43
0.0000000001
 44
0.0000000001
 40
0.0
 40
0.0
 40
0.0
 40
0.0
 40
0.2117101907092632
 40
0.4236725692110618
 40
0.6359236480077725
 40
0.8477218760892679
 40
0.8477218760892679
 40
0.8477218760892679
 40
0.8477218760892679
 10
-3.497497558589998
 20
1.124328613281001
 30
0.0
 10
-3.438857198156303
 20
1.084253395715508
 30
0.0
 10
-3.321506625275642
 20
1.004055223247839
 30
0.0
 10
-3.194176833883454
 20
0.8303991079945195
 30
0.0
 10
-3.111604853627614
 20
0.6315929345404136
 30
0.0
 10
-3.103065684279433
 20
0.4896145522477628
 30
0.0
 10
-3.09880065918
 20
0.418701171875
 30
0.0
 11
-3.497497558589998
 21
1.124328613281001
 31
0.0
 11
-3.329696655269998
 21
0.9952392578129973
 31
0.0
 11
-3.20169067383
 21
0.8262939453129973
 31
0.0
 11
-3.123199462889999
 21
0.6290893554689987
 31
0.0
 11
-3.09880065918
 21
0.418701171875
 31
0.0
  0
SPLINE
  5
21C2
330
21A9
100
AcDbEntity
  8
AM_0
 48
0.5
100
AcDbSpline
210
0.0
220
0.0
230
1.0
 70
     8
 71
     3
 72
    11
 73
     7
 74
     5
 42
0.0000000001
 43
0.0000000001
 44
0.0000000001
 40
0.0
 40
0.0
 40
0.0
 40
0.0
 40
0.1023286613623699
 40
0.2033706066740578
 40
0.3047135988785817
 40
0.4079330035603747
 40
0.4079330035603747
 40
0.4079330035603747
 40
0.4079330035603747
 10
1.186798095699998
 20
-2.89306640625
 30
0.0
 10
1.217273810289639
 20
-2.87763651734061
 30
0.0
 10
1.277842027272099
 20
-2.846970760292314
 30
0.0
 10
1.374934497027816
 20
-2.815981608212885
 30
0.0
 10
1.475137501993099
 20
-2.795793273762644
 30
0.0
 10
1.543373572062642
 20
-2.793145242572602
 30
0.0
 10
1.57780456543
 20
-2.791809082031001
 30
0.0
 11
1.186798095699998
 21
-2.89306640625
 31
0.0
 11
1.279296875
 21
-2.849304199218998
 31
0.0
 11
1.375305175779999
 21
-2.817810058593998
 31
0.0
 11
1.47480773926
 21
-2.798583984375
 31
0.0
 11
1.57780456543
 21
-2.791809082031001
 31
0.0
  0
SPLINE
  5
21C3
330
21A9
100
AcDbEntity
  8
AM_0
 48
0.5
100
AcDbSpline
210
0.0
220
0.0
230
1.0
 70
     8
 71
     3
 72
    11
 73
     7
 74
     5
 42
0.0000000001
 43
0.0000000001
 44
0.0000000001
 40
0.0
 40
0.0
 40
0.0
 40
0.0
 40
0.2114910461090887
 40
0.4234729185076715
 40
0.6358252531454484
 40
0.8476321919249556
 40
0.8476321919249556
 40
0.8476321919249556
 40
0.8476321919249556
 10
0.775100708010001
 20
-3.591064453125
 30
0.0
 10
0.7804406178878683
 20
-3.520303834084875
 30
0.0
 10
0.7911328304526593
 20
-3.378618375472717
 30
0.0
 10
0.8781102553703977
 20
-3.181692601910179
 30
0.0
 10
1.008622846132975
 20
-3.01043250233666
 30
0.0
 10
1.127457279390423
 20
-2.932154887763424
 30
0.0
 10
1.186798095699998
 20
-2.89306640625
 30
0.0
 11
0.775100708010001
 21
-3.591064453125
 31
0.0
 11
0.8029022216800001
 21
-3.381408691406001
 31
0.0
 11
0.8852996826200012
 21
-3.186096191406001
 31
0.0
 11
1.016708374030002
 21
-3.019287109375
 31
0.0
 11
1.186798095699998
 21
-2.89306640625
 31
0.0
  0
SPLINE
  5
21C4
330
21A9
100
AcDbEntity
  8
AM_0
 48
0.5
100
AcDbSpline
210
0.0
220
0.0
230
1.0
 70
     8
 71
     3
 72
    11
 73
     7
 74
     5
 42
0.0000000001
 43
0.0000000001
 44
0.0000000001
 40
0.0
 40
0.0
 40
0.0
 40
0.0
 40
0.102917817504986
 40
0.2041569392230775
 40
0.3052652552913466
 40
0.4079257723537836
 40
0.4079257723537836
 40
0.4079257723537836
 40
0.4079257723537836
 10
1.912109375
 20
2.474243164062997
 30
0.0
 10
1.883350250034785
 20
2.493038151377244
 30
0.0
 10
1.826301091104188
 20
2.530321560371294
 30
0.0
 10
1.750809092987298
 20
2.599065644674323
 30
0.0
 10
1.683383243811146
 20
2.675626421343813
 30
0.0
 10
1.647157231340835
 20
2.733200638177835
 30
0.0
 10
1.62890625
 20
2.76220703125
 30
0.0
 11
1.912109375
 21
2.474243164062997
 31
0.0
 11
1.82749938965
 21
2.532836914062997
 31
0.0
 11
1.752105712889999
 21
2.600402832031001
 31
0.0
 11
1.68589782715
 21
2.676818847656001
 31
0.0
 11
1.62890625
 21
2.76220703125
 31
0.0
  0
SPLINE
  5
21C5
330
21A9
100
AcDbEntity
  8
AM_0
 48
0.5
100
AcDbSpline
210
0.0
220
0.0
230
1.0
 70
     8
 71
     3
 72
    11
 73
     7
 74
     5
 42
0.0000000001
 43
0.0000000001
 44
0.0000000001
 40
0.0
 40
0.0
 40
0.0
 40
0.0
 40
0.2116239139201932
 40
0.4235822105273469
 40
0.6357796039638155
 40
0.8475910227366513
 40
0.8475910227366513
 40
0.8475910227366513
 40
0.8475910227366513
 10
2.722396850590001
 20
2.466796875
 30
0.0
 10
2.658408015235914
 20
2.436029880365171
 30
0.0
 10
2.530329237056919
 20
2.374447276786549
 30
0.0
 10
2.316316054984516
 20
2.351110058076007
 30
0.0
 10
2.102847771290094
 20
2.378803960426135
 30
0.0
 10
1.9756502445163
 20
2.44244940830652
 30
0.0
 10
1.912109375
 20
2.474243164062997
 30
0.0
 11
2.722396850590001
 21
2.466796875
 31
0.0
 11
2.526809692379998
 21
2.385986328125
 31
0.0
 11
2.316497802740002
 21
2.359619140625
 31
0.0
 11
2.106506347660001
 21
2.39013671875
 31
0.0
 11
1.912109375
 21
2.474243164062997
 31
0.0
  0
SPLINE
  5
21C6
330
21A9
100
AcDbEntity
  8
AM_0
 48
0.5
100
AcDbSpline
210
0.0
220
0.0
230
1.0
 70
     8
 71
     3
 72
    11
 73
     7
 74
     5
 42
0.0000000001
 43
0.0000000001
 44
0.0000000001
 40
0.0
 40
0.0
 40
0.0
 40
0.0
 40
0.9114698235779885
 40
1.821402631698342
 40
2.638786481186979
 40
3.062351376535212
 40
3.062351376535212
 40
3.062351376535212
 40
3.062351376535212
 10
-2.250900268549997
 20
9.681823730468998
 30
0.0
 10
-2.543713556907334
 20
9.600564452044379
 30
0.0
 10
-3.128846361322845
 20
9.438182923063518
 30
0.0
 10
-3.956048386916867
 20
9.134447196838237
 30
0.0
 10
-4.603057737419414
 20
8.824634349314671
 30
0.0
 10
-4.984799599922541
 20
8.665243631853206
 30
0.0
 10
-5.1150970459
 20
8.61083984375
 30
0.0
 11
-2.250900268549997
 21
9.681823730468998
 31
0.0
 11
-3.125793457029999
 21
9.426208496093998
 31
0.0
 11
-3.978988647459999
 21
9.109924316406001
 31
0.0
 11
-4.725189208979998
 21
8.776306152343998
 31
0.0
 11
-5.1150970459
 21
8.61083984375
 31
0.0
  0
SPLINE
  5
21C7
330
21A9
100
AcDbEntity
  8
AM_0
 48
0.5
100
AcDbSpline
210
0.0
220
0.0
230
1.0
 70
     8
 71
     3
 72
    11
 73
     7
 74
     5
 42
0.0000000001
 43
0.0000000001
 44
0.0000000001
 40
0.0
 40
0.0
 40
0.0
 40
0.0
 40
0.5368665536471346
 40
1.37789079272701
 40
2.280473704859233
 40
3.155459196465564
 40
3.155459196465564
 40
3.155459196465564
 40
3.155459196465564
 10
-5.1150970459
 20
8.61083984375
 30
0.0
 10
-4.968275751175599
 20
8.713547791393043
 30
0.0
 10
-4.591452667668746
 20
8.977152097595096
 30
0.0
 10
-3.90195767772577
 20
9.304102523025031
 30
0.0
 10
-3.087139852830533
 20
9.621685412497638
 30
0.0
 10
-2.508985095285948
 20
9.754996824686958
 30
0.0
 10
-2.224395751949998
 20
9.820617675781001
 30
0.0
 11
-5.1150970459
 21
8.61083984375
 31
0.0
 11
-4.668594360349999
 21
8.908935546875
 31
0.0
 11
-3.9169921875
 21
9.286315917968998
 31
0.0
 11
-3.072097778319999
 21
9.603820800781001
 31
0.0
 11
-2.224395751949998
 21
9.820617675781001
 31
0.0
  0
SPLINE
  5
21C8
330
21A9
100
AcDbEntity
  8
AM_0
 48
0.5
100
AcDbSpline
210
0.0
220
0.0
230
1.0
 70
     8
 71
     3
 72
    11
 73
     7
 74
     5
 42
0.0000000001
 43
0.0000000001
 44
0.0000000001
 40
0.0
 40
0.0
 40
0.0
 40
0.0
 40
0.9108571706859031
 40
1.820976792640852
 40
2.638032867211728
 40
3.062423357555786
 40
3.062423357555786
 40
3.062423357555786
 40
3.062423357555786
 10
-7.25929260254
 20
-6.790283203125
 30
0.0
 10
-7.042536029873922
 20
-7.002961869135168
 30
0.0
 10
-6.609198398925622
 20
-7.428146988776587
 30
0.0
 10
-5.933193937063508
 20
-7.993013967387061
 30
0.0
 10
-5.341259891057199
 20
-8.398670071406995
 30
0.0
 10
-5.012115651711213
 20
-8.649532727741723
 30
0.0
 10
-4.89959716797
 20
-8.735290527343998
 30
0.0
 11
-7.25929260254
 21
-6.790283203125
 31
0.0
 11
-6.600692749019998
 21
-7.419494628906001
 31
0.0
 11
-5.900299072259997
 21
-8.000671386718998
 31
0.0
 11
-5.238601684569999
 21
-8.47998046875
 31
0.0
 11
-4.89959716797
 21
-8.735290527343998
 31
0.0
  0
SPLINE
  5
21C9
330
21A9
100
AcDbEntity
  8
AM_0
 48
0.5
100
AcDbSpline
210
0.0
220
0.0
230
1.0
 70
     8
 71
     3
 72
    11
 73
     7
 74
     5
 42
0.0000000001
 43
0.0000000001
 44
0.0000000001
 40
0.0
 40
0.0
 40
0.0
 40
0.0
 40
0.5375420301605564
 40
1.378698150617735
 40
2.281580456482138
 40
3.155463921747484
 40
3.155463921747484
 40
3.155463921747484
 40
3.155463921747484
 10
-4.89959716797
 20
-8.735290527343998
 30
0.0
 10
-5.062152620040553
 20
-8.659383962527844
 30
0.0
 10
-5.47907797390648
 20
-8.464697343324283
 30
0.0
 10
-6.107295442266543
 20
-8.030860302835625
 30
0.0
 10
-6.789339797441391
 20
-7.483869743024945
 30
0.0
 10
-7.19378037293079
 20
-7.050124838885124
 30
0.0
 10
-7.392700195309998
 20
-6.836791992187002
 30
0.0
 11
-4.89959716797
 21
-8.735290527343998
 31
0.0
 11
-5.381591796869997
 21
-8.497314453125
 31
0.0
 11
-6.084289550779999
 21
-8.034973144531001
 31
0.0
 11
-6.781799316399997
 21
-7.461669921875
 31
0.0
 11
-7.392700195309998
 21
-6.836791992187002
 31
0.0
  0
SPLINE
  5
21CA
330
21A9
100
AcDbEntity
  8
AM_0
 48
0.5
100
AcDbSpline
210
0.0
220
0.0
230
1.0
 70
     8
 71
     3
 72
    11
 73
     7
 74
     5
 42
0.0000000001
 43
0.0000000001
 44
0.0000000001
 40
0.0
 40
0.0
 40
0.0
 40
0.0
 40
0.910051219532754
 40
1.821583463999583
 40
2.638596174054587
 40
3.06235465313339
 40
3.06235465313339
 40
3.06235465313339
 40
3.06235465313339
 10
9.510208129879998
 20
-2.8916015625
 30
0.0
 10
9.585851372946844
 20
-2.597786046388583
 30
0.0
 10
9.737260961524295
 20
-2.009676856347772
 30
0.0
 10
9.889096052081082
 20
-1.141715876857325
 30
0.0
 10
9.943857365685653
 20
-0.4259417839892904
 30
0.0
 10
9.996740081260741
 20
-0.0157145595242839
 30
0.0
 10
10.01480102538799
 20
0.1243896484379974
 30
0.0
 11
9.510208129879998
 21
-2.8916015625
 31
0.0
 11
9.725509643552001
 21
-2.007385253906001
 31
0.0
 11
9.879104614254998
 21
-1.10888671875
 31
0.0
 11
9.963104248044004
 21
-0.2962036132810013
 31
0.0
 11
10.01480102538799
 21
0.1243896484379974
 31
0.0
  0
SPLINE
  5
21CB
330
21A9
100
AcDbEntity
  8
AM_0
 48
0.5
100
AcDbSpline
210
0.0
220
0.0
230
1.0
 70
     8
 71
     3
 72
    11
 73
     7
 74
     5
 42
0.0000000001
 43
0.0000000001
 44
0.0000000001
 40
0.0
 40
0.0
 40
0.0
 40
0.0
 40
1.897406903263224
 40
3.793962331624284
 40
5.689727798565041
 40
7.584747732872589
 40
7.584747732872589
 40
7.584747732872589
 40
7.584747732872589
 10
1.62890625
 20
2.76220703125
 30
0.0
 10
1.311573281637381
 20
3.309305548309806
 30
0.0
 10
0.6770497503486001
 20
4.40325706806163
 30
0.0
 10
-0.275154350279624
 20
6.043472854439622
 30
0.0
 10
-1.227583019246241
 20
7.682638086070715
 30
0.0
 10
-1.862767881327814
 20
8.774980920186603
 30
0.0
 10
-2.180297851559998
 20
9.321044921875
 30
0.0
 11
1.62890625
 21
2.76220703125
 31
0.0
 11
0.6768035888700013
 21
4.403442382812997
 31
0.0
 11
-0.275390625
 21
6.043640136718998
 31
0.0
 11
-1.227798461909998
 21
7.682800292968998
 31
0.0
 11
-2.180297851559998
 21
9.321044921875
 31
0.0
  0
SPLINE
  5
21CC
330
21A9
100
AcDbEntity
  8
AM_0
 48
0.5
100
AcDbSpline
210
0.0
220
0.0
230
1.0
 70
     8
 71
     3
 72
    11
 73
     7
 74
     5
 42
0.0000000001
 43
0.0000000001
 44
0.0000000001
 40
0.0
 40
0.0
 40
0.0
 40
0.0
 40
1.209353885432136
 40
2.418597980134818
 40
3.627904268355148
 40
4.837166916682084
 40
4.837166916682084
 40
4.837166916682084
 40
4.837166916682084
 10
-3.41929626465
 20
3.392639160156001
 30
0.0
 10
-3.768794542292902
 20
3.593524811674458
 30
0.0
 10
-4.467759368511384
 20
3.995277877384414
 30
0.0
 10
-5.516194310521921
 20
4.597933755565093
 30
0.0
 10
-6.564682318103663
 20
5.200436269790241
 30
0.0
 10
-7.263691441774444
 20
5.602092826030724
 30
0.0
 10
-7.613189697259997
 20
5.802917480468998
 30
0.0
 11
-3.41929626465
 21
3.392639160156001
 31
0.0
 11
-4.46778869629
 21
3.995300292968998
 31
0.0
 11
-5.516189575189997
 21
4.597900390625
 31
0.0
 11
-6.564697265619997
 21
5.200439453125
 31
0.0
 11
-7.613189697259997
 21
5.802917480468998
 31
0.0
  0
SPLINE
  5
21CD
330
21A9
100
AcDbEntity
  8
AM_0
 48
0.5
100
AcDbSpline
210
0.0
220
0.0
230
1.0
 70
     8
 71
     3
 72
    11
 73
     7
 74
     5
 42
0.0000000001
 43
0.0000000001
 44
0.0000000001
 40
0.0
 40
0.0
 40
0.0
 40
0.0
 40
1.897295870117667
 40
3.79386382144779
 40
5.689613311413264
 40
7.58471069397777
 40
7.58471069397777
 40
7.58471069397777
 40
7.58471069397777
 10
-3.206588745120001
 20
0.029541015625
 30
0.0
 10
-3.52166214935524
 20
-0.5188192107814161
 30
0.0
 10
-4.151688076389138
 20
-1.615329279058325
 30
0.0
 10
-5.095894523441232
 20
-3.260117953782104
 30
0.0
 10
-6.03951242024059
 20
-4.904399498065776
 30
0.0
 10
-6.667941134796594
 20
-6.000666729680508
 30
0.0
 10
-6.98210144043
 20
-6.548706054687002
 30
0.0
 11
-3.206588745120001
 21
0.029541015625
 31
0.0
 11
-4.15170288086
 21
-1.615600585937002
 31
0.0
 11
-5.095993041989999
 21
-3.260375976562002
 31
0.0
 11
-6.039489746089998
 21
-4.904663085937002
 31
0.0
 11
-6.98210144043
 21
-6.548706054687002
 31
0.0
  0
SPLINE
  5
21CE
330
21A9
100
AcDbEntity
  8
AM_0
 48
0.5
100
AcDbSpline
210
0.0
220
0.0
230
1.0
 70
     8
 71
     3
 72
    11
 73
     7
 74
     5
 42
0.0000000001
 43
0.0000000001
 44
0.0000000001
 40
0.0
 40
0.0
 40
0.0
 40
0.0
 40
1.209414024071737
 40
2.418705740870294
 40
3.627997694871599
 40
4.837228768355085
 40
4.837228768355085
 40
4.837228768355085
 40
4.837228768355085
 10
-1.228500366209999
 20
-4.657470703125
 30
0.0
 10
-1.227683405770689
 20
-5.060607884290612
 30
0.0
 10
-1.226049567510759
 20
-5.866841477614396
 30
0.0
 10
-1.223838778863056
 20
-7.076172027691844
 30
0.0
 10
-1.221399386519997
 20
-8.28544115260243
 30
0.0
 10
-1.219734840133011
 20
-9.091613776292369
 30
0.0
 10
-1.218902587889999
 20
-9.494689941406001
 30
0.0
 11
-1.228500366209999
 21
-4.657470703125
 31
0.0
 11
-1.22608947754
 21
-5.866882324218998
 31
0.0
 11
-1.22380065918
 21
-7.076171875
 31
0.0
 11
-1.22138977051
 21
-8.285461425781001
 31
0.0
 11
-1.218902587889999
 21
-9.494689941406001
 31
0.0
  0
SPLINE
  5
21CF
330
21A9
100
AcDbEntity
  8
AM_0
 48
0.5
100
AcDbSpline
210
0.0
220
0.0
230
1.0
 70
     8
 71
     3
 72
    11
 73
     7
 74
     5
 42
0.0000000001
 43
0.0000000001
 44
0.0000000001
 40
0.0
 40
0.0
 40
0.0
 40
0.0
 40
1.897297112015503
 40
3.79390922988995
 40
5.689713727907147
 40
7.584620437667647
 40
7.584620437667647
 40
7.584620437667647
 40
7.584620437667647
 10
1.57780456543
 20
-2.791809082031001
 30
0.0
 10
2.210235731985194
 20
-2.790567433634287
 30
0.0
 10
3.474869734149959
 20
-2.788084585121665
 30
0.0
 10
5.371434914125432
 20
-2.78327384864516
 30
0.0
 10
7.267203186024524
 20
-2.778411134844978
 30
0.0
 10
8.530767010399591
 20
-2.774321943475659
 30
0.0
 10
9.162399291989999
 20
-2.772277832031001
 30
0.0
 11
1.57780456543
 21
-2.791809082031001
 31
0.0
 11
3.47509765625
 21
-2.787902832031001
 31
0.0
 11
5.371704101559998
 21
-2.783264160156001
 31
0.0
 11
7.267501831060002
 21
-2.778198242187002
 31
0.0
 11
9.162399291989999
 21
-2.772277832031001
 31
0.0
  0
SPLINE
  5
21D0
330
21A9
100
AcDbEntity
  8
AM_0
 48
0.5
100
AcDbSpline
210
0.0
220
0.0
230
1.0
 70
     8
 71
     3
 72
    11
 73
     7
 74
     5
 42
0.0000000001
 43
0.0000000001
 44
0.0000000001
 40
0.0
 40
0.0
 40
0.0
 40
0.0
 40
1.209306634299705
 40
2.418600068990233
 40
3.627954749639176
 40
4.837168987700997
 40
4.837168987700997
 40
4.837168987700997
 40
4.837168987700997
 10
4.64779663086
 20
1.264831542968998
 30
0.0
 10
4.996499554391116
 20
1.467063251335097
 30
0.0
 10
5.693901595353074
 20
1.871524460703637
 30
0.0
 10
6.74004015380715
 20
2.478191381222908
 30
0.0
 10
7.786050066887666
 20
3.085018712122716
 30
0.0
 10
8.483435216957856
 20
3.489488350205387
 30
0.0
 10
8.832107543950002
 20
3.691711425781001
 30
0.0
 11
4.64779663086
 21
1.264831542968998
 31
0.0
 11
5.693908691410001
 21
1.871520996093998
 31
0.0
 11
6.740005493170002
 21
2.478210449218998
 31
0.0
 11
7.786102294919999
 21
3.085021972656001
 31
0.0
 11
8.832107543950002
 21
3.691711425781001
 31
0.0
  0
SPLINE
  5
21D1
330
21A9
100
AcDbEntity
  8
AM_0
 48
0.5
100
AcDbSpline
210
0.0
220
0.0
230
1.0
 70
     8
 71
     3
 72
    11
 73
     7
 74
     5
 42
0.0000000001
 43
0.0000000001
 44
0.0000000001
 40
0.0
 40
0.0
 40
0.0
 40
0.0
 40
0.0743445346967543
 40
0.1595251471495849
 40
0.2562108503188919
 40
0.3645670354607132
 40
0.3645670354607132
 40
0.3645670354607132
 40
0.3645670354607132
 10
1.59671020508
 20
-4.469177246093998
 30
0.0
 10
1.57424692463491
 20
-4.458668664981096
 30
0.0
 10
1.526046231294342
 20
-4.436119825914352
 30
0.0
 10
1.444847394190011
 20
-4.409165084170284
 30
0.0
 10
1.351484552564322
 20
-4.383697330100346
 30
0.0
 10
1.284498891726081
 20
-4.370020571727239
 30
0.0
 10
1.249099731450002
 20
-4.36279296875
 30
0.0
 11
1.59671020508
 21
-4.469177246093998
 31
0.0
 11
1.52880859375
 21
-4.438903808593998
 31
0.0
 11
1.448303222660001
 21
-4.411071777343998
 31
0.0
 11
1.35501098633
 21
-4.385681152343998
 31
0.0
 11
1.249099731450002
 21
-4.36279296875
 31
0.0
  0
SPLINE
  5
21D2
330
21A9
100
AcDbEntity
  8
AM_0
 48
0.5
100
AcDbSpline
210
0.0
220
0.0
230
1.0
 70
     8
 71
     3
 72
    11
 73
     7
 74
     5
 42
0.0000000001
 43
0.0000000001
 44
0.0000000001
 40
0.0
 40
0.0
 40
0.0
 40
0.0
 40
0.0207665392150799
 40
0.0352318792947638
 40
0.0438410957874552
 40
0.0488697407859537
 40
0.0488697407859537
 40
0.0488697407859537
 40
0.0488697407859537
 10
-1.833602905269998
 20
-10.13708496093699
 30
0.0
 10
-1.832165533933288
 20
-10.1439695702431
 30
0.0
 10
-1.829726933408077
 20
-10.15564978915451
 30
0.0
 10
-1.824921631888903
 20
-10.16856814067583
 30
0.0
 10
-1.820659197925592
 20
-10.17872316768898
 30
0.0
 10
-1.815790558979102
 20
-10.17853586163611
 30
0.0
 10
-1.81399536133
 20
-10.178466796875
 30
0.0
 11
-1.833602905269998
 21
-10.13708496093699
 31
0.0
 11
-1.82879638672
 21
-10.157287597656
 31
0.0
 11
-1.82389831543
 21
-10.1708984375
 31
0.0
 11
-1.819000244139999
 21
-10.177978515625
 31
0.0
 11
-1.81399536133
 21
-10.178466796875
 31
0.0
  0
SPLINE
  5
21D3
330
21A9
100
AcDbEntity
  8
AM_0
 48
0.5
100
AcDbSpline
210
0.0
220
0.0
230
1.0
 70
     8
 71
     3
 72
    11
 73
     7
 74
     5
 42
0.0000000001
 43
0.0000000001
 44
0.0000000001
 40
0.0
 40
0.0
 40
0.0
 40
0.0
 40
0.450102743053512
 40
0.8848020556803696
 40
1.304045750868741
 40
1.707992761654969
 40
1.707992761654969
 40
1.707992761654969
 40
1.707992761654969
 10
0.6380004882799995
 20
-10.862854003906
 30
0.0
 10
0.7874324170618447
 20
-10.84940516560145
 30
0.0
 10
1.081182410393345
 20
-10.82296773556569
 30
0.0
 10
1.513553307867926
 20
-10.77810706908582
 30
0.0
 10
1.930181196146717
 20
-10.7307418746101
 30
0.0
 10
2.202279238300634
 20
-10.69526517685641
 30
0.0
 10
2.3358001709
 20
-10.67785644531199
 30
0.0
 11
0.6380004882799995
 21
-10.862854003906
 31
0.0
 11
1.086196899420002
 21
-10.82147216796899
 31
0.0
 11
1.518600463870001
 21
-10.77685546874999
 31
0.0
 11
1.935104370120001
 21
-10.72900390625
 31
0.0
 11
2.3358001709
 21
-10.67785644531199
 31
0.0
  0
SPLINE
  5
21D4
330
21A9
100
AcDbEntity
  8
AM_0
 48
0.5
100
AcDbSpline
210
0.0
220
0.0
230
1.0
 70
     8
 71
     3
 72
    11
 73
     7
 74
     5
 42
0.0000000001
 43
0.0000000001
 44
0.0000000001
 40
0.0
 40
0.0
 40
0.0
 40
0.0
 40
0.0564756312839163
 40
0.1130080259449667
 40
0.1695098692897474
 40
0.2259742857889437
 40
0.2259742857889437
 40
0.2259742857889437
 40
0.2259742857889437
 10
-1.81399536133
 20
-10.178466796875
 30
0.0
 10
-1.801997675645196
 20
-10.19297348100332
 30
0.0
 10
-1.777990245461161
 20
-10.22200142985631
 30
0.0
 10
-1.741964988577985
 20
-10.26553086813081
 30
0.0
 10
-1.706125799345976
 20
-10.30920880512318
 30
0.0
 10
-1.682170309684653
 20
-10.33826161228573
 30
0.0
 10
-1.670196533199998
 20
-10.352783203125
 30
0.0
 11
-1.81399536133
 21
-10.178466796875
 31
0.0
 11
-1.77799987793
 21
-10.221984863281
 31
0.0
 11
-1.741989135739999
 21
-10.265563964844
 31
0.0
 11
-1.706100463870001
 21
-10.30920410156199
 31
0.0
 11
-1.670196533199998
 21
-10.352783203125
 31
0.0
  0
SPLINE
  5
21D5
330
21A9
100
AcDbEntity
  8
AM_0
 48
0.5
100
AcDbSpline
210
0.0
220
0.0
230
1.0
 70
     8
 71
     3
 72
    11
 73
     7
 74
     5
 42
0.0000000001
 43
0.0000000001
 44
0.0000000001
 40
0.0
 40
0.0
 40
0.0
 40
0.0
 40
0.0271221616909622
 40
0.0469538214642454
 40
0.0600518010349596
 40
0.0690225675714412
 40
0.0690225675714412
 40
0.0690225675714412
 40
0.0690225675714412
 10
-1.053695678709999
 20
-4.834106445312002
 30
0.0
 10
-1.055885343877434
 20
-4.825258006301353
 30
0.0
 10
-1.059676086979319
 20
-4.809939609844709
 30
0.0
 10
-1.067302132885746
 20
-4.791966674978263
 30
0.0
 10
-1.075205802941418
 20
-4.778877501941535
 30
0.0
 10
-1.082803372958225
 20
-4.777873812101944
 30
0.0
 10
-1.085891723629998
 20
-4.777465820312002
 30
0.0
 11
-1.053695678709999
 21
-4.834106445312002
 31
0.0
 11
-1.060989379879998
 21
-4.807983398437002
 31
0.0
 11
-1.068893432620001
 21
-4.789794921875
 31
0.0
 11
-1.077194213870001
 21
-4.779663085937002
 31
0.0
 11
-1.085891723629998
 21
-4.777465820312002
 31
0.0
  0
SPLINE
  5
21D6
330
21A9
100
AcDbEntity
  8
AM_0
 48
0.5
100
AcDbSpline
210
0.0
220
0.0
230
1.0
 70
     8
 71
     3
 72
    11
 73
     7
 74
     5
 42
0.0000000001
 43
0.0000000001
 44
0.0000000001
 40
0.0
 40
0.0
 40
0.0
 40
0.0
 40
0.0506985798372279
 40
0.1936616915831147
 40
0.4127855211574638
 40
0.6804270131843779
 40
0.6804270131843779
 40
0.6804270131843779
 40
0.6804270131843779
 10
1.255310058600002
 20
-4.318359375
 30
0.0
 10
1.262259482182381
 20
-4.333792909249956
 30
0.0
 10
1.288805336737124
 20
-4.392746914658958
 30
0.0
 10
1.315815937786571
 20
-4.528677409688881
 30
0.0
 10
1.36337011989873
 20
-4.732680972362286
 30
0.0
 10
1.391716805334081
 20
-4.892560887405219
 30
0.0
 10
1.407302856450002
 20
-4.98046875
 30
0.0
 11
1.255310058600002
 21
-4.318359375
 31
0.0
 11
1.275207519529999
 21
-4.364990234375
 31
0.0
 11
1.311401367190001
 21
-4.503295898437002
 31
0.0
 11
1.358001708990002
 21
-4.717407226562002
 31
0.0
 11
1.407302856450002
 21
-4.98046875
 31
0.0
  0
SPLINE
  5
21D7
330
21A9
100
AcDbEntity
  8
AM_0
 48
0.5
100
AcDbSpline
210
0.0
220
0.0
230
1.0
 70
     8
 71
     3
 72
    11
 73
     7
 74
     5
 42
0.0000000001
 43
0.0000000001
 44
0.0000000001
 40
0.0
 40
0.0
 40
0.0
 40
0.0
 40
0.0427487359766423
 40
0.0854974719476617
 40
0.1281780806559279
 40
0.1709365620139545
 40
0.1709365620139545
 40
0.1709365620139545
 40
0.1709365620139545
 10
-1.22789001465
 20
-4.944458007812002
 30
0.0
 10
-1.218792632065821
 20
-4.933490416398056
 30
0.0
 10
-1.20059786689866
 20
-4.911555233571605
 30
0.0
 10
-1.173285280593939
 20
-4.878698872788518
 30
0.0
 10
-1.146110264035645
 20
-4.845724358279913
 30
0.0
 10
-1.127902068474368
 20
-4.823825579862728
 30
0.0
 10
-1.118789672849999
 20
-4.812866210937002
 30
0.0
 11
-1.22789001465
 21
-4.944458007812002
 31
0.0
 11
-1.200592041009997
 21
-4.911560058593998
 31
0.0
 11
-1.173294067379998
 21
-4.878662109375
 31
0.0
 11
-1.146102905269998
 21
-4.845764160156001
 31
0.0
 11
-1.118789672849999
 21
-4.812866210937002
 31
0.0
  0
SPLINE
  5
21D8
330
21A9
100
AcDbEntity
  8
AM_0
 48
0.5
100
AcDbSpline
210
0.0
220
0.0
230
1.0
 70
     8
 71
     3
 72
    11
 73
     7
 74
     5
 42
0.0000000001
 43
0.0000000001
 44
0.0000000001
 40
0.0
 40
0.0
 40
0.0
 40
0.0
 40
0.0207665392141087
 40
0.0352318792937926
 40
0.0438913597201242
 40
0.0489048182509238
 40
0.0489048182509238
 40
0.0489048182509238
 40
0.0489048182509238
 10
-1.242996215819999
 20
-5.027709960937002
 30
0.0
 10
-1.2444300088359
 20
-5.020822855488405
 30
0.0
 10
-1.246862538490826
 20
-5.009138401697291
 30
0.0
 10
-1.251704279774899
 20
-4.996226815539682
 30
0.0
 10
-1.255915539901538
 20
-4.986013818670079
 30
0.0
 10
-1.260798181909516
 20
-4.986199138569372
 30
0.0
 10
-1.262588500969997
 20
-4.986267089843998
 30
0.0
 11
-1.242996215819999
 21
-5.027709960937002
 31
0.0
 11
-1.247802734369997
 21
-5.007507324218998
 31
0.0
 11
-1.252700805659998
 21
-4.993896484375
 31
0.0
 11
-1.257598876949998
 21
-4.986755371093998
 31
0.0
 11
-1.262588500969997
 21
-4.986267089843998
 31
0.0
  0
SPLINE
  5
21D9
330
21A9
100
AcDbEntity
  8
AM_0
 48
0.5
100
AcDbSpline
210
0.0
220
0.0
230
1.0
 70
     8
 71
     3
 72
    11
 73
     7
 74
     5
 42
0.0000000001
 43
0.0000000001
 44
0.0000000001
 40
0.0
 40
0.0
 40
0.0
 40
0.0
 40
0.0285872018333516
 40
0.0632298553913211
 40
0.1040161418741663
 40
0.150975515786166
 40
0.150975515786166
 40
0.150975515786166
 40
0.150975515786166
 10
-1.242996215819999
 20
-5.027709960937002
 30
0.0
 10
-1.241356454361922
 20
-5.037098205686524
 30
0.0
 10
-1.237729590827852
 20
-5.057863349520853
 30
0.0
 10
-1.233530351083317
 20
-5.092292672843745
 30
0.0
 10
-1.229540187108306
 20
-5.132894447513108
 30
0.0
 10
-1.227362001682263
 20
-5.162063019419436
 30
0.0
 10
-1.226196289059998
 20
-5.177673339843998
 30
0.0
 11
-1.242996215819999
 21
-5.027709960937002
 31
0.0
 11
-1.23829650879
 21
-5.055908203125
 31
0.0
 11
-1.23390197754
 21
-5.090270996093998
 31
0.0
 11
-1.229888916009997
 21
-5.130859375
 31
0.0
 11
-1.226196289059998
 21
-5.177673339843998
 31
0.0
  0
SPLINE
  5
21DA
330
21A9
100
AcDbEntity
  8
AM_0
 48
0.5
100
AcDbSpline
210
0.0
220
0.0
230
1.0
 70
     8
 71
     3
 72
    11
 73
     7
 74
     5
 42
0.0000000001
 43
0.0000000001
 44
0.0000000001
 40
0.0
 40
0.0
 40
0.0
 40
0.0
 40
0.0676609480618473
 40
0.1262179084592269
 40
0.1756443861078698
 40
0.216141246776094
 40
0.216141246776094
 40
0.216141246776094
 40
0.216141246776094
 10
-1.029602050779999
 20
-5.048706054687002
 30
0.0
 10
-1.030987533956558
 20
-5.026192229653654
 30
0.0
 10
-1.033572079307458
 20
-4.984193883657547
 30
0.0
 10
-1.039282259020099
 20
-4.925926338886435
 30
0.0
 10
-1.045118554058888
 20
-4.876741018779192
 30
0.0
 10
-1.051032390165487
 20
-4.847344934401774
 30
0.0
 10
-1.053695678709999
 20
-4.834106445312002
 30
0.0
 11
-1.029602050779999
 21
-5.048706054687002
 31
0.0
 11
-1.03419494629
 21
-4.981201171875
 31
0.0
 11
-1.039794921869997
 21
-4.922912597656001
 31
0.0
 11
-1.046188354489999
 21
-4.873901367187002
 31
0.0
 11
-1.053695678709999
 21
-4.834106445312002
 31
0.0
  0
SPLINE
  5
21DB
330
21A9
100
AcDbEntity
  8
AM_0
 48
0.5
100
AcDbSpline
210
0.0
220
0.0
230
1.0
 70
     8
 71
     3
 72
    11
 73
     7
 74
     5
 42
0.0000000001
 43
0.0000000001
 44
0.0000000001
 40
0.0
 40
0.0
 40
0.0
 40
0.0
 40
0.0348593573397516
 40
0.0715349638668873
 40
0.1099640961309102
 40
0.1502181611923127
 40
0.1502181611923127
 40
0.1502181611923127
 40
0.1502181611923127
 10
-1.226196289059998
 20
-5.177673339843998
 30
0.0
 10
-1.225445013701882
 20
-5.18926885079959
 30
0.0
 10
-1.223903319887131
 20
-5.213064024334834
 30
0.0
 10
-1.221899553130928
 20
-5.249664844838903
 30
0.0
 10
-1.220239451114297
 20
-5.288082367217526
 30
0.0
 10
-1.219213723642327
 20
-5.314290010014907
 30
0.0
 10
-1.218688964839998
 20
-5.327697753906001
 30
0.0
 11
-1.226196289059998
 21
-5.177673339843998
 31
0.0
 11
-1.223999023440001
 21
-5.212463378906001
 31
0.0
 11
-1.222000122069999
 21
-5.249084472656001
 31
0.0
 11
-1.220291137689997
 21
-5.287475585937002
 31
0.0
 11
-1.218688964839998
 21
-5.327697753906001
 31
0.0
  0
SPLINE
  5
21DC
330
21A9
100
AcDbEntity
  8
AM_0
 48
0.5
100
AcDbSpline
210
0.0
220
0.0
230
1.0
 70
     8
 71
     3
 72
    11
 73
     7
 74
     5
 42
0.0000000001
 43
0.0000000001
 44
0.0000000001
 40
0.0
 40
0.0
 40
0.0
 40
0.0
 40
0.0560302734370026
 40
0.1093201016524651
 40
0.1601203321847901
 40
0.2082668992831095
 40
0.2082668992831095
 40
0.2082668992831095
 40
0.2082668992831095
 10
-1.025192260739999
 20
-5.256896972656001
 30
0.0
 10
-1.025124777216211
 20
-5.238219740851475
 30
0.0
 10
-1.024993110793261
 20
-5.201778782165931
 30
0.0
 10
-1.025929067851439
 20
-5.148411912099188
 30
0.0
 10
-1.027138993557511
 20
-5.097677415940512
 30
0.0
 10
-1.028795843443264
 20
-5.064735349651005
 30
0.0
 10
-1.029602050779999
 20
-5.048706054687002
 30
0.0
 11
-1.025192260739999
 21
-5.256896972656001
 31
0.0
 11
-1.025192260739999
 21
-5.200866699218998
 31
0.0
 11
-1.026000976559998
 21
-5.147583007812002
 31
0.0
 11
-1.027389526370001
 21
-5.096801757812002
 31
0.0
 11
-1.029602050779999
 21
-5.048706054687002
 31
0.0
  0
SPLINE
  5
21DD
330
21A9
100
AcDbEntity
  8
AM_0
 48
0.5
100
AcDbSpline
210
0.0
220
0.0
230
1.0
 70
     8
 71
     3
 72
    11
 73
     7
 74
     5
 42
0.0000000001
 43
0.0000000001
 44
0.0000000001
 40
0.0
 40
0.0
 40
0.0
 40
0.0
 40
0.0415851723031649
 40
0.0841408599220974
 40
0.1275441092355125
 40
0.1719195248251127
 40
0.1719195248251127
 40
0.1719195248251127
 40
0.1719195248251127
 10
-1.218688964839998
 20
-5.327697753906001
 30
0.0
 10
-1.218242553344475
 20
-5.341552308500402
 30
0.0
 10
-1.217339311995885
 20
-5.369584755472416
 30
0.0
 10
-1.216232254800858
 20
-5.412085397798525
 30
0.0
 10
-1.215433331364983
 20
-5.455523413850252
 30
0.0
 10
-1.215143073934698
 20
-5.484781627032466
 30
0.0
 10
-1.214996337889999
 20
-5.499572753906001
 30
0.0
 11
-1.218688964839998
 21
-5.327697753906001
 31
0.0
 11
-1.217391967769998
 21
-5.369262695312002
 31
0.0
 11
-1.216293334959999
 21
-5.411804199218998
 31
0.0
 11
-1.21549987793
 21
-5.455200195312002
 31
0.0
 11
-1.214996337889999
 21
-5.499572753906001
 31
0.0
  0
SPLINE
  5
21DE
330
21A9
100
AcDbEntity
  8
AM_0
 48
0.5
100
AcDbSpline
210
0.0
220
0.0
230
1.0
 70
     8
 71
     3
 72
    11
 73
     7
 74
     5
 42
0.0000000001
 43
0.0000000001
 44
0.0000000001
 40
0.0
 40
0.0
 40
0.0
 40
0.0
 40
0.0517158338066044
 40
0.1025089666656405
 40
0.1524406581586193
 40
0.2013314279856298
 40
0.2013314279856298
 40
0.2013314279856298
 40
0.2013314279856298
 10
-1.028793334959999
 20
-5.458190917968998
 30
0.0
 10
-1.028307312229024
 20
-5.440959137164469
 30
0.0
 10
-1.027343938262849
 20
-5.4068030206705
 30
0.0
 10
-1.026228332900173
 20
-5.35600121792572
 30
0.0
 10
-1.025535657218284
 20
-5.306133603889223
 30
0.0
 10
-1.025305919604874
 20
-5.273193527717376
 30
0.0
 10
-1.025192260739999
 20
-5.256896972656001
 30
0.0
 11
-1.028793334959999
 21
-5.458190917968998
 31
0.0
 11
-1.027389526370001
 21
-5.406494140625
 31
0.0
 11
-1.026290893549997
 21
-5.355712890625
 31
0.0
 11
-1.02558898926
 21
-5.305786132812002
 31
0.0
 11
-1.025192260739999
 21
-5.256896972656001
 31
0.0
  0
ELLIPSE
  5
21DF
330
21A9
100
AcDbEntity
  8
AM_0
 48
0.5
100
AcDbEllipse
 10
-1.223999023440001
 20
-9.6220703125
 30
0.0
 11
0.0007782090799964
 21
0.228576661623002
 31
0.0
210
0.0
220
0.0
230
0.9999999999999998
 40
0.0783044078894
 41
3.141591537141702
 42
3.759046008083711
  0
SPLINE
  5
21E0
330
21A9
100
AcDbEntity
  8
AM_0
 48
0.5
100
AcDbSpline
210
0.0
220
0.0
230
1.0
 70
     8
 71
     3
 72
    11
 73
     7
 74
     5
 42
0.0000000001
 43
0.0000000001
 44
0.0000000001
 40
0.0
 40
0.0
 40
0.0
 40
0.0
 40
0.0096319708492112
 40
0.0221938100646923
 40
0.0392334508698428
 40
0.0612874427520894
 40
0.0612874427520894
 40
0.0612874427520894
 40
0.0612874427520894
 10
-1.046997070309998
 20
-10.05780029296899
 30
0.0
 10
-1.043896680736892
 20
-10.05673988014708
 30
0.0
 10
-1.036752820109688
 20
-10.05429649642759
 30
0.0
 10
-1.02878731846957
 20
-10.04317256128179
 30
0.0
 10
-1.021229468978405
 20
-10.02785214116359
 30
0.0
 10
-1.017246379944413
 20
-10.0153913529908
 30
0.0
 10
-1.01499938965
 20
-10.008361816406
 30
0.0
 11
-1.046997070309998
 21
-10.05780029296899
 31
0.0
 11
-1.038192749019998
 21
-10.05389404296899
 31
0.0
 11
-1.029998779300001
 21
-10.04437255859399
 31
0.0
 11
-1.022293090819999
 21
-10.02917480468699
 31
0.0
 11
-1.01499938965
 21
-10.008361816406
 31
0.0
  0
SPLINE
  5
21E1
330
21A9
100
AcDbEntity
  8
AM_0
 48
0.5
100
AcDbSpline
210
0.0
220
0.0
230
1.0
 70
     8
 71
     3
 72
    11
 73
     7
 74
     5
 42
0.0000000001
 43
0.0000000001
 44
0.0000000001
 40
0.0
 40
0.0
 40
0.0
 40
0.0
 40
0.1154392742330558
 40
0.2243254840698086
 40
0.3157295088538977
 40
0.3806136765899314
 40
0.3806136765899314
 40
0.3806136765899314
 40
0.3806136765899314
 10
2.312805175779999
 20
-10.263061523437
 30
0.0
 10
2.318688517801772
 20
-10.30109542675532
 30
0.0
 10
2.330121226087151
 20
-10.37500418813339
 30
0.0
 10
2.342180803823441
 20
-10.47953319682912
 30
0.0
 10
2.3498539130775
 20
-10.56773496685669
 30
0.0
 10
2.348473485197572
 20
-10.619845450096
 30
0.0
 10
2.347900390630002
 20
-10.641479492187
 30
0.0
 11
2.312805175779999
 21
-10.263061523437
 31
0.0
 11
2.329696655280002
 21
-10.377258300781
 31
0.0
 11
2.34230041504
 21
-10.485412597656
 31
0.0
 11
2.348602294919999
 21
-10.57659912109399
 31
0.0
 11
2.347900390630002
 21
-10.641479492187
 31
0.0
  0
SPLINE
  5
21E2
330
21A9
100
AcDbEntity
  8
AM_0
 48
0.5
100
AcDbSpline
210
0.0
220
0.0
230
1.0
 70
     8
 71
     3
 72
    11
 73
     7
 74
     5
 42
0.0000000001
 43
0.0000000001
 44
0.0000000001
 40
0.0
 40
0.0
 40
0.0
 40
0.0
 40
1.054667546052376
 40
2.109230454498926
 40
3.163827574090866
 40
4.218506321885651
 40
4.218506321885651
 40
4.218506321885651
 40
4.218506321885651
 10
1.407302856450002
 20
-4.98046875
 30
0.0
 10
1.467716015864168
 20
-5.326794859377169
 30
0.0
 10
1.588536340871619
 20
-6.019412717792031
 30
0.0
 10
1.768968409651519
 20
-7.058472365026174
 30
0.0
 10
1.949036180330914
 20
-8.097598996561842
 30
0.0
 10
2.068551289866663
 20
-8.790458631361985
 30
0.0
 10
2.128311157230001
 20
-9.136901855468998
 30
0.0
 11
1.407302856450002
 21
-4.98046875
 31
0.0
 11
1.58840942383
 21
-6.019470214843998
 31
0.0
 11
1.76890563965
 21
-7.058471679687002
 31
0.0
 11
1.94889831543
 21
-8.097595214843998
 31
0.0
 11
2.128311157230001
 21
-9.136901855468998
 31
0.0
  0
ELLIPSE
  5
21E3
330
21A9
100
AcDbEntity
  8
AM_0
 48
0.5
100
AcDbEllipse
 10
-1.222900390619997
 20
-9.643798828125
 30
0.0
 11
0.0006866491600022
 21
0.2028198241830025
 31
0.0
210
0.0
220
0.0
230
1.0
 40
0.0783931476886
 41
3.7585094126352
 42
4.304821971516189
  0
SPLINE
  5
21E4
330
21A9
100
AcDbEntity
  8
AM_0
 48
0.5
100
AcDbSpline
210
0.0
220
0.0
230
1.0
 70
     8
 71
     3
 72
    11
 73
     7
 74
     5
 42
0.0000000001
 43
0.0000000001
 44
0.0000000001
 40
0.0
 40
0.0
 40
0.0
 40
0.0
 40
0.0351733060370321
 40
0.0784710281256635
 40
0.1285950237734901
 40
0.1842185675563561
 40
0.1842185675563561
 40
0.1842185675563561
 40
0.1842185675563561
 10
-1.01499938965
 20
-10.008361816406
 30
0.0
 10
-1.012307040978434
 20
-9.996943134145361
 30
0.0
 10
-1.006300458369788
 20
-9.971468254533832
 30
0.0
 10
-1.001104094123991
 20
-9.928850410346829
 30
0.0
 10
-0.99741200240462
 20
-9.879296135973786
 30
0.0
 10
-0.9968081216941339
 20
-9.844043491805415
 30
0.0
 10
-0.9964904785099975
 20
-9.825500488281001
 30
0.0
 11
-1.01499938965
 21
-10.008361816406
 31
0.0
 11
-1.00749206543
 21
-9.973999023436999
 31
0.0
 11
-1.001693725579997
 21
-9.931091308593998
 31
0.0
 11
-0.9980010986299987
 21
-9.881103515625
 31
0.0
 11
-0.9964904785099975
 21
-9.825500488281001
 31
0.0
  0
ELLIPSE
  5
21E5
330
21A9
100
AcDbEntity
  8
AM_0
 48
0.5
100
AcDbEllipse
 10
-1.22509765625
 20
-9.630859375
 30
0.0
 11
0.0007934672400012
 21
0.2340087849430006
 31
0.0
210
0.0
220
0.0
230
1.0
 40
0.0781820450182
 41
4.305474968948091
 42
4.50453183865187
  0
SPLINE
  5
21E6
330
21A9
100
AcDbEntity
  8
AM_0
 48
0.5
100
AcDbSpline
210
0.0
220
0.0
230
1.0
 70
     8
 71
     3
 72
    11
 73
     7
 74
     5
 42
0.0000000001
 43
0.0000000001
 44
0.0000000001
 40
0.0
 40
0.0
 40
0.0
 40
0.0
 40
0.0248421005762817
 40
0.0501180255840169
 40
0.0759592612723412
 40
0.1020641374512996
 40
0.1020641374512996
 40
0.1020641374512996
 40
0.1020641374512996
 10
-0.9964904785099975
 20
-9.825500488281001
 30
0.0
 10
-0.9965295890304474
 20
-9.817219729947503
 30
0.0
 10
-0.9966084930691176
 20
-9.80051360412135
 30
0.0
 10
-0.9972279521088223
 20
-9.775199634118116
 30
0.0
 10
-0.9983263750718856
 20
-9.749480881231292
 30
0.0
 10
-0.9993691532107767
 20
-9.732196695831815
 30
0.0
 10
-0.999893188469997
 20
-9.723510742186999
 30
0.0
 11
-0.9964904785099975
 21
-9.825500488281001
 31
0.0
 11
-0.9966888427699984
 21
-9.800659179686999
 31
0.0
 11
-0.9972991943299973
 21
-9.775390625
 31
0.0
 11
-0.9983978271500006
 21
-9.749572753906001
 31
0.0
 11
-0.999893188469997
 21
-9.723510742186999
 31
0.0
  0
ELLIPSE
  5
21E7
330
21A9
100
AcDbEntity
  8
AM_0
 48
0.5
100
AcDbEllipse
 10
-1.222793579099999
 20
-9.636962890625
 30
0.0
 11
0.0006866418799945
 21
0.2034912147610015
 31
0.0
210
0.0
220
0.0
230
1.0
 40
0.0786593863772
 41
4.503452518613825
 42
4.755417512511247
  0
SPLINE
  5
21E8
330
21A9
100
AcDbEntity
  8
AM_0
 48
0.5
100
AcDbSpline
210
0.0
220
0.0
230
1.0
 70
     8
 71
     3
 72
    11
 73
     7
 74
     5
 42
0.0000000001
 43
0.0000000001
 44
0.0000000001
 40
0.0
 40
0.0
 40
0.0
 40
0.0
 40
0.0743141580641149
 40
0.1595277409547288
 40
0.2561239037264398
 40
0.3645110007165984
 40
0.3645110007165984
 40
0.3645110007165984
 40
0.3645110007165984
 10
3.072097778319999
 20
3.617309570312997
 30
0.0
 10
3.074224675253965
 20
3.59261200110532
 30
0.0
 10
3.078790414434195
 20
3.539594547562016
 30
0.0
 10
3.095923753858854
 20
3.45579963983492
 30
0.0
 10
3.120707163021419
 20
3.362260800750862
 30
0.0
 10
3.142289755165987
 20
3.297412037597249
 30
0.0
 10
3.153701782230001
 20
3.263122558593998
 30
0.0
 11
3.072097778319999
 21
3.617309570312997
 31
0.0
 11
3.079803466800001
 21
3.543395996093998
 31
0.0
 11
3.09590148926
 21
3.459716796875
 31
0.0
 11
3.12060546875
 21
3.366333007812997
 31
0.0
 11
3.153701782230001
 21
3.263122558593998
 31
0.0
  0
SPLINE
  5
21E9
330
21A9
100
AcDbEntity
  8
AM_0
 48
0.5
100
AcDbSpline
210
0.0
220
0.0
230
1.0
 70
     8
 71
     3
 72
    11
 73
     7
 74
     5
 42
0.0000000001
 43
0.0000000001
 44
0.0000000001
 40
0.0
 40
0.0
 40
0.0
 40
0.0
 40
0.0207470383152668
 40
0.0351363352966289
 40
0.0437840848839925
 40
0.0488228133650913
 40
0.0488228133650913
 40
0.0488228133650913
 40
0.0488228133650913
 10
9.695800781247001
 20
3.480590820312997
 30
0.0
 10
9.701053199772356
 20
3.485260820849256
 30
0.0
 10
9.709948480902163
 20
3.493169742700366
 30
0.0
 10
9.718706166846438
 20
3.503780009931998
 30
0.0
 10
9.72539956397953
 20
3.51254217388877
 30
0.0
 10
9.722769884295969
 20
3.516669124238513
 30
0.0
 10
9.721801757809998
 20
3.518188476562997
 30
0.0
 11
9.695800781247001
 21
3.480590820312997
 31
0.0
 11
9.710906982419004
 21
3.494812011718998
 31
0.0
 11
9.720199584957995
 21
3.505798339843998
 31
0.0
 11
9.723907470699998
 21
3.513610839843998
 31
0.0
 11
9.721801757809998
 21
3.518188476562997
 31
0.0
  0
SPLINE
  5
21EA
330
21A9
100
AcDbEntity
  8
AM_0
 48
0.5
100
AcDbSpline
210
0.0
220
0.0
230
1.0
 70
     8
 71
     3
 72
    11
 73
     7
 74
     5
 42
0.0000000001
 43
0.0000000001
 44
0.0000000001
 40
0.0
 40
0.0
 40
0.0
 40
0.0
 40
0.450223065432305
 40
0.8848014112214411
 40
1.304170960966679
 40
1.70811740112756
 40
1.70811740112756
 40
1.70811740112756
 40
1.70811740112756
 10
9.088607788090001
 20
5.98388671875
 30
0.0
 10
9.002221040013539
 20
6.106606462358062
 30
0.0
 10
8.832449381301447
 20
6.347781583461387
 30
0.0
 10
8.577374862905987
 20
6.699819442933414
 30
0.0
 10
8.327975577544012
 20
7.036899674459839
 30
0.0
 10
8.161221756238413
 20
7.254871914232772
 30
0.0
 10
8.079406738279999
 20
7.36181640625
 30
0.0
 11
9.088607788090001
 21
5.98388671875
 31
0.0
 11
8.828598022459999
 21
6.351440429687997
 31
0.0
 11
8.573806762700002
 21
6.703491210937997
 31
0.0
 11
8.324005126949998
 21
7.040344238281001
 31
0.0
 11
8.079406738279999
 21
7.36181640625
 31
0.0
  0
SPLINE
  5
21EB
330
21A9
100
AcDbEntity
  8
AM_0
 48
0.5
100
AcDbSpline
210
0.0
220
0.0
230
1.0
 70
     8
 71
     3
 72
    11
 73
     7
 74
     5
 42
0.0000000001
 43
0.0000000001
 44
0.0000000001
 40
0.0
 40
0.0
 40
0.0
 40
0.0
 40
0.0566168521448867
 40
0.1130820108641788
 40
0.1695220109992675
 40
0.2261388631441542
 40
0.2261388631441542
 40
0.2261388631441542
 40
0.2261388631441542
 10
9.721801757809998
 20
3.518188476562997
 30
0.0
 10
9.728411222627833
 20
3.535865530733182
 30
0.0
 10
9.741612443536833
 20
3.571172276975522
 30
0.0
 10
9.761268007381033
 20
3.624151025189812
 30
0.0
 10
9.781138713409568
 20
3.677049451950784
 30
0.0
 10
9.794308251083586
 20
3.712359075267029
 30
0.0
 10
9.800903320309998
 20
3.730041503906001
 30
0.0
 11
9.721801757809998
 21
3.518188476562997
 31
0.0
 11
9.741607666012995
 21
3.571228027343998
 31
0.0
 11
9.761306762692996
 21
3.624145507812997
 31
0.0
 11
9.781097412107001
 21
3.677001953125
 31
0.0
 11
9.800903320309998
 21
3.730041503906001
 31
0.0
  0
SPLINE
  5
21EC
330
21A9
100
AcDbEntity
  8
AM_0
 48
0.5
100
AcDbSpline
210
0.0
220
0.0
230
1.0
 70
     8
 71
     3
 72
    11
 73
     7
 74
     5
 42
0.0000000001
 43
0.0000000001
 44
0.0000000001
 40
0.0
 40
0.0
 40
0.0
 40
0.0
 40
0.0271825851812917
 40
0.046912293848058
 40
0.0600744301252281
 40
0.0690954592570566
 40
0.0690954592570566
 40
0.0690954592570566
 40
0.0690954592570566
 10
4.713302612310002
 20
1.504516601562997
 30
0.0
 10
4.706798353409906
 20
1.498112295594939
 30
0.0
 10
4.695573162621387
 20
1.487059605739922
 30
0.0
 10
4.683514227084673
 20
1.471691715430635
 30
0.0
 10
4.676214665386462
 20
1.458230923071709
 30
0.0
 10
4.679193348652884
 20
1.451129897819348
 30
0.0
 10
4.680404663090001
 20
1.4482421875
 30
0.0
 11
4.713302612310002
 21
1.504516601562997
 31
0.0
 11
4.694396972660001
 21
1.484985351562997
 31
0.0
 11
4.682510375980001
 21
1.46923828125
 31
0.0
 11
4.67790222168
 21
1.456909179687997
 31
0.0
 11
4.680404663090001
 21
1.4482421875
 31
0.0
  0
SPLINE
  5
21ED
330
21A9
100
AcDbEntity
  8
AM_0
 48
0.5
100
AcDbSpline
210
0.0
220
0.0
230
1.0
 70
     8
 71
     3
 72
    11
 73
     7
 74
     5
 42
0.0000000001
 43
0.0000000001
 44
0.0000000001
 40
0.0
 40
0.0
 40
0.0
 40
0.0
 40
0.0506195303852611
 40
0.1936164227649192
 40
0.412708261318134
 40
0.6803543570039016
 40
0.6803543570039016
 40
0.6803543570039016
 40
0.6803543570039016
 10
3.112197875980001
 20
3.246337890625
 30
0.0
 10
3.122082856484419
 20
3.260044605458443
 30
0.0
 10
3.159892266208293
 20
3.312471901281063
 30
0.0
 10
3.264056513055176
 20
3.403834673534092
 30
0.0
 10
3.416949378278534
 20
3.547031157306701
 30
0.0
 10
3.541252453854907
 20
3.651486001751783
 30
0.0
 10
3.609603881840001
 20
3.708923339843998
 30
0.0
 11
3.112197875980001
 21
3.246337890625
 31
0.0
 11
3.14260864258
 21
3.286804199218998
 31
0.0
 11
3.24430847168
 21
3.387329101562997
 31
0.0
 11
3.406402587889999
 21
3.534729003906001
 31
0.0
 11
3.609603881840001
 21
3.708923339843998
 31
0.0
  0
SPLINE
  5
21EE
330
21A9
100
AcDbEntity
  8
AM_0
 48
0.5
100
AcDbSpline
210
0.0
220
0.0
230
1.0
 70
     8
 71
     3
 72
    11
 73
     7
 74
     5
 42
0.0000000001
 43
0.0000000001
 44
0.0000000001
 40
0.0
 40
0.0
 40
0.0
 40
0.0
 40
0.0427256556766034
 40
0.0855265154803068
 40
0.1282167160507179
 40
0.1709273313756791
 40
0.1709273313756791
 40
0.1709273313756791
 40
0.1709273313756791
 10
4.89601135254
 20
1.408813476562997
 30
0.0
 10
4.881972921725801
 20
1.411212148640177
 30
0.0
 10
4.853871350168006
 20
1.416013714848873
 30
0.0
 10
4.811749212517551
 20
1.423248799674294
 30
0.0
 10
4.769594231485909
 20
1.430260050849256
 30
0.0
 10
4.741539342581701
 20
1.435086299050723
 30
0.0
 10
4.727508544919999
 20
1.4375
 30
0.0
 11
4.89601135254
 21
1.408813476562997
 31
0.0
 11
4.853897094730001
 21
1.416015625
 31
0.0
 11
4.81170654297
 21
1.423217773437997
 31
0.0
 11
4.769607543950002
 21
1.430297851562997
 31
0.0
 11
4.727508544919999
 21
1.4375
 31
0.0
  0
SPLINE
  5
21EF
330
21A9
100
AcDbEntity
  8
AM_0
 48
0.5
100
AcDbSpline
210
0.0
220
0.0
230
1.0
 70
     8
 71
     3
 72
    11
 73
     7
 74
     5
 42
0.0000000001
 43
0.0000000001
 44
0.0000000001
 40
0.0
 40
0.0
 40
0.0
 40
0.0
 40
0.0207359308188123
 40
0.0351350866346471
 40
0.0438315255405812
 40
0.0489194794621611
 40
0.0489194794621611
 40
0.0489194794621611
 40
0.0489194794621611
 10
4.97560119629
 20
1.437316894531001
 30
0.0
 10
4.970362593628
 20
1.432643527070815
 30
0.0
 10
4.961486273583236
 20
1.424724944971758
 30
0.0
 10
4.952650973257656
 20
1.414126173799912
 30
0.0
 10
4.946031019918669
 20
1.405308734202021
 30
0.0
 10
4.948637969278671
 20
1.401136996915553
 30
0.0
 10
4.949600219730001
 20
1.399597167968998
 30
0.0
 11
4.97560119629
 21
1.437316894531001
 31
0.0
 11
4.960510253910001
 21
1.423095703125
 31
0.0
 11
4.95120239258
 21
1.412109375
 31
0.0
 11
4.947509765630002
 21
1.404235839843998
 31
0.0
 11
4.949600219730001
 21
1.399597167968998
 31
0.0
  0
SPLINE
  5
21F0
330
21A9
100
AcDbEntity
  8
AM_0
 48
0.5
100
AcDbSpline
210
0.0
220
0.0
230
1.0
 70
     8
 71
     3
 72
    11
 73
     7
 74
     5
 42
0.0000000001
 43
0.0000000001
 44
0.0000000001
 40
0.0
 40
0.0
 40
0.0
 40
0.0
 40
0.0676831328835651
 40
0.126257528045923
 40
0.1756746777337077
 40
0.2161041920022037
 40
0.2161041920022037
 40
0.2161041920022037
 40
0.2161041920022037
 10
4.887100219730001
 20
1.632629394531001
 30
0.0
 10
4.868286004000442
 20
1.620173973304336
 30
0.0
 10
4.833189573487642
 20
1.59693937071059
 30
0.0
 10
4.785540360684018
 20
1.562899361829426
 30
0.0
 10
4.745967854527542
 20
1.533150286811006
 30
0.0
 10
4.723439844567763
 20
1.513402692650936
 30
0.0
 10
4.713302612310002
 20
1.504516601562997
 30
0.0
 11
4.887100219730001
 21
1.632629394531001
 31
0.0
 11
4.83090209961
 21
1.594909667968998
 31
0.0
 11
4.783203125
 21
1.560913085937997
 31
0.0
 11
4.7440032959
 21
1.530822753906001
 31
0.0
 11
4.713302612310002
 21
1.504516601562997
 31
0.0
  0
SPLINE
  5
21F1
330
21A9
100
AcDbEntity
  8
AM_0
 48
0.5
100
AcDbSpline
210
0.0
220
0.0
230
1.0
 70
     8
 71
     3
 72
    11
 73
     7
 74
     5
 42
0.0000000001
 43
0.0000000001
 44
0.0000000001
 40
0.0
 40
0.0
 40
0.0
 40
0.0
 40
0.0349777012310443
 40
0.0716289441071449
 40
0.1100673602103236
 40
0.1502836001994512
 40
0.1502836001994512
 40
0.1502836001994512
 40
0.1502836001994512
 10
5.097106933600002
 20
1.526794433593998
 30
0.0
 10
5.106792530687712
 20
1.533285139659413
 30
0.0
 10
5.126627141540415
 20
1.546577105843938
 30
0.0
 10
5.15737449420822
 20
1.566596388273374
 30
0.0
 10
5.189784277679239
 20
1.587257867096271
 30
0.0
 10
5.211959100168726
 20
1.601246188455953
 30
0.0
 10
5.223297119139999
 20
1.6083984375
 30
0.0
 11
5.097106933600002
 21
1.526794433593998
 31
0.0
 11
5.126205444340001
 21
1.546203613281001
 31
0.0
 11
5.15690612793
 21
1.566223144531001
 31
0.0
 11
5.18930053711
 21
1.5869140625
 31
0.0
 11
5.223297119139999
 21
1.6083984375
 31
0.0
  0
SPLINE
  5
21F2
330
21A9
100
AcDbEntity
  8
AM_0
 48
0.5
100
AcDbSpline
210
0.0
220
0.0
230
1.0
 70
     8
 71
     3
 72
    11
 73
     7
 74
     5
 42
0.0000000001
 43
0.0000000001
 44
0.0000000001
 40
0.0
 40
0.0
 40
0.0
 40
0.0
 40
0.0560032482244423
 40
0.1093194485916026
 40
0.1600560052461564
 40
0.2082712121407674
 40
0.2082712121407674
 40
0.2082712121407674
 40
0.2082712121407674
 10
5.065200805670002
 20
1.740539550781001
 30
0.0
 10
5.049009691705363
 20
1.731247355806696
 30
0.0
 10
5.017404316895595
 20
1.713108807365262
 30
0.0
 10
4.971581867109094
 20
1.685778969574019
 30
0.0
 10
4.928313159471455
 20
1.659239464780923
 30
0.0
 10
4.900602504993993
 20
1.641347451569964
 30
0.0
 10
4.887100219730001
 20
1.632629394531001
 30
0.0
 11
5.065200805670002
 21
1.740539550781001
 31
0.0
 11
5.016708374030002
 21
1.712524414062997
 31
0.0
 11
4.97090148926
 21
1.685241699218998
 31
0.0
 11
4.927703857419999
 21
1.658630371093998
 31
0.0
 11
4.887100219730001
 21
1.632629394531001
 31
0.0
  0
SPLINE
  5
21F3
330
21A9
100
AcDbEntity
  8
AM_0
 48
0.5
100
AcDbSpline
210
0.0
220
0.0
230
1.0
 70
     8
 71
     3
 72
    11
 73
     7
 74
     5
 42
0.0000000001
 43
0.0000000001
 44
0.0000000001
 40
0.0
 40
0.0
 40
0.0
 40
0.0
 40
0.0415551822533514
 40
0.0840512385262833
 40
0.1275385732006383
 40
0.1719083638192739
 40
0.1719083638192739
 40
0.1719083638192739
 40
0.1719083638192739
 10
5.223297119139999
 20
1.6083984375
 30
0.0
 10
5.23505003605985
 20
1.61572950882977
 30
0.0
 10
5.258821974235629
 20
1.630557638357274
 30
0.0
 10
5.295204222860814
 20
1.652551195633692
 30
0.0
 10
5.332297339390012
 20
1.675182375835057
 30
0.0
 10
5.357548100410651
 20
1.690017632853011
 30
0.0
 10
5.37030029297
 20
1.697509765625
 30
0.0
 11
5.223297119139999
 21
1.6083984375
 31
0.0
 11
5.258605957029999
 21
1.630310058593998
 31
0.0
 11
5.294906616209999
 21
1.652404785156001
 31
0.0
 11
5.332107543950002
 21
1.674926757812997
 31
0.0
 11
5.37030029297
 21
1.697509765625
 31
0.0
  0
SPLINE
  5
21F4
330
21A9
100
AcDbEntity
  8
AM_0
 48
0.5
100
AcDbSpline
210
0.0
220
0.0
230
1.0
 70
     8
 71
     3
 72
    11
 73
     7
 74
     5
 42
0.0000000001
 43
0.0000000001
 44
0.0000000001
 40
0.0
 40
0.0
 40
0.0
 40
0.0
 40
0.0516305857752845
 40
0.1025061092979143
 40
0.1523020283024801
 40
0.2012832640749913
 40
0.2012832640749913
 40
0.2012832640749913
 40
0.2012832640749913
 10
5.241302490240002
 20
1.838012695312997
 30
0.0
 10
5.226161637099787
 20
1.829830578075884
 30
0.0
 10
5.196101355513795
 20
1.813586001509462
 30
0.0
 10
5.151600246812017
 20
1.789152447511295
 30
0.0
 10
5.1079975519339
 20
1.764917973253586
 30
0.0
 10
5.079387732796449
 20
1.748620887173812
 30
0.0
 10
5.065200805670002
 20
1.740539550781001
 30
0.0
 11
5.241302490240002
 21
1.838012695312997
 31
0.0
 11
5.195907592780002
 21
1.813415527343998
 31
0.0
 11
5.151306152350002
 21
1.788940429687997
 31
0.0
 11
5.107803344730001
 21
1.764709472656001
 31
0.0
 11
5.065200805670002
 21
1.740539550781001
 31
0.0
  0
ELLIPSE
  5
21F5
330
21A9
100
AcDbEntity
  8
AM_0
 48
0.5
100
AcDbEllipse
 10
8.94500732422
 20
3.751037597656001
 30
0.0
 11
0.1983642568300042
 21
0.1136474604750006
 31
0.0
210
0.0
220
0.0
230
1.0
 40
0.0781840668529
 41
0.0
 42
0.6175696025212054
  0
SPLINE
  5
21F6
330
21A9
100
AcDbEntity
  8
AM_0
 48
0.5
100
AcDbSpline
210
0.0
220
0.0
230
1.0
 70
     8
 71
     3
 72
    11
 73
     7
 74
     5
 42
0.0000000001
 43
0.0000000001
 44
0.0000000001
 40
0.0
 40
0.0
 40
0.0
 40
0.0
 40
0.0095706672050957
 40
0.0221910141475623
 40
0.0392139424379056
 40
0.0612939321915617
 40
0.0612939321915617
 40
0.0612939321915617
 40
0.0612939321915617
 10
9.233810424810002
 20
4.122131347656001
 30
0.0
 10
9.2313694667132
 20
4.124289566939819
 30
0.0
 10
9.225709742631384
 20
4.129293719067817
 30
0.0
 10
9.212071577480957
 20
4.130551744617601
 30
0.0
 10
9.195012689577563
 20
4.129481462999038
 30
0.0
 10
9.182224228619512
 20
4.1266953094627
 30
0.0
 10
9.17500305176
 20
4.125122070312997
 30
0.0
 11
9.233810424810002
 21
4.122131347656001
 31
0.0
 11
9.22610473633
 21
4.127807617187997
 31
0.0
 11
9.213699340819999
 21
4.130126953125
 31
0.0
 11
9.196701049810002
 21
4.129211425781001
 31
0.0
 11
9.17500305176
 21
4.125122070312997
 31
0.0
  0
SPLINE
  5
21F7
330
21A9
100
AcDbEntity
  8
AM_0
 48
0.5
100
AcDbSpline
210
0.0
220
0.0
230
1.0
 70
     8
 71
     3
 72
    11
 73
     7
 74
     5
 42
0.0000000001
 43
0.0000000001
 44
0.0000000001
 40
0.0
 40
0.0
 40
0.0
 40
0.0
 40
0.1155464434294156
 40
0.2243121204551554
 40
0.3157250385939784
 40
0.3805619028877736
 40
0.3805619028877736
 40
0.3805619028877736
 40
0.3805619028877736
 10
7.731704711920002
 20
7.134399414062997
 30
0.0
 10
7.761709110694521
 20
7.158559787315281
 30
0.0
 10
7.819957120000024
 20
7.205462698338401
 30
0.0
 10
7.904524308019677
 20
7.268070292125066
 30
0.0
 10
7.976979175847893
 20
7.318859273566314
 30
0.0
 10
8.022796772188824
 20
7.343697233216114
 30
0.0
 10
8.041809082029999
 20
7.35400390625
 30
0.0
 11
7.731704711920002
 21
7.134399414062997
 31
0.0
 11
7.822204589850002
 21
7.206237792968998
 31
0.0
 11
7.909500122069999
 21
7.271118164062997
 31
0.0
 11
7.985305786129998
 21
7.322204589843998
 31
0.0
 11
8.041809082029999
 21
7.35400390625
 31
0.0
  0
SPLINE
  5
21F8
330
21A9
100
AcDbEntity
  8
AM_0
 48
0.5
100
AcDbSpline
210
0.0
220
0.0
230
1.0
 70
     8
 71
     3
 72
    11
 73
     7
 74
     5
 42
0.0000000001
 43
0.0000000001
 44
0.0000000001
 40
0.0
 40
0.0
 40
0.0
 40
0.0
 40
1.05466434311829
 40
2.109241889777515
 40
3.163885625041862
 40
4.218415977826856
 40
4.218415977826856
 40
4.218415977826856
 40
4.218415977826856
 10
3.609603881840001
 20
3.708923339843998
 30
0.0
 10
3.879299931197561
 20
3.934433480250359
 30
0.0
 10
4.418669834545728
 20
4.385435202095198
 30
0.0
 10
5.228426186144077
 20
5.061109802543739
 30
0.0
 10
6.03814564933473
 20
5.736758932338519
 30
0.0
 10
6.578459761580004
 20
6.18659372029986
 30
0.0
 10
6.848602294919999
 20
6.411499023437997
 30
0.0
 11
3.609603881840001
 21
3.708923339843998
 31
0.0
 11
4.4188079834
 21
4.385314941406001
 31
0.0
 11
5.228408813480001
 21
5.061096191406001
 31
0.0
 11
6.038299560550001
 21
5.736633300781001
 31
0.0
 11
6.848602294919999
 21
6.411499023437997
 31
0.0
  0
ELLIPSE
  5
21F9
330
21A9
100
AcDbEntity
  8
AM_0
 48
0.5
100
AcDbEllipse
 10
8.963211059569999
 20
3.7626953125
 30
0.0
 11
0.1759796148799921
 21
0.1008300831189999
 31
0.0
210
0.0
220
0.0
230
0.9999999999999998
 40
0.078385261499
 41
0.6167500768958076
 42
1.16314212972079
  0
SPLINE
  5
21FA
330
21A9
100
AcDbEntity
  8
AM_0
 48
0.5
100
AcDbSpline
210
0.0
220
0.0
230
1.0
 70
     8
 71
     3
 72
    11
 73
     7
 74
     5
 42
0.0000000001
 43
0.0000000001
 44
0.0000000001
 40
0.0
 40
0.0
 40
0.0
 40
0.0
 40
0.0351364589967549
 40
0.0784907147865058
 40
0.1286792658537375
 40
0.1842030199536459
 40
0.1842030199536459
 40
0.1842030199536459
 40
0.1842030199536459
 10
9.17500305176
 20
4.125122070312997
 30
0.0
 10
9.163772260401252
 20
4.121770573049564
 30
0.0
 10
9.138683994066626
 20
4.114283722543766
 30
0.0
 10
9.09918453527751
 20
4.097382199211909
 30
0.0
 10
9.054372995705563
 20
4.075893339079568
 30
0.0
 10
9.023576103989684
 20
4.058748640326808
 30
0.0
 10
9.007400512700002
 20
4.049743652343998
 30
0.0
 11
9.17500305176
 21
4.125122070312997
 31
0.0
 11
9.141510009770001
 21
4.114501953125
 31
0.0
 11
9.10140991211
 21
4.098022460937997
 31
0.0
 11
9.056198120120001
 21
4.076232910156001
 31
0.0
 11
9.007400512700002
 21
4.049743652343998
 31
0.0
  0
ELLIPSE
  5
21FB
330
21A9
100
AcDbEntity
  8
AM_0
 48
0.5
100
AcDbEllipse
 10
8.953201293950002
 20
3.75439453125
 30
0.0
 11
0.2030486998599912
 21
0.1163330060489969
 31
0.0
210
0.0
220
0.0
230
1.0
 40
0.0781592590081
 41
1.163802812200309
 42
1.362912611523845
  0
SPLINE
  5
21FC
330
21A9
100
AcDbEntity
  8
AM_0
 48
0.5
100
AcDbSpline
210
0.0
220
0.0
230
1.0
 70
     8
 71
     3
 72
    11
 73
     7
 74
     5
 42
0.0000000001
 43
0.0000000001
 44
0.0000000001
 40
0.0
 40
0.0
 40
0.0
 40
0.0
 40
0.0248450761456062
 40
0.0501560544573786
 40
0.0759447622665088
 40
0.1021669457700468
 40
0.1021669457700468
 40
0.1021669457700468
 40
0.1021669457700468
 10
9.007400512700002
 20
4.049743652343998
 30
0.0
 10
9.000257006740502
 20
4.04555328945501
 30
0.0
 10
8.985836037699336
 20
4.037093984761213
 30
0.0
 10
8.964232859392307
 20
4.023895240711065
 30
0.0
 10
8.942438337045928
 20
4.01013346117473
 30
0.0
 10
8.927986310472865
 20
4.000556119992981
 30
0.0
 10
8.920700073239999
 20
3.995727539062997
 30
0.0
 11
9.007400512700002
 21
4.049743652343998
 31
0.0
 11
8.98600769043
 21
4.037109375
 31
0.0
 11
8.964401245120001
 21
4.02392578125
 31
0.0
 11
8.942611694340001
 21
4.010131835937997
 31
0.0
 11
8.920700073239999
 21
3.995727539062997
 31
0.0
  0
ELLIPSE
  5
21FD
330
21A9
100
AcDbEntity
  8
AM_0
 48
0.5
100
AcDbEllipse
 10
8.95719909668
 20
3.759399414062997
 30
0.0
 11
0.1765747128399937
 21
0.1011352540180042
 31
0.0
210
0.0
220
0.0
230
1.0
 40
0.0785000299873
 41
1.361982270437872
 42
1.613921783506014
  0
SPLINE
  5
21FE
330
21A9
100
AcDbEntity
  8
AM_0
 48
0.5
100
AcDbSpline
210
0.0
220
0.0
230
1.0
 70
     8
 71
     3
 72
    11
 73
     7
 74
     5
 42
0.0000000001
 43
0.0000000001
 44
0.0000000001
 40
0.0
 40
0.0
 40
0.0
 40
0.0
 40
0.0742406451976107
 40
0.1595285912128665
 40
0.2561071568169387
 40
0.364511308696403
 40
0.364511308696403
 40
0.364511308696403
 40
0.364511308696403
 10
-4.668701171869997
 20
0.851806640625
 30
0.0
 10
-4.648386008924233
 20
0.8659715720585195
 30
0.0
 10
-4.604732706661419
 20
0.8964092325907177
 30
0.0
 10
-4.540886672868918
 20
0.9533114953480652
 30
0.0
 10
-4.472066164123367
 20
1.021367753986197
 30
0.0
 10
-4.42676095939562
 20
1.072544691068232
 30
0.0
 10
-4.402801513669999
 20
1.099609375
 30
0.0
 11
-4.668701171869997
 21
0.851806640625
 31
0.0
 11
-4.60859680176
 21
0.8953857421879973
 31
0.0
 11
-4.544189453119997
 21
0.9512939453129973
 31
0.0
 11
-4.47560119629
 21
1.019287109375
 31
0.0
 11
-4.402801513669999
 21
1.099609375
 31
0.0
  0
SPLINE
  5
21FF
330
21A9
100
AcDbEntity
  8
AM_0
 48
0.5
100
AcDbSpline
210
0.0
220
0.0
230
1.0
 70
     8
 71
     3
 72
    11
 73
     7
 74
     5
 42
0.0000000001
 43
0.0000000001
 44
0.0000000001
 40
0.0
 40
0.0
 40
0.0
 40
0.0
 40
0.0207770700504029
 40
0.0352234046501267
 40
0.0438658620820289
 40
0.0488830113237113
 40
0.0488830113237113
 40
0.0488830113237113
 40
0.0488830113237113
 10
-7.862091064449998
 20
6.656433105468998
 30
0.0
 10
-7.868768444062518
 20
6.658624379172977
 30
0.0
 10
-7.880088617865835
 20
6.662339249469276
 30
0.0
 10
-7.893704280356545
 20
6.664845356673207
 30
0.0
 10
-7.904569633340857
 20
6.666022361391843
 30
0.0
 10
-7.906925742855063
 20
6.66177670660835
 30
0.0
 10
-7.907791137689997
 20
6.660217285156001
 30
0.0
 11
-7.862091064449998
 21
6.656433105468998
 31
0.0
 11
-7.881988525389999
 21
6.662414550781001
 31
0.0
 11
-7.89619445801
 21
6.6650390625
 31
0.0
 11
-7.90480041504
 21
6.664245605468998
 31
0.0
 11
-7.907791137689997
 21
6.660217285156001
 31
0.0
  0
SPLINE
  5
2200
330
21A9
100
AcDbEntity
  8
AM_0
 48
0.5
100
AcDbSpline
210
0.0
220
0.0
230
1.0
 70
     8
 71
     3
 72
    11
 73
     7
 74
     5
 42
0.0000000001
 43
0.0000000001
 44
0.0000000001
 40
0.0
 40
0.0
 40
0.0
 40
0.0
 40
0.4501475228119754
 40
0.8847757722568793
 40
1.304082105284762
 40
1.708020600410464
 40
1.708020600410464
 40
1.708020600410464
 40
1.708020600410464
 10
-9.726501464839998
 20
4.87890625
 30
0.0
 10
-9.789584374277092
 20
4.742759996666308
 30
0.0
 10
-9.913575348535388
 20
4.475161264409123
 30
0.0
 10
-10.09088774825208
 20
4.078262904478513
 30
0.0
 10
-10.25810397544119
 20
3.693742636959859
 30
0.0
 10
-10.36348482075996
 20
3.440364266833491
 30
0.0
 10
-10.41519165039
 20
3.316040039062997
 30
0.0
 11
-9.726501464839998
 21
4.87890625
 31
0.0
 11
-9.914794921869997
 21
4.470031738281001
 31
0.0
 11
-10.09230041504
 21
4.073303222656001
 31
0.0
 11
-10.25909423827999
 21
3.688598632812997
 31
0.0
 11
-10.41519165039
 21
3.316040039062997
 31
0.0
  0
SPLINE
  5
2201
330
21A9
100
AcDbEntity
  8
AM_0
 48
0.5
100
AcDbSpline
210
0.0
220
0.0
230
1.0
 70
     8
 71
     3
 72
    11
 73
     7
 74
     5
 42
0.0000000001
 43
0.0000000001
 44
0.0000000001
 40
0.0
 40
0.0
 40
0.0
 40
0.0
 40
0.0564972134855382
 40
0.1129793808927411
 40
0.169546724931083
 40
0.226018767313838
 40
0.226018767313838
 40
0.226018767313838
 40
0.226018767313838
 10
-7.907791137689997
 20
6.660217285156001
 30
0.0
 10
-7.926361740366633
 20
6.657088065439632
 30
0.0
 10
-7.963498000082317
 20
6.650830459366311
 30
0.0
 10
-8.019216097122853
 20
6.641369206240359
 30
0.0
 10
-8.074970682266567
 20
6.632176663359481
 30
0.0
 10
-8.112128355310742
 20
6.625925620652581
 30
0.0
 10
-8.130691528319999
 20
6.622802734375
 30
0.0
 11
-7.907791137689997
 21
6.660217285156001
 31
0.0
 11
-7.963500976559998
 21
6.650817871093998
 31
0.0
 11
-8.019195556639999
 21
6.641418457031001
 31
0.0
 11
-8.074996948239999
 21
6.632141113281001
 31
0.0
 11
-8.130691528319999
 21
6.622802734375
 31
0.0
  0
SPLINE
  5
2202
330
21A9
100
AcDbEntity
  8
AM_0
 48
0.5
100
AcDbSpline
210
0.0
220
0.0
230
1.0
 70
     8
 71
     3
 72
    11
 73
     7
 74
     5
 42
0.0000000001
 43
0.0000000001
 44
0.0000000001
 40
0.0
 40
0.0
 40
0.0
 40
0.0
 40
0.0271346106711593
 40
0.0469558716359617
 40
0.0600305438162183
 40
0.0691060349132483
 40
0.0691060349132483
 40
0.0691060349132483
 40
0.0691060349132483
 10
-3.659591674799997
 20
3.329528808593998
 30
0.0
 10
-3.650826207216347
 20
3.327001391531561
 30
0.0
 10
-3.635657750381824
 20
3.322627749595343
 30
0.0
 10
-3.616286789520677
 20
3.320360788385441
 30
0.0
 10
-3.600957709134608
 20
3.320573912992513
 30
0.0
 10
-3.596299469587319
 20
3.326709659709933
 30
0.0
 10
-3.594390869139999
 20
3.329223632812997
 30
0.0
 11
-3.659591674799997
 21
3.329528808593998
 31
0.0
 11
-3.63330078125
 21
3.322814941406001
 31
0.0
 11
-3.613601684569999
 21
3.320617675781001
 31
0.0
 11
-3.600692749019998
 21
3.322692871093998
 31
0.0
 11
-3.594390869139999
 21
3.329223632812997
 31
0.0
  0
SPLINE
  5
2203
330
21A9
100
AcDbEntity
  8
AM_0
 48
0.5
100
AcDbSpline
210
0.0
220
0.0
230
1.0
 70
     8
 71
     3
 72
    11
 73
     7
 74
     5
 42
0.0000000001
 43
0.0000000001
 44
0.0000000001
 40
0.0
 40
0.0
 40
0.0
 40
0.0
 40
0.0506625645446116
 40
0.1935499724589929
 40
0.4126476473298644
 40
0.6804385259279853
 40
0.6804385259279853
 40
0.6804385259279853
 40
0.6804385259279853
 10
-4.367492675779999
 20
1.072143554687997
 30
0.0
 10
-4.384325665879989
 20
1.073803684729761
 30
0.0
 10
-4.448633992936485
 20
1.080146003298709
 30
0.0
 10
-4.57980370089759
 20
1.124817662084939
 30
0.0
 10
-4.780266760176306
 20
1.185606769495666
 30
0.0
 10
-4.932927429602639
 20
1.241050894060705
 30
0.0
 10
-5.016891479489999
 20
1.271545410156001
 30
0.0
 11
-4.367492675779999
 21
1.072143554687997
 31
0.0
 11
-4.417800903319999
 21
1.078125
 31
0.0
 11
-4.555603027339998
 21
1.115905761718998
 31
0.0
 11
-4.764297485349999
 21
1.1826171875
 31
0.0
 11
-5.016891479489999
 21
1.271545410156001
 31
0.0
  0
SPLINE
  5
2204
330
21A9
100
AcDbEntity
  8
AM_0
 48
0.5
100
AcDbSpline
210
0.0
220
0.0
230
1.0
 70
     8
 71
     3
 72
    11
 73
     7
 74
     5
 42
0.0000000001
 43
0.0000000001
 44
0.0000000001
 40
0.0
 40
0.0
 40
0.0
 40
0.0
 40
0.0427444520916605
 40
0.0854316501547136
 40
0.1282132049845025
 40
0.1709576570770962
 40
0.1709576570770962
 40
0.1709576570770962
 40
0.1709576570770962
 10
-3.66799926758
 20
3.53564453125
 30
0.0
 10
-3.663065045253603
 20
3.522278037089102
 30
0.0
 10
-3.653203209741702
 20
3.495562952509233
 30
0.0
 10
-3.6384127103264
 20
3.45546608349016
 30
0.0
 10
-3.623463578045731
 20
3.415428022002561
 30
0.0
 10
-3.613612004411308
 20
3.388675589290909
 30
0.0
 10
-3.608688354489999
 20
3.375305175781001
 30
0.0
 11
-3.66799926758
 21
3.53564453125
 31
0.0
 11
-3.653198242190001
 21
3.495544433593998
 31
0.0
 11
-3.638397216800001
 21
3.455505371093998
 31
0.0
 11
-3.623489379879998
 21
3.415405273437997
 31
0.0
 11
-3.608688354489999
 21
3.375305175781001
 31
0.0
  0
SPLINE
  5
2205
330
21A9
100
AcDbEntity
  8
AM_0
 48
0.5
100
AcDbSpline
210
0.0
220
0.0
230
1.0
 70
     8
 71
     3
 72
    11
 73
     7
 74
     5
 42
0.0000000001
 43
0.0000000001
 44
0.0000000001
 40
0.0
 40
0.0
 40
0.0
 40
0.0
 40
0.0207071381374878
 40
0.0351274930510608
 40
0.043769950482963
 40
0.0488452586085294
 40
0.0488452586085294
 40
0.0488452586085294
 40
0.0488452586085294
 10
-3.732498168939997
 20
3.59033203125
 30
0.0
 10
-3.725855756442138
 20
3.588101301346557
 30
0.0
 10
-3.714587598702927
 20
3.584317101489403
 30
0.0
 10
-3.700982182745614
 20
3.581931581835931
 30
0.0
 10
-3.690099307624516
 20
3.580739410217846
 30
0.0
 10
-3.687756457649298
 20
3.585023760077048
 30
0.0
 10
-3.686889648440001
 20
3.586608886718998
 30
0.0
 11
-3.732498168939997
 21
3.59033203125
 31
0.0
 11
-3.712692260739999
 21
3.584289550781001
 31
0.0
 11
-3.698501586909998
 21
3.581726074218998
 31
0.0
 11
-3.689895629879998
 21
3.58251953125
 31
0.0
 11
-3.686889648440001
 21
3.586608886718998
 31
0.0
  0
SPLINE
  5
2206
330
21A9
100
AcDbEntity
  8
AM_0
 48
0.5
100
AcDbSpline
210
0.0
220
0.0
230
1.0
 70
     8
 71
     3
 72
    11
 73
     7
 74
     5
 42
0.0000000001
 43
0.0000000001
 44
0.0000000001
 40
0.0
 40
0.0
 40
0.0
 40
0.0
 40
0.0287031774699914
 40
0.0633805507215859
 40
0.1040953949061422
 40
0.1509698385913731
 40
0.1509698385913731
 40
0.1509698385913731
 40
0.1509698385913731
 10
-3.732498168939997
 20
3.59033203125
 30
0.0
 10
-3.741493430856038
 20
3.593596114842998
 30
0.0
 10
-3.761356202311204
 20
3.600803658883787
 30
0.0
 10
-3.793301553849478
 20
3.614383108744831
 30
0.0
 10
-3.830427493314138
 20
3.631199144137978
 30
0.0
 10
-3.856718585293485
 20
3.643899210181477
 30
0.0
 10
-3.87078857422
 20
3.650695800781001
 30
0.0
 11
-3.732498168939997
 21
3.59033203125
 31
0.0
 11
-3.759399414059998
 21
3.600341796875
 31
0.0
 11
-3.791397094719997
 21
3.613708496093998
 31
0.0
 11
-3.828491210940001
 21
3.630493164062997
 31
0.0
 11
-3.87078857422
 21
3.650695800781001
 31
0.0
  0
SPLINE
  5
2207
330
21A9
100
AcDbEntity
  8
AM_0
 48
0.5
100
AcDbSpline
210
0.0
220
0.0
230
1.0
 70
     8
 71
     3
 72
    11
 73
     7
 74
     5
 42
0.0000000001
 43
0.0000000001
 44
0.0000000001
 40
0.0
 40
0.0
 40
0.0
 40
0.0
 40
0.0676134626237362
 40
0.1261871681308637
 40
0.1756492454410847
 40
0.2160676578565868
 40
0.2160676578565868
 40
0.2160676578565868
 40
0.2160676578565868
 10
-3.857391357419999
 20
3.416015625
 30
0.0
 10
-3.837220641455636
 20
3.405955405667268
 30
0.0
 10
-3.799575985673412
 20
3.387179994098165
 30
0.0
 10
-3.746267435986708
 20
3.362962647138398
 30
0.0
 10
-3.700702118865023
 20
3.34357967904699
 30
0.0
 10
-3.672344037678724
 20
3.333887355499868
 30
0.0
 10
-3.659591674799997
 20
3.329528808593998
 30
0.0
 11
-3.857391357419999
 21
3.416015625
 31
0.0
 11
-3.796691894529999
 21
3.38623046875
 31
0.0
 11
-3.743392944329997
 21
3.361938476562997
 31
0.0
 11
-3.697692871089998
 21
3.343017578125
 31
0.0
 11
-3.659591674799997
 21
3.329528808593998
 31
0.0
  0
SPLINE
  5
2208
330
21A9
100
AcDbEntity
  8
AM_0
 48
0.5
100
AcDbSpline
210
0.0
220
0.0
230
1.0
 70
     8
 71
     3
 72
    11
 73
     7
 74
     5
 42
0.0000000001
 43
0.0000000001
 44
0.0000000001
 40
0.0
 40
0.0
 40
0.0
 40
0.0
 40
0.0349931642919637
 40
0.0716105989280834
 40
0.1101150306971545
 40
0.1502916077464043
 40
0.1502916077464043
 40
0.1502916077464043
 40
0.1502916077464043
 10
-3.87078857422
 20
3.650695800781001
 30
0.0
 10
-3.881227912538814
 20
3.655899423046863
 30
0.0
 10
-3.902591149746684
 20
3.666548203018424
 30
0.0
 10
-3.935396277387151
 20
3.683013756524801
 30
0.0
 10
-3.969520091665925
 20
3.700698171508584
 30
0.0
 10
-3.992676881419859
 20
3.71301170484364
 30
0.0
 10
-4.004501342769998
 20
3.719299316406001
 30
0.0
 11
-3.87078857422
 21
3.650695800781001
 31
0.0
 11
-3.902099609369997
 21
3.666320800781001
 31
0.0
 11
-3.934799194329997
 21
3.682800292968998
 31
0.0
 11
-3.968994140619997
 21
3.700500488281001
 31
0.0
 11
-4.004501342769998
 21
3.719299316406001
 31
0.0
  0
SPLINE
  5
2209
330
21A9
100
AcDbEntity
  8
AM_0
 48
0.5
100
AcDbSpline
210
0.0
220
0.0
230
1.0
 70
     8
 71
     3
 72
    11
 73
     7
 74
     5
 42
0.0000000001
 43
0.0000000001
 44
0.0000000001
 40
0.0
 40
0.0
 40
0.0
 40
0.0
 40
0.0558629414983291
 40
0.1092262494735171
 40
0.1600206016325324
 40
0.2082440750494586
 40
0.2082440750494586
 40
0.2082440750494586
 40
0.2082440750494586
 10
-4.0399017334
 20
3.516235351562997
 30
0.0
 10
-4.023796019615851
 20
3.506888682565642
 30
0.0
 10
-3.992305255532309
 20
3.488613569006109
 30
0.0
 10
-3.945701087794017
 20
3.462662828718932
 30
0.0
 10
-3.901029791758152
 20
3.438480989054826
 30
0.0
 10
-3.871683522000563
 20
3.423373328943863
 30
0.0
 10
-3.857391357419999
 20
3.416015625
 30
0.0
 11
-4.0399017334
 21
3.516235351562997
 31
0.0
 11
-3.991500854489999
 21
3.488342285156001
 31
0.0
 11
-3.944900512689997
 21
3.462341308593998
 31
0.0
 11
-3.900192260739999
 21
3.438232421875
 31
0.0
 11
-3.857391357419999
 21
3.416015625
 31
0.0
  0
SPLINE
  5
220A
330
21A9
100
AcDbEntity
  8
AM_0
 48
0.5
100
AcDbSpline
210
0.0
220
0.0
230
1.0
 70
     8
 71
     3
 72
    11
 73
     7
 74
     5
 42
0.0000000001
 43
0.0000000001
 44
0.0000000001
 40
0.0
 40
0.0
 40
0.0
 40
0.0
 40
0.0415999507412847
 40
0.0840713860302105
 40
0.127553679623667
 40
0.1719032286280191
 40
0.1719032286280191
 40
0.1719032286280191
 40
0.1719032286280191
 10
-4.004501342769998
 20
3.719299316406001
 30
0.0
 10
-4.016745425431322
 20
3.725808421561319
 30
0.0
 10
-4.041490094154798
 20
3.738962992239235
 30
0.0
 10
-4.078816857833887
 20
3.75932378962507
 30
0.0
 10
-4.116763013197418
 20
3.78045802173676
 30
0.0
 10
-4.142301710033594
 20
3.794773525361696
 30
0.0
 10
-4.155197143549997
 20
3.802001953125
 30
0.0
 11
-4.004501342769998
 21
3.719299316406001
 31
0.0
 11
-4.04119873047
 21
3.738891601562997
 31
0.0
 11
-4.078491210940001
 21
3.759216308593998
 31
0.0
 11
-4.116500854489999
 21
3.780334472656001
 31
0.0
 11
-4.155197143549997
 21
3.802001953125
 31
0.0
  0
SPLINE
  5
220B
330
21A9
100
AcDbEntity
  8
AM_0
 48
0.5
100
AcDbSpline
210
0.0
220
0.0
230
1.0
 70
     8
 71
     3
 72
    11
 73
     7
 74
     5
 42
0.0000000001
 43
0.0000000001
 44
0.0000000001
 40
0.0
 40
0.0
 40
0.0
 40
0.0
 40
0.0516812099573
 40
0.1025192658010132
 40
0.152378397512848
 40
0.2013699210777699
 40
0.2013699210777699
 40
0.2013699210777699
 40
0.2013699210777699
 10
-4.21240234375
 20
3.6201171875
 30
0.0
 10
-4.197750639265779
 20
3.611056044516765
 30
0.0
 10
-4.168686265817543
 20
3.593081586745233
 30
0.0
 10
-4.125187093534492
 20
3.566855686898672
 30
0.0
 10
-4.082371446280578
 20
3.541233975399016
 30
0.0
 10
-4.053975226875854
 20
3.524519324907738
 30
0.0
 10
-4.0399017334
 20
3.516235351562997
 30
0.0
 11
-4.21240234375
 21
3.6201171875
 31
0.0
 11
-4.168395996089998
 21
3.593017578125
 31
0.0
 11
-4.124893188469997
 21
3.566711425781001
 31
0.0
 11
-4.082092285149997
 21
3.541137695312997
 31
0.0
 11
-4.0399017334
 21
3.516235351562997
 31
0.0
  0
LINE
  5
220C
330
21A9
100
AcDbEntity
  8
AM_7
100
AcDbLine
 10
0.0
 20
15.0
 30
0.0
 11
0.0
 21
-15.0
 31
0.0
  0
CIRCLE
  5
220D
330
21A9
100
AcDbEntity
  8
AM_0
100
AcDbCircle
 10
0.0
 20
0.0
 30
0.0
 40
12.5
  0
ARC
  5
220E
330
21A9
100
AcDbEntity
  8
AM_0
 48
0.5
100
AcDbCircle
 10
0.0
 20
0.0
 30
0.0
 40
10.500000953674
100
AcDbArc
 50
220.0116119791912
 51
260.662104371741
  0
ARC
  5
220F
330
21A9
100
AcDbEntity
  8
AM_0
 48
0.5
100
AcDbCircle
 10
0.0
 20
0.0
 30
0.0
 40
9.784377098083499
100
AcDbArc
 50
223.4909513235304
 51
262.7533990125713
  0
ARC
  5
2210
330
21A9
100
AcDbEntity
  8
AM_0
 48
0.5
100
AcDbCircle
 10
0.0
 20
0.0
 30
0.0
 40
9.5726270675659
100
AcDbArc
 50
223.1654108473135
 51
262.6845575359255
  0
LINE
  5
2211
330
21A9
100
AcDbEntity
  8
AM_0
 48
0.5
100
AcDbLine
 10
-1.206802368159998
 20
-6.616088867187002
 30
0.0
 11
-1.206802368159998
 21
-9.628112792968998
 31
0.0
  0
LINE
  5
2212
330
21A9
100
AcDbEntity
  8
AM_0
 48
0.5
100
AcDbLine
 10
-1.006896972649997
 20
-9.619079589843998
 30
0.0
 11
-1.006896972649997
 21
-6.750183105468998
 31
0.0
  0
LINE
  5
2213
330
21A9
100
AcDbEntity
  8
AM_0
 48
0.5
100
AcDbLine
 10
2.128318786619999
 20
-9.136901855468998
 30
0.0
 11
-1.006896972649997
 21
-6.750175476073998
 31
0.0
  0
ARC
  5
2214
330
21A9
100
AcDbEntity
  8
AM_0
 48
0.5
100
AcDbCircle
 10
0.0
 20
0.0
 30
0.0
 40
10.50005435943599
100
AcDbArc
 50
282.8275845304241
 51
307.1738382231677
  0
LINE
  5
2215
330
21A9
100
AcDbEntity
  8
AM_0
 48
0.5
100
AcDbLine
 10
-1.64651489258
 20
-10.388696670532
 30
0.0
 11
0.6322784423799988
 21
-10.86318016052199
 31
0.0
  0
ARC
  5
2216
330
21A9
100
AcDbEntity
  8
AM_0
 48
0.5
100
AcDbCircle
 10
0.0507965087900004
 20
0.0870361328129974
 30
0.0
 40
10.382756233215
100
AcDbArc
 50
259.266478158253
 51
259.5303488564573
  0
LINE
  5
2217
330
21A9
100
AcDbEntity
  8
AM_0
 48
0.5
100
AcDbLine
 10
-1.234161376949998
 20
-9.706136703491001
 30
0.0
 11
-1.218872070309998
 21
-9.494651794432996
 31
0.0
  0
LINE
  5
2218
330
21A9
100
AcDbEntity
  8
AM_0
 48
0.5
100
AcDbLine
 10
-1.646537780759999
 20
-10.388608932495
 30
0.0
 11
-1.644348144529999
 21
-10.38763618469199
 31
0.0
  0
LINE
  5
2219
330
21A9
100
AcDbEntity
  8
AM_0
 48
0.5
100
AcDbLine
 10
-1.833618164059998
 20
-10.137023925781
 30
0.0
 11
-1.840507507319998
 21
-10.09306526184099
 31
0.0
  0
LINE
  5
221A
330
21A9
100
AcDbEntity
  8
AM_0
 48
0.5
100
AcDbLine
 10
-1.644371032709997
 20
-10.387638092041
 30
0.0
 11
-1.642852783199998
 21
-10.386409759521
 31
0.0
  0
LINE
  5
221B
330
21A9
100
AcDbEntity
  8
AM_0
 48
0.5
100
AcDbLine
 10
-1.670181274409998
 20
-10.352766036987
 30
0.0
 11
-1.642959594719997
 21
-10.386409759521
 31
0.0
  0
LINE
  5
221C
330
21A9
100
AcDbEntity
  8
AM_0
 48
0.5
100
AcDbLine
 10
-1.052726745599997
 20
-10.059211730957
 30
0.0
 11
-1.643035888669999
 21
-10.386360168457
 31
0.0
  0
LINE
  5
221D
330
21A9
100
AcDbEntity
  8
AM_0
 48
0.5
100
AcDbLine
 10
-1.814018249509999
 20
-10.177446365356
 30
0.0
 11
-1.224021911619999
 21
-9.850419998168998
 31
0.0
  0
LINE
  5
221E
330
21A9
100
AcDbEntity
  8
AM_0
 48
0.5
100
AcDbLine
 10
-1.81399536133
 20
-10.17751121521
 30
0.0
 11
-1.670181274409998
 21
-10.3528175354
 31
0.0
  0
LINE
  5
221F
330
21A9
100
AcDbEntity
  8
AM_0
 48
0.5
100
AcDbLine
 10
-1.052696228030001
 20
-10.05923461914
 30
0.0
 11
-1.047004699710001
 21
-10.05777168273899
 31
0.0
  0
LINE
  5
2220
330
21A9
100
AcDbEntity
  8
AM_0
 48
0.5
100
AcDbLine
 10
-0.9999237060499979
 20
-9.723485946654999
 30
0.0
 11
-1.005325317379998
 21
-9.654851913451999
 31
0.0
  0
LINE
  5
2221
330
21A9
100
AcDbEntity
  8
AM_0
 48
0.5
100
AcDbLine
 10
-1.005294799799997
 20
-9.654964447021001
 30
0.0
 11
-1.006896972649997
 21
-9.619113922118998
 31
0.0
  0
LINE
  5
2222
330
21A9
100
AcDbEntity
  8
AM_0
 48
0.5
100
AcDbLine
 10
0.6379852294899991
 20
-10.86291122436499
 30
0.0
 11
0.6323013305700016
 21
-10.863216400146
 31
0.0
  0
LINE
  5
2223
330
21A9
100
AcDbEntity
  8
AM_0
 48
0.5
100
AcDbLine
 10
2.347969055180001
 20
-10.641450881958
 30
0.0
 11
2.335983276370001
 21
-10.67782592773399
 31
0.0
  0
LINE
  5
2224
330
21A9
100
AcDbEntity
  8
AM_0
 48
0.5
100
AcDbLine
 10
2.128303527829999
 20
-9.136875152587997
 30
0.0
 11
2.312797546390001
 21
-10.26303672790499
 31
0.0
  0
LINE
  5
2225
330
21A9
100
AcDbEntity
  8
AM_7
 48
0.5
100
AcDbLine
 10
-15.0
 20
0.0
 30
0.0
 11
14.999999999997
 21
0.0
 31
0.0
  0
ARC
  5
2226
330
21A9
100
AcDbEntity
  8
AM_0
 48
0.5
100
AcDbCircle
 10
0.0
 20
0.0
 30
0.0
 40
10.499970436096
100
AcDbArc
 50
100.0110790728593
 51
140.6619129748633
  0
ARC
  5
2227
330
21A9
100
AcDbEntity
  8
AM_0
 48
0.5
100
AcDbCircle
 10
0.0
 20
0.0
 30
0.0
 40
9.784281730651899
100
AcDbArc
 50
103.4909989832775
 51
142.7527431628296
  0
ARC
  5
2228
330
21A9
100
AcDbEntity
  8
AM_0
 48
0.5
100
AcDbCircle
 10
0.0
 20
0.0
 30
0.0
 40
9.572604179382299
100
AcDbArc
 50
103.165499488188
 51
142.6847827805893
  0
LINE
  5
2229
330
21A9
100
AcDbEntity
  8
AM_0
 48
0.5
100
AcDbLine
 10
-8.976936340329999
 20
2.725250244141001
 30
0.0
 11
-5.342430114739997
 21
4.247161865235
 31
0.0
  0
LINE
  5
222A
330
21A9
100
AcDbEntity
  8
AM_0
 48
0.5
100
AcDbLine
 10
-5.126182556149998
 20
4.353134155273998
 30
0.0
 11
-7.734687805169997
 21
5.859237670898998
 31
0.0
  0
LINE
  5
222B
330
21A9
100
AcDbEntity
  8
AM_0
 48
0.5
100
AcDbLine
 10
-7.82691192627
 20
5.681529998778998
 30
0.0
 11
-5.342407226559998
 21
4.247138977051001
 31
0.0
  0
ARC
  5
222C
330
21A9
100
AcDbEntity
  8
AM_0
 48
0.5
100
AcDbCircle
 10
0.0
 20
0.0
 30
0.0
 40
10.499982833862
100
AcDbArc
 50
162.8275843788432
 51
187.1736160904392
  0
LINE
  5
222D
330
21A9
100
AcDbEntity
  8
AM_0
 48
0.5
100
AcDbLine
 10
-7.619636535639997
 20
-6.915134429931001
 30
0.0
 11
-8.042121887210001
 21
-6.750831604003998
 31
0.0
  0
LINE
  5
222E
330
21A9
100
AcDbEntity
  8
AM_0
 48
0.5
100
AcDbLine
 10
-7.09841156006
 20
-6.73401260376
 30
0.0
 11
-7.25930786133
 21
-6.790283203125
 31
0.0
  0
LINE
  5
222F
330
21A9
100
AcDbEntity
  8
AM_0
 48
0.5
100
AcDbLine
 10
-7.392684936519998
 20
-6.836837768555
 30
0.0
 11
-7.619583129879998
 21
-6.91520690918
 31
0.0
  0
LINE
  5
2230
330
21A9
100
AcDbEntity
  8
AM_0
 48
0.5
100
AcDbLine
 10
-7.09839630127
 20
-6.733982086181001
 30
0.0
 11
-6.98211669922
 21
-6.548694610596001
 31
0.0
  0
LINE
  5
2231
330
21A9
100
AcDbEntity
  8
AM_0
 48
0.5
100
AcDbLine
 10
-8.97691345215
 20
2.725200653076001
 30
0.0
 11
-10.04451751709
 21
3.128582000732997
 31
0.0
  0
LINE
  5
2232
330
21A9
100
AcDbEntity
  8
AM_0
 48
0.5
100
AcDbLine
 10
-10.38970184325999
 20
3.287456512451001
 30
0.0
 11
-10.41519927977999
 21
3.316078186034999
 31
0.0
  0
LINE
  5
2233
330
21A9
100
AcDbEntity
  8
AM_0
 48
0.5
100
AcDbLine
 10
-8.17343902588
 20
6.620208740235
 30
0.0
 11
-9.723838806149998
 21
4.88399887085
 31
0.0
  0
LINE
  5
2234
330
21A9
100
AcDbEntity
  8
AM_0
 48
0.5
100
AcDbLine
 10
-9.726470947259997
 20
4.878917694092002
 30
0.0
 11
-9.723869323729999
 21
4.884033203125
 31
0.0
  0
ARC
  5
2235
330
21A9
100
AcDbEntity
  8
AM_0
 48
0.5
100
AcDbCircle
 10
0.0841064453099989
 20
-0.1167602539060013
 30
0.0
 40
10.42769050598099
100
AcDbArc
 50
139.2672293274779
 51
139.5290987802576
  0
LINE
  5
2236
330
21A9
100
AcDbEntity
  8
AM_0
 48
0.5
100
AcDbLine
 10
-7.858680725100001
 20
5.698020935058998
 30
0.0
 11
-7.826873779300001
 21
5.681533813477003
 31
0.0
  0
LINE
  5
2237
330
21A9
100
AcDbEntity
  8
AM_0
 48
0.5
100
AcDbLine
 10
-7.788612365719998
 20
5.922008514403998
 30
0.0
 11
-7.61321258545
 21
5.802928924561001
 31
0.0
  0
LINE
  5
2238
330
21A9
100
AcDbEntity
  8
AM_0
 48
0.5
100
AcDbLine
 10
-8.17352294922
 20
6.620292663573998
 30
0.0
 11
-8.173828125
 21
6.617961883545
 31
0.0
  0
LINE
  5
2239
330
21A9
100
AcDbEntity
  8
AM_0
 48
0.5
100
AcDbLine
 10
-7.862106323239999
 20
6.656463623047002
 30
0.0
 11
-7.820625305169997
 21
6.640537261962997
 31
0.0
  0
LINE
  5
223A
330
21A9
100
AcDbEntity
  8
AM_0
 48
0.5
100
AcDbLine
 10
-8.173835754389997
 20
6.617954254151001
 30
0.0
 11
-8.17352294922
 21
6.615901947022003
 31
0.0
  0
LINE
  5
223B
330
21A9
100
AcDbEntity
  8
AM_0
 48
0.5
100
AcDbLine
 10
-8.130699157709997
 20
6.622745513916001
 30
0.0
 11
-8.173408508299999
 21
6.615970611572002
 31
0.0
  0
LINE
  5
223C
330
21A9
100
AcDbEntity
  8
AM_0
 48
0.5
100
AcDbLine
 10
-8.185249328609998
 20
5.941371917725
 30
0.0
 11
-8.17345428467
 21
6.616104125977003
 31
0.0
  0
LINE
  5
223D
330
21A9
100
AcDbEntity
  8
AM_0
 48
0.5
100
AcDbLine
 10
-7.906982421869997
 20
6.659736633301001
 30
0.0
 11
-7.918777465819999
 21
5.985248565673998
 31
0.0
  0
LINE
  5
223E
330
21A9
100
AcDbEntity
  8
AM_0
 48
0.5
100
AcDbLine
 10
-7.906997680659998
 20
6.659687042237003
 30
0.0
 11
-8.130683898919997
 21
6.622760772704999
 31
0.0
  0
LINE
  5
223F
330
21A9
100
AcDbEntity
  8
AM_0
 48
0.5
100
AcDbLine
 10
-8.185272216800001
 20
5.941364288329999
 30
0.0
 11
-8.186882019039998
 21
5.935604095458998
 31
0.0
  0
LINE
  5
2240
330
21A9
100
AcDbEntity
  8
AM_0
 48
0.5
100
AcDbLine
 10
-7.920814514159999
 20
5.727802276612003
 30
0.0
 11
-7.858718872069999
 21
5.698078155517997
 31
0.0
  0
ARC
  5
2241
330
21A9
100
AcDbEntity
  8
AM_0
 48
0.5
100
AcDbCircle
 10
0.0
 20
0.0
 30
0.0
 40
10.500023841857
100
AcDbArc
 50
42.82715073762067
 51
67.17348980772792
  0
LINE
  5
2242
330
21A9
100
AcDbEntity
  8
AM_0
 48
0.5
100
AcDbLine
 10
5.370254516599999
 20
1.69760131836
 30
0.0
 11
6.333053588870001
 21
2.262908935547002
 31
0.0
  0
LINE
  5
2243
330
21A9
100
AcDbEntity
  8
AM_0
 48
0.5
100
AcDbLine
 10
6.232872009280001
 20
2.419670104981001
 30
0.0
 11
5.270072937009999
 21
1.854362487792997
 31
0.0
  0
LINE
  5
2244
330
21A9
100
AcDbEntity
  8
AM_0
 48
0.5
100
AcDbLine
 10
0.7767028808600003
 20
-4.405693054198998
 30
0.0
 11
-0.5269927978499993
 21
-4.657890319823998
 31
0.0
  0
LINE
  5
2245
330
21A9
100
AcDbEntity
  8
AM_0
 48
0.5
100
AcDbLine
 10
1.2553024292
 20
-4.318290710448998
 30
0.0
 11
-1.085899353030001
 21
-4.777397155762002
 31
0.0
  0
LINE
  5
2246
330
21A9
100
AcDbEntity
  8
AM_0
 48
0.5
100
AcDbLine
 10
-1.064521789549999
 20
-4.766689300537002
 30
0.0
 11
-1.256118774409998
 21
-4.791286468506001
 31
0.0
  0
LINE
  5
2247
330
21A9
100
AcDbEntity
  8
AM_0
 48
0.5
100
AcDbLine
 10
-1.25848388672
 20
-4.806503295897996
 30
0.0
 11
-1.16872406006
 21
-4.822547912597002
 31
0.0
  0
LINE
  5
2248
330
21A9
100
AcDbEntity
  8
AM_0
 48
0.5
100
AcDbLine
 10
-0.5547637939399977
 20
-4.673187255858998
 30
0.0
 11
-0.527053833010001
 21
-4.657806396483998
 31
0.0
  0
LINE
  5
2249
330
21A9
100
AcDbEntity
  8
AM_0
 48
0.5
100
AcDbLine
 10
-1.228507995599997
 20
-4.657493591307996
 30
0.0
 11
-0.5270004272399973
 21
-4.657920837402002
 31
0.0
  0
LINE
  5
224A
330
21A9
100
AcDbEntity
  8
AM_0
 48
0.5
100
AcDbLine
 10
-1.091079711909998
 20
-4.779560089111001
 30
0.0
 11
-1.228065490719998
 21
-4.855484008788998
 31
0.0
  0
LINE
  5
224B
330
21A9
100
AcDbEntity
  8
AM_0
 48
0.5
100
AcDbLine
 10
-1.085906982419999
 20
-4.777366638182996
 30
0.0
 11
-1.088523864739997
 21
-4.778160095215
 31
0.0
  0
LINE
  5
224C
330
21A9
100
AcDbEntity
  8
AM_0
 48
0.5
100
AcDbLine
 10
-1.09100341797
 20
-4.779468536377002
 30
0.0
 11
-1.088500976559998
 21
-4.778247833252002
 31
0.0
  0
LINE
  5
224D
330
21A9
100
AcDbEntity
  8
AM_0
 48
0.5
100
AcDbLine
 10
-1.11883544922
 20
-4.812831878662002
 30
0.0
 11
-1.091133117669997
 21
-4.779430389403998
 31
0.0
  0
LINE
  5
224E
330
21A9
100
AcDbEntity
  8
AM_0
 48
0.5
100
AcDbLine
 10
-1.090950012210001
 20
-4.779460906982002
 30
0.0
 11
-1.118728637689997
 21
-4.812839508056001
 31
0.0
  0
LINE
  5
224F
330
21A9
100
AcDbEntity
  8
AM_0
 48
0.5
100
AcDbLine
 10
-1.053665161129998
 20
-4.83406829834
 30
0.0
 11
-1.227767944329997
 21
-5.012050628662002
 31
0.0
  0
LINE
  5
2250
330
21A9
100
AcDbEntity
  8
AM_0
 48
0.5
100
AcDbLine
 10
-1.029609680169997
 20
-5.048706054687002
 30
0.0
 11
-1.226203918460001
 21
-5.177673339843998
 31
0.0
  0
LINE
  5
2251
330
21A9
100
AcDbEntity
  8
AM_0
 48
0.5
100
AcDbLine
 10
-1.025222778319999
 20
-5.256847381592002
 30
0.0
 11
-1.218719482419999
 21
-5.327644348143998
 31
0.0
  0
LINE
  5
2252
330
21A9
100
AcDbEntity
  8
AM_0
 48
0.5
100
AcDbLine
 10
-1.214973449710001
 20
-5.499526977538998
 30
0.0
 11
-1.206779479979999
 21
-6.616073608397996
 31
0.0
  0
LINE
  5
2253
330
21A9
100
AcDbEntity
  8
AM_0
 48
0.5
100
AcDbLine
 10
-1.029212951659999
 20
-5.491180419922002
 30
0.0
 11
-1.21501159668
 21
-5.499542236327997
 31
0.0
  0
LINE
  5
2254
330
21A9
100
AcDbEntity
  8
AM_0
 48
0.5
100
AcDbLine
 10
-1.02101135254
 20
-6.607685089111001
 30
0.0
 11
-1.206825256350001
 21
-6.616111755371001
 31
0.0
  0
LINE
  5
2255
330
21A9
100
AcDbEntity
  8
AM_0
 48
0.5
100
AcDbLine
 10
-1.00686645508
 20
-6.750183105468998
 30
0.0
 11
-1.020973205559997
 21
-6.607627868652002
 31
0.0
  0
LINE
  5
2256
330
21A9
100
AcDbEntity
  8
AM_0
 48
0.5
100
AcDbLine
 10
-1.029167175289998
 20
-5.491214752197002
 30
0.0
 11
-1.028770446780001
 21
-5.458194732666001
 31
0.0
  0
LINE
  5
2257
330
21A9
100
AcDbEntity
  8
AM_0
 48
0.5
100
AcDbLine
 10
-1.020988464349997
 20
-6.607658386229999
 30
0.0
 11
-1.029182434079999
 21
-5.491172790527002
 31
0.0
  0
LINE
  5
2258
330
21A9
100
AcDbEntity
  8
AM_0
 48
0.5
100
AcDbLine
 10
0.7750701904300002
 20
-3.591133117676001
 30
0.0
 11
0.7766723632799995
 21
-4.405765533447002
 31
0.0
  0
LINE
  5
2259
330
21A9
100
AcDbEntity
  8
AM_0
 48
0.5
100
AcDbLine
 10
0.7766876220699999
 20
-4.405704498291001
 30
0.0
 11
0.7581863403299991
 21
-4.415897369385
 31
0.0
  0
LINE
  5
225A
330
21A9
100
AcDbEntity
  8
AM_0
 48
0.5
100
AcDbLine
 10
1.494995117190001
 20
-5.48987197876
 30
0.0
 11
1.59669494629
 21
-4.469165802002002
 31
0.0
  0
LINE
  5
225B
330
21A9
100
AcDbEntity
  8
AM_0
 48
0.5
100
AcDbLine
 10
-4.15520477295
 20
3.802040100097997
 30
0.0
 11
-5.126205444329997
 21
4.353130340576001
 31
0.0
  0
LINE
  5
225C
330
21A9
100
AcDbEntity
  8
AM_0
 48
0.5
100
AcDbLine
 10
-5.21192932129
 20
4.188007354737003
 30
0.0
 11
-4.24090576172
 21
3.636848449707002
 31
0.0
  0
LINE
  5
225D
330
21A9
100
AcDbEntity
  8
AM_0
 48
0.5
100
AcDbLine
 10
-3.533309936519998
 20
3.493072509766001
 30
0.0
 11
-3.592010498050001
 21
3.423370361327997
 31
0.0
  0
LINE
  5
225E
330
21A9
100
AcDbEntity
  8
AM_0
 48
0.5
100
AcDbLine
 10
-3.595825195309998
 20
3.305278778076001
 30
0.0
 11
-3.52133178711
 21
3.483444213867002
 31
0.0
  0
LINE
  5
225F
330
21A9
100
AcDbEntity
  8
AM_0
 48
0.5
100
AcDbLine
 10
-3.769805908199998
 20
2.816993713378998
 30
0.0
 11
-3.770309448239999
 21
2.785320281982997
 31
0.0
  0
LINE
  5
2260
330
21A9
100
AcDbEntity
  8
AM_0
 48
0.5
100
AcDbLine
 10
-4.203659057620001
 20
1.530227661132997
 30
0.0
 11
-4.203262329099999
 21
1.551342010497997
 31
0.0
  0
LINE
  5
2261
330
21A9
100
AcDbEntity
  8
AM_0
 48
0.5
100
AcDbLine
 10
-3.419258117669997
 20
3.392623901367002
 30
0.0
 11
-3.770240783689999
 21
2.785339355468998
 31
0.0
  0
LINE
  5
2262
330
21A9
100
AcDbEntity
  8
AM_0
 48
0.5
100
AcDbLine
 10
-4.203681945799999
 20
1.530208587647003
 30
0.0
 11
-3.77028656006
 21
2.785339355468998
 31
0.0
  0
LINE
  5
2263
330
21A9
100
AcDbEntity
  8
AM_0
 48
0.5
100
AcDbLine
 10
-3.49750518799
 20
1.124366760253998
 30
0.0
 11
-4.203689575189997
 21
1.530246734618998
 31
0.0
  0
LINE
  5
2264
330
21A9
100
AcDbEntity
  8
AM_0
 48
0.5
100
AcDbLine
 10
-5.501853942869999
 20
1.450206756592002
 30
0.0
 11
-4.668754577629997
 21
0.8518218994139985
 31
0.0
  0
LINE
  5
2265
330
21A9
100
AcDbEntity
  8
AM_0
 48
0.5
100
AcDbLine
 10
-3.593627929690001
 20
3.334701538086001
 30
0.0
 11
-3.5908203125
 21
3.491230010987003
 31
0.0
  0
LINE
  5
2266
330
21A9
100
AcDbEntity
  8
AM_0
 48
0.5
100
AcDbLine
 10
-4.367561340329999
 20
1.072154998778998
 30
0.0
 11
-3.594451904300001
 21
3.329257965087997
 31
0.0
  0
LINE
  5
2267
330
21A9
100
AcDbEntity
  8
AM_0
 48
0.5
100
AcDbLine
 10
-3.59442138672
 20
3.329208374023998
 30
0.0
 11
-3.593826293939997
 21
3.331764221192003
 31
0.0
  0
LINE
  5
2268
330
21A9
100
AcDbEntity
  8
AM_0
 48
0.5
100
AcDbLine
 10
-3.593605041499998
 20
3.334499359131001
 30
0.0
 11
-3.593803405759999
 21
3.331760406493998
 31
0.0
  0
LINE
  5
2269
330
21A9
100
AcDbEntity
  8
AM_0
 48
0.5
100
AcDbLine
 10
-3.608695983879997
 20
3.375362396239999
 30
0.0
 11
-3.59359741211
 21
3.334743499756001
 31
0.0
  0
LINE
  5
226A
330
21A9
100
AcDbEntity
  8
AM_0
 48
0.5
100
AcDbLine
 10
-3.5936126709
 20
3.334526062012002
 30
0.0
 11
-3.608695983879997
 21
3.375278472901001
 31
0.0
  0
LINE
  5
226B
330
21A9
100
AcDbEntity
  8
AM_0
 48
0.5
100
AcDbLine
 10
-3.659591674799997
 20
3.329528808593998
 30
0.0
 11
-3.726699829099999
 21
3.5693359375
 31
0.0
  0
LINE
  5
226C
330
21A9
100
AcDbEntity
  8
AM_0
 48
0.5
100
AcDbLine
 10
-3.857421875
 20
3.41605758667
 30
0.0
 11
-3.870811462399998
 21
3.650722503662002
 31
0.0
  0
LINE
  5
226D
330
21A9
100
AcDbEntity
  8
AM_0
 48
0.5
100
AcDbLine
 10
-4.03988647461
 20
3.516235351562997
 30
0.0
 11
-4.00447845459
 21
3.719318389892997
 31
0.0
  0
LINE
  5
226E
330
21A9
100
AcDbEntity
  8
AM_0
 48
0.5
100
AcDbLine
 10
-4.240898132319998
 20
3.636825561523998
 30
0.0
 11
-4.155189514159999
 21
3.802013397217002
 31
0.0
  0
LINE
  5
226F
330
21A9
100
AcDbEntity
  8
AM_0
 48
0.5
100
AcDbLine
 10
-4.240898132319998
 20
3.636837005614999
 30
0.0
 11
-4.212425231929998
 21
3.620121002197002
 31
0.0
  0
LINE
  5
2270
330
21A9
100
AcDbEntity
  8
AM_0
 48
0.5
100
AcDbLine
 10
-5.211837768549997
 20
4.188011169433998
 30
0.0
 11
-5.126136779779997
 21
4.353096008301001
 31
0.0
  0
LINE
  5
2271
330
21A9
100
AcDbEntity
  8
AM_0
 48
0.5
100
AcDbLine
 10
-5.342414855960001
 20
4.24715423584
 30
0.0
 11
-5.2119140625
 21
4.188007354737003
 31
0.0
  0
LINE
  5
2272
330
21A9
100
AcDbEntity
  8
AM_0
 48
0.5
100
AcDbLine
 10
4.006904602049999
 20
4.039657592773998
 30
0.0
 11
3.07211303711
 21
3.617359161377002
 31
0.0
  0
LINE
  5
2273
330
21A9
100
AcDbEntity
  8
AM_0
 48
0.5
100
AcDbLine
 10
4.66040802002
 20
1.461429595947002
 30
0.0
 11
4.777420043950002
 21
1.307796478272003
 31
0.0
  0
LINE
  5
2274
330
21A9
100
AcDbEntity
  8
AM_0
 48
0.5
100
AcDbLine
 10
4.324661254879998
 20
1.856266021728998
 30
0.0
 11
4.297485351559998
 21
1.872550964356001
 31
0.0
  0
LINE
  5
2275
330
21A9
100
AcDbEntity
  8
AM_0
 48
0.5
100
AcDbLine
 10
3.427085876470002
 20
2.875431060791001
 30
0.0
 11
3.445083618170002
 21
2.864498138427997
 31
0.0
  0
LINE
  5
2276
330
21A9
100
AcDbEntity
  8
AM_0
 48
0.5
100
AcDbLine
 10
4.647789001470002
 20
1.264839172362997
 30
0.0
 11
4.297416687009999
 21
1.872478485107997
 31
0.0
  0
LINE
  5
2277
330
21A9
100
AcDbEntity
  8
AM_0
 48
0.5
100
AcDbLine
 10
3.42710876465
 20
2.875450134277997
 30
0.0
 11
4.297401428219998
 21
1.872528076172002
 31
0.0
  0
LINE
  5
2278
330
21A9
100
AcDbEntity
  8
AM_0
 48
0.5
100
AcDbLine
 10
2.72241973877
 20
2.466857910156001
 30
0.0
 11
3.427131652829999
 21
2.875484466552997
 31
0.0
  0
LINE
  5
2279
330
21A9
100
AcDbEntity
  8
AM_0
 48
0.5
100
AcDbLine
 10
4.791801452640001
 20
1.313304901122997
 30
0.0
 11
4.760795593259999
 21
1.399124145507997
 31
0.0
  0
LINE
  5
227A
330
21A9
100
AcDbEntity
  8
AM_0
 48
0.5
100
AcDbLine
 10
4.68473815918
 20
1.444862365722997
 30
0.0
 11
4.818939208990002
 21
1.364177703857997
 31
0.0
  0
LINE
  5
227B
330
21A9
100
AcDbEntity
  8
AM_0
 48
0.5
100
AcDbLine
 10
3.112213134770001
 20
3.246360778808998
 30
0.0
 11
4.680404663090001
 21
1.448276519776001
 31
0.0
  0
LINE
  5
227C
330
21A9
100
AcDbEntity
  8
AM_0
 48
0.5
100
AcDbLine
 10
4.680435180670002
 20
1.448261260987003
 30
0.0
 11
4.682418823239999
 21
1.446449279784999
 31
0.0
  0
LINE
  5
227D
330
21A9
100
AcDbEntity
  8
AM_0
 48
0.5
100
AcDbLine
 10
4.684593200690002
 20
1.444877624512002
 30
0.0
 11
4.682388305670002
 21
1.446411132812997
 31
0.0
  0
LINE
  5
227E
330
21A9
100
AcDbEntity
  8
AM_0
 48
0.5
100
AcDbLine
 10
4.72747039795
 20
1.437480926513998
 30
0.0
 11
4.684661865240002
 21
1.444805145263998
 31
0.0
  0
LINE
  5
227F
330
21A9
100
AcDbEntity
  8
AM_0
 48
0.5
100
AcDbLine
 10
4.6845703125
 20
1.444873809815
 30
0.0
 11
4.72748565674
 21
1.437484741211001
 31
0.0
  0
LINE
  5
2280
330
21A9
100
AcDbEntity
  8
AM_0
 48
0.5
100
AcDbLine
 10
4.713294982909999
 20
1.504467010497997
 30
0.0
 11
4.954483032230001
 21
1.442638397217002
 31
0.0
  0
LINE
  5
2281
330
21A9
100
AcDbEntity
  8
AM_0
 48
0.5
100
AcDbLine
 10
4.887084960940001
 20
1.632686614989999
 30
0.0
 11
5.097091674810002
 21
1.526851654052997
 31
0.0
  0
LINE
  5
2282
330
21A9
100
AcDbEntity
  8
AM_0
 48
0.5
100
AcDbLine
 10
5.065231323239999
 20
1.740566253662002
 30
0.0
 11
5.223335266120002
 21
1.608421325683998
 31
0.0
  0
LINE
  5
2283
330
21A9
100
AcDbEntity
  8
AM_0
 48
0.5
100
AcDbLine
 10
5.27011871338
 20
1.854312896728998
 30
0.0
 11
5.37031555176
 21
1.697494506836001
 31
0.0
  0
LINE
  5
2284
330
21A9
100
AcDbEntity
  8
AM_0
 48
0.5
100
AcDbLine
 10
5.270080566410001
 20
1.854316711426001
 30
0.0
 11
5.241271972660001
 21
1.838020324707002
 31
0.0
  0
ARC
  5
2285
330
21A9
100
AcDbEntity
  8
AM_0
 48
0.5
100
AcDbCircle
 10
0.0
 20
0.0
 30
0.0
 40
10.500029563903
100
AcDbArc
 50
340.0111594033698
 51
20.66168082421905
  0
ARC
  5
2286
330
21A9
100
AcDbEntity
  8
AM_0
 48
0.5
100
AcDbCircle
 10
0.0
 20
0.0
 30
0.0
 40
9.7843647003174
100
AcDbArc
 50
343.4908966062272
 51
22.75315304997179
  0
ARC
  5
2287
330
21A9
100
AcDbEntity
  8
AM_0
 48
0.5
100
AcDbCircle
 10
0.0
 20
0.0
 30
0.0
 40
9.5726289749146
100
AcDbArc
 50
343.1655729885141
 51
22.6842774223777
  0
LINE
  5
2288
330
21A9
100
AcDbEntity
  8
AM_0
 48
0.5
100
AcDbLine
 10
9.798614501949998
 20
-3.141166687012002
 30
0.0
 11
9.867515563962001
 21
-3.589271545409999
 31
0.0
  0
LINE
  5
2289
330
21A9
100
AcDbEntity
  8
AM_0
 48
0.5
100
AcDbLine
 10
9.617095947262995
 20
-2.983837127684999
 30
0.0
 11
9.798591613767001
 21
-3.141132354736001
 31
0.0
  0
LINE
  5
228A
330
21A9
100
AcDbEntity
  8
AM_0
 48
0.5
100
AcDbLine
 10
9.380989074704004
 20
-2.780387878417997
 30
0.0
 11
9.510200500485993
 21
-2.891590118407997
 31
0.0
  0
LINE
  5
228B
330
21A9
100
AcDbEntity
  8
AM_0
 48
0.5
100
AcDbLine
 10
9.380996704099004
 20
-2.780387878417997
 30
0.0
 11
9.162414550779999
 21
-2.772270202637002
 31
0.0
  0
LINE
  5
228C
330
21A9
100
AcDbEntity
  8
AM_0
 48
0.5
100
AcDbLine
 10
9.820098876949998
 20
3.768333435058998
 30
0.0
 11
9.091598510739999
 21
5.979156494141001
 31
0.0
  0
LINE
  5
228D
330
21A9
100
AcDbEntity
  8
AM_0
 48
0.5
100
AcDbLine
 10
9.238006591800001
 20
4.1178855896
 30
0.0
 11
9.816421508785992
 21
3.770278930663998
 31
0.0
  0
LINE
  5
228E
330
21A9
100
AcDbEntity
  8
AM_0
 48
0.5
100
AcDbLine
 10
8.920715332029999
 20
3.995700836182003
 30
0.0
 11
8.864013671880002
 21
3.956756591797002
 31
0.0
  0
LINE
  5
228F
330
21A9
100
AcDbEntity
  8
AM_0
 48
0.5
100
AcDbLine
 10
6.848556518560002
 20
6.411525726318998
 30
0.0
 11
6.349250793460001
 21
2.503101348877002
 31
0.0
  0
LINE
  5
2290
330
21A9
100
AcDbEntity
  8
AM_0
 48
0.5
100
AcDbLine
 10
6.333114624030002
 20
2.262847900391001
 30
0.0
 11
8.941619873050001
 21
3.768829345702997
 31
0.0
  0
LINE
  5
2291
330
21A9
100
AcDbEntity
  8
AM_0
 48
0.5
100
AcDbLine
 10
8.83383178711
 20
3.937534332276001
 30
0.0
 11
6.349342346189999
 21
2.503147125243998
 31
0.0
  0
LINE
  5
2292
330
21A9
100
AcDbEntity
  8
AM_0
 48
0.5
100
AcDbLine
 10
6.232933044440002
 20
2.419631958007997
 30
0.0
 11
6.333137512210001
 21
2.262813568114999
 31
0.0
  0
LINE
  5
2293
330
21A9
100
AcDbEntity
  8
AM_0
 48
0.5
100
AcDbLine
 10
6.349143981940002
 20
2.503242492676001
 30
0.0
 11
6.232749938970002
 21
2.419746398926001
 31
0.0
  0
ARC
  5
2294
330
21A9
100
AcDbEntity
  8
AM_0
 48
0.5
100
AcDbCircle
 10
-0.1232910156199978
 20
-0.0075073242189987
 30
0.0
 40
10.406634330749
100
AcDbArc
 50
19.26650540321615
 51
19.52979212024937
  0
LINE
  5
2295
330
21A9
100
AcDbEntity
  8
AM_0
 48
0.5
100
AcDbLine
 10
9.022888183600002
 20
3.784248352051001
 30
0.0
 11
8.832092285160001
 21
3.691715240478998
 31
0.0
  0
LINE
  5
2296
330
21A9
100
AcDbEntity
  8
AM_0
 48
0.5
100
AcDbLine
 10
9.820121765134004
 20
3.768341064452997
 30
0.0
 11
9.818237304684998
 21
3.76974105835
 31
0.0
  0
LINE
  5
2297
330
21A9
100
AcDbEntity
  8
AM_0
 48
0.5
100
AcDbLine
 10
9.695800781247001
 20
3.480590820312997
 30
0.0
 11
9.661201477047995
 21
3.452632904052997
 31
0.0
  0
LINE
  5
2298
330
21A9
100
AcDbEntity
  8
AM_0
 48
0.5
100
AcDbLine
 10
9.818191528317996
 20
3.769767761231001
 30
0.0
 11
9.816291809079004
 21
3.770435333252002
 31
0.0
  0
LINE
  5
2299
330
21A9
100
AcDbEntity
  8
AM_0
 48
0.5
100
AcDbLine
 10
9.800857543942996
 20
3.730075836182003
 30
0.0
 11
9.816360473629998
 21
3.770351409912002
 31
0.0
  0
LINE
  5
229A
330
21A9
100
AcDbEntity
  8
AM_0
 48
0.5
100
AcDbLine
 10
9.720993041989999
 20
3.517841339112003
 30
0.0
 11
9.142807006840001
 21
3.865245819092002
 31
0.0
  0
LINE
  5
229B
330
21A9
100
AcDbEntity
  8
AM_0
 48
0.5
100
AcDbLine
 10
9.720993041989999
 20
3.517864227295
 30
0.0
 11
9.800880432125993
 21
3.730068206787002
 31
0.0
  0
LINE
  5
229C
330
21A9
100
AcDbEntity
  8
AM_0
 48
0.5
100
AcDbLine
 10
8.863914489750001
 20
3.956893920898998
 30
0.0
 11
8.833717346189999
 21
3.937606811523998
 31
0.0
  0
LINE
  5
229D
330
21A9
100
AcDbEntity
  8
AM_0
 48
0.5
100
AcDbLine
 10
8.041793823239999
 20
7.354030609131001
 30
0.0
 11
8.079399108890001
 21
7.361846923827997
 31
0.0
  0
LINE
  5
229E
330
21A9
100
AcDbEntity
  8
AM_0
 48
0.5
100
AcDbLine
 10
6.848587036129998
 20
6.411544799805
 30
0.0
 11
7.731689453130002
 21
7.13444519043
 31
0.0
  0
LINE
  5
229F
330
21A9
100
AcDbEntity
  8
AM_0
 48
0.5
100
AcDbLine
 10
9.08857727051
 20
5.983898162842002
 30
0.0
 11
9.09156036377
 21
5.979141235352003
 31
0.0
  0
LINE
  5
22A0
330
21A9
100
AcDbEntity
  8
AM_0
 48
0.5
100
AcDbLine
 10
9.23799133301
 20
4.117938995362003
 30
0.0
 11
9.233787536619999
 21
4.12215423584
 31
0.0
  0
LINE
  5
22A1
330
21A9
100
AcDbEntity
  8
AM_0
 48
0.5
100
AcDbLine
 10
-2.179000854489999
 20
10.056507110596
 30
0.0
 11
-1.825401306149998
 21
10.34020233154299
 31
0.0
  0
LINE
  5
22A2
330
21A9
100
AcDbEntity
  8
AM_0
 48
0.5
100
AcDbLine
 10
-2.28257751465
 20
9.514339447022003
 30
0.0
 11
-2.250885009759997
 21
9.681838989257997
 31
0.0
  0
LINE
  5
22A3
330
21A9
100
AcDbEntity
  8
AM_0
 48
0.5
100
AcDbLine
 10
-2.224365234369997
 20
9.820629119872997
 30
0.0
 11
-2.178871154779997
 21
10.05639266967799
 31
0.0
  0
LINE
  5
22A4
330
21A9
100
AcDbEntity
  8
AM_0
 48
0.5
100
AcDbLine
 10
-2.282608032219997
 20
9.514339447022003
 30
0.0
 11
-2.180320739739997
 21
9.321048736572002
 31
0.0
  0
ENDBLK
  5
22A6
330
21A9
100
AcDbEntity
  8
0
100
AcDbBlockEnd
  0
ENDSEC
  0
SECTION
  2
ENTITIES
  0
TEXT
  5
1142
330
1F
100
AcDbEntity
  8
AM_6
100
AcDbText
 10
-74.04761904761854
 20
-59.00008873803675
 30
0.0
 40
5.0
  1
WEM2022E
 72
     4
 11
-54.9999999999995
 21
-56.50008873803675
 31
0.0
100
AcDbText
  0
DIMENSION
  5
155D
330
1F
100
AcDbEntity
  8
AM_5
100
AcDbDimension
  2
*D5
 10
-29.99999237060499
 20
-26.50008873803681
 30
0.0
 11
-14.99999618530249
 21
-23.10008873803681
 31
0.0
 70
    32
  1
<>
  3
AM_JIS$0
100
AcDbAlignedDimension
 13
-0.0000000000000008
 23
-6.0
 33
0.0
 14
-29.99999237060499
 24
-9.499999999999982
 34
0.0
 50
0.0000000000001132
100
AcDbRotatedDimension
1001
ACAD
1000
DSTYLE
1002
{
1070
   171
1070
     0
1070
   271
1070
     0
1002
}
1001
GENIUS_GENDTOL_13
1000

1000
h7
1000

1040
0.0
  0
DIMENSION
  5
15E8
330
1F
100
AcDbEntity
  8
AM_5
100
AcDbDimension
  2
*D6
 10
-109.9999999999989
 20
-26.50008873803697
 30
0.0
 11
-69.999996185302
 21
-23.10008873803697
 31
0.0
 70
    32
  1
<>
  3
AM_JIS$0
100
AcDbAlignedDimension
 13
-29.99999237060499
 23
-9.499999999999982
 33
0.0
 14
-109.9999999999989
 24
-7.661499023436975
 34
0.0
 50
0.0000000000001132
100
AcDbRotatedDimension
1001
ACAD
1000
DSTYLE
1002
{
1070
   171
1070
     0
1070
   271
1070
     0
1002
}
1001
GENIUS_GENDTOL_13
1000

1000
h7
1000

1040
0.0
  0
DIMENSION
  5
1673
330
1F
100
AcDbEntity
  8
AM_5
100
AcDbDimension
  2
*D7
 10
-0.0000000000000027
 20
-36.50008873803675
 30
0.0
 11
-54.9999999999995
 21
-33.10008873803675
 31
0.0
 70
    32
  1
<>
  3
AM_JIS$0
100
AcDbAlignedDimension
 13
-109.9999999999989
 23
-7.661499023436975
 33
0.0
 14
-0.0000000000000009
 24
-7.918792724599995
 34
0.0
 50
0.0000000000001132
100
AcDbRotatedDimension
1001
ACAD
1000
DSTYLE
1002
{
1070
   171
1070
     0
1070
   271
1070
     0
1002
}
1001
GENIUS_GENDTOL_13
1000

1000
h7
1000

1040
0.0
  0
DIMENSION
  5
1895
330
1F
100
AcDbEntity
  8
AM_5
100
AcDbDimension
  2
*D8
 10
15.72850136621099
 20
11.00000000000002
 30
0.0
 11
12.32850136621099
 21
0.0000000000000225
 31
0.0
 70
    32
  1
%%c<>
  3
AM_JIS$0
100
AcDbAlignedDimension
 13
0.0000000000000064
 23
-10.99999999999997
 33
0.0
 14
0.0000000000000089
 24
11.00000000000002
 34
0.0
 50
90.00000000000003
100
AcDbRotatedDimension
1001
ACAD
1000
DSTYLE
1002
{
1070
   171
1070
     0
1070
   271
1070
     0
1002
}
1001
GENIUS_GENDTOL_13
1000

1000
h7
1000

1040
0.0
  0
DIMENSION
  5
1E16
330
1F
100
AcDbEntity
  8
AM_5
100
AcDbDimension
  2
*D9
 10
-126.7691480587334
 20
-12.49999999999995
 30
0.0
 11
-130.1691480587333
 21
0.0000000000000242
 31
0.0
 70
    32
  1
%%c<>
  3
AM_JIS$0
100
AcDbAlignedDimension
 13
-106.9999847412099
 23
12.50000000000003
 33
0.0
 14
-106.999961853026
 24
-12.49999999999996
 34
0.0
 50
270.0
100
AcDbRotatedDimension
1001
ACAD
1000
DSTYLE
1002
{
1070
   171
1070
     0
1070
   271
1070
     0
1002
}
1001
GENIUS_GENDTOL_13
1000

1000
h7
1000

1040
0.0
  0
LINE
  5
1FB9
330
1F
100
AcDbEntity
  8
AM_7
  6
AM_ISO08W050X2
100
AcDbLine
 10
-112.7691470587334
 20
0.0000000000000386
 30
0.0
 11
1.728500366211015
 21
0.0000000000000246
 31
0.0
  0
LINE
  5
1FBA
330
1F
100
AcDbEntity
  8
AM_0
100
AcDbLine
 10
-106.999999999999
 20
-12.49999999999996
 30
0.0
 11
-33.46409606933598
 21
-12.49999999999997
 31
0.0
  0
LINE
  5
1FBB
330
1F
100
AcDbEntity
  8
AM_0
100
AcDbLine
 10
-33.46409606933598
 20
12.50000000000002
 30
0.0
 11
-106.999999999999
 21
12.50000000000003
 31
0.0
  0
ELLIPSE
  5
1FBC
330
1F
100
AcDbEntity
  8
AM_0
100
AcDbEllipse
 10
-11.40299987792999
 20
0.0000000000000262
 30
0.0
 11
133.5428981939169
 21
-9.120784160439017
 31
0.0
210
0.0
220
0.0
230
1.0
 40
0.0388977583133
 41
4.632670931259291
 42
4.704118624507066
  0
ELLIPSE
  5
1FBD
330
1F
100
AcDbEntity
  8
AM_0
100
AcDbEllipse
 10
-12.19900512695299
 20
0.0000000000000263
 30
0.0
 11
11.51487800710799
 21
-10.492857719247
 31
0.0
210
0.0
220
0.0
230
1.0
 40
0.0340082115544
 41
3.102005900649043
 42
3.753690454890258
  0
SPLINE
  5
1FBE
330
1F
100
AcDbEntity
  8
AM_0
100
AcDbSpline
210
0.0
220
0.0
230
1.0
 70
     8
 71
     3
 72
    11
 73
     7
 74
     5
 42
0.0000000001
 43
0.0000000001
 44
0.0000000001
 40
0.0
 40
0.0
 40
0.0
 40
0.0
 40
1.280370579474105
 40
2.437528111600836
 40
3.489412646040785
 40
4.459819536118197
 40
4.459819536118197
 40
4.459819536118197
 40
4.459819536118197
 10
-17.50190734863299
 20
-10.49999999999997
 30
0.0
 10
-17.92917209750638
 20
-10.50591424552966
 30
0.0
 10
-18.74258491186733
 20
-10.51717359494666
 30
0.0
 10
-19.89928359644613
 20
-10.37346800432129
 30
0.0
 10
-20.93502917232567
 20
-10.11931327781151
 30
0.0
 10
-21.54141845849073
 20
-9.820919943592496
 30
0.0
 10
-21.83239746093799
 20
-9.677734374999971
 30
0.0
 11
-17.50190734863299
 21
-10.49999999999997
 31
0.0
 11
-18.78221130371098
 21
-10.48693847656297
 31
0.0
 11
-19.93070983886799
 21
-10.34564208984397
 31
0.0
 11
-20.94739532470698
 21
-10.07580566406297
 31
0.0
 11
-21.83239746093799
 21
-9.677734374999971
 31
0.0
  0
SPLINE
  5
1FBF
330
1F
100
AcDbEntity
  8
AM_0
100
AcDbSpline
210
0.0
220
0.0
230
1.0
 70
     8
 71
     3
 72
    11
 73
     7
 74
     5
 42
0.0000000001
 43
0.0000000001
 44
0.0000000001
 40
0.0
 40
0.0
 40
0.0
 40
0.0
 40
1.223008881925768
 40
2.404313773752485
 40
3.544036419020173
 40
4.642628481320029
 40
4.642628481320029
 40
4.642628481320029
 40
4.642628481320029
 10
-12.86260986328199
 20
-10.34008789062497
 30
0.0
 10
-13.26961544027424
 20
-10.36346772985881
 30
0.0
 10
-14.06974790800879
 20
-10.40943016752281
 30
0.0
 10
-15.25016418340658
 20
-10.45730347102997
 30
0.0
 10
-16.3896247758887
 20
-10.49007439134395
 30
0.0
 10
-17.13571647495152
 20
-10.49673224466995
 30
0.0
 10
-17.50190734863299
 20
-10.49999999999997
 30
0.0
 11
-12.86260986328199
 21
-10.34008789062497
 31
0.0
 11
-14.08380126953199
 21
-10.40673828124997
 31
0.0
 11
-15.26409912109399
 21
-10.45550537109397
 31
0.0
 11
-16.40339660644598
 21
-10.48663330078097
 31
0.0
 11
-17.50190734863299
 21
-10.49999999999997
 31
0.0
  0
SPLINE
  5
1FC0
330
1F
100
AcDbEntity
  8
AM_0
100
AcDbSpline
210
0.0
220
0.0
230
1.0
 70
     8
 71
     3
 72
    11
 73
     7
 74
     5
 42
0.0000000001
 43
0.0000000001
 44
0.0000000001
 40
0.0
 40
0.0
 40
0.0
 40
0.0
 40
0.6686770313617775
 40
1.210350609162358
 40
1.768911189652007
 40
2.407942912628277
 40
2.407942912628277
 40
2.407942912628277
 40
2.407942912628277
 10
-5.087310791015986
 20
8.726379394531026
 30
0.0
 10
-5.307959309644505
 20
8.65797669788856
 30
0.0
 10
-5.707348037546404
 20
8.534163195006684
 30
0.0
 10
-6.030337050320655
 20
7.997865078988809
 30
0.0
 10
-6.095828051585696
 20
7.398144805986779
 30
0.0
 10
-5.917538000052814
 20
7.03210809969485
 30
0.0
 10
-5.822402954101987
 20
6.836791992187028
 30
0.0
 11
-5.087310791015986
 21
8.726379394531026
 31
0.0
 11
-5.694808959960986
 21
8.446960449219023
 31
0.0
 11
-5.988601684570986
 21
7.991882324219024
 31
0.0
 11
-6.04420471191399
 21
7.436096191406027
 31
0.0
 11
-5.822402954101987
 21
6.836791992187028
 31
0.0
  0
ELLIPSE
  5
1FC1
330
1F
100
AcDbEntity
  8
AM_0
100
AcDbEllipse
 10
-4.72080993652399
 20
7.475585937500025
 30
0.0
 11
-0.9236297689029983
 21
-0.881408724650001
 31
0.0
210
0.0
220
0.0
230
1.0
 40
0.9559158600045
 41
6.036195286041038
 42
6.853166930497662
  0
SPLINE
  5
1FC2
330
1F
100
AcDbEntity
  8
AM_0
100
AcDbSpline
210
0.0
220
0.0
230
1.0
 70
     8
 71
     3
 72
    11
 73
     7
 74
     5
 42
0.0000000001
 43
0.0000000001
 44
0.0000000001
 40
0.0
 40
0.0
 40
0.0
 40
0.0
 40
0.2004453359663183
 40
0.3978016454080896
 40
0.595672572315455
 40
0.7975445091306987
 40
0.7975445091306987
 40
0.7975445091306987
 40
0.7975445091306987
 10
-9.915206909179993
 20
3.863281250000026
 30
0.0
 10
-9.981899599551724
 20
3.868827858965352
 30
0.0
 10
-10.11425719140422
 20
3.879835599116576
 30
0.0
 10
-10.30729290455365
 20
3.929569942185839
 30
0.0
 10
-10.49341163652434
 20
4.002214417294547
 30
0.0
 10
-10.60795638890248
 20
4.070700078727875
 30
0.0
 10
-10.66580200195299
 20
4.105285644531027
 30
0.0
 11
-9.915206909179993
 21
3.863281250000026
 31
0.0
 11
-10.11441040039098
 21
3.885559082031027
 31
0.0
 11
-10.30590820312499
 21
3.933288574219024
 31
0.0
 11
-10.48970031738299
 21
4.006591796875025
 31
0.0
 11
-10.66580200195299
 21
4.105285644531027
 31
0.0
  0
SPLINE
  5
1FC3
330
1F
100
AcDbEntity
  8
AM_0
100
AcDbSpline
210
0.0
220
0.0
230
1.0
 70
     8
 71
     3
 72
    11
 73
     7
 74
     5
 42
0.0000000001
 43
0.0000000001
 44
0.0000000001
 40
0.0
 40
0.0
 40
0.0
 40
0.0
 40
0.1479641754153562
 40
0.2937983617496015
 40
0.4390644987317022
 40
0.5851695585457703
 40
0.5851695585457703
 40
0.5851695585457703
 40
0.5851695585457703
 10
-9.34020996093799
 20
3.951354980469024
 30
0.0
 10
-9.387109200240104
 20
3.9359546657791
 30
0.0
 10
-9.480232550102217
 20
3.905375728589561
 30
0.0
 10
-9.624096097917455
 20
3.876923355413782
 30
0.0
 10
-9.769271713436387
 20
3.861043122751542
 30
0.0
 10
-9.866468560113213
 20
3.862533776941614
 30
0.0
 10
-9.915206909179993
 20
3.863281250000026
 30
0.0
 11
-9.34020996093799
 21
3.951354980469024
 31
0.0
 11
-9.481704711913991
 21
3.908081054687028
 31
0.0
 11
-9.624603271484993
 21
3.878967285156027
 31
0.0
 11
-9.769104003906988
 21
3.864074707031027
 31
0.0
 11
-9.915206909179993
 21
3.863281250000026
 31
0.0
  0
ELLIPSE
  5
1FC4
330
1F
100
AcDbEntity
  8
AM_0
100
AcDbEllipse
 10
-4.57960510253899
 20
4.114196777344024
 30
0.0
 11
1.499389639911001
 21
-0.0426024897000021
 31
0.0
210
0.0
220
0.0
230
0.9999999999999998
 40
0.1901815627407
 41
1.960944359535209
 42
3.064536478916175
  0
ELLIPSE
  5
1FC5
330
1F
100
AcDbEntity
  8
AM_0
100
AcDbEllipse
 10
-4.57960510253899
 20
4.114196777344024
 30
0.0
 11
1.499389639911001
 21
-0.0426024897000021
 31
0.0
210
0.0
220
0.0
230
0.9999999999999998
 40
0.1901815627407
 41
0.2150637215954514
 42
1.32596175060827
  0
SPLINE
  5
1FC6
330
1F
100
AcDbEntity
  8
AM_0
100
AcDbSpline
210
0.0
220
0.0
230
1.0
 70
     8
 71
     3
 72
    11
 73
     7
 74
     5
 42
0.0000000001
 43
0.0000000001
 44
0.0000000001
 40
0.0
 40
0.0
 40
0.0
 40
0.0
 40
0.1714682386865169
 40
0.5004779314152759
 40
0.8823754717485453
 40
1.281272603219901
 40
1.281272603219901
 40
1.281272603219901
 40
1.281272603219901
 10
-23.67589569091799
 20
10.49816894531202
 30
0.0
 10
-23.61891427162959
 20
10.49364725497456
 30
0.0
 10
-23.45259808926824
 20
10.48044943919288
 30
0.0
 10
-23.15857023806631
 20
10.47024462746993
 30
0.0
 10
-22.78875454932131
 20
10.46074184354405
 30
0.0
 10
-22.52847392945758
 20
10.46115411986124
 30
0.0
 10
-22.39550018310598
 20
10.46136474609402
 30
0.0
 11
-23.67589569091799
 21
10.49816894531202
 31
0.0
 11
-23.50489807128899
 21
10.48547363281202
 31
0.0
 11
-23.17619323730499
 21
10.47131347656202
 31
0.0
 11
-22.79439544677799
 21
10.46258544921902
 31
0.0
 11
-22.39550018310598
 21
10.46136474609402
 31
0.0
  0
ELLIPSE
  5
1FC7
330
1F
100
AcDbEntity
  8
AM_0
100
AcDbEllipse
 10
-11.40299987792999
 20
0.0000000000000262
 30
0.0
 11
-133.5429780065019
 21
-0.040039059911981
 31
0.0
210
0.0
220
0.0
230
1.0
 40
0.078625455374
 41
4.723302569939212
 42
4.79478232992259
  0
SPLINE
  5
1FC8
330
1F
100
AcDbEntity
  8
AM_0
100
AcDbSpline
210
0.0
220
0.0
230
1.0
 70
     8
 71
     3
 72
    11
 73
     7
 74
     5
 42
0.0000000001
 43
0.0000000001
 44
0.0000000001
 40
0.0
 40
0.0
 40
0.0
 40
0.0
 40
2.736038275404415
 40
5.462207446725338
 40
8.035111845267895
 40
10.29195899408744
 40
10.29195899408744
 40
10.29195899408744
 40
10.29195899408744
 10
-12.86260986328199
 20
3.589294433594025
 30
0.0
 10
-13.74999526039113
 20
3.810186502527733
 30
0.0
 10
-15.52156518606713
 20
4.251173865423425
 30
0.0
 10
-17.94080936616281
 20
5.431181019699254
 30
0.0
 10
-20.08785816722991
 20
6.766967240395513
 30
0.0
 10
-21.27681943263365
 20
7.857071137971001
 30
0.0
 10
-21.83239746093799
 20
8.366455078125028
 30
0.0
 11
-12.86260986328199
 21
3.589294433594025
 31
0.0
 11
-15.49290466308598
 21
4.342590332031027
 31
0.0
 11
-17.96321105957098
 21
5.495666503906027
 31
0.0
 11
-20.12561035156299
 21
6.889892578125027
 31
0.0
 11
-21.83239746093799
 21
8.366455078125028
 31
0.0
  0
SPLINE
  5
1FC9
330
1F
100
AcDbEntity
  8
AM_0
100
AcDbSpline
210
0.0
220
0.0
230
1.0
 70
     8
 71
     3
 72
    11
 73
     7
 74
     5
 42
0.0000000001
 43
0.0000000001
 44
0.0000000001
 40
0.0
 40
0.0
 40
0.0
 40
0.0
 40
0.3065556150947033
 40
0.5665100639634936
 40
0.739547530700333
 40
0.8006158982058146
 40
0.8006158982058146
 40
0.8006158982058146
 40
0.8006158982058146
 10
-1.388397216796995
 20
3.591064453125024
 30
0.0
 10
-1.395560792976785
 20
3.489090187765512
 30
0.0
 10
-1.408798971630163
 20
3.300643313048829
 30
0.0
 10
-1.419045673118095
 20
3.054701406780049
 30
0.0
 10
-1.432098152100733
 20
2.889692751299874
 30
0.0
 10
-1.423372862815524
 20
2.812060160385096
 30
0.0
 10
-1.421096801757989
 20
2.791809082031026
 30
0.0
 11
-1.388397216796995
 21
3.591064453125024
 31
0.0
 11
-1.408309936523984
 21
3.285156250000024
 31
0.0
 11
-1.422210693359992
 21
3.025573730469023
 31
0.0
 11
-1.426910400390986
 21
2.852600097656026
 31
0.0
 11
-1.421096801757989
 21
2.791809082031026
 31
0.0
  0
ELLIPSE
  5
1FCA
330
1F
100
AcDbEntity
  8
AM_0
100
AcDbEllipse
 10
-12.19900131225598
 20
0.0000000000000263
 30
0.0
 11
-10.51426357374299
 21
-8.908325429808995
 31
0.0
210
0.0
220
0.0
230
1.0
 40
0.5286141162951
 41
5.774980954686467
 42
6.442629994693312
  0
SPLINE
  5
1FCB
330
1F
100
AcDbEntity
  8
AM_0
100
AcDbSpline
210
0.0
220
0.0
230
1.0
 70
     8
 71
     3
 72
    11
 73
     7
 74
     5
 42
0.0000000001
 43
0.0000000001
 44
0.0000000001
 40
0.0
 40
0.0
 40
0.0
 40
0.0
 40
1.326114317609778
 40
2.583336506567479
 40
3.885913723146538
 40
5.207998055982958
 40
5.207998055982958
 40
5.207998055982958
 40
5.207998055982958
 10
-3.565597534179992
 20
1.833984375000025
 30
0.0
 10
-3.632366500177139
 20
1.402607730622514
 30
0.0
 10
-3.76243575972415
 20
0.5622646178887586
 30
0.0
 10
-5.113480725541355
 20
-0.5268875321685556
 30
0.0
 10
-6.012298408854933
 20
0.9314925725135861
 30
0.0
 10
-6.032583151469432
 20
1.774189437934564
 30
0.0
 10
-6.042800903320987
 20
2.198669433594024
 30
0.0
 11
-3.565597534179992
 21
1.833984375000025
 31
0.0
 11
-3.96830749511799
 21
0.570495605469024
 31
0.0
 11
-5.02600097656299
 21
-0.1091308593749746
 31
0.0
 11
-5.863098144531988
 21
0.888854980469024
 31
0.0
 11
-6.042800903320987
 21
2.198669433594024
 31
0.0
  0
SPLINE
  5
1FCC
330
1F
100
AcDbEntity
  8
AM_0
100
AcDbSpline
210
0.0
220
0.0
230
1.0
 70
     8
 71
     3
 72
    11
 73
     7
 74
     5
 42
0.0000000001
 43
0.0000000001
 44
0.0000000001
 40
0.0
 40
0.0
 40
0.0
 40
0.0
 40
0.2066913842556136
 40
0.4127549037884995
 40
0.6174145951039121
 40
0.8205492376455691
 40
0.8205492376455691
 40
0.8205492376455691
 40
0.8205492376455691
 10
-6.042800903320987
 20
2.198669433594024
 30
0.0
 10
-6.034992047490993
 20
2.267171953192236
 30
0.0
 10
-6.019398056728312
 20
2.403968902846717
 30
0.0
 10
-5.973615440456952
 20
2.604941105992844
 30
0.0
 10
-5.911422335835945
 20
2.80046402441977
 30
0.0
 10
-5.852002008961689
 20
2.92289844533985
 30
0.0
 10
-5.822402954101988
 20
2.983886718750025
 30
0.0
 11
-6.042800903320987
 21
2.198669433594024
 31
0.0
 11
-6.015609741210987
 21
2.403564453125025
 31
0.0
 11
-5.970703124999992
 21
2.604675292969024
 31
0.0
 11
-5.906707763671988
 21
2.799072265625025
 31
0.0
 11
-5.822402954101988
 21
2.983886718750025
 31
0.0
  0
SPLINE
  5
1FCD
330
1F
100
AcDbEntity
  8
AM_0
100
AcDbSpline
210
0.0
220
0.0
230
1.0
 70
     8
 71
     3
 72
    11
 73
     7
 74
     5
 42
0.0000000001
 43
0.0000000001
 44
0.0000000001
 40
0.0
 40
0.0
 40
0.0
 40
0.0
 40
0.2706806929250664
 40
0.5378156467164149
 40
0.8051981382303537
 40
1.076899968515102
 40
1.076899968515102
 40
1.076899968515102
 40
1.076899968515102
 10
-3.708206176757989
 20
2.891601562500025
 30
0.0
 10
-3.678122210342034
 20
2.80641294973873
 30
0.0
 10
-3.618348357693181
 20
2.637151639040912
 30
0.0
 10
-3.568155751906654
 20
2.372625387191967
 30
0.0
 10
-3.546495289807914
 20
2.103920570072242
 30
0.0
 10
-3.55919619796439
 20
1.924442454572251
 30
0.0
 10
-3.565597534179992
 20
1.833984375000025
 30
0.0
 11
-3.708206176757989
 21
2.891601562500025
 31
0.0
 11
-3.624603271484992
 21
2.634155273437027
 31
0.0
 11
-3.572906494140986
 21
2.372070312500025
 31
0.0
 11
-3.553298950195987
 21
2.105407714844024
 31
0.0
 11
-3.565597534179992
 21
1.833984375000025
 31
0.0
  0
SPLINE
  5
1FCE
330
1F
100
AcDbEntity
  8
AM_0
100
AcDbSpline
210
0.0
220
0.0
230
1.0
 70
     8
 71
     3
 72
    11
 73
     7
 74
     5
 42
0.0000000001
 43
0.0000000001
 44
0.0000000001
 40
0.0
 40
0.0
 40
0.0
 40
0.0
 40
0.1804343633651529
 40
0.3697778258651294
 40
0.5653335843992032
 40
0.7644910456989269
 40
0.7644910456989269
 40
0.7644910456989269
 40
0.7644910456989269
 10
-23.67589569091799
 20
-5.077087402343971
 30
0.0
 10
-23.66093594216279
 20
-5.017998734812548
 30
0.0
 10
-23.63027779441855
 20
-4.896903846868069
 30
0.0
 10
-23.50107614717861
 20
-4.75226298127462
 30
0.0
 10
-23.34314237895518
 20
-4.637231570747387
 30
0.0
 10
-23.22207934299171
 20
-4.584600230510845
 30
0.0
 10
-23.16099548339899
 20
-4.558044433593971
 30
0.0
 11
-23.67589569091799
 21
-5.077087402343971
 31
0.0
 11
-23.61819458007798
 21
-4.906127929687969
 31
0.0
 11
-23.49859619140699
 21
-4.759338378905973
 31
0.0
 11
-23.34059906005899
 21
-4.644104003905973
 31
0.0
 11
-23.16099548339899
 21
-4.558044433593971
 31
0.0
  0
SPLINE
  5
1FCF
330
1F
100
AcDbEntity
  8
AM_0
100
AcDbSpline
210
0.0
220
0.0
230
1.0
 70
     8
 71
     3
 72
    11
 73
     7
 74
     5
 42
0.0000000001
 43
0.0000000001
 44
0.0000000001
 40
0.0
 40
0.0
 40
0.0
 40
0.0
 40
0.1930493659620782
 40
0.3856845419355613
 40
0.580170379122351
 40
0.7788162697749735
 40
0.7788162697749735
 40
0.7788162697749735
 40
0.7788162697749735
 10
-23.16099548339899
 20
-4.558044433593971
 30
0.0
 10
-23.10003780876537
 20
-4.53719819731742
 30
0.0
 10
-22.97825324500181
 20
-4.495550450642192
 30
0.0
 10
-22.78770675448745
 20
-4.459519159121754
 30
0.0
 10
-22.59275949801532
 20
-4.441921487275569
 30
0.0
 10
-22.46171551649345
 20
-4.447945095179089
 30
0.0
 10
-22.39550018310598
 20
-4.450988769530973
 30
0.0
 11
-23.16099548339899
 21
-4.558044433593971
 31
0.0
 11
-22.97689819335999
 21
-4.499938964843971
 31
0.0
 11
-22.78789520263698
 21
-4.462707519530973
 31
0.0
 11
-22.59409332275399
 21
-4.446411132812969
 31
0.0
 11
-22.39550018310598
 21
-4.450988769530973
 31
0.0
  0
ELLIPSE
  5
1FD0
330
1F
100
AcDbEntity
  8
AM_0
100
AcDbEllipse
 10
-11.18920898437499
 20
-0.1115112304689725
 30
0.0
 11
1.944518885462806
 21
10.38519278283856
 31
0.0
210
0.0
220
0.0
230
1.0
 40
0.2470737188178085
 41
4.184261351165372
 42
4.366438250612284
  0
ELLIPSE
  5
1FD1
330
1F
100
AcDbEntity
  8
AM_0
100
AcDbEllipse
 10
-10.89179992675799
 20
-0.0015869140629712
 30
0.0
 11
-0.0269473333699976
 21
-10.378967588939
 31
0.0
210
0.0
220
0.0
230
1.0
 40
0.1538012512527
 41
1.166752934605946
 42
1.23495069708849
  0
ELLIPSE
  5
1FD2
330
1F
100
AcDbEntity
  8
AM_0
100
AcDbEllipse
 10
-207.6186981201129
 20
15.12808227539005
 30
0.0
 11
285.0406722490398
 21
-19.46786001869303
 31
0.0
210
0.0
220
0.0
230
1.0
 40
0.0244434429119
 41
5.482446393099097
 42
5.52381161584768
  0
SPLINE
  5
1FD3
330
1F
100
AcDbEntity
  8
AM_0
100
AcDbSpline
210
0.0
220
0.0
230
1.0
 70
     8
 71
     3
 72
    11
 73
     7
 74
     5
 42
0.0000000001
 43
0.0000000001
 44
0.0000000001
 40
0.0
 40
0.0
 40
0.0
 40
0.0
 40
1.064236710360288
 40
2.137049781094543
 40
3.209589294628591
 40
4.273247561772834
 40
4.273247561772834
 40
4.273247561772834
 40
4.273247561772834
 10
-5.122299194335986
 20
8.983764648437027
 30
0.0
 10
-4.763477876446742
 20
8.879550834888432
 30
0.0
 10
-4.042943608663719
 20
8.670283380324065
 30
0.0
 10
-3.642492594566909
 20
7.517414985030424
 30
0.0
 10
-4.142597712918632
 20
6.40465258717173
 30
0.0
 10
-4.878223249793927
 20
6.258949854050685
 30
0.0
 10
-5.244506835937989
 20
6.186401367187028
 30
0.0
 11
-5.122299194335986
 21
8.983764648437027
 31
0.0
 11
-4.158401489257989
 21
8.532653808594023
 31
0.0
 11
-3.792999267577989
 21
7.523986816406027
 31
0.0
 11
-4.245498657226987
 21
6.551574707031027
 31
0.0
 11
-5.244506835937989
 21
6.186401367187028
 31
0.0
  0
SPLINE
  5
1FD4
330
1F
100
AcDbEntity
  8
AM_0
100
AcDbSpline
210
0.0
220
0.0
230
1.0
 70
     8
 71
     3
 72
    11
 73
     7
 74
     5
 42
0.0000000001
 43
0.0000000001
 44
0.0000000001
 40
0.0
 40
0.0
 40
0.0
 40
0.0
 40
1.330754836502658
 40
2.67228903397644
 40
4.009770333031276
 40
5.351190876252641
 40
5.351190876252641
 40
5.351190876252641
 40
5.351190876252641
 10
-5.28070068359399
 20
9.341003417969023
 30
0.0
 10
-5.738215324650777
 20
9.249266208263943
 30
0.0
 10
-6.656950560205398
 20
9.065048700442028
 30
0.0
 10
-7.289787410497094
 20
7.679997216392769
 30
0.0
 10
-6.792450916789869
 20
6.232401366551688
 30
0.0
 10
-5.886867946077782
 20
5.973793424841137
 30
0.0
 10
-5.433410644531988
 20
5.844299316406027
 30
0.0
 11
-5.28070068359399
 21
9.341003417969023
 31
0.0
 11
-6.529998779296987
 21
8.882568359375024
 31
0.0
 11
-7.101303100585986
 21
7.668762207031027
 31
0.0
 11
-6.649810791015986
 21
6.409790039062028
 31
0.0
 11
-5.433410644531988
 21
5.844299316406027
 31
0.0
  0
SPLINE
  5
1FD5
330
1F
100
AcDbEntity
  8
AM_0
100
AcDbSpline
210
0.0
220
0.0
230
1.0
 70
     8
 71
     3
 72
    11
 73
     7
 74
     5
 42
0.0000000001
 43
0.0000000001
 44
0.0000000001
 40
0.0
 40
0.0
 40
0.0
 40
0.0
 40
1.341540723058753
 40
2.678085616302482
 40
4.020252315442359
 40
5.347494296131136
 40
5.347494296131136
 40
5.347494296131136
 40
5.347494296131136
 10
-5.433410644531988
 20
5.844299316406027
 30
0.0
 10
-4.97025141965894
 20
5.93409200836035
 30
0.0
 10
-4.045657751445717
 20
6.113343008824704
 30
0.0
 10
-3.427461212095176
 20
7.513063895371056
 30
0.0
 10
-3.935892272142447
 20
8.946681721035137
 30
0.0
 10
-4.834105188697573
 20
9.21005369168013
 30
0.0
 10
-5.28070068359399
 20
9.341003417969023
 30
0.0
 11
-5.433410644531988
 21
5.844299316406027
 31
0.0
 11
-4.172607421874992
 21
6.302673339844024
 31
0.0
 11
-3.615509033202989
 21
7.517578125000024
 31
0.0
 11
-4.07920837402399
 21
8.777099609375024
 31
0.0
 11
-5.28070068359399
 21
9.341003417969023
 31
0.0
  0
SPLINE
  5
1FD6
330
1F
100
AcDbEntity
  8
AM_0
100
AcDbSpline
210
0.0
220
0.0
230
1.0
 70
     8
 71
     3
 72
    11
 73
     7
 74
     5
 42
0.0000000001
 43
0.0000000001
 44
0.0000000001
 40
0.0
 40
0.0
 40
0.0
 40
0.0
 40
2.223022419095502
 40
4.445482293232531
 40
6.667356331110008
 40
8.88867937327125
 40
8.88867937327125
 40
8.88867937327125
 40
8.88867937327125
 10
-10.42570495605499
 20
4.510803222656027
 30
0.0
 10
-9.68491140403751
 20
4.492992732174915
 30
0.0
 10
-8.203511760855107
 20
4.457376258230496
 30
0.0
 10
-5.981604118903805
 20
4.408139471006981
 30
0.0
 10
-3.760206707898947
 20
4.361519364019139
 30
0.0
 10
-2.279413209716929
 20
4.333111074650726
 30
0.0
 10
-1.539108276367989
 20
4.318908691406026
 30
0.0
 11
-10.42570495605499
 21
4.510803222656027
 31
0.0
 11
-8.203308105468991
 21
4.458068847656027
 31
0.0
 11
-5.981399536132989
 21
4.408569335937028
 31
0.0
 11
-3.760009765624992
 21
4.362182617187028
 31
0.0
 11
-1.539108276367989
 21
4.318908691406026
 31
0.0
  0
SPLINE
  5
1FD7
330
1F
100
AcDbEntity
  8
AM_0
100
AcDbSpline
210
0.0
220
0.0
230
1.0
 70
     8
 71
     3
 72
    11
 73
     7
 74
     5
 42
0.0000000001
 43
0.0000000001
 44
0.0000000001
 40
0.0
 40
0.0
 40
0.0
 40
0.0
 40
0.2882806927849446
 40
0.5748038630355321
 40
0.8598892857560509
 40
1.143920938619002
 40
1.143920938619002
 40
1.143920938619002
 40
1.143920938619002
 10
-1.539108276367989
 20
4.318908691406026
 30
0.0
 10
-1.442122309469065
 20
4.325404539334417
 30
0.0
 10
-1.248741657108396
 20
4.338356632819625
 30
0.0
 10
-0.992503055426706
 20
4.483591827933327
 30
0.0
 10
-0.7961099667456029
 20
4.702234813872554
 30
0.0
 10
-0.7465405667693711
 20
4.887838658521416
 30
0.0
 10
-0.7218017578129898
 20
4.980468750000024
 30
0.0
 11
-1.539108276367989
 21
4.318908691406026
 31
0.0
 11
-1.253707885742989
 21
4.359558105469023
 31
0.0
 11
-1.001907348632989
 21
4.496276855469023
 31
0.0
 11
-0.8162078857429898
 21
4.712585449219023
 31
0.0
 11
-0.7218017578129898
 21
4.980468750000024
 31
0.0
  0
SPLINE
  5
1FD8
330
1F
100
AcDbEntity
  8
AM_0
100
AcDbSpline
210
0.0
220
0.0
230
1.0
 70
     8
 71
     3
 72
    11
 73
     7
 74
     5
 42
0.0000000001
 43
0.0000000001
 44
0.0000000001
 40
0.0
 40
0.0
 40
0.0
 40
0.0
 40
1.051263298020017
 40
2.102526596039049
 40
3.153912864298169
 40
4.205463845057463
 40
4.205463845057463
 40
4.205463845057463
 40
4.205463845057463
 10
-0.7218017578129898
 20
4.980468750000024
 30
0.0
 10
-0.668435983997037
 20
5.32680246346907
 30
0.0
 10
-0.5617044363651815
 20
6.019469890406833
 30
0.0
 10
-0.4016135126371702
 20
7.058513489473474
 30
0.0
 10
-0.2414574182539094
 20
8.09764407647906
 30
0.0
 10
-0.1348200517961934
 20
8.790464507425523
 30
0.0
 10
-0.081497192382989
 20
9.136901855469023
 30
0.0
 11
-0.7218017578129898
 21
4.980468750000024
 31
0.0
 11
-0.5617065429689837
 21
6.019470214844023
 31
0.0
 11
-0.401611328124992
 21
7.058471679687027
 31
0.0
 11
-0.2415008544929894
 21
8.097595214844023
 31
0.0
 11
-0.081497192382989
 21
9.136901855469023
 31
0.0
  0
SPLINE
  5
1FD9
330
1F
100
AcDbEntity
  8
AM_0
100
AcDbSpline
210
0.0
220
0.0
230
1.0
 70
     8
 71
     3
 72
    11
 73
     7
 74
     5
 42
0.0000000001
 43
0.0000000001
 44
0.0000000001
 40
0.0
 40
0.0
 40
0.0
 40
0.0
 40
0.1144432779707252
 40
0.2296548635586028
 40
0.3452786908315483
 40
0.4605729741413863
 40
0.4605729741413863
 40
0.4605729741413863
 40
0.4605729741413863
 10
0.0000000000000084
 20
10.26306152343702
 30
0.0
 10
-0.0002496397189239
 20
10.3014754183883
 30
0.0
 10
-0.0007505950970534
 20
10.37856109751439
 30
0.0
 10
-0.0424212627841199
 20
10.48813073659258
 30
0.0
 10
-0.1133233301296472
 20
10.58239647128325
 30
0.0
 10
-0.1802114541847285
 20
10.62180389804005
 30
0.0
 10
-0.2136077880859859
 20
10.64147949218702
 30
0.0
 11
0.0000000000000084
 21
10.26306152343702
 31
0.0
 11
-0.0075073242189832
 21
10.37725830078102
 31
0.0
 11
-0.0472106933599919
 21
10.48541259765602
 31
0.0
 11
-0.1183013916019946
 21
10.57659912109402
 31
0.0
 11
-0.2136077880859859
 21
10.64147949218702
 31
0.0
  0
SPLINE
  5
1FDA
330
1F
100
AcDbEntity
  8
AM_0
100
AcDbSpline
210
0.0
220
0.0
230
1.0
 70
     8
 71
     3
 72
    11
 73
     7
 74
     5
 42
0.0000000001
 43
0.0000000001
 44
0.0000000001
 40
0.0
 40
0.0
 40
0.0
 40
0.0
 40
2.178081745242204
 40
4.359141169630043
 40
6.543365955322651
 40
8.73067059067171
 40
8.73067059067171
 40
8.73067059067171
 40
8.73067059067171
 10
-9.094497680663989
 20
10.86285400390602
 30
0.0
 10
-8.368597053104609
 20
10.84928718750149
 30
0.0
 10
-6.915803411375383
 20
10.82213500735077
 30
0.0
 10
-4.735141689145925
 20
10.77728092162927
 30
0.0
 10
-2.551463248496584
 20
10.72967489910421
 30
0.0
 10
-1.094695825751431
 20
10.69513737408714
 30
0.0
 10
-0.3657989501959862
 20
10.67785644531202
 30
0.0
 11
-9.094497680663989
 21
10.86285400390602
 31
0.0
 11
-6.916809082031988
 21
10.82147216796902
 31
0.0
 11
-4.736206054687989
 21
10.77685546875002
 31
0.0
 11
-2.55250549316399
 21
10.72900390625002
 31
0.0
 11
-0.3657989501959862
 21
10.67785644531202
 31
0.0
  0
SPLINE
  5
1FDB
330
1F
100
AcDbEntity
  8
AM_0
100
AcDbSpline
210
0.0
220
0.0
230
1.0
 70
     8
 71
     3
 72
    11
 73
     7
 74
     5
 42
0.0000000001
 43
0.0000000001
 44
0.0000000001
 40
0.0
 40
0.0
 40
0.0
 40
0.0
 40
0.2876915580063973
 40
0.5765333596471008
 40
0.8648978362303918
 40
1.151010351103215
 40
1.151010351103215
 40
1.151010351103215
 40
1.151010351103215
 10
-9.094497680663989
 20
10.86285400390602
 30
0.0
 10
-9.191253421640372
 20
10.85623319319584
 30
0.0
 10
-9.385151750798218
 20
10.84296510055947
 30
0.0
 10
-9.643125706372073
 20
10.6978254991771
 30
0.0
 10
-9.844103005670493
 20
10.48045539028104
 30
0.0
 10
-9.89877920038624
 20
10.29451169362907
 30
0.0
 10
-9.926010131835985
 20
10.20190429687502
 30
0.0
 11
-9.094497680663989
 21
10.86285400390602
 31
0.0
 11
-9.379302978515985
 21
10.82220458984402
 31
0.0
 11
-9.633804321288989
 21
10.68560791015602
 31
0.0
 11
-9.824707031249991
 21
10.46948242187502
 31
0.0
 11
-9.926010131835985
 21
10.20190429687502
 31
0.0
  0
SPLINE
  5
1FDC
330
1F
100
AcDbEntity
  8
AM_0
100
AcDbSpline
210
0.0
220
0.0
230
1.0
 70
     8
 71
     3
 72
    11
 73
     7
 74
     5
 42
0.0000000001
 43
0.0000000001
 44
0.0000000001
 40
0.0
 40
0.0
 40
0.0
 40
0.0
 40
1.054433453061846
 40
2.109030880084834
 40
3.163729522562645
 40
4.218332978540836
 40
4.218332978540836
 40
4.218332978540836
 40
4.218332978540836
 10
-9.926010131835985
 20
10.20190429687502
 30
0.0
 10
-9.988351164420333
 20
9.855999320925231
 30
0.0
 10
-10.11304292418476
 20
9.164135577666009
 30
0.0
 10
-10.2999315344031
 20
8.126251065124582
 30
0.0
 10
-10.48674584204055
 20
7.088295592780359
 30
0.0
 10
-10.61112336905686
 20
6.396283433946633
 30
0.0
 10
-10.67330932617198
 20
6.050292968750025
 30
0.0
 11
-9.926010131835985
 21
10.20190429687502
 31
0.0
 11
-10.11300659179698
 21
9.164184570312029
 31
0.0
 11
-10.29991149902399
 21
8.126281738281027
 31
0.0
 11
-10.48670959472698
 21
7.088256835937028
 31
0.0
 11
-10.67330932617198
 21
6.050292968750025
 31
0.0
  0
SPLINE
  5
1FDD
330
1F
100
AcDbEntity
  8
AM_0
100
AcDbSpline
210
0.0
220
0.0
230
1.0
 70
     8
 71
     3
 72
    11
 73
     7
 74
     5
 42
0.0000000001
 43
0.0000000001
 44
0.0000000001
 40
0.0
 40
0.0
 40
0.0
 40
0.0
 40
0.1142324598832672
 40
0.2284326665288838
 40
0.3427896995870529
 40
0.4572528972888605
 40
0.4572528972888605
 40
0.4572528972888605
 40
0.4572528972888605
 10
-10.78320312499999
 20
4.925292968750025
 30
0.0
 10
-10.78393201554038
 20
4.88694768807474
 30
0.0
 10
-10.78538959082081
 20
4.810267953414339
 30
0.0
 10
-10.74625328341295
 20
4.700602412928799
 30
0.0
 10
-10.67722141794938
 20
4.606092832579287
 30
0.0
 10
-10.61102496157104
 20
4.566823801202896
 30
0.0
 10
-10.57791137695299
 20
4.547180175781027
 30
0.0
 11
-10.78320312499999
 21
4.925292968750025
 31
0.0
 11
-10.77850341796899
 21
4.811157226562028
 31
0.0
 11
-10.74130249023499
 21
4.703186035156027
 31
0.0
 11
-10.67221069335999
 21
4.612060546875025
 31
0.0
 11
-10.57791137695299
 21
4.547180175781027
 31
0.0
  0
SPLINE
  5
1FDE
330
1F
100
AcDbEntity
  8
AM_0
100
AcDbSpline
210
0.0
220
0.0
230
1.0
 70
     8
 71
     3
 72
    11
 73
     7
 74
     5
 42
0.0000000001
 43
0.0000000001
 44
0.0000000001
 40
0.0
 40
0.0
 40
0.0
 40
0.0
 40
0.0260592242503844
 40
0.0531885831037856
 40
0.0817346129619526
 40
0.1119928532314952
 40
0.1119928532314952
 40
0.1119928532314952
 40
0.1119928532314952
 10
-0.912597656249993
 20
-1.838012695312972
 30
0.0
 10
-0.9152828962021215
 20
-1.829742915234921
 30
0.0
 10
-0.9207636467791566
 20
-1.812863752574315
 30
0.0
 10
-0.9327083902470592
 20
-1.788283915440818
 30
0.0
 10
-0.9479043446396781
 20
-1.763939572473517
 30
0.0
 10
-0.9599853814050954
 20
-1.74848951171883
 30
0.0
 10
-0.9662017822269961
 20
-1.740539550780976
 30
0.0
 11
-0.912597656249993
 21
-1.838012695312972
 31
0.0
 11
-0.9212036132819962
 21
-1.813415527343973
 31
0.0
 11
-0.9329071044929905
 21
-1.788940429687972
 31
0.0
 11
-0.947998046874993
 21
-1.764709472655976
 31
0.0
 11
-0.9662017822269961
 21
-1.740539550780976
 31
0.0
  0
SPLINE
  5
1FDF
330
1F
100
AcDbEntity
  8
AM_0
100
AcDbSpline
210
0.0
220
0.0
230
1.0
 70
     8
 71
     3
 72
    11
 73
     7
 74
     5
 42
0.0000000001
 43
0.0000000001
 44
0.0000000001
 40
0.0
 40
0.0
 40
0.0
 40
0.0
 40
0.072229582587547
 40
0.1482941609038841
 40
0.2358367806705626
 40
0.3363081981715252
 40
0.3363081981715252
 40
0.3363081981715252
 40
0.3363081981715252
 10
0.0000000000000062
 20
-7.134399414062972
 30
0.0
 10
-0.0002858755507783
 20
-7.158910628029477
 30
0.0
 10
-0.0008728050803122
 20
-7.209234467344106
 30
0.0
 10
-0.0463828512945687
 20
-7.277901728083629
 30
0.0
 10
-0.1200645973390942
 20
-7.329092364736354
 30
0.0
 10
-0.1810293103272328
 20
-7.345327912896982
 30
0.0
 10
-0.2136077880859881
 20
-7.354003906249975
 30
0.0
 11
0.0000000000000062
 21
-7.134399414062972
 31
0.0
 11
-0.0075073242189854
 21
-7.206237792968973
 31
0.0
 11
-0.0472106933599941
 21
-7.271118164062972
 31
0.0
 11
-0.1183013916019968
 21
-7.322204589843973
 31
0.0
 11
-0.2136077880859881
 21
-7.354003906249975
 31
0.0
  0
SPLINE
  5
1FE0
330
1F
100
AcDbEntity
  8
AM_0
100
AcDbSpline
210
0.0
220
0.0
230
1.0
 70
     8
 71
     3
 72
    11
 73
     7
 74
     5
 42
0.0000000001
 43
0.0000000001
 44
0.0000000001
 40
0.0
 40
0.0
 40
0.0
 40
0.0
 40
6.072220513798069
 40
8.281059420427647
 40
10.49058835312583
 40
12.7007987186426
 40
12.7007987186426
 40
12.7007987186426
 40
12.7007987186426
 10
-12.86260986328199
 20
-5.118835449218972
 30
0.0
 10
-10.88668953141049
 20
-5.562196101850055
 30
0.0
 10
-8.192005825330074
 20
-6.166834207593209
 30
0.0
 10
-4.735830967075313
 20
-6.703136250513448
 30
0.0
 10
-2.552900898105058
 20
-7.04434631692442
 30
0.0
 10
-1.094907863669957
 20
-7.255982166510976
 30
0.0
 10
-0.3657989501959884
 20
-7.361816406249975
 30
0.0
 11
-12.86260986328199
 21
-5.118835449218972
 31
0.0
 11
-6.916809082031989
 21
-6.351440429687971
 31
0.0
 11
-4.736206054687991
 21
-6.703491210937971
 31
0.0
 11
-2.552505493163992
 21
-7.040344238280976
 31
0.0
 11
-0.3657989501959884
 21
-7.361816406249975
 31
0.0
  0
ELLIPSE
  5
1FE2
330
1F
100
AcDbEntity
  8
AM_0
100
AcDbEllipse
 10
-1.019104003906996
 20
-3.759399414062972
 30
0.0
 11
0.2026672331570012
 21
-0.0183716058740018
 31
0.0
210
0.0
220
0.0
230
1.0
 40
0.4954041413436001
 41
6.120308863257655
 42
6.378961224868714
  0
ELLIPSE
  5
1FE3
330
1F
100
AcDbEntity
  8
AM_0
100
AcDbEllipse
 10
-1.048904418945987
 20
-3.754394531249975
 30
0.0
 11
0.2330474869049936
 21
-0.0211181545289989
 31
0.0
210
0.0
220
0.0
230
0.9999999999999998
 40
0.4952564161427001
 41
5.906204203718962
 42
6.129811395992045
  0
SPLINE
  5
1FE4
330
1F
100
AcDbEntity
  8
AM_0
100
AcDbSpline
210
0.0
220
0.0
230
1.0
 70
     8
 71
     3
 72
    11
 73
     7
 74
     5
 42
0.0000000001
 43
0.0000000001
 44
0.0000000001
 40
0.0
 40
0.0
 40
0.0
 40
0.0
 40
0.0156295963325728
 40
0.0306962887682574
 40
0.0455836207600634
 40
0.0604805835781571
 40
0.0604805835781571
 40
0.0604805835781571
 40
0.0604805835781571
 10
-0.6352996826179909
 20
-4.049743652343973
 30
0.0
 10
-0.6321137272178874
 20
-4.045611088373302
 30
0.0
 10
-0.6258565594137165
 20
-4.037494795777014
 30
0.0
 10
-0.6186085664818933
 20
-4.024087049223184
 30
0.0
 10
-0.6128079806115763
 20
-4.010252599164731
 30
0.0
 10
-0.6105399163839343
 20
-4.000570269365418
 30
0.0
 10
-0.6094055175779905
 20
-3.995727539062972
 30
0.0
 11
-0.6352996826179909
 21
-4.049743652343973
 31
0.0
 11
-0.6260986328129908
 21
-4.037109374999975
 31
0.0
 11
-0.6188049316409879
 21
-4.023925781249975
 31
0.0
 11
-0.6132049560549935
 21
-4.010131835937972
 31
0.0
 11
-0.6094055175779905
 21
-3.995727539062972
 31
0.0
  0
ELLIPSE
  5
1FE5
330
1F
100
AcDbEntity
  8
AM_0
100
AcDbEllipse
 10
-1.020507812499993
 20
-3.762695312499975
 30
0.0
 11
0.2019653369790006
 21
-0.0183105526500001
 31
0.0
210
0.0
220
0.0
230
1.0
 40
0.4956197448897
 41
5.333397199281249
 42
5.906247710529973
  0
SPLINE
  5
1FE6
330
1F
100
AcDbEntity
  8
AM_0
100
AcDbSpline
210
0.0
220
0.0
230
1.0
 70
     8
 71
     3
 72
    11
 73
     7
 74
     5
 42
0.0000000001
 43
0.0000000001
 44
0.0000000001
 40
0.0
 40
0.0
 40
0.0
 40
0.0
 40
0.052671733049099
 40
0.1009796615224966
 40
0.1445142569279918
 40
0.1835043327296084
 40
0.1835043327296084
 40
0.1835043327296084
 40
0.1835043327296084
 10
-0.7985992431639849
 20
-4.125122070312972
 30
0.0
 10
-0.7812633285547772
 20
-4.122112288267517
 30
0.0
 10
-0.748027763896427
 20
-4.11634208184725
 30
0.0
 10
-0.7026611331441685
 20
-4.099716684159889
 30
0.0
 10
-0.6638368296954207
 20
-4.07876923526653
 30
0.0
 10
-0.644456312204941
 20
-4.059057004889202
 30
0.0
 10
-0.6352996826179909
 20
-4.049743652343973
 30
0.0
 11
-0.7985992431639849
 21
-4.125122070312972
 31
0.0
 11
-0.7470092773439851
 21
-4.114501953124975
 31
0.0
 11
-0.7015991210939851
 21
-4.098022460937972
 31
0.0
 11
-0.6639099121099937
 21
-4.076232910155976
 31
0.0
 11
-0.6352996826179909
 21
-4.049743652343973
 31
0.0
  0
ELLIPSE
  5
1FE7
330
1F
100
AcDbEntity
  8
AM_0
100
AcDbEllipse
 10
-1.034606933593984
 20
-3.751037597655976
 30
0.0
 11
0.2276611354890007
 21
-0.0206298932610025
 31
0.0
210
0.0
220
0.0
230
1.0
 40
0.4957092512007
 41
4.804117402960444
 42
5.333458551604987
  0
SPLINE
  5
1FE8
330
1F
100
AcDbEntity
  8
AM_0
100
AcDbSpline
210
0.0
220
0.0
230
1.0
 70
     8
 71
     3
 72
    11
 73
     7
 74
     5
 42
0.0000000001
 43
0.0000000001
 44
0.0000000001
 40
0.0
 40
0.0
 40
0.0
 40
0.0
 40
0.0487325878101357
 40
0.0958935356717863
 40
0.1418011031880359
 40
0.1865896208747661
 40
0.1865896208747661
 40
0.1865896208747661
 40
0.1865896208747661
 10
-0.9846038818359877
 20
-4.122131347655976
 30
0.0
 10
-0.9684925897714311
 20
-4.124259983750442
 30
0.0
 10
-0.9367895994371114
 20
-4.128448606814176
 30
0.0
 10
-0.8895256473831857
 20
-4.130579277544992
 30
0.0
 10
-0.8435257666460138
 20
-4.12993279041258
 30
0.0
 10
-0.8134510591538518
 20
-4.126712398790686
 30
0.0
 10
-0.7985992431639849
 20
-4.125122070312972
 30
0.0
 11
-0.9846038818359877
 21
-4.122131347655976
 31
0.0
 11
-0.9362030029299935
 21
-4.127807617187972
 31
0.0
 11
-0.889099121093985
 21
-4.130126953124975
 31
0.0
 11
-0.843200683593985
 21
-4.129211425780976
 31
0.0
 11
-0.7985992431639849
 21
-4.125122070312972
 31
0.0
  0
SPLINE
  5
1FE9
330
1F
100
AcDbEntity
  8
AM_0
100
AcDbSpline
210
0.0
220
0.0
230
1.0
 70
     8
 71
     3
 72
    11
 73
     7
 74
     5
 42
0.0000000001
 43
0.0000000001
 44
0.0000000001
 40
0.0
 40
0.0
 40
0.0
 40
0.0
 40
0.0158929572745061
 40
0.0321089728696915
 40
0.0486197441467577
 40
0.0655854317218659
 40
0.0655854317218659
 40
0.0655854317218659
 40
0.0655854317218659
 10
-9.338104248046988
 20
-3.428894042968972
 30
0.0
 10
-9.335795367186264
 20
-3.433663960241708
 30
0.0
 10
-9.331130672527121
 20
-3.443300753549308
 30
0.0
 10
-9.323024713036035
 20
-3.457345532007278
 30
0.0
 10
-9.314271068746217
 20
-3.471415513525737
 30
0.0
 10
-9.307789313099149
 20
-3.48050229192288
 30
0.0
 10
-9.304504394531988
 20
-3.485107421874973
 30
0.0
 11
-9.338104248046988
 21
-3.428894042968972
 31
0.0
 11
-9.33100891113299
 21
-3.443115234374973
 31
0.0
 11
-9.322998046874992
 21
-3.457214355468972
 31
0.0
 11
-9.314208984374992
 21
-3.471191406249973
 31
0.0
 11
-9.304504394531988
 21
-3.485107421874973
 31
0.0
  0
SPLINE
  5
1FEA
330
1F
100
AcDbEntity
  8
AM_0
100
AcDbSpline
210
0.0
220
0.0
230
1.0
 70
     8
 71
     3
 72
    11
 73
     7
 74
     5
 42
0.0000000001
 43
0.0000000001
 44
0.0000000001
 40
0.0
 40
0.0
 40
0.0
 40
0.0
 40
0.0399597592152185
 40
0.0818027421097706
 40
0.1256758126807624
 40
0.1718640260283233
 40
0.1718640260283233
 40
0.1718640260283233
 40
0.1718640260283233
 10
-9.304504394531988
 20
-3.485107421874973
 30
0.0
 10
-9.296306071004437
 20
-3.495619503639271
 30
0.0
 10
-9.27952305332796
 20
-3.517139080595935
 30
0.0
 10
-9.249795041824651
 20
-3.546785396867837
 30
0.0
 10
-9.216225033180499
 20
-3.575265784892408
 30
0.0
 10
-9.191559234409094
 20
-3.592405917847872
 30
0.0
 10
-9.17890930175799
 20
-3.601196289062971
 30
0.0
 11
-9.304504394531988
 21
-3.485107421874973
 31
0.0
 11
-9.279296874999992
 21
-3.516113281249973
 31
0.0
 11
-9.249908447265987
 21
-3.545898437499973
 31
0.0
 11
-9.216400146484993
 21
-3.574218749999973
 31
0.0
 11
-9.17890930175799
 21
-3.601196289062971
 31
0.0
  0
SPLINE
  5
1FEB
330
1F
100
AcDbEntity
  8
AM_0
100
AcDbSpline
210
0.0
220
0.0
230
1.0
 70
     8
 71
     3
 72
    11
 73
     7
 74
     5
 42
0.0000000001
 43
0.0000000001
 44
0.0000000001
 40
0.0
 40
0.0
 40
0.0
 40
0.0
 40
0.0754619922729929
 40
0.1542287127327306
 40
0.236744858086964
 40
0.3236517208516822
 40
0.3236517208516822
 40
0.3236517208516822
 40
0.3236517208516822
 10
-9.17890930175799
 20
-3.601196289062971
 30
0.0
 10
-9.157477452951916
 20
-3.614402852054464
 30
0.0
 10
-9.113675184375626
 20
-3.641394336753585
 30
0.0
 10
-9.041905061191961
 20
-3.674558024321482
 30
0.0
 10
-8.964521011659954
 20
-3.704066491939527
 30
0.0
 10
-8.910051274974058
 20
-3.719096751121099
 30
0.0
 10
-8.882110595702989
 20
-3.726806640624974
 30
0.0
 11
-9.17890930175799
 21
-3.601196289062971
 31
0.0
 11
-9.113906860351988
 21
-3.639526367187971
 31
0.0
 11
-9.042709350585987
 21
-3.673217773437971
 31
0.0
 11
-8.965499877929993
 21
-3.702331542968972
 31
0.0
 11
-8.882110595702989
 21
-3.726806640624974
 31
0.0
  0
SPLINE
  5
1FEC
330
1F
100
AcDbEntity
  8
AM_0
100
AcDbSpline
210
0.0
220
0.0
230
1.0
 70
     8
 71
     3
 72
    11
 73
     7
 74
     5
 42
0.0000000001
 43
0.0000000001
 44
0.0000000001
 40
0.0
 40
0.0
 40
0.0
 40
0.0
 40
0.053047190599689
 40
0.105972328508418
 40
0.1588380784840878
 40
0.2118852690837938
 40
0.2118852690837938
 40
0.2118852690837938
 40
0.2118852690837938
 10
-8.51420593261799
 20
-3.518188476562971
 30
0.0
 10
-8.514508616444263
 20
-3.535868280259793
 30
0.0
 10
-8.515113287672082
 20
-3.571187209389566
 30
0.0
 10
-8.515973052563223
 20
-3.624126306460179
 30
0.0
 10
-8.517031358610299
 20
-3.677061851917534
 30
0.0
 10
-8.517609162636611
 20
-3.71236146252603
 30
0.0
 10
-8.517898559570987
 20
-3.730041503905975
 30
0.0
 11
-8.51420593261799
 21
-3.518188476562971
 31
0.0
 11
-8.515106201171988
 21
-3.571228027343972
 31
0.0
 11
-8.516006469726988
 21
-3.624145507812971
 31
0.0
 11
-8.516998291015987
 21
-3.677001953124974
 31
0.0
 11
-8.517898559570987
 21
-3.730041503905975
 31
0.0
  0
SPLINE
  5
1FED
330
1F
100
AcDbEntity
  8
AM_0
100
AcDbSpline
210
0.0
220
0.0
230
1.0
 70
     8
 71
     3
 72
    11
 73
     7
 74
     5
 42
0.0000000001
 43
0.0000000001
 44
0.0000000001
 40
0.0
 40
0.0
 40
0.0
 40
0.0
 40
0.0840585638761018
 40
0.1681876673204295
 40
0.2529001450681805
 40
0.3382676957187305
 40
0.3382676957187305
 40
0.3382676957187305
 40
0.3382676957187305
 10
-8.882110595702989
 20
-3.726806640624974
 30
0.0
 10
-8.854810868243173
 20
-3.733157919498644
 30
0.0
 10
-8.800188504164752
 20
-3.745865807059497
 30
0.0
 10
-8.716799753847443
 20
-3.75866286923655
 30
0.0
 10
-8.63244316924456
 20
-3.767288585278093
 30
0.0
 10
-8.57575533261982
 20
-3.768903691847075
 30
0.0
 10
-8.547302246093991
 20
-3.769714355468972
 30
0.0
 11
-8.882110595702989
 21
-3.726806640624974
 31
0.0
 11
-8.80000305175799
 21
-3.744812011718972
 31
0.0
 11
-8.716903686523991
 21
-3.757934570312971
 31
0.0
 11
-8.632598876952989
 21
-3.766235351562971
 31
0.0
 11
-8.547302246093991
 21
-3.769714355468972
 31
0.0
  0
SPLINE
  5
1FEE
330
1F
100
AcDbEntity
  8
AM_0
100
AcDbSpline
210
0.0
220
0.0
230
1.0
 70
     8
 71
     3
 72
    11
 73
     7
 74
     5
 42
0.0000000001
 43
0.0000000001
 44
0.0000000001
 40
0.0
 40
0.0
 40
0.0
 40
0.0
 40
0.063220006320011
 40
0.1265730597112801
 40
0.1902559919853008
 40
0.2543235462590633
 40
0.2543235462590633
 40
0.2543235462590633
 40
0.2543235462590633
 10
-8.765304565429993
 20
-3.480590820312971
 30
0.0
 10
-8.744820873006446
 20
-3.485564831763919
 30
0.0
 10
-8.703810380044631
 20
-3.4955233225176
 30
0.0
 10
-8.641270534401188
 20
-3.506269536695898
 30
0.0
 10
-8.578044861955884
 20
-3.51432620742695
 30
0.0
 10
-8.535528244391258
 20
-3.516898472054364
 30
0.0
 10
-8.51420593261799
 20
-3.518188476562971
 30
0.0
 11
-8.765304565429993
 21
-3.480590820312971
 31
0.0
 11
-8.703704833984993
 21
-3.494812011718972
 31
0.0
 11
-8.64131164550799
 21
-3.505798339843972
 31
0.0
 11
-8.578109741210987
 21
-3.513610839843972
 31
0.0
 11
-8.51420593261799
 21
-3.518188476562971
 31
0.0
  0
SPLINE
  5
1FEF
330
1F
100
AcDbEntity
  8
AM_0
100
AcDbSpline
210
0.0
220
0.0
230
1.0
 70
     8
 71
     3
 72
    11
 73
     7
 74
     5
 42
0.0000000001
 43
0.0000000001
 44
0.0000000001
 40
0.0
 40
0.0
 40
0.0
 40
0.0
 40
0.3963232652655646
 40
0.7932607947173216
 40
1.190651325426877
 40
1.588445825786504
 40
1.588445825786504
 40
1.588445825786504
 40
1.588445825786504
 10
-0.7218017578129904
 20
-1.271545410155976
 30
0.0
 10
-0.6684169577336815
 20
-1.392386315360595
 30
0.0
 10
-0.5615646161020043
 20
-1.634255417929542
 30
0.0
 10
-0.4015396037588821
 20
-1.997447858401619
 30
0.0
 10
-0.2413820069212072
 20
-2.361117788179592
 30
0.0
 10
-0.1348101774248608
 20
-2.603811316071872
 30
0.0
 10
-0.0814971923829905
 20
-2.725219726562972
 30
0.0
 11
-0.7218017578129904
 21
-1.271545410155976
 31
0.0
 11
-0.5617065429689847
 21
-1.634094238280976
 31
0.0
 11
-0.4016113281249931
 21
-1.997314453124975
 31
0.0
 11
-0.2415008544929907
 21
-2.361022949218973
 31
0.0
 11
-0.0814971923829905
 21
-2.725219726562972
 31
0.0
  0
SPLINE
  5
1FF0
330
1F
100
AcDbEntity
  8
AM_0
100
AcDbSpline
210
0.0
220
0.0
230
1.0
 70
     8
 71
     3
 72
    11
 73
     7
 74
     5
 42
0.0000000001
 43
0.0000000001
 44
0.0000000001
 40
0.0
 40
0.0
 40
0.0
 40
0.0
 40
0.0953052397310335
 40
0.176309184204299
 40
0.2428876646249759
 40
0.2969870443882625
 40
0.2969870443882625
 40
0.2969870443882625
 40
0.2969870443882625
 10
-0.9694976806639845
 20
-1.122009277343973
 30
0.0
 10
-0.9389379287334138
 20
-1.130991109524711
 30
0.0
 10
-0.8824041542256287
 20
-1.147606979847421
 30
0.0
 10
-0.8096505851949045
 20
-1.183022040175382
 30
0.0
 10
-0.7527639162845917
 20
-1.221539355805654
 30
0.0
 10
-0.7313855775938256
 20
-1.256066870012087
 30
0.0
 10
-0.7218017578129904
 20
-1.271545410155976
 30
0.0
 11
-0.9694976806639845
 21
-1.122009277343973
 31
0.0
 11
-0.878906249999993
 21
-1.151611328124975
 31
0.0
 11
-0.8061065673829903
 21
-1.187133789062972
 31
0.0
 11
-0.7530975341799932
 21
-1.227416992187972
 31
0.0
 11
-0.7218017578129904
 21
-1.271545410155976
 31
0.0
  0
LINE
  5
1FF1
330
1F
100
AcDbEntity
  8
AM_0
100
AcDbLine
 10
-29.99999999999999
 20
-10.49999999999997
 30
0.0
 11
-17.50190734863299
 21
-10.49999999999997
 31
0.0
  0
LWPOLYLINE
  5
1FF2
330
1F
100
AcDbEntity
  8
AM_11
100
AcDbPolyline
 90
        4
 70
     1
 43
0.0
 10
0.0000000000000058
 20
-10.99999999999997
 10
-8.999999999999994
 20
-10.99999999999997
 10
-8.999999999999991
 20
11.00000000000002
 10
0.0000000000000085
 20
11.00000000000002
1001
GENIUS_GENREC_14
1002
{
1000
PYDIR
1011
0.0000000000000085
1021
11.00000000000002
1031
0.0
1002
}
1002
{
1000
PXDIR
1011
-8.999999999999994
1021
-10.99999999999997
1031
0.0
1002
}
1002
{
1000
PORI
1011
0.0000000000000058
1021
-10.99999999999997
1031
0.0
1002
}
1002
{
1000
PINS
1011
0.0000000000000058
1021
-10.99999999999997
1031
0.0
1002
}
1002
{
1000
PINS2
1011
-8.999999999999991
1021
11.00000000000002
1031
0.0
1002
}
1002
{
1000
C
1070
     1
1002
}
1001
GENIUS_GENODEF_13
1002
{
1000
HIER
1070
     0
1002
}
1002
{
1000
MANEDIT
1070
     0
1002
}
1002
{
1000
NOSEL
1070
     0
1002
}
1002
{
1000
BEHIND
1070
     0
1002
}
1002
{
1000
REACTOR
1002
}
1001
GENIUS_GENOBJ-N-REC_13
1002
{
1000
OWNER
1000
GEN
1002
}
  0
ARC
  5
1FF3
330
1F
100
AcDbEntity
  8
AM_0
100
AcDbCircle
 10
-5.205307006835986
 20
7.496765136719024
 30
0.0
 40
1.2499886751175
100
AcDbArc
 50
267.5010890041714
 51
87.5010803527499
  0
ARC
  5
1FF4
330
1F
100
AcDbEntity
  8
AM_0
100
AcDbCircle
 10
-5.205307006835986
 20
7.496765136719024
 30
0.0
 40
1.2499886751175
100
AcDbArc
 50
87.50109082540378
 51
267.5010890041714
  0
ARC
  5
1FF5
330
1F
100
AcDbEntity
  8
AM_0
100
AcDbCircle
 10
-5.121398925781988
 20
7.582397460937028
 30
0.0
 40
1.400020241737399
100
AcDbArc
 50
88.59613407389467
 51
266.3715874513116
  0
ARC
  5
1FF6
330
1F
100
AcDbEntity
  8
AM_0
100
AcDbCircle
 10
-5.253005981445986
 20
7.588073730469024
 30
0.0
 40
1.7500697374344
100
AcDbArc
 50
88.30059178851112
 51
266.5339478780767
  0
LINE
  5
1FF7
330
1F
100
AcDbEntity
  8
AM_0
100
AcDbLine
 10
-0.0815124511719947
 20
9.136905670166026
 30
0.0
 11
-0.0000152587889831
 21
10.26304817199702
 31
0.0
  0
LINE
  5
1FF8
330
1F
100
AcDbEntity
  8
AM_0
100
AcDbLine
 10
-0.3657608032229889
 20
10.67781448364202
 30
0.0
 11
-0.2135543823249919
 21
10.64143371582002
 31
0.0
  0
LINE
  5
1FF9
330
1F
100
AcDbEntity
  8
AM_0
100
AcDbLine
 10
-0.2135696411139834
 20
10.64149475097602
 30
0.0
 11
-0.3649902343749916
 21
10.67787742614702
 31
0.0
  0
LINE
  5
1FFA
330
1F
100
AcDbEntity
  8
AM_0
100
AcDbLine
 10
-9.888301849365985
 20
10.31801223754902
 30
0.0
 11
-12.86355209818166
 21
10.49881520127969
 31
0.0
  0
LINE
  5
1FFB
330
1F
100
AcDbEntity
  8
AM_0
100
AcDbLine
 10
-1.134002685546996
 20
-7.246932983398973
 30
0.0
 11
-0.9759063720709885
 21
-9.321056365966978
 31
0.0
  0
LINE
  5
1FFC
330
1F
100
AcDbEntity
  8
AM_0
100
AcDbLine
 10
-0.9759063720709884
 20
-7.368286132812972
 30
0.0
 11
-0.9759063720709885
 21
-9.321044921874975
 31
0.0
  0
LINE
  5
1FFD
330
1F
100
AcDbEntity
  8
AM_0
100
AcDbLine
 10
-8.584102630615987
 20
4.468387603760025
 30
0.0
 11
-8.887710571288991
 21
4.212894439697028
 31
0.0
  0
LINE
  5
1FFE
330
1F
100
AcDbEntity
  8
AM_0
100
AcDbLine
 10
-5.822399139404993
 20
2.983871459961027
 30
0.0
 11
-9.42480087280299
 21
3.141159057617028
 31
0.0
  0
LINE
  5
1FFF
330
1F
100
AcDbEntity
  8
AM_0
100
AcDbLine
 10
-8.882114410400987
 20
-3.726833343505975
 30
0.0
 11
-8.765319824218991
 21
-3.480640411376977
 31
0.0
  0
LINE
  5
2000
330
1F
100
AcDbEntity
  8
AM_0
100
AcDbLine
 10
-1.161605834960987
 20
-3.784240722655976
 30
0.0
 11
-1.161605834960986
 21
2.780395507812027
 31
0.0
  0
LINE
  5
2001
330
1F
100
AcDbEntity
  8
AM_0
100
AcDbLine
 10
-0.9759063720709878
 20
-3.691711425780976
 30
0.0
 11
-0.9759063720709871
 21
2.772277832031026
 31
0.0
  0
LINE
  5
2002
330
1F
100
AcDbEntity
  8
AM_0
100
AcDbLine
 10
-1.161590576171995
 20
2.780479431152027
 30
0.0
 11
-3.708190917968991
 21
2.891685485840025
 31
0.0
  0
LINE
  5
2003
330
1F
100
AcDbEntity
  8
AM_0
100
AcDbLine
 10
-1.255905151367989
 20
2.784610748291026
 30
0.0
 11
-1.137306213378983
 21
4.422901153564023
 31
0.0
  0
LINE
  5
2004
330
1F
100
AcDbEntity
  8
AM_0
100
AcDbLine
 10
-1.388397216796995
 20
3.591053009033021
 30
0.0
 11
-1.336608886718984
 21
4.345596313476026
 31
0.0
  0
LINE
  5
2005
330
1F
100
AcDbEntity
  8
AM_0
100
AcDbLine
 10
-1.161621093749992
 20
2.780353546142027
 30
0.0
 11
-0.9759140014649926
 21
2.772232055664023
 31
0.0
  0
LINE
  5
2006
330
1F
100
AcDbEntity
  8
AM_0
100
AcDbLine
 10
-3.103382110595986
 20
4.350463867187027
 30
0.0
 11
-3.119876861572989
 21
3.973873138428022
 31
0.0
  0
LINE
  5
2007
330
1F
100
AcDbEntity
  8
AM_0
100
AcDbLine
 10
-6.10780715942399
 20
4.104331970215025
 30
0.0
 11
-6.094409942626987
 21
4.411048889160025
 31
0.0
  0
LINE
  5
2008
330
1F
100
AcDbEntity
  8
AM_0
100
AcDbLine
 10
-3.119907379150987
 20
3.973972320556026
 30
0.0
 11
-6.107795715331987
 21
4.104404449463022
 31
0.0
  0
LINE
  5
2009
330
1F
100
AcDbEntity
  8
AM_0
100
AcDbLine
 10
-3.708202362060986
 20
2.891540527344023
 30
0.0
 11
-5.822402954101988
 21
2.983825683594024
 31
0.0
  0
LINE
  5
200A
330
1F
100
AcDbEntity
  8
AM_0
100
AcDbLine
 10
-6.07363510131899
 20
4.179401397705025
 30
0.0
 11
-6.107837677001987
 21
4.104305267334024
 31
0.0
  0
LINE
  5
200B
330
1F
100
AcDbEntity
  8
AM_0
100
AcDbLine
 10
-1.028999328613985
 20
-4.118007659911977
 30
0.0
 11
-8.52169036865299
 21
-3.770412445068973
 31
0.0
  0
LINE
  5
200C
330
1F
100
AcDbEntity
  8
AM_0
100
AcDbLine
 10
-8.51419830322299
 20
-3.517856597900975
 30
0.0
 11
-1.024604797363985
 21
-3.865268707275976
 31
0.0
  0
LINE
  5
200D
330
1F
100
AcDbEntity
  8
AM_0
100
AcDbLine
 10
-0.0814819335939853
 20
-6.411514282226978
 30
0.0
 11
-0.7347946166999936
 21
-2.503093719482972
 31
0.0
  0
LINE
  5
200E
330
1F
100
AcDbEntity
  8
AM_0
100
AcDbLine
 10
-0.6094207763679909
 20
-3.995731353759975
 30
0.0
 11
-0.6077194213869963
 21
-3.956829071044975
 31
0.0
  0
LINE
  5
200F
330
1F
100
AcDbEntity
  8
AM_0
100
AcDbLine
 10
-0.3670654296879908
 20
-4.703025817870976
 30
0.0
 11
-0.0004501342779907
 21
-3.153205871581977
 31
0.0
  0
LINE
  5
2010
330
1F
100
AcDbEntity
  8
AM_0
100
AcDbLine
 10
-0.0815353393559878
 20
-2.725185394286977
 30
0.0
 11
-0.5250473022459877
 21
-3.758274078368973
 31
0.0
  0
LINE
  5
2011
330
1F
100
AcDbEntity
  8
AM_0
100
AcDbLine
 10
0.0000381469720093
 20
-3.128601074218973
 30
0.0
 11
-0.0004653930669964
 21
-3.153255462646978
 31
0.0
  0
LINE
  5
2012
330
1F
100
AcDbEntity
  8
AM_0
100
AcDbLine
 10
-0.081489562988985
 20
-2.725246429443973
 30
0.0
 11
0.0000076293940122
 21
-3.128658294677972
 31
0.0
  0
LINE
  5
2013
330
1F
100
AcDbEntity
  8
AM_0
100
AcDbLine
 10
-1.161552429199993
 20
-3.784297943114975
 30
0.0
 11
-0.9758529663089849
 21
-3.691768646239975
 31
0.0
  0
LINE
  5
2014
330
1F
100
AcDbEntity
  8
AM_0
100
AcDbLine
 10
-0.9662017822269961
 20
-1.740535736083973
 30
0.0
 11
-0.9741821289069962
 21
-1.731216430663973
 31
0.0
  0
LINE
  5
2015
330
1F
100
AcDbEntity
  8
AM_0
100
AcDbLine
 10
-0.9081802368169961
 20
-1.854347229003973
 30
0.0
 11
-0.9125671386719959
 21
-1.838081359862971
 31
0.0
  0
LINE
  5
2016
330
1F
100
AcDbEntity
  8
AM_0
100
AcDbLine
 10
-0.9661865234379904
 20
-1.740531921386977
 30
0.0
 11
-0.9758911132819962
 21
-1.733692169189975
 31
0.0
  0
LINE
  5
2017
330
1F
100
AcDbEntity
  8
AM_0
100
AcDbLine
 10
-0.9759140014649931
 20
-2.158996582030976
 30
0.0
 11
-0.947914123534993
 21
-2.262828826903973
 31
0.0
  0
LINE
  5
2018
330
1F
100
AcDbEntity
  8
AM_0
100
AcDbLine
 10
-0.7557067871099936
 20
-2.419597625732972
 30
0.0
 11
-0.908203124999993
 21
-1.854293823241977
 31
0.0
  0
LINE
  5
2019
330
1F
100
AcDbEntity
  8
AM_0
100
AcDbLine
 10
-0.9082107543949932
 20
-1.854324340819974
 30
0.0
 11
-0.9759292602539845
 21
-1.799015045165976
 31
0.0
  0
LINE
  5
201A
330
1F
100
AcDbEntity
  8
AM_0
100
AcDbLine
 10
-0.9478988647459873
 20
-2.262809753417972
 30
0.0
 11
-0.8163986206059878
 21
-3.768795013427972
 31
0.0
  0
LINE
  5
201B
330
1F
100
AcDbEntity
  8
AM_0
100
AcDbLine
 10
-0.7348022460939849
 20
-2.503105163573973
 30
0.0
 11
-0.7556991577149934
 21
-2.419624328612972
 31
0.0
  0
LINE
  5
201C
330
1F
100
AcDbEntity
  8
AM_0
100
AcDbLine
 10
-0.7556915283209879
 20
-2.419628143310976
 30
0.0
 11
-0.9478988647459873
 21
-2.262828826903973
 31
0.0
  0
LINE
  5
201D
330
1F
100
AcDbEntity
  8
AM_0
100
AcDbLine
 10
-0.6095886230469963
 20
-3.937492370605976
 30
0.0
 11
-0.7347793579099932
 21
-2.503128051757972
 31
0.0
  0
LINE
  5
201E
330
1F
100
AcDbEntity
  8
AM_0
100
AcDbLine
 10
-0.6076660156249934
 20
-3.956817626952972
 30
0.0
 11
-0.6095809936529908
 21
-3.937499999999975
 31
0.0
  0
LINE
  5
201F
330
1F
100
AcDbEntity
  8
AM_0
100
AcDbLine
 10
-0.081474304199994
 20
-6.411525726318973
 30
0.0
 11
0.0000228881830031
 21
-7.134426116943973
 31
0.0
  0
LINE
  5
2020
330
1F
100
AcDbEntity
  8
AM_0
100
AcDbLine
 10
-0.2136077880859881
 20
-7.353984832763973
 30
0.0
 11
-0.3650054931639852
 21
-7.361797332763973
 31
0.0
  0
LINE
  5
2021
330
1F
100
AcDbEntity
  8
AM_0
100
AcDbLine
 10
-1.02900695800799
 20
-4.117889404296978
 30
0.0
 11
-0.9846038818359877
 21
-4.122100830077972
 31
0.0
  0
LINE
  5
2022
330
1F
100
AcDbEntity
  8
AM_0
100
AcDbLine
 10
-8.517887115478991
 20
-3.730052947997971
 30
0.0
 11
-8.521686553954992
 21
-3.770339965819974
 31
0.0
  0
LINE
  5
2023
330
1F
100
AcDbEntity
  8
AM_0
100
AcDbLine
 10
-8.54728317260799
 20
-3.769664764403972
 30
0.0
 11
-8.52169036865299
 21
-3.770336151122971
 31
0.0
  0
LINE
  5
2024
330
1F
100
AcDbEntity
  8
AM_0
100
AcDbLine
 10
-12.86260986328199
 20
-5.118835449218972
 30
0.0
 11
-12.86260986328199
 21
3.589294433594025
 31
0.0
  0
ARC
  5
2025
330
1F
100
AcDbEntity
  8
AM_0
100
AcDbCircle
 10
-9.692001342773991
 20
5.354980468750025
 30
0.0
 40
1.497829198837299
100
AcDbArc
 50
129.910872608509
 51
266.2080317414508
  0
ARC
  5
2026
330
1F
100
AcDbEntity
  8
AM_0
100
AcDbCircle
 10
-9.848709106445987
 20
5.361755371094024
 30
0.0
 40
1.497969985008199
100
AcDbArc
 50
129.9113507217522
 51
236.9641123571751
  0
LINE
  5
2027
330
1F
100
AcDbEntity
  8
AM_0
100
AcDbLine
 10
-10.65295791625999
 20
6.503890991211027
 30
0.0
 11
-10.58076858520499
 21
6.564682006836027
 31
0.0
  0
LINE
  5
2028
330
1F
100
AcDbEntity
  8
AM_0
100
AcDbLine
 10
-10.80973815917999
 20
6.510776519775025
 30
0.0
 11
-10.55135345458999
 21
6.728176116943022
 31
0.0
  0
LINE
  5
2029
330
1F
100
AcDbEntity
  8
AM_0
100
AcDbLine
 10
-10.67330169677799
 20
6.050270080566026
 30
0.0
 11
-10.78319549560598
 21
4.925281524658022
 31
0.0
  0
LINE
  5
202A
330
1F
100
AcDbEntity
  8
AM_0
100
AcDbLine
 10
-10.42569351196299
 20
4.510753631592028
 30
0.0
 11
-10.57790374755899
 21
4.547134399414024
 31
0.0
  0
LINE
  5
202B
330
1F
100
AcDbEntity
  8
AM_0
100
AcDbLine
 10
-10.57790374755899
 20
4.547172546387028
 30
0.0
 11
-10.42658996582098
 21
4.510856628418022
 31
0.0
  0
LINE
  5
202C
330
1F
100
AcDbEntity
  8
AM_0
100
AcDbLine
 10
-9.424793243408991
 20
3.141139984131027
 30
0.0
 11
-12.86259841918999
 21
3.589260101318023
 31
0.0
  0
ARC
  5
202D
330
1F
100
AcDbEntity
  8
AM_0
100
AcDbCircle
 10
-9.848709106445987
 20
5.361755371094024
 30
0.0
 40
1.4992666244507
100
AcDbArc
 50
289.8260609101638
 51
309.9108673721788
  0
LINE
  5
202E
330
1F
100
AcDbEntity
  8
AM_0
100
AcDbLine
 10
-9.304512023925987
 20
-3.485118865966976
 30
0.0
 11
-9.240413665771988
 21
-3.433242797851976
 31
0.0
  0
LINE
  5
202F
330
1F
100
AcDbEntity
  8
AM_0
100
AcDbLine
 10
-9.178897857665987
 20
-3.601200103759973
 30
0.0
 11
-9.032691955566988
 21
-3.442451477050975
 31
0.0
  0
LINE
  5
2031
330
1F
100
AcDbEntity
  8
AM_0
100
AcDbLine
 10
-5.822406768798992
 20
-9.820529937743973
 30
0.0
 11
-9.424812316894994
 21
-10.05630874633797
 31
0.0
  0
LINE
  5
2032
330
1F
100
AcDbEntity
  8
AM_0
100
AcDbLine
 10
-1.161590576171996
 20
-9.514461517333973
 30
0.0
 11
-3.708194732665988
 21
-9.681941986083973
 31
0.0
  0
LINE
  5
2033
330
1F
100
AcDbEntity
  8
AM_0
100
AcDbLine
 10
-1.161506652831996
 20
-9.514347076415976
 30
0.0
 11
-0.9758148193359883
 21
-9.321056365966978
 31
0.0
  0
ARC
  5
2034
330
1F
100
AcDbEntity
  8
AM_0
100
AcDbCircle
 10
-4.720809936523992
 20
-10.41143798828097
 30
0.0
 40
1.2480684518814
100
AcDbArc
 50
35.77356156147323
 51
151.7948584733856
  0
LINE
  5
2035
330
1F
100
AcDbEntity
  8
AM_0
100
AcDbLine
 10
-9.424793243408993
 20
-10.05636978149397
 30
0.0
 11
-12.86260223388699
 21
-10.34006118774397
 31
0.0
  0
LINE
  5
2036
330
1F
100
AcDbEntity
  8
AM_0
100
AcDbLine
 10
-29.99999999999999
 20
-10.49999999999997
 30
0.0
 11
-29.99999999999999
 21
10.50000000000002
 31
0.0
  0
LINE
  5
2037
330
1F
100
AcDbEntity
  8
AM_0
100
AcDbLine
 10
-33.46409606933598
 20
-12.49999999999997
 30
0.0
 11
-33.46409606933598
 21
12.50000000000002
 31
0.0
  0
LINE
  5
2038
330
1F
100
AcDbEntity
  8
AM_0
100
AcDbLine
 10
-29.99995803832999
 20
10.50002670288103
 30
0.0
 11
-33.46405792236399
 21
12.50002861022902
 31
0.0
  0
LINE
  5
2039
330
1F
100
AcDbEntity
  8
AM_0
100
AcDbLine
 10
-23.69279479980499
 20
10.50000000000002
 30
0.0
 11
-29.99999999999999
 21
10.50000000000002
 31
0.0
  0
LINE
  5
203A
330
1F
100
AcDbEntity
  8
AM_0
100
AcDbLine
 10
-33.46412277221698
 20
-12.49994659423796
 30
0.0
 11
-30.00001907348698
 21
-10.49994277954097
 31
0.0
  0
LINE
  5
203B
330
1F
100
AcDbEntity
  8
AM_0
100
AcDbLine
 10
-109.999999999999
 20
-10.16149902343795
 30
0.0
 11
-109.999999999999
 21
10.16149902343703
 31
0.0
  0
LINE
  5
203C
330
1F
100
AcDbEntity
  8
AM_0
100
AcDbLine
 10
-106.999999999999
 20
-12.49999999999996
 30
0.0
 11
-106.999999999999
 21
12.50000000000003
 31
0.0
  0
LINE
  5
203D
330
1F
100
AcDbEntity
  8
AM_0
100
AcDbLine
 10
-107.0000038146969
 20
12.49993324279803
 30
0.0
 11
-108.5177078247059
 21
12.09331703186003
 31
0.0
  0
ARC
  5
203E
330
1F
100
AcDbEntity
  8
AM_0
100
AcDbCircle
 10
-107.999999999999
 20
10.16149902343703
 30
0.0
 40
2.0000627040863
100
AcDbArc
 50
105.0013537054865
 51
180.0
  0
LINE
  5
203F
330
1F
100
AcDbEntity
  8
AM_0
100
AcDbLine
 10
-108.5177078247059
 20
-12.09341049194396
 30
0.0
 11
-107.0000038146969
 21
-12.50008773803696
 31
0.0
  0
ARC
  5
2040
330
1F
100
AcDbEntity
  8
AM_0
100
AcDbCircle
 10
-107.999999999999
 20
-10.16149902343796
 30
0.0
 40
2.0
100
AcDbArc
 50
180.0
 51
254.9979018038972
  0
DIMENSION
  5
208C
330
1F
100
AcDbEntity
  8
AM_5
100
AcDbDimension
  2
*D10
 10
0.0000000000000094
 20
26.50002961022907
 30
0.0
 11
-4.49999999999999
 21
29.90002961022907
 31
0.0
 70
    32
  1
<>
  3
AM_JIS$0
100
AcDbAlignedDimension
 13
-8.999999999999991
 23
11.00000000000002
 33
0.0
 14
0.0000000000000085
 24
11.00000000000002
 34
0.0
 50
180.0
100
AcDbRotatedDimension
1001
ACAD
1000
DSTYLE
1002
{
1070
   271
1070
     0
1002
}
1001
GENIUS_GENDTOL_13
1000

1000
h7
1000

1040
0.0
  0
VIEWPORT
  5
110
330
101
100
AcDbEntity
 67
     1
  8
0
100
AcDbViewport
 10
420.5
 20
297.0
 30
0.0
 40
948.9782706766916
 41
628.452
 68
     1
 69
     1
1001
ACAD
1000
MVIEW
1002
{
1070
    16
1010
0.0
1020
0.0
1030
0.0
1010
0.0
1020
0.0
1030
1.0
1040
0.0
1040
628.452
1040
420.5
1040
297.0
1040
50.0
1040
0.0
1040
0.0
1070
     0
1070
   100
1070
     1
1070
     1
1070
     0
1070
     0
1070
     0
1070
     0
1040
0.0
1040
0.0
1040
0.0
1040
10.0
1040
10.0
1040
10.0
1040
10.0
1070
     0
1002
{
1002
}
1002
}
  0
ENDSEC
  0
SECTION
  2
OBJECTS
  0
DICTIONARY
  5
C
330
0
100
AcDbDictionary
  3
ACAD_GROUP
350
D
  3
ACAD_LAYOUT
350
1A
  3
ACAD_MLINESTYLE
350
17
  3
ACAD_PLOTSETTINGS
350
19
  3
ACAD_PLOTSTYLENAME
350
E
  3
ACDBVARIABLEDICTIONARY
350
34
  3
ACMDICTIONARY
350
43
  3
AMG
350
2B
  3
AMGSNAPSETTINGS
350
6E
  3
DWGPROPS
350
23E8
  3
ACDBHEADERROUNDTRIPXREC
350
23F4
  0
DICTIONARY
  5
74
330
1F
100
AcDbDictionary
280
     1
  3
ACAD_INDEX
360
23EA
  3
ACAD_LAYOUTSELFREF
360
2417
  0
DICTIONARY
  5
241C
330
101
100
AcDbDictionary
280
     1
  3
ACAD_LAYOUTSELFREF
360
241D
  0
DICTIONARY
  5
D
102
{ACAD_REACTORS
330
C
102
}
330
C
100
AcDbDictionary
  0
DICTIONARY
  5
1A
102
{ACAD_REACTORS
330
C
102
}
330
C
100
AcDbDictionary
  0
DICTIONARY
  5
17
102
{ACAD_REACTORS
330
C
102
}
330
C
100
AcDbDictionary
  3
STANDARD
350
18
  0
DICTIONARY
  5
19
102
{ACAD_REACTORS
330
C
102
}
330
C
100
AcDbDictionary
  0
ACDBDICTIONARYWDFLT
  5
E
102
{ACAD_REACTORS
330
C
102
}
330
C
100
AcDbDictionary
281
     1
  3
Normal
350
F
100
AcDbDictionaryWithDefault
340
F
  0
DICTIONARY
  5
34
102
{ACAD_REACTORS
330
C
102
}
330
C
100
AcDbDictionary
  3
INDEXCTL
350
35
  3
SORTENTS
350
B5E
  0
DICTIONARY
  5
43
102
{ACAD_REACTORS
330
C
102
}
330
C
100
AcDbDictionary
  3
ACMSTDDICTIONARY
350
260
  0
DICTIONARY
  5
2B
102
{ACAD_REACTORS
330
C
102
}
330
C
100
AcDbDictionary
  3
ACMGSETTINGS
350
2C
  0
DICTIONARY
  5
6E
102
{ACAD_REACTORS
330
C
102
}
330
C
100
AcDbDictionary
  0
XRECORD
  5
23E8
102
{ACAD_REACTORS
330
C
102
}
330
C
100
AcDbXrecord
  1
DWGPROPS COOKIE
  2

  3

  4

  6

  7

  8

  9

300
AmdtFileType=82
301
=
302
=
303
=
304
=
305
=
306
=
307
=
308
=
309
=
 40
0.0728963773148148
 41
2452839.420061482
 42
2453075.602255856
  1

 90
        1
  0
DICTIONARY
  5
23F4
102
{ACAD_REACTORS
330
C
102
}
330
C
100
AcDbDictionary
  3
TSTACKALIGN
350
23F5
  3
TSTACKSIZE
350
23F6
  3
HYPERLINKBASE
350
23F7
  3
STYLESHEET
350
23F8
  3
LAYOUTDICT
350
23F9
  3
PLOTSETDICT
350
23FA
  3
PLOTSTYLNAMDICT
350
23FB
  3
LWETCUNION
350
23FC
  3
INSUNITS
350
23FD
  3
CEPSNTYPE
350
23FE
  3
FINGERPRINTGUID
350
23FF
  3
VERSIONGUID
350
2400
  3
PSVPSCALE
350
2401
  3
DIMSTYLEDATA
350
2402
  3
PUCSORTHOREF
350
2403
  3
PUCSORTHOVIEW
350
2404
  3
PUCSBASE
350
2405
  3
PUCSORGTOP
350
2406
  3
PUCSORGBOTTOM
350
2407
  3
PUCSORGLEFT
350
2408
  3
PUCSORGRIGHT
350
2409
  3
PUCSORGFRONT
350
240A
  3
PUCSORGBACK
350
240B
  3
UCSORTHOREF
350
240C
  3
UCSORTHOVIEW
350
240D
  3
UCSBASE
350
240E
  3
UCSORGTOP
350
240F
  3
UCSORGBOTTOM
350
2410
  3
UCSORGLEFT
350
2411
  3
UCSORGRIGHT
350
2412
  3
UCSORGFRONT
350
2413
  3
UCSORGBACK
350
2414
  0
DICTIONARY
  5
23EA
102
{ACAD_REACTORS
330
74
102
}
330
74
100
AcDbDictionary
  3
*A1
350
23EB
  0
XRECORD
  5
2417
102
{ACAD_REACTORS
330
74
102
}
330
74
100
AcDbXrecord
340
1F
  0
XRECORD
  5
241D
102
{ACAD_REACTORS
330
241C
102
}
330
241C
100
AcDbXrecord
340
101
  0
MLINESTYLE
  5
18
102
{ACAD_REACTORS
330
17
102
}
330
17
100
AcDbMlineStyle
  2
STANDARD
 70
     0
  3

 62
   256
 51
90.0
 52
90.0
 71
     2
 49
0.5
 62
   256
  6
BYLAYER
 49
-0.5
 62
   256
  6
BYLAYER
  0
ACDBPLACEHOLDER
  5
F
102
{ACAD_REACTORS
330
E
102
}
330
E
100
AcDbPlaceHolder
280
     0
  0
DICTIONARYVAR
  5
35
102
{ACAD_REACTORS
330
34
102
}
330
34
100
DictionaryVariables
280
     0
  1
1
  0
DICTIONARYVAR
  5
B5E
102
{ACAD_REACTORS
330
34
102
}
330
34
100
DictionaryVariables
280
     0
  1
96
  0
DICTIONARY
  5
260
102
{ACAD_REACTORS
330
43
102
}
330
43
100
AcDbDictionary
  0
DICTIONARY
  5
2C
102
{ACAD_REACTORS
330
2B
102
}
330
2B
100
AcDbDictionary
  3
DWGSETTINGS
350
2D
  0
XRECORD
  5
23F5
102
{ACAD_REACTORS
330
23F4
102
}
330
23F4
100
AcDbXrecord
 90
        1
  0
XRECORD
  5
23F6
102
{ACAD_REACTORS
330
23F4
102
}
330
23F4
100
AcDbXrecord
 90
       70
  0
XRECORD
  5
23F7
102
{ACAD_REACTORS
330
23F4
102
}
330
23F4
100
AcDbXrecord
  1

  0
XRECORD
  5
23F8
102
{ACAD_REACTORS
330
23F4
102
}
330
23F4
100
AcDbXrecord
  1
ASAMI.ctb
  0
XRECORD
  5
23F9
102
{ACAD_REACTORS
330
23F4
102
}
330
23F4
100
AcDbXrecord
340
1A
  0
XRECORD
  5
23FA
102
{ACAD_REACTORS
330
23F4
102
}
330
23F4
100
AcDbXrecord
340
19
  0
XRECORD
  5
23FB
102
{ACAD_REACTORS
330
23F4
102
}
330
23F4
100
AcDbXrecord
340
E
  0
XRECORD
  5
23FC
102
{ACAD_REACTORS
330
23F4
102
}
330
23F4
100
AcDbXrecord
 90
    10781
  0
XRECORD
  5
23FD
102
{ACAD_REACTORS
330
23F4
102
}
330
23F4
100
AcDbXrecord
 90
        4
  0
XRECORD
  5
23FE
102
{ACAD_REACTORS
330
23F4
102
}
330
23F4
100
AcDbXrecord
 90
        0
  0
XRECORD
  5
23FF
102
{ACAD_REACTORS
330
23F4
102
}
330
23F4
100
AcDbXrecord
  1
{AFB28963-8C59-40AE-9337-C84526B81ACE}
  0
XRECORD
  5
2400
102
{ACAD_REACTORS
330
23F4
102
}
330
23F4
100
AcDbXrecord
  1
{628DF58D-7611-4909-8975-C8E5AC713481}
  0
XRECORD
  5
2401
102
{ACAD_REACTORS
330
23F4
102
}
330
23F4
100
AcDbXrecord
 40
0.0
  0
XRECORD
  5
2402
102
{ACAD_REACTORS
330
23F4
102
}
330
23F4
100
AcDbXrecord
1000
DSTYLE
1002
{
1070
    79
 70
     2
1070
   341
340
59
1070
   342
340
59
1070
   371
 70
    -1
1070
   372
 70
    -1
1002
}
  0
XRECORD
  5
2403
102
{ACAD_REACTORS
330
23F4
102
}
330
23F4
100
AcDbXrecord
340
0
  0
XRECORD
  5
2404
102
{ACAD_REACTORS
330
23F4
102
}
330
23F4
100
AcDbXrecord
 70
     0
  0
XRECORD
  5
2405
102
{ACAD_REACTORS
330
23F4
102
}
330
23F4
100
AcDbXrecord
340
0
  0
XRECORD
  5
2406
102
{ACAD_REACTORS
330
23F4
102
}
330
23F4
100
AcDbXrecord
 10
0.0
 20
0.0
 30
0.0
  0
XRECORD
  5
2407
102
{ACAD_REACTORS
330
23F4
102
}
330
23F4
100
AcDbXrecord
 10
0.0
 20
0.0
 30
0.0
  0
XRECORD
  5
2408
102
{ACAD_REACTORS
330
23F4
102
}
330
23F4
100
AcDbXrecord
 10
0.0
 20
0.0
 30
0.0
  0
XRECORD
  5
2409
102
{ACAD_REACTORS
330
23F4
102
}
330
23F4
100
AcDbXrecord
 10
0.0
 20
0.0
 30
0.0
  0
XRECORD
  5
240A
102
{ACAD_REACTORS
330
23F4
102
}
330
23F4
100
AcDbXrecord
 10
0.0
 20
0.0
 30
0.0
  0
XRECORD
  5
240B
102
{ACAD_REACTORS
330
23F4
102
}
330
23F4
100
AcDbXrecord
 10
0.0
 20
0.0
 30
0.0
  0
XRECORD
  5
240C
102
{ACAD_REACTORS
330
23F4
102
}
330
23F4
100
AcDbXrecord
340
0
  0
XRECORD
  5
240D
102
{ACAD_REACTORS
330
23F4
102
}
330
23F4
100
AcDbXrecord
 70
     0
  0
XRECORD
  5
240E
102
{ACAD_REACTORS
330
23F4
102
}
330
23F4
100
AcDbXrecord
340
0
  0
XRECORD
  5
240F
102
{ACAD_REACTORS
330
23F4
102
}
330
23F4
100
AcDbXrecord
 10
0.0
 20
0.0
 30
0.0
  0
XRECORD
  5
2410
102
{ACAD_REACTORS
330
23F4
102
}
330
23F4
100
AcDbXrecord
 10
0.0
 20
0.0
 30
0.0
  0
XRECORD
  5
2411
102
{ACAD_REACTORS
330
23F4
102
}
330
23F4
100
AcDbXrecord
 10
0.0
 20
0.0
 30
0.0
  0
XRECORD
  5
2412
102
{ACAD_REACTORS
330
23F4
102
}
330
23F4
100
AcDbXrecord
 10
0.0
 20
0.0
 30
0.0
  0
XRECORD
  5
2413
102
{ACAD_REACTORS
330
23F4
102
}
330
23F4
100
AcDbXrecord
 10
0.0
 20
0.0
 30
0.0
  0
XRECORD
  5
2414
102
{ACAD_REACTORS
330
23F4
102
}
330
23F4
100
AcDbXrecord
 10
0.0
 20
0.0
 30
0.0
  0
LAYER_INDEX
  5
23EB
102
{ACAD_REACTORS
330
23EA
102
}
330
23EA
100
AcDbIndex
 40
2453152.406508668
100
AcDbLayerIndex
  8
0
360
23EC
 90
        0
  8
AM_0
360
23ED
 90
      132
  8
AM_7
360
23EE
 90
        1
  8
AM_11
360
23EF
 90
        1
  8
AM_5
360
23F0
 90
        6
  8
Defpoints
360
23F1
 90
        0
  8
AM_6
360
23F2
 90
        1
  0
XRECORD
  5
2D
102
{ACAD_REACTORS
330
2C
102
}
330
2C
100
AcDbXrecord
  1
VERSION
140
15.0
  1
PRODUCT
  2
AutoCAD Mechanical 2000
  0
IDBUFFER
  5
23EC
330
0
100
AcDbIdBuffer
  0
IDBUFFER
  5
23ED
330
0
100
AcDbIdBuffer
330
202C
330
202D
330
202E
330
202F
330
2031
330
2032
330
2033
330
2034
330
2035
330
2036
330
2037
330
2038
330
2039
330
203A
330
203B
330
203C
330
203D
330
203E
330
203F
330
2040
330
1FBA
330
1FBB
330
1FBC
330
1FBD
330
1FBE
330
1FBF
330
1FC0
330
1FC1
330
1FC2
330
1FC3
330
1FC4
330
1FC5
330
1FC6
330
1FC7
330
1FC8
330
1FC9
330
1FCA
330
1FCB
330
1FCC
330
1FCD
330
1FCE
330
1FCF
330
1FD0
330
1FD1
330
1FD2
330
1FD3
330
1FD4
330
1FD5
330
1FD6
330
1FD7
330
1FD8
330
1FD9
330
1FDA
330
1FDB
330
1FDC
330
1FDD
330
1FDE
330
1FDF
330
1FE0
330
1FE2
330
1FE3
330
1FE4
330
1FE5
330
1FE6
330
1FE7
330
1FE8
330
1FE9
330
1FEA
330
1FEB
330
1FEC
330
1FED
330
1FEE
330
1FEF
330
1FF0
330
1FF1
330
1FF3
330
1FF4
330
1FF5
330
1FF6
330
1FF7
330
1FF8
330
1FF9
330
1FFA
330
1FFB
330
1FFC
330
1FFD
330
1FFE
330
1FFF
330
2000
330
2001
330
2002
330
2003
330
2004
330
2005
330
2006
330
2007
330
2008
330
2009
330
200A
330
200B
330
200C
330
200D
330
200E
330
200F
330
2010
330
2011
330
2012
330
2013
330
2014
330
2015
330
2016
330
2017
330
2018
330
2019
330
201A
330
201B
330
201C
330
201D
330
201E
330
201F
330
2020
330
2021
330
2022
330
2023
330
2024
330
2025
330
2026
330
2027
330
2028
330
2029
330
202A
330
202B
  0
IDBUFFER
  5
23EE
330
0
100
AcDbIdBuffer
330
1FB9
  0
IDBUFFER
  5
23EF
330
0
100
AcDbIdBuffer
330
1FF2
  0
IDBUFFER
  5
23F0
330
0
100
AcDbIdBuffer
330
155D
330
15E8
330
1673
330
1895
330
1E16
330
208C
  0
IDBUFFER
  5
23F1
330
0
100
AcDbIdBuffer
  0
IDBUFFER
  5
23F2
330
0
100
AcDbIdBuffer
330
1142
  0
ENDSEC
  0
EOF
