  0
SECTION
  2
HEADER
  9
$ACADVER
  1
AC1014
  9
$ACADMAINTVER
 70
     9
  9
$DWGCODEPAGE
  3
ANSI_932
  9
$INSBASE
 10
0.0
 20
0.0
 30
0.0
  9
$EXTMIN
 10
-145.3129457812844
 20
-59.00000100000004
 30
-0.00000001
  9
$EXTMAX
 10
16.99059395654299
 20
31.80000100000006
 30
0.00000001
  9
$LIMMIN
 10
-156.9393690676877
 20
-89.22963216864474
  9
$LIMMAX
 10
49.29023745149436
 20
37.13222751595651
  9
$ORTHOMODE
 70
     0
  9
$REGENMODE
 70
     1
  9
$FILLMODE
 70
     1
  9
$QTEXTMODE
 70
     0
  9
$MIRRTEXT
 70
     0
  9
$DRAGMODE
 70
     2
  9
$LTSCALE
 40
1.0
  9
$OSMODE
 70
    55
  9
$ATTMODE
 70
     1
  9
$TEXTSIZE
 40
2.5
  9
$TRACEWID
 40
1.0
  9
$TEXTSTYLE
  7
STANDARD
  9
$CLAYER
  8
AM_0
  9
$CELTYPE
  6
BYLAYER
  9
$CECOLOR
 62
   256
  9
$CELTSCALE
 40
1.0
  9
$DELOBJ
 70
     1
  9
$DISPSILH
 70
     0
  9
$DIMSCALE
 40
1.0
  9
$DIMASZ
 40
2.5
  9
$DIMEXO
 40
1.0
  9
$DIMDLI
 40
12.0
  9
$DIMRND
 40
0.0
  9
$DIMDLE
 40
0.0
  9
$DIMEXE
 40
1.0
  9
$DIMTP
 40
0.1
  9
$DIMTM
 40
0.1
  9
$DIMTXT
 40
3.2
  9
$DIMCEN
 40
0.0
  9
$DIMTSZ
 40
0.0
  9
$DIMTOL
 70
     0
  9
$DIMLIM
 70
     0
  9
$DIMTIH
 70
     0
  9
$DIMTOH
 70
     0
  9
$DIMSE1
 70
     0
  9
$DIMSE2
 70
     0
  9
$DIMTAD
 70
     3
  9
$DIMZIN
 70
     8
  9
$DIMBLK
  1
OPEN30
  9
$DIMASO
 70
     1
  9
$DIMSHO
 70
     1
  9
$DIMPOST
  1

  9
$DIMAPOST
  1
"
  9
$DIMALT
 70
     0
  9
$DIMALTD
 70
     2
  9
$DIMALTF
 40
0.0393701
  9
$DIMLFAC
 40
1.0
  9
$DIMTOFL
 70
     1
  9
$DIMTVP
 40
0.0
  9
$DIMTIX
 70
     0
  9
$DIMSOXD
 70
     0
  9
$DIMSAH
 70
     0
  9
$DIMBLK1
  1

  9
$DIMBLK2
  1

  9
$DIMSTYLE
  2
AM_JIS
  9
$DIMCLRD
 70
   256
  9
$DIMCLRE
 70
   256
  9
$DIMCLRT
 70
     2
  9
$DIMTFAC
 40
0.71
  9
$DIMGAP
 40
1.5
  9
$DIMJUST
 70
     0
  9
$DIMSD1
 70
     0
  9
$DIMSD2
 70
     0
  9
$DIMTOLJ
 70
     0
  9
$DIMTZIN
 70
     0
  9
$DIMALTZ
 70
     0
  9
$DIMALTTZ
 70
     0
  9
$DIMFIT
 70
     3
  9
$DIMUPT
 70
     0
  9
$DIMUNIT
 70
     2
  9
$DIMDEC
 70
     3
  9
$DIMTDEC
 70
     3
  9
$DIMALTU
 70
     2
  9
$DIMALTTD
 70
     2
  9
$DIMTXSTY
  7
ASAMI
  9
$DIMAUNIT
 70
     0
  9
$LUNITS
 70
     2
  9
$LUPREC
 70
     0
  9
$SKETCHINC
 40
1.0
  9
$FILLETRAD
 40
2.5
  9
$AUNITS
 70
     0
  9
$AUPREC
 70
     0
  9
$MENU
  1
.
  9
$ELEVATION
 40
0.0
  9
$PELEVATION
 40
0.0
  9
$THICKNESS
 40
0.0
  9
$LIMCHECK
 70
     0
  9
$BLIPMODE
 70
     0
  9
$CHAMFERA
 40
2.5
  9
$CHAMFERB
 40
2.5
  9
$CHAMFERC
 40
20.0
  9
$CHAMFERD
 40
0.0
  9
$SKPOLY
 70
     0
  9
$TDCREATE
 40
2452839.420061482
  9
$TDUPDATE
 40
2453152.403681446
  9
$TDINDWG
 40
0.0489407755
  9
$TDUSRTIMER
 40
0.0489407755
  9
$USRTIMER
 70
     1
  9
$ANGBASE
 50
0.0
  9
$ANGDIR
 70
     0
  9
$PDMODE
 70
     0
  9
$PDSIZE
 40
0.0
  9
$PLINEWID
 40
0.0
  9
$COORDS
 70
     1
  9
$SPLFRAME
 70
     0
  9
$SPLINETYPE
 70
     6
  9
$SPLINESEGS
 70
     8
  9
$ATTDIA
 70
     1
  9
$ATTREQ
 70
     1
  9
$HANDLING
 70
 12289
  9
$HANDSEED
  5
24AE
  9
$SURFTAB1
 70
     6
  9
$SURFTAB2
 70
     6
  9
$SURFTYPE
 70
     6
  9
$SURFU
 70
     6
  9
$SURFV
 70
     6
  9
$UCSNAME
  2

  9
$UCSORG
 10
0.0
 20
0.0
 30
0.0
  9
$UCSXDIR
 10
1.0
 20
0.0
 30
0.0
  9
$UCSYDIR
 10
0.0
 20
1.0
 30
0.0
  9
$PUCSNAME
  2

  9
$PUCSORG
 10
0.0
 20
0.0
 30
0.0
  9
$PUCSXDIR
 10
1.0
 20
0.0
 30
0.0
  9
$PUCSYDIR
 10
0.0
 20
1.0
 30
0.0
  9
$USERI1
 70
     0
  9
$USERI2
 70
     0
  9
$USERI3
 70
     0
  9
$USERI4
 70
     0
  9
$USERI5
 70
     0
  9
$USERR1
 40
0.0
  9
$USERR2
 40
0.0
  9
$USERR3
 40
0.0
  9
$USERR4
 40
0.0
  9
$USERR5
 40
0.0
  9
$WORLDVIEW
 70
     1
  9
$SHADEDGE
 70
     3
  9
$SHADEDIF
 70
    70
  9
$TILEMODE
 70
     1
  9
$MAXACTVP
 70
    64
  9
$PINSBASE
 10
0.0
 20
0.0
 30
0.0
  9
$PLIMCHECK
 70
     0
  9
$PEXTMIN
 10
1.000000000000000E+20
 20
1.000000000000000E+20
 30
1.000000000000000E+20
  9
$PEXTMAX
 10
-1.000000000000000E+20
 20
-1.000000000000000E+20
 30
-1.000000000000000E+20
  9
$PLIMMIN
 10
0.0
 20
0.0
  9
$PLIMMAX
 10
841.0
 20
594.0
  9
$UNITMODE
 70
     0
  9
$VISRETAIN
 70
     1
  9
$PLINEGEN
 70
     0
  9
$PSLTSCALE
 70
     0
  9
$TREEDEPTH
 70
  3020
  9
$PICKSTYLE
 70
     0
  9
$CMLSTYLE
  2
STANDARD
  9
$CMLJUST
 70
     0
  9
$CMLSCALE
 40
20.0
  9
$PROXYGRAPHICS
 70
     1
  9
$MEASUREMENT
 70
     1
  0
ENDSEC
  0
SECTION
  2
CLASSES
  0
CLASS
  1
ACDBDICTIONARYWDFLT
  2
AcDbDictionaryWithDefault
  3
AutoCAD 2000
 90
        0
280
     0
281
     0
  0
CLASS
  1
ACDBPLACEHOLDER
  2
AcDbPlaceHolder
  3
AutoCAD 2000
 90
        0
280
     0
281
     0
  0
CLASS
  1
LAYOUT
  2
AcDbLayout
  3
AutoCAD 2000
 90
        0
280
     0
281
     0
  0
CLASS
  1
AMGSETTINGSOBJ
  2
AmgSettingsObj
  3
"AcadM|Product Description: AutoCAD Mechanical 2000|Company: Autodesk"
 90
        0
280
     0
281
     0
  0
CLASS
  1
ACME_DOCUMENT
  2
AcMeDbDoc
  3
AcMeServices
 90
        0
280
     0
281
     0
  0
CLASS
  1
ACMESCOPE
  2
AcMeScope
  3
AcMeServices
 90
        0
280
     0
281
     0
  0
CLASS
  1
ACMECOMMANDHISTORY
  2
AcMeCommandHistory
  3
AcMeServices
 90
        0
280
     0
281
     0
  0
CLASS
  1
DICTIONARYVAR
  2
AcDbDictionaryVar
  3
AutoCAD 2000
 90
        0
280
     0
281
     0
  0
CLASS
  1
ACIMSYSVARMAN
  2
AcImSysVarManager
  3
AcMeServices
 90
        0
280
     0
281
     0
  0
CLASS
  1
ACIMREALSYSVAR
  2
AcImRealSysVar
  3
AcMeServices
 90
        0
280
     0
281
     0
  0
CLASS
  1
ACIMINTSYSVAR
  2
AcImIntSysVar
  3
AcMeServices
 90
        0
280
     0
281
     0
  0
CLASS
  1
ACMEDRAWINGMAN
  2
AcMeDrawingMan
  3
AcMeServices
 90
        0
280
     0
281
     0
  0
CLASS
  1
ACMEVIEW
  2
AcMeView
  3
AcMeServices
 90
        0
280
     0
281
     0
  0
CLASS
  1
ACDBENTITYCACHE
  2
AcMeEntityCache
  3
AcMeServices
 90
        0
280
     0
281
     0
  0
CLASS
  1
GSMANAGER
  2
AcMeGSManager
  3
AcMeServices
 90
        0
280
     0
281
     0
  0
CLASS
  1
AmdtInternalReactor
  2
AmdtInternalReactor
  3
AcMeServices
 90
        0
280
     0
281
     0
  0
CLASS
  1
ACMESTATEMGR
  2
AcMeStateMgr
  3
AcMeServices
 90
        0
280
     0
281
     0
  0
CLASS
  1
ACME_DATABASE
  2
AcMeDbDatabase
  3
AcMeServices
 90
        0
280
     0
281
     0
  0
CLASS
  1
ACRFINSADJUSTERMGR
  2
AcRfInsAdjusterMgr
  3
AcMeServices
 90
        0
280
     0
281
     0
  0
CLASS
  1
ACMDATADICTIONARY
  2
AcmDataDictionary
  3
"AcmSymBB|Product Description: AutoCAD Mechanical 2000|Company: Autodesk"
 90
        0
280
     0
281
     0
  0
CLASS
  1
ACMDATAENTRYBLOCK
  2
AcmDataEntryBlock
  3
"AcmSymBB|Product Description: AutoCAD Mechanical 2000|Company: Autodesk"
 90
        0
280
     0
281
     0
  0
CLASS
  1
AMGOBJPROPCFG
  2
AmgObjPropCfg
  3
"AmgLay|Product Description: AutoCAD Mechanical 2000|Company: Autodesk"
 90
        1
280
     0
281
     0
  0
CLASS
  1
ACAMGFILTERDAT
  2
AcAmgFilterDat
  3
"AcadM|Product Description: AutoCAD Mechanical 2000|Company: Autodesk"
 90
        0
280
     0
281
     0
  0
CLASS
  1
LAYER_INDEX
  2
AcDbLayerIndex
  3
AutoCAD 2000
 90
        0
280
     0
281
     0
  0
CLASS
  1
IDBUFFER
  2
AcDbIdBuffer
  3
AutoCAD 2000
 90
        0
280
     0
281
     0
  0
CLASS
  1
ACIMSTRSYSVAR
  2
AcImStrSysVar
  3
AcMeServices
 90
        0
280
     0
281
     0
  0
CLASS
  1
ACMSTANDARDJIS
  2
AcmStandardJIS
  3
"AcmSymBB|Product Description: AutoCAD Mechanical 2000|Company: Autodesk"
 90
        0
280
     0
281
     0
  0
CLASS
  1
ACMSURFSTANDARDJIS
  2
AcmSurfTextStdJIS
  3
"AcmSymBB|Product Description: AutoCAD Mechanical 2000|Company: Autodesk"
 90
        0
280
     0
281
     0
  0
CLASS
  1
ACMFCFSTANDARDJIS
  2
AcmFCFStdJIS
  3
"AcmSymBB|Product Description: AutoCAD Mechanical 2000|Company: Autodesk"
 90
        0
280
     0
281
     0
  0
CLASS
  1
ACMWELDSTANDARDJIS
  2
AcmWeldingStdJIS
  3
"AcmSymBB|Product Description: AutoCAD Mechanical 2000|Company: Autodesk"
 90
        0
280
     0
281
     0
  0
CLASS
  1
ACMIDSTANDARDJIS
  2
AcmIdStdJIS
  3
"AcmSymBB|Product Description: AutoCAD Mechanical 2000|Company: Autodesk"
 90
        0
280
     0
281
     0
  0
CLASS
  1
ACMDATUMSTANDARDJIS
  2
AcmDatumStdJIS
  3
"AcmSymBB|Product Description: AutoCAD Mechanical 2000|Company: Autodesk"
 90
        0
280
     0
281
     0
  0
CLASS
  1
ACMBOMSTANDARDJIS
  2
AcmBOMStdJIS
  3
"AcmSymBB|Product Description: AutoCAD Mechanical 2000|Company: Autodesk"
 90
        0
280
     0
281
     0
  0
CLASS
  1
ACMSTANDARDANSI
  2
AcmStandardANSI
  3
"AcmSymBB|Product Description: AutoCAD Mechanical 2000|Company: Autodesk"
 90
        0
280
     0
281
     0
  0
CLASS
  1
ACMSURFSTANDARDANSI
  2
AcmSurfTextStdANSI
  3
"AcmSymBB|Product Description: AutoCAD Mechanical 2000|Company: Autodesk"
 90
        0
280
     0
281
     0
  0
CLASS
  1
ACMFCFSTANDARDANSI
  2
AcmFCFStdANSI
  3
"AcmSymBB|Product Description: AutoCAD Mechanical 2000|Company: Autodesk"
 90
        0
280
     0
281
     0
  0
CLASS
  1
ACMWELDSTANDARDANSI
  2
AcmWeldingStdANSI
  3
"AcmSymBB|Product Description: AutoCAD Mechanical 2000|Company: Autodesk"
 90
        0
280
     0
281
     0
  0
CLASS
  1
ACMIDSTANDARDANSI
  2
AcmIdStdANSI
  3
"AcmSymBB|Product Description: AutoCAD Mechanical 2000|Company: Autodesk"
 90
        0
280
     0
281
     0
  0
CLASS
  1
ACMDATUMSTANDARDANSI
  2
AcmDatumStdANSI
  3
"AcmSymBB|Product Description: AutoCAD Mechanical 2000|Company: Autodesk"
 90
        0
280
     0
281
     0
  0
CLASS
  1
ACMBOMSTANDARDANSI
  2
AcmBOMStdANSI
  3
"AcmSymBB|Product Description: AutoCAD Mechanical 2000|Company: Autodesk"
 90
        0
280
     0
281
     0
  0
CLASS
  1
ACMSTANDARDBSI
  2
AcmStandardBSI
  3
"AcmSymBB|Product Description: AutoCAD Mechanical 2000|Company: Autodesk"
 90
        0
280
     0
281
     0
  0
CLASS
  1
ACMSURFSTANDARDBSI
  2
AcmSurfTextStdBSI
  3
"AcmSymBB|Product Description: AutoCAD Mechanical 2000|Company: Autodesk"
 90
        0
280
     0
281
     0
  0
CLASS
  1
ACMFCFSTANDARDBSI
  2
AcmFCFStdBSI
  3
"AcmSymBB|Product Description: AutoCAD Mechanical 2000|Company: Autodesk"
 90
        0
280
     0
281
     0
  0
CLASS
  1
ACMWELDSTANDARDBSI
  2
AcmWeldingStdBSI
  3
"AcmSymBB|Product Description: AutoCAD Mechanical 2000|Company: Autodesk"
 90
        0
280
     0
281
     0
  0
CLASS
  1
ACMIDSTANDARDBSI
  2
AcmIdStdBSI
  3
"AcmSymBB|Product Description: AutoCAD Mechanical 2000|Company: Autodesk"
 90
        0
280
     0
281
     0
  0
CLASS
  1
ACMDATUMSTANDARDBSI
  2
AcmDatumStdBSI
  3
"AcmSymBB|Product Description: AutoCAD Mechanical 2000|Company: Autodesk"
 90
        0
280
     0
281
     0
  0
CLASS
  1
ACMBOMSTANDARDBSI
  2
AcmBOMStdBSI
  3
"AcmSymBB|Product Description: AutoCAD Mechanical 2000|Company: Autodesk"
 90
        0
280
     0
281
     0
  0
CLASS
  1
LONG_TRANSACTION
  2
AcDbLongTransaction
  3
AutoCAD 2000
 90
        0
280
     0
281
     0
  0
CLASS
  1
LWPOLYLINE
  2
AcDbPolyline
  3
AutoCAD 2000
 90
        0
280
     0
281
     1
  0
CLASS
  1
HATCH
  2
AcDbHatch
  3
AutoCAD 2000
 90
        0
280
     0
281
     1
  0
CLASS
  1
XRECORD
  2
AcDbXrecord
  3
AutoCAD 2000
 90
        0
280
     0
281
     0
  0
ENDSEC
  0
SECTION
  2
TABLES
  0
TABLE
  2
VPORT
  5
8
330
0
100
AcDbSymbolTable
 70
     3
  0
VPORT
  5
2483
330
8
100
AcDbSymbolTableRecord
100
AcDbViewportTableRecord
  2
*ACTIVE
 70
     0
 10
0.0
 20
0.0
 11
1.0
 21
1.0
 12
-52.11763003221119
 22
7.504855045584037
 13
0.0
 23
0.0
 14
2.5
 24
2.5
 15
10.0
 25
10.0
 16
0.0
 26
0.0
 36
1.0
 17
0.0
 27
0.0
 37
0.0
 40
187.8509613373311
 41
1.56570841889117
 42
50.0
 43
0.0
 44
0.0
 50
0.0
 51
0.0
 71
     0
 72
   100
 73
     1
 74
     3
 75
     0
 76
     0
 77
     0
 78
     0
  0
ENDTAB
  0
TABLE
  2
LTYPE
  5
5
330
0
100
AcDbSymbolTable
 70
    10
  0
LTYPE
  5
14
330
5
100
AcDbSymbolTableRecord
100
AcDbLinetypeTableRecord
  2
BYBLOCK
 70
     0
  3

 72
    65
 73
     0
 40
0.0
  0
LTYPE
  5
15
330
5
100
AcDbSymbolTableRecord
100
AcDbLinetypeTableRecord
  2
BYLAYER
 70
     0
  3

 72
    65
 73
     0
 40
0.0
  0
LTYPE
  5
16
330
5
100
AcDbSymbolTableRecord
100
AcDbLinetypeTableRecord
  2
CONTINUOUS
 70
     0
  3
Solid line
 72
    65
 73
     0
 40
0.0
  0
LTYPE
  5
4B
330
5
100
AcDbSymbolTableRecord
100
AcDbLinetypeTableRecord
  2
AM_ISO02W050
 70
     0
  3
__ __ __ __ __ __ __ __ __ __ __ __ __ __ __
 72
    65
 73
     2
 40
7.5
 49
6.0
 74
     0
 49
-1.5
 74
     0
  0
LTYPE
  5
4C
330
5
100
AcDbSymbolTableRecord
100
AcDbLinetypeTableRecord
  2
AM_ISO08W050
 70
     0
  3
____ . ____ . ____ . ____ . ____ . ____ . ____
 72
    65
 73
     4
 40
18.0
 49
12.0
 74
     0
 49
-1.5
 74
     0
 49
3.0
 74
     0
 49
-1.5
 74
     0
  0
LTYPE
  5
4D
330
5
100
AcDbSymbolTableRecord
100
AcDbLinetypeTableRecord
  2
AM_ISO09W050
 70
     0
  3
_____ . . _____ . . _____ . . ____ .. ____
 72
    65
 73
     6
 40
22.5
 49
12.0
 74
     0
 49
-1.5
 74
     0
 49
3.0
 74
     0
 49
-1.5
 74
     0
 49
3.0
 74
     0
 49
-1.5
 74
     0
  0
LTYPE
  5
4E
330
5
100
AcDbSymbolTableRecord
100
AcDbLinetypeTableRecord
  2
AMCONSTR
 70
     0
  3
_______________________
 72
    65
 73
     2
 40
9999.0
 49
9999.0
 74
     0
 49
0.0
 74
     0
  0
LTYPE
  5
4F
330
5
100
AcDbSymbolTableRecord
100
AcDbLinetypeTableRecord
  2
AM_ISO02W050X2
 70
     0
  3
 _ _ _ _ _ _ _ _ _ _ _ _
 72
    65
 73
     2
 40
3.75
 49
3.0
 74
     0
 49
-0.75
 74
     0
  0
LTYPE
  5
50
330
5
100
AcDbSymbolTableRecord
100
AcDbLinetypeTableRecord
  2
AM_ISO08W050X2
 70
     0
  3
__ . __ . __ . __ . __ . __
 72
    65
 73
     4
 40
9.0
 49
6.0
 74
     0
 49
-0.75
 74
     0
 49
1.5
 74
     0
 49
-0.75
 74
     0
  0
LTYPE
  5
53
330
5
100
AcDbSymbolTableRecord
100
AcDbLinetypeTableRecord
  2
AMZIGZAG
 70
     0
  3
/\/-/\/-/\/-/\/-/\/-/\/
 72
    65
 73
     2
 40
11.00009999999999
 49
0.0001
 74
     4
 75
   135
340
52
 46
0.04
 50
0.0
 44
0.0
 45
0.0
 49
-11.0
 74
     0
  0
LTYPE
  5
166
330
5
100
AcDbSymbolTableRecord
100
AcDbLinetypeTableRecord
  2
ACJISTGL
 70
     0
  3
_ _ _ _ _
 72
    65
 73
     2
 40
3.0
 49
2.0
 74
     0
 49
-1.0
 74
     0
  0
LTYPE
  5
26A
330
5
100
AcDbSymbolTableRecord
100
AcDbLinetypeTableRecord
  2
ACJISTGB
 70
     0
  3
__ . . __ . .
 72
    65
 73
     6
 40
9.0
 49
4.0
 74
     0
 49
-1.0
 74
     0
 49
1.0
 74
     0
 49
-1.0
 74
     0
 49
1.0
 74
     0
 49
-1.0
 74
     0
  0
ENDTAB
  0
TABLE
  2
LAYER
  5
2
330
0
100
AcDbSymbolTable
 70
     7
  0
LAYER
  5
10
330
2
100
AcDbSymbolTableRecord
100
AcDbLayerTableRecord
  2
0
 70
     0
 62
     7
  6
CONTINUOUS
  0
LAYER
  5
3F9
330
2
100
AcDbSymbolTableRecord
100
AcDbLayerTableRecord
  2
AM_0
 70
     0
 62
     7
  6
CONTINUOUS
  0
LAYER
  5
CD5
330
2
100
AcDbSymbolTableRecord
100
AcDbLayerTableRecord
  2
AM_7
 70
     0
 62
     4
  6
AM_ISO08W050
  0
LAYER
  5
CDE
330
2
100
AcDbSymbolTableRecord
100
AcDbLayerTableRecord
  2
AM_11
 70
     0
 62
     3
  6
AM_ISO09W050
  0
LAYER
  5
CFB
330
2
100
AcDbSymbolTableRecord
100
AcDbLayerTableRecord
  2
AM_5
 70
     0
 62
     3
  6
CONTINUOUS
  0
LAYER
  5
CFD
330
2
100
AcDbSymbolTableRecord
100
AcDbLayerTableRecord
  2
DEFPOINTS
 70
     0
 62
     7
  6
CONTINUOUS
  0
LAYER
  5
113C
330
2
100
AcDbSymbolTableRecord
100
AcDbLayerTableRecord
  2
AM_6
 70
     0
 62
     2
  6
CONTINUOUS
  0
ENDTAB
  0
TABLE
  2
STYLE
  5
3
330
0
100
AcDbSymbolTable
 70
     5
  0
STYLE
  5
11
330
3
100
AcDbSymbolTableRecord
100
AcDbTextStyleTableRecord
  2
STANDARD
 70
     0
 40
0.0
 41
1.0
 50
0.0
 71
     0
 42
2.5
  3
simplex.shx
  4
EXTFONT.SHX
  0
STYLE
  5
52
330
3
100
AcDbSymbolTableRecord
100
AcDbTextStyleTableRecord
  2

 70
     1
 40
0.0
 41
1.0
 50
0.0
 71
     0
 42
2.5
  3
ltypeshp.shx
  4

  0
STYLE
  5
6B
330
3
100
AcDbSymbolTableRecord
100
AcDbTextStyleTableRecord
  2
ASAMI
 70
     0
 40
0.0
 41
1.0
 50
0.0
 71
     0
 42
2.5
  3
simplex.shx
  4
EXTFONT.SHX
  0
STYLE
  5
262
330
3
100
AcDbSymbolTableRecord
100
AcDbTextStyleTableRecord
  2
ACJISTS
 70
     0
 40
1.0
 41
1.0
 50
0.0
 71
     0
 42
2.5
  3
simplex.shx
  4
bigfont.shx
  0
STYLE
  5
269
330
3
100
AcDbSymbolTableRecord
100
AcDbTextStyleTableRecord
  2
ACJISGDT
 70
     0
 40
0.0
 41
1.0
 50
0.0
 71
     0
 42
2.5
  3
amgdtans.shx
  4

  0
ENDTAB
  0
TABLE
  2
VIEW
  5
6
330
0
100
AcDbSymbolTable
 70
     0
  0
ENDTAB
  0
TABLE
  2
UCS
  5
7
330
0
100
AcDbSymbolTable
 70
     0
  0
ENDTAB
  0
TABLE
  2
APPID
  5
9
330
0
100
AcDbSymbolTable
 70
    13
  0
APPID
  5
12
330
9
100
AcDbSymbolTableRecord
100
AcDbRegAppTableRecord
  2
ACAD
 70
     0
  0
APPID
  5
30
330
9
100
AcDbSymbolTableRecord
100
AcDbRegAppTableRecord
  2
MCAD_NO_VIS
 70
     0
  0
APPID
  5
31
330
9
100
AcDbSymbolTableRecord
100
AcDbRegAppTableRecord
  2
ACAD_TEMP_GRAPHIC
 70
     0
  0
APPID
  5
2C2
330
9
100
AcDbSymbolTableRecord
100
AcDbRegAppTableRecord
  2
GENIUS_GENDTOL_13
 70
     0
  0
APPID
  5
339
330
9
100
AcDbSymbolTableRecord
100
AcDbRegAppTableRecord
  2
GENIUS_GENODEF_13
 70
     0
  0
APPID
  5
33A
330
9
100
AcDbSymbolTableRecord
100
AcDbRegAppTableRecord
  2
GENIUS_GENOBJ-N-RSBK_13
 70
     0
  0
APPID
  5
33B
330
9
100
AcDbSymbolTableRecord
100
AcDbRegAppTableRecord
  2
GENIUS_GENOBJ-N-LIB_13
 70
     0
  0
APPID
  5
33C
330
9
100
AcDbSymbolTableRecord
100
AcDbRegAppTableRecord
  2
GENIUS_GENSCALE_13
 70
     0
  0
APPID
  5
378
330
9
100
AcDbSymbolTableRecord
100
AcDbRegAppTableRecord
  2
GENIUS_GENDIMSH_14
 70
     0
  0
APPID
  5
13A0
330
9
100
AcDbSymbolTableRecord
100
AcDbRegAppTableRecord
  2
GENIUS_GENOBJ-N-CEN_13
 70
     0
  0
APPID
  5
13D7
330
9
100
AcDbSymbolTableRecord
100
AcDbRegAppTableRecord
  2
GENIUS_GENREC_14
 70
     0
  0
APPID
  5
13D8
330
9
100
AcDbSymbolTableRecord
100
AcDbRegAppTableRecord
  2
GENIUS_GENOBJ-N-REC_13
 70
     0
  0
APPID
  5
2061
330
9
100
AcDbSymbolTableRecord
100
AcDbRegAppTableRecord
  2
DCO15
 70
     0
  0
ENDTAB
  0
TABLE
  2
DIMSTYLE
  5
A
330
0
100
AcDbSymbolTable
 70
     9
  0
DIMSTYLE
105
58
330
A
100
AcDbSymbolTableRecord
100
AcDbDimStyleTableRecord
  2
AM_JIS
 70
     0
  3

  4
"
  5
OPEN30
  6

  7

 40
1.0
 41
2.5
 42
1.0
 43
12.0
 44
1.0
 45
0.0
 46
0.0
 47
0.1
 48
0.1
140
3.2
141
0.0
142
0.0
143
0.0393701
144
1.0
145
0.0
146
0.71
147
1.5
 71
     0
 72
     0
 73
     0
 74
     0
 75
     0
 76
     0
 77
     3
 78
     8
170
     0
171
     2
172
     1
173
     0
174
     0
175
     0
176
   256
177
   256
178
     2
270
     2
271
     3
272
     3
273
     2
274
     2
340
6B
275
     0
280
     0
281
     0
282
     0
283
     0
284
     0
285
     0
286
     0
287
     3
288
     0
  0
DIMSTYLE
105
5F
330
A
100
AcDbSymbolTableRecord
100
AcDbDimStyleTableRecord
  2
AM_JIS$3
 70
     0
  3

  4
"
  5
OPEN30
  6

  7

 40
1.0
 41
2.5
 42
1.0
 43
10.0
 44
1.0
 45
0.0
 46
0.0
 47
0.1
 48
0.1
140
3.2
141
0.0
142
0.0
143
0.0393701
144
1.0
145
0.0
146
0.71
147
1.5
 71
     0
 72
     0
 73
     0
 74
     1
 75
     0
 76
     0
 77
     3
 78
     8
170
     0
171
     2
172
     0
173
     0
174
     0
175
     0
176
   256
177
   256
178
     2
270
     2
271
     2
272
     3
273
     2
274
     2
340
6B
275
     0
280
     0
281
     0
282
     0
283
     0
284
     0
285
     0
286
     0
287
     0
288
     1
  0
DIMSTYLE
105
60
330
A
100
AcDbSymbolTableRecord
100
AcDbDimStyleTableRecord
  2
AM_JIS$4
 70
     0
  3

  4
"
  5
OPEN30
  6

  7

 40
1.0
 41
2.5
 42
1.0
 43
10.0
 44
1.0
 45
0.0
 46
0.0
 47
0.1
 48
0.1
140
3.2
141
0.0
142
0.0
143
0.0393701
144
1.0
145
0.0
146
0.71
147
1.5
 71
     0
 72
     0
 73
     0
 74
     1
 75
     0
 76
     0
 77
     3
 78
     8
170
     0
171
     2
172
     0
173
     0
174
     0
175
     0
176
   256
177
   256
178
     2
270
     2
271
     2
272
     3
273
     2
274
     2
340
6B
275
     0
280
     0
281
     0
282
     0
283
     0
284
     0
285
     0
286
     0
287
     0
288
     1
  0
DIMSTYLE
105
61
330
A
100
AcDbSymbolTableRecord
100
AcDbDimStyleTableRecord
  2
AM_JIS$6
 70
     0
  3

  4
"
  5
OPEN30
  6

  7

 40
1.0
 41
2.5
 42
1.0
 43
10.0
 44
1.0
 45
0.0
 46
0.0
 47
0.1
 48
0.1
140
3.2
141
0.0
142
0.0
143
0.0393701
144
1.0
145
0.0
146
0.71
147
1.5
 71
     0
 72
     0
 73
     0
 74
     0
 75
     0
 76
     0
 77
     0
 78
     8
170
     0
171
     2
172
     1
173
     0
174
     0
175
     0
176
   256
177
   256
178
     2
270
     2
271
     2
272
     2
273
     2
274
     2
340
6B
275
     0
280
     0
281
     0
282
     0
283
     0
284
     0
285
     0
286
     0
287
     3
288
     0
  0
DIMSTYLE
105
62
330
A
100
AcDbSymbolTableRecord
100
AcDbDimStyleTableRecord
  2
AM_JIS$7
 70
     0
  3

  4
"
  5
OPEN30
  6

  7

 40
1.0
 41
2.5
 42
1.0
 43
10.0
 44
1.0
 45
0.0
 46
0.0
 47
0.1
 48
0.1
140
3.2
141
0.0
142
0.0
143
0.0393701
144
1.0
145
0.0
146
0.71
147
1.5
 71
     0
 72
     0
 73
     0
 74
     0
 75
     0
 76
     0
 77
     3
 78
     8
170
     0
171
     2
172
     1
173
     0
174
     0
175
     0
176
   256
177
   256
178
     2
270
     2
271
     2
272
     3
273
     2
274
     2
340
6B
275
     0
280
     0
281
     0
282
     0
283
     0
284
     0
285
     0
286
     0
287
     3
288
     0
  0
DIMSTYLE
105
63
330
A
100
AcDbSymbolTableRecord
100
AcDbDimStyleTableRecord
  2
AM_JIS$SF
 70
     0
  3

  4
"
  5
OPEN30
  6

  7

 40
1.0
 41
2.5
 42
1.0
 43
10.0
 44
1.0
 45
0.0
 46
0.0
 47
0.1
 48
0.1
140
3.2
141
0.0
142
0.0
143
0.0393701
144
1.0
145
0.0
146
0.71
147
1.5
 71
     0
 72
     0
 73
     0
 74
     0
 75
     1
 76
     1
 77
     3
 78
     8
170
     0
171
     2
172
     1
173
     0
174
     0
175
     0
176
   256
177
   256
178
     2
270
     2
271
     2
272
     2
273
     2
274
     2
340
6B
275
     0
280
     0
281
     0
282
     0
283
     0
284
     0
285
     0
286
     0
287
     3
288
     0
  0
DIMSTYLE
105
68
330
A
100
AcDbSymbolTableRecord
100
AcDbDimStyleTableRecord
  2
AM_JIS$SH
 70
     0
  3

  4
"
  5

  6
GENAXEH
  7
OPEN30
 40
1.0
 41
2.5
 42
1.0
 43
10.0
 44
1.0
 45
0.0
 46
0.0
 47
0.1
 48
0.1
140
3.2
141
0.0
142
0.0
143
0.0393701
144
2.0
145
0.0
146
0.71
147
1.5
 71
     0
 72
     0
 73
     0
 74
     0
 75
     1
 76
     1
 77
     3
 78
     8
170
     0
171
     2
172
     1
173
     1
174
     0
175
     0
176
   256
177
   256
178
     2
270
     2
271
     2
272
     2
273
     2
274
     2
340
6B
275
     0
280
     0
281
     0
282
     0
283
     0
284
     0
285
     0
286
     0
287
     3
288
     0
  0
DIMSTYLE
105
B34
330
A
100
AcDbSymbolTableRecord
100
AcDbDimStyleTableRecord
  2
AM_JIS$2
 70
     0
  3

  4
"
  5
OPEN30
  6

  7

 40
1.0
 41
2.5
 42
1.0
 43
12.0
 44
1.0
 45
0.0
 46
0.0
 47
0.1
 48
0.1
140
3.2
141
0.0
142
0.0
143
0.0393701
144
1.0
145
0.0
146
0.71
147
1.5
 71
     0
 72
     0
 73
     0
 74
     0
 75
     0
 76
     0
 77
     3
 78
     8
170
     0
171
     2
172
     1
173
     0
174
     0
175
     0
176
   256
177
   256
178
     2
270
     2
271
     3
272
     3
273
     2
274
     2
340
6B
275
     0
280
     0
281
     0
282
     0
283
     0
284
     0
285
     0
286
     0
287
     3
288
     0
  0
DIMSTYLE
105
BA5
102
{ACAD_REACTORS
330
155D
330
15E8
330
1673
330
1895
330
1E16
330
2381
102
}
330
A
100
AcDbSymbolTableRecord
100
AcDbDimStyleTableRecord
  2
AM_JIS$0
 70
     0
  3

  4
"
  5
OPEN30
  6

  7

 40
1.0
 41
2.5
 42
0.0
 43
10.0
 44
1.0
 45
0.0
 46
0.0
 47
0.1
 48
0.1000000001
140
3.799999999999999
141
0.0
142
0.0
143
0.0393701
144
1.0
145
0.0
146
0.71
147
1.5
 71
     0
 72
     0
 73
     0
 74
     0
 75
     0
 76
     0
 77
     3
 78
     1
170
     0
171
     2
172
     1
173
     0
174
     0
175
     0
176
     3
177
     3
178
     2
270
     2
271
     2
272
     2
273
     2
274
     2
340
11
275
     1
280
     0
281
     0
282
     0
283
     0
284
     8
285
     0
286
     0
287
     0
288
     0
  0
ENDTAB
  0
TABLE
  2
BLOCK_RECORD
  5
1
330
0
100
AcDbSymbolTable
 70
    11
  0
BLOCK_RECORD
  5
1F
102
{ACAD_XDICTIONARY
360
74
102
}
330
1
100
AcDbSymbolTableRecord
100
AcDbBlockTableRecord
  2
*MODEL_SPACE
  0
BLOCK_RECORD
  5
101
102
{ACAD_XDICTIONARY
360
24AC
102
}
330
1
100
AcDbSymbolTableRecord
100
AcDbBlockTableRecord
  2
*PAPER_SPACE
  0
BLOCK_RECORD
  5
59
330
1
100
AcDbSymbolTableRecord
100
AcDbBlockTableRecord
  2
_OPEN30
  0
BLOCK_RECORD
  5
64
330
1
100
AcDbSymbolTableRecord
100
AcDbBlockTableRecord
  2
GENAXEH
  0
BLOCK_RECORD
  5
155E
330
1
100
AcDbSymbolTableRecord
100
AcDbBlockTableRecord
  2
*D5
  0
BLOCK_RECORD
  5
15E9
330
1
100
AcDbSymbolTableRecord
100
AcDbBlockTableRecord
  2
*D6
  0
BLOCK_RECORD
  5
1674
330
1
100
AcDbSymbolTableRecord
100
AcDbBlockTableRecord
  2
*D7
  0
BLOCK_RECORD
  5
1896
330
1
100
AcDbSymbolTableRecord
100
AcDbBlockTableRecord
  2
*D8
  0
BLOCK_RECORD
  5
1E17
330
1
100
AcDbSymbolTableRecord
100
AcDbBlockTableRecord
  2
*D9
  0
BLOCK_RECORD
  5
2382
330
1
100
AcDbSymbolTableRecord
100
AcDbBlockTableRecord
  2
*D10
  0
ENDTAB
  0
ENDSEC
  0
SECTION
  2
BLOCKS
  0
BLOCK
  5
20
330
1F
100
AcDbEntity
  8
0
100
AcDbBlockBegin
  2
*MODEL_SPACE
 70
     0
 10
0.0
 20
0.0
 30
0.0
  3
*MODEL_SPACE
  1

  0
ENDBLK
  5
21
330
1F
100
AcDbEntity
  8
0
100
AcDbBlockEnd
  0
BLOCK
  5
103
330
101
100
AcDbEntity
 67
     1
  8
0
100
AcDbBlockBegin
  2
*PAPER_SPACE
 70
     0
 10
0.0
 20
0.0
 30
0.0
  3
*PAPER_SPACE
  1

  0
ENDBLK
  5
104
330
101
100
AcDbEntity
 67
     1
  8
0
100
AcDbBlockEnd
  0
BLOCK
  5
5D
330
59
100
AcDbEntity
  8
0
100
AcDbBlockBegin
  2
_OPEN30
 70
     0
 10
0.0
 20
0.0
 30
0.0
  3
_OPEN30
  1

  0
LINE
  5
5A
330
59
100
AcDbEntity
  8
0
 62
     0
100
AcDbLine
 10
-1.0
 20
0.26794919
 30
0.0
 11
0.0
 21
0.0
 31
0.0
  0
LINE
  5
5B
330
59
100
AcDbEntity
  8
0
 62
     0
100
AcDbLine
 10
0.0
 20
0.0
 30
0.0
 11
-1.0
 21
-0.26794919
 31
0.0
  0
LINE
  5
5C
330
59
100
AcDbEntity
  8
0
 62
     0
100
AcDbLine
 10
0.0
 20
0.0
 30
0.0
 11
-1.0
 21
0.0
 31
0.0
  0
ENDBLK
  5
5E
330
59
100
AcDbEntity
  8
0
100
AcDbBlockEnd
  0
BLOCK
  5
66
330
64
100
AcDbEntity
  8
0
100
AcDbBlockBegin
  2
GENAXEH
 70
     0
 10
0.0
 20
0.0
 30
0.0
  3
GENAXEH
  1

  0
LINE
  5
65
330
64
100
AcDbEntity
  8
0
100
AcDbLine
 10
-1.0
 20
0.0
 30
0.0
 11
1.0
 21
0.0
 31
0.0
  0
ENDBLK
  5
67
330
64
100
AcDbEntity
  8
0
100
AcDbBlockEnd
  0
BLOCK
  5
1568
330
155E
100
AcDbEntity
  8
0
100
AcDbBlockBegin
  2
*D5
 70
     1
 10
0.0
 20
0.0
 30
0.0
  3
*D5
  1

  0
LINE
  5
2371
330
155E
100
AcDbEntity
  8
AM_5
 62
     3
100
AcDbLine
 10
0.0000000000000206
 20
-12.49999999999998
 30
0.0
 11
0.0000000000000196
 21
-27.50000100000005
 31
0.0
  0
LINE
  5
2372
330
155E
100
AcDbEntity
  8
AM_5
 62
     3
100
AcDbLine
 10
-34.99999713897698
 20
-11.99999999999998
 30
0.0
 11
-34.99999713897698
 21
-27.50000100000005
 31
0.0
  0
LINE
  5
2373
330
155E
100
AcDbEntity
  8
AM_5
 62
     3
100
AcDbLine
 10
-2.49999999999998
 20
-26.50000100000005
 30
0.0
 11
-32.49999713897698
 21
-26.50000100000005
 31
0.0
  0
INSERT
  5
2374
330
155E
100
AcDbEntity
  8
AM_5
 62
     3
100
AcDbBlockReference
  2
_OPEN30
 10
0.0000000000000197
 20
-26.50000100000005
 30
0.0
 41
2.5
 42
2.5
 43
2.5
  0
INSERT
  5
2375
330
155E
100
AcDbEntity
  8
AM_5
 62
     3
100
AcDbBlockReference
  2
_OPEN30
 10
-34.99999713897698
 20
-26.50000100000005
 30
0.0
 41
2.5
 42
2.5
 43
2.5
 50
180.0
  0
MTEXT
  5
2376
330
155E
100
AcDbEntity
  8
AM_5
 62
     2
100
AcDbMText
 10
-17.49999856948847
 20
-23.10000100000005
 30
0.0
 40
3.799999999999999
 41
0.0
 71
     5
 72
     1
  1
35
1001
ACAD
1000
MTEXTBEGIN
1070
    73
1070
     1
1070
    44
1040
1.0
1070
    74
1070
     0
1000
MTEXTEND
  0
POINT
  5
2377
330
155E
100
AcDbEntity
  8
DEFPOINTS
 62
     0
100
AcDbPoint
 10
0.0000000000000206
 20
-12.49999999999998
 30
0.0
  0
POINT
  5
2378
330
155E
100
AcDbEntity
  8
DEFPOINTS
 62
     0
100
AcDbPoint
 10
-34.99999713897698
 20
-11.99999999999998
 30
0.0
  0
POINT
  5
2379
330
155E
100
AcDbEntity
  8
DEFPOINTS
 62
     0
100
AcDbPoint
 10
-34.99999713897698
 20
-26.50000100000005
 30
0.0
  0
ENDBLK
  5
1569
330
155E
100
AcDbEntity
  8
0
100
AcDbBlockEnd
  0
BLOCK
  5
15F3
330
15E9
100
AcDbEntity
  8
0
100
AcDbBlockBegin
  2
*D6
 70
     1
 10
0.0
 20
0.0
 30
0.0
  3
*D6
  1

  0
LINE
  5
2421
330
15E9
100
AcDbEntity
  8
AM_5
 62
     3
100
AcDbLine
 10
-34.99999713897698
 20
-11.99999999999998
 30
0.0
 11
-34.99999713897698
 21
-27.50000100000022
 31
0.0
  0
LINE
  5
2422
330
15E9
100
AcDbEntity
  8
AM_5
 62
     3
100
AcDbLine
 10
-119.9089599560688
 20
-10.75804900971251
 30
0.0
 11
-119.9089599560688
 21
-27.50000100000022
 31
0.0
  0
LINE
  5
2423
330
15E9
100
AcDbEntity
  8
AM_5
 62
     3
100
AcDbLine
 10
-37.49999713897698
 20
-26.50000100000022
 30
0.0
 11
-117.4089599560688
 21
-26.50000100000022
 31
0.0
  0
INSERT
  5
2424
330
15E9
100
AcDbEntity
  8
AM_5
 62
     3
100
AcDbBlockReference
  2
_OPEN30
 10
-34.99999713897698
 20
-26.50000100000022
 30
0.0
 41
2.5
 42
2.5
 43
2.5
  0
INSERT
  5
2425
330
15E9
100
AcDbEntity
  8
AM_5
 62
     3
100
AcDbBlockReference
  2
_OPEN30
 10
-119.9089599560688
 20
-26.50000100000022
 30
0.0
 41
2.5
 42
2.5
 43
2.5
 50
180.0
  0
MTEXT
  5
2426
330
15E9
100
AcDbEntity
  8
AM_5
 62
     2
100
AcDbMText
 10
-77.45447854752291
 20
-23.10000100000022
 30
0.0
 40
3.799999999999999
 41
0.0
 71
     5
 72
     1
  1
85
1001
ACAD
1000
MTEXTBEGIN
1070
    73
1070
     1
1070
    44
1040
1.0
1070
    74
1070
     0
1000
MTEXTEND
  0
POINT
  5
2427
330
15E9
100
AcDbEntity
  8
DEFPOINTS
 62
     0
100
AcDbPoint
 10
-34.99999713897698
 20
-11.99999999999998
 30
0.0
  0
POINT
  5
2428
330
15E9
100
AcDbEntity
  8
DEFPOINTS
 62
     0
100
AcDbPoint
 10
-119.9089599560688
 20
-10.75804900971251
 30
0.0
  0
POINT
  5
2429
330
15E9
100
AcDbEntity
  8
DEFPOINTS
 62
     0
100
AcDbPoint
 10
-119.9089599560688
 20
-26.50000100000022
 30
0.0
  0
ENDBLK
  5
15F4
330
15E9
100
AcDbEntity
  8
0
100
AcDbBlockEnd
  0
BLOCK
  5
167E
330
1674
100
AcDbEntity
  8
0
100
AcDbBlockBegin
  2
*D7
 70
     1
 10
0.0
 20
0.0
 30
0.0
  3
*D7
  1

  0
LINE
  5
2418
330
1674
100
AcDbEntity
  8
AM_5
 62
     3
100
AcDbLine
 10
-119.9089599560688
 20
-10.75804900971251
 30
0.0
 11
-119.9089599560688
 21
-37.50000100000004
 31
0.0
  0
LINE
  5
2419
330
1674
100
AcDbEntity
  8
AM_5
 62
     3
100
AcDbLine
 10
-0.0000000000000019
 20
-12.49999999999998
 30
0.0
 11
-0.0000000000000034
 21
-37.50000100000004
 31
0.0
  0
LINE
  5
241A
330
1674
100
AcDbEntity
  8
AM_5
 62
     3
100
AcDbLine
 10
-117.4089599560688
 20
-36.50000100000004
 30
0.0
 11
-2.500000000000003
 21
-36.50000100000004
 31
0.0
  0
INSERT
  5
241B
330
1674
100
AcDbEntity
  8
AM_5
 62
     3
100
AcDbBlockReference
  2
_OPEN30
 10
-119.9089599560688
 20
-36.50000100000004
 30
0.0
 41
2.5
 42
2.5
 43
2.5
 50
180.0
  0
INSERT
  5
241C
330
1674
100
AcDbEntity
  8
AM_5
 62
     3
100
AcDbBlockReference
  2
_OPEN30
 10
-0.0000000000000033
 20
-36.50000100000004
 30
0.0
 41
2.5
 42
2.5
 43
2.5
  0
MTEXT
  5
241D
330
1674
100
AcDbEntity
  8
AM_5
 62
     2
100
AcDbMText
 10
-59.95447997803442
 20
-33.10000100000004
 30
0.0
 40
3.799999999999999
 41
0.0
 71
     5
 72
     1
  1
120
1001
ACAD
1000
MTEXTBEGIN
1070
    73
1070
     1
1070
    44
1040
1.0
1070
    74
1070
     0
1000
MTEXTEND
  0
POINT
  5
241E
330
1674
100
AcDbEntity
  8
DEFPOINTS
 62
     0
100
AcDbPoint
 10
-119.9089599560688
 20
-10.75804900971251
 30
0.0
  0
POINT
  5
241F
330
1674
100
AcDbEntity
  8
DEFPOINTS
 62
     0
100
AcDbPoint
 10
-0.0000000000000019
 20
-12.49999999999998
 30
0.0
  0
POINT
  5
2420
330
1674
100
AcDbEntity
  8
DEFPOINTS
 62
     0
100
AcDbPoint
 10
-0.0000000000000033
 20
-36.50000100000004
 30
0.0
  0
ENDBLK
  5
167F
330
1674
100
AcDbEntity
  8
0
100
AcDbBlockEnd
  0
BLOCK
  5
18A0
330
1896
100
AcDbEntity
  8
0
100
AcDbBlockBegin
  2
*D8
 70
     1
 10
0.0
 20
0.0
 30
0.0
  3
*D8
  1

  0
LINE
  5
2343
330
1896
100
AcDbEntity
  8
AM_5
 62
     3
100
AcDbLine
 10
0.0000000000000206
 20
-12.49999999999998
 30
0.0
 11
16.99059395654298
 21
-12.49999999999999
 31
0.0
  0
LINE
  5
2344
330
1896
100
AcDbEntity
  8
AM_5
 62
     3
100
AcDbLine
 10
0.0000000000000231
 20
12.50000000000001
 30
0.0
 11
16.99059395654299
 21
12.50000000000001
 31
0.0
  0
LINE
  5
2345
330
1896
100
AcDbEntity
  8
AM_5
 62
     3
100
AcDbLine
 10
15.99059395654298
 20
-9.999999999999989
 30
0.0
 11
15.99059395654299
 21
10.00000000000001
 31
0.0
  0
INSERT
  5
2346
330
1896
100
AcDbEntity
  8
AM_5
 62
     3
100
AcDbBlockReference
  2
_OPEN30
 10
15.99059395654298
 20
-12.49999999999999
 30
0.0
 41
2.5
 42
2.5
 43
2.5
 50
270.0
  0
INSERT
  5
2347
330
1896
100
AcDbEntity
  8
AM_5
 62
     3
100
AcDbBlockReference
  2
_OPEN30
 10
15.99059395654299
 20
12.50000000000001
 30
0.0
 41
2.5
 42
2.5
 43
2.5
 50
90.0
  0
MTEXT
  5
2348
330
1896
100
AcDbEntity
  8
AM_5
 62
     2
100
AcDbMText
 10
12.59059395654299
 20
0.0000000000000136
 30
0.0
 40
3.799999999999999
 41
0.0
 71
     5
 72
     1
  1
%%c25
 11
0.0000000000000001
 21
1.0
 31
0.0
1001
ACAD
1000
MTEXTBEGIN
1070
    73
1070
     1
1070
    44
1040
1.0
1070
    74
1070
     0
1000
MTEXTEND
  0
POINT
  5
2349
330
1896
100
AcDbEntity
  8
DEFPOINTS
 62
     0
100
AcDbPoint
 10
0.0000000000000206
 20
-12.49999999999998
 30
0.0
  0
POINT
  5
234A
330
1896
100
AcDbEntity
  8
DEFPOINTS
 62
     0
100
AcDbPoint
 10
0.0000000000000231
 20
12.50000000000001
 30
0.0
  0
POINT
  5
234B
330
1896
100
AcDbEntity
  8
DEFPOINTS
 62
     0
100
AcDbPoint
 10
15.99059395654299
 20
12.50000000000001
 30
0.0
  0
ENDBLK
  5
18A1
330
1896
100
AcDbEntity
  8
0
100
AcDbBlockEnd
  0
BLOCK
  5
1E21
330
1E17
100
AcDbEntity
  8
0
100
AcDbBlockBegin
  2
*D9
 70
     1
 10
0.0
 20
0.0
 30
0.0
  3
*D9
  1

  0
LINE
  5
2331
330
1E17
100
AcDbEntity
  8
AM_5
 62
     3
100
AcDbLine
 10
-117.7587966918934
 20
12.29669189453002
 30
0.0
 11
-141.0129457812844
 21
12.29669189453003
 31
0.0
  0
LINE
  5
2332
330
1E17
100
AcDbEntity
  8
AM_5
 62
     3
100
AcDbLine
 10
-116.9999923706039
 20
-12.49999999999997
 30
0.0
 11
-141.0129457812844
 21
-12.49999999999996
 31
0.0
  0
LINE
  5
2333
330
1E17
100
AcDbEntity
  8
AM_5
 62
     3
100
AcDbLine
 10
-140.0129457812844
 20
9.796691894530036
 30
0.0
 11
-140.0129457812844
 21
-9.999999999999962
 31
0.0
  0
INSERT
  5
2334
330
1E17
100
AcDbEntity
  8
AM_5
 62
     3
100
AcDbBlockReference
  2
_OPEN30
 10
-140.0129457812844
 20
12.29669189453003
 30
0.0
 41
2.5
 42
2.5
 43
2.5
 50
90.0
  0
INSERT
  5
2335
330
1E17
100
AcDbEntity
  8
AM_5
 62
     3
100
AcDbBlockReference
  2
_OPEN30
 10
-140.0129457812844
 20
-12.49999999999996
 30
0.0
 41
2.5
 42
2.5
 43
2.5
 50
270.0
  0
MTEXT
  5
2336
330
1E17
100
AcDbEntity
  8
AM_5
 62
     2
100
AcDbMText
 10
-143.4129457812844
 20
0.0000362396245128
 30
0.0
 40
3.799999999999999
 41
0.0
 71
     5
 72
     1
  1
%%c25
 11
0.0000000000000001
 21
1.0
 31
0.0
1001
ACAD
1000
MTEXTBEGIN
1070
    73
1070
     1
1070
    44
1040
1.0
1070
    74
1070
     0
1000
MTEXTEND
  0
POINT
  5
2337
330
1E17
100
AcDbEntity
  8
DEFPOINTS
 62
     0
100
AcDbPoint
 10
-117.7587966918934
 20
12.29669189453002
 30
0.0
  0
POINT
  5
2338
330
1E17
100
AcDbEntity
  8
DEFPOINTS
 62
     0
100
AcDbPoint
 10
-116.9999923706039
 20
-12.49999999999997
 30
0.0
  0
POINT
  5
2339
330
1E17
100
AcDbEntity
  8
DEFPOINTS
 62
     0
100
AcDbPoint
 10
-140.0129457812844
 20
-12.49999999999996
 30
0.0
  0
ENDBLK
  5
1E22
330
1E17
100
AcDbEntity
  8
0
100
AcDbBlockEnd
  0
BLOCK
  5
238C
330
2382
100
AcDbEntity
  8
0
100
AcDbBlockBegin
  2
*D10
 70
     1
 10
0.0
 20
0.0
 30
0.0
  3
*D10
  1

  0
LINE
  5
240F
330
2382
100
AcDbEntity
  8
AM_5
 62
     3
100
AcDbLine
 10
-8.999999999999976
 20
12.50000000000001
 30
0.0
 11
-8.999999999999975
 21
27.50000100000006
 31
0.0
  0
LINE
  5
2410
330
2382
100
AcDbEntity
  8
AM_5
 62
     3
100
AcDbLine
 10
0.0000000000000231
 20
12.50000000000001
 30
0.0
 11
0.000000000000024
 21
27.50000100000006
 31
0.0
  0
LINE
  5
2411
330
2382
100
AcDbEntity
  8
AM_5
 62
     3
100
AcDbLine
 10
-6.499999999999976
 20
26.50000100000006
 30
0.0
 11
-2.499999999999976
 21
26.50000100000006
 31
0.0
  0
INSERT
  5
2412
330
2382
100
AcDbEntity
  8
AM_5
 62
     3
100
AcDbBlockReference
  2
_OPEN30
 10
-8.999999999999976
 20
26.50000100000006
 30
0.0
 41
2.5
 42
2.5
 43
2.5
 50
180.0
  0
INSERT
  5
2413
330
2382
100
AcDbEntity
  8
AM_5
 62
     3
100
AcDbBlockReference
  2
_OPEN30
 10
0.0000000000000239
 20
26.50000100000006
 30
0.0
 41
2.5
 42
2.5
 43
2.5
  0
MTEXT
  5
2414
330
2382
100
AcDbEntity
  8
AM_5
 62
     2
100
AcDbMText
 10
-4.499999999999976
 20
29.90000100000006
 30
0.0
 40
3.799999999999999
 41
0.0
 71
     5
 72
     1
  1
9
1001
ACAD
1000
MTEXTBEGIN
1070
    73
1070
     1
1070
    44
1040
1.0
1070
    74
1070
     0
1000
MTEXTEND
  0
POINT
  5
2415
330
2382
100
AcDbEntity
  8
DEFPOINTS
 62
     0
100
AcDbPoint
 10
-8.999999999999976
 20
12.50000000000001
 30
0.0
  0
POINT
  5
2416
330
2382
100
AcDbEntity
  8
DEFPOINTS
 62
     0
100
AcDbPoint
 10
0.0000000000000231
 20
12.50000000000001
 30
0.0
  0
POINT
  5
2417
330
2382
100
AcDbEntity
  8
DEFPOINTS
 62
     0
100
AcDbPoint
 10
0.0000000000000239
 20
26.50000100000006
 30
0.0
  0
ENDBLK
  5
238D
330
2382
100
AcDbEntity
  8
0
100
AcDbBlockEnd
  0
ENDSEC
  0
SECTION
  2
ENTITIES
  0
TEXT
  5
1142
330
1F
100
AcDbEntity
  8
AM_6
100
AcDbText
 10
-84.59733712089155
 20
-59.00000100000004
 30
0.0
 40
5.0
  1
WEM2025E-C
 72
     4
 11
-59.95447997803442
 21
-56.50000100000004
 31
0.0
100
AcDbText
  0
DIMENSION
  5
155D
330
1F
100
AcDbEntity
  8
AM_5
100
AcDbDimension
  2
*D5
 10
-34.99999713897698
 20
-26.50000100000005
 30
0.0
 11
-17.49999856948847
 21
-23.10000100000005
 31
0.0
 70
    32
  1
<>
  3
AM_JIS$0
100
AcDbAlignedDimension
 13
0.0000000000000206
 23
-12.49999999999998
 33
0.0
 14
-34.99999713897698
 24
-11.99999999999998
 34
0.0
 50
0.0000000000001132
100
AcDbRotatedDimension
1001
ACAD
1000
DSTYLE
1002
{
1070
   171
1070
     0
1070
   271
1070
     0
1002
}
1001
GENIUS_GENDTOL_13
1000

1000
h7
1000

1040
0.0
  0
DIMENSION
  5
15E8
330
1F
100
AcDbEntity
  8
AM_5
100
AcDbDimension
  2
*D6
 10
-119.9089599560688
 20
-26.50000100000022
 30
0.0
 11
-77.45447854752291
 21
-23.10000100000022
 31
0.0
 70
    32
  1
<>
  3
AM_JIS$0
100
AcDbAlignedDimension
 13
-34.99999713897698
 23
-11.99999999999998
 33
0.0
 14
-119.9089599560688
 24
-10.75804900971251
 34
0.0
 50
0.0000000000001132
100
AcDbRotatedDimension
1001
ACAD
1000
DSTYLE
1002
{
1070
   171
1070
     0
1070
   271
1070
     0
1002
}
1001
GENIUS_GENDTOL_13
1000

1000
h7
1000

1040
0.0
  0
DIMENSION
  5
1673
330
1F
100
AcDbEntity
  8
AM_5
100
AcDbDimension
  2
*D7
 10
-0.0000000000000033
 20
-36.50000100000004
 30
0.0
 11
-59.95447997803442
 21
-33.10000100000004
 31
0.0
 70
    32
  1
<>
  3
AM_JIS$0
100
AcDbAlignedDimension
 13
-119.9089599560688
 23
-10.75804900971251
 33
0.0
 14
-0.0000000000000019
 24
-12.49999999999998
 34
0.0
 50
0.0000000000001132
100
AcDbRotatedDimension
1001
ACAD
1000
DSTYLE
1002
{
1070
   171
1070
     0
1070
   271
1070
     0
1002
}
1001
GENIUS_GENDTOL_13
1000

1000
h7
1000

1040
0.0
  0
DIMENSION
  5
1895
330
1F
100
AcDbEntity
  8
AM_5
100
AcDbDimension
  2
*D8
 10
15.99059395654299
 20
12.50000000000001
 30
0.0
 11
12.59059395654299
 21
0.0000000000000136
 31
0.0
 70
    32
  1
%%c<>
  3
AM_JIS$0
100
AcDbAlignedDimension
 13
0.0000000000000206
 23
-12.49999999999998
 33
0.0
 14
0.0000000000000231
 24
12.50000000000001
 34
0.0
 50
90.00000000000003
100
AcDbRotatedDimension
1001
ACAD
1000
DSTYLE
1002
{
1070
   171
1070
     0
1070
   271
1070
     0
1002
}
1001
GENIUS_GENDTOL_13
1000

1000
h7
1000

1040
0.0
  0
DIMENSION
  5
1E16
330
1F
100
AcDbEntity
  8
AM_5
100
AcDbDimension
  2
*D9
 10
-140.0129457812844
 20
-12.49999999999996
 30
0.0
 11
-140.0129457812844
 21
0.0000362396245124
 31
0.0
 70
   160
  1
%%c<>
  3
AM_JIS$0
100
AcDbAlignedDimension
 13
-117.7587966918934
 23
12.29669189453002
 33
0.0
 14
-116.9999923706039
 24
-12.49999999999997
 34
0.0
 50
270.0
100
AcDbRotatedDimension
1001
ACAD
1000
DSTYLE
1002
{
1070
   171
1070
     0
1070
   271
1070
     0
1002
}
1001
GENIUS_GENDTOL_13
1000

1000
h7
1000

1040
0.0
  0
LINE
  5
221E
330
1F
100
AcDbEntity
  8
AM_7
100
AcDbLine
 10
1.990592956543018
 20
0.0000000000000152
 30
0.0
 11
-126.0129447812844
 21
0.0000000000000309
 31
0.0
  0
LINE
  5
221F
330
1F
100
AcDbEntity
  8
AM_0
100
AcDbLine
 10
-116.9999999999989
 20
-12.49999999999997
 30
0.0
 11
-35.86608982086198
 21
-12.49999999999998
 31
0.0
  0
LINE
  5
2220
330
1F
100
AcDbEntity
  8
AM_0
100
AcDbLine
 10
-35.86608982086198
 20
12.50000000000001
 30
0.0
 11
-116.9999999999989
 21
12.50000000000003
 31
0.0
  0
SPLINE
  5
2221
330
1F
100
AcDbEntity
  8
AM_0
100
AcDbSpline
210
0.0
220
0.0
230
1.0
 70
     8
 71
     3
 72
    11
 73
     7
 74
     5
 42
0.0000000001
 43
0.0000000001
 44
0.0000000001
 40
0.0
 40
0.0
 40
0.0
 40
0.0
 40
0.1758956909180007
 40
0.3529968682416303
 40
0.5312958184366302
 40
0.7108002129676315
 40
0.7108002129676315
 40
0.7108002129676315
 40
0.7108002129676315
 10
-28.94989776611298
 20
12.00000000000001
 30
0.0
 10
-28.89126586443429
 20
12.00001365510876
 30
0.0
 10
-28.77360023224278
 20
12.00004105891039
 30
0.0
 10
-28.59650169746256
 20
11.99983398349378
 30
0.0
 10
-28.41820017114038
 20
11.99988903399918
 30
0.0
 10
-28.29893239211347
 20
11.99988163943054
 30
0.0
 10
-28.23909759521498
 20
11.99987792969002
 30
0.0
 11
-28.94989776611298
 21
12.00000000000001
 31
0.0
 11
-28.77400207519498
 21
12.00000000000001
 31
0.0
 11
-28.59690093994098
 21
11.99987792969002
 31
0.0
 11
-28.41860198974598
 21
11.99987792969002
 31
0.0
 11
-28.23909759521498
 21
11.99987792969002
 31
0.0
  0
SPLINE
  5
2222
330
1F
100
AcDbEntity
  8
AM_0
100
AcDbSpline
210
0.0
220
0.0
230
1.0
 70
     8
 71
     3
 72
    11
 73
     7
 74
     5
 42
0.0000000001
 43
0.0000000001
 44
0.0000000001
 40
0.0
 40
0.0
 40
0.0
 40
0.0
 40
0.0864257815870291
 40
0.2911772310723626
 40
0.5384811328322275
 40
0.8061813907667875
 40
0.8061813907667875
 40
0.8061813907667875
 40
0.8061813907667875
 10
-29.75530242919898
 20
11.98272705078001
 30
0.0
 10
-29.72677331722595
 20
11.98693807022545
 30
0.0
 10
-29.6306558430566
 20
12.00112542218915
 30
0.0
 10
-29.45051772946084
 20
11.9966389142225
 30
0.0
 10
-29.21085819384653
 20
12.00071257419876
 30
0.0
 10
-29.03915134925565
 20
12.00024371434799
 30
0.0
 10
-28.94989776611298
 20
12.00000000000001
 30
0.0
 11
-29.75530242919898
 21
11.98272705078001
 31
0.0
 11
-29.66960144042998
 21
11.99389648438002
 31
0.0
 11
-29.46489715576197
 21
11.99829101563002
 31
0.0
 11
-29.21759796142597
 21
11.99981689453001
 31
0.0
 11
-28.94989776611298
 21
12.00000000000001
 31
0.0
  0
ELLIPSE
  5
2223
330
1F
100
AcDbEntity
  8
AM_0
100
AcDbEllipse
 10
-28.25150299072197
 20
0.1378173828100178
 30
0.0
 11
-151.7415855759279
 21
-0.0455322258899669
 31
0.0
210
0.0
220
0.0
230
1.0
 40
0.078173178148
 41
4.708932301144871
 42
4.712288220219033
  0
ELLIPSE
  5
2224
330
1F
100
AcDbEntity
  8
AM_0
100
AcDbEllipse
 10
-28.25460052490198
 20
0.0000000000000189
 30
0.0
 11
-152.6205986037579
 21
-0.0457763666499699
 31
0.0
210
0.0
220
0.0
230
1.0
 40
0.0786255489323
 41
4.633834740935338
 42
4.708935963554675
  0
SPLINE
  5
2225
330
1F
100
AcDbEntity
  8
AM_0
100
AcDbSpline
210
0.0
220
0.0
230
1.0
 70
     8
 71
     3
 72
    11
 73
     7
 74
     5
 42
0.0000000001
 43
0.0000000001
 44
0.0000000001
 40
0.0
 40
0.0
 40
0.0
 40
0.0
 40
0.1758956909180007
 40
0.3529968682416303
 40
0.5312958184366302
 40
0.7108002129676315
 40
0.7108002129676315
 40
0.7108002129676315
 40
0.7108002129676315
 10
-28.94989776611298
 20
-11.99999999999998
 30
0.0
 10
-28.89126586443429
 20
-12.00001365510872
 30
0.0
 10
-28.77360023224278
 20
-12.00004105891035
 30
0.0
 10
-28.59650169746256
 20
-11.99983398349375
 30
0.0
 10
-28.41820017114038
 20
-11.99988903399914
 30
0.0
 10
-28.29893239211347
 20
-11.9998816394305
 30
0.0
 10
-28.23909759521498
 20
-11.99987792968998
 30
0.0
 11
-28.94989776611298
 21
-11.99999999999998
 31
0.0
 11
-28.77400207519498
 21
-11.99999999999998
 31
0.0
 11
-28.59690093994098
 21
-11.99987792968998
 31
0.0
 11
-28.41860198974598
 21
-11.99987792968998
 31
0.0
 11
-28.23909759521498
 21
-11.99987792968998
 31
0.0
  0
ELLIPSE
  5
2226
330
1F
100
AcDbEntity
  8
AM_0
100
AcDbEllipse
 10
-28.25778961181597
 20
0.1782836914100206
 30
0.0
 11
153.7503901535059
 21
-0.0449646371000274
 31
0.0
210
0.0
220
0.0
230
1.0
 40
0.079207754055
 41
4.712530158341886
 42
4.715835365747725
  0
ELLIPSE
  5
2227
330
1F
100
AcDbEntity
  8
AM_0
100
AcDbEllipse
 10
-11.29370117187497
 20
-0.0819702148399815
 30
0.0
 11
-1.693397822656004
 21
-11.72814940251998
 31
0.0
210
0.0
220
0.0
230
1.0
 40
0.274190636814
 41
3.242695249539705
 42
3.285349188177943
  0
SPLINE
  5
2228
330
1F
100
AcDbEntity
  8
AM_0
100
AcDbSpline
210
0.0
220
0.0
230
1.0
 70
     8
 71
     3
 72
    11
 73
     7
 74
     5
 42
0.0000000001
 43
0.0000000001
 44
0.0000000001
 40
0.0
 40
0.0
 40
0.0
 40
0.0
 40
0.8493093992817708
 40
1.53780826538934
 40
2.320873235750865
 40
3.32809327116992
 40
3.32809327116992
 40
3.32809327116992
 40
3.32809327116992
 10
-4.994201660155979
 20
10.19421386719001
 30
0.0
 10
-5.279762691533004
 20
10.100584884861
 30
0.0
 10
-5.796815858136433
 20
9.931054884336685
 30
0.0
 10
-6.068097848324376
 20
9.128902855108481
 30
0.0
 10
-5.877314073128697
 20
8.260691483353873
 30
0.0
 10
-5.344540122790983
 20
7.93558915198268
 30
0.0
 10
-5.04479980468698
 20
7.752685546880018
 30
0.0
 11
-4.994201660155979
 21
10.19421386719001
 31
0.0
 11
-5.748001098632975
 21
9.802917480470016
 31
0.0
 11
-5.99459838867198
 21
9.160095214850018
 31
0.0
 11
-5.819000244139977
 21
8.396972656250015
 31
0.0
 11
-5.04479980468698
 21
7.752685546880018
 31
0.0
  0
ELLIPSE
  5
2229
330
1F
100
AcDbEntity
  8
AM_0
100
AcDbEllipse
 10
-152.1900939941399
 20
0.0438232421900352
 30
0.0
 11
243.2092943919599
 21
-0.0711850744800429
 31
0.0
210
0.0
220
0.0
230
1.0
 40
0.058612843588
 41
5.342495685955546
 42
5.380726783454374
  0
ELLIPSE
  5
222A
330
1F
100
AcDbEntity
  8
AM_0
100
AcDbEllipse
 10
-11.06079864501897
 20
0.0811157226600185
 30
0.0
 11
1.556877004109998
 21
-11.72558573727997
 31
0.0
210
0.0
220
0.0
230
0.9999999999999998
 40
0.0777186831038
 41
0.0669674775603926
 42
0.1262522938944225
  0
ELLIPSE
  5
222B
330
1F
100
AcDbEntity
  8
AM_0
100
AcDbEllipse
 10
-11.29370117187497
 20
0.0819702148500197
 30
0.0
 11
1.693488836584
 21
-11.72814975080001
 31
0.0
210
0.0
220
0.0
230
1.0
 40
0.2741910723196
 41
6.258041827339769
 42
6.331380996229885
  0
ELLIPSE
  5
222C
330
1F
100
AcDbEntity
  8
AM_0
100
AcDbEllipse
 10
-5.396499633788976
 20
5.558410644530015
 30
0.0
 11
1.499397266228001
 21
-0.0426027063800236
 31
0.0
210
0.0
220
0.0
230
0.9999999999999998
 40
0.1901805954288
 41
0.5124585179334659
 42
2.935454684135251
  0
ELLIPSE
  5
222D
330
1F
100
AcDbEntity
  8
AM_0
100
AcDbEllipse
 10
-5.425201416014977
 20
5.955505371100018
 30
0.0
 11
1.499397266226999
 21
-0.042602706390028
 31
0.0
210
0.0
220
0.0
230
1.0
 40
0.1901805954287999
 41
5.84454969130506
 42
6.206566277267803
  0
ELLIPSE
  5
222E
330
1F
100
AcDbEntity
  8
AM_0
100
AcDbEllipse
 10
-5.350402832030979
 20
8.592224121100018
 30
0.0
 11
-0.3426130887339991
 21
-7.85382097372002
 31
0.0
210
0.0
220
0.0
230
1.0
 40
0.1902234585873
 41
1.145112908785659
 42
1.21490460817793
  0
ELLIPSE
  5
222F
330
1F
100
AcDbEntity
  8
AM_0
100
AcDbEllipse
 10
-220.8824005126899
 20
-0.0520019531199553
 30
0.0
 11
-288.99559247257
 21
-0.08666991925994
 31
0.0
210
0.0
220
0.0
230
1.0
 40
0.0586130151741
 41
3.894890339388806
 42
3.925750057383416
  0
ELLIPSE
  5
2230
330
1F
100
AcDbEntity
  8
AM_0
100
AcDbEllipse
 10
-5.350402832030979
 20
8.592224121100018
 30
0.0
 11
-0.3426130887339991
 21
-7.85382097372002
 31
0.0
210
0.0
220
0.0
230
1.0
 40
0.1902234585873
 41
5.071521362618907
 42
5.138179932078183
  0
SPLINE
  5
2231
330
1F
100
AcDbEntity
  8
AM_0
100
AcDbSpline
210
0.0
220
0.0
230
1.0
 70
     8
 71
     3
 72
    11
 73
     7
 74
     5
 42
0.0000000001
 43
0.0000000001
 44
0.0000000001
 40
0.0
 40
0.0
 40
0.0
 40
0.0
 40
0.9725254569139261
 40
1.734018017759223
 40
2.625005997282089
 40
3.796745537899198
 40
3.796745537899198
 40
3.796745537899198
 40
3.796745537899198
 10
-4.845703124999979
 20
-10.19671630858998
 30
0.0
 10
-5.187052637770321
 20
-10.1187235187751
 30
0.0
 10
-5.795680618960012
 20
-9.979661963282799
 30
0.0
 10
-6.089718807081508
 20
-9.049339001602662
 30
0.0
 10
-5.778995219502667
 20
-8.060054689553711
 30
0.0
 10
-5.087442113140928
 20
-7.822580911098279
 30
0.0
 10
-4.694602966307976
 20
-7.687683105469984
 30
0.0
 11
-4.845703124999979
 21
-10.19671630858998
 31
0.0
 11
-5.73940277099598
 21
-9.813171386719984
 31
0.0
 11
-5.997299194335981
 21
-9.096679687499984
 31
0.0
 11
-5.723197937011982
 21
-8.248901367189985
 31
0.0
 11
-4.694602966307976
 21
-7.687683105469984
 31
0.0
  0
SPLINE
  5
2232
330
1F
100
AcDbEntity
  8
AM_0
100
AcDbSpline
210
0.0
220
0.0
230
1.0
 70
     8
 71
     3
 72
    11
 73
     7
 74
     5
 42
0.0000000001
 43
0.0000000001
 44
0.0000000001
 40
0.0
 40
0.0
 40
0.0
 40
0.0
 40
1.127372419930447
 40
1.985523615666144
 40
2.80331782670175
 40
3.859611719653572
 40
3.859611719653572
 40
3.859611719653572
 40
3.859611719653572
 10
-4.694602966307976
 20
-7.687683105469984
 30
0.0
 10
-4.295539635203302
 20
-7.792864340225658
 30
0.0
 10
-3.592710956723112
 20
-7.978109093281792
 30
0.0
 10
-3.413152500376602
 20
-9.037031727896698
 30
0.0
 10
-3.86701043398564
 20
-9.906864730163677
 30
0.0
 10
-4.492920752710356
 20
-10.09223557792963
 30
0.0
 10
-4.845703124999979
 20
-10.19671630858998
 30
0.0
 11
-4.694602966307976
 21
-7.687683105469984
 31
0.0
 11
-3.68299865722598
 21
-8.185302734369981
 31
0.0
 11
-3.511703491210981
 21
-9.026184082029983
 31
0.0
 11
-3.887298583983978
 21
-9.752624511719984
 31
0.0
 11
-4.845703124999979
 21
-10.19671630858998
 31
0.0
  0
SPLINE
  5
2233
330
1F
100
AcDbEntity
  8
AM_0
100
AcDbSpline
210
0.0
220
0.0
230
1.0
 70
     8
 71
     3
 72
    11
 73
     7
 74
     5
 42
0.0000000001
 43
0.0000000001
 44
0.0000000001
 40
0.0
 40
0.0
 40
0.0
 40
0.0
 40
0.3068679601677096
 40
0.5666225513480128
 40
0.7398438087893763
 40
0.8011811952747574
 40
0.8011811952747574
 40
0.8011811952747574
 40
0.8011811952747574
 10
-1.263801574706981
 20
3.769409179690016
 30
0.0
 10
-1.267712399685049
 20
3.667159396760411
 30
0.0
 10
-1.27493362156086
 20
3.478358217104217
 30
0.0
 10
-1.277100929483813
 20
3.232051234145827
 30
0.0
 10
-1.283766698169351
 20
3.066724904272337
 30
0.0
 10
-1.273407492851508
 20
2.989156347483578
 30
0.0
 10
-1.270698547362975
 20
2.968872070310014
 30
0.0
 11
-1.263801574706981
 21
3.769409179690016
 31
0.0
 11
-1.273902893065979
 21
3.462707519530014
 31
0.0
 11
-1.278999328612975
 21
3.203002929690016
 31
0.0
 11
-1.277900695800979
 21
3.029785156250015
 31
0.0
 11
-1.270698547362975
 21
2.968872070310014
 31
0.0
  0
SPLINE
  5
2234
330
1F
100
AcDbEntity
  8
AM_0
100
AcDbSpline
210
0.0
220
0.0
230
1.0
 70
     8
 71
     3
 72
    11
 73
     7
 74
     5
 42
0.0000000001
 43
0.0000000001
 44
0.0000000001
 40
0.0
 40
0.0
 40
0.0
 40
0.0
 40
1.657717831479319
 40
3.295415429566078
 40
4.932208122439026
 40
6.587459860347833
 40
6.587459860347833
 40
6.587459860347833
 40
6.587459860347833
 10
-22.22180175781197
 20
2.18548583985002
 30
0.0
 10
-21.77037280193816
 20
1.86579494142613
 30
0.0
 10
-20.87296679092122
 20
1.230274046764706
 30
0.0
 10
-19.41025200064165
 20
0.4705904614228647
 30
0.0
 10
-17.8827711122789
 20
-0.1465011187373306
 30
0.0
 10
-16.81744773063121
 20
-0.4145436572621188
 30
0.0
 10
-16.28179931640597
 20
-0.5493164062499826
 30
0.0
 11
-22.22180175781197
 21
2.18548583985002
 31
0.0
 11
-20.84729766845697
 21
1.258789062500017
 31
0.0
 11
-19.39910125732397
 21
0.4940795898500207
 31
0.0
 11
-17.87729644775397
 21
-0.1085815429699829
 31
0.0
 11
-16.28179931640597
 21
-0.5493164062499826
 31
0.0
  0
ELLIPSE
  5
2235
330
1F
100
AcDbEntity
  8
AM_0
100
AcDbEllipse
 10
-11.08540344238297
 20
23.41650390625001
 30
0.0
 11
12.59962396733999
 21
-15.76690729012
 31
0.0
210
0.0
220
0.0
230
1.0
 40
0.9789424214055998
 41
5.052248072761026
 42
5.575892166975462
  0
ELLIPSE
  5
2236
330
1F
100
AcDbEntity
  8
AM_0
100
AcDbEllipse
 10
-7.829105377196981
 20
0.0000000000000164
 30
0.0
 11
20.791981730081
 21
-10.83227418360002
 31
0.0
210
0.0
220
0.0
230
1.0
 40
0.248356448037
 41
3.107420409656026
 42
4.084421677797271
  0
SPLINE
  5
2237
330
1F
100
AcDbEntity
  8
AM_0
100
AcDbSpline
210
0.0
220
0.0
230
1.0
 70
     8
 71
     3
 72
    11
 73
     7
 74
     5
 42
0.0000000001
 43
0.0000000001
 44
0.0000000001
 40
0.0
 40
0.0
 40
0.0
 40
0.0
 40
0.1144427777519369
 40
0.2296543633351162
 40
0.3452219224501134
 40
0.4605918980415408
 40
0.4605918980415408
 40
0.4605918980415408
 40
0.4605918980415408
 10
0.0000000000000199
 20
-11.72747802733998
 30
0.0
 10
-0.0002447563171042
 20
-11.76589338625748
 30
0.0
 10
-0.0007359131841911
 20
-11.84298217217992
 30
0.0
 10
-0.042427769943479
 20
-11.9525120919589
 30
0.0
 10
-0.1132290595196368
 20
-12.04686908599226
 30
0.0
 10
-0.1801622143289801
 20
-12.08623158519876
 30
0.0
 10
-0.2136001586909814
 20
-12.10589599608998
 30
0.0
 11
0.0000000000000199
 21
-11.72747802733998
 31
0.0
 11
-0.0074996948239786
 21
-11.84167480468998
 31
0.0
 11
-0.0472030639649802
 21
-11.94982910155998
 31
0.0
 11
-0.1182022094719827
 21
-12.04101562499998
 31
0.0
 11
-0.2136001586909814
 21
-12.10589599608998
 31
0.0
  0
SPLINE
  5
2238
330
1F
100
AcDbEntity
  8
AM_0
100
AcDbSpline
210
0.0
220
0.0
230
1.0
 70
     8
 71
     3
 72
    11
 73
     7
 74
     5
 42
0.0000000001
 43
0.0000000001
 44
0.0000000001
 40
0.0
 40
0.0
 40
0.0
 40
0.0
 40
2.187297008041041
 40
4.371521793733649
 40
6.552583718659622
 40
8.730670776107515
 40
8.730670776107515
 40
8.730670776107515
 40
8.730670776107515
 10
-0.36579895019498
 20
-12.14227294921998
 30
0.0
 10
-1.09469319365258
 20
-12.15955827217745
 30
0.0
 10
-2.551457894051289
 20
-12.19410463956263
 30
0.0
 10
-4.735135953941503
 20
-12.241645019769
 30
0.0
 10
-6.91579525034124
 20
-12.28674770394098
 30
0.0
 10
-8.368594020981284
 20
-12.31376905335722
 30
0.0
 10
-9.094497680663979
 20
-12.32727050780998
 30
0.0
 11
-0.36579895019498
 21
-12.14227294921998
 31
0.0
 11
-2.552497863768978
 21
-12.19342041014998
 31
0.0
 11
-4.736198425292977
 21
-12.24127197264998
 31
0.0
 11
-6.916801452636983
 21
-12.28601074218998
 31
0.0
 11
-9.094497680663979
 21
-12.32727050780998
 31
0.0
  0
SPLINE
  5
2239
330
1F
100
AcDbEntity
  8
AM_0
100
AcDbSpline
210
0.0
220
0.0
230
1.0
 70
     8
 71
     3
 72
    11
 73
     7
 74
     5
 42
0.0000000001
 43
0.0000000001
 44
0.0000000001
 40
0.0
 40
0.0
 40
0.0
 40
0.0
 40
1.051279569483087
 40
2.102544029394462
 40
3.153912876092879
 40
4.205463856847078
 40
4.205463856847078
 40
4.205463856847078
 40
4.205463856847078
 10
-0.7218017578119821
 20
-6.444885253899982
 30
0.0
 10
-0.6683952339740225
 20
-6.791218173748112
 30
0.0
 10
-0.5615829538862173
 20
-7.483879035756004
 30
0.0
 10
-0.4014648871490352
 20
-8.522918461143779
 30
0.0
 10
-0.2414932724514175
 20
-9.562071978409463
 30
0.0
 10
-0.134832298377645
 20
-10.25488289757995
 30
0.0
 10
-0.0814971923829773
 20
-10.60131835936998
 30
0.0
 11
-0.7218017578119821
 21
-6.444885253899982
 31
0.0
 11
-0.5615997314449795
 21
-7.483886718749984
 31
0.0
 11
-0.4014968872069826
 21
-8.522888183589982
 31
0.0
 11
-0.2415008544919826
 21
-9.562011718749984
 31
0.0
 11
-0.0814971923829773
 21
-10.60131835936998
 31
0.0
  0
SPLINE
  5
223A
330
1F
100
AcDbEntity
  8
AM_0
100
AcDbSpline
210
0.0
220
0.0
230
1.0
 70
     8
 71
     3
 72
    11
 73
     7
 74
     5
 42
0.0000000001
 43
0.0000000001
 44
0.0000000001
 40
0.0
 40
0.0
 40
0.0
 40
0.0
 40
0.1357854392127186
 40
0.2716809721009242
 40
0.4074891068443334
 40
0.5428336164458518
 40
0.5428336164458518
 40
0.5428336164458518
 40
0.5428336164458518
 10
-0.9797973632809807
 20
-5.979187011719985
 30
0.0
 10
-0.9469357106485276
 20
-6.010517250858658
 30
0.0
 10
-0.8811857614360681
 20
-6.073203131426565
 30
0.0
 10
-0.8065147415260831
 20
-6.187767856084983
 30
0.0
 10
-0.749314082257037
 20
-6.311788474388878
 30
0.0
 10
-0.7309620730168073
 20
-6.400570261340784
 30
0.0
 10
-0.7218017578119821
 20
-6.444885253899982
 30
0.0
 11
-0.9797973632809807
 21
-5.979187011719985
 31
0.0
 11
-0.8852005004879764
 21
-6.076599121089983
 31
0.0
 11
-0.8094024658199792
 21
-6.189392089839983
 31
0.0
 11
-0.7542037963869825
 21
-6.313476562499984
 31
0.0
 11
-0.7218017578119821
 21
-6.444885253899982
 31
0.0
  0
SPLINE
  5
223B
330
1F
100
AcDbEntity
  8
AM_0
100
AcDbSpline
210
0.0
220
0.0
230
1.0
 70
     8
 71
     3
 72
    11
 73
     7
 74
     5
 42
0.0000000001
 43
0.0000000001
 44
0.0000000001
 40
0.0
 40
0.0
 40
0.0
 40
0.0
 40
0.2875847506955517
 40
0.5762747168055653
 40
0.8643905659021285
 40
1.150421363032214
 40
1.150421363032214
 40
1.150421363032214
 40
1.150421363032214
 10
-9.094497680663979
 20
-12.32727050780998
 30
0.0
 10
-9.191218318268777
 20
-12.32066761113919
 30
0.0
 10
-9.385031300042507
 20
-12.3074364422408
 30
0.0
 10
-9.642883650077635
 20
-12.1624355534569
 30
0.0
 10
-9.843800972632138
 20
-11.9452488379186
 30
0.0
 10
-9.898530915219673
 20
-11.7594380960518
 30
0.0
 10
-9.925796508788979
 20
-11.66687011718998
 30
0.0
 11
-9.094497680663979
 21
-12.32727050780998
 31
0.0
 11
-9.379203796386983
 21
-12.28668212889997
 31
0.0
 11
-9.633598327636983
 21
-12.15020751952998
 31
0.0
 11
-9.824401855468979
 21
-11.93432617186998
 31
0.0
 11
-9.925796508788979
 21
-11.66687011718998
 31
0.0
  0
SPLINE
  5
223C
330
1F
100
AcDbEntity
  8
AM_0
100
AcDbSpline
210
0.0
220
0.0
230
1.0
 70
     8
 71
     3
 72
    11
 73
     7
 74
     5
 42
0.0000000001
 43
0.0000000001
 44
0.0000000001
 40
0.0
 40
0.0
 40
0.0
 40
0.0
 40
0.0619590382496922
 40
0.1244706605401229
 40
0.1870792148261307
 40
0.2496076514109244
 40
0.2496076514109244
 40
0.2496076514109244
 40
0.2496076514109244
 10
-0.7985992431639787
 20
-11.47277832030998
 30
0.0
 10
-0.7809427421725216
 20
-11.461951572882
 30
0.0
 10
-0.7454722700135235
 20
-11.44020151926703
 30
0.0
 10
-0.7004818283161894
 20
-11.39646239705065
 30
0.0
 10
-0.6619274164662614
 20
-11.34671856079722
 30
0.0
 10
-0.6441718046160406
 20
-11.30884276519319
 30
0.0
 10
-0.6352996826169828
 20
-11.28991699218998
 30
0.0
 11
-0.7985992431639787
 21
-11.47277832030998
 31
0.0
 11
-0.7470016479489786
 21
-11.43847656249998
 31
0.0
 11
-0.7015991210939788
 21
-11.39550781249998
 31
0.0
 11
-0.6639022827149802
 21
-11.34552001952998
 31
0.0
 11
-0.6352996826169828
 21
-11.28991699218998
 31
0.0
  0
SPLINE
  5
223D
330
1F
100
AcDbEntity
  8
AM_0
100
AcDbSpline
210
0.0
220
0.0
230
1.0
 70
     8
 71
     3
 72
    11
 73
     7
 74
     5
 42
0.0000000001
 43
0.0000000001
 44
0.0000000001
 40
0.0
 40
0.0
 40
0.0
 40
0.0
 40
0.0264905630456332
 40
0.0527928307074832
 40
0.0790917642274804
 40
0.1055500688688264
 40
0.1055500688688264
 40
0.1055500688688264
 40
0.1055500688688264
 10
-0.6352996826169828
 20
-11.28991699218998
 30
0.0
 10
-0.6320971466857167
 20
-11.28168265969602
 30
0.0
 10
-0.6257148385043947
 20
-11.26527252448697
 30
0.0
 10
-0.6185722194384043
 20
-11.23986465878066
 30
0.0
 10
-0.6127873481500176
 20
-11.21412776906824
 30
0.0
 10
-0.6105299812193269
 20
-11.19667832440359
 30
0.0
 10
-0.6093978881829769
 20
-11.18792724608998
 30
0.0
 11
-0.6352996826169828
 21
-11.28991699218998
 31
0.0
 11
-0.6260986328119827
 21
-11.26507568358998
 31
0.0
 11
-0.6187973022459814
 21
-11.23980712889998
 31
0.0
 11
-0.61319732665998
 21
-11.21411132811998
 31
0.0
 11
-0.6093978881829769
 21
-11.18792724608998
 31
0.0
  0
SPLINE
  5
223E
330
1F
100
AcDbEntity
  8
AM_0
100
AcDbSpline
210
0.0
220
0.0
230
1.0
 70
     8
 71
     3
 72
    11
 73
     7
 74
     5
 42
0.0000000001
 43
0.0000000001
 44
0.0000000001
 40
0.0
 40
0.0
 40
0.0
 40
0.0
 40
0.0484517877209902
 40
0.0966055820916522
 40
0.1448605664605977
 40
0.1940791500401182
 40
0.1940791500401182
 40
0.1940791500401182
 40
0.1940791500401182
 10
-0.9844970703119827
 20
-11.52221679686998
 30
0.0
 10
-0.9683512245510728
 20
-11.52131820613869
 30
0.0
 10
-0.9361588349311739
 20
-11.51952655128464
 30
0.0
 10
-0.8887414323661642
 20
-11.50962407034539
 30
0.0
 10
-0.8424376842037037
 20
-11.49457149921288
 30
0.0
 10
-0.8133080462719481
 20
-11.48009043200868
 30
0.0
 10
-0.7985992431639787
 20
-11.47277832030998
 30
0.0
 11
-0.9844970703119827
 21
-11.52221679686998
 31
0.0
 11
-0.9362030029299802
 21
-11.51831054686998
 31
0.0
 11
-0.8889999389649801
 21
-11.50878906249998
 31
0.0
 11
-0.8432006835939787
 21
-11.49359130858998
 31
0.0
 11
-0.7985992431639787
 21
-11.47277832030998
 31
0.0
  0
SPLINE
  5
223F
330
1F
100
AcDbEntity
  8
AM_0
100
AcDbSpline
210
0.0
220
0.0
230
1.0
 70
     8
 71
     3
 72
    11
 73
     7
 74
     5
 42
0.0000000001
 43
0.0000000001
 44
0.0000000001
 40
0.0
 40
0.0
 40
0.0
 40
0.0
 40
0.0524081986311379
 40
0.1045189320282174
 40
0.1566501399104522
 40
0.2088530782322552
 40
0.2088530782322552
 40
0.2088530782322552
 40
0.2088530782322552
 10
-0.9125976562499795
 20
-6.922607421869982
 30
0.0
 10
-0.9152432243246543
 20
-6.905333512968224
 30
0.0
 10
-0.920519344416458
 20
-6.870883740651652
 30
0.0
 10
-0.9324165410544036
 20
-6.819996193632578
 30
0.0
 10
-0.9472077495628662
 20
-6.769935320410489
 30
0.0
 10
-0.9598675367748256
 20
-6.737528184552716
 30
0.0
 10
-0.9662017822259805
 20
-6.721313476559983
 30
0.0
 11
-0.9125976562499795
 21
-6.922607421869982
 31
0.0
 11
-0.9212036132809808
 21
-6.870910644529984
 31
0.0
 11
-0.9328994750969821
 21
-6.820129394529984
 31
0.0
 11
-0.9478988647459807
 21
-6.770202636719985
 31
0.0
 11
-0.9662017822259805
 21
-6.721313476559983
 31
0.0
  0
SPLINE
  5
2240
330
1F
100
AcDbEntity
  8
AM_0
100
AcDbSpline
210
0.0
220
0.0
230
1.0
 70
     8
 71
     3
 72
    11
 73
     7
 74
     5
 42
0.0000000001
 43
0.0000000001
 44
0.0000000001
 40
0.0
 40
0.0
 40
0.0
 40
0.0
 40
0.0436494217190957
 40
0.0872378212796189
 40
0.1307673630384412
 40
0.1744778069424124
 40
0.1744778069424124
 40
0.1744778069424124
 40
0.1744778069424124
 10
-8.514198303221983
 20
-11.64288330077998
 30
0.0
 10
-8.514501293643661
 20
-11.65742994963081
 30
0.0
 10
-8.515106850904551
 20
-11.68650291102841
 30
0.0
 10
-8.515962458770289
 20
-11.73008370859658
 30
0.0
 10
-8.517034403114225
 20
-11.77368013356967
 30
0.0
 10
-8.517610109486932
 20
-11.80275446642538
 30
0.0
 10
-8.51789855956998
 20
-11.81732177733998
 30
0.0
 11
-8.514198303221983
 21
-11.64288330077998
 31
0.0
 11
-8.515098571776983
 21
-11.68652343749998
 31
0.0
 11
-8.515998840331983
 21
-11.73010253905998
 31
0.0
 11
-8.51699829101498
 21
-11.77362060546998
 31
0.0
 11
-8.51789855956998
 21
-11.81732177733998
 31
0.0
  0
SPLINE
  5
2241
330
1F
100
AcDbEntity
  8
AM_0
100
AcDbSpline
210
0.0
220
0.0
230
1.0
 70
     8
 71
     3
 72
    11
 73
     7
 74
     5
 42
0.0000000001
 43
0.0000000001
 44
0.0000000001
 40
0.0
 40
0.0
 40
0.0
 40
0.0
 40
0.064828029775217
 40
0.1286959953927311
 40
0.1922856477494043
 40
0.2561913217650777
 40
0.2561913217650777
 40
0.2561913217650777
 40
0.2561913217650777
 10
-8.76529693603498
 20
-11.60150146483998
 30
0.0
 10
-8.74489637648854
 20
-11.60869177302615
 30
0.0
 10
-8.704397377421297
 20
-11.62296590525581
 30
0.0
 10
-8.641543685969125
 20
-11.63623617164479
 30
0.0
 10
-8.578056759136977
 20
-11.64381952234764
 30
0.0
 10
-8.53551960069992
 20
-11.64319588990014
 30
0.0
 10
-8.514198303221983
 20
-11.64288330077998
 30
0.0
 11
-8.76529693603498
 21
-11.60150146483998
 31
0.0
 11
-8.70369720458998
 21
-11.62170410155998
 31
0.0
 11
-8.641296386718979
 21
-11.63531494139997
 31
0.0
 11
-8.578102111815981
 21
-11.64239501952998
 31
0.0
 11
-8.514198303221983
 21
-11.64288330077998
 31
0.0
  0
SPLINE
  5
2242
330
1F
100
AcDbEntity
  8
AM_0
100
AcDbSpline
210
0.0
220
0.0
230
1.0
 70
     8
 71
     3
 72
    11
 73
     7
 74
     5
 42
0.0000000001
 43
0.0000000001
 44
0.0000000001
 40
0.0
 40
0.0
 40
0.0
 40
0.0
 40
0.0866305896661518
 40
0.1718804827974967
 40
0.2566015065164207
 40
0.3419975158112961
 40
0.3419975158112961
 40
0.3419975158112961
 40
0.3419975158112961
 10
-8.882102966307977
 20
-11.79632568358998
 30
0.0
 10
-8.854923206933962
 20
-11.80616724403022
 30
0.0
 10
-8.800996872350204
 20
-11.82569351259736
 30
0.0
 10
-8.717195126024211
 20
-11.84382090882481
 30
0.0
 10
-8.632449602349289
 20
-11.85392387870213
 30
0.0
 10
-8.575693641660926
 20
-11.85271743280139
 30
0.0
 10
-8.54720306396498
 20
-11.85211181639997
 30
0.0
 11
-8.882102966307977
 21
-11.79632568358998
 31
0.0
 11
-8.800003051757977
 21
-11.82397460936998
 31
0.0
 11
-8.71679687499998
 21
-11.84252929686998
 31
0.0
 11
-8.632598876952977
 21
-11.85192871093998
 31
0.0
 11
-8.54720306396498
 21
-11.85211181639997
 31
0.0
  0
SPLINE
  5
2243
330
1F
100
AcDbEntity
  8
AM_0
100
AcDbSpline
210
0.0
220
0.0
230
1.0
 70
     8
 71
     3
 72
    11
 73
     7
 74
     5
 42
0.0000000001
 43
0.0000000001
 44
0.0000000001
 40
0.0
 40
0.0
 40
0.0
 40
0.0
 40
0.0937575098851743
 40
0.1857718744176434
 40
0.2772170783109023
 40
0.369595791345703
 40
0.369595791345703
 40
0.369595791345703
 40
0.369595791345703
 10
-9.178901672362977
 20
-11.58172607421998
 30
0.0
 10
-9.157787479004074
 20
-11.60482354944807
 30
0.0
 10
-9.115951648659349
 20
-11.65058907023346
 30
0.0
 10
-9.04379802777211
 20
-11.70876764432003
 30
0.0
 10
-8.966336082582138
 20
-11.75884774429388
 30
0.0
 10
-8.910275568709932
 20
-11.78379081453447
 30
0.0
 10
-8.882102966307977
 20
-11.79632568358998
 30
0.0
 11
-9.178901672362977
 21
-11.58172607421998
 31
0.0
 11
-9.113899230956983
 21
-11.64929199218998
 31
0.0
 11
-9.042701721190981
 21
-11.70758056639997
 31
0.0
 11
-8.96549987792998
 21
-11.75659179686997
 31
0.0
 11
-8.882102966307977
 21
-11.79632568358998
 31
0.0
  0
SPLINE
  5
2244
330
1F
100
AcDbEntity
  8
AM_0
100
AcDbSpline
210
0.0
220
0.0
230
1.0
 70
     8
 71
     3
 72
    11
 73
     7
 74
     5
 42
0.0000000001
 43
0.0000000001
 44
0.0000000001
 40
0.0
 40
0.0
 40
0.0
 40
0.0
 40
1.064236710363262
 40
2.136935010463733
 40
3.209585199620067
 40
4.273236301093459
 40
4.273236301093459
 40
4.273236301093459
 40
4.273236301093459
 10
-5.122299194335979
 20
10.44818115235002
 30
0.0
 10
-4.763477571867315
 20
10.34396718167527
 30
0.0
 10
-4.042981388924179
 20
10.134710650355
 30
0.0
 10
-3.642498889514258
 20
8.981891142293729
 30
0.0
 10
-4.142555294945395
 20
7.86907745853834
 30
0.0
 10
-4.878217552408012
 20
7.723366466247498
 30
0.0
 10
-5.244499206542974
 20
7.650817871100018
 30
0.0
 11
-5.122299194335979
 21
10.44818115235002
 31
0.0
 11
-4.158401489257975
 21
9.997070312500015
 31
0.0
 11
-3.792999267577974
 21
8.988525390630018
 31
0.0
 11
-4.245498657225978
 21
8.015991210940017
 31
0.0
 11
-5.244499206542974
 21
7.650817871100018
 31
0.0
  0
SPLINE
  5
2245
330
1F
100
AcDbEntity
  8
AM_0
100
AcDbSpline
210
0.0
220
0.0
230
1.0
 70
     8
 71
     3
 72
    11
 73
     7
 74
     5
 42
0.0000000001
 43
0.0000000001
 44
0.0000000001
 40
0.0
 40
0.0
 40
0.0
 40
0.0
 40
1.331353722203729
 40
2.673070003148986
 40
4.010812326722846
 40
5.351184832065187
 40
5.351184832065187
 40
5.351184832065187
 40
5.351184832065187
 10
-5.280700683593976
 20
10.80541992188001
 30
0.0
 10
-5.738467782428529
 20
10.71361933637031
 30
0.0
 10
-6.65756499898022
 20
10.52930363776596
 30
0.0
 10
-7.28962435755022
 20
9.143434262236047
 30
0.0
 10
-6.791955275262746
 20
7.696190729636611
 30
0.0
 10
-5.886550168549437
 20
7.437999336948079
 30
0.0
 10
-5.43340301513698
 20
7.308776855470016
 30
0.0
 11
-5.280700683593976
 21
10.80541992188001
 31
0.0
 11
-6.530502319335979
 21
10.34661865235001
 31
0.0
 11
-7.10119628906198
 21
9.132324218750015
 31
0.0
 11
-6.649101257323976
 21
7.873291015630018
 31
0.0
 11
-5.43340301513698
 21
7.308776855470016
 31
0.0
  0
SPLINE
  5
2246
330
1F
100
AcDbEntity
  8
AM_0
100
AcDbSpline
210
0.0
220
0.0
230
1.0
 70
     8
 71
     3
 72
    11
 73
     7
 74
     5
 42
0.0000000001
 43
0.0000000001
 44
0.0000000001
 40
0.0
 40
0.0
 40
0.0
 40
0.0
 40
1.340921526743132
 40
2.677259946200649
 40
4.019138194783963
 40
5.347463480411797
 40
5.347463480411797
 40
5.347463480411797
 40
5.347463480411797
 10
-5.43340301513698
 20
7.308776855470016
 30
0.0
 10
-4.970511862978518
 20
7.398485795348696
 30
0.0
 10
-4.046311664526546
 20
7.577597060820474
 30
0.0
 10
-3.427123234129135
 20
8.976445383505678
 30
0.0
 10
-3.935468269672499
 20
10.41033791971983
 30
0.0
 10
-4.833809761714857
 20
10.67417229631282
 30
0.0
 10
-5.280700683593976
 20
10.80541992188001
 30
0.0
 11
-5.43340301513698
 21
7.308776855470016
 31
0.0
 11
-4.173103332518976
 21
7.766723632810014
 31
0.0
 11
-3.615303039550979
 21
8.981079101560014
 31
0.0
 11
-4.07849884033198
 21
10.24047851563001
 31
0.0
 11
-5.280700683593976
 21
10.80541992188001
 31
0.0
  0
SPLINE
  5
2247
330
1F
100
AcDbEntity
  8
AM_0
100
AcDbSpline
210
0.0
220
0.0
230
1.0
 70
     8
 71
     3
 72
    11
 73
     7
 74
     5
 42
0.0000000001
 43
0.0000000001
 44
0.0000000001
 40
0.0
 40
0.0
 40
0.0
 40
0.0
 40
2.187297008041275
 40
4.371521793733882
 40
6.552583718659651
 40
8.730670776107544
 40
8.730670776107544
 40
8.730670776107544
 40
8.730670776107544
 10
-0.365798950194977
 20
12.14227294922001
 30
0.0
 10
-1.094693193652563
 20
12.15955827218141
 30
0.0
 10
-2.551457894051165
 20
12.19410463957445
 30
0.0
 10
-4.735135953941375
 20
12.24164501978191
 30
0.0
 10
-6.915795250341371
 20
12.28674770393781
 30
0.0
 10
-8.368594020981301
 20
12.31376905335619
 30
0.0
 10
-9.094497680663975
 20
12.32727050781001
 30
0.0
 11
-0.365798950194977
 21
12.14227294922001
 31
0.0
 11
-2.552497863768975
 21
12.19342041016001
 31
0.0
 11
-4.736198425292974
 21
12.24127197266001
 31
0.0
 11
-6.916801452636979
 21
12.28601074219001
 31
0.0
 11
-9.094497680663975
 21
12.32727050781001
 31
0.0
  0
SPLINE
  5
2248
330
1F
100
AcDbEntity
  8
AM_0
100
AcDbSpline
210
0.0
220
0.0
230
1.0
 70
     8
 71
     3
 72
    11
 73
     7
 74
     5
 42
0.0000000001
 43
0.0000000001
 44
0.0000000001
 40
0.0
 40
0.0
 40
0.0
 40
0.0
 40
0.2876915580051294
 40
0.5765266373354709
 40
0.8648911139180111
 40
1.150968526674711
 40
1.150968526674711
 40
1.150968526674711
 40
1.150968526674711
 10
-9.094497680663975
 20
12.32727050781001
 30
0.0
 10
-9.19125419225619
 20
12.3206503536093
 30
0.0
 10
-9.385151804877745
 20
12.30738373130574
 30
0.0
 10
-9.643112527867021
 20
12.16223682632804
 30
0.0
 10
-9.844112067225431
 20
11.94489051137711
 30
0.0
 10
-9.898712030108336
 20
11.75893057941705
 30
0.0
 10
-9.925903320311979
 20
11.66632080078001
 30
0.0
 11
-9.094497680663975
 21
12.32727050781001
 31
0.0
 11
-9.379302978514976
 21
12.28662109375001
 31
0.0
 11
-9.633796691893975
 21
12.15002441406001
 31
0.0
 11
-9.824699401854976
 21
11.93389892578001
 31
0.0
 11
-9.925903320311979
 21
11.66632080078001
 31
0.0
  0
SPLINE
  5
2249
330
1F
100
AcDbEntity
  8
AM_0
100
AcDbSpline
210
0.0
220
0.0
230
1.0
 70
     8
 71
     3
 72
    11
 73
     7
 74
     5
 42
0.0000000001
 43
0.0000000001
 44
0.0000000001
 40
0.0
 40
0.0
 40
0.0
 40
0.0
 40
1.054451046839457
 40
2.109047121740603
 40
3.163626975362549
 40
4.218350575843075
 40
4.218350575843075
 40
4.218350575843075
 40
4.218350575843075
 10
-9.925903320311979
 20
11.66632080078001
 30
0.0
 10
-9.988287805184995
 20
11.32041769744285
 30
0.0
 10
-10.11306535522591
 20
10.62856391562813
 30
0.0
 10
-10.29988808167727
 20
9.590702267579588
 30
0.0
 10
-10.48677010833432
 20
8.552758982656172
 30
0.0
 10
-10.61112167581899
 20
7.860741696080586
 30
0.0
 10
-10.67330169677698
 20
7.514709472660017
 30
0.0
 11
-9.925903320311979
 21
11.66632080078001
 31
0.0
 11
-10.11299896240198
 21
10.62860107422001
 31
0.0
 11
-10.29989624023397
 21
9.590698242190018
 31
0.0
 11
-10.48670196533197
 21
8.552795410160019
 31
0.0
 11
-10.67330169677698
 21
7.514709472660017
 31
0.0
  0
SPLINE
  5
224A
330
1F
100
AcDbEntity
  8
AM_0
100
AcDbSpline
210
0.0
220
0.0
230
1.0
 70
     8
 71
     3
 72
    11
 73
     7
 74
     5
 42
0.0000000001
 43
0.0000000001
 44
0.0000000001
 40
0.0
 40
0.0
 40
0.0
 40
0.0
 40
0.1142324598852692
 40
0.2284326665349944
 40
0.3427943092521793
 40
0.4571883588996194
 40
0.4571883588996194
 40
0.4571883588996194
 40
0.4571883588996194
 10
-10.78320312499997
 20
6.389709472660017
 30
0.0
 10
-10.78393225690091
 20
6.351363759088043
 30
0.0
 10
-10.78539031483429
 20
6.274683158755783
 30
0.0
 10
-10.74624986032253
 20
6.16502263771924
 30
0.0
 10
-10.6772441590975
 20
6.070506433773102
 30
0.0
 10
-10.61102034529463
 20
6.031316495219826
 30
0.0
 10
-10.57790374755797
 20
6.011718750000015
 30
0.0
 11
-10.78320312499997
 21
6.389709472660017
 31
0.0
 11
-10.77850341796897
 21
6.275573730470016
 31
0.0
 11
-10.74130249023397
 21
6.167602539060014
 31
0.0
 11
-10.67220306396498
 21
6.076477050780015
 31
0.0
 11
-10.57790374755797
 21
6.011718750000015
 31
0.0
  0
SPLINE
  5
224B
330
1F
100
AcDbEntity
  8
AM_0
100
AcDbSpline
210
0.0
220
0.0
230
1.0
 70
     8
 71
     3
 72
    11
 73
     7
 74
     5
 42
0.0000000001
 43
0.0000000001
 44
0.0000000001
 40
0.0
 40
0.0
 40
0.0
 40
0.0
 40
1.598926757841442
 40
3.199970375249001
 40
4.803071425773475
 40
6.408463704818215
 40
6.408463704818215
 40
6.408463704818215
 40
6.408463704818215
 10
-4.01860046386698
 20
5.847595214850018
 30
0.0
 10
-4.551541919511143
 20
5.853730914483556
 30
0.0
 10
-5.618130405468869
 20
5.866010436958525
 30
0.0
 10
-7.218909161499871
 20
5.894502306673929
 30
0.0
 10
-8.821705860236239
 20
5.92988473592621
 30
0.0
 10
-9.890779024645787
 20
5.96010087043185
 30
0.0
 10
-10.42569732665997
 20
5.975219726560014
 30
0.0
 11
-4.01860046386698
 21
5.847595214850018
 31
0.0
 11
-5.61740112304698
 21
5.867675781250015
 31
0.0
 11
-7.218200683593976
 21
5.895629882810014
 31
0.0
 11
-8.820899963378977
 21
5.931518554690017
 31
0.0
 11
-10.42569732665997
 21
5.975219726560014
 31
0.0
  0
SPLINE
  5
224C
330
1F
100
AcDbEntity
  8
AM_0
100
AcDbSpline
210
0.0
220
0.0
230
1.0
 70
     8
 71
     3
 72
    11
 73
     7
 74
     5
 42
0.0000000001
 43
0.0000000001
 44
0.0000000001
 40
0.0
 40
0.0
 40
0.0
 40
0.0
 40
0.2882806927859324
 40
0.5748910295739622
 40
0.8599118567937187
 40
1.143940973896965
 40
1.143940973896965
 40
1.143940973896965
 40
1.143940973896965
 10
-1.53910064697198
 20
5.783325195310013
 30
0.0
 10
-1.442119478394364
 20
5.789828556703219
 30
0.0
 10
-1.248719069528716
 20
5.802797597712872
 30
0.0
 10
-0.9924074386658737
 20
5.947944021716355
 30
0.0
 10
-0.7961138099194784
 20
6.166689163539706
 30
0.0
 10
-0.7465436457618911
 20
6.35226102539203
 30
0.0
 10
-0.7218017578119805
 20
6.444885253910016
 30
0.0
 11
-1.53910064697198
 21
5.783325195310013
 31
0.0
 11
-1.25370025634698
 21
5.823974609380017
 31
0.0
 11
-1.001800537108976
 21
5.960693359380017
 31
0.0
 11
-0.8162002563469805
 21
6.177001953130017
 31
0.0
 11
-0.7218017578119805
 21
6.444885253910016
 31
0.0
  0
SPLINE
  5
224D
330
1F
100
AcDbEntity
  8
AM_0
100
AcDbSpline
210
0.0
220
0.0
230
1.0
 70
     8
 71
     3
 72
    11
 73
     7
 74
     5
 42
0.0000000001
 43
0.0000000001
 44
0.0000000001
 40
0.0
 40
0.0
 40
0.0
 40
0.0
 40
1.051279569473199
 40
2.102544029394465
 40
3.153912876082993
 40
4.20546385684708
 40
4.20546385684708
 40
4.20546385684708
 40
4.20546385684708
 10
-0.7218017578119805
 20
6.444885253910016
 30
0.0
 10
-0.6683952339736625
 20
6.791218173754757
 30
0.0
 10
-0.5615829538841353
 20
7.483879035762385
 30
0.0
 10
-0.4014648871513271
 20
8.522918461147501
 30
0.0
 10
-0.2414932724493372
 20
9.562071978415843
 30
0.0
 10
-0.1348322983772841
 20
10.2548828975866
 30
0.0
 10
-0.0814971923829746
 20
10.60131835938001
 30
0.0
 11
-0.7218017578119805
 21
6.444885253910016
 31
0.0
 11
-0.5615997314449777
 21
7.483886718750015
 31
0.0
 11
-0.4014968872069805
 21
8.522888183600018
 31
0.0
 11
-0.2415008544919803
 21
9.562011718750015
 31
0.0
 11
-0.0814971923829746
 21
10.60131835938001
 31
0.0
  0
SPLINE
  5
224E
330
1F
100
AcDbEntity
  8
AM_0
100
AcDbSpline
210
0.0
220
0.0
230
1.0
 70
     8
 71
     3
 72
    11
 73
     7
 74
     5
 42
0.0000000001
 43
0.0000000001
 44
0.0000000001
 40
0.0
 40
0.0
 40
0.0
 40
0.0
 40
0.1144427777419539
 40
0.2296543633251332
 40
0.3452219224401305
 40
0.4605918980371841
 40
0.4605918980371841
 40
0.4605918980371841
 40
0.4605918980371841
 10
0.0000000000000228
 20
11.72747802735002
 30
0.0
 10
-0.0002447563174781
 20
11.76589338626409
 30
0.0
 10
-0.0007359131853427
 20
11.84298217218302
 30
0.0
 10
-0.0424277699431478
 20
11.95251209195945
 30
0.0
 10
-0.1132290595221524
 20
12.04686908599184
 30
0.0
 10
-0.1801622143292721
 20
12.086231585205
 30
0.0
 10
-0.2136001586909785
 20
12.10589599610002
 30
0.0
 11
0.0000000000000228
 21
11.72747802735002
 31
0.0
 11
-0.0074996948239757
 21
11.84167480469001
 31
0.0
 11
-0.0472030639649773
 21
11.94982910156001
 31
0.0
 11
-0.1182022094719798
 21
12.04101562500001
 31
0.0
 11
-0.2136001586909785
 21
12.10589599610002
 31
0.0
  0
SPLINE
  5
224F
330
1F
100
AcDbEntity
  8
AM_0
100
AcDbSpline
210
0.0
220
0.0
230
1.0
 70
     8
 71
     3
 72
    10
 73
     6
 74
     4
 42
0.0000000001
 43
0.0000000001
 44
0.0000000001
 40
0.0
 40
0.0
 40
0.0
 40
0.0
 40
0.1378982096120356
 40
0.8564638567053945
 40
1.582879724737263
 40
1.582879724737263
 40
1.582879724737263
 40
1.582879724737263
 10
-29.75530242919898
 20
11.98272705078001
 30
0.0
 10
-29.72639098113763
 20
11.94688785089542
 30
0.0
 10
-29.54682657359943
 20
11.72429627816399
 30
0.0
 10
-29.09608778291245
 20
11.43287046800977
 30
0.0
 10
-28.71039597007109
 20
11.1468832501783
 30
0.0
 10
-28.51650238037098
 20
11.00311279297002
 30
0.0
 11
-29.75530242919898
 21
11.98272705078001
 31
0.0
 11
-29.66690063476498
 21
11.87689208985002
 31
0.0
 11
-29.10469818115197
 21
11.42938232422002
 31
0.0
 11
-28.51650238037098
 21
11.00311279297002
 31
0.0
  0
LINE
  5
2250
330
1F
100
AcDbEntity
  8
AM_0
100
AcDbLine
 10
-27.73069763183598
 20
-11.99999999999998
 30
0.0
 11
-16.28179931640597
 21
-11.99999999999998
 31
0.0
  0
LINE
  5
2251
330
1F
100
AcDbEntity
  8
AM_0
100
AcDbLine
 10
-16.28179931640597
 20
12.00000000000001
 30
0.0
 11
-27.73069763183598
 21
12.00000000000001
 31
0.0
  0
LWPOLYLINE
  5
2252
330
1F
100
AcDbEntity
  8
AM_11
100
AcDbPolyline
 90
        4
 70
     1
 43
0.0
 10
0.0000000000000198
 20
-12.49999999999998
 10
-8.99999999999998
 20
-12.49999999999998
 10
-8.999999999999976
 20
12.50000000000001
 10
0.0000000000000228
 20
12.50000000000001
1001
GENIUS_GENREC_14
1002
{
1000
PYDIR
1011
0.0000000000000228
1021
12.50000000000001
1031
0.0
1002
}
1002
{
1000
PXDIR
1011
-8.99999999999998
1021
-12.49999999999998
1031
0.0
1002
}
1002
{
1000
PORI
1011
0.0000000000000198
1021
-12.49999999999998
1031
0.0
1002
}
1002
{
1000
PINS
1011
0.0000000000000198
1021
-12.49999999999998
1031
0.0
1002
}
1002
{
1000
PINS2
1011
-8.999999999999976
1021
12.50000000000001
1031
0.0
1002
}
1002
{
1000
C
1070
     1
1002
}
1001
GENIUS_GENODEF_13
1002
{
1000
HIER
1070
     0
1002
}
1002
{
1000
MANEDIT
1070
     0
1002
}
1002
{
1000
NOSEL
1070
     0
1002
}
1002
{
1000
BEHIND
1070
     0
1002
}
1002
{
1000
REACTOR
1002
}
1001
GENIUS_GENOBJ-N-REC_13
1002
{
1000
OWNER
1000
GEN
1002
}
  0
LINE
  5
2253
330
1F
100
AcDbEntity
  8
AM_0
100
AcDbLine
 10
-1.462810516356981
 20
-0.5330200195299839
 30
0.0
 11
-0.9853019714349784
 21
-0.2357177734399855
 31
0.0
  0
LINE
  5
2254
330
1F
100
AcDbEntity
  8
AM_0
100
AcDbLine
 10
-0.9852981567379771
 20
-10.66027832030998
 30
0.0
 11
-0.9852981567379757
 21
-0.2357177734399855
 31
0.0
  0
ARC
  5
2255
330
1F
100
AcDbEntity
  8
AM_0
100
AcDbCircle
 10
-5.205299377440979
 20
8.961181640630018
 30
0.0
 40
1.2499886751175
100
AcDbArc
 50
87.50109082540332
 51
267.5010890041714
  0
ARC
  5
2256
330
1F
100
AcDbEntity
  8
AM_0
100
AcDbCircle
 10
-5.121398925780979
 20
9.046813964850018
 30
0.0
 40
1.3999501466751
100
AcDbArc
 50
88.54693622130454
 51
266.2240348746752
  0
ARC
  5
2257
330
1F
100
AcDbEntity
  8
AM_0
100
AcDbCircle
 10
-5.25289916992198
 20
9.052490234380018
 30
0.0
 40
1.750039100647
100
AcDbArc
 50
88.71649566745041
 51
265.5822088285581
  0
LINE
  5
2258
330
1F
100
AcDbEntity
  8
AM_0
100
AcDbLine
 10
-4.131404876708976
 20
5.289428710940017
 30
0.0
 11
-6.852600097655979
 21
5.408203125000015
 31
0.0
  0
LINE
  5
2259
330
1F
100
AcDbEntity
  8
AM_0
100
AcDbLine
 10
-1.193790435790979
 20
2.965576171880017
 30
0.0
 11
-11.53770065307597
 21
3.417175292970017
 31
0.0
  0
ARC
  5
225A
330
1F
100
AcDbEntity
  8
AM_0
100
AcDbCircle
 10
-5.205299377440979
 20
8.961181640630018
 30
0.0
 40
1.2499886751175
100
AcDbArc
 50
267.5010890041714
 51
87.50108035274987
  0
LINE
  5
225B
330
1F
100
AcDbEntity
  8
AM_0
100
AcDbLine
 10
-0.365798950194977
 20
12.14227294922001
 30
0.0
 11
-0.2136039733879741
 21
12.10589599610002
 31
0.0
  0
LINE
  5
225C
330
1F
100
AcDbEntity
  8
AM_0
100
AcDbLine
 10
-0.2136001586909785
 20
12.10589599610002
 30
0.0
 11
-0.3650054931639757
 21
12.14227294922001
 31
0.0
  0
LINE
  5
225D
330
1F
100
AcDbEntity
  8
AM_0
100
AcDbLine
 10
-0.0814971923829746
 20
10.60134887696001
 30
0.0
 11
0.0000000000000228
 21
11.72747802735002
 31
0.0
  0
LINE
  5
225E
330
1F
100
AcDbEntity
  8
AM_0
100
AcDbLine
 10
-0.985298156737975
 20
6.077819824220015
 30
0.0
 11
-0.9852981567379757
 21
0.2357177734400167
 31
0.0
  0
LINE
  5
225F
330
1F
100
AcDbEntity
  8
AM_0
100
AcDbLine
 10
-4.069301605223976
 20
5.796508789060014
 30
0.0
 11
-1.188198089598976
 21
5.670715332030014
 31
0.0
  0
LINE
  5
2260
330
1F
100
AcDbEntity
  8
AM_0
100
AcDbLine
 10
-1.191806793212975
 20
5.860260009770017
 30
0.0
 11
-1.188205718993976
 21
5.670715332030014
 31
0.0
  0
LINE
  5
2261
330
1F
100
AcDbEntity
  8
AM_0
100
AcDbLine
 10
-1.263801574706981
 20
3.769378662110015
 30
0.0
 11
-1.188198089598976
 21
5.670715332030014
 31
0.0
  0
LINE
  5
2262
330
1F
100
AcDbEntity
  8
AM_0
100
AcDbLine
 10
-0.9853019714349784
 20
0.2356872558600159
 30
0.0
 11
-1.003303527831981
 21
0.0001220703100145
 31
0.0
  0
LINE
  5
2263
330
1F
100
AcDbEntity
  8
AM_0
100
AcDbLine
 10
-0.9852981567379757
 20
-0.2357482910099819
 30
0.0
 11
-1.193801879882975
 21
2.965545654300017
 31
0.0
  0
ARC
  5
2264
330
1F
100
AcDbEntity
  8
AM_0
100
AcDbCircle
 10
-9.707199096679978
 20
7.089172363280015
 30
0.0
 40
1.498359560966499
100
AcDbArc
 50
124.3062652624026
 51
263.1767937877957
  0
ARC
  5
2265
330
1F
100
AcDbEntity
  8
AM_0
100
AcDbCircle
 10
-9.941703796386981
 20
7.099487304690017
 30
0.0
 40
1.4988716840744
100
AcDbArc
 50
117.4266767492222
 51
267.4973392303152
  0
LINE
  5
2266
330
1F
100
AcDbEntity
  8
AM_0
100
AcDbLine
 10
-9.925788879393975
 20
11.66690063477002
 30
0.0
 11
-16.28179550170897
 21
12.00003051758002
 31
0.0
  0
LINE
  5
2267
330
1F
100
AcDbEntity
  8
AM_0
100
AcDbLine
 10
-10.63211059570297
 20
8.429840087890017
 30
0.0
 11
-10.49589920043897
 21
8.500976562500017
 31
0.0
  0
LINE
  5
2268
330
1F
100
AcDbEntity
  8
AM_0
100
AcDbLine
 10
-10.45099639892597
 20
8.75076293946002
 30
0.0
 11
-10.07769393920897
 21
11.59191894531001
 31
0.0
  0
LINE
  5
2269
330
1F
100
AcDbEntity
  8
AM_0
100
AcDbLine
 10
-16.28179931640597
 20
11.96618652344001
 30
0.0
 11
-16.28179931640597
 21
12.00000000000001
 31
0.0
  0
LINE
  5
226A
330
1F
100
AcDbEntity
  8
AM_0
100
AcDbLine
 10
-8.922889709471981
 20
5.940612792970016
 30
0.0
 11
-9.251403808593977
 21
5.769104003910017
 31
0.0
  0
ARC
  5
226B
330
1F
100
AcDbEntity
  8
AM_0
100
AcDbCircle
 10
-9.941703796386981
 20
7.099487304690017
 30
0.0
 40
1.5000307559967
100
AcDbArc
 50
267.4973392303152
 51
297.4232871541633
  0
LINE
  5
226C
330
1F
100
AcDbEntity
  8
AM_0
100
AcDbLine
 10
-10.67330169677698
 20
7.514709472660017
 30
0.0
 11
-10.78320312499997
 21
6.389709472660017
 31
0.0
  0
LINE
  5
226D
330
1F
100
AcDbEntity
  8
AM_0
100
AcDbLine
 10
-10.42570877075198
 20
5.975189208990018
 30
0.0
 11
-10.57791519164997
 21
6.011688232420015
 31
0.0
  0
LINE
  5
226E
330
1F
100
AcDbEntity
  8
AM_0
100
AcDbLine
 10
-10.57791519164997
 20
6.011718750000015
 30
0.0
 11
-10.42650604247997
 21
5.975280761720016
 31
0.0
  0
LINE
  5
226F
330
1F
100
AcDbEntity
  8
AM_0
100
AcDbLine
 10
-1.462799072264978
 20
-0.532989501949983
 30
0.0
 11
-12.31150054931598
 21
-0.8665466308599832
 31
0.0
  0
LINE
  5
2270
330
1F
100
AcDbEntity
  8
AM_0
100
AcDbLine
 10
-8.521701812743978
 20
-11.85083007811998
 30
0.0
 11
-1.028999328612977
 21
-11.52368164061998
 31
0.0
  0
LINE
  5
2271
330
1F
100
AcDbEntity
  8
AM_0
100
AcDbLine
 10
-8.51420211791998
 20
-11.64187622069998
 30
0.0
 11
-1.024593353270981
 21
-11.31484985350998
 31
0.0
  0
ARC
  5
2272
330
1F
100
AcDbEntity
  8
AM_0
100
AcDbCircle
 10
-5.20529937744098
 20
-8.961181640619981
 30
0.0
 40
1.249896407127399
100
AcDbArc
 50
279.7886403021599
 51
82.21025189711694
  0
LINE
  5
2273
330
1F
100
AcDbEntity
  8
AM_0
100
AcDbLine
 10
-0.0814895629879771
 20
-10.60134887694998
 30
0.0
 11
-0.7348060607909811
 21
-8.214599609369981
 31
0.0
  0
LINE
  5
2274
330
1F
100
AcDbEntity
  8
AM_0
100
AcDbLine
 10
-0.6094970703119827
 20
-11.08352661132998
 30
0.0
 11
-0.7348022460939784
 21
-8.214599609369981
 31
0.0
  0
LINE
  5
2275
330
1F
100
AcDbEntity
  8
AM_0
100
AcDbLine
 10
-0.9479026794429767
 20
-8.080505371089982
 30
0.0
 11
-0.8164024353029773
 21
-11.09252929686998
 31
0.0
  0
LINE
  5
2276
330
1F
100
AcDbEntity
  8
AM_0
100
AcDbLine
 10
-1.462799072264979
 20
-11.18450927733998
 30
0.0
 11
-1.462799072264978
 21
-0.5330200195299839
 31
0.0
  0
LINE
  5
2277
330
1F
100
AcDbEntity
  8
AM_0
100
AcDbLine
 10
-0.7347984313959809
 20
-8.214599609369981
 30
0.0
 11
-0.7555999755859811
 21
-8.072082519529983
 31
0.0
  0
LINE
  5
2278
330
1F
100
AcDbEntity
  8
AM_0
100
AcDbLine
 10
-0.966186523436982
 20
-6.721343994139984
 30
0.0
 11
-0.9823951721189779
 21
-6.684387207029984
 31
0.0
  0
LINE
  5
2279
330
1F
100
AcDbEntity
  8
AM_0
100
AcDbLine
 10
-0.9082069396969822
 20
-6.955627441399982
 30
0.0
 11
-0.9126014709469822
 21
-6.922607421869982
 31
0.0
  0
LINE
  5
227A
330
1F
100
AcDbEntity
  8
AM_0
100
AcDbLine
 10
-0.9662017822259805
 20
-6.721343994139984
 30
0.0
 11
-0.9853019714349791
 21
-6.728424072259982
 31
0.0
  0
LINE
  5
227B
330
1F
100
AcDbEntity
  8
AM_0
100
AcDbLine
 10
-0.7555961608879766
 20
-8.072052001949982
 30
0.0
 11
-0.9478950500489784
 21
-8.080474853509981
 31
0.0
  0
LINE
  5
227C
330
1F
100
AcDbEntity
  8
AM_0
100
AcDbLine
 10
-0.7555961608879766
 20
-8.072113037109984
 30
0.0
 11
-0.9081993103029768
 21
-6.955657958979982
 31
0.0
  0
LINE
  5
227D
330
1F
100
AcDbEntity
  8
AM_0
100
AcDbLine
 10
-0.9082031249999795
 20
-6.955627441399982
 30
0.0
 11
-0.9853019714349793
 21
-6.958984374999984
 31
0.0
  0
LINE
  5
227E
330
1F
100
AcDbEntity
  8
AM_0
100
AcDbLine
 10
-0.9852905273439784
 20
-7.806701660149982
 30
0.0
 11
-0.9478988647459811
 21
-8.080474853509981
 31
0.0
  0
LINE
  5
227F
330
1F
100
AcDbEntity
  8
AM_0
100
AcDbLine
 10
-0.213592529296983
 20
-12.10592651366998
 30
0.0
 11
-0.3649902343749802
 21
-12.14230346678998
 31
0.0
  0
LINE
  5
2280
330
1F
100
AcDbEntity
  8
AM_0
100
AcDbLine
 10
-0.0814933776849798
 20
-10.60131835936998
 30
0.0
 11
0.0000038146970226
 21
-11.72747802733998
 31
0.0
  0
ARC
  5
2281
330
1F
100
AcDbEntity
  8
AM_0
100
AcDbCircle
 10
-1.034599304198978
 20
-11.08648681639998
 30
0.0
 40
0.2286188155413
100
AcDbArc
 50
272.5069687978189
 51
303.0501472565814
  0
ARC
  5
2282
330
1F
100
AcDbEntity
  8
AM_0
100
AcDbCircle
 10
-1.020500183104979
 20
-11.10821533202998
 30
0.0
 40
0.2025889754295
100
AcDbArc
 50
303.0546961625661
 51
335.6779609217275
  0
ARC
  5
2283
330
1F
100
AcDbEntity
  8
AM_0
100
AcDbCircle
 10
-1.048896789550981
 20
-11.09539794921998
 30
0.0
 40
0.2334020137787
100
AcDbArc
 50
335.6860751864609
 51
348.5793003392883
  0
ARC
  5
2284
330
1F
100
AcDbEntity
  8
AM_0
100
AcDbCircle
 10
-1.019096374511982
 20
-11.10137939452998
 30
0.0
 40
0.2029217779636
100
AcDbArc
 50
348.5737815464449
 51
2.514088359412744
  0
LINE
  5
2285
330
1F
100
AcDbEntity
  8
AM_0
100
AcDbLine
 10
-0.98530960082998
 20
-10.66030883788998
 30
0.0
 11
-1.462795257567977
 21
-11.18450927733998
 31
0.0
  0
LINE
  5
2286
330
1F
100
AcDbEntity
  8
AM_0
100
AcDbLine
 10
-0.6093978881829769
 20
-11.18792724608998
 30
0.0
 11
-0.6076965332029772
 21
-11.11935424803998
 31
0.0
  0
LINE
  5
2287
330
1F
100
AcDbEntity
  8
AM_0
100
AcDbLine
 10
-0.6076965332029772
 20
-11.11932373046998
 30
0.0
 11
-0.6095008850099802
 21
-11.08349609374998
 31
0.0
  0
LINE
  5
2288
330
1F
100
AcDbEntity
  8
AM_0
100
AcDbLine
 10
-0.98449325561498
 20
-11.52224731444998
 30
0.0
 11
-1.029003143309979
 21
-11.52371215819998
 31
0.0
  0
LINE
  5
2289
330
1F
100
AcDbEntity
  8
AM_0
100
AcDbLine
 10
-16.28179931640597
 20
-11.99999999999998
 30
0.0
 11
-16.28179931640597
 21
-0.5493164062499826
 31
0.0
  0
LINE
  5
228A
330
1F
100
AcDbEntity
  8
AM_0
100
AcDbLine
 10
-12.31150054931598
 20
-0.8665466308599832
 30
0.0
 11
-16.28179931640597
 21
-0.5492858886699818
 31
0.0
  0
LINE
  5
228B
330
1F
100
AcDbEntity
  8
AM_0
100
AcDbLine
 10
-16.28179550170897
 20
-12.00003051757998
 30
0.0
 11
-9.681095123290981
 21
-11.65414428710998
 31
0.0
  0
LINE
  5
228C
330
1F
100
AcDbEntity
  8
AM_0
100
AcDbLine
 10
-8.521697998046983
 20
-11.85086059569998
 30
0.0
 11
-8.547206878661983
 21
-11.85208129882998
 31
0.0
  0
LINE
  5
228D
330
1F
100
AcDbEntity
  8
AM_0
100
AcDbLine
 10
-8.76528930663998
 20
-11.60150146483998
 30
0.0
 11
-8.918712615966983
 21
-11.51361083983998
 31
0.0
  0
LINE
  5
228E
330
1F
100
AcDbEntity
  8
AM_0
100
AcDbLine
 10
-8.882110595702977
 20
-11.79632568358998
 30
0.0
 11
-8.765312194823978
 21
-11.60150146483998
 31
0.0
  0
LINE
  5
228F
330
1F
100
AcDbEntity
  8
AM_0
100
AcDbLine
 10
-8.517902374266983
 20
-11.81729125975998
 30
0.0
 11
-8.521701812743978
 21
-11.85083007811998
 31
0.0
  0
LINE
  5
2290
330
1F
100
AcDbEntity
  8
AM_0
100
AcDbLine
 10
-9.221172332762977
 20
-11.52691650389997
 30
0.0
 11
-9.178886413573978
 21
-11.58172607421998
 31
0.0
  0
LINE
  5
2291
330
1F
100
AcDbEntity
  8
AM_0
100
AcDbLine
 10
-9.178882598876983
 20
-11.58172607421998
 30
0.0
 11
-9.089179992675981
 21
-11.52142333983998
 31
0.0
  0
LINE
  5
2292
330
1F
100
AcDbEntity
  8
AM_0
100
AcDbLine
 10
-34.99999904632597
 20
-11.99999999999998
 30
0.0
 11
-34.99999904632597
 21
12.00000000000001
 31
0.0
  0
LINE
  5
2293
330
1F
100
AcDbEntity
  8
AM_0
100
AcDbLine
 10
-35.86599636077898
 20
-12.49999999999998
 30
0.0
 11
-35.86599636077898
 21
12.50000000000001
 31
0.0
  0
LINE
  5
2294
330
1F
100
AcDbEntity
  8
AM_0
100
AcDbLine
 10
-28.94989776611298
 20
12.00000000000001
 30
0.0
 11
-34.99999904632597
 21
12.00000000000001
 31
0.0
  0
LINE
  5
2295
330
1F
100
AcDbEntity
  8
AM_0
100
AcDbLine
 10
-21.43681144714297
 20
6.531494140630019
 30
0.0
 11
-28.51651763915997
 21
11.00311279297002
 31
0.0
  0
LINE
  5
2296
330
1F
100
AcDbEntity
  8
AM_0
100
AcDbLine
 10
-35.00001430511498
 20
12.00000000000001
 30
0.0
 11
-35.86600589752197
 21
12.49996948242001
 31
0.0
  0
LINE
  5
2297
330
1F
100
AcDbEntity
  8
AM_0
100
AcDbLine
 10
-34.99999904632597
 20
-11.99999999999998
 30
0.0
 11
-28.94989776611298
 21
-11.99999999999998
 31
0.0
  0
LINE
  5
2298
330
1F
100
AcDbEntity
  8
AM_0
100
AcDbLine
 10
-35.86598873138397
 20
-12.49999999999998
 30
0.0
 11
-34.99999713897698
 21
-11.99999999999998
 31
0.0
  0
LINE
  5
2299
330
1F
100
AcDbEntity
  8
AM_0
100
AcDbLine
 10
-119.9999999999989
 20
-10.16149902343997
 30
0.0
 11
-119.9999999999989
 21
10.16149902344003
 31
0.0
  0
LINE
  5
229A
330
1F
100
AcDbEntity
  8
AM_0
100
AcDbLine
 10
-116.9999999999989
 20
-12.49999999999997
 30
0.0
 11
-116.9999999999989
 21
12.50000000000003
 31
0.0
  0
ARC
  5
229B
330
1F
100
AcDbEntity
  8
AM_0
100
AcDbCircle
 10
-117.9999999999989
 20
10.16149902344003
 30
0.0
 40
2.000036954879799
100
AcDbArc
 50
104.9985874788713
 51
180.0
  0
LINE
  5
229C
330
1F
100
AcDbEntity
  8
AM_0
100
AcDbLine
 10
-116.9999999999989
 20
12.50000000000003
 30
0.0
 11
-118.5175933837879
 21
12.09338378906003
 31
0.0
  0
ARC
  5
229D
330
1F
100
AcDbEntity
  8
AM_0
100
AcDbCircle
 10
-117.9999999999989
 20
-10.16149902343997
 30
0.0
 40
2.0
100
AcDbArc
 50
180.0
 51
255.0014125211286
  0
LINE
  5
229E
330
1F
100
AcDbEntity
  8
AM_0
100
AcDbLine
 10
-118.5176010131829
 20
-12.09338378905997
 30
0.0
 11
-116.9999923706039
 21
-12.49999999999997
 31
0.0
  0
DIMENSION
  5
2381
330
1F
100
AcDbEntity
  8
AM_5
100
AcDbDimension
  2
*D10
 10
0.0000000000000239
 20
26.50000100000006
 30
0.0
 11
-4.499999999999976
 21
29.90000100000006
 31
0.0
 70
    32
  1
<>
  3
AM_JIS$0
100
AcDbAlignedDimension
 13
-8.999999999999976
 23
12.50000000000001
 33
0.0
 14
0.0000000000000231
 24
12.50000000000001
 34
0.0
 50
180.0
100
AcDbRotatedDimension
1001
ACAD
1000
DSTYLE
1002
{
1070
   271
1070
     0
1002
}
1001
GENIUS_GENDTOL_13
1000

1000
h7
1000

1040
0.0
  0
VIEWPORT
  5
110
330
101
100
AcDbEntity
 67
     1
  8
0
100
AcDbViewport
 10
420.5
 20
297.0
 30
0.0
 40
948.9782706766916
 41
628.452
 68
     1
 69
     1
1001
ACAD
1000
MVIEW
1002
{
1070
    16
1010
0.0
1020
0.0
1030
0.0
1010
0.0
1020
0.0
1030
1.0
1040
0.0
1040
628.452
1040
420.5
1040
297.0
1040
50.0
1040
0.0
1040
0.0
1070
     0
1070
   100
1070
     1
1070
     1
1070
     0
1070
     0
1070
     0
1070
     0
1040
0.0
1040
0.0
1040
0.0
1040
10.0
1040
10.0
1040
10.0
1040
10.0
1070
     0
1002
{
1002
}
1002
}
  0
ENDSEC
  0
SECTION
  2
OBJECTS
  0
DICTIONARY
  5
C
330
0
100
AcDbDictionary
  3
ACAD_GROUP
350
D
  3
ACAD_LAYOUT
350
1A
  3
ACAD_MLINESTYLE
350
17
  3
ACAD_PLOTSETTINGS
350
19
  3
ACAD_PLOTSTYLENAME
350
E
  3
ACDBVARIABLEDICTIONARY
350
34
  3
ACMDICTIONARY
350
43
  3
AMG
350
2B
  3
AMGSNAPSETTINGS
350
6E
  3
ASE_INDEX_DICTIONARY
350
2060
  3
DWGPROPS
350
2478
  3
ACDBHEADERROUNDTRIPXREC
350
2484
  0
DICTIONARY
  5
74
330
1F
100
AcDbDictionary
280
     1
  3
ACAD_INDEX
360
247A
  3
ACAD_LAYOUTSELFREF
360
24A7
  0
DICTIONARY
  5
24AC
330
101
100
AcDbDictionary
280
     1
  3
ACAD_LAYOUTSELFREF
360
24AD
  0
DICTIONARY
  5
D
102
{ACAD_REACTORS
330
C
102
}
330
C
100
AcDbDictionary
  0
DICTIONARY
  5
1A
102
{ACAD_REACTORS
330
C
102
}
330
C
100
AcDbDictionary
  0
DICTIONARY
  5
17
102
{ACAD_REACTORS
330
C
102
}
330
C
100
AcDbDictionary
  3
STANDARD
350
18
  0
DICTIONARY
  5
19
102
{ACAD_REACTORS
330
C
102
}
330
C
100
AcDbDictionary
  0
ACDBDICTIONARYWDFLT
  5
E
102
{ACAD_REACTORS
330
C
102
}
330
C
100
AcDbDictionary
281
     1
  3
Normal
350
F
100
AcDbDictionaryWithDefault
340
F
  0
DICTIONARY
  5
34
102
{ACAD_REACTORS
330
C
102
}
330
C
100
AcDbDictionary
  3
INDEXCTL
350
35
  3
SORTENTS
350
B5E
  0
DICTIONARY
  5
43
102
{ACAD_REACTORS
330
C
102
}
330
C
100
AcDbDictionary
  3
ACMSTDDICTIONARY
350
260
  0
DICTIONARY
  5
2B
102
{ACAD_REACTORS
330
C
102
}
330
C
100
AcDbDictionary
  3
ACMGSETTINGS
350
2C
  0
DICTIONARY
  5
6E
102
{ACAD_REACTORS
330
C
102
}
330
C
100
AcDbDictionary
  0
DICTIONARY
  5
2060
102
{ACAD_REACTORS
330
C
102
}
330
C
100
AcDbDictionary
  3
ASEBLOCKHIERARCHYINDEXRECORD
350
2062
1001
DCO15
1040
1471943646.953
  0
XRECORD
  5
2478
102
{ACAD_REACTORS
330
C
102
}
330
C
100
AcDbXrecord
  1
DWGPROPS COOKIE
  2

  3

  4

  6

  7

  8

  9

300
AmdtFileType=82
301
=
302
=
303
=
304
=
305
=
306
=
307
=
308
=
309
=
 40
0.0488458217592593
 41
2452839.420061482
 42
2452872.431105486
  1

 90
        1
  0
DICTIONARY
  5
2484
102
{ACAD_REACTORS
330
C
102
}
330
C
100
AcDbDictionary
  3
TSTACKALIGN
350
2485
  3
TSTACKSIZE
350
2486
  3
HYPERLINKBASE
350
2487
  3
STYLESHEET
350
2488
  3
LAYOUTDICT
350
2489
  3
PLOTSETDICT
350
248A
  3
PLOTSTYLNAMDICT
350
248B
  3
LWETCUNION
350
248C
  3
INSUNITS
350
248D
  3
CEPSNTYPE
350
248E
  3
FINGERPRINTGUID
350
248F
  3
VERSIONGUID
350
2490
  3
PSVPSCALE
350
2491
  3
DIMSTYLEDATA
350
2492
  3
PUCSORTHOREF
350
2493
  3
PUCSORTHOVIEW
350
2494
  3
PUCSBASE
350
2495
  3
PUCSORGTOP
350
2496
  3
PUCSORGBOTTOM
350
2497
  3
PUCSORGLEFT
350
2498
  3
PUCSORGRIGHT
350
2499
  3
PUCSORGFRONT
350
249A
  3
PUCSORGBACK
350
249B
  3
UCSORTHOREF
350
249C
  3
UCSORTHOVIEW
350
249D
  3
UCSBASE
350
249E
  3
UCSORGTOP
350
249F
  3
UCSORGBOTTOM
350
24A0
  3
UCSORGLEFT
350
24A1
  3
UCSORGRIGHT
350
24A2
  3
UCSORGFRONT
350
24A3
  3
UCSORGBACK
350
24A4
  0
DICTIONARY
  5
247A
102
{ACAD_REACTORS
330
74
102
}
330
74
100
AcDbDictionary
  3
*A1
350
247B
  0
XRECORD
  5
24A7
102
{ACAD_REACTORS
330
74
102
}
330
74
100
AcDbXrecord
340
1F
  0
XRECORD
  5
24AD
102
{ACAD_REACTORS
330
24AC
102
}
330
24AC
100
AcDbXrecord
340
101
  0
MLINESTYLE
  5
18
102
{ACAD_REACTORS
330
17
102
}
330
17
100
AcDbMlineStyle
  2
STANDARD
 70
     0
  3

 62
   256
 51
90.0
 52
90.0
 71
     2
 49
0.5
 62
   256
  6
BYLAYER
 49
-0.5
 62
   256
  6
BYLAYER
  0
ACDBPLACEHOLDER
  5
F
102
{ACAD_REACTORS
330
E
102
}
330
E
100
AcDbPlaceHolder
280
     0
  0
DICTIONARYVAR
  5
35
102
{ACAD_REACTORS
330
34
102
}
330
34
100
DictionaryVariables
280
     0
  1
1
  0
DICTIONARYVAR
  5
B5E
102
{ACAD_REACTORS
330
34
102
}
330
34
100
DictionaryVariables
280
     0
  1
96
  0
DICTIONARY
  5
260
102
{ACAD_REACTORS
330
43
102
}
330
43
100
AcDbDictionary
  0
DICTIONARY
  5
2C
102
{ACAD_REACTORS
330
2B
102
}
330
2B
100
AcDbDictionary
  3
DWGSETTINGS
350
2D
  0
XRECORD
  5
2062
102
{ACAD_REACTORS
330
2060
102
}
330
2060
100
AcDbXrecord
330
0
330
0
330
0
330
0
330
0
330
0
330
0
330
0
330
2346
330
2347
330
2334
330
2335
  0
XRECORD
  5
2485
102
{ACAD_REACTORS
330
2484
102
}
330
2484
100
AcDbXrecord
 90
        1
  0
XRECORD
  5
2486
102
{ACAD_REACTORS
330
2484
102
}
330
2484
100
AcDbXrecord
 90
       70
  0
XRECORD
  5
2487
102
{ACAD_REACTORS
330
2484
102
}
330
2484
100
AcDbXrecord
  1

  0
XRECORD
  5
2488
102
{ACAD_REACTORS
330
2484
102
}
330
2484
100
AcDbXrecord
  1
ASAMI.ctb
  0
XRECORD
  5
2489
102
{ACAD_REACTORS
330
2484
102
}
330
2484
100
AcDbXrecord
340
1A
  0
XRECORD
  5
248A
102
{ACAD_REACTORS
330
2484
102
}
330
2484
100
AcDbXrecord
340
19
  0
XRECORD
  5
248B
102
{ACAD_REACTORS
330
2484
102
}
330
2484
100
AcDbXrecord
340
E
  0
XRECORD
  5
248C
102
{ACAD_REACTORS
330
2484
102
}
330
2484
100
AcDbXrecord
 90
    10781
  0
XRECORD
  5
248D
102
{ACAD_REACTORS
330
2484
102
}
330
2484
100
AcDbXrecord
 90
        4
  0
XRECORD
  5
248E
102
{ACAD_REACTORS
330
2484
102
}
330
2484
100
AcDbXrecord
 90
        0
  0
XRECORD
  5
248F
102
{ACAD_REACTORS
330
2484
102
}
330
2484
100
AcDbXrecord
  1
{AFB28963-8C59-40AE-9337-C84526B81ACE}
  0
XRECORD
  5
2490
102
{ACAD_REACTORS
330
2484
102
}
330
2484
100
AcDbXrecord
  1
{D5D692AA-5E23-4B4B-9F13-21296F8CB5A5}
  0
XRECORD
  5
2491
102
{ACAD_REACTORS
330
2484
102
}
330
2484
100
AcDbXrecord
 40
0.0
  0
XRECORD
  5
2492
102
{ACAD_REACTORS
330
2484
102
}
330
2484
100
AcDbXrecord
1000
DSTYLE
1002
{
1070
    79
 70
     2
1070
   341
340
59
1070
   342
340
59
1070
   371
 70
    -1
1070
   372
 70
    -1
1002
}
  0
XRECORD
  5
2493
102
{ACAD_REACTORS
330
2484
102
}
330
2484
100
AcDbXrecord
340
0
  0
XRECORD
  5
2494
102
{ACAD_REACTORS
330
2484
102
}
330
2484
100
AcDbXrecord
 70
     0
  0
XRECORD
  5
2495
102
{ACAD_REACTORS
330
2484
102
}
330
2484
100
AcDbXrecord
340
0
  0
XRECORD
  5
2496
102
{ACAD_REACTORS
330
2484
102
}
330
2484
100
AcDbXrecord
 10
0.0
 20
0.0
 30
0.0
  0
XRECORD
  5
2497
102
{ACAD_REACTORS
330
2484
102
}
330
2484
100
AcDbXrecord
 10
0.0
 20
0.0
 30
0.0
  0
XRECORD
  5
2498
102
{ACAD_REACTORS
330
2484
102
}
330
2484
100
AcDbXrecord
 10
0.0
 20
0.0
 30
0.0
  0
XRECORD
  5
2499
102
{ACAD_REACTORS
330
2484
102
}
330
2484
100
AcDbXrecord
 10
0.0
 20
0.0
 30
0.0
  0
XRECORD
  5
249A
102
{ACAD_REACTORS
330
2484
102
}
330
2484
100
AcDbXrecord
 10
0.0
 20
0.0
 30
0.0
  0
XRECORD
  5
249B
102
{ACAD_REACTORS
330
2484
102
}
330
2484
100
AcDbXrecord
 10
0.0
 20
0.0
 30
0.0
  0
XRECORD
  5
249C
102
{ACAD_REACTORS
330
2484
102
}
330
2484
100
AcDbXrecord
340
0
  0
XRECORD
  5
249D
102
{ACAD_REACTORS
330
2484
102
}
330
2484
100
AcDbXrecord
 70
     0
  0
XRECORD
  5
249E
102
{ACAD_REACTORS
330
2484
102
}
330
2484
100
AcDbXrecord
340
0
  0
XRECORD
  5
249F
102
{ACAD_REACTORS
330
2484
102
}
330
2484
100
AcDbXrecord
 10
0.0
 20
0.0
 30
0.0
  0
XRECORD
  5
24A0
102
{ACAD_REACTORS
330
2484
102
}
330
2484
100
AcDbXrecord
 10
0.0
 20
0.0
 30
0.0
  0
XRECORD
  5
24A1
102
{ACAD_REACTORS
330
2484
102
}
330
2484
100
AcDbXrecord
 10
0.0
 20
0.0
 30
0.0
  0
XRECORD
  5
24A2
102
{ACAD_REACTORS
330
2484
102
}
330
2484
100
AcDbXrecord
 10
0.0
 20
0.0
 30
0.0
  0
XRECORD
  5
24A3
102
{ACAD_REACTORS
330
2484
102
}
330
2484
100
AcDbXrecord
 10
0.0
 20
0.0
 30
0.0
  0
XRECORD
  5
24A4
102
{ACAD_REACTORS
330
2484
102
}
330
2484
100
AcDbXrecord
 10
0.0
 20
0.0
 30
0.0
  0
LAYER_INDEX
  5
247B
102
{ACAD_REACTORS
330
247A
102
}
330
247A
100
AcDbIndex
 40
2453152.403681446
100
AcDbLayerIndex
  8
0
360
247C
 90
        0
  8
AM_0
360
247D
 90
      127
  8
AM_7
360
247E
 90
        1
  8
AM_11
360
247F
 90
        1
  8
AM_5
360
2480
 90
        6
  8
Defpoints
360
2481
 90
        0
  8
AM_6
360
2482
 90
        1
  0
XRECORD
  5
2D
102
{ACAD_REACTORS
330
2C
102
}
330
2C
100
AcDbXrecord
  1
VERSION
140
15.0
  1
PRODUCT
  2
AutoCAD Mechanical 2000
  0
IDBUFFER
  5
247C
330
0
100
AcDbIdBuffer
  0
IDBUFFER
  5
247D
330
0
100
AcDbIdBuffer
330
2290
330
2291
330
2292
330
2293
330
2294
330
2295
330
2296
330
2297
330
2298
330
2299
330
229A
330
229B
330
229C
330
229D
330
229E
330
221F
330
2220
330
2221
330
2222
330
2223
330
2224
330
2225
330
2226
330
2227
330
2228
330
2229
330
222A
330
222B
330
222C
330
222D
330
222E
330
222F
330
2230
330
2231
330
2232
330
2233
330
2234
330
2235
330
2236
330
2237
330
2238
330
2239
330
223A
330
223B
330
223C
330
223D
330
223E
330
223F
330
2240
330
2241
330
2242
330
2243
330
2244
330
2245
330
2246
330
2247
330
2248
330
2249
330
224A
330
224B
330
224C
330
224D
330
224E
330
224F
330
2250
330
2251
330
2253
330
2254
330
2255
330
2256
330
2257
330
2258
330
2259
330
225A
330
225B
330
225C
330
225D
330
225E
330
225F
330
2260
330
2261
330
2262
330
2263
330
2264
330
2265
330
2266
330
2267
330
2268
330
2269
330
226A
330
226B
330
226C
330
226D
330
226E
330
226F
330
2270
330
2271
330
2272
330
2273
330
2274
330
2275
330
2276
330
2277
330
2278
330
2279
330
227A
330
227B
330
227C
330
227D
330
227E
330
227F
330
2280
330
2281
330
2282
330
2283
330
2284
330
2285
330
2286
330
2287
330
2288
330
2289
330
228A
330
228B
330
228C
330
228D
330
228E
330
228F
  0
IDBUFFER
  5
247E
330
0
100
AcDbIdBuffer
330
221E
  0
IDBUFFER
  5
247F
330
0
100
AcDbIdBuffer
330
2252
  0
IDBUFFER
  5
2480
330
0
100
AcDbIdBuffer
330
155D
330
15E8
330
1673
330
1895
330
1E16
330
2381
  0
IDBUFFER
  5
2481
330
0
100
AcDbIdBuffer
  0
IDBUFFER
  5
2482
330
0
100
AcDbIdBuffer
330
1142
  0
ENDSEC
  0
EOF
