  0
SECTION
  2
HEADER
  9
$ACADVER
  1
AC1014
  9
$ACADMAINTVER
 70
     9
  9
$DWGCODEPAGE
  3
ANSI_932
  9
$INSBASE
 10
0.0
 20
0.0
 30
0.0
  9
$EXTMIN
 10
-182.1255962010852
 20
-60.53091687401985
 30
-0.00000001
  9
$EXTMAX
 10
16.89960579736401
 20
32.29999527795269
 30
0.00000001
  9
$LIMMIN
 10
-196.6013384139777
 20
-87.2662937332455
  9
$LIMMAX
 10
35.72877847990207
 20
33.38994917560779
  9
$ORTHOMODE
 70
     0
  9
$REGENMODE
 70
     1
  9
$FILLMODE
 70
     1
  9
$QTEXTMODE
 70
     0
  9
$MIRRTEXT
 70
     0
  9
$DRAGMODE
 70
     2
  9
$LTSCALE
 40
1.0
  9
$OSMODE
 70
    55
  9
$ATTMODE
 70
     1
  9
$TEXTSIZE
 40
2.5
  9
$TRACEWID
 40
1.0
  9
$TEXTSTYLE
  7
STANDARD
  9
$CLAYER
  8
AM_11
  9
$CELTYPE
  6
BYLAYER
  9
$CECOLOR
 62
   256
  9
$CELTSCALE
 40
1.0
  9
$DELOBJ
 70
     1
  9
$DISPSILH
 70
     0
  9
$DIMSCALE
 40
1.0
  9
$DIMASZ
 40
2.5
  9
$DIMEXO
 40
1.0
  9
$DIMDLI
 40
12.0
  9
$DIMRND
 40
0.0
  9
$DIMDLE
 40
0.0
  9
$DIMEXE
 40
1.0
  9
$DIMTP
 40
0.1
  9
$DIMTM
 40
0.1
  9
$DIMTXT
 40
3.2
  9
$DIMCEN
 40
0.0
  9
$DIMTSZ
 40
0.0
  9
$DIMTOL
 70
     0
  9
$DIMLIM
 70
     0
  9
$DIMTIH
 70
     0
  9
$DIMTOH
 70
     0
  9
$DIMSE1
 70
     0
  9
$DIMSE2
 70
     0
  9
$DIMTAD
 70
     3
  9
$DIMZIN
 70
     8
  9
$DIMBLK
  1
OPEN30
  9
$DIMASO
 70
     1
  9
$DIMSHO
 70
     1
  9
$DIMPOST
  1

  9
$DIMAPOST
  1
"
  9
$DIMALT
 70
     0
  9
$DIMALTD
 70
     2
  9
$DIMALTF
 40
0.0393701
  9
$DIMLFAC
 40
1.0
  9
$DIMTOFL
 70
     1
  9
$DIMTVP
 40
0.0
  9
$DIMTIX
 70
     0
  9
$DIMSOXD
 70
     0
  9
$DIMSAH
 70
     0
  9
$DIMBLK1
  1

  9
$DIMBLK2
  1

  9
$DIMSTYLE
  2
AM_JIS
  9
$DIMCLRD
 70
   256
  9
$DIMCLRE
 70
   256
  9
$DIMCLRT
 70
     2
  9
$DIMTFAC
 40
0.71
  9
$DIMGAP
 40
1.5
  9
$DIMJUST
 70
     0
  9
$DIMSD1
 70
     0
  9
$DIMSD2
 70
     0
  9
$DIMTOLJ
 70
     0
  9
$DIMTZIN
 70
     0
  9
$DIMALTZ
 70
     0
  9
$DIMALTTZ
 70
     0
  9
$DIMFIT
 70
     3
  9
$DIMUPT
 70
     0
  9
$DIMUNIT
 70
     2
  9
$DIMDEC
 70
     3
  9
$DIMTDEC
 70
     3
  9
$DIMALTU
 70
     2
  9
$DIMALTTD
 70
     2
  9
$DIMTXSTY
  7
ASAMI
  9
$DIMAUNIT
 70
     0
  9
$LUNITS
 70
     2
  9
$LUPREC
 70
     0
  9
$SKETCHINC
 40
1.0
  9
$FILLETRAD
 40
2.5
  9
$AUNITS
 70
     0
  9
$AUPREC
 70
     0
  9
$MENU
  1
.
  9
$ELEVATION
 40
0.0
  9
$PELEVATION
 40
0.0
  9
$THICKNESS
 40
0.0
  9
$LIMCHECK
 70
     0
  9
$BLIPMODE
 70
     0
  9
$CHAMFERA
 40
2.5
  9
$CHAMFERB
 40
2.5
  9
$CHAMFERC
 40
20.0
  9
$CHAMFERD
 40
0.0
  9
$SKPOLY
 70
     0
  9
$TDCREATE
 40
2452839.420061482
  9
$TDUPDATE
 40
2453152.400063911
  9
$TDINDWG
 40
0.1360930093
  9
$TDUSRTIMER
 40
0.1360930093
  9
$USRTIMER
 70
     1
  9
$ANGBASE
 50
0.0
  9
$ANGDIR
 70
     0
  9
$PDMODE
 70
     0
  9
$PDSIZE
 40
0.0
  9
$PLINEWID
 40
0.0
  9
$COORDS
 70
     1
  9
$SPLFRAME
 70
     0
  9
$SPLINETYPE
 70
     6
  9
$SPLINESEGS
 70
     8
  9
$ATTDIA
 70
     1
  9
$ATTREQ
 70
     1
  9
$HANDLING
 70
 12289
  9
$HANDSEED
  5
3A01
  9
$SURFTAB1
 70
     6
  9
$SURFTAB2
 70
     6
  9
$SURFTYPE
 70
     6
  9
$SURFU
 70
     6
  9
$SURFV
 70
     6
  9
$UCSNAME
  2

  9
$UCSORG
 10
0.0
 20
0.0
 30
0.0
  9
$UCSXDIR
 10
1.0
 20
0.0
 30
0.0
  9
$UCSYDIR
 10
0.0
 20
1.0
 30
0.0
  9
$PUCSNAME
  2

  9
$PUCSORG
 10
0.0
 20
0.0
 30
0.0
  9
$PUCSXDIR
 10
1.0
 20
0.0
 30
0.0
  9
$PUCSYDIR
 10
0.0
 20
1.0
 30
0.0
  9
$USERI1
 70
     0
  9
$USERI2
 70
     0
  9
$USERI3
 70
     0
  9
$USERI4
 70
     0
  9
$USERI5
 70
     0
  9
$USERR1
 40
0.0
  9
$USERR2
 40
0.0
  9
$USERR3
 40
0.0
  9
$USERR4
 40
0.0
  9
$USERR5
 40
0.0
  9
$WORLDVIEW
 70
     1
  9
$SHADEDGE
 70
     3
  9
$SHADEDIF
 70
    70
  9
$TILEMODE
 70
     1
  9
$MAXACTVP
 70
    64
  9
$PINSBASE
 10
0.0
 20
0.0
 30
0.0
  9
$PLIMCHECK
 70
     0
  9
$PEXTMIN
 10
1.000000000000000E+20
 20
1.000000000000000E+20
 30
1.000000000000000E+20
  9
$PEXTMAX
 10
-1.000000000000000E+20
 20
-1.000000000000000E+20
 30
-1.000000000000000E+20
  9
$PLIMMIN
 10
0.0
 20
0.0
  9
$PLIMMAX
 10
841.0
 20
594.0
  9
$UNITMODE
 70
     0
  9
$VISRETAIN
 70
     1
  9
$PLINEGEN
 70
     0
  9
$PSLTSCALE
 70
     0
  9
$TREEDEPTH
 70
  3020
  9
$PICKSTYLE
 70
     0
  9
$CMLSTYLE
  2
STANDARD
  9
$CMLJUST
 70
     0
  9
$CMLSCALE
 40
20.0
  9
$PROXYGRAPHICS
 70
     1
  9
$MEASUREMENT
 70
     1
  0
ENDSEC
  0
SECTION
  2
CLASSES
  0
CLASS
  1
ACDBDICTIONARYWDFLT
  2
AcDbDictionaryWithDefault
  3
AutoCAD 2000
 90
        0
280
     0
281
     0
  0
CLASS
  1
ACDBPLACEHOLDER
  2
AcDbPlaceHolder
  3
AutoCAD 2000
 90
        0
280
     0
281
     0
  0
CLASS
  1
LAYOUT
  2
AcDbLayout
  3
AutoCAD 2000
 90
        0
280
     0
281
     0
  0
CLASS
  1
AMGSETTINGSOBJ
  2
AmgSettingsObj
  3
"AcadM|Product Description: AutoCAD Mechanical 2000|Company: Autodesk"
 90
        0
280
     0
281
     0
  0
CLASS
  1
ACME_DOCUMENT
  2
AcMeDbDoc
  3
AcMeServices
 90
        0
280
     0
281
     0
  0
CLASS
  1
ACMESCOPE
  2
AcMeScope
  3
AcMeServices
 90
        0
280
     0
281
     0
  0
CLASS
  1
ACMECOMMANDHISTORY
  2
AcMeCommandHistory
  3
AcMeServices
 90
        0
280
     0
281
     0
  0
CLASS
  1
DICTIONARYVAR
  2
AcDbDictionaryVar
  3
AutoCAD 2000
 90
        0
280
     0
281
     0
  0
CLASS
  1
ACIMSYSVARMAN
  2
AcImSysVarManager
  3
AcMeServices
 90
        0
280
     0
281
     0
  0
CLASS
  1
ACIMREALSYSVAR
  2
AcImRealSysVar
  3
AcMeServices
 90
        0
280
     0
281
     0
  0
CLASS
  1
ACIMINTSYSVAR
  2
AcImIntSysVar
  3
AcMeServices
 90
        0
280
     0
281
     0
  0
CLASS
  1
ACMEDRAWINGMAN
  2
AcMeDrawingMan
  3
AcMeServices
 90
        0
280
     0
281
     0
  0
CLASS
  1
ACMEVIEW
  2
AcMeView
  3
AcMeServices
 90
        0
280
     0
281
     0
  0
CLASS
  1
ACDBENTITYCACHE
  2
AcMeEntityCache
  3
AcMeServices
 90
        0
280
     0
281
     0
  0
CLASS
  1
GSMANAGER
  2
AcMeGSManager
  3
AcMeServices
 90
        0
280
     0
281
     0
  0
CLASS
  1
AmdtInternalReactor
  2
AmdtInternalReactor
  3
AcMeServices
 90
        0
280
     0
281
     0
  0
CLASS
  1
ACMESTATEMGR
  2
AcMeStateMgr
  3
AcMeServices
 90
        0
280
     0
281
     0
  0
CLASS
  1
ACME_DATABASE
  2
AcMeDbDatabase
  3
AcMeServices
 90
        0
280
     0
281
     0
  0
CLASS
  1
ACRFINSADJUSTERMGR
  2
AcRfInsAdjusterMgr
  3
AcMeServices
 90
        0
280
     0
281
     0
  0
CLASS
  1
ACMDATADICTIONARY
  2
AcmDataDictionary
  3
"AcmSymBB|Product Description: AutoCAD Mechanical 2000|Company: Autodesk"
 90
        0
280
     0
281
     0
  0
CLASS
  1
ACMDATAENTRYBLOCK
  2
AcmDataEntryBlock
  3
"AcmSymBB|Product Description: AutoCAD Mechanical 2000|Company: Autodesk"
 90
        0
280
     0
281
     0
  0
CLASS
  1
AMGOBJPROPCFG
  2
AmgObjPropCfg
  3
"AmgLay|Product Description: AutoCAD Mechanical 2000|Company: Autodesk"
 90
        1
280
     0
281
     0
  0
CLASS
  1
ACAMGFILTERDAT
  2
AcAmgFilterDat
  3
"AcadM|Product Description: AutoCAD Mechanical 2000|Company: Autodesk"
 90
        0
280
     0
281
     0
  0
CLASS
  1
LAYER_INDEX
  2
AcDbLayerIndex
  3
AutoCAD 2000
 90
        0
280
     0
281
     0
  0
CLASS
  1
IDBUFFER
  2
AcDbIdBuffer
  3
AutoCAD 2000
 90
        0
280
     0
281
     0
  0
CLASS
  1
ACIMSTRSYSVAR
  2
AcImStrSysVar
  3
AcMeServices
 90
        0
280
     0
281
     0
  0
CLASS
  1
ACMSTANDARDJIS
  2
AcmStandardJIS
  3
"AcmSymBB|Product Description: AutoCAD Mechanical 2000|Company: Autodesk"
 90
        0
280
     0
281
     0
  0
CLASS
  1
ACMSURFSTANDARDJIS
  2
AcmSurfTextStdJIS
  3
"AcmSymBB|Product Description: AutoCAD Mechanical 2000|Company: Autodesk"
 90
        0
280
     0
281
     0
  0
CLASS
  1
ACMFCFSTANDARDJIS
  2
AcmFCFStdJIS
  3
"AcmSymBB|Product Description: AutoCAD Mechanical 2000|Company: Autodesk"
 90
        0
280
     0
281
     0
  0
CLASS
  1
ACMWELDSTANDARDJIS
  2
AcmWeldingStdJIS
  3
"AcmSymBB|Product Description: AutoCAD Mechanical 2000|Company: Autodesk"
 90
        0
280
     0
281
     0
  0
CLASS
  1
ACMIDSTANDARDJIS
  2
AcmIdStdJIS
  3
"AcmSymBB|Product Description: AutoCAD Mechanical 2000|Company: Autodesk"
 90
        0
280
     0
281
     0
  0
CLASS
  1
ACMDATUMSTANDARDJIS
  2
AcmDatumStdJIS
  3
"AcmSymBB|Product Description: AutoCAD Mechanical 2000|Company: Autodesk"
 90
        0
280
     0
281
     0
  0
CLASS
  1
ACMBOMSTANDARDJIS
  2
AcmBOMStdJIS
  3
"AcmSymBB|Product Description: AutoCAD Mechanical 2000|Company: Autodesk"
 90
        0
280
     0
281
     0
  0
CLASS
  1
ACMSTANDARDANSI
  2
AcmStandardANSI
  3
"AcmSymBB|Product Description: AutoCAD Mechanical 2000|Company: Autodesk"
 90
        0
280
     0
281
     0
  0
CLASS
  1
ACMSURFSTANDARDANSI
  2
AcmSurfTextStdANSI
  3
"AcmSymBB|Product Description: AutoCAD Mechanical 2000|Company: Autodesk"
 90
        0
280
     0
281
     0
  0
CLASS
  1
ACMFCFSTANDARDANSI
  2
AcmFCFStdANSI
  3
"AcmSymBB|Product Description: AutoCAD Mechanical 2000|Company: Autodesk"
 90
        0
280
     0
281
     0
  0
CLASS
  1
ACMWELDSTANDARDANSI
  2
AcmWeldingStdANSI
  3
"AcmSymBB|Product Description: AutoCAD Mechanical 2000|Company: Autodesk"
 90
        0
280
     0
281
     0
  0
CLASS
  1
ACMIDSTANDARDANSI
  2
AcmIdStdANSI
  3
"AcmSymBB|Product Description: AutoCAD Mechanical 2000|Company: Autodesk"
 90
        0
280
     0
281
     0
  0
CLASS
  1
ACMDATUMSTANDARDANSI
  2
AcmDatumStdANSI
  3
"AcmSymBB|Product Description: AutoCAD Mechanical 2000|Company: Autodesk"
 90
        0
280
     0
281
     0
  0
CLASS
  1
ACMBOMSTANDARDANSI
  2
AcmBOMStdANSI
  3
"AcmSymBB|Product Description: AutoCAD Mechanical 2000|Company: Autodesk"
 90
        0
280
     0
281
     0
  0
CLASS
  1
ACMSTANDARDBSI
  2
AcmStandardBSI
  3
"AcmSymBB|Product Description: AutoCAD Mechanical 2000|Company: Autodesk"
 90
        0
280
     0
281
     0
  0
CLASS
  1
ACMSURFSTANDARDBSI
  2
AcmSurfTextStdBSI
  3
"AcmSymBB|Product Description: AutoCAD Mechanical 2000|Company: Autodesk"
 90
        0
280
     0
281
     0
  0
CLASS
  1
ACMFCFSTANDARDBSI
  2
AcmFCFStdBSI
  3
"AcmSymBB|Product Description: AutoCAD Mechanical 2000|Company: Autodesk"
 90
        0
280
     0
281
     0
  0
CLASS
  1
ACMWELDSTANDARDBSI
  2
AcmWeldingStdBSI
  3
"AcmSymBB|Product Description: AutoCAD Mechanical 2000|Company: Autodesk"
 90
        0
280
     0
281
     0
  0
CLASS
  1
ACMIDSTANDARDBSI
  2
AcmIdStdBSI
  3
"AcmSymBB|Product Description: AutoCAD Mechanical 2000|Company: Autodesk"
 90
        0
280
     0
281
     0
  0
CLASS
  1
ACMDATUMSTANDARDBSI
  2
AcmDatumStdBSI
  3
"AcmSymBB|Product Description: AutoCAD Mechanical 2000|Company: Autodesk"
 90
        0
280
     0
281
     0
  0
CLASS
  1
ACMBOMSTANDARDBSI
  2
AcmBOMStdBSI
  3
"AcmSymBB|Product Description: AutoCAD Mechanical 2000|Company: Autodesk"
 90
        0
280
     0
281
     0
  0
CLASS
  1
LONG_TRANSACTION
  2
AcDbLongTransaction
  3
AutoCAD 2000
 90
        0
280
     0
281
     0
  0
CLASS
  1
LWPOLYLINE
  2
AcDbPolyline
  3
AutoCAD 2000
 90
        0
280
     0
281
     1
  0
CLASS
  1
HATCH
  2
AcDbHatch
  3
AutoCAD 2000
 90
        0
280
     0
281
     1
  0
CLASS
  1
XRECORD
  2
AcDbXrecord
  3
AutoCAD 2000
 90
        0
280
     0
281
     0
  0
ENDSEC
  0
SECTION
  2
TABLES
  0
TABLE
  2
VPORT
  5
8
330
0
100
AcDbSymbolTable
 70
     3
  0
VPORT
  5
39D6
330
8
100
AcDbSymbolTableRecord
100
AcDbViewportTableRecord
  2
*ACTIVE
 70
     0
 10
0.0
 20
0.0
 11
1.0
 21
1.0
 12
-68.65219071890662
 22
-10.97628811984993
 13
0.0
 23
0.0
 14
2.5
 24
2.5
 15
10.0
 25
10.0
 16
0.0
 26
0.0
 36
1.0
 17
0.0
 27
0.0
 37
0.0
 40
157.8770943077666
 41
1.56570841889117
 42
50.0
 43
0.0
 44
0.0
 50
0.0
 51
0.0
 71
     0
 72
   100
 73
     1
 74
     3
 75
     0
 76
     0
 77
     0
 78
     0
  0
ENDTAB
  0
TABLE
  2
LTYPE
  5
5
330
0
100
AcDbSymbolTable
 70
    10
  0
LTYPE
  5
14
330
5
100
AcDbSymbolTableRecord
100
AcDbLinetypeTableRecord
  2
BYBLOCK
 70
     0
  3

 72
    65
 73
     0
 40
0.0
  0
LTYPE
  5
15
330
5
100
AcDbSymbolTableRecord
100
AcDbLinetypeTableRecord
  2
BYLAYER
 70
     0
  3

 72
    65
 73
     0
 40
0.0
  0
LTYPE
  5
16
330
5
100
AcDbSymbolTableRecord
100
AcDbLinetypeTableRecord
  2
CONTINUOUS
 70
     0
  3
Solid line
 72
    65
 73
     0
 40
0.0
  0
LTYPE
  5
4B
330
5
100
AcDbSymbolTableRecord
100
AcDbLinetypeTableRecord
  2
AM_ISO02W050
 70
     0
  3
__ __ __ __ __ __ __ __ __ __ __ __ __ __ __
 72
    65
 73
     2
 40
7.5
 49
6.0
 74
     0
 49
-1.5
 74
     0
  0
LTYPE
  5
4C
330
5
100
AcDbSymbolTableRecord
100
AcDbLinetypeTableRecord
  2
AM_ISO08W050
 70
     0
  3
____ . ____ . ____ . ____ . ____ . ____ . ____
 72
    65
 73
     4
 40
18.0
 49
12.0
 74
     0
 49
-1.5
 74
     0
 49
3.0
 74
     0
 49
-1.5
 74
     0
  0
LTYPE
  5
4D
330
5
100
AcDbSymbolTableRecord
100
AcDbLinetypeTableRecord
  2
AM_ISO09W050
 70
     0
  3
_____ . . _____ . . _____ . . ____ .. ____
 72
    65
 73
     6
 40
22.5
 49
12.0
 74
     0
 49
-1.5
 74
     0
 49
3.0
 74
     0
 49
-1.5
 74
     0
 49
3.0
 74
     0
 49
-1.5
 74
     0
  0
LTYPE
  5
4E
330
5
100
AcDbSymbolTableRecord
100
AcDbLinetypeTableRecord
  2
AMCONSTR
 70
     0
  3
_______________________
 72
    65
 73
     2
 40
9999.0
 49
9999.0
 74
     0
 49
0.0
 74
     0
  0
LTYPE
  5
4F
330
5
100
AcDbSymbolTableRecord
100
AcDbLinetypeTableRecord
  2
AM_ISO02W050X2
 70
     0
  3
 _ _ _ _ _ _ _ _ _ _ _ _
 72
    65
 73
     2
 40
3.75
 49
3.0
 74
     0
 49
-0.75
 74
     0
  0
LTYPE
  5
50
330
5
100
AcDbSymbolTableRecord
100
AcDbLinetypeTableRecord
  2
AM_ISO08W050X2
 70
     0
  3
__ . __ . __ . __ . __ . __
 72
    65
 73
     4
 40
9.0
 49
6.0
 74
     0
 49
-0.75
 74
     0
 49
1.5
 74
     0
 49
-0.75
 74
     0
  0
LTYPE
  5
53
330
5
100
AcDbSymbolTableRecord
100
AcDbLinetypeTableRecord
  2
AMZIGZAG
 70
     0
  3
/\/-/\/-/\/-/\/-/\/-/\/
 72
    65
 73
     2
 40
11.00009999999999
 49
0.0001
 74
     4
 75
   135
340
52
 46
0.04
 50
0.0
 44
0.0
 45
0.0
 49
-11.0
 74
     0
  0
LTYPE
  5
166
330
5
100
AcDbSymbolTableRecord
100
AcDbLinetypeTableRecord
  2
ACJISTGL
 70
     0
  3
_ _ _ _ _
 72
    65
 73
     2
 40
3.0
 49
2.0
 74
     0
 49
-1.0
 74
     0
  0
LTYPE
  5
26A
330
5
100
AcDbSymbolTableRecord
100
AcDbLinetypeTableRecord
  2
ACJISTGB
 70
     0
  3
__ . . __ . .
 72
    65
 73
     6
 40
9.0
 49
4.0
 74
     0
 49
-1.0
 74
     0
 49
1.0
 74
     0
 49
-1.0
 74
     0
 49
1.0
 74
     0
 49
-1.0
 74
     0
  0
ENDTAB
  0
TABLE
  2
LAYER
  5
2
330
0
100
AcDbSymbolTable
 70
     7
  0
LAYER
  5
10
330
2
100
AcDbSymbolTableRecord
100
AcDbLayerTableRecord
  2
0
 70
     0
 62
     7
  6
CONTINUOUS
  0
LAYER
  5
3F9
330
2
100
AcDbSymbolTableRecord
100
AcDbLayerTableRecord
  2
AM_0
 70
     0
 62
     7
  6
CONTINUOUS
  0
LAYER
  5
CD5
330
2
100
AcDbSymbolTableRecord
100
AcDbLayerTableRecord
  2
AM_7
 70
     0
 62
     4
  6
AM_ISO08W050
  0
LAYER
  5
CDE
330
2
100
AcDbSymbolTableRecord
100
AcDbLayerTableRecord
  2
AM_11
 70
     0
 62
     3
  6
AM_ISO09W050
  0
LAYER
  5
CFB
330
2
100
AcDbSymbolTableRecord
100
AcDbLayerTableRecord
  2
AM_5
 70
     0
 62
     3
  6
CONTINUOUS
  0
LAYER
  5
CFD
330
2
100
AcDbSymbolTableRecord
100
AcDbLayerTableRecord
  2
DEFPOINTS
 70
     0
 62
     7
  6
CONTINUOUS
  0
LAYER
  5
113C
330
2
100
AcDbSymbolTableRecord
100
AcDbLayerTableRecord
  2
AM_6
 70
     0
 62
     2
  6
CONTINUOUS
  0
ENDTAB
  0
TABLE
  2
STYLE
  5
3
330
0
100
AcDbSymbolTable
 70
     5
  0
STYLE
  5
11
330
3
100
AcDbSymbolTableRecord
100
AcDbTextStyleTableRecord
  2
STANDARD
 70
     0
 40
0.0
 41
1.0
 50
0.0
 71
     0
 42
2.5
  3
simplex.shx
  4
EXTFONT.SHX
  0
STYLE
  5
52
330
3
100
AcDbSymbolTableRecord
100
AcDbTextStyleTableRecord
  2

 70
     1
 40
0.0
 41
1.0
 50
0.0
 71
     0
 42
2.5
  3
ltypeshp.shx
  4

  0
STYLE
  5
6B
330
3
100
AcDbSymbolTableRecord
100
AcDbTextStyleTableRecord
  2
ASAMI
 70
     0
 40
0.0
 41
1.0
 50
0.0
 71
     0
 42
2.5
  3
simplex.shx
  4
EXTFONT.SHX
  0
STYLE
  5
262
330
3
100
AcDbSymbolTableRecord
100
AcDbTextStyleTableRecord
  2
ACJISTS
 70
     0
 40
1.0
 41
1.0
 50
0.0
 71
     0
 42
2.5
  3
simplex.shx
  4
bigfont.shx
  0
STYLE
  5
269
330
3
100
AcDbSymbolTableRecord
100
AcDbTextStyleTableRecord
  2
ACJISGDT
 70
     0
 40
0.0
 41
1.0
 50
0.0
 71
     0
 42
2.5
  3
amgdtans.shx
  4

  0
ENDTAB
  0
TABLE
  2
VIEW
  5
6
330
0
100
AcDbSymbolTable
 70
     0
  0
ENDTAB
  0
TABLE
  2
UCS
  5
7
330
0
100
AcDbSymbolTable
 70
     0
  0
ENDTAB
  0
TABLE
  2
APPID
  5
9
330
0
100
AcDbSymbolTable
 70
    13
  0
APPID
  5
12
330
9
100
AcDbSymbolTableRecord
100
AcDbRegAppTableRecord
  2
ACAD
 70
     0
  0
APPID
  5
30
330
9
100
AcDbSymbolTableRecord
100
AcDbRegAppTableRecord
  2
MCAD_NO_VIS
 70
     0
  0
APPID
  5
31
330
9
100
AcDbSymbolTableRecord
100
AcDbRegAppTableRecord
  2
ACAD_TEMP_GRAPHIC
 70
     0
  0
APPID
  5
2C2
330
9
100
AcDbSymbolTableRecord
100
AcDbRegAppTableRecord
  2
GENIUS_GENDTOL_13
 70
     0
  0
APPID
  5
339
330
9
100
AcDbSymbolTableRecord
100
AcDbRegAppTableRecord
  2
GENIUS_GENODEF_13
 70
     0
  0
APPID
  5
33A
330
9
100
AcDbSymbolTableRecord
100
AcDbRegAppTableRecord
  2
GENIUS_GENOBJ-N-RSBK_13
 70
     0
  0
APPID
  5
33B
330
9
100
AcDbSymbolTableRecord
100
AcDbRegAppTableRecord
  2
GENIUS_GENOBJ-N-LIB_13
 70
     0
  0
APPID
  5
33C
330
9
100
AcDbSymbolTableRecord
100
AcDbRegAppTableRecord
  2
GENIUS_GENSCALE_13
 70
     0
  0
APPID
  5
378
330
9
100
AcDbSymbolTableRecord
100
AcDbRegAppTableRecord
  2
GENIUS_GENDIMSH_14
 70
     0
  0
APPID
  5
13A0
330
9
100
AcDbSymbolTableRecord
100
AcDbRegAppTableRecord
  2
GENIUS_GENOBJ-N-CEN_13
 70
     0
  0
APPID
  5
13D7
330
9
100
AcDbSymbolTableRecord
100
AcDbRegAppTableRecord
  2
GENIUS_GENREC_14
 70
     0
  0
APPID
  5
13D8
330
9
100
AcDbSymbolTableRecord
100
AcDbRegAppTableRecord
  2
GENIUS_GENOBJ-N-REC_13
 70
     0
  0
APPID
  5
31E2
330
9
100
AcDbSymbolTableRecord
100
AcDbRegAppTableRecord
  2
DCO15
 70
     0
  0
ENDTAB
  0
TABLE
  2
DIMSTYLE
  5
A
330
0
100
AcDbSymbolTable
 70
     9
  0
DIMSTYLE
105
58
330
A
100
AcDbSymbolTableRecord
100
AcDbDimStyleTableRecord
  2
AM_JIS
 70
     0
  3

  4
"
  5
OPEN30
  6

  7

 40
1.0
 41
2.5
 42
1.0
 43
12.0
 44
1.0
 45
0.0
 46
0.0
 47
0.1
 48
0.1
140
3.2
141
0.0
142
0.0
143
0.0393701
144
1.0
145
0.0
146
0.71
147
1.5
 71
     0
 72
     0
 73
     0
 74
     0
 75
     0
 76
     0
 77
     3
 78
     8
170
     0
171
     2
172
     1
173
     0
174
     0
175
     0
176
   256
177
   256
178
     2
270
     2
271
     3
272
     3
273
     2
274
     2
340
6B
275
     0
280
     0
281
     0
282
     0
283
     0
284
     0
285
     0
286
     0
287
     3
288
     0
  0
DIMSTYLE
105
5F
330
A
100
AcDbSymbolTableRecord
100
AcDbDimStyleTableRecord
  2
AM_JIS$3
 70
     0
  3

  4
"
  5
OPEN30
  6

  7

 40
1.0
 41
2.5
 42
1.0
 43
10.0
 44
1.0
 45
0.0
 46
0.0
 47
0.1
 48
0.1
140
3.2
141
0.0
142
0.0
143
0.0393701
144
1.0
145
0.0
146
0.71
147
1.5
 71
     0
 72
     0
 73
     0
 74
     1
 75
     0
 76
     0
 77
     3
 78
     8
170
     0
171
     2
172
     0
173
     0
174
     0
175
     0
176
   256
177
   256
178
     2
270
     2
271
     2
272
     3
273
     2
274
     2
340
6B
275
     0
280
     0
281
     0
282
     0
283
     0
284
     0
285
     0
286
     0
287
     0
288
     1
  0
DIMSTYLE
105
60
330
A
100
AcDbSymbolTableRecord
100
AcDbDimStyleTableRecord
  2
AM_JIS$4
 70
     0
  3

  4
"
  5
OPEN30
  6

  7

 40
1.0
 41
2.5
 42
1.0
 43
10.0
 44
1.0
 45
0.0
 46
0.0
 47
0.1
 48
0.1
140
3.2
141
0.0
142
0.0
143
0.0393701
144
1.0
145
0.0
146
0.71
147
1.5
 71
     0
 72
     0
 73
     0
 74
     1
 75
     0
 76
     0
 77
     3
 78
     8
170
     0
171
     2
172
     0
173
     0
174
     0
175
     0
176
   256
177
   256
178
     2
270
     2
271
     2
272
     3
273
     2
274
     2
340
6B
275
     0
280
     0
281
     0
282
     0
283
     0
284
     0
285
     0
286
     0
287
     0
288
     1
  0
DIMSTYLE
105
61
330
A
100
AcDbSymbolTableRecord
100
AcDbDimStyleTableRecord
  2
AM_JIS$6
 70
     0
  3

  4
"
  5
OPEN30
  6

  7

 40
1.0
 41
2.5
 42
1.0
 43
10.0
 44
1.0
 45
0.0
 46
0.0
 47
0.1
 48
0.1
140
3.2
141
0.0
142
0.0
143
0.0393701
144
1.0
145
0.0
146
0.71
147
1.5
 71
     0
 72
     0
 73
     0
 74
     0
 75
     0
 76
     0
 77
     0
 78
     8
170
     0
171
     2
172
     1
173
     0
174
     0
175
     0
176
   256
177
   256
178
     2
270
     2
271
     2
272
     2
273
     2
274
     2
340
6B
275
     0
280
     0
281
     0
282
     0
283
     0
284
     0
285
     0
286
     0
287
     3
288
     0
  0
DIMSTYLE
105
62
330
A
100
AcDbSymbolTableRecord
100
AcDbDimStyleTableRecord
  2
AM_JIS$7
 70
     0
  3

  4
"
  5
OPEN30
  6

  7

 40
1.0
 41
2.5
 42
1.0
 43
10.0
 44
1.0
 45
0.0
 46
0.0
 47
0.1
 48
0.1
140
3.2
141
0.0
142
0.0
143
0.0393701
144
1.0
145
0.0
146
0.71
147
1.5
 71
     0
 72
     0
 73
     0
 74
     0
 75
     0
 76
     0
 77
     3
 78
     8
170
     0
171
     2
172
     1
173
     0
174
     0
175
     0
176
   256
177
   256
178
     2
270
     2
271
     2
272
     3
273
     2
274
     2
340
6B
275
     0
280
     0
281
     0
282
     0
283
     0
284
     0
285
     0
286
     0
287
     3
288
     0
  0
DIMSTYLE
105
63
330
A
100
AcDbSymbolTableRecord
100
AcDbDimStyleTableRecord
  2
AM_JIS$SF
 70
     0
  3

  4
"
  5
OPEN30
  6

  7

 40
1.0
 41
2.5
 42
1.0
 43
10.0
 44
1.0
 45
0.0
 46
0.0
 47
0.1
 48
0.1
140
3.2
141
0.0
142
0.0
143
0.0393701
144
1.0
145
0.0
146
0.71
147
1.5
 71
     0
 72
     0
 73
     0
 74
     0
 75
     1
 76
     1
 77
     3
 78
     8
170
     0
171
     2
172
     1
173
     0
174
     0
175
     0
176
   256
177
   256
178
     2
270
     2
271
     2
272
     2
273
     2
274
     2
340
6B
275
     0
280
     0
281
     0
282
     0
283
     0
284
     0
285
     0
286
     0
287
     3
288
     0
  0
DIMSTYLE
105
68
330
A
100
AcDbSymbolTableRecord
100
AcDbDimStyleTableRecord
  2
AM_JIS$SH
 70
     0
  3

  4
"
  5

  6
GENAXEH
  7
OPEN30
 40
1.0
 41
2.5
 42
1.0
 43
10.0
 44
1.0
 45
0.0
 46
0.0
 47
0.1
 48
0.1
140
3.2
141
0.0
142
0.0
143
0.0393701
144
2.0
145
0.0
146
0.71
147
1.5
 71
     0
 72
     0
 73
     0
 74
     0
 75
     1
 76
     1
 77
     3
 78
     8
170
     0
171
     2
172
     1
173
     1
174
     0
175
     0
176
   256
177
   256
178
     2
270
     2
271
     2
272
     2
273
     2
274
     2
340
6B
275
     0
280
     0
281
     0
282
     0
283
     0
284
     0
285
     0
286
     0
287
     3
288
     0
  0
DIMSTYLE
105
B34
330
A
100
AcDbSymbolTableRecord
100
AcDbDimStyleTableRecord
  2
AM_JIS$2
 70
     0
  3

  4
"
  5
OPEN30
  6

  7

 40
1.0
 41
2.5
 42
1.0
 43
12.0
 44
1.0
 45
0.0
 46
0.0
 47
0.1
 48
0.1
140
3.2
141
0.0
142
0.0
143
0.0393701
144
1.0
145
0.0
146
0.71
147
1.5
 71
     0
 72
     0
 73
     0
 74
     0
 75
     0
 76
     0
 77
     3
 78
     8
170
     0
171
     2
172
     1
173
     0
174
     0
175
     0
176
   256
177
   256
178
     2
270
     2
271
     3
272
     3
273
     2
274
     2
340
6B
275
     0
280
     0
281
     0
282
     0
283
     0
284
     0
285
     0
286
     0
287
     3
288
     0
  0
DIMSTYLE
105
BA5
102
{ACAD_REACTORS
330
1673
330
155D
330
15E8
330
2B71
330
300D
330
38C2
102
}
330
A
100
AcDbSymbolTableRecord
100
AcDbDimStyleTableRecord
  2
AM_JIS$0
 70
     0
  3

  4
"
  5
OPEN30
  6

  7

 40
1.0
 41
2.5
 42
0.0
 43
10.0
 44
1.0
 45
0.0
 46
0.0
 47
0.1
 48
0.1000000001
140
3.799999999999999
141
0.0
142
0.0
143
0.0393701
144
1.0
145
0.0
146
0.71
147
1.5
 71
     0
 72
     0
 73
     0
 74
     0
 75
     0
 76
     0
 77
     3
 78
     1
170
     0
171
     2
172
     1
173
     0
174
     0
175
     0
176
     3
177
     3
178
     2
270
     2
271
     2
272
     2
273
     2
274
     2
340
11
275
     1
280
     0
281
     0
282
     0
283
     0
284
     8
285
     0
286
     0
287
     0
288
     0
  0
ENDTAB
  0
TABLE
  2
BLOCK_RECORD
  5
1
330
0
100
AcDbSymbolTable
 70
    12
  0
BLOCK_RECORD
  5
1F
102
{ACAD_XDICTIONARY
360
74
102
}
330
1
100
AcDbSymbolTableRecord
100
AcDbBlockTableRecord
  2
*MODEL_SPACE
  0
BLOCK_RECORD
  5
101
102
{ACAD_XDICTIONARY
360
39FF
102
}
330
1
100
AcDbSymbolTableRecord
100
AcDbBlockTableRecord
  2
*PAPER_SPACE
  0
BLOCK_RECORD
  5
59
330
1
100
AcDbSymbolTableRecord
100
AcDbBlockTableRecord
  2
_OPEN30
  0
BLOCK_RECORD
  5
64
330
1
100
AcDbSymbolTableRecord
100
AcDbBlockTableRecord
  2
GENAXEH
  0
BLOCK_RECORD
  5
155E
330
1
100
AcDbSymbolTableRecord
100
AcDbBlockTableRecord
  2
*D5
  0
BLOCK_RECORD
  5
15E9
330
1
100
AcDbSymbolTableRecord
100
AcDbBlockTableRecord
  2
*D6
  0
BLOCK_RECORD
  5
1674
330
1
100
AcDbSymbolTableRecord
100
AcDbBlockTableRecord
  2
*D7
  0
BLOCK_RECORD
  5
2B72
330
1
100
AcDbSymbolTableRecord
100
AcDbBlockTableRecord
  2
*D8
  0
BLOCK_RECORD
  5
300E
330
1
100
AcDbSymbolTableRecord
100
AcDbBlockTableRecord
  2
*D9
  0
BLOCK_RECORD
  5
3801
330
1
100
AcDbSymbolTableRecord
100
AcDbBlockTableRecord
  2
A$C4D330A70
  0
BLOCK_RECORD
  5
38C3
330
1
100
AcDbSymbolTableRecord
100
AcDbBlockTableRecord
  2
*D11
  0
ENDTAB
  0
ENDSEC
  0
SECTION
  2
BLOCKS
  0
BLOCK
  5
20
330
1F
100
AcDbEntity
  8
0
100
AcDbBlockBegin
  2
*MODEL_SPACE
 70
     0
 10
0.0
 20
0.0
 30
0.0
  3
*MODEL_SPACE
  1

  0
ENDBLK
  5
21
330
1F
100
AcDbEntity
  8
0
100
AcDbBlockEnd
  0
BLOCK
  5
103
330
101
100
AcDbEntity
 67
     1
  8
0
100
AcDbBlockBegin
  2
*PAPER_SPACE
 70
     0
 10
0.0
 20
0.0
 30
0.0
  3
*PAPER_SPACE
  1

  0
ENDBLK
  5
104
330
101
100
AcDbEntity
 67
     1
  8
0
100
AcDbBlockEnd
  0
BLOCK
  5
5D
330
59
100
AcDbEntity
  8
0
100
AcDbBlockBegin
  2
_OPEN30
 70
     0
 10
0.0
 20
0.0
 30
0.0
  3
_OPEN30
  1

  0
LINE
  5
5A
330
59
100
AcDbEntity
  8
0
 62
     0
100
AcDbLine
 10
-1.0
 20
0.26794919
 30
0.0
 11
0.0
 21
0.0
 31
0.0
  0
LINE
  5
5B
330
59
100
AcDbEntity
  8
0
 62
     0
100
AcDbLine
 10
0.0
 20
0.0
 30
0.0
 11
-1.0
 21
-0.26794919
 31
0.0
  0
LINE
  5
5C
330
59
100
AcDbEntity
  8
0
 62
     0
100
AcDbLine
 10
0.0
 20
0.0
 30
0.0
 11
-1.0
 21
0.0
 31
0.0
  0
ENDBLK
  5
5E
330
59
100
AcDbEntity
  8
0
100
AcDbBlockEnd
  0
BLOCK
  5
66
330
64
100
AcDbEntity
  8
0
100
AcDbBlockBegin
  2
GENAXEH
 70
     0
 10
0.0
 20
0.0
 30
0.0
  3
GENAXEH
  1

  0
LINE
  5
65
330
64
100
AcDbEntity
  8
0
100
AcDbLine
 10
-1.0
 20
0.0
 30
0.0
 11
1.0
 21
0.0
 31
0.0
  0
ENDBLK
  5
67
330
64
100
AcDbEntity
  8
0
100
AcDbBlockEnd
  0
BLOCK
  5
1568
330
155E
100
AcDbEntity
  8
0
100
AcDbBlockBegin
  2
*D5
 70
     1
 10
0.0
 20
0.0
 30
0.0
  3
*D5
  1

  0
LINE
  5
38B2
330
155E
100
AcDbEntity
  8
AM_5
 62
     3
100
AcDbLine
 10
-0.0000000000000008
 20
-6.0
 30
0.0
 11
-0.0000000000000023
 21
-30.99999999999998
 31
0.0
  0
LINE
  5
38B3
330
155E
100
AcDbEntity
  8
AM_5
 62
     3
100
AcDbLine
 10
-35.00002670288099
 20
-12.00003623962733
 30
0.0
 11
-35.00002670288099
 21
-30.99999999999998
 31
0.0
  0
LINE
  5
38B4
330
155E
100
AcDbEntity
  8
AM_5
 62
     3
100
AcDbLine
 10
-2.500000000000002
 20
-29.99999999999998
 30
0.0
 11
-32.50002670288099
 21
-29.99999999999998
 31
0.0
  0
INSERT
  5
38B5
330
155E
100
AcDbEntity
  8
AM_5
 62
     3
100
AcDbBlockReference
  2
_OPEN30
 10
-0.0000000000000022
 20
-29.99999999999998
 30
0.0
 41
2.5
 42
2.5
 43
2.5
  0
INSERT
  5
38B6
330
155E
100
AcDbEntity
  8
AM_5
 62
     3
100
AcDbBlockReference
  2
_OPEN30
 10
-35.00002670288099
 20
-29.99999999999998
 30
0.0
 41
2.5
 42
2.5
 43
2.5
 50
180.0
  0
MTEXT
  5
38B7
330
155E
100
AcDbEntity
  8
AM_5
 62
     2
100
AcDbMText
 10
-17.50001335144049
 20
-26.59999999999998
 30
0.0
 40
3.799999999999999
 41
0.0
 71
     5
 72
     1
  1
35
1001
ACAD
1000
MTEXTBEGIN
1070
    73
1070
     1
1070
    44
1040
1.0
1070
    74
1070
     0
1000
MTEXTEND
  0
POINT
  5
38B8
330
155E
100
AcDbEntity
  8
DEFPOINTS
 62
     0
100
AcDbPoint
 10
-0.0000000000000008
 20
-6.0
 30
0.0
  0
POINT
  5
38B9
330
155E
100
AcDbEntity
  8
DEFPOINTS
 62
     0
100
AcDbPoint
 10
-35.00002670288099
 20
-12.00003623962733
 30
0.0
  0
POINT
  5
38BA
330
155E
100
AcDbEntity
  8
DEFPOINTS
 62
     0
100
AcDbPoint
 10
-35.00002670288099
 20
-29.99999999999998
 30
0.0
  0
ENDBLK
  5
1569
330
155E
100
AcDbEntity
  8
0
100
AcDbBlockEnd
  0
BLOCK
  5
15F3
330
15E9
100
AcDbEntity
  8
0
100
AcDbBlockBegin
  2
*D6
 70
     1
 10
0.0
 20
0.0
 30
0.0
  3
*D6
  1

  0
LINE
  5
3959
330
15E9
100
AcDbEntity
  8
AM_5
 62
     3
100
AcDbLine
 10
-35.00002670288099
 20
-12.00003623962733
 30
0.0
 11
-35.00002670288099
 21
-31.00000000000023
 31
0.0
  0
LINE
  5
395A
330
15E9
100
AcDbEntity
  8
AM_5
 62
     3
100
AcDbLine
 10
-159.9089911215174
 20
-10.75805265856986
 30
0.0
 11
-159.9089911215174
 21
-31.00000000000023
 31
0.0
  0
LINE
  5
395B
330
15E9
100
AcDbEntity
  8
AM_5
 62
     3
100
AcDbLine
 10
-37.50002670288099
 20
-30.00000000000023
 30
0.0
 11
-157.4089911215174
 21
-30.00000000000023
 31
0.0
  0
INSERT
  5
395C
330
15E9
100
AcDbEntity
  8
AM_5
 62
     3
100
AcDbBlockReference
  2
_OPEN30
 10
-35.00002670288099
 20
-30.00000000000023
 30
0.0
 41
2.5
 42
2.5
 43
2.5
  0
INSERT
  5
395D
330
15E9
100
AcDbEntity
  8
AM_5
 62
     3
100
AcDbBlockReference
  2
_OPEN30
 10
-159.9089911215174
 20
-30.00000000000023
 30
0.0
 41
2.5
 42
2.5
 43
2.5
 50
180.0
  0
MTEXT
  5
395E
330
15E9
100
AcDbEntity
  8
AM_5
 62
     2
100
AcDbMText
 10
-97.45450891219924
 20
-26.60000000000023
 30
0.0
 40
3.799999999999999
 41
0.0
 71
     5
 72
     1
  1
125
1001
ACAD
1000
MTEXTBEGIN
1070
    73
1070
     1
1070
    44
1040
1.0
1070
    74
1070
     0
1000
MTEXTEND
  0
POINT
  5
395F
330
15E9
100
AcDbEntity
  8
DEFPOINTS
 62
     0
100
AcDbPoint
 10
-35.00002670288099
 20
-12.00003623962733
 30
0.0
  0
POINT
  5
3960
330
15E9
100
AcDbEntity
  8
DEFPOINTS
 62
     0
100
AcDbPoint
 10
-159.9089911215174
 20
-10.75805265856986
 30
0.0
  0
POINT
  5
3961
330
15E9
100
AcDbEntity
  8
DEFPOINTS
 62
     0
100
AcDbPoint
 10
-159.9089911215174
 20
-30.00000000000023
 30
0.0
  0
ENDBLK
  5
15F4
330
15E9
100
AcDbEntity
  8
0
100
AcDbBlockEnd
  0
BLOCK
  5
167E
330
1674
100
AcDbEntity
  8
0
100
AcDbBlockBegin
  2
*D7
 70
     1
 10
0.0
 20
0.0
 30
0.0
  3
*D7
  1

  0
LINE
  5
3950
330
1674
100
AcDbEntity
  8
AM_5
 62
     3
100
AcDbLine
 10
-160.0000305175769
 20
-10.16150474548731
 30
0.0
 11
-160.0000305175769
 21
-40.99999999999991
 31
0.0
  0
LINE
  5
3951
330
1674
100
AcDbEntity
  8
AM_5
 62
     3
100
AcDbLine
 10
0.0000000000000196
 20
-15.99999999999991
 30
0.0
 11
0.000000000000018
 21
-40.99999999999991
 31
0.0
  0
LINE
  5
3952
330
1674
100
AcDbEntity
  8
AM_5
 62
     3
100
AcDbLine
 10
-157.5000305175769
 20
-39.99999999999991
 30
0.0
 11
-2.499999999999981
 21
-39.99999999999991
 31
0.0
  0
INSERT
  5
3953
330
1674
100
AcDbEntity
  8
AM_5
 62
     3
100
AcDbBlockReference
  2
_OPEN30
 10
-160.0000305175769
 20
-39.99999999999991
 30
0.0
 41
2.5
 42
2.5
 43
2.5
 50
180.0
  0
INSERT
  5
3954
330
1674
100
AcDbEntity
  8
AM_5
 62
     3
100
AcDbBlockReference
  2
_OPEN30
 10
0.0000000000000181
 20
-39.99999999999991
 30
0.0
 41
2.5
 42
2.5
 43
2.5
  0
MTEXT
  5
3955
330
1674
100
AcDbEntity
  8
AM_5
 62
     2
100
AcDbMText
 10
-80.00001525878849
 20
-36.59999999999991
 30
0.0
 40
3.799999999999999
 41
0.0
 71
     5
 72
     1
  1
160
1001
ACAD
1000
MTEXTBEGIN
1070
    73
1070
     1
1070
    44
1040
1.0
1070
    74
1070
     0
1000
MTEXTEND
  0
POINT
  5
3956
330
1674
100
AcDbEntity
  8
DEFPOINTS
 62
     0
100
AcDbPoint
 10
-160.0000305175769
 20
-10.16150474548731
 30
0.0
  0
POINT
  5
3957
330
1674
100
AcDbEntity
  8
DEFPOINTS
 62
     0
100
AcDbPoint
 10
0.0000000000000196
 20
-15.99999999999991
 30
0.0
  0
POINT
  5
3958
330
1674
100
AcDbEntity
  8
DEFPOINTS
 62
     0
100
AcDbPoint
 10
0.0000000000000181
 20
-39.99999999999991
 30
0.0
  0
ENDBLK
  5
167F
330
1674
100
AcDbEntity
  8
0
100
AcDbBlockEnd
  0
BLOCK
  5
2B7C
330
2B72
100
AcDbEntity
  8
0
100
AcDbBlockBegin
  2
*D8
 70
     1
 10
0.0
 20
0.0
 30
0.0
  3
*D8
  1

  0
LINE
  5
396B
330
2B72
100
AcDbEntity
  8
AM_5
 62
     3
100
AcDbLine
 10
0.0000000000000426
 20
-13.00000572204731
 30
0.0
 11
16.899605797364
 21
-13.00000572204732
 31
0.0
  0
LINE
  5
396C
330
2B72
100
AcDbEntity
  8
AM_5
 62
     3
100
AcDbLine
 10
0.0000000000000442
 20
12.99999427795268
 30
0.0
 11
16.89960579736401
 21
12.99999427795268
 31
0.0
  0
LINE
  5
396D
330
2B72
100
AcDbEntity
  8
AM_5
 62
     3
100
AcDbLine
 10
15.899605797364
 20
-10.50000572204732
 30
0.0
 11
15.899605797364
 21
10.49999427795268
 31
0.0
  0
INSERT
  5
396E
330
2B72
100
AcDbEntity
  8
AM_5
 62
     3
100
AcDbBlockReference
  2
_OPEN30
 10
15.899605797364
 20
-13.00000572204732
 30
0.0
 41
2.5
 42
2.5
 43
2.5
 50
270.0
  0
INSERT
  5
396F
330
2B72
100
AcDbEntity
  8
AM_5
 62
     3
100
AcDbBlockReference
  2
_OPEN30
 10
15.899605797364
 20
12.99999427795268
 30
0.0
 41
2.5
 42
2.5
 43
2.5
 50
90.0
  0
MTEXT
  5
3970
330
2B72
100
AcDbEntity
  8
AM_5
 62
     2
100
AcDbMText
 10
12.499605797364
 20
-0.0000057220473183
 30
0.0
 40
3.799999999999999
 41
0.0
 71
     5
 72
     1
  1
%%c26
 11
0.0000000000000001
 21
1.0
 31
0.0
1001
ACAD
1000
MTEXTBEGIN
1070
    73
1070
     1
1070
    44
1040
1.0
1070
    74
1070
     0
1000
MTEXTEND
  0
POINT
  5
3971
330
2B72
100
AcDbEntity
  8
DEFPOINTS
 62
     0
100
AcDbPoint
 10
0.0000000000000426
 20
-13.00000572204731
 30
0.0
  0
POINT
  5
3972
330
2B72
100
AcDbEntity
  8
DEFPOINTS
 62
     0
100
AcDbPoint
 10
0.0000000000000442
 20
12.99999427795268
 30
0.0
  0
POINT
  5
3973
330
2B72
100
AcDbEntity
  8
DEFPOINTS
 62
     0
100
AcDbPoint
 10
15.899605797364
 20
12.99999427795268
 30
0.0
  0
ENDBLK
  5
2B7D
330
2B72
100
AcDbEntity
  8
0
100
AcDbBlockEnd
  0
BLOCK
  5
3018
330
300E
100
AcDbEntity
  8
0
100
AcDbBlockBegin
  2
*D9
 70
     1
 10
0.0
 20
0.0
 30
0.0
  3
*D9
  1

  0
LINE
  5
3962
330
300E
100
AcDbEntity
  8
AM_5
 62
     3
100
AcDbLine
 10
-157.0000305175769
 20
-12.50000572204731
 30
0.0
 11
-177.8255962010851
 21
-12.50000572204731
 31
0.0
  0
LINE
  5
3963
330
300E
100
AcDbEntity
  8
AM_5
 62
     3
100
AcDbLine
 10
-157.0000305175769
 20
12.49999427795268
 30
0.0
 11
-177.8255962010851
 21
12.49999427795268
 31
0.0
  0
LINE
  5
3964
330
300E
100
AcDbEntity
  8
AM_5
 62
     3
100
AcDbLine
 10
-176.8255962010851
 20
-10.00000572204731
 30
0.0
 11
-176.8255962010851
 21
9.999994277952687
 31
0.0
  0
INSERT
  5
3965
330
300E
100
AcDbEntity
  8
AM_5
 62
     3
100
AcDbBlockReference
  2
_OPEN30
 10
-176.8255962010851
 20
-12.50000572204731
 30
0.0
 41
2.5
 42
2.5
 43
2.5
 50
270.0
  0
INSERT
  5
3966
330
300E
100
AcDbEntity
  8
AM_5
 62
     3
100
AcDbBlockReference
  2
_OPEN30
 10
-176.8255962010851
 20
12.49999427795268
 30
0.0
 41
2.5
 42
2.5
 43
2.5
 50
90.0
  0
MTEXT
  5
3967
330
300E
100
AcDbEntity
  8
AM_5
 62
     2
100
AcDbMText
 10
-180.2255962010851
 20
0.0000171661371168
 30
0.0
 40
3.799999999999999
 41
0.0
 71
     5
 72
     1
  1
%%c25
 11
0.0000000000000001
 21
1.0
 31
0.0
1001
ACAD
1000
MTEXTBEGIN
1070
    73
1070
     1
1070
    44
1040
1.0
1070
    74
1070
     0
1000
MTEXTEND
  0
POINT
  5
3968
330
300E
100
AcDbEntity
  8
DEFPOINTS
 62
     0
100
AcDbPoint
 10
-157.0000305175769
 20
-12.50000572204731
 30
0.0
  0
POINT
  5
3969
330
300E
100
AcDbEntity
  8
DEFPOINTS
 62
     0
100
AcDbPoint
 10
-157.0000305175769
 20
12.49999427795268
 30
0.0
  0
POINT
  5
396A
330
300E
100
AcDbEntity
  8
DEFPOINTS
 62
     0
100
AcDbPoint
 10
-176.8255962010851
 20
12.49999427795268
 30
0.0
  0
ENDBLK
  5
3019
330
300E
100
AcDbEntity
  8
0
100
AcDbBlockEnd
  0
BLOCK
  5
3886
330
3801
100
AcDbEntity
  8
0
100
AcDbBlockBegin
  2
A$C4D330A70
 70
     0
 10
0.0
 20
0.0
 30
0.0
  3
A$C4D330A70
  1

  0
LINE
  5
3802
330
3801
100
AcDbEntity
  8
AM_7
  6
AM_ISO08W050X2
100
AcDbLine
 10
-1.899604797363991
 20
0.0
 30
0.0
 11
162.8255952010852
 21
0.0
 31
0.0
  0
LINE
  5
3803
330
3801
100
AcDbEntity
  8
AM_0
100
AcDbLine
 10
156.9999923706039
 20
12.5
 30
0.0
 11
35.432994842529
 21
12.5
 31
0.0
  0
LINE
  5
3804
330
3801
100
AcDbEntity
  8
AM_0
100
AcDbLine
 10
35.432994842529
 20
-12.5
 30
0.0
 11
156.9999923706039
 21
-12.5
 31
0.0
  0
SPLINE
  5
3805
330
3801
100
AcDbEntity
  8
AM_0
100
AcDbSpline
210
0.0
220
0.0
230
1.0
 70
     8
 71
     3
 72
    11
 73
     7
 74
     5
 42
0.0000000001
 43
0.0000000001
 44
0.0000000001
 40
0.0
 40
0.0
 40
0.0
 40
0.0
 40
0.0436189106352618
 40
0.0872378212705236
 40
0.1308262208310262
 40
0.1744472912351962
 40
0.1744472912351962
 40
0.1744472912351962
 40
0.1744472912351962
 10
8.514198303222002
 20
12.13098144532
 30
0.0
 10
8.514497821455266
 20
12.14551799749765
 30
0.0
 10
8.515096857921795
 20
12.17459110185296
 30
0.0
 10
8.516005483844596
 20
12.21819036587993
 30
0.0
 10
8.516873015537207
 20
12.2617912465963
 30
0.0
 10
8.517556626193197
 20
12.29085305597243
 30
0.0
 10
8.517898559569999
 20
12.3053894043
 30
0.0
 11
8.514198303222002
 21
12.13098144532
 31
0.0
 11
8.515098571777002
 21
12.17459106446
 31
0.0
 11
8.515998840332002
 21
12.2182006836
 31
0.0
 11
8.516899108886008
 21
12.26177978516
 31
0.0
 11
8.517898559569999
 21
12.3053894043
 31
0.0
  0
SPLINE
  5
3806
330
3801
100
AcDbEntity
  8
AM_0
100
AcDbSpline
210
0.0
220
0.0
230
1.0
 70
     8
 71
     3
 72
    11
 73
     7
 74
     5
 42
0.0000000001
 43
0.0000000001
 44
0.0000000001
 40
0.0
 40
0.0
 40
0.0
 40
0.0
 40
0.0647995572012
 40
0.1286870961535298
 40
0.1922742032892864
 40
0.2561722481326972
 40
0.2561722481326972
 40
0.2561722481326972
 40
0.2561722481326972
 10
8.765296936034999
 20
12.08969116211
 30
0.0
 10
8.744891318553907
 20
12.09683026499353
 30
0.0
 10
8.704367281472787
 20
12.11100799180068
 30
0.0
 10
8.641563253167134
 20
12.12449409556632
 30
0.0
 10
8.578045196856578
 20
12.13187719854057
 30
0.0
 10
8.535515178163521
 20
12.13128051483293
 30
0.0
 10
8.514198303222002
 20
12.13098144532
 30
0.0
 11
8.765296936034999
 21
12.08969116211
 31
0.0
 11
8.703697204589005
 21
12.1098022461
 31
0.0
 11
8.641296386718011
 21
12.12350463868
 31
0.0
 11
8.578094482421008
 21
12.13049316407
 31
0.0
 11
8.514198303222002
 21
12.13098144532
 31
0.0
  0
SPLINE
  5
3807
330
3801
100
AcDbEntity
  8
AM_0
100
AcDbSpline
210
0.0
220
0.0
230
1.0
 70
     8
 71
     3
 72
    11
 73
     7
 74
     5
 42
0.0000000001
 43
0.0000000001
 44
0.0000000001
 40
0.0
 40
0.0
 40
0.0
 40
0.0
 40
0.0866208545373592
 40
0.1718699491435831
 40
0.256580864365054
 40
0.3419845030374071
 40
0.3419845030374071
 40
0.3419845030374071
 40
0.3419845030374071
 10
8.882095336914005
 20
12.28448486329
 30
0.0
 10
8.854913614195611
 20
12.29430734026582
 30
0.0
 10
8.80098062858612
 20
12.31379674183448
 30
0.0
 10
8.717204839696615
 20
12.3320247435505
 30
0.0
 10
8.632439496227231
 20
12.34195763384112
 30
0.0
 10
8.575687155521931
 20
12.34077378044346
 30
0.0
 10
8.547195434569999
 20
12.34017944336
 30
0.0
 11
8.882095336914005
 21
12.28448486329
 31
0.0
 11
8.799995422363011
 21
12.31210327149
 31
0.0
 11
8.716796875
 21
12.33068847657
 31
0.0
 11
8.632598876953011
 21
12.3399963379
 31
0.0
 11
8.547195434569999
 21
12.34017944336
 31
0.0
  0
SPLINE
  5
3808
330
3801
100
AcDbEntity
  8
AM_0
100
AcDbSpline
210
0.0
220
0.0
230
1.0
 70
     8
 71
     3
 72
    11
 73
     7
 74
     5
 42
0.0000000001
 43
0.0000000001
 44
0.0000000001
 40
0.0
 40
0.0
 40
0.0
 40
0.0
 40
0.0649256956093147
 40
0.1288501829298991
 40
0.1924427309732985
 40
0.2565358009355778
 40
0.2565358009355778
 40
0.2565358009355778
 40
0.2565358009355778
 10
8.765296936034999
 20
12.08969116211
 30
0.0
 10
8.78520935005727
 20
12.08116006104089
 30
0.0
 10
8.824727112096882
 20
12.06422941558484
 30
0.0
 10
8.879983974702961
 20
12.03133878417353
 30
0.0
 10
8.931500434862616
 20
11.99328952263859
 30
0.0
 10
8.961924218161042
 20
11.96345970348572
 30
0.0
 10
8.977195739746008
 20
11.94848632813
 30
0.0
 11
8.765296936034999
 21
12.08969116211
 31
0.0
 11
8.824394226074005
 21
12.06280517579
 31
0.0
 11
8.879493713379005
 21
12.03039550782
 31
0.0
 11
8.930397033691008
 21
11.99227905274
 31
0.0
 11
8.977195739746008
 21
11.94848632813
 31
0.0
  0
SPLINE
  5
3809
330
3801
100
AcDbEntity
  8
AM_0
100
AcDbSpline
210
0.0
220
0.0
230
1.0
 70
     8
 71
     3
 72
    11
 73
     7
 74
     5
 42
0.0000000001
 43
0.0000000001
 44
0.0000000001
 40
0.0
 40
0.0
 40
0.0
 40
0.0
 40
0.0937082429220404
 40
0.1856517854361158
 40
0.2771807384429589
 40
0.3694962168090398
 40
0.3694962168090398
 40
0.3694962168090398
 40
0.3694962168090398
 10
9.178794860839005
 20
12.06988525391
 30
0.0
 10
9.157675273965292
 20
12.09295284426093
 30
0.0
 10
9.115833821297782
 20
12.13865361935626
 30
0.0
 10
9.043776482138596
 20
12.1969356915512
 30
0.0
 10
8.966247630516996
 20
12.24687940658384
 30
0.0
 10
8.910225992253895
 20
12.27191400994534
 30
0.0
 10
8.882095336914005
 20
12.28448486329
 30
0.0
 11
9.178794860839005
 21
12.06988525391
 31
0.0
 11
9.113800048828011
 21
12.13739013672
 31
0.0
 11
9.042694091796008
 21
12.19567871094
 31
0.0
 11
8.965393066406008
 21
12.24468994141
 31
0.0
 11
8.882095336914005
 21
12.28448486329
 31
0.0
  0
SPLINE
  5
380A
330
3801
100
AcDbEntity
  8
AM_0
100
AcDbSpline
210
0.0
220
0.0
230
1.0
 70
     8
 71
     3
 72
    11
 73
     7
 74
     5
 42
0.0000000001
 43
0.0000000001
 44
0.0000000001
 40
0.0
 40
0.0
 40
0.0
 40
0.0
 40
0.0330839965204707
 40
0.0660692635687957
 40
0.0990213109973157
 40
0.1321464376055992
 40
0.1321464376055992
 40
0.1321464376055992
 40
0.1321464376055992
 10
9.255096435546008
 20
11.96218872071
 30
0.0
 10
9.249420180106749
 20
11.97164642246115
 30
0.0
 10
9.238084608345696
 20
11.99053360222993
 30
0.0
 10
9.219453501195634
 20
12.01779558547691
 30
0.0
 10
9.199926539612809
 20
12.04444131672077
 30
0.0
 10
9.185851043309332
 20
12.0613891440887
 30
0.0
 10
9.178794860839005
 20
12.06988525391
 30
0.0
 11
9.255096435546008
 21
11.96218872071
 31
0.0
 11
9.23779296875
 21
11.9903869629
 31
0.0
 11
9.219299316406008
 21
12.01770019532
 31
0.0
 11
9.199699401854999
 21
12.04418945313
 31
0.0
 11
9.178794860839005
 21
12.06988525391
 31
0.0
  0
ELLIPSE
  5
380B
330
3801
100
AcDbEntity
  8
AM_0
100
AcDbEllipse
 10
16.894695281982
 20
0.0
 30
0.0
 11
155.800194405722
 21
0.0467376723299822
 31
0.0
210
0.0
220
0.0
230
1.0
 40
0.078625663066
 41
4.708935967933155
 42
4.792290459140857
  0
ELLIPSE
  5
380C
330
3801
100
AcDbEntity
  8
AM_0
100
AcDbEllipse
 10
16.894695281982
 20
0.0000915527400025
 30
0.0
 11
155.8007894939439
 21
0.0467529322600058
 31
0.0
210
0.0
220
0.0
230
1.0
 40
0.0786260483141
 41
4.688194742887676
 42
4.708935960405225
  0
ELLIPSE
  5
380D
330
3801
100
AcDbEntity
  8
AM_0
100
AcDbEllipse
 10
16.894695281982
 20
0.0
 30
0.0
 11
-155.8001947424829
 21
0.0456012526000222
 31
0.0
210
0.0
220
0.0
230
1.0
 40
0.078625663066
 41
4.632493900050548
 42
4.715841582141834
  0
SPLINE
  5
380E
330
3801
100
AcDbEntity
  8
AM_0
100
AcDbSpline
210
0.0
220
0.0
230
1.0
 70
     8
 71
     3
 72
    11
 73
     7
 74
     5
 42
0.0000000001
 43
0.0000000001
 44
0.0000000001
 40
0.0
 40
0.0
 40
0.0
 40
0.0
 40
0.2531465822205768
 40
0.6745692036941012
 40
1.134924567246192
 40
1.602923152479667
 40
1.602923152479667
 40
1.602923152479667
 40
1.602923152479667
 10
30.936199188232
 20
-12.24520874022999
 30
0.0
 10
30.85202491997402
 20
-12.2391647789404
 30
0.0
 10
30.62772258647126
 20
-12.2230592083318
 30
0.0
 10
30.2494049578778
 20
-12.2142448456358
 30
0.0
 10
29.7995680883714
 20
-12.20615816552996
 30
0.0
 10
29.49010452054537
 20
-12.20706325877192
 30
0.0
 10
29.334098815918
 20
-12.20751953125
 30
0.0
 11
30.936199188232
 21
-12.24520874022999
 31
0.0
 11
30.683597564697
 21
-12.22860717772999
 31
0.0
 11
30.262397766113
 21
-12.21490478514999
 31
0.0
 11
29.802097320556
 21
-12.20779418944999
 31
0.0
 11
29.334098815918
 21
-12.20751953125
 31
0.0
  0
SPLINE
  5
380F
330
3801
100
AcDbEntity
  8
AM_0
100
AcDbSpline
210
0.0
220
0.0
230
1.0
 70
     8
 71
     3
 72
    11
 73
     7
 74
     5
 42
0.0000000001
 43
0.0000000001
 44
0.0000000001
 40
0.0
 40
0.0
 40
0.0
 40
0.0
 40
0.7655532983319623
 40
1.531123499370297
 40
2.296702070234717
 40
3.062323781791538
 40
3.062323781791538
 40
3.062323781791538
 40
3.062323781791538
 10
1.371398925781008
 20
-3.261322021479998
 30
0.0
 10
1.360832238826578
 20
-3.516287597805941
 30
0.0
 10
1.339698631615078
 20
-4.026224379861139
 30
0.0
 10
1.307402437853416
 20
-4.791110249315559
 30
0.0
 10
1.275065557862364
 20
-5.556017198062255
 30
0.0
 10
1.253218265481119
 20
-6.06594951137697
 30
0.0
 10
1.242294311523011
 20
-6.320922851559998
 30
0.0
 11
1.371398925781008
 21
-3.261322021479998
 31
0.0
 11
1.339599609375
 21
-4.026214599599995
 31
0.0
 11
1.307395935058011
 21
-4.791107177729998
 31
0.0
 11
1.274993896484005
 21
-5.555999755849995
 31
0.0
 11
1.242294311523011
 21
-6.320922851559998
 31
0.0
  0
ELLIPSE
  5
3810
330
3801
100
AcDbEntity
  8
AM_0
100
AcDbEllipse
 10
206.774803161619
 20
0.0512084961000028
 30
0.0
 11
284.8734918186299
 21
0.0854644834000169
 31
0.0
210
0.0
220
0.0
230
0.9999999999999998
 40
0.0586130725725
 41
3.949265879246404
 42
3.964582620871166
  0
ELLIPSE
  5
3811
330
3801
100
AcDbEntity
  8
AM_0
100
AcDbEllipse
 10
5.197296142578011
 20
-6.037902832029999
 30
0.0
 11
-1.499397226267006
 21
0.0425873210299983
 31
0.0
210
0.0
220
0.0
230
1.0
 40
0.1901906694531
 41
0.1270664945282484
 42
3.064540153934363
  0
ELLIPSE
  5
3812
330
3801
100
AcDbEntity
  8
AM_0
100
AcDbEllipse
 10
7.216590881347002
 20
-0.0272827148399983
 30
0.0
 11
-0.5245473066769933
 21
11.93998710622997
 31
0.0
210
0.0
220
0.0
230
1.0
 40
0.0786259850735
 41
0.4065860153375624
 42
0.6451552904578309
  0
ELLIPSE
  5
3813
330
3801
100
AcDbEntity
  8
AM_0
100
AcDbEllipse
 10
161.039695739745
 20
-0.0458068847599975
 30
0.0
 11
-254.3892865888659
 21
0.074457353110006
 31
0.0
210
0.0
220
0.0
230
1.0
 40
0.0586128938773
 41
5.353383188488851
 42
5.391513343298772
  0
SPLINE
  5
3814
330
3801
100
AcDbEntity
  8
AM_0
100
AcDbSpline
210
0.0
220
0.0
230
1.0
 70
     8
 71
     3
 72
    11
 73
     7
 74
     5
 42
0.0000000001
 43
0.0000000001
 44
0.0000000001
 40
0.0
 40
0.0
 40
0.0
 40
0.0
 40
0.0194125506190424
 40
0.0699931929542195
 40
0.3567205710434334
 40
1.072520283628114
 40
1.072520283628114
 40
1.072520283628114
 40
1.072520283628114
 10
30.968898773193
 20
-12.25
 30
0.0
 10
30.97626041657994
 20
-12.24863255283257
 30
0.0
 10
31.002803292689
 20
-12.24370213460353
 30
0.0
 10
30.90039173709315
 20
-12.10014001576391
 30
0.0
 10
30.66873400858526
 20
-11.94509590127143
 30
0.0
 10
30.38924857465318
 20
-11.72479716386893
 30
0.0
 10
30.18969726562501
 20
-11.56750488281
 30
0.0
 11
30.968898773193
 21
-12.25
 31
0.0
 11
30.987396240234
 21
-12.24411010742
 31
0.0
 11
30.968696594238
 21
-12.19711303709999
 31
0.0
 11
30.758296966552
 21
-12.00231933592999
 31
0.0
 11
30.18969726562501
 21
-11.56750488281
 31
0.0
  0
ELLIPSE
  5
3815
330
3801
100
AcDbEntity
  8
AM_0
100
AcDbEllipse
 10
11.117195129394
 20
-0.0840148925699964
 30
0.0
 11
-1.612408277941
 21
12.14382942934997
 31
0.0
210
0.0
220
0.0
230
1.0
 40
0.0777200838007
 41
0.0555903931128605
 42
0.1134568873519927
  0
ELLIPSE
  5
3816
330
3801
100
AcDbEntity
  8
AM_0
100
AcDbEllipse
 10
11.33058929443301
 20
-0.0848999023399984
 30
0.0
 11
-1.753665861192999
 21
12.14494286844001
 31
0.0
210
0.0
220
0.0
230
1.0
 40
0.2741931453797
 41
6.258042103921802
 42
6.320064692121801
  0
SPLINE
  5
3817
330
3801
100
AcDbEntity
  8
AM_0
100
AcDbSpline
210
0.0
220
0.0
230
1.0
 70
     8
 71
     3
 72
    11
 73
     7
 74
     5
 42
0.0000000001
 43
0.0000000001
 44
0.0000000001
 40
0.0
 40
0.0
 40
0.0
 40
0.0
 40
0.2531465822205768
 40
0.6745682125306697
 40
1.13492357608276
 40
1.602922180221345
 40
1.602922180221345
 40
1.602922180221345
 40
1.602922180221345
 10
30.936199188232
 20
12.24517822266
 30
0.0
 10
30.85202497074714
 20
12.23913276900804
 30
0.0
 10
30.62772310211495
 20
12.22302324531562
 30
0.0
 10
30.24940421321506
 20
12.21425565926172
 30
0.0
 10
29.79956818684405
 20
12.2061628471913
 30
0.0
 10
29.49010455562691
 20
12.20704453849652
 30
0.0
 10
29.334098815918
 20
12.20748901368
 30
0.0
 11
30.936199188232
 21
12.24517822266
 31
0.0
 11
30.683597564697
 21
12.22857666016
 31
0.0
 11
30.262397766113
 21
12.21490478516
 31
0.0
 11
29.802097320556
 21
12.20779418946
 31
0.0
 11
29.334098815918
 21
12.20748901368
 31
0.0
  0
SPLINE
  5
3818
330
3801
100
AcDbEntity
  8
AM_0
100
AcDbSpline
210
0.0
220
0.0
230
1.0
 70
     8
 71
     3
 72
    11
 73
     7
 74
     5
 42
0.0000000001
 43
0.0000000001
 44
0.0000000001
 40
0.0
 40
0.0
 40
0.0
 40
0.0
 40
0.3067341142086144
 40
0.566621789813441
 40
0.7397185422746534
 40
0.8007949562717861
 40
0.8007949562717861
 40
0.8007949562717861
 40
0.8007949562717861
 10
1.371398925781008
 20
-3.261322021479998
 30
0.0
 10
1.37569348784398
 20
-3.159139587157909
 30
0.0
 10
1.383626718384262
 20
-2.970380687703713
 30
0.0
 10
1.387808165567745
 20
-2.72408608132072
 30
0.0
 10
1.395334802824436
 20
-2.559011399386564
 30
0.0
 10
1.386740213745487
 20
-2.481370655086294
 30
0.0
 10
1.384498596191008
 20
-2.461120605459996
 30
0.0
 11
1.371398925781008
 21
-3.261322021479998
 31
0.0
 11
1.382896423339005
 21
-2.954803466789996
 31
0.0
 11
1.389793395996008
 21
-2.695007324209996
 31
0.0
 11
1.390396118164005
 21
-2.521911621089998
 31
0.0
 11
1.384498596191008
 21
-2.461120605459996
 31
0.0
  0
SPLINE
  5
3819
330
3801
100
AcDbEntity
  8
AM_0
100
AcDbSpline
210
0.0
220
0.0
230
1.0
 70
     8
 71
     3
 72
    11
 73
     7
 74
     5
 42
0.0000000001
 43
0.0000000001
 44
0.0000000001
 40
0.0
 40
0.0
 40
0.0
 40
0.0
 40
2.45083764456515
 40
4.897920342221569
 40
7.34774201425661
 40
9.794155996054744
 40
9.794155996054744
 40
9.794155996054744
 40
9.794155996054744
 10
22.322498321533
 20
-0.9208068847599975
 30
0.0
 10
21.63381824957141
 20
-0.4776754039084276
 30
0.0
 10
20.25751323759998
 20
0.4079086326982768
 30
0.0
 10
17.95817695739453
 20
1.290003026864636
 30
0.0
 10
15.57354257565256
 20
1.881091703951812
 30
0.0
 10
13.94306598499138
 20
2.00012540312794
 30
0.0
 10
13.128395080566
 20
2.05960083008
 30
0.0
 11
22.322498321533
 21
-0.9208068847599975
 31
0.0
 11
20.217296600341
 21
0.3340759277400025
 31
0.0
 11
17.944599151611
 21
1.241302490240002
 31
0.0
 11
15.562297821045
 21
1.8125
 31
0.0
 11
13.128395080566
 21
2.05960083008
 31
0.0
  0
ELLIPSE
  5
381A
330
3801
100
AcDbEntity
  8
AM_0
100
AcDbEllipse
 10
11.050598144531
 20
-22.90222167967999
 30
0.0
 11
-12.599624341321
 21
15.76689234196998
 31
0.0
210
0.0
220
0.0
230
0.9999999999999998
 40
0.9789425039692002
 41
5.052248099267856
 42
5.575891849738701
  0
ELLIPSE
  5
381B
330
3801
100
AcDbEntity
  8
AM_0
100
AcDbEllipse
 10
9.391593933104999
 20
0.0
 30
0.0
 11
-21.22512710516399
 21
11.05792280018999
 31
0.0
210
0.0
220
0.0
230
1.0
 40
0.2483574322435
 41
3.032038248312996
 42
4.19232832631334
  0
ELLIPSE
  5
381C
330
3801
100
AcDbEntity
  8
AM_0
100
AcDbEllipse
 10
80.68950653076091
 20
-0.0360107421799967
 30
0.0
 11
-200.8316869542319
 21
0.0587815470900068
 31
0.0
210
0.0
220
0.0
230
1.0
 40
0.0586127712091
 41
5.09148071426081
 42
5.107578491776261
  0
ELLIPSE
  5
381D
330
3801
100
AcDbEntity
  8
AM_0
100
AcDbEllipse
 10
4.204292297363011
 20
-0.0270080566399997
 30
0.0
 11
-0.5176125331630033
 21
11.78213460122998
 31
0.0
210
0.0
220
0.0
230
0.9999999999999996
 40
0.0786278199441
 41
0.3917718988174411
 42
0.6459444185543814
  0
SPLINE
  5
381E
330
3801
100
AcDbEntity
  8
AM_0
100
AcDbSpline
210
0.0
220
0.0
230
1.0
 70
     8
 71
     3
 72
    11
 73
     7
 74
     5
 42
0.0000000001
 43
0.0000000001
 44
0.0000000001
 40
0.0
 40
0.0
 40
0.0
 40
0.0
 40
0.4826806560169405
 40
1.032776571596853
 40
1.678495330230414
 40
2.406221638309107
 40
2.406221638309107
 40
2.406221638309107
 40
2.406221638309107
 10
6.233299255371008
 20
9.494201660160001
 30
0.0
 10
6.208838964286468
 20
9.333892877970345
 30
0.0
 10
6.156502051150125
 20
8.990885234297781
 30
0.0
 10
5.866637093833953
 20
8.499723039043244
 30
0.0
 10
5.371359253301921
 20
8.05543739982456
 30
0.0
 10
4.912844943589514
 20
7.969848952056552
 30
0.0
 10
4.669898986816008
 20
7.92449951172
 30
0.0
 11
6.233299255371008
 21
9.494201660160001
 31
0.0
 11
6.132392883299999
 21
9.022186279300001
 31
0.0
 11
5.861694335937002
 21
8.54330444336
 31
0.0
 11
5.369293212889999
 21
8.125579833990002
 31
0.0
 11
4.669898986816008
 21
7.92449951172
 31
0.0
  0
SPLINE
  5
381F
330
3801
100
AcDbEntity
  8
AM_0
100
AcDbSpline
210
0.0
220
0.0
230
1.0
 70
     8
 71
     3
 72
    11
 73
     7
 74
     5
 42
0.0000000001
 43
0.0000000001
 44
0.0000000001
 40
0.0
 40
0.0
 40
0.0
 40
0.0
 40
0.7021789584364279
 40
1.307256299011988
 40
1.822248757770192
 40
2.282378992485285
 40
2.282378992485285
 40
2.282378992485285
 40
2.282378992485285
 10
4.669898986816008
 20
7.92449951172
 30
0.0
 10
4.431496411863178
 20
7.946792277296733
 30
0.0
 10
3.987659033850973
 20
7.988295027945193
 30
0.0
 10
3.49992736094674
 20
8.398908777818421
 30
0.0
 10
3.249477636319333
 20
8.880145987317634
 30
0.0
 10
3.238755451312076
 20
9.208392075101903
 30
0.0
 10
3.233695983886008
 20
9.36328125
 30
0.0
 11
4.669898986816008
 21
7.92449951172
 31
0.0
 11
3.981796264648011
 21
8.064392089850002
 31
0.0
 11
3.511497497558011
 21
8.445098876960003
 31
0.0
 11
3.280899047851008
 21
8.905578613290003
 31
0.0
 11
3.233695983886008
 21
9.36328125
 31
0.0
  0
SPLINE
  5
3820
330
3801
100
AcDbEntity
  8
AM_0
100
AcDbSpline
210
0.0
220
0.0
230
1.0
 70
     8
 71
     3
 72
    11
 73
     7
 74
     5
 42
0.0000000001
 43
0.0000000001
 44
0.0000000001
 40
0.0
 40
0.0
 40
0.0
 40
0.0
 40
1.064462089966913
 40
2.137147627075315
 40
3.20976949404359
 40
4.273419493453814
 40
4.273419493453814
 40
4.273419493453814
 40
4.273419493453814
 10
5.122299194336008
 20
-10.93630981444999
 30
0.0
 10
4.763368360175176
 20
-10.83208429543718
 30
0.0
 10
4.042733790150395
 20
-10.6228280685237
 30
0.0
 10
3.64264369512553
 20
-9.469901235642485
 30
0.0
 10
4.142258219046139
 20
-8.356891155652249
 30
0.0
 10
4.878049475932545
 20
-8.21143179844863
 30
0.0
 10
5.244400024414005
 20
-8.139007568349995
 30
0.0
 11
5.122299194336008
 21
-10.93630981444999
 31
0.0
 11
4.158195495604999
 21
-10.48510742186999
 31
0.0
 11
3.792999267578011
 21
-9.476501464839998
 31
0.0
 11
4.245300292968011
 21
-8.50390625
 31
0.0
 11
5.244400024414005
 21
-8.139007568349995
 31
0.0
  0
SPLINE
  5
3821
330
3801
100
AcDbEntity
  8
AM_0
100
AcDbSpline
210
0.0
220
0.0
230
1.0
 70
     8
 71
     3
 72
    11
 73
     7
 74
     5
 42
0.0000000001
 43
0.0000000001
 44
0.0000000001
 40
0.0
 40
0.0
 40
0.0
 40
0.0
 40
1.331385275205608
 40
2.67310480129402
 40
4.0107348161119
 40
5.351145882570468
 40
5.351145882570468
 40
5.351145882570468
 40
5.351145882570468
 10
5.280693054199005
 20
-11.29360961913999
 30
0.0
 10
5.738455786506207
 20
-11.20177419253596
 30
0.0
 10
6.657534418643613
 20
-11.01739051009945
 30
0.0
 10
7.289640638224178
 20
-9.63156610188024
 30
0.0
 10
6.791884293595431
 20
-8.184406008465341
 30
0.0
 10
5.886538411664138
 20
-7.92616174040371
 30
0.0
 10
5.433395385742002
 20
-7.796905517569996
 30
0.0
 11
5.280693054199005
 21
-11.29360961913999
 31
0.0
 11
6.530494689941008
 21
-10.83471679686999
 31
0.0
 11
7.101196289062002
 21
-9.620422363279999
 31
0.0
 11
6.649093627929005
 21
-8.361511230459996
 31
0.0
 11
5.433395385742002
 21
-7.796905517569996
 31
0.0
  0
SPLINE
  5
3822
330
3801
100
AcDbEntity
  8
AM_0
100
AcDbSpline
210
0.0
220
0.0
230
1.0
 70
     8
 71
     3
 72
    11
 73
     7
 74
     5
 42
0.0000000001
 43
0.0000000001
 44
0.0000000001
 40
0.0
 40
0.0
 40
0.0
 40
0.0
 40
1.340911104796386
 40
2.677360452776893
 40
4.019241334920117
 40
5.347546736552035
 40
5.347546736552035
 40
5.347546736552035
 40
5.347546736552035
 10
5.433395385742002
 20
-7.796905517569996
 30
0.0
 10
4.97050097677538
 20
-7.886602712852578
 30
0.0
 10
4.046252396876446
 20
-8.065698644354359
 30
0.0
 10
3.427126788784671
 20
-9.464637963918111
 30
0.0
 10
3.935456728551032
 20
-10.89855410118632
 30
0.0
 10
4.833803372184382
 20
-11.16237153745097
 30
0.0
 10
5.280693054199005
 20
-11.29360961913999
 30
0.0
 11
5.433395385742002
 21
-7.796905517569996
 31
0.0
 11
4.173095703125
 21
-8.254821777339998
 31
0.0
 11
3.615295410156008
 21
-9.469299316399997
 31
0.0
 11
4.078498840332002
 21
-10.72869873045999
 31
0.0
 11
5.280693054199005
 21
-11.29360961913999
 31
0.0
  0
SPLINE
  5
3823
330
3801
100
AcDbEntity
  8
AM_0
100
AcDbSpline
210
0.0
220
0.0
230
1.0
 70
     8
 71
     3
 72
    11
 73
     7
 74
     5
 42
0.0000000001
 43
0.0000000001
 44
0.0000000001
 40
0.0
 40
0.0
 40
0.0
 40
0.0
 40
2.187295581654366
 40
4.371521705345278
 40
6.552572877864978
 40
8.730571294963114
 40
8.730571294963114
 40
8.730571294963114
 40
8.730571294963114
 10
0.3657989501949999
 20
-12.63052368164
 30
0.0
 10
1.094693583526538
 20
-12.64777081497434
 30
0.0
 10
2.551459983661851
 20
-12.68224087853522
 30
0.0
 10
4.735130020003621
 20
-12.72998732351104
 30
0.0
 10
6.91576365037803
 20
-12.77474582678057
 30
0.0
 10
8.368526018197425
 20
-12.80193578302391
 30
0.0
 10
9.094398498534999
 20
-12.81552124022999
 30
0.0
 11
0.3657989501949999
 21
-12.63052368164
 31
0.0
 11
2.552497863769005
 21
-12.68161010742
 31
0.0
 11
4.736198425293011
 21
-12.72952270506999
 31
0.0
 11
6.916793823242002
 21
-12.77410888670999
 31
0.0
 11
9.094398498534999
 21
-12.81552124022999
 31
0.0
  0
SPLINE
  5
3824
330
3801
100
AcDbEntity
  8
AM_0
100
AcDbSpline
210
0.0
220
0.0
230
1.0
 70
     8
 71
     3
 72
    11
 73
     7
 74
     5
 42
0.0000000001
 43
0.0000000001
 44
0.0000000001
 40
0.0
 40
0.0
 40
0.0
 40
0.0
 40
0.2877908201272596
 40
0.5766326217689044
 40
0.864908570462116
 40
1.15104692522694
 40
1.15104692522694
 40
1.15104692522694
 40
1.15104692522694
 10
9.094398498534999
 20
-12.81552124022999
 30
0.0
 10
9.191183760032414
 20
-12.80887816700945
 30
0.0
 10
9.385107732524534
 20
-12.79556776077039
 30
0.0
 10
9.643108325975028
 20
-12.65046578467274
 30
0.0
 10
9.844003549172359
 20
-12.43304695266334
 30
0.0
 10
9.898666116430774
 20
-12.24712535676641
 30
0.0
 10
9.925895690918011
 20
-12.15451049803999
 30
0.0
 11
9.094398498534999
 21
-12.81552124022999
 31
0.0
 11
9.379295349121008
 21
-12.77481079100999
 31
0.0
 11
9.633796691894005
 21
-12.63821411131999
 31
0.0
 11
9.824600219726008
 21
-12.42211914061999
 31
0.0
 11
9.925895690918011
 21
-12.15451049803999
 31
0.0
  0
SPLINE
  5
3825
330
3801
100
AcDbEntity
  8
AM_0
100
AcDbSpline
210
0.0
220
0.0
230
1.0
 70
     8
 71
     3
 72
    11
 73
     7
 74
     5
 42
0.0000000001
 43
0.0000000001
 44
0.0000000001
 40
0.0
 40
0.0
 40
0.0
 40
0.0
 40
1.054542500623636
 40
2.109018437692452
 40
3.16366948289355
 40
4.21844067070519
 40
4.21844067070519
 40
4.21844067070519
 40
4.21844067070519
 10
9.925895690918011
 20
-12.15451049803999
 30
0.0
 10
9.988275452907259
 20
-11.80857556919913
 30
0.0
 10
10.11303103942595
 20
-11.11672754720311
 30
0.0
 10
10.29995672576332
 20
-10.0788700332222
 30
0.0
 10
10.4865950188899
 20
-9.040883357011225
 30
0.0
 10
10.61105868826601
 20
-8.348846002170684
 30
0.0
 10
10.673294067382
 20
-8.002807617179996
 30
0.0
 11
9.925895690918011
 21
-12.15451049803999
 31
0.0
 11
10.112998962402
 21
-11.11669921875
 31
0.0
 11
10.299896240234
 21
-10.07891845702999
 31
0.0
 11
10.48659515380801
 21
-9.040924072259997
 31
0.0
 11
10.673294067382
 21
-8.002807617179996
 31
0.0
  0
SPLINE
  5
3826
330
3801
100
AcDbEntity
  8
AM_0
100
AcDbSpline
210
0.0
220
0.0
230
1.0
 70
     8
 71
     3
 72
    11
 73
     7
 74
     5
 42
0.0000000001
 43
0.0000000001
 44
0.0000000001
 40
0.0
 40
0.0
 40
0.0
 40
0.0
 40
0.1142019681506225
 40
0.2283156196736295
 40
0.3426772623908187
 40
0.4571404600895276
 40
0.4571404600895276
 40
0.4571404600895276
 40
0.4571404600895276
 10
10.783195495605
 20
-6.877807617179996
 30
0.0
 10
10.78392740025743
 20
-6.839471447106461
 30
0.0
 10
10.78539064355322
 20
-6.762828753744918
 30
0.0
 10
10.74622167262465
 20
-6.65321503596991
 30
0.0
 10
10.67720763948823
 20
-6.558731100602571
 30
0.0
 10
10.61100975172236
 20
-6.519460772755364
 30
0.0
 10
10.577896118164
 20
-6.499816894529999
 30
0.0
 11
10.783195495605
 21
-6.877807617179996
 31
0.0
 11
10.778495788574
 21
-6.763702392569996
 31
0.0
 11
10.741294860839
 21
-6.655822753899997
 31
0.0
 11
10.67219543456999
 21
-6.564697265619997
 31
0.0
 11
10.577896118164
 21
-6.499816894529999
 31
0.0
  0
SPLINE
  5
3827
330
3801
100
AcDbEntity
  8
AM_0
100
AcDbSpline
210
0.0
220
0.0
230
1.0
 70
     8
 71
     3
 72
    11
 73
     7
 74
     5
 42
0.0000000001
 43
0.0000000001
 44
0.0000000001
 40
0.0
 40
0.0
 40
0.0
 40
0.0
 40
2.221321260495793
 40
4.443211191165188
 40
6.665657851296046
 40
8.888687173915641
 40
8.888687173915641
 40
8.888687173915641
 40
8.888687173915641
 10
1.539093017578011
 20
-6.271514892569996
 30
0.0
 10
2.279398115975642
 20
-6.285678090684468
 30
0.0
 10
3.760197834852341
 20
-6.314008112768202
 30
0.0
 10
5.981594849506382
 20
-6.360666769664041
 30
0.0
 10
8.203502404288158
 20
-6.410048187724127
 30
0.0
 10
9.684900964238146
 20
-6.445620790970471
 30
0.0
 10
10.42569732665999
 20
-6.463409423819996
 30
0.0
 11
1.539093017578011
 21
-6.271514892569996
 31
0.0
 11
3.759994506836008
 21
-6.314697265619997
 31
0.0
 11
5.981399536132002
 21
-6.361114501949998
 31
0.0
 11
8.203292846679005
 21
-6.410705566399997
 31
0.0
 11
10.42569732665999
 21
-6.463409423819996
 31
0.0
  0
SPLINE
  5
3828
330
3801
100
AcDbEntity
  8
AM_0
100
AcDbSpline
210
0.0
220
0.0
230
1.0
 70
     8
 71
     3
 72
    11
 73
     7
 74
     5
 42
0.0000000001
 43
0.0000000001
 44
0.0000000001
 40
0.0
 40
0.0
 40
0.0
 40
0.0
 40
0.2882774444893228
 40
0.5748944867196636
 40
0.8599103458775994
 40
1.143941998748706
 40
1.143941998748706
 40
1.143941998748706
 40
1.143941998748706
 10
1.539093017578011
 20
-6.271514892569996
 30
0.0
 10
1.442115233664241
 20
-6.278031910926575
 30
0.0
 10
1.248718232365437
 20
-6.291028411328072
 30
0.0
 10
0.9923998117921371
 20
-6.436156943284951
 30
0.0
 10
0.7961162105732715
 20
-6.654914264640261
 30
0.0
 10
0.7465395737505692
 20
-6.840482051406615
 30
0.0
 10
0.7217941284180114
 20
-6.93310546875
 30
0.0
 11
1.539093017578011
 21
-6.271514892569996
 31
0.0
 11
1.253700256347002
 21
-6.312194824209996
 31
0.0
 11
1.001792907714005
 21
-6.448913574209996
 31
0.0
 11
0.8162002563470025
 21
-6.665222167959996
 31
0.0
 11
0.7217941284180114
 21
-6.93310546875
 31
0.0
  0
SPLINE
  5
3829
330
3801
100
AcDbEntity
  8
AM_0
100
AcDbSpline
210
0.0
220
0.0
230
1.0
 70
     8
 71
     3
 72
    11
 73
     7
 74
     5
 42
0.0000000001
 43
0.0000000001
 44
0.0000000001
 40
0.0
 40
0.0
 40
0.0
 40
0.0
 40
1.051187923390089
 40
2.102452383311353
 40
3.153882715315803
 40
4.205342048520259
 40
4.205342048520259
 40
4.205342048520259
 40
4.205342048520259
 10
0.7217941284180114
 20
-6.93310546875
 30
0.0
 10
0.6683896716437187
 20
-7.279407797588987
 30
0.0
 10
0.5615768697400831
 20
-7.972037669387483
 30
0.0
 10
0.4014611515142015
 20
-9.011067284796119
 30
0.0
 10
0.2414955744661286
 20
-10.05021155897104
 30
0.0
 10
0.1348304767537025
 20
-10.74301167076092
 30
0.0
 10
0.0814971923820025
 20
-11.08941650389999
 30
0.0
 11
0.7217941284180114
 21
-6.93310546875
 31
0.0
 11
0.5615997314449999
 21
-7.972015380849995
 31
0.0
 11
0.4014968872070029
 21
-9.011016845699998
 31
0.0
 11
0.2414932250970025
 21
-10.05020141600999
 31
0.0
 11
0.0814971923820025
 21
-11.08941650389999
 31
0.0
  0
SPLINE
  5
382A
330
3801
100
AcDbEntity
  8
AM_0
100
AcDbSpline
210
0.0
220
0.0
230
1.0
 70
     8
 71
     3
 72
    11
 73
     7
 74
     5
 42
0.0000000001
 43
0.0000000001
 44
0.0000000001
 40
0.0
 40
0.0
 40
0.0
 40
0.0
 40
0.1144427777519373
 40
0.2296230859731505
 40
0.3451184207340148
 40
0.4604947050530059
 40
0.4604947050530059
 40
0.4604947050530059
 40
0.4604947050530059
 10
0.0
 20
-12.21569824217999
 30
0.0
 10
0.0002455168774167
 20
-12.25411269597016
 30
0.0
 10
0.0007381328743222
 20
-12.33118916683661
 30
0.0
 10
0.0424004017586374
 20
-12.44070081349937
 30
0.0
 10
0.1132563361337907
 20
-12.53497223842481
 30
0.0
 10
0.1801637182465447
 20
-12.57432693772324
 30
0.0
 10
0.2136001586910083
 20
-12.59399414061999
 30
0.0
 11
0.0
 21
-12.21569824217999
 31
0.0
 11
0.0074996948240056
 21
-12.32989501952999
 31
0.0
 11
0.0471954345699999
 21
-12.43801879881999
 31
0.0
 11
0.1181945800780113
 21
-12.52911376953
 31
0.0
 11
0.2136001586910083
 21
-12.59399414061999
 31
0.0
  0
SPLINE
  5
382B
330
3801
100
AcDbEntity
  8
AM_0
100
AcDbSpline
210
0.0
220
0.0
230
1.0
 70
     8
 71
     3
 72
    11
 73
     7
 74
     5
 42
0.0000000001
 43
0.0000000001
 44
0.0000000001
 40
0.0
 40
0.0
 40
0.0
 40
0.0
 40
0.1144427777519373
 40
0.2295944385349561
 40
0.3450897732958204
 40
0.4604832215431528
 40
0.4604832215431528
 40
0.4604832215431528
 40
0.4604832215431528
 10
0.0
 20
12.21569824219
 30
0.0
 10
0.000244191826556
 20
12.25411303612452
 30
0.0
 10
0.0007340880560454
 20
12.33118057343955
 30
0.0
 10
0.0424078457105675
 20
12.44067877238457
 30
0.0
 10
0.1132633739512365
 20
12.53494056754749
 30
0.0
 10
0.1801644044647721
 20
12.57431540804066
 30
0.0
 10
0.2136001586910083
 20
12.59399414063
 30
0.0
 11
0.0
 21
12.21569824219
 31
0.0
 11
0.0074996948240056
 21
12.32989501954
 31
0.0
 11
0.0471954345699999
 21
12.43798828125
 31
0.0
 11
0.1181945800780113
 21
12.52908325196
 31
0.0
 11
0.2136001586910083
 21
12.59399414063
 31
0.0
  0
SPLINE
  5
382C
330
3801
100
AcDbEntity
  8
AM_0
100
AcDbSpline
210
0.0
220
0.0
230
1.0
 70
     8
 71
     3
 72
    11
 73
     7
 74
     5
 42
0.0000000001
 43
0.0000000001
 44
0.0000000001
 40
0.0
 40
0.0
 40
0.0
 40
0.0
 40
2.187295581654366
 40
4.371521705345278
 40
6.552572877865182
 40
8.730571294963128
 40
8.730571294963128
 40
8.730571294963128
 40
8.730571294963128
 10
0.3657989501949999
 20
12.63049316407
 30
0.0
 10
1.094693583526531
 20
12.6477402974047
 30
0.0
 10
2.55145998366183
 20
12.68221036096631
 30
0.0
 10
4.735130020003776
 20
12.72995680593675
 30
0.0
 10
6.915763650377778
 20
12.77471530922665
 30
0.0
 10
8.368526018197385
 20
12.80190526545927
 30
0.0
 10
9.094398498534999
 20
12.81549072266
 30
0.0
 11
0.3657989501949999
 21
12.63049316407
 31
0.0
 11
2.552497863769005
 21
12.68157958985
 31
0.0
 11
4.736198425293011
 21
12.7294921875
 31
0.0
 11
6.916793823242002
 21
12.77407836915
 31
0.0
 11
9.094398498534999
 21
12.81549072266
 31
0.0
  0
SPLINE
  5
382D
330
3801
100
AcDbEntity
  8
AM_0
100
AcDbSpline
210
0.0
220
0.0
230
1.0
 70
     8
 71
     3
 72
    11
 73
     7
 74
     5
 42
0.0000000001
 43
0.0000000001
 44
0.0000000001
 40
0.0
 40
0.0
 40
0.0
 40
0.0
 40
1.051157762289444
 40
2.102422222200821
 40
3.153882716364453
 40
4.205311887376423
 40
4.205311887376423
 40
4.205311887376423
 40
4.205311887376423
 10
0.7217941284180114
 20
6.93310546875
 30
0.0
 10
0.6683894253698752
 20
7.279397587056623
 30
0.0
 10
0.5615745984366745
 20
7.972016974003002
 30
0.0
 10
0.4014579823679054
 20
9.011046451886114
 30
0.0
 10
0.2415013387862216
 20
10.05019210141028
 30
0.0
 10
0.1348313782234054
 20
10.74299146450593
 30
0.0
 10
0.0814971923820025
 20
11.08938598633
 30
0.0
 11
0.7217941284180114
 21
6.93310546875
 31
0.0
 11
0.5615997314449999
 21
7.971984863290003
 31
0.0
 11
0.4014968872070029
 21
9.010986328130002
 31
0.0
 11
0.2414932250970025
 21
10.05020141602
 31
0.0
 11
0.0814971923820025
 21
11.08938598633
 31
0.0
  0
SPLINE
  5
382E
330
3801
100
AcDbEntity
  8
AM_0
100
AcDbSpline
210
0.0
220
0.0
230
1.0
 70
     8
 71
     3
 72
    11
 73
     7
 74
     5
 42
0.0000000001
 43
0.0000000001
 44
0.0000000001
 40
0.0
 40
0.0
 40
0.0
 40
0.0
 40
0.1503116910282304
 40
0.3004537219538521
 40
0.4504798231717443
 40
0.5998745493274564
 40
0.5998745493274564
 40
0.5998745493274564
 40
0.5998745493274564
 10
1.024299621582002
 20
6.43148803711
 30
0.0
 10
0.9855821052498626
 20
6.463592298013107
 30
0.0
 10
0.9081907738954985
 20
6.527764583035865
 30
0.0
 10
0.8200052895914891
 20
6.650858442526424
 30
0.0
 10
0.7530189877426843
 20
6.786239806621299
 30
0.0
 10
0.7321877729149048
 20
6.88421911620972
 30
0.0
 10
0.7217941284180114
 20
6.93310546875
 30
0.0
 11
1.024299621582002
 21
6.43148803711
 31
0.0
 11
0.9127960205070024
 21
6.532287597660001
 31
0.0
 11
0.8234939575190054
 21
6.652984619150004
 31
0.0
 11
0.7588958740230112
 21
6.788391113290003
 31
0.0
 11
0.7217941284180114
 21
6.93310546875
 31
0.0
  0
SPLINE
  5
382F
330
3801
100
AcDbEntity
  8
AM_0
100
AcDbSpline
210
0.0
220
0.0
230
1.0
 70
     8
 71
     3
 72
    11
 73
     7
 74
     5
 42
0.0000000001
 43
0.0000000001
 44
0.0000000001
 40
0.0
 40
0.0
 40
0.0
 40
0.0
 40
0.2877908201272596
 40
0.5766326217689044
 40
0.864908570462116
 40
1.15104692522694
 40
1.15104692522694
 40
1.15104692522694
 40
1.15104692522694
 10
9.094398498534999
 20
12.81549072266
 30
0.0
 10
9.191183760032414
 20
12.80884764943945
 30
0.0
 10
9.385107732524534
 20
12.7955372432004
 30
0.0
 10
9.643108325975028
 20
12.65043526710274
 30
0.0
 10
9.844003549172359
 20
12.43301643509335
 30
0.0
 10
9.898666116430774
 20
12.24709483919641
 30
0.0
 10
9.925895690918011
 20
12.15447998047
 30
0.0
 11
9.094398498534999
 21
12.81549072266
 31
0.0
 11
9.379295349121008
 21
12.77478027344
 31
0.0
 11
9.633796691894005
 21
12.63818359375
 31
0.0
 11
9.824600219726008
 21
12.42208862305
 31
0.0
 11
9.925895690918011
 21
12.15447998047
 31
0.0
  0
SPLINE
  5
3830
330
3801
100
AcDbEntity
  8
AM_0
100
AcDbSpline
210
0.0
220
0.0
230
1.0
 70
     8
 71
     3
 72
    11
 73
     7
 74
     5
 42
0.0000000001
 43
0.0000000001
 44
0.0000000001
 40
0.0
 40
0.0
 40
0.0
 40
0.0
 40
0.0620986754031147
 40
0.1245628147815197
 40
0.1872734621070353
 40
0.249671649419097
 40
0.249671649419097
 40
0.249671649419097
 40
0.249671649419097
 10
0.7985992431640057
 20
11.96099853516
 30
0.0
 10
0.7809104237825235
 20
11.95013814318299
 30
0.0
 10
0.7454286825373828
 20
11.92835344350131
 30
0.0
 10
0.7003231615872127
 20
11.88463930838531
 30
0.0
 10
0.6618696338351715
 20
11.83484160290437
 30
0.0
 10
0.6441415743805493
 20
11.79696645108703
 30
0.0
 10
0.6352996826170028
 20
11.77807617188
 30
0.0
 11
0.7985992431640057
 21
11.96099853516
 31
0.0
 11
0.7468948364249997
 21
11.92660522461
 31
0.0
 11
0.7014999389640053
 21
11.88369750977
 31
0.0
 11
0.6637954711910084
 21
11.83358764649
 31
0.0
 11
0.6352996826170028
 21
11.77807617188
 31
0.0
  0
SPLINE
  5
3831
330
3801
100
AcDbEntity
  8
AM_0
100
AcDbSpline
210
0.0
220
0.0
230
1.0
 70
     8
 71
     3
 72
    11
 73
     7
 74
     5
 42
0.0000000001
 43
0.0000000001
 44
0.0000000001
 40
0.0
 40
0.0
 40
0.0
 40
0.0
 40
0.0265191827654011
 40
0.0528784438679365
 40
0.0791862789179115
 40
0.1056445835592555
 40
0.1056445835592555
 40
0.1056445835592555
 40
0.1056445835592555
 10
0.6352996826170028
 20
11.77807617188
 30
0.0
 10
0.6321105292039924
 20
11.76982793746986
 30
0.0
 10
0.6257514542947864
 20
11.75338120892154
 30
0.0
 10
0.6184102475057232
 20
11.72799509211997
 30
0.0
 10
0.6128298694086519
 20
11.7021886637529
 30
0.0
 10
0.6105440546920509
 20
11.6847427197527
 30
0.0
 10
0.6093978881830111
 20
11.67599487305
 30
0.0
 11
0.6352996826170028
 21
11.77807617188
 31
0.0
 11
0.6260986328120027
 21
11.75320434571
 31
0.0
 11
0.6186981201170028
 21
11.72790527344
 31
0.0
 11
0.61319732666
 21
11.70217895508
 31
0.0
 11
0.6093978881830111
 21
11.67599487305
 31
0.0
  0
SPLINE
  5
3832
330
3801
100
AcDbEntity
  8
AM_0
100
AcDbSpline
210
0.0
220
0.0
230
1.0
 70
     8
 71
     3
 72
    11
 73
     7
 74
     5
 42
0.0000000001
 43
0.0000000001
 44
0.0000000001
 40
0.0
 40
0.0
 40
0.0
 40
0.0
 40
0.0485558068686347
 40
0.096604903206438
 40
0.1448671287641445
 40
0.1940658997957625
 40
0.1940658997957625
 40
0.1940658997957625
 40
0.1940658997957625
 10
0.9844970703120026
 20
12.01037597657
 30
0.0
 10
0.9683146738793212
 20
12.00949512801883
 30
0.0
 10
0.9361187545476369
 20
12.0077426231278
 30
0.0
 10
0.8887067658997047
 20
11.99779452059019
 30
0.0
 10
0.8424405451793715
 20
11.9827616270976
 30
0.0
 10
0.813306331648946
 20
11.96829922433022
 30
0.0
 10
0.7985992431640057
 20
11.96099853516
 30
0.0
 11
0.9844970703120026
 21
12.01037597657
 31
0.0
 11
0.9360961914060084
 21
12.00650024415
 31
0.0
 11
0.8889999389640053
 21
11.99697875977
 31
0.0
 11
0.8431930541990055
 21
11.98178100586
 31
0.0
 11
0.7985992431640057
 21
11.96099853516
 31
0.0
  0
SPLINE
  5
3833
330
3801
100
AcDbEntity
  8
AM_0
100
AcDbSpline
210
0.0
220
0.0
230
1.0
 70
     8
 71
     3
 72
    11
 73
     7
 74
     5
 42
0.0000000001
 43
0.0000000001
 44
0.0000000001
 40
0.0
 40
0.0
 40
0.0
 40
0.0
 40
0.0524208786085256
 40
0.1044665173047236
 40
0.1565684988306923
 40
0.2088831074819384
 40
0.2088831074819384
 40
0.2088831074819384
 40
0.2088831074819384
 10
0.91259765625
 20
7.410705566410001
 30
0.0
 10
0.9151843231078768
 20
7.393416804173298
 30
0.0
 10
0.920339140906486
 20
7.358963036374682
 30
0.0
 10
0.9324643816820579
 20
7.30815297893058
 30
0.0
 10
0.9472250572589596
 20
7.258083121327507
 30
0.0
 10
0.9598625429241508
 20
7.225637133086356
 30
0.0
 10
0.9661941528320028
 20
7.209381103520001
 30
0.0
 11
0.91259765625
 21
7.410705566410001
 31
0.0
 11
0.9210968017570024
 21
7.358978271490002
 31
0.0
 11
0.9328994750970025
 21
7.30828857422
 31
0.0
 11
0.9478988647460084
 21
7.258392333990002
 31
0.0
 11
0.9661941528320028
 21
7.209381103520001
 31
0.0
  0
LINE
  5
3834
330
3801
100
AcDbEntity
  8
AM_0
100
AcDbLine
 10
34.999996185302
 20
12.25
 30
0.0
 11
30.968898773193
 21
12.25
 31
0.0
  0
LINE
  5
3835
330
3801
100
AcDbEntity
  8
AM_0
100
AcDbLine
 10
30.968898773193
 20
-12.25
 30
0.0
 11
34.999996185302
 21
-12.25
 31
0.0
  0
LWPOLYLINE
  5
3836
330
3801
100
AcDbEntity
  8
AM_11
100
AcDbPolyline
 90
        4
 70
     1
 43
0.0
 10
0.0
 20
-13.0
 10
9.0
 20
-13.0
 10
9.0
 20
13.0
 10
0.0
 20
13.0
1001
GENIUS_GENREC_14
1002
{
1000
PYDIR
1011
0.0
1021
13.0
1031
0.0
1002
}
1002
{
1000
PXDIR
1011
9.0
1021
-13.0
1031
0.0
1002
}
1002
{
1000
PORI
1011
0.0
1021
-13.0
1031
0.0
1002
}
1002
{
1000
PINS
1011
0.0
1021
-13.0
1031
0.0
1002
}
1002
{
1000
PINS2
1011
9.0
1021
13.0
1031
0.0
1002
}
1002
{
1000
C
1070
     1
1002
}
1001
GENIUS_GENODEF_13
1002
{
1000
HIER
1070
     0
1002
}
1002
{
1000
MANEDIT
1070
     0
1002
}
1002
{
1000
NOSEL
1070
     0
1002
}
1002
{
1000
BEHIND
1070
     0
1002
}
1002
{
1000
REACTOR
1002
}
1001
GENIUS_GENOBJ-N-REC_13
1002
{
1000
OWNER
1000
GEN
1002
}
  0
ARC
  5
3837
330
3801
100
AcDbEntity
  8
AM_0
100
AcDbCircle
 10
4.930892944336008
 20
-9.437408447259997
 30
0.0
 40
1.2498722076416
100
AcDbArc
 50
273.8168164867504
 51
81.05311038992439
  0
ARC
  5
3838
330
3801
100
AcDbEntity
  8
AM_0
100
AcDbCircle
 10
5.205299377441008
 20
-9.449310302729998
 30
0.0
 40
1.2500929832458
100
AcDbArc
 50
267.4967126741453
 51
87.50108900417147
  0
ARC
  5
3839
330
3801
100
AcDbEntity
  8
AM_0
100
AcDbCircle
 10
5.205299377441008
 20
-9.449310302729998
 30
0.0
 40
1.2499886751175
100
AcDbArc
 50
87.50108900417147
 51
267.4967090316815
  0
ARC
  5
383A
330
3801
100
AcDbEntity
  8
AM_0
100
AcDbCircle
 10
5.121398925781008
 20
-9.534912109369997
 30
0.0
 40
1.4000375270844
100
AcDbArc
 50
268.5674950907035
 51
85.87909666121072
  0
ARC
  5
383B
330
3801
100
AcDbEntity
  8
AM_0
100
AcDbCircle
 10
5.252899169921008
 20
-9.540710449209996
 30
0.0
 40
1.749939084053
100
AcDbArc
 50
268.7164205353683
 51
85.5822088285582
  0
LINE
  5
383C
330
3801
100
AcDbEntity
  8
AM_0
100
AcDbLine
 10
21.401996612548
 20
-6.017120361319996
 30
0.0
 11
30.18969726562501
 21
-11.56750488281
 31
0.0
  0
LINE
  5
383D
330
3801
100
AcDbEntity
  8
AM_0
100
AcDbLine
 10
0.0814971923820025
 20
-11.08938598631999
 30
0.0
 11
0.0
 21
-12.21569824217999
 31
0.0
  0
LINE
  5
383E
330
3801
100
AcDbEntity
  8
AM_0
100
AcDbLine
 10
0.3657989501949999
 20
-12.63049316405999
 30
0.0
 11
0.2136001586910083
 21
-12.59399414061999
 31
0.0
  0
LINE
  5
383F
330
3801
100
AcDbEntity
  8
AM_0
100
AcDbLine
 10
0.2136001586910083
 20
-12.59399414061999
 30
0.0
 11
0.3649978637690054
 21
-12.63040161131999
 31
0.0
  0
LINE
  5
3840
330
3801
100
AcDbEntity
  8
AM_0
100
AcDbLine
 10
13.128395080566
 20
-12.25
 30
0.0
 11
16.359798431396
 21
-12.25
 31
0.0
  0
LINE
  5
3841
330
3801
100
AcDbEntity
  8
AM_0
100
AcDbLine
 10
9.938796997069999
 20
-12.08279418944999
 30
0.0
 11
13.128395080566
 21
-12.25
 31
0.0
  0
LINE
  5
3842
330
3801
100
AcDbEntity
  8
AM_0
100
AcDbLine
 10
13.128395080566
 20
-12.24740600584999
 30
0.0
 11
13.128395080566
 21
-12.25
 31
0.0
  0
LINE
  5
3843
330
3801
100
AcDbEntity
  8
AM_0
100
AcDbLine
 10
30.936199188232
 20
-12.24520874022999
 30
0.0
 11
30.968898773193
 21
-12.25
 31
0.0
  0
LINE
  5
3844
330
3801
100
AcDbEntity
  8
AM_0
100
AcDbLine
 10
1.309898376464005
 20
-2.457824707029999
 30
0.0
 11
11.502891540527
 21
-2.902923583979998
 31
0.0
  0
LINE
  5
3845
330
3801
100
AcDbEntity
  8
AM_0
100
AcDbLine
 10
1.215888977049999
 20
1.722808837900004
 30
0.0
 11
12.39789581298801
 21
2.052001953130002
 31
0.0
  0
LINE
  5
3846
330
3801
100
AcDbEntity
  8
AM_0
100
AcDbLine
 10
8.521705627441008
 20
12.33898925782
 30
0.0
 11
1.028999328613011
 21
12.01190185547
 31
0.0
  0
LINE
  5
3847
330
3801
100
AcDbEntity
  8
AM_0
100
AcDbLine
 10
8.514198303222002
 20
12.13009643555
 30
0.0
 11
1.024597167968011
 21
11.80310058594
 31
0.0
  0
LINE
  5
3848
330
3801
100
AcDbEntity
  8
AM_0
100
AcDbLine
 10
1.215896606444999
 20
11.59777832032
 30
0.0
 11
1.215896606444999
 21
1.722778320320003
 31
0.0
  0
LINE
  5
3849
330
3801
100
AcDbEntity
  8
AM_0
100
AcDbLine
 10
1.024894714354999
 20
11.38809204102
 30
0.0
 11
1.024894714354999
 21
1.609802246100002
 31
0.0
  0
LINE
  5
384A
330
3801
100
AcDbEntity
  8
AM_0
100
AcDbLine
 10
1.024894714354999
 20
-6.476806640619997
 30
0.0
 11
1.024894714354999
 21
-1.609802246089998
 31
0.0
  0
LINE
  5
384B
330
3801
100
AcDbEntity
  8
AM_0
100
AcDbLine
 10
1.02490234375
 20
1.609771728520001
 30
0.0
 11
1.309898376464005
 21
-2.457824707029999
 31
0.0
  0
LINE
  5
384C
330
3801
100
AcDbEntity
  8
AM_0
100
AcDbLine
 10
3.711997985839005
 20
-5.953826904289996
 30
0.0
 11
6.699897766113011
 21
-6.084228515619997
 31
0.0
  0
LINE
  5
384D
330
3801
100
AcDbEntity
  8
AM_0
100
AcDbLine
 10
3.711997985839005
 20
-5.953796386709996
 30
0.0
 11
3.695999145507002
 21
-6.318817138669999
 31
0.0
  0
LINE
  5
384E
330
3801
100
AcDbEntity
  8
AM_0
100
AcDbLine
 10
6.687095642089005
 20
-6.376495361319996
 30
0.0
 11
6.699890136718011
 21
-6.084197998039996
 31
0.0
  0
LINE
  5
384F
330
3801
100
AcDbEntity
  8
AM_0
100
AcDbLine
 10
6.691291809082002
 20
-6.103118896479998
 30
0.0
 11
6.699897766113011
 21
-6.084197998039996
 31
0.0
  0
LINE
  5
3850
330
3801
100
AcDbEntity
  8
AM_0
100
AcDbLine
 10
1.024894714354999
 20
-1.609802246089998
 30
0.0
 11
1.152099609375
 21
-0.0002136230399969
 31
0.0
  0
LINE
  5
3851
330
3801
100
AcDbEntity
  8
AM_0
100
AcDbLine
 10
1.024894714354999
 20
1.609771728520001
 30
0.0
 11
1.215896606444999
 21
1.722778320320003
 31
0.0
  0
LINE
  5
3852
330
3801
100
AcDbEntity
  8
AM_0
100
AcDbLine
 10
0.0814895629880113
 20
11.08938598633
 30
0.0
 11
0.7347946166990056
 21
8.702789306650004
 31
0.0
  0
LINE
  5
3853
330
3801
100
AcDbEntity
  8
AM_0
100
AcDbLine
 10
0.6094970703120027
 20
11.57159423829
 30
0.0
 11
0.7347946166990056
 21
8.702789306650004
 31
0.0
  0
LINE
  5
3854
330
3801
100
AcDbEntity
  8
AM_0
100
AcDbLine
 10
0.9478988647460084
 20
8.568603515630002
 30
0.0
 11
0.8163986206049997
 21
11.58068847657
 31
0.0
  0
LINE
  5
3855
330
3801
100
AcDbEntity
  8
AM_0
100
AcDbLine
 10
1.024894714354999
 20
8.004791259770001
 30
0.0
 11
0.9478988647460084
 21
8.568603515630002
 31
0.0
  0
LINE
  5
3856
330
3801
100
AcDbEntity
  8
AM_0
100
AcDbLine
 10
0.7347946166990056
 20
8.702789306650004
 30
0.0
 11
0.7555999755860086
 21
8.560180664070003
 31
0.0
  0
LINE
  5
3857
330
3801
100
AcDbEntity
  8
AM_0
100
AcDbLine
 10
0.9661941528320028
 20
7.209381103520001
 30
0.0
 11
1.022293090819999
 21
7.098602294930003
 31
0.0
  0
LINE
  5
3858
330
3801
100
AcDbEntity
  8
AM_0
100
AcDbLine
 10
0.9080963134760082
 20
7.443664550790003
 30
0.0
 11
0.91259765625
 21
7.41067504883
 31
0.0
  0
LINE
  5
3859
330
3801
100
AcDbEntity
  8
AM_0
100
AcDbLine
 10
0.9661941528320028
 20
7.209381103520001
 30
0.0
 11
1.02490234375
 21
7.231384277350002
 31
0.0
  0
LINE
  5
385A
330
3801
100
AcDbEntity
  8
AM_0
100
AcDbLine
 10
0.7555923461910084
 20
8.560211181650004
 30
0.0
 11
0.9478912353510082
 21
8.568603515630002
 31
0.0
  0
LINE
  5
385B
330
3801
100
AcDbEntity
  8
AM_0
100
AcDbLine
 10
0.7555923461910084
 20
8.560211181650004
 30
0.0
 11
0.9080963134760082
 21
7.443664550790003
 31
0.0
  0
LINE
  5
385C
330
3801
100
AcDbEntity
  8
AM_0
100
AcDbLine
 10
0.9081039428710084
 20
7.44369506836
 30
0.0
 11
1.024894714354999
 21
7.448791503910001
 31
0.0
  0
ARC
  5
385D
330
3801
100
AcDbEntity
  8
AM_0
100
AcDbCircle
 10
1.034599304199005
 20
11.57467651368
 30
0.0
 40
0.2286188155413
100
AcDbArc
 50
92.50696879781854
 51
123.0638349556739
  0
ARC
  5
385E
330
3801
100
AcDbEntity
  8
AM_0
100
AcDbCircle
 10
1.020500183104999
 20
11.59628295899
 30
0.0
 40
0.2025889754295
100
AcDbArc
 50
123.0546961625658
 51
155.6779609217274
  0
ARC
  5
385F
330
3801
100
AcDbEntity
  8
AM_0
100
AcDbCircle
 10
1.048797607421008
 20
11.58349609375
 30
0.0
 40
0.233310893178
100
AcDbArc
 50
155.6759528461123
 51
168.5744372446025
  0
ARC
  5
3860
330
3801
100
AcDbEntity
  8
AM_0
100
AcDbCircle
 10
1.019096374511008
 20
11.58947753907
 30
0.0
 40
0.2029217779636
100
AcDbArc
 50
168.573781546445
 51
182.4858796781367
  0
LINE
  5
3861
330
3801
100
AcDbEntity
  8
AM_0
100
AcDbLine
 10
1.215896606444999
 20
11.5978088379
 30
0.0
 11
1.024887084961008
 21
11.38809204102
 31
0.0
  0
LINE
  5
3862
330
3801
100
AcDbEntity
  8
AM_0
100
AcDbLine
 10
0.2135848999020027
 20
12.59399414063
 30
0.0
 11
0.364990234375
 21
12.63040161133
 31
0.0
  0
LINE
  5
3863
330
3801
100
AcDbEntity
  8
AM_0
100
AcDbLine
 10
0.0814971923820025
 20
11.08938598633
 30
0.0
 11
0.0
 21
12.21566772461
 31
0.0
  0
LINE
  5
3864
330
3801
100
AcDbEntity
  8
AM_0
100
AcDbLine
 10
0.6093978881830111
 20
11.67599487305
 30
0.0
 11
0.6077041625970026
 21
11.60748291016
 31
0.0
  0
LINE
  5
3865
330
3801
100
AcDbEntity
  8
AM_0
100
AcDbLine
 10
0.6076965332030114
 20
11.60751342774
 30
0.0
 11
0.6094894409180114
 21
11.57159423829
 31
0.0
  0
LINE
  5
3866
330
3801
100
AcDbEntity
  8
AM_0
100
AcDbLine
 10
0.9844970703120026
 20
12.01037597657
 30
0.0
 11
1.028999328613011
 21
12.01190185547
 31
0.0
  0
ARC
  5
3867
330
3801
100
AcDbEntity
  8
AM_0
100
AcDbCircle
 10
4.930892944336008
 20
9.437377929690001
 30
0.0
 40
1.2499886751175
100
AcDbArc
 50
272.4989109958285
 51
92.49890917459627
  0
ARC
  5
3868
330
3801
100
AcDbEntity
  8
AM_0
100
AcDbCircle
 10
4.930892944336008
 20
9.437377929690001
 30
0.0
 40
1.2499886751175
100
AcDbArc
 50
92.49890917459627
 51
272.4989210137441
  0
ARC
  5
3869
330
3801
100
AcDbEntity
  8
AM_0
100
AcDbCircle
 10
5.205299377441008
 20
9.449279785160001
 30
0.0
 40
1.2500211000443
100
AcDbArc
 50
98.58969621601152
 51
269.1931914177283
  0
LINE
  5
386A
330
3801
100
AcDbEntity
  8
AM_0
100
AcDbLine
 10
3.436988830566008
 20
9.37210083008
 30
0.0
 11
3.372489929199005
 21
10.84890747071
 31
0.0
  0
ARC
  5
386B
330
3801
100
AcDbEntity
  8
AM_0
100
AcDbCircle
 10
4.930892944336008
 20
9.437377929690001
 30
0.0
 40
1.4953265190125
100
AcDbArc
 50
182.5028631708823
 51
269.3048003512322
  0
LINE
  5
386C
330
3801
100
AcDbEntity
  8
AM_0
100
AcDbLine
 10
13.128395080566
 20
12.25
 30
0.0
 11
13.128395080566
 21
2.05960083008
 31
0.0
  0
ARC
  5
386D
330
3801
100
AcDbEntity
  8
AM_0
100
AcDbCircle
 10
9.659797668457002
 20
-7.375122070309998
 30
0.0
 40
1.998754024505599
100
AcDbArc
 50
293.8411211330996
 51
83.63259963186846
  0
ARC
  5
386E
330
3801
100
AcDbEntity
  8
AM_0
100
AcDbCircle
 10
9.819793701171008
 20
-7.382110595699998
 30
0.0
 40
2.0000061988831
100
AcDbArc
 50
87.49825447566406
 51
150.5233537589063
  0
ARC
  5
386F
330
3801
100
AcDbEntity
  8
AM_0
100
AcDbCircle
 10
9.819793701171008
 20
-7.382110595699998
 30
0.0
 40
1.9991770982742
100
AcDbArc
 50
289.0403655806078
 51
87.49825447566406
  0
LINE
  5
3870
330
3801
100
AcDbEntity
  8
AM_0
100
AcDbLine
 10
10.42569732665999
 20
-6.463409423819996
 30
0.0
 11
10.57790374755801
 21
-6.499786376949998
 31
0.0
  0
LINE
  5
3871
330
3801
100
AcDbEntity
  8
AM_0
100
AcDbLine
 10
10.57790374755801
 20
-6.499786376949998
 30
0.0
 11
10.426498413086
 21
-6.463409423819996
 31
0.0
  0
LINE
  5
3872
330
3801
100
AcDbEntity
  8
AM_0
100
AcDbLine
 10
10.673294067382
 20
-8.002807617179996
 30
0.0
 11
10.783195495605
 21
-6.877807617179996
 31
0.0
  0
LINE
  5
3873
330
3801
100
AcDbEntity
  8
AM_0
100
AcDbLine
 10
12.39789581298801
 20
2.052001953130002
 30
0.0
 11
13.128395080566
 21
2.05960083008
 31
0.0
  0
LINE
  5
3874
330
3801
100
AcDbEntity
  8
AM_0
100
AcDbLine
 10
16.359798431396
 20
12.25
 30
0.0
 11
13.128395080566
 21
12.25
 31
0.0
  0
LINE
  5
3875
330
3801
100
AcDbEntity
  8
AM_0
100
AcDbLine
 10
13.128402709961
 20
12.25
 30
0.0
 11
9.660697937011008
 21
12.06829833985
 31
0.0
  0
LINE
  5
3876
330
3801
100
AcDbEntity
  8
AM_0
100
AcDbLine
 10
8.521697998046008
 20
12.33898925782
 30
0.0
 11
8.547195434569999
 21
12.34020996094
 31
0.0
  0
LINE
  5
3877
330
3801
100
AcDbEntity
  8
AM_0
100
AcDbLine
 10
8.882095336914005
 20
12.28448486329
 30
0.0
 11
8.765289306639999
 21
12.08969116211
 31
0.0
  0
LINE
  5
3878
330
3801
100
AcDbEntity
  8
AM_0
100
AcDbLine
 10
8.517898559569999
 20
12.3053894043
 30
0.0
 11
8.521697998046008
 21
12.33898925782
 31
0.0
  0
LINE
  5
3879
330
3801
100
AcDbEntity
  8
AM_0
100
AcDbLine
 10
9.178802490234005
 20
12.06988525391
 30
0.0
 11
9.000396728514999
 21
11.94967651368
 31
0.0
  0
LINE
  5
387A
330
3801
100
AcDbEntity
  8
AM_0
100
AcDbLine
 10
9.925895690918011
 20
12.15451049805
 30
0.0
 11
9.938796997069999
 21
12.08276367188
 31
0.0
  0
LINE
  5
387B
330
3801
100
AcDbEntity
  8
AM_0
100
AcDbLine
 10
30.936199188232
 20
12.24517822266
 30
0.0
 11
30.968898773193
 21
12.24996948243
 31
0.0
  0
LINE
  5
387C
330
3801
100
AcDbEntity
  8
AM_0
100
AcDbLine
 10
34.999996185302
 20
12.25
 30
0.0
 11
34.999996185302
 21
-12.25
 31
0.0
  0
LINE
  5
387D
330
3801
100
AcDbEntity
  8
AM_0
100
AcDbLine
 10
35.432998657226
 20
12.5
 30
0.0
 11
35.432998657226
 21
-12.5
 31
0.0
  0
LINE
  5
387E
330
3801
100
AcDbEntity
  8
AM_0
100
AcDbLine
 10
35.000007629394
 20
-12.25
 30
0.0
 11
35.433002471923
 21
-12.5
 31
0.0
  0
LINE
  5
387F
330
3801
100
AcDbEntity
  8
AM_0
100
AcDbLine
 10
35.432998657226
 20
12.5
 30
0.0
 11
34.999988555908
 21
12.24996948243
 31
0.0
  0
LINE
  5
3880
330
3801
100
AcDbEntity
  8
AM_0
100
AcDbLine
 10
156.9999923706039
 20
12.5
 30
0.0
 11
156.9999923706039
 21
-12.5
 31
0.0
  0
LINE
  5
3881
330
3801
100
AcDbEntity
  8
AM_0
100
AcDbLine
 10
159.999992370604
 20
10.16149902344
 30
0.0
 11
159.999992370604
 21
-10.16149902342999
 31
0.0
  0
ARC
  5
3882
330
3801
100
AcDbEntity
  8
AM_0
100
AcDbCircle
 10
157.999992370604
 20
-10.16149902342999
 30
0.0
 40
2.000036954879799
100
AcDbArc
 50
284.9985874788713
 51
0.0
  0
LINE
  5
3883
330
3801
100
AcDbEntity
  8
AM_0
100
AcDbLine
 10
156.9999923706039
 20
-12.50003051756999
 30
0.0
 11
158.5176010131819
 21
-12.09341430664
 31
0.0
  0
ARC
  5
3884
330
3801
100
AcDbEntity
  8
AM_0
100
AcDbCircle
 10
157.999992370604
 20
10.16149902344
 30
0.0
 40
2.0
100
AcDbArc
 50
0.0
 51
75.00141252112861
  0
LINE
  5
3885
330
3801
100
AcDbEntity
  8
AM_0
100
AcDbLine
 10
158.517593383788
 20
12.09338378907
 30
0.0
 11
156.9999923706039
 21
12.5
 31
0.0
  0
ENDBLK
  5
3887
330
3801
100
AcDbEntity
  8
0
100
AcDbBlockEnd
  0
BLOCK
  5
38CD
330
38C3
100
AcDbEntity
  8
0
100
AcDbBlockBegin
  2
*D11
 70
     1
 10
0.0
 20
0.0
 30
0.0
  3
*D11
  1

  0
LINE
  5
3974
330
38C3
100
AcDbEntity
  8
AM_5
 62
     3
100
AcDbLine
 10
-8.999999999999955
 20
12.99999427795268
 30
0.0
 11
-8.999999999999968
 21
27.99999527795268
 31
0.0
  0
LINE
  5
3975
330
38C3
100
AcDbEntity
  8
AM_5
 62
     3
100
AcDbLine
 10
0.000000000000045
 20
12.99999427795268
 30
0.0
 11
0.0000000000000326
 21
27.99999527795269
 31
0.0
  0
LINE
  5
3976
330
38C3
100
AcDbEntity
  8
AM_5
 62
     3
100
AcDbLine
 10
-6.499999999999968
 20
26.99999527795268
 30
0.0
 11
-2.499999999999966
 21
26.99999527795268
 31
0.0
  0
INSERT
  5
3977
330
38C3
100
AcDbEntity
  8
AM_5
 62
     3
100
AcDbBlockReference
  2
_OPEN30
 10
-8.999999999999968
 20
26.99999527795268
 30
0.0
 41
2.5
 42
2.5
 43
2.5
 50
180.0
  0
INSERT
  5
3978
330
38C3
100
AcDbEntity
  8
AM_5
 62
     3
100
AcDbBlockReference
  2
_OPEN30
 10
0.0000000000000334
 20
26.99999527795269
 30
0.0
 41
2.5
 42
2.5
 43
2.5
 50
0.0000000000000509
  0
MTEXT
  5
3979
330
38C3
100
AcDbEntity
  8
AM_5
 62
     2
100
AcDbMText
 10
-4.49999999999997
 20
30.39999527795268
 30
0.0
 40
3.799999999999999
 41
0.0
 71
     5
 72
     1
  1
9
1001
ACAD
1000
MTEXTBEGIN
1070
    73
1070
     1
1070
    44
1040
1.0
1070
    74
1070
     0
1000
MTEXTEND
  0
POINT
  5
397A
330
38C3
100
AcDbEntity
  8
DEFPOINTS
 62
     0
100
AcDbPoint
 10
-8.999999999999955
 20
12.99999427795268
 30
0.0
  0
POINT
  5
397B
330
38C3
100
AcDbEntity
  8
DEFPOINTS
 62
     0
100
AcDbPoint
 10
0.000000000000045
 20
12.99999427795268
 30
0.0
  0
POINT
  5
397C
330
38C3
100
AcDbEntity
  8
DEFPOINTS
 62
     0
100
AcDbPoint
 10
0.0000000000000334
 20
26.99999527795269
 30
0.0
  0
ENDBLK
  5
38CE
330
38C3
100
AcDbEntity
  8
0
100
AcDbBlockEnd
  0
ENDSEC
  0
SECTION
  2
ENTITIES
  0
TEXT
  5
1142
330
1F
100
AcDbEntity
  8
AM_6
100
AcDbText
 10
-106.6666819254551
 20
-60.53091687401985
 30
0.0
 40
5.0
  1
WEM2026EL-C
 72
     4
 11
-80.00001525878849
 21
-58.03091687401985
 31
0.0
100
AcDbText
  0
DIMENSION
  5
155D
330
1F
100
AcDbEntity
  8
AM_5
100
AcDbDimension
  2
*D5
 10
-35.00002670288099
 20
-29.99999999999998
 30
0.0
 11
-17.50001335144049
 21
-26.59999999999998
 31
0.0
 70
    32
  1
<>
  3
AM_JIS$0
100
AcDbAlignedDimension
 13
-0.0000000000000008
 23
-6.0
 33
0.0
 14
-35.00002670288099
 24
-12.00003623962733
 34
0.0
 50
0.0000000000001132
100
AcDbRotatedDimension
1001
ACAD
1000
DSTYLE
1002
{
1070
   171
1070
     0
1070
   271
1070
     0
1002
}
1001
GENIUS_GENDTOL_13
1000

1000
h7
1000

1040
0.0
  0
DIMENSION
  5
15E8
330
1F
100
AcDbEntity
  8
AM_5
100
AcDbDimension
  2
*D6
 10
-159.9089911215174
 20
-30.00000000000023
 30
0.0
 11
-97.45450891219924
 21
-26.60000000000023
 31
0.0
 70
    32
  1
<>
  3
AM_JIS$0
100
AcDbAlignedDimension
 13
-35.00002670288099
 23
-12.00003623962733
 33
0.0
 14
-159.9089911215174
 24
-10.75805265856986
 34
0.0
 50
0.0000000000001132
100
AcDbRotatedDimension
1001
ACAD
1000
DSTYLE
1002
{
1070
   171
1070
     0
1070
   271
1070
     0
1002
}
1001
GENIUS_GENDTOL_13
1000

1000
h7
1000

1040
0.0
  0
DIMENSION
  5
1673
330
1F
100
AcDbEntity
  8
AM_5
100
AcDbDimension
  2
*D7
 10
0.0000000000000181
 20
-39.99999999999991
 30
0.0
 11
-80.00001525878849
 21
-36.59999999999991
 31
0.0
 70
    32
  1
<>
  3
AM_JIS$0
100
AcDbAlignedDimension
 13
-160.0000305175769
 23
-10.16150474548731
 33
0.0
 14
0.0000000000000196
 24
-15.99999999999991
 34
0.0
 50
0.0000000000001132
100
AcDbRotatedDimension
1001
ACAD
1000
DSTYLE
1002
{
1070
   171
1070
     0
1070
   271
1070
     0
1002
}
1001
GENIUS_GENDTOL_13
1000

1000
h7
1000

1040
0.0
  0
DIMENSION
  5
2B71
330
1F
100
AcDbEntity
  8
AM_5
100
AcDbDimension
  2
*D8
 10
15.899605797364
 20
12.99999427795268
 30
0.0
 11
12.499605797364
 21
-0.0000057220473183
 31
0.0
 70
    32
  1
%%c<>
  3
AM_JIS$0
100
AcDbAlignedDimension
 13
0.0000000000000426
 23
-13.00000572204731
 33
0.0
 14
0.0000000000000442
 24
12.99999427795268
 34
0.0
 50
90.00000000000003
100
AcDbRotatedDimension
1001
ACAD
1000
DSTYLE
1002
{
1070
   171
1070
     0
1070
   271
1070
     0
1002
}
1001
GENIUS_GENDTOL_13
1000

1000
h7
1000

1040
0.0
  0
DIMENSION
  5
300D
330
1F
100
AcDbEntity
  8
AM_5
100
AcDbDimension
  2
*D9
 10
-176.8255962010851
 20
12.49999427795268
 30
0.0
 11
-176.8255962010851
 21
0.0000171661371164
 31
0.0
 70
   160
  1
%%c<>
  3
AM_JIS$0
100
AcDbAlignedDimension
 13
-157.0000305175769
 23
-12.50000572204731
 33
0.0
 14
-157.0000305175769
 24
12.49999427795268
 34
0.0
 50
270.0
100
AcDbRotatedDimension
1001
ACAD
1000
DSTYLE
1002
{
1070
   171
1070
     0
1070
   271
1070
     0
1002
}
1001
GENIUS_GENDTOL_13
1000

1000
h7
1000

1040
0.0
  0
INSERT
  5
3888
330
1F
100
AcDbEntity
  8
AM_11
100
AcDbBlockReference
  2
A$C4D330A70
 10
0.0000000000000434
 20
-0.000005722047316
 30
0.0
 50
180.0
  0
DIMENSION
  5
38C2
330
1F
100
AcDbEntity
  8
AM_5
100
AcDbDimension
  2
*D11
 10
0.0000000000000334
 20
26.99999527795269
 30
0.0
 11
-4.49999999999997
 21
30.39999527795268
 31
0.0
 70
    32
  1
<>
  3
AM_JIS$0
100
AcDbAlignedDimension
 13
-8.999999999999955
 23
12.99999427795268
 33
0.0
 14
0.000000000000045
 24
12.99999427795268
 34
0.0
 50
180.0
100
AcDbRotatedDimension
1001
ACAD
1000
DSTYLE
1002
{
1070
   271
1070
     0
1002
}
1001
GENIUS_GENDTOL_13
1000

1000
h7
1000

1040
0.0
  0
VIEWPORT
  5
110
330
101
100
AcDbEntity
 67
     1
  8
0
100
AcDbViewport
 10
420.5
 20
297.0
 30
0.0
 40
948.9782706766916
 41
628.452
 68
     1
 69
     1
1001
ACAD
1000
MVIEW
1002
{
1070
    16
1010
0.0
1020
0.0
1030
0.0
1010
0.0
1020
0.0
1030
1.0
1040
0.0
1040
628.452
1040
420.5
1040
297.0
1040
50.0
1040
0.0
1040
0.0
1070
     0
1070
   100
1070
     1
1070
     1
1070
     0
1070
     0
1070
     0
1070
     0
1040
0.0
1040
0.0
1040
0.0
1040
10.0
1040
10.0
1040
10.0
1040
10.0
1070
     0
1002
{
1002
}
1002
}
  0
ENDSEC
  0
SECTION
  2
OBJECTS
  0
DICTIONARY
  5
C
330
0
100
AcDbDictionary
  3
ACAD_GROUP
350
D
  3
ACAD_LAYOUT
350
1A
  3
ACAD_MLINESTYLE
350
17
  3
ACAD_PLOTSETTINGS
350
19
  3
ACAD_PLOTSTYLENAME
350
E
  3
ACDBVARIABLEDICTIONARY
350
34
  3
ACMDICTIONARY
350
43
  3
AMG
350
2B
  3
AMGSNAPSETTINGS
350
6E
  3
ASE_INDEX_DICTIONARY
350
31E1
  3
DWGPROPS
350
39CB
  3
ACDBHEADERROUNDTRIPXREC
350
39D7
  0
DICTIONARY
  5
74
330
1F
100
AcDbDictionary
280
     1
  3
ACAD_INDEX
360
39CD
  3
ACAD_LAYOUTSELFREF
360
39FA
  0
DICTIONARY
  5
39FF
330
101
100
AcDbDictionary
280
     1
  3
ACAD_LAYOUTSELFREF
360
3A00
  0
DICTIONARY
  5
D
102
{ACAD_REACTORS
330
C
102
}
330
C
100
AcDbDictionary
  0
DICTIONARY
  5
1A
102
{ACAD_REACTORS
330
C
102
}
330
C
100
AcDbDictionary
  0
DICTIONARY
  5
17
102
{ACAD_REACTORS
330
C
102
}
330
C
100
AcDbDictionary
  3
STANDARD
350
18
  0
DICTIONARY
  5
19
102
{ACAD_REACTORS
330
C
102
}
330
C
100
AcDbDictionary
  0
ACDBDICTIONARYWDFLT
  5
E
102
{ACAD_REACTORS
330
C
102
}
330
C
100
AcDbDictionary
281
     1
  3
Normal
350
F
100
AcDbDictionaryWithDefault
340
F
  0
DICTIONARY
  5
34
102
{ACAD_REACTORS
330
C
102
}
330
C
100
AcDbDictionary
  3
INDEXCTL
350
35
  3
SORTENTS
350
B5E
  0
DICTIONARY
  5
43
102
{ACAD_REACTORS
330
C
102
}
330
C
100
AcDbDictionary
  3
ACMSTDDICTIONARY
350
260
  0
DICTIONARY
  5
2B
102
{ACAD_REACTORS
330
C
102
}
330
C
100
AcDbDictionary
  3
ACMGSETTINGS
350
2C
  0
DICTIONARY
  5
6E
102
{ACAD_REACTORS
330
C
102
}
330
C
100
AcDbDictionary
  0
DICTIONARY
  5
31E1
102
{ACAD_REACTORS
330
C
102
}
330
C
100
AcDbDictionary
  3
ASEBLOCKHIERARCHYINDEXRECORD
350
31E3
1001
DCO15
1040
1471949740.562
  0
XRECORD
  5
39CB
102
{ACAD_REACTORS
330
C
102
}
330
C
100
AcDbXrecord
  1
DWGPROPS COOKIE
  2

  3

  4

  6

  7

  8

  9

300
AmdtFileType=82
301
=
302
=
303
=
304
=
305
=
306
=
307
=
308
=
309
=
 40
0.1360023958333334
 41
2452839.420061482
 42
2452872.433577094
  1

 90
        1
  0
DICTIONARY
  5
39D7
102
{ACAD_REACTORS
330
C
102
}
330
C
100
AcDbDictionary
  3
TSTACKALIGN
350
39D8
  3
TSTACKSIZE
350
39D9
  3
HYPERLINKBASE
350
39DA
  3
STYLESHEET
350
39DB
  3
LAYOUTDICT
350
39DC
  3
PLOTSETDICT
350
39DD
  3
PLOTSTYLNAMDICT
350
39DE
  3
LWETCUNION
350
39DF
  3
INSUNITS
350
39E0
  3
CEPSNTYPE
350
39E1
  3
FINGERPRINTGUID
350
39E2
  3
VERSIONGUID
350
39E3
  3
PSVPSCALE
350
39E4
  3
DIMSTYLEDATA
350
39E5
  3
PUCSORTHOREF
350
39E6
  3
PUCSORTHOVIEW
350
39E7
  3
PUCSBASE
350
39E8
  3
PUCSORGTOP
350
39E9
  3
PUCSORGBOTTOM
350
39EA
  3
PUCSORGLEFT
350
39EB
  3
PUCSORGRIGHT
350
39EC
  3
PUCSORGFRONT
350
39ED
  3
PUCSORGBACK
350
39EE
  3
UCSORTHOREF
350
39EF
  3
UCSORTHOVIEW
350
39F0
  3
UCSBASE
350
39F1
  3
UCSORGTOP
350
39F2
  3
UCSORGBOTTOM
350
39F3
  3
UCSORGLEFT
350
39F4
  3
UCSORGRIGHT
350
39F5
  3
UCSORGFRONT
350
39F6
  3
UCSORGBACK
350
39F7
  0
DICTIONARY
  5
39CD
102
{ACAD_REACTORS
330
74
102
}
330
74
100
AcDbDictionary
  3
*A1
350
39CE
  0
XRECORD
  5
39FA
102
{ACAD_REACTORS
330
74
102
}
330
74
100
AcDbXrecord
340
1F
  0
XRECORD
  5
3A00
102
{ACAD_REACTORS
330
39FF
102
}
330
39FF
100
AcDbXrecord
340
101
  0
MLINESTYLE
  5
18
102
{ACAD_REACTORS
330
17
102
}
330
17
100
AcDbMlineStyle
  2
STANDARD
 70
     0
  3

 62
   256
 51
90.0
 52
90.0
 71
     2
 49
0.5
 62
   256
  6
BYLAYER
 49
-0.5
 62
   256
  6
BYLAYER
  0
ACDBPLACEHOLDER
  5
F
102
{ACAD_REACTORS
330
E
102
}
330
E
100
AcDbPlaceHolder
280
     0
  0
DICTIONARYVAR
  5
35
102
{ACAD_REACTORS
330
34
102
}
330
34
100
DictionaryVariables
280
     0
  1
1
  0
DICTIONARYVAR
  5
B5E
102
{ACAD_REACTORS
330
34
102
}
330
34
100
DictionaryVariables
280
     0
  1
96
  0
DICTIONARY
  5
260
102
{ACAD_REACTORS
330
43
102
}
330
43
100
AcDbDictionary
  0
DICTIONARY
  5
2C
102
{ACAD_REACTORS
330
2B
102
}
330
2B
100
AcDbDictionary
  3
DWGSETTINGS
350
2D
  0
XRECORD
  5
31E3
102
{ACAD_REACTORS
330
31E1
102
}
330
31E1
100
AcDbXrecord
330
3888
330
0
330
0
330
0
330
0
330
0
330
0
330
0
330
0
330
0
330
0
330
0
330
0
  0
XRECORD
  5
39D8
102
{ACAD_REACTORS
330
39D7
102
}
330
39D7
100
AcDbXrecord
 90
        1
  0
XRECORD
  5
39D9
102
{ACAD_REACTORS
330
39D7
102
}
330
39D7
100
AcDbXrecord
 90
       70
  0
XRECORD
  5
39DA
102
{ACAD_REACTORS
330
39D7
102
}
330
39D7
100
AcDbXrecord
  1

  0
XRECORD
  5
39DB
102
{ACAD_REACTORS
330
39D7
102
}
330
39D7
100
AcDbXrecord
  1
ASAMI.ctb
  0
XRECORD
  5
39DC
102
{ACAD_REACTORS
330
39D7
102
}
330
39D7
100
AcDbXrecord
340
1A
  0
XRECORD
  5
39DD
102
{ACAD_REACTORS
330
39D7
102
}
330
39D7
100
AcDbXrecord
340
19
  0
XRECORD
  5
39DE
102
{ACAD_REACTORS
330
39D7
102
}
330
39D7
100
AcDbXrecord
340
E
  0
XRECORD
  5
39DF
102
{ACAD_REACTORS
330
39D7
102
}
330
39D7
100
AcDbXrecord
 90
    10781
  0
XRECORD
  5
39E0
102
{ACAD_REACTORS
330
39D7
102
}
330
39D7
100
AcDbXrecord
 90
        4
  0
XRECORD
  5
39E1
102
{ACAD_REACTORS
330
39D7
102
}
330
39D7
100
AcDbXrecord
 90
        0
  0
XRECORD
  5
39E2
102
{ACAD_REACTORS
330
39D7
102
}
330
39D7
100
AcDbXrecord
  1
{AFB28963-8C59-40AE-9337-C84526B81ACE}
  0
XRECORD
  5
39E3
102
{ACAD_REACTORS
330
39D7
102
}
330
39D7
100
AcDbXrecord
  1
{25516A50-A680-4669-B8F1-EA055AB9CD9A}
  0
XRECORD
  5
39E4
102
{ACAD_REACTORS
330
39D7
102
}
330
39D7
100
AcDbXrecord
 40
0.0
  0
XRECORD
  5
39E5
102
{ACAD_REACTORS
330
39D7
102
}
330
39D7
100
AcDbXrecord
1000
DSTYLE
1002
{
1070
    79
 70
     2
1070
   341
340
59
1070
   342
340
59
1070
   371
 70
    -1
1070
   372
 70
    -1
1002
}
  0
XRECORD
  5
39E6
102
{ACAD_REACTORS
330
39D7
102
}
330
39D7
100
AcDbXrecord
340
0
  0
XRECORD
  5
39E7
102
{ACAD_REACTORS
330
39D7
102
}
330
39D7
100
AcDbXrecord
 70
     0
  0
XRECORD
  5
39E8
102
{ACAD_REACTORS
330
39D7
102
}
330
39D7
100
AcDbXrecord
340
0
  0
XRECORD
  5
39E9
102
{ACAD_REACTORS
330
39D7
102
}
330
39D7
100
AcDbXrecord
 10
0.0
 20
0.0
 30
0.0
  0
XRECORD
  5
39EA
102
{ACAD_REACTORS
330
39D7
102
}
330
39D7
100
AcDbXrecord
 10
0.0
 20
0.0
 30
0.0
  0
XRECORD
  5
39EB
102
{ACAD_REACTORS
330
39D7
102
}
330
39D7
100
AcDbXrecord
 10
0.0
 20
0.0
 30
0.0
  0
XRECORD
  5
39EC
102
{ACAD_REACTORS
330
39D7
102
}
330
39D7
100
AcDbXrecord
 10
0.0
 20
0.0
 30
0.0
  0
XRECORD
  5
39ED
102
{ACAD_REACTORS
330
39D7
102
}
330
39D7
100
AcDbXrecord
 10
0.0
 20
0.0
 30
0.0
  0
XRECORD
  5
39EE
102
{ACAD_REACTORS
330
39D7
102
}
330
39D7
100
AcDbXrecord
 10
0.0
 20
0.0
 30
0.0
  0
XRECORD
  5
39EF
102
{ACAD_REACTORS
330
39D7
102
}
330
39D7
100
AcDbXrecord
340
0
  0
XRECORD
  5
39F0
102
{ACAD_REACTORS
330
39D7
102
}
330
39D7
100
AcDbXrecord
 70
     0
  0
XRECORD
  5
39F1
102
{ACAD_REACTORS
330
39D7
102
}
330
39D7
100
AcDbXrecord
340
0
  0
XRECORD
  5
39F2
102
{ACAD_REACTORS
330
39D7
102
}
330
39D7
100
AcDbXrecord
 10
0.0
 20
0.0
 30
0.0
  0
XRECORD
  5
39F3
102
{ACAD_REACTORS
330
39D7
102
}
330
39D7
100
AcDbXrecord
 10
0.0
 20
0.0
 30
0.0
  0
XRECORD
  5
39F4
102
{ACAD_REACTORS
330
39D7
102
}
330
39D7
100
AcDbXrecord
 10
0.0
 20
0.0
 30
0.0
  0
XRECORD
  5
39F5
102
{ACAD_REACTORS
330
39D7
102
}
330
39D7
100
AcDbXrecord
 10
0.0
 20
0.0
 30
0.0
  0
XRECORD
  5
39F6
102
{ACAD_REACTORS
330
39D7
102
}
330
39D7
100
AcDbXrecord
 10
0.0
 20
0.0
 30
0.0
  0
XRECORD
  5
39F7
102
{ACAD_REACTORS
330
39D7
102
}
330
39D7
100
AcDbXrecord
 10
0.0
 20
0.0
 30
0.0
  0
LAYER_INDEX
  5
39CE
102
{ACAD_REACTORS
330
39CD
102
}
330
39CD
100
AcDbIndex
 40
2453152.400063911
100
AcDbLayerIndex
  8
0
360
39CF
 90
        0
  8
AM_0
360
39D0
 90
        0
  8
AM_7
360
39D1
 90
        0
  8
AM_11
360
39D2
 90
        1
  8
AM_5
360
39D3
 90
        6
  8
Defpoints
360
39D4
 90
        0
  8
AM_6
360
39D5
 90
        1
  0
XRECORD
  5
2D
102
{ACAD_REACTORS
330
2C
102
}
330
2C
100
AcDbXrecord
  1
VERSION
140
15.0
  1
PRODUCT
  2
AutoCAD Mechanical 2000
  0
IDBUFFER
  5
39CF
330
0
100
AcDbIdBuffer
  0
IDBUFFER
  5
39D0
330
0
100
AcDbIdBuffer
  0
IDBUFFER
  5
39D1
330
0
100
AcDbIdBuffer
  0
IDBUFFER
  5
39D2
330
0
100
AcDbIdBuffer
330
3888
  0
IDBUFFER
  5
39D3
330
0
100
AcDbIdBuffer
330
155D
330
15E8
330
1673
330
2B71
330
300D
330
38C2
  0
IDBUFFER
  5
39D4
330
0
100
AcDbIdBuffer
  0
IDBUFFER
  5
39D5
330
0
100
AcDbIdBuffer
330
1142
  0
ENDSEC
  0
EOF
