  0
SECTION
  2
HEADER
  9
$ACADVER
  1
AC1014
  9
$ACADMAINTVER
 70
     9
  9
$DWGCODEPAGE
  3
ANSI_932
  9
$INSBASE
 10
0.0
 20
0.0
 30
0.0
  9
$EXTMIN
 10
-183.0581853182377
 20
-59.50000099999498
 30
-0.00000001
  9
$EXTMAX
 10
16.899590538574
 20
32.30000100000502
 30
0.00000001
  9
$LIMMIN
 10
-193.0318204924019
 20
-101.4128512899792
  9
$LIMMAX
 10
32.81299406515063
 20
35.04014666359427
  9
$ORTHOMODE
 70
     0
  9
$REGENMODE
 70
     1
  9
$FILLMODE
 70
     1
  9
$QTEXTMODE
 70
     0
  9
$MIRRTEXT
 70
     0
  9
$DRAGMODE
 70
     2
  9
$LTSCALE
 40
1.0
  9
$OSMODE
 70
    55
  9
$ATTMODE
 70
     1
  9
$TEXTSIZE
 40
2.5
  9
$TRACEWID
 40
1.0
  9
$TEXTSTYLE
  7
STANDARD
  9
$CLAYER
  8
AM_0
  9
$CELTYPE
  6
BYLAYER
  9
$CECOLOR
 62
   256
  9
$CELTSCALE
 40
1.0
  9
$DELOBJ
 70
     1
  9
$DISPSILH
 70
     0
  9
$DIMSCALE
 40
1.0
  9
$DIMASZ
 40
2.5
  9
$DIMEXO
 40
1.0
  9
$DIMDLI
 40
12.0
  9
$DIMRND
 40
0.0
  9
$DIMDLE
 40
0.0
  9
$DIMEXE
 40
1.0
  9
$DIMTP
 40
0.1
  9
$DIMTM
 40
0.1
  9
$DIMTXT
 40
3.2
  9
$DIMCEN
 40
0.0
  9
$DIMTSZ
 40
0.0
  9
$DIMTOL
 70
     0
  9
$DIMLIM
 70
     0
  9
$DIMTIH
 70
     0
  9
$DIMTOH
 70
     0
  9
$DIMSE1
 70
     0
  9
$DIMSE2
 70
     0
  9
$DIMTAD
 70
     3
  9
$DIMZIN
 70
     8
  9
$DIMBLK
  1
OPEN30
  9
$DIMASO
 70
     1
  9
$DIMSHO
 70
     1
  9
$DIMPOST
  1

  9
$DIMAPOST
  1
"
  9
$DIMALT
 70
     0
  9
$DIMALTD
 70
     2
  9
$DIMALTF
 40
0.0393701
  9
$DIMLFAC
 40
1.0
  9
$DIMTOFL
 70
     1
  9
$DIMTVP
 40
0.0
  9
$DIMTIX
 70
     0
  9
$DIMSOXD
 70
     0
  9
$DIMSAH
 70
     0
  9
$DIMBLK1
  1

  9
$DIMBLK2
  1

  9
$DIMSTYLE
  2
AM_JIS
  9
$DIMCLRD
 70
   256
  9
$DIMCLRE
 70
   256
  9
$DIMCLRT
 70
     2
  9
$DIMTFAC
 40
0.71
  9
$DIMGAP
 40
1.5
  9
$DIMJUST
 70
     0
  9
$DIMSD1
 70
     0
  9
$DIMSD2
 70
     0
  9
$DIMTOLJ
 70
     0
  9
$DIMTZIN
 70
     0
  9
$DIMALTZ
 70
     0
  9
$DIMALTTZ
 70
     0
  9
$DIMFIT
 70
     3
  9
$DIMUPT
 70
     0
  9
$DIMUNIT
 70
     2
  9
$DIMDEC
 70
     3
  9
$DIMTDEC
 70
     3
  9
$DIMALTU
 70
     2
  9
$DIMALTTD
 70
     2
  9
$DIMTXSTY
  7
ASAMI
  9
$DIMAUNIT
 70
     0
  9
$LUNITS
 70
     2
  9
$LUPREC
 70
     0
  9
$SKETCHINC
 40
1.0
  9
$FILLETRAD
 40
2.5
  9
$AUNITS
 70
     0
  9
$AUPREC
 70
     0
  9
$MENU
  1
.
  9
$ELEVATION
 40
0.0
  9
$PELEVATION
 40
0.0
  9
$THICKNESS
 40
0.0
  9
$LIMCHECK
 70
     0
  9
$BLIPMODE
 70
     0
  9
$CHAMFERA
 40
2.5
  9
$CHAMFERB
 40
2.5
  9
$CHAMFERC
 40
20.0
  9
$CHAMFERD
 40
0.0
  9
$SKPOLY
 70
     0
  9
$TDCREATE
 40
2452839.420061482
  9
$TDUPDATE
 40
2453152.402424178
  9
$TDINDWG
 40
0.0567028241
  9
$TDUSRTIMER
 40
0.0567028241
  9
$USRTIMER
 70
     1
  9
$ANGBASE
 50
0.0
  9
$ANGDIR
 70
     0
  9
$PDMODE
 70
     0
  9
$PDSIZE
 40
0.0
  9
$PLINEWID
 40
0.0
  9
$COORDS
 70
     1
  9
$SPLFRAME
 70
     0
  9
$SPLINETYPE
 70
     6
  9
$SPLINESEGS
 70
     8
  9
$ATTDIA
 70
     1
  9
$ATTREQ
 70
     1
  9
$HANDLING
 70
 12289
  9
$HANDSEED
  5
28EA
  9
$SURFTAB1
 70
     6
  9
$SURFTAB2
 70
     6
  9
$SURFTYPE
 70
     6
  9
$SURFU
 70
     6
  9
$SURFV
 70
     6
  9
$UCSNAME
  2

  9
$UCSORG
 10
0.0
 20
0.0
 30
0.0
  9
$UCSXDIR
 10
1.0
 20
0.0
 30
0.0
  9
$UCSYDIR
 10
0.0
 20
1.0
 30
0.0
  9
$PUCSNAME
  2

  9
$PUCSORG
 10
0.0
 20
0.0
 30
0.0
  9
$PUCSXDIR
 10
1.0
 20
0.0
 30
0.0
  9
$PUCSYDIR
 10
0.0
 20
1.0
 30
0.0
  9
$USERI1
 70
     0
  9
$USERI2
 70
     0
  9
$USERI3
 70
     0
  9
$USERI4
 70
     0
  9
$USERI5
 70
     0
  9
$USERR1
 40
0.0
  9
$USERR2
 40
0.0
  9
$USERR3
 40
0.0
  9
$USERR4
 40
0.0
  9
$USERR5
 40
0.0
  9
$WORLDVIEW
 70
     1
  9
$SHADEDGE
 70
     3
  9
$SHADEDIF
 70
    70
  9
$TILEMODE
 70
     1
  9
$MAXACTVP
 70
    64
  9
$PINSBASE
 10
0.0
 20
0.0
 30
0.0
  9
$PLIMCHECK
 70
     0
  9
$PEXTMIN
 10
1.000000000000000E+20
 20
1.000000000000000E+20
 30
1.000000000000000E+20
  9
$PEXTMAX
 10
-1.000000000000000E+20
 20
-1.000000000000000E+20
 30
-1.000000000000000E+20
  9
$PLIMMIN
 10
0.0
 20
0.0
  9
$PLIMMAX
 10
841.0
 20
594.0
  9
$UNITMODE
 70
     0
  9
$VISRETAIN
 70
     1
  9
$PLINEGEN
 70
     0
  9
$PSLTSCALE
 70
     0
  9
$TREEDEPTH
 70
  3020
  9
$PICKSTYLE
 70
     0
  9
$CMLSTYLE
  2
STANDARD
  9
$CMLJUST
 70
     0
  9
$CMLSCALE
 40
20.0
  9
$PROXYGRAPHICS
 70
     1
  9
$MEASUREMENT
 70
     1
  0
ENDSEC
  0
SECTION
  2
CLASSES
  0
CLASS
  1
ACDBDICTIONARYWDFLT
  2
AcDbDictionaryWithDefault
  3
AutoCAD 2000
 90
        0
280
     0
281
     0
  0
CLASS
  1
ACDBPLACEHOLDER
  2
AcDbPlaceHolder
  3
AutoCAD 2000
 90
        0
280
     0
281
     0
  0
CLASS
  1
LAYOUT
  2
AcDbLayout
  3
AutoCAD 2000
 90
        0
280
     0
281
     0
  0
CLASS
  1
AMGSETTINGSOBJ
  2
AmgSettingsObj
  3
"AcadM|Product Description: AutoCAD Mechanical 2000|Company: Autodesk"
 90
        0
280
     0
281
     0
  0
CLASS
  1
ACME_DOCUMENT
  2
AcMeDbDoc
  3
AcMeServices
 90
        0
280
     0
281
     0
  0
CLASS
  1
ACMESCOPE
  2
AcMeScope
  3
AcMeServices
 90
        0
280
     0
281
     0
  0
CLASS
  1
ACMECOMMANDHISTORY
  2
AcMeCommandHistory
  3
AcMeServices
 90
        0
280
     0
281
     0
  0
CLASS
  1
DICTIONARYVAR
  2
AcDbDictionaryVar
  3
AutoCAD 2000
 90
        0
280
     0
281
     0
  0
CLASS
  1
ACIMSYSVARMAN
  2
AcImSysVarManager
  3
AcMeServices
 90
        0
280
     0
281
     0
  0
CLASS
  1
ACIMREALSYSVAR
  2
AcImRealSysVar
  3
AcMeServices
 90
        0
280
     0
281
     0
  0
CLASS
  1
ACIMINTSYSVAR
  2
AcImIntSysVar
  3
AcMeServices
 90
        0
280
     0
281
     0
  0
CLASS
  1
ACMEDRAWINGMAN
  2
AcMeDrawingMan
  3
AcMeServices
 90
        0
280
     0
281
     0
  0
CLASS
  1
ACMEVIEW
  2
AcMeView
  3
AcMeServices
 90
        0
280
     0
281
     0
  0
CLASS
  1
ACDBENTITYCACHE
  2
AcMeEntityCache
  3
AcMeServices
 90
        0
280
     0
281
     0
  0
CLASS
  1
GSMANAGER
  2
AcMeGSManager
  3
AcMeServices
 90
        0
280
     0
281
     0
  0
CLASS
  1
AmdtInternalReactor
  2
AmdtInternalReactor
  3
AcMeServices
 90
        0
280
     0
281
     0
  0
CLASS
  1
ACMESTATEMGR
  2
AcMeStateMgr
  3
AcMeServices
 90
        0
280
     0
281
     0
  0
CLASS
  1
ACME_DATABASE
  2
AcMeDbDatabase
  3
AcMeServices
 90
        0
280
     0
281
     0
  0
CLASS
  1
ACRFINSADJUSTERMGR
  2
AcRfInsAdjusterMgr
  3
AcMeServices
 90
        0
280
     0
281
     0
  0
CLASS
  1
ACMDATADICTIONARY
  2
AcmDataDictionary
  3
"AcmSymBB|Product Description: AutoCAD Mechanical 2000|Company: Autodesk"
 90
        0
280
     0
281
     0
  0
CLASS
  1
ACMDATAENTRYBLOCK
  2
AcmDataEntryBlock
  3
"AcmSymBB|Product Description: AutoCAD Mechanical 2000|Company: Autodesk"
 90
        0
280
     0
281
     0
  0
CLASS
  1
AMGOBJPROPCFG
  2
AmgObjPropCfg
  3
"AmgLay|Product Description: AutoCAD Mechanical 2000|Company: Autodesk"
 90
        1
280
     0
281
     0
  0
CLASS
  1
ACAMGFILTERDAT
  2
AcAmgFilterDat
  3
"AcadM|Product Description: AutoCAD Mechanical 2000|Company: Autodesk"
 90
        0
280
     0
281
     0
  0
CLASS
  1
LAYER_INDEX
  2
AcDbLayerIndex
  3
AutoCAD 2000
 90
        0
280
     0
281
     0
  0
CLASS
  1
IDBUFFER
  2
AcDbIdBuffer
  3
AutoCAD 2000
 90
        0
280
     0
281
     0
  0
CLASS
  1
ACIMSTRSYSVAR
  2
AcImStrSysVar
  3
AcMeServices
 90
        0
280
     0
281
     0
  0
CLASS
  1
ACMSTANDARDJIS
  2
AcmStandardJIS
  3
"AcmSymBB|Product Description: AutoCAD Mechanical 2000|Company: Autodesk"
 90
        0
280
     0
281
     0
  0
CLASS
  1
ACMSURFSTANDARDJIS
  2
AcmSurfTextStdJIS
  3
"AcmSymBB|Product Description: AutoCAD Mechanical 2000|Company: Autodesk"
 90
        0
280
     0
281
     0
  0
CLASS
  1
ACMFCFSTANDARDJIS
  2
AcmFCFStdJIS
  3
"AcmSymBB|Product Description: AutoCAD Mechanical 2000|Company: Autodesk"
 90
        0
280
     0
281
     0
  0
CLASS
  1
ACMWELDSTANDARDJIS
  2
AcmWeldingStdJIS
  3
"AcmSymBB|Product Description: AutoCAD Mechanical 2000|Company: Autodesk"
 90
        0
280
     0
281
     0
  0
CLASS
  1
ACMIDSTANDARDJIS
  2
AcmIdStdJIS
  3
"AcmSymBB|Product Description: AutoCAD Mechanical 2000|Company: Autodesk"
 90
        0
280
     0
281
     0
  0
CLASS
  1
ACMDATUMSTANDARDJIS
  2
AcmDatumStdJIS
  3
"AcmSymBB|Product Description: AutoCAD Mechanical 2000|Company: Autodesk"
 90
        0
280
     0
281
     0
  0
CLASS
  1
ACMBOMSTANDARDJIS
  2
AcmBOMStdJIS
  3
"AcmSymBB|Product Description: AutoCAD Mechanical 2000|Company: Autodesk"
 90
        0
280
     0
281
     0
  0
CLASS
  1
ACMSTANDARDANSI
  2
AcmStandardANSI
  3
"AcmSymBB|Product Description: AutoCAD Mechanical 2000|Company: Autodesk"
 90
        0
280
     0
281
     0
  0
CLASS
  1
ACMSURFSTANDARDANSI
  2
AcmSurfTextStdANSI
  3
"AcmSymBB|Product Description: AutoCAD Mechanical 2000|Company: Autodesk"
 90
        0
280
     0
281
     0
  0
CLASS
  1
ACMFCFSTANDARDANSI
  2
AcmFCFStdANSI
  3
"AcmSymBB|Product Description: AutoCAD Mechanical 2000|Company: Autodesk"
 90
        0
280
     0
281
     0
  0
CLASS
  1
ACMWELDSTANDARDANSI
  2
AcmWeldingStdANSI
  3
"AcmSymBB|Product Description: AutoCAD Mechanical 2000|Company: Autodesk"
 90
        0
280
     0
281
     0
  0
CLASS
  1
ACMIDSTANDARDANSI
  2
AcmIdStdANSI
  3
"AcmSymBB|Product Description: AutoCAD Mechanical 2000|Company: Autodesk"
 90
        0
280
     0
281
     0
  0
CLASS
  1
ACMDATUMSTANDARDANSI
  2
AcmDatumStdANSI
  3
"AcmSymBB|Product Description: AutoCAD Mechanical 2000|Company: Autodesk"
 90
        0
280
     0
281
     0
  0
CLASS
  1
ACMBOMSTANDARDANSI
  2
AcmBOMStdANSI
  3
"AcmSymBB|Product Description: AutoCAD Mechanical 2000|Company: Autodesk"
 90
        0
280
     0
281
     0
  0
CLASS
  1
ACMSTANDARDBSI
  2
AcmStandardBSI
  3
"AcmSymBB|Product Description: AutoCAD Mechanical 2000|Company: Autodesk"
 90
        0
280
     0
281
     0
  0
CLASS
  1
ACMSURFSTANDARDBSI
  2
AcmSurfTextStdBSI
  3
"AcmSymBB|Product Description: AutoCAD Mechanical 2000|Company: Autodesk"
 90
        0
280
     0
281
     0
  0
CLASS
  1
ACMFCFSTANDARDBSI
  2
AcmFCFStdBSI
  3
"AcmSymBB|Product Description: AutoCAD Mechanical 2000|Company: Autodesk"
 90
        0
280
     0
281
     0
  0
CLASS
  1
ACMWELDSTANDARDBSI
  2
AcmWeldingStdBSI
  3
"AcmSymBB|Product Description: AutoCAD Mechanical 2000|Company: Autodesk"
 90
        0
280
     0
281
     0
  0
CLASS
  1
ACMIDSTANDARDBSI
  2
AcmIdStdBSI
  3
"AcmSymBB|Product Description: AutoCAD Mechanical 2000|Company: Autodesk"
 90
        0
280
     0
281
     0
  0
CLASS
  1
ACMDATUMSTANDARDBSI
  2
AcmDatumStdBSI
  3
"AcmSymBB|Product Description: AutoCAD Mechanical 2000|Company: Autodesk"
 90
        0
280
     0
281
     0
  0
CLASS
  1
ACMBOMSTANDARDBSI
  2
AcmBOMStdBSI
  3
"AcmSymBB|Product Description: AutoCAD Mechanical 2000|Company: Autodesk"
 90
        0
280
     0
281
     0
  0
CLASS
  1
LONG_TRANSACTION
  2
AcDbLongTransaction
  3
AutoCAD 2000
 90
        0
280
     0
281
     0
  0
CLASS
  1
LWPOLYLINE
  2
AcDbPolyline
  3
AutoCAD 2000
 90
        0
280
     0
281
     1
  0
CLASS
  1
HATCH
  2
AcDbHatch
  3
AutoCAD 2000
 90
        0
280
     0
281
     1
  0
CLASS
  1
XRECORD
  2
AcDbXrecord
  3
AutoCAD 2000
 90
        0
280
     0
281
     0
  0
ENDSEC
  0
SECTION
  2
TABLES
  0
TABLE
  2
VPORT
  5
8
330
0
100
AcDbSymbolTable
 70
     3
  0
VPORT
  5
28BF
330
8
100
AcDbSymbolTableRecord
100
AcDbViewportTableRecord
  2
*ACTIVE
 70
     0
 10
0.0
 20
0.0
 11
1.0
 21
1.0
 12
-73.36670857535199
 22
1.418217933106532
 13
0.0
 23
0.0
 14
2.5
 24
2.5
 15
10.0
 25
10.0
 16
0.0
 26
0.0
 36
1.0
 17
0.0
 27
0.0
 37
0.0
 40
208.8482531899706
 41
1.56570841889117
 42
50.0
 43
0.0
 44
0.0
 50
0.0
 51
0.0
 71
     0
 72
   100
 73
     1
 74
     3
 75
     0
 76
     0
 77
     0
 78
     0
  0
ENDTAB
  0
TABLE
  2
LTYPE
  5
5
330
0
100
AcDbSymbolTable
 70
    10
  0
LTYPE
  5
14
330
5
100
AcDbSymbolTableRecord
100
AcDbLinetypeTableRecord
  2
BYBLOCK
 70
     0
  3

 72
    65
 73
     0
 40
0.0
  0
LTYPE
  5
15
330
5
100
AcDbSymbolTableRecord
100
AcDbLinetypeTableRecord
  2
BYLAYER
 70
     0
  3

 72
    65
 73
     0
 40
0.0
  0
LTYPE
  5
16
330
5
100
AcDbSymbolTableRecord
100
AcDbLinetypeTableRecord
  2
CONTINUOUS
 70
     0
  3
Solid line
 72
    65
 73
     0
 40
0.0
  0
LTYPE
  5
4B
330
5
100
AcDbSymbolTableRecord
100
AcDbLinetypeTableRecord
  2
AM_ISO02W050
 70
     0
  3
__ __ __ __ __ __ __ __ __ __ __ __ __ __ __
 72
    65
 73
     2
 40
7.5
 49
6.0
 74
     0
 49
-1.5
 74
     0
  0
LTYPE
  5
4C
330
5
100
AcDbSymbolTableRecord
100
AcDbLinetypeTableRecord
  2
AM_ISO08W050
 70
     0
  3
____ . ____ . ____ . ____ . ____ . ____ . ____
 72
    65
 73
     4
 40
18.0
 49
12.0
 74
     0
 49
-1.5
 74
     0
 49
3.0
 74
     0
 49
-1.5
 74
     0
  0
LTYPE
  5
4D
330
5
100
AcDbSymbolTableRecord
100
AcDbLinetypeTableRecord
  2
AM_ISO09W050
 70
     0
  3
_____ . . _____ . . _____ . . ____ .. ____
 72
    65
 73
     6
 40
22.5
 49
12.0
 74
     0
 49
-1.5
 74
     0
 49
3.0
 74
     0
 49
-1.5
 74
     0
 49
3.0
 74
     0
 49
-1.5
 74
     0
  0
LTYPE
  5
4E
330
5
100
AcDbSymbolTableRecord
100
AcDbLinetypeTableRecord
  2
AMCONSTR
 70
     0
  3
_______________________
 72
    65
 73
     2
 40
9999.0
 49
9999.0
 74
     0
 49
0.0
 74
     0
  0
LTYPE
  5
4F
330
5
100
AcDbSymbolTableRecord
100
AcDbLinetypeTableRecord
  2
AM_ISO02W050X2
 70
     0
  3
 _ _ _ _ _ _ _ _ _ _ _ _
 72
    65
 73
     2
 40
3.75
 49
3.0
 74
     0
 49
-0.75
 74
     0
  0
LTYPE
  5
50
330
5
100
AcDbSymbolTableRecord
100
AcDbLinetypeTableRecord
  2
AM_ISO08W050X2
 70
     0
  3
__ . __ . __ . __ . __ . __
 72
    65
 73
     4
 40
9.0
 49
6.0
 74
     0
 49
-0.75
 74
     0
 49
1.5
 74
     0
 49
-0.75
 74
     0
  0
LTYPE
  5
53
330
5
100
AcDbSymbolTableRecord
100
AcDbLinetypeTableRecord
  2
AMZIGZAG
 70
     0
  3
/\/-/\/-/\/-/\/-/\/-/\/
 72
    65
 73
     2
 40
11.00009999999999
 49
0.0001
 74
     4
 75
   135
340
52
 46
0.04
 50
0.0
 44
0.0
 45
0.0
 49
-11.0
 74
     0
  0
LTYPE
  5
166
330
5
100
AcDbSymbolTableRecord
100
AcDbLinetypeTableRecord
  2
ACJISTGL
 70
     0
  3
_ _ _ _ _
 72
    65
 73
     2
 40
3.0
 49
2.0
 74
     0
 49
-1.0
 74
     0
  0
LTYPE
  5
26A
330
5
100
AcDbSymbolTableRecord
100
AcDbLinetypeTableRecord
  2
ACJISTGB
 70
     0
  3
__ . . __ . .
 72
    65
 73
     6
 40
9.0
 49
4.0
 74
     0
 49
-1.0
 74
     0
 49
1.0
 74
     0
 49
-1.0
 74
     0
 49
1.0
 74
     0
 49
-1.0
 74
     0
  0
ENDTAB
  0
TABLE
  2
LAYER
  5
2
330
0
100
AcDbSymbolTable
 70
     9
  0
LAYER
  5
10
330
2
100
AcDbSymbolTableRecord
100
AcDbLayerTableRecord
  2
0
 70
     0
 62
     7
  6
CONTINUOUS
  0
LAYER
  5
3F9
330
2
100
AcDbSymbolTableRecord
100
AcDbLayerTableRecord
  2
AM_0
 70
     0
 62
     7
  6
CONTINUOUS
  0
LAYER
  5
CD5
330
2
100
AcDbSymbolTableRecord
100
AcDbLayerTableRecord
  2
AM_7
 70
     0
 62
     4
  6
AM_ISO08W050
  0
LAYER
  5
CDE
330
2
100
AcDbSymbolTableRecord
100
AcDbLayerTableRecord
  2
AM_11
 70
     0
 62
     3
  6
AM_ISO09W050
  0
LAYER
  5
CFB
330
2
100
AcDbSymbolTableRecord
100
AcDbLayerTableRecord
  2
AM_5
 70
     0
 62
     3
  6
CONTINUOUS
  0
LAYER
  5
CFD
330
2
100
AcDbSymbolTableRecord
100
AcDbLayerTableRecord
  2
DEFPOINTS
 70
     0
 62
     7
  6
CONTINUOUS
  0
LAYER
  5
113C
330
2
100
AcDbSymbolTableRecord
100
AcDbLayerTableRecord
  2
AM_6
 70
     0
 62
     2
  6
CONTINUOUS
  0
LAYER
  5
255F
330
2
100
AcDbSymbolTableRecord
100
AcDbLayerTableRecord
  2
AM_CL
 70
     0
 62
     1
  6
AMCONSTR
  0
LAYER
  5
257D
330
2
100
AcDbSymbolTableRecord
100
AcDbLayerTableRecord
  2
PV0001_1
 70
     0
 62
     7
  6
CONTINUOUS
  0
ENDTAB
  0
TABLE
  2
STYLE
  5
3
330
0
100
AcDbSymbolTable
 70
     5
  0
STYLE
  5
11
330
3
100
AcDbSymbolTableRecord
100
AcDbTextStyleTableRecord
  2
STANDARD
 70
     0
 40
0.0
 41
1.0
 50
0.0
 71
     0
 42
2.5
  3
simplex.shx
  4
EXTFONT.SHX
  0
STYLE
  5
52
330
3
100
AcDbSymbolTableRecord
100
AcDbTextStyleTableRecord
  2

 70
     1
 40
0.0
 41
1.0
 50
0.0
 71
     0
 42
2.5
  3
ltypeshp.shx
  4

  0
STYLE
  5
6B
330
3
100
AcDbSymbolTableRecord
100
AcDbTextStyleTableRecord
  2
ASAMI
 70
     0
 40
0.0
 41
1.0
 50
0.0
 71
     0
 42
2.5
  3
simplex.shx
  4
EXTFONT.SHX
  0
STYLE
  5
262
330
3
100
AcDbSymbolTableRecord
100
AcDbTextStyleTableRecord
  2
ACJISTS
 70
     0
 40
1.0
 41
1.0
 50
0.0
 71
     0
 42
2.5
  3
simplex.shx
  4
bigfont.shx
  0
STYLE
  5
269
330
3
100
AcDbSymbolTableRecord
100
AcDbTextStyleTableRecord
  2
ACJISGDT
 70
     0
 40
0.0
 41
1.0
 50
0.0
 71
     0
 42
2.5
  3
amgdtans.shx
  4

  0
ENDTAB
  0
TABLE
  2
VIEW
  5
6
330
0
100
AcDbSymbolTable
 70
     0
  0
ENDTAB
  0
TABLE
  2
UCS
  5
7
330
0
100
AcDbSymbolTable
 70
     0
  0
ENDTAB
  0
TABLE
  2
APPID
  5
9
330
0
100
AcDbSymbolTable
 70
    13
  0
APPID
  5
12
330
9
100
AcDbSymbolTableRecord
100
AcDbRegAppTableRecord
  2
ACAD
 70
     0
  0
APPID
  5
30
330
9
100
AcDbSymbolTableRecord
100
AcDbRegAppTableRecord
  2
MCAD_NO_VIS
 70
     0
  0
APPID
  5
31
330
9
100
AcDbSymbolTableRecord
100
AcDbRegAppTableRecord
  2
ACAD_TEMP_GRAPHIC
 70
     0
  0
APPID
  5
2C2
330
9
100
AcDbSymbolTableRecord
100
AcDbRegAppTableRecord
  2
GENIUS_GENDTOL_13
 70
     0
  0
APPID
  5
339
330
9
100
AcDbSymbolTableRecord
100
AcDbRegAppTableRecord
  2
GENIUS_GENODEF_13
 70
     0
  0
APPID
  5
33A
330
9
100
AcDbSymbolTableRecord
100
AcDbRegAppTableRecord
  2
GENIUS_GENOBJ-N-RSBK_13
 70
     0
  0
APPID
  5
33B
330
9
100
AcDbSymbolTableRecord
100
AcDbRegAppTableRecord
  2
GENIUS_GENOBJ-N-LIB_13
 70
     0
  0
APPID
  5
33C
330
9
100
AcDbSymbolTableRecord
100
AcDbRegAppTableRecord
  2
GENIUS_GENSCALE_13
 70
     0
  0
APPID
  5
378
330
9
100
AcDbSymbolTableRecord
100
AcDbRegAppTableRecord
  2
GENIUS_GENDIMSH_14
 70
     0
  0
APPID
  5
13A0
330
9
100
AcDbSymbolTableRecord
100
AcDbRegAppTableRecord
  2
GENIUS_GENOBJ-N-CEN_13
 70
     0
  0
APPID
  5
13D7
330
9
100
AcDbSymbolTableRecord
100
AcDbRegAppTableRecord
  2
GENIUS_GENREC_14
 70
     0
  0
APPID
  5
13D8
330
9
100
AcDbSymbolTableRecord
100
AcDbRegAppTableRecord
  2
GENIUS_GENOBJ-N-REC_13
 70
     0
  0
APPID
  5
2775
330
9
100
AcDbSymbolTableRecord
100
AcDbRegAppTableRecord
  2
DCO15
 70
     0
  0
ENDTAB
  0
TABLE
  2
DIMSTYLE
  5
A
330
0
100
AcDbSymbolTable
 70
     9
  0
DIMSTYLE
105
58
330
A
100
AcDbSymbolTableRecord
100
AcDbDimStyleTableRecord
  2
AM_JIS
 70
     0
  3

  4
"
  5
OPEN30
  6

  7

 40
1.0
 41
2.5
 42
1.0
 43
12.0
 44
1.0
 45
0.0
 46
0.0
 47
0.1
 48
0.1
140
3.2
141
0.0
142
0.0
143
0.0393701
144
1.0
145
0.0
146
0.71
147
1.5
 71
     0
 72
     0
 73
     0
 74
     0
 75
     0
 76
     0
 77
     3
 78
     8
170
     0
171
     2
172
     1
173
     0
174
     0
175
     0
176
   256
177
   256
178
     2
270
     2
271
     3
272
     3
273
     2
274
     2
340
6B
275
     0
280
     0
281
     0
282
     0
283
     0
284
     0
285
     0
286
     0
287
     3
288
     0
  0
DIMSTYLE
105
5F
330
A
100
AcDbSymbolTableRecord
100
AcDbDimStyleTableRecord
  2
AM_JIS$3
 70
     0
  3

  4
"
  5
OPEN30
  6

  7

 40
1.0
 41
2.5
 42
1.0
 43
10.0
 44
1.0
 45
0.0
 46
0.0
 47
0.1
 48
0.1
140
3.2
141
0.0
142
0.0
143
0.0393701
144
1.0
145
0.0
146
0.71
147
1.5
 71
     0
 72
     0
 73
     0
 74
     1
 75
     0
 76
     0
 77
     3
 78
     8
170
     0
171
     2
172
     0
173
     0
174
     0
175
     0
176
   256
177
   256
178
     2
270
     2
271
     2
272
     3
273
     2
274
     2
340
6B
275
     0
280
     0
281
     0
282
     0
283
     0
284
     0
285
     0
286
     0
287
     0
288
     1
  0
DIMSTYLE
105
60
330
A
100
AcDbSymbolTableRecord
100
AcDbDimStyleTableRecord
  2
AM_JIS$4
 70
     0
  3

  4
"
  5
OPEN30
  6

  7

 40
1.0
 41
2.5
 42
1.0
 43
10.0
 44
1.0
 45
0.0
 46
0.0
 47
0.1
 48
0.1
140
3.2
141
0.0
142
0.0
143
0.0393701
144
1.0
145
0.0
146
0.71
147
1.5
 71
     0
 72
     0
 73
     0
 74
     1
 75
     0
 76
     0
 77
     3
 78
     8
170
     0
171
     2
172
     0
173
     0
174
     0
175
     0
176
   256
177
   256
178
     2
270
     2
271
     2
272
     3
273
     2
274
     2
340
6B
275
     0
280
     0
281
     0
282
     0
283
     0
284
     0
285
     0
286
     0
287
     0
288
     1
  0
DIMSTYLE
105
61
330
A
100
AcDbSymbolTableRecord
100
AcDbDimStyleTableRecord
  2
AM_JIS$6
 70
     0
  3

  4
"
  5
OPEN30
  6

  7

 40
1.0
 41
2.5
 42
1.0
 43
10.0
 44
1.0
 45
0.0
 46
0.0
 47
0.1
 48
0.1
140
3.2
141
0.0
142
0.0
143
0.0393701
144
1.0
145
0.0
146
0.71
147
1.5
 71
     0
 72
     0
 73
     0
 74
     0
 75
     0
 76
     0
 77
     0
 78
     8
170
     0
171
     2
172
     1
173
     0
174
     0
175
     0
176
   256
177
   256
178
     2
270
     2
271
     2
272
     2
273
     2
274
     2
340
6B
275
     0
280
     0
281
     0
282
     0
283
     0
284
     0
285
     0
286
     0
287
     3
288
     0
  0
DIMSTYLE
105
62
330
A
100
AcDbSymbolTableRecord
100
AcDbDimStyleTableRecord
  2
AM_JIS$7
 70
     0
  3

  4
"
  5
OPEN30
  6

  7

 40
1.0
 41
2.5
 42
1.0
 43
10.0
 44
1.0
 45
0.0
 46
0.0
 47
0.1
 48
0.1
140
3.2
141
0.0
142
0.0
143
0.0393701
144
1.0
145
0.0
146
0.71
147
1.5
 71
     0
 72
     0
 73
     0
 74
     0
 75
     0
 76
     0
 77
     3
 78
     8
170
     0
171
     2
172
     1
173
     0
174
     0
175
     0
176
   256
177
   256
178
     2
270
     2
271
     2
272
     3
273
     2
274
     2
340
6B
275
     0
280
     0
281
     0
282
     0
283
     0
284
     0
285
     0
286
     0
287
     3
288
     0
  0
DIMSTYLE
105
63
330
A
100
AcDbSymbolTableRecord
100
AcDbDimStyleTableRecord
  2
AM_JIS$SF
 70
     0
  3

  4
"
  5
OPEN30
  6

  7

 40
1.0
 41
2.5
 42
1.0
 43
10.0
 44
1.0
 45
0.0
 46
0.0
 47
0.1
 48
0.1
140
3.2
141
0.0
142
0.0
143
0.0393701
144
1.0
145
0.0
146
0.71
147
1.5
 71
     0
 72
     0
 73
     0
 74
     0
 75
     1
 76
     1
 77
     3
 78
     8
170
     0
171
     2
172
     1
173
     0
174
     0
175
     0
176
   256
177
   256
178
     2
270
     2
271
     2
272
     2
273
     2
274
     2
340
6B
275
     0
280
     0
281
     0
282
     0
283
     0
284
     0
285
     0
286
     0
287
     3
288
     0
  0
DIMSTYLE
105
68
330
A
100
AcDbSymbolTableRecord
100
AcDbDimStyleTableRecord
  2
AM_JIS$SH
 70
     0
  3

  4
"
  5

  6
GENAXEH
  7
OPEN30
 40
1.0
 41
2.5
 42
1.0
 43
10.0
 44
1.0
 45
0.0
 46
0.0
 47
0.1
 48
0.1
140
3.2
141
0.0
142
0.0
143
0.0393701
144
2.0
145
0.0
146
0.71
147
1.5
 71
     0
 72
     0
 73
     0
 74
     0
 75
     1
 76
     1
 77
     3
 78
     8
170
     0
171
     2
172
     1
173
     1
174
     0
175
     0
176
   256
177
   256
178
     2
270
     2
271
     2
272
     2
273
     2
274
     2
340
6B
275
     0
280
     0
281
     0
282
     0
283
     0
284
     0
285
     0
286
     0
287
     3
288
     0
  0
DIMSTYLE
105
B34
330
A
100
AcDbSymbolTableRecord
100
AcDbDimStyleTableRecord
  2
AM_JIS$2
 70
     0
  3

  4
"
  5
OPEN30
  6

  7

 40
1.0
 41
2.5
 42
1.0
 43
12.0
 44
1.0
 45
0.0
 46
0.0
 47
0.1
 48
0.1
140
3.2
141
0.0
142
0.0
143
0.0393701
144
1.0
145
0.0
146
0.71
147
1.5
 71
     0
 72
     0
 73
     0
 74
     0
 75
     0
 76
     0
 77
     3
 78
     8
170
     0
171
     2
172
     1
173
     0
174
     0
175
     0
176
   256
177
   256
178
     2
270
     2
271
     3
272
     3
273
     2
274
     2
340
6B
275
     0
280
     0
281
     0
282
     0
283
     0
284
     0
285
     0
286
     0
287
     3
288
     0
  0
DIMSTYLE
105
BA5
102
{ACAD_REACTORS
330
155D
330
15E8
330
1673
330
1895
330
1E16
330
279B
102
}
330
A
100
AcDbSymbolTableRecord
100
AcDbDimStyleTableRecord
  2
AM_JIS$0
 70
     0
  3

  4
"
  5
OPEN30
  6

  7

 40
1.0
 41
2.5
 42
0.0
 43
10.0
 44
1.0
 45
0.0
 46
0.0
 47
0.1
 48
0.1000000001
140
3.799999999999999
141
0.0
142
0.0
143
0.0393701
144
1.0
145
0.0
146
0.71
147
1.5
 71
     0
 72
     0
 73
     0
 74
     0
 75
     0
 76
     0
 77
     3
 78
     1
170
     0
171
     2
172
     1
173
     0
174
     0
175
     0
176
     3
177
     3
178
     2
270
     2
271
     2
272
     2
273
     2
274
     2
340
11
275
     1
280
     0
281
     0
282
     0
283
     0
284
     8
285
     0
286
     0
287
     0
288
     0
  0
ENDTAB
  0
TABLE
  2
BLOCK_RECORD
  5
1
330
0
100
AcDbSymbolTable
 70
    13
  0
BLOCK_RECORD
  5
1F
102
{ACAD_XDICTIONARY
360
74
102
}
330
1
100
AcDbSymbolTableRecord
100
AcDbBlockTableRecord
  2
*MODEL_SPACE
  0
BLOCK_RECORD
  5
101
102
{ACAD_XDICTIONARY
360
28E8
102
}
330
1
100
AcDbSymbolTableRecord
100
AcDbBlockTableRecord
  2
*PAPER_SPACE
  0
BLOCK_RECORD
  5
59
330
1
100
AcDbSymbolTableRecord
100
AcDbBlockTableRecord
  2
_OPEN30
  0
BLOCK_RECORD
  5
64
330
1
100
AcDbSymbolTableRecord
100
AcDbBlockTableRecord
  2
GENAXEH
  0
BLOCK_RECORD
  5
155E
330
1
100
AcDbSymbolTableRecord
100
AcDbBlockTableRecord
  2
*D5
  0
BLOCK_RECORD
  5
15E9
330
1
100
AcDbSymbolTableRecord
100
AcDbBlockTableRecord
  2
*D6
  0
BLOCK_RECORD
  5
1674
330
1
100
AcDbSymbolTableRecord
100
AcDbBlockTableRecord
  2
*D7
  0
BLOCK_RECORD
  5
1896
330
1
100
AcDbSymbolTableRecord
100
AcDbBlockTableRecord
  2
*D8
  0
BLOCK_RECORD
  5
1E17
330
1
100
AcDbSymbolTableRecord
100
AcDbBlockTableRecord
  2
*D9
  0
BLOCK_RECORD
  5
2572
330
1
100
AcDbSymbolTableRecord
100
AcDbBlockTableRecord
  2
*D10
  0
BLOCK_RECORD
  5
257E
330
1
100
AcDbSymbolTableRecord
100
AcDbBlockTableRecord
  2
A$C2E5E2A88
  0
BLOCK_RECORD
  5
279C
330
1
100
AcDbSymbolTableRecord
100
AcDbBlockTableRecord
  2
*D12
  0
ENDTAB
  0
ENDSEC
  0
SECTION
  2
BLOCKS
  0
BLOCK
  5
20
330
1F
100
AcDbEntity
  8
0
100
AcDbBlockBegin
  2
*MODEL_SPACE
 70
     0
 10
0.0
 20
0.0
 30
0.0
  3
*MODEL_SPACE
  1

  0
ENDBLK
  5
21
330
1F
100
AcDbEntity
  8
0
100
AcDbBlockEnd
  0
BLOCK
  5
103
330
101
100
AcDbEntity
 67
     1
  8
0
100
AcDbBlockBegin
  2
*PAPER_SPACE
 70
     0
 10
0.0
 20
0.0
 30
0.0
  3
*PAPER_SPACE
  1

  0
ENDBLK
  5
104
330
101
100
AcDbEntity
 67
     1
  8
0
100
AcDbBlockEnd
  0
BLOCK
  5
5D
330
59
100
AcDbEntity
  8
0
100
AcDbBlockBegin
  2
_OPEN30
 70
     0
 10
0.0
 20
0.0
 30
0.0
  3
_OPEN30
  1

  0
LINE
  5
5A
330
59
100
AcDbEntity
  8
0
 62
     0
100
AcDbLine
 10
-1.0
 20
0.26794919
 30
0.0
 11
0.0
 21
0.0
 31
0.0
  0
LINE
  5
5B
330
59
100
AcDbEntity
  8
0
 62
     0
100
AcDbLine
 10
0.0
 20
0.0
 30
0.0
 11
-1.0
 21
-0.26794919
 31
0.0
  0
LINE
  5
5C
330
59
100
AcDbEntity
  8
0
 62
     0
100
AcDbLine
 10
0.0
 20
0.0
 30
0.0
 11
-1.0
 21
0.0
 31
0.0
  0
ENDBLK
  5
5E
330
59
100
AcDbEntity
  8
0
100
AcDbBlockEnd
  0
BLOCK
  5
66
330
64
100
AcDbEntity
  8
0
100
AcDbBlockBegin
  2
GENAXEH
 70
     0
 10
0.0
 20
0.0
 30
0.0
  3
GENAXEH
  1

  0
LINE
  5
65
330
64
100
AcDbEntity
  8
0
100
AcDbLine
 10
-1.0
 20
0.0
 30
0.0
 11
1.0
 21
0.0
 31
0.0
  0
ENDBLK
  5
67
330
64
100
AcDbEntity
  8
0
100
AcDbBlockEnd
  0
BLOCK
  5
1568
330
155E
100
AcDbEntity
  8
0
100
AcDbBlockBegin
  2
*D5
 70
     1
 10
0.0
 20
0.0
 30
0.0
  3
*D5
  1

  0
LINE
  5
2829
330
155E
100
AcDbEntity
  8
AM_5
 62
     3
100
AcDbLine
 10
-0.0000000000000008
 20
-6.0
 30
0.0
 11
-0.0000000000000021
 21
-28.00000099999504
 31
0.0
  0
LINE
  5
282A
330
155E
100
AcDbEntity
  8
AM_5
 62
     3
100
AcDbLine
 10
-35.00000762939497
 20
-12.00009155272999
 30
0.0
 11
-35.00000762939497
 21
-28.00000099999504
 31
0.0
  0
LINE
  5
282B
330
155E
100
AcDbEntity
  8
AM_5
 62
     3
100
AcDbLine
 10
-2.500000000000002
 20
-27.00000099999504
 30
0.0
 11
-32.50000762939497
 21
-27.00000099999504
 31
0.0
  0
INSERT
  5
282C
330
155E
100
AcDbEntity
  8
AM_5
 62
     3
100
AcDbBlockReference
  2
_OPEN30
 10
-0.0000000000000021
 20
-27.00000099999504
 30
0.0
 41
2.5
 42
2.5
 43
2.5
  0
INSERT
  5
282D
330
155E
100
AcDbEntity
  8
AM_5
 62
     3
100
AcDbBlockReference
  2
_OPEN30
 10
-35.00000762939497
 20
-27.00000099999504
 30
0.0
 41
2.5
 42
2.5
 43
2.5
 50
180.0
  0
MTEXT
  5
282E
330
155E
100
AcDbEntity
  8
AM_5
 62
     2
100
AcDbMText
 10
-17.50000381469748
 20
-23.60000099999504
 30
0.0
 40
3.799999999999999
 41
0.0
 71
     5
 72
     1
  1
35
1001
ACAD
1000
MTEXTBEGIN
1070
    73
1070
     1
1070
    44
1040
1.0
1070
    74
1070
     0
1000
MTEXTEND
  0
POINT
  5
282F
330
155E
100
AcDbEntity
  8
DEFPOINTS
 62
     0
100
AcDbPoint
 10
-0.0000000000000008
 20
-6.0
 30
0.0
  0
POINT
  5
2830
330
155E
100
AcDbEntity
  8
DEFPOINTS
 62
     0
100
AcDbPoint
 10
-35.00000762939497
 20
-12.00009155272999
 30
0.0
  0
POINT
  5
2831
330
155E
100
AcDbEntity
  8
DEFPOINTS
 62
     0
100
AcDbPoint
 10
-35.00000762939497
 20
-27.00000099999504
 30
0.0
  0
ENDBLK
  5
1569
330
155E
100
AcDbEntity
  8
0
100
AcDbBlockEnd
  0
BLOCK
  5
15F3
330
15E9
100
AcDbEntity
  8
0
100
AcDbBlockBegin
  2
*D6
 70
     1
 10
0.0
 20
0.0
 30
0.0
  3
*D6
  1

  0
LINE
  5
283B
330
15E9
100
AcDbEntity
  8
AM_5
 62
     3
100
AcDbLine
 10
-35.00000762939497
 20
-12.24999999999497
 30
0.0
 11
-35.00000762939497
 21
-28.00000099999529
 31
0.0
  0
LINE
  5
283C
330
15E9
100
AcDbEntity
  8
AM_5
 62
     3
100
AcDbLine
 10
-159.9999999999989
 20
-10.16149902342994
 30
0.0
 11
-159.9999999999989
 21
-28.00000099999529
 31
0.0
  0
LINE
  5
283D
330
15E9
100
AcDbEntity
  8
AM_5
 62
     3
100
AcDbLine
 10
-37.50000762939497
 20
-27.00000099999529
 30
0.0
 11
-157.4999999999989
 21
-27.00000099999529
 31
0.0
  0
INSERT
  5
283E
330
15E9
100
AcDbEntity
  8
AM_5
 62
     3
100
AcDbBlockReference
  2
_OPEN30
 10
-35.00000762939497
 20
-27.00000099999529
 30
0.0
 41
2.5
 42
2.5
 43
2.5
  0
INSERT
  5
283F
330
15E9
100
AcDbEntity
  8
AM_5
 62
     3
100
AcDbBlockReference
  2
_OPEN30
 10
-159.9999999999989
 20
-27.00000099999529
 30
0.0
 41
2.5
 42
2.5
 43
2.5
 50
180.0
  0
MTEXT
  5
2840
330
15E9
100
AcDbEntity
  8
AM_5
 62
     2
100
AcDbMText
 10
-97.50000381469698
 20
-23.60000099999529
 30
0.0
 40
3.799999999999999
 41
0.0
 71
     5
 72
     1
  1
125
1001
ACAD
1000
MTEXTBEGIN
1070
    73
1070
     1
1070
    44
1040
1.0
1070
    74
1070
     0
1000
MTEXTEND
  0
POINT
  5
2841
330
15E9
100
AcDbEntity
  8
DEFPOINTS
 62
     0
100
AcDbPoint
 10
-35.00000762939497
 20
-12.24999999999497
 30
0.0
  0
POINT
  5
2842
330
15E9
100
AcDbEntity
  8
DEFPOINTS
 62
     0
100
AcDbPoint
 10
-159.9999999999989
 20
-10.16149902342994
 30
0.0
  0
POINT
  5
2843
330
15E9
100
AcDbEntity
  8
DEFPOINTS
 62
     0
100
AcDbPoint
 10
-159.9999999999989
 20
-27.00000099999529
 30
0.0
  0
ENDBLK
  5
15F4
330
15E9
100
AcDbEntity
  8
0
100
AcDbBlockEnd
  0
BLOCK
  5
167E
330
1674
100
AcDbEntity
  8
0
100
AcDbBlockBegin
  2
*D7
 70
     1
 10
0.0
 20
0.0
 30
0.0
  3
*D7
  1

  0
LINE
  5
2832
330
1674
100
AcDbEntity
  8
AM_5
 62
     3
100
AcDbLine
 10
-159.9999999999989
 20
-10.16149902342994
 30
0.0
 11
-159.9999999999989
 21
-38.00000099999498
 31
0.0
  0
LINE
  5
2833
330
1674
100
AcDbEntity
  8
AM_5
 62
     3
100
AcDbLine
 10
0.0000000000000198
 20
-12.49999999999996
 30
0.0
 11
0.0000000000000182
 21
-38.00000099999498
 31
0.0
  0
LINE
  5
2834
330
1674
100
AcDbEntity
  8
AM_5
 62
     3
100
AcDbLine
 10
-157.4999999999989
 20
-37.00000099999498
 30
0.0
 11
-2.499999999999981
 21
-37.00000099999498
 31
0.0
  0
INSERT
  5
2835
330
1674
100
AcDbEntity
  8
AM_5
 62
     3
100
AcDbBlockReference
  2
_OPEN30
 10
-159.9999999999989
 20
-37.00000099999498
 30
0.0
 41
2.5
 42
2.5
 43
2.5
 50
180.0
  0
INSERT
  5
2836
330
1674
100
AcDbEntity
  8
AM_5
 62
     3
100
AcDbBlockReference
  2
_OPEN30
 10
0.0000000000000183
 20
-37.00000099999498
 30
0.0
 41
2.5
 42
2.5
 43
2.5
  0
MTEXT
  5
2837
330
1674
100
AcDbEntity
  8
AM_5
 62
     2
100
AcDbMText
 10
-79.99999999999947
 20
-33.60000099999498
 30
0.0
 40
3.799999999999999
 41
0.0
 71
     5
 72
     1
  1
160
1001
ACAD
1000
MTEXTBEGIN
1070
    73
1070
     1
1070
    44
1040
1.0
1070
    74
1070
     0
1000
MTEXTEND
  0
POINT
  5
2838
330
1674
100
AcDbEntity
  8
DEFPOINTS
 62
     0
100
AcDbPoint
 10
-159.9999999999989
 20
-10.16149902342994
 30
0.0
  0
POINT
  5
2839
330
1674
100
AcDbEntity
  8
DEFPOINTS
 62
     0
100
AcDbPoint
 10
0.0000000000000198
 20
-12.49999999999996
 30
0.0
  0
POINT
  5
283A
330
1674
100
AcDbEntity
  8
DEFPOINTS
 62
     0
100
AcDbPoint
 10
0.0000000000000183
 20
-37.00000099999498
 30
0.0
  0
ENDBLK
  5
167F
330
1674
100
AcDbEntity
  8
0
100
AcDbBlockEnd
  0
BLOCK
  5
18A0
330
1896
100
AcDbEntity
  8
0
100
AcDbBlockBegin
  2
*D8
 70
     1
 10
0.0
 20
0.0
 30
0.0
  3
*D8
  1

  0
LINE
  5
2856
330
1896
100
AcDbEntity
  8
AM_5
 62
     3
100
AcDbLine
 10
0.0000000000000207
 20
-12.99999999999498
 30
0.0
 11
16.89959053857399
 21
-12.99999999999498
 31
0.0
  0
LINE
  5
2857
330
1896
100
AcDbEntity
  8
AM_5
 62
     3
100
AcDbLine
 10
0.0000000000000239
 20
13.00000000000501
 30
0.0
 11
16.899590538574
 21
13.00000000000501
 31
0.0
  0
LINE
  5
2858
330
1896
100
AcDbEntity
  8
AM_5
 62
     3
100
AcDbLine
 10
15.89959053857399
 20
-10.49999999999498
 30
0.0
 11
15.899590538574
 21
10.50000000000501
 31
0.0
  0
INSERT
  5
2859
330
1896
100
AcDbEntity
  8
AM_5
 62
     3
100
AcDbBlockReference
  2
_OPEN30
 10
15.89959053857399
 20
-12.99999999999498
 30
0.0
 41
2.5
 42
2.5
 43
2.5
 50
270.0
  0
INSERT
  5
285A
330
1896
100
AcDbEntity
  8
AM_5
 62
     3
100
AcDbBlockReference
  2
_OPEN30
 10
15.899590538574
 20
13.00000000000501
 30
0.0
 41
2.5
 42
2.5
 43
2.5
 50
90.0
  0
MTEXT
  5
285B
330
1896
100
AcDbEntity
  8
AM_5
 62
     2
100
AcDbMText
 10
12.49959053857399
 20
0.0000000000050159
 30
0.0
 40
3.799999999999999
 41
0.0
 71
     5
 72
     1
  1
%%c26
 11
0.0000000000000001
 21
1.0
 31
0.0
1001
ACAD
1000
MTEXTBEGIN
1070
    73
1070
     1
1070
    44
1040
1.0
1070
    74
1070
     0
1000
MTEXTEND
  0
POINT
  5
285C
330
1896
100
AcDbEntity
  8
DEFPOINTS
 62
     0
100
AcDbPoint
 10
0.0000000000000207
 20
-12.99999999999498
 30
0.0
  0
POINT
  5
285D
330
1896
100
AcDbEntity
  8
DEFPOINTS
 62
     0
100
AcDbPoint
 10
0.0000000000000239
 20
13.00000000000501
 30
0.0
  0
POINT
  5
285E
330
1896
100
AcDbEntity
  8
DEFPOINTS
 62
     0
100
AcDbPoint
 10
15.899590538574
 20
13.00000000000501
 30
0.0
  0
ENDBLK
  5
18A1
330
1896
100
AcDbEntity
  8
0
100
AcDbBlockEnd
  0
BLOCK
  5
1E21
330
1E17
100
AcDbEntity
  8
0
100
AcDbBlockBegin
  2
*D9
 70
     1
 10
0.0
 20
0.0
 30
0.0
  3
*D9
  1

  0
LINE
  5
2844
330
1E17
100
AcDbEntity
  8
AM_5
 62
     3
100
AcDbLine
 10
-156.9999999999989
 20
12.50000000000001
 30
0.0
 11
-178.7581853182377
 21
12.50000000000002
 31
0.0
  0
LINE
  5
2845
330
1E17
100
AcDbEntity
  8
AM_5
 62
     3
100
AcDbLine
 10
-156.9999389648429
 20
-12.49996948241998
 30
0.0
 11
-178.7581853182377
 21
-12.49996948241997
 31
0.0
  0
LINE
  5
2846
330
1E17
100
AcDbEntity
  8
AM_5
 62
     3
100
AcDbLine
 10
-177.7581853182377
 20
10.00000000000002
 30
0.0
 11
-177.7581853182377
 21
-9.999969482419977
 31
0.0
  0
INSERT
  5
2847
330
1E17
100
AcDbEntity
  8
AM_5
 62
     3
100
AcDbBlockReference
  2
_OPEN30
 10
-177.7581853182377
 20
12.50000000000002
 30
0.0
 41
2.5
 42
2.5
 43
2.5
 50
90.0
  0
INSERT
  5
2848
330
1E17
100
AcDbEntity
  8
AM_5
 62
     3
100
AcDbBlockReference
  2
_OPEN30
 10
-177.7581853182377
 20
-12.49996948241997
 30
0.0
 41
2.5
 42
2.5
 43
2.5
 50
270.0
  0
MTEXT
  5
2849
330
1E17
100
AcDbEntity
  8
AM_5
 62
     2
100
AcDbMText
 10
-181.1581853182376
 20
0.0000152587900363
 30
0.0
 40
3.799999999999999
 41
0.0
 71
     5
 72
     1
  1
%%c25
 11
0.0000000000000001
 21
1.0
 31
0.0
1001
ACAD
1000
MTEXTBEGIN
1070
    73
1070
     1
1070
    44
1040
1.0
1070
    74
1070
     0
1000
MTEXTEND
  0
POINT
  5
284A
330
1E17
100
AcDbEntity
  8
DEFPOINTS
 62
     0
100
AcDbPoint
 10
-156.9999999999989
 20
12.50000000000001
 30
0.0
  0
POINT
  5
284B
330
1E17
100
AcDbEntity
  8
DEFPOINTS
 62
     0
100
AcDbPoint
 10
-156.9999389648429
 20
-12.49996948241998
 30
0.0
  0
POINT
  5
284C
330
1E17
100
AcDbEntity
  8
DEFPOINTS
 62
     0
100
AcDbPoint
 10
-177.7581853182377
 20
-12.49996948241997
 30
0.0
  0
ENDBLK
  5
1E22
330
1E17
100
AcDbEntity
  8
0
100
AcDbBlockEnd
  0
BLOCK
  5
257B
330
2572
100
AcDbEntity
  8
0
100
AcDbBlockBegin
  2
*D10
 70
     1
 10
0.0
 20
0.0
 30
0.0
  3
*D10
  1

  0
LINE
  5
2573
330
2572
100
AcDbEntity
  8
PV0001_1
 62
     3
100
AcDbLine
 10
82.765243530273
 20
-316.20703125
 30
0.0
 11
82.765243530273
 21
-349.54553222656
 31
0.0
  0
LINE
  5
2574
330
2572
100
AcDbEntity
  8
PV0001_1
 62
     3
100
AcDbLine
 10
-39.734756469726
 20
-348.5455322265599
 30
0.0
 11
80.265243530273
 21
-348.5455322265599
 31
0.0
  0
INSERT
  5
2575
330
2572
100
AcDbEntity
  8
PV0001_1
 62
     3
100
AcDbBlockReference
  2
_OPEN30
 10
-42.234756469726
 20
-348.5455322265599
 30
0.0
 41
2.5
 42
2.5
 43
2.5
 50
180.0
  0
INSERT
  5
2576
330
2572
100
AcDbEntity
  8
PV0001_1
 62
     3
100
AcDbBlockReference
  2
_OPEN30
 10
82.765243530273
 20
-348.5455322265599
 30
0.0
 41
2.5
 42
2.5
 43
2.5
  0
MTEXT
  5
2577
330
2572
100
AcDbEntity
  8
PV0001_1
 62
     2
100
AcDbMText
 10
20.265243530273
 20
-345.1451582108119
 30
0.0
 40
3.799999999999999
 41
0.0
 71
     5
 72
     1
  1
125.0
1001
ACAD
1000
MTEXTBEGIN
1070
    73
1070
     1
1070
    44
1040
1.0
1070
    74
1070
     0
1000
MTEXTEND
  0
POINT
  5
2578
330
2572
100
AcDbEntity
  8
DEFPOINTS
 62
     0
100
AcDbPoint
 10
-42.234756469726
 20
-318.29553222656
 30
0.0
  0
POINT
  5
2579
330
2572
100
AcDbEntity
  8
DEFPOINTS
 62
     0
100
AcDbPoint
 10
82.765243530273
 20
-316.20703125
 30
0.0
  0
POINT
  5
257A
330
2572
100
AcDbEntity
  8
DEFPOINTS
 62
     0
100
AcDbPoint
 10
82.765243530273
 20
-348.5455322265599
 30
0.0
  0
ENDBLK
  5
257C
330
2572
100
AcDbEntity
  8
0
100
AcDbBlockEnd
  0
BLOCK
  5
265B
330
257E
100
AcDbEntity
  8
0
100
AcDbBlockBegin
  2
A$C2E5E2A88
 70
     0
 10
0.0
 20
0.0
 30
0.0
  3
A$C2E5E2A88
  1

  0
LINE
  5
257F
330
257E
100
AcDbEntity
  8
AM_7
  6
AM_ISO08W050X2
100
AcDbLine
 10
-1.899589538574005
 20
0.0
 30
0.0
 11
163.7581843182378
 21
0.0
 31
0.0
  0
LINE
  5
2580
330
257E
100
AcDbEntity
  8
AM_0
100
AcDbLine
 10
157.0000076293939
 20
12.5
 30
0.0
 11
35.43300628662099
 21
12.5
 31
0.0
  0
LINE
  5
2581
330
257E
100
AcDbEntity
  8
AM_0
100
AcDbLine
 10
35.43300628662099
 20
-12.5
 30
0.0
 11
157.0000076293939
 21
-12.5
 31
0.0
  0
LINE
  5
2582
330
257E
100
AcDbEntity
  8
AM_0
100
AcDbLine
 10
160.0000076293939
 20
10.16149902344
 30
0.0
 11
160.0000076293939
 21
-10.16149902344
 31
0.0
  0
LINE
  5
2583
330
257E
100
AcDbEntity
  8
AM_0
100
AcDbLine
 10
157.0000076293939
 20
12.5
 30
0.0
 11
157.0000076293939
 21
-12.5
 31
0.0
  0
ARC
  5
2584
330
257E
100
AcDbEntity
  8
AM_0
100
AcDbCircle
 10
158.0000076293939
 20
-10.16149902344
 30
0.0
 40
2.0000627040863
100
AcDbArc
 50
285.0013537054863
 51
0.0
  0
LINE
  5
2585
330
257E
100
AcDbEntity
  8
AM_0
100
AcDbLine
 10
157.0000076293939
 20
-12.5
 30
0.0
 11
158.517707824706
 21
-12.09338378905999
 31
0.0
  0
ARC
  5
2586
330
257E
100
AcDbEntity
  8
AM_0
100
AcDbCircle
 10
158.0000076293939
 20
10.16149902344
 30
0.0
 40
2.0
100
AcDbArc
 50
0.0
 51
74.99864629451369
  0
LINE
  5
2587
330
257E
100
AcDbEntity
  8
AM_0
100
AcDbLine
 10
158.517707824706
 20
12.09341430664
 30
0.0
 11
156.9999999999989
 21
12.5
 31
0.0
  0
ELLIPSE
  5
2588
330
257E
100
AcDbEntity
  8
AM_0
100
AcDbEllipse
 10
4.034408569335994
 20
0.0
 30
0.0
 11
19.296919888604
 21
0.9501799843499725
 31
0.0
210
0.0
220
0.0
230
1.0
 40
0.6329035645839
 41
6.226388422732376
 42
6.963021796405268
  0
LINE
  5
2589
330
257E
100
AcDbEntity
  8
AM_0
100
AcDbLine
 10
35.00000762939499
 20
12.25
 30
0.0
 11
35.00000762939499
 21
-12.25
 31
0.0
  0
LINE
  5
258A
330
257E
100
AcDbEntity
  8
AM_0
100
AcDbLine
 10
35.43300628662099
 20
12.5
 30
0.0
 11
35.43300628662099
 21
-12.5
 31
0.0
  0
DIMENSION
  5
258B
330
257E
100
AcDbEntity
  8
PV0001_1
100
AcDbDimension
  2
*D10
 10
160.0000076293939
 20
-42.5
 30
0.0
 11
97.500007629394
 21
-42.5
 31
0.0
 12
77.23476409912099
 22
306.04553222656
 32
0.0
 70
   128
  1
<>
  3
AM_JIS$0
100
AcDbAlignedDimension
 13
35.00000762939499
 23
-12.25
 33
0.0
 14
160.0000076293939
 24
-10.16149902344
 34
0.0
100
AcDbRotatedDimension
1001
ACAD
1000
DSTYLE
1002
{
1070
   284
1070
     8
1070
   271
1070
     1
1070
    45
1040
0.01
1070
   173
1070
     1
1070
     6
1000
OPEN30
1070
     7
1000
OPEN30
1070
    75
1070
     1
1002
}
  0
SPLINE
  5
258C
330
257E
100
AcDbEntity
  8
AM_0
100
AcDbSpline
210
0.0
220
0.0
230
1.0
 70
     8
 71
     3
 72
    11
 73
     7
 74
     5
 42
0.0000000001
 43
0.0000000001
 44
0.0000000001
 40
0.0
 40
0.0
 40
0.0
 40
0.0
 40
0.3059100740291535
 40
0.6745229399441227
 40
1.064528014209305
 40
1.4545275232578
 40
1.4545275232578
 40
1.4545275232578
 40
1.4545275232578
 10
23.23830795288099
 20
-12.25
 30
0.0
 10
23.13634080057918
 20
-12.24922787620677
 30
0.0
 10
22.91150615410137
 20
-12.24752536538667
 30
0.0
 10
22.55668025481681
 20
-12.2441132401896
 30
0.0
 10
22.17381167862441
 20
-12.24173313652064
 30
0.0
 10
21.91380971576035
 20
-12.24230053252964
 30
0.0
 10
21.78380966186599
 20
-12.24258422850999
 30
0.0
 11
23.23830795288099
 21
-12.25
 31
0.0
 11
22.93240737915099
 21
-12.24758911133
 31
0.0
 11
22.56380844116199
 21
-12.24438476561999
 31
0.0
 11
22.17380905151399
 21
-12.24227905272999
 31
0.0
 11
21.78380966186599
 21
-12.24258422850999
 31
0.0
  0
SPLINE
  5
258D
330
257E
100
AcDbEntity
  8
AM_0
100
AcDbSpline
210
0.0
220
0.0
230
1.0
 70
     8
 71
     3
 72
    11
 73
     7
 74
     5
 42
0.0000000001
 43
0.0000000001
 44
0.0000000001
 40
0.0
 40
0.0
 40
0.0
 40
0.0
 40
0.0086840885735989
 40
0.0285973636897987
 40
0.0582034412587723
 40
0.0961026551825902
 40
0.0961026551825902
 40
0.0961026551825902
 40
0.0961026551825902
 10
23.33430862426799
 20
-12.24740600586
 30
0.0
 10
23.33144528510143
 20
-12.24784682853653
 30
0.0
 10
23.32201609160353
 20
-12.24929849111421
 30
0.0
 10
23.30255749918933
 20
-12.24933338590889
 30
0.0
 10
23.27345201167584
 20
-12.25006343866526
 30
0.0
 10
23.25094434064405
 20
-12.2500228099884
 30
0.0
 10
23.23830795288099
 20
-12.25
 30
0.0
 11
23.33430862426799
 21
-12.24740600586
 31
0.0
 11
23.32570648193399
 21
-12.24859619139999
 31
0.0
 11
23.30580902099599
 21
-12.24938964844
 31
0.0
 11
23.27620697021499
 21
-12.24987792969
 31
0.0
 11
23.23830795288099
 21
-12.25
 31
0.0
  0
ELLIPSE
  5
258E
330
257E
100
AcDbEntity
  8
AM_0
100
AcDbEllipse
 10
16.89470291137699
 20
0.0
 30
0.0
 11
155.8002859584619
 21
0.0467376680500138
 31
0.0
210
0.0
220
0.0
230
0.9999999999999998
 40
0.0786256168633
 41
4.708935998134831
 42
4.743760582868457
  0
ELLIPSE
  5
258F
330
257E
100
AcDbEntity
  8
AM_0
100
AcDbEllipse
 10
16.89470291137699
 20
0.0001220703099989
 30
0.0
 11
155.80098786279
 21
0.0467376700299838
 31
0.0
210
0.0
220
0.0
230
1.0
 40
0.078626633772
 41
4.68652485112342
 42
4.708935991039818
  0
SPLINE
  5
2590
330
257E
100
AcDbEntity
  8
AM_0
100
AcDbSpline
210
0.0
220
0.0
230
1.0
 70
     8
 71
     3
 72
    11
 73
     7
 74
     5
 42
0.0000000001
 43
0.0000000001
 44
0.0000000001
 40
0.0
 40
0.0
 40
0.0
 40
0.0
 40
0.3059098350410936
 40
0.6745227009559759
 40
1.064527775221212
 40
1.454527284269715
 40
1.454527284269715
 40
1.454527284269715
 40
1.454527284269715
 10
23.23830795288099
 20
12.25
 30
0.0
 10
23.13634078113642
 20
12.24924053140737
 30
0.0
 10
22.91150599579928
 20
12.24756592422672
 30
0.0
 10
22.55668027886952
 20
12.24414068646042
 30
0.0
 10
22.17381167247071
 20
12.24176443987122
 30
0.0
 10
21.91380971370912
 20
12.24233131203859
 30
0.0
 10
21.78380966186599
 20
12.2426147461
 30
0.0
 11
23.23830795288099
 21
12.25
 31
0.0
 11
22.93240737915099
 21
12.24761962891
 31
0.0
 11
22.56380844116199
 21
12.24441528321
 31
0.0
 11
22.17380905151399
 21
12.24230957030999
 31
0.0
 11
21.78380966186599
 21
12.2426147461
 31
0.0
  0
ELLIPSE
  5
2591
330
257E
100
AcDbEntity
  8
AM_0
100
AcDbEllipse
 10
16.89471054077199
 20
0.0
 30
0.0
 11
-155.7999963782309
 21
0.0456011945299793
 31
0.0
210
0.0
220
0.0
230
1.0
 40
0.078625763172
 41
4.681025300888831
 42
4.71584160531941
  0
SPLINE
  5
2592
330
257E
100
AcDbEntity
  8
AM_0
100
AcDbSpline
210
0.0
220
0.0
230
1.0
 70
     8
 71
     3
 72
    11
 73
     7
 74
     5
 42
0.0000000001
 43
0.0000000001
 44
0.0000000001
 40
0.0
 40
0.0
 40
0.0
 40
0.0
 40
0.1813265704564974
 40
0.3407874884369904
 40
0.4841554757724124
 40
0.6150777570316805
 40
0.6150777570316805
 40
0.6150777570316805
 40
0.6150777570316805
 10
5.036109924316988
 20
-10.67718505858999
 30
0.0
 10
5.095859504403824
 20
-10.66719390039964
 30
0.0
 10
5.208153633618839
 20
-10.648416389207
 30
0.0
 10
5.359898697292972
 20
-10.59098377283764
 30
0.0
 10
5.48738224099225
 20
-10.52159008458766
 30
0.0
 10
5.559827210193681
 20
-10.46561935796365
 30
0.0
 10
5.59440612793
 20
-10.43890380858999
 30
0.0
 11
5.036109924316988
 21
-10.67718505858999
 31
0.0
 11
5.213806152343991
 21
-10.64108276367
 31
0.0
 11
5.363304138183991
 21
-10.58560180663999
 31
0.0
 11
5.488807678222997
 21
-10.51629638672
 31
0.0
 11
5.59440612793
 21
-10.43890380858999
 31
0.0
  0
SPLINE
  5
2593
330
257E
100
AcDbEntity
  8
AM_0
100
AcDbSpline
210
0.0
220
0.0
230
1.0
 70
     8
 71
     3
 72
    11
 73
     7
 74
     5
 42
0.0000000001
 43
0.0000000001
 44
0.0000000001
 40
0.0
 40
0.0
 40
0.0
 40
0.0
 40
0.059893382800206
 40
0.1200740468608948
 40
0.180490722618662
 40
0.2411526464048425
 40
0.2411526464048425
 40
0.2411526464048425
 40
0.2411526464048425
 10
10.76160430908198
 20
-6.714294433589998
 30
0.0
 10
10.77585076202529
 20
-6.728282515961507
 30
0.0
 10
10.80441200165375
 20
-6.756325775160497
 30
0.0
 10
10.84587226279705
 20
-6.799938742409039
 30
0.0
 10
10.88621679553271
 20
-6.844930254451094
 30
0.0
 10
10.91212292990669
 20
-6.875881147155983
 30
0.0
 10
10.92510223388698
 20
-6.891387939449998
 30
0.0
 11
10.76160430908198
 21
-6.714294433589998
 31
0.0
 11
10.80410003662099
 21
-6.756500244139999
 31
0.0
 11
10.84560394287099
 21
-6.800079345699998
 31
0.0
 11
10.88590240478599
 21
-6.845092773440001
 31
0.0
 11
10.92510223388698
 21
-6.891387939449998
 31
0.0
  0
SPLINE
  5
2594
330
257E
100
AcDbEntity
  8
AM_0
100
AcDbSpline
210
0.0
220
0.0
230
1.0
 70
     8
 71
     3
 72
    11
 73
     7
 74
     5
 42
0.0000000001
 43
0.0000000001
 44
0.0000000001
 40
0.0
 40
0.0
 40
0.0
 40
0.0
 40
0.2543698150576577
 40
0.5065422363799113
 40
0.7564226773114424
 40
1.003932859481977
 40
1.003932859481977
 40
1.003932859481977
 40
1.003932859481977
 10
9.487403869628991
 20
-6.166381835940001
 30
0.0
 10
9.572059550750116
 20
-6.173144526862053
 30
0.0
 10
9.740639608205594
 20
-6.186611488666567
 30
0.0
 10
9.986057593450496
 20
-6.248322928738264
 30
0.0
 10
10.22098724341856
 20
-6.335991386514283
 30
0.0
 10
10.36489136695938
 20
-6.418850753024747
 30
0.0
 10
10.43650054931698
 20
-6.460083007809998
 30
0.0
 11
9.487403869628991
 21
-6.166381835940001
 31
0.0
 11
9.740303039550994
 21
-6.19369506836
 31
0.0
 11
9.985404968261988
 21
-6.252990722649997
 31
0.0
 11
10.21870422363299
 21
-6.342498779289996
 31
0.0
 11
10.43650054931698
 21
-6.460083007809998
 31
0.0
  0
SPLINE
  5
2595
330
257E
100
AcDbEntity
  8
AM_0
100
AcDbSpline
210
0.0
220
0.0
230
1.0
 70
     8
 71
     3
 72
    11
 73
     7
 74
     5
 42
0.0000000001
 43
0.0000000001
 44
0.0000000001
 40
0.0
 40
0.0
 40
0.0
 40
0.0
 40
0.2703036874837126
 40
0.5411400018455711
 40
0.8120631813587804
 40
1.082837579834517
 40
1.082837579834517
 40
1.082837579834517
 40
1.082837579834517
 10
8.443000793456988
 20
-6.403198242190001
 30
0.0
 10
8.524215737623944
 20
-6.363828460001785
 30
0.0
 10
8.686805658040926
 20
-6.285011318421818
 30
0.0
 10
8.948003407077337
 20
-6.21008909381848
 30
0.0
 10
9.216126904656901
 20
-6.165073857310781
 30
0.0
 10
9.396994773514359
 20
-6.165945922903238
 30
0.0
 10
9.487403869628991
 20
-6.166381835940001
 30
0.0
 11
8.443000793456988
 21
-6.403198242190001
 31
0.0
 11
8.689506530761988
 21
-6.292297363279999
 31
0.0
 11
8.949104309081988
 21
-6.215087890619997
 31
0.0
 11
9.216705322265994
 21
-6.172790527339998
 31
0.0
 11
9.487403869628991
 21
-6.166381835940001
 31
0.0
  0
ELLIPSE
  5
2596
330
257E
100
AcDbEntity
  8
AM_0
100
AcDbEllipse
 10
5.396606445312997
 20
-6.04656982422
 30
0.0
 11
-1.499397226267006
 21
0.0425873210299983
 31
0.0
210
0.0
220
0.0
230
1.0
 40
0.1902110144793
 41
0.1515046486906716
 42
3.064547116630097
  0
ELLIPSE
  5
2597
330
257E
100
AcDbEntity
  8
AM_0
100
AcDbEllipse
 10
161.2474899291989
 20
-0.0457763671900011
 30
0.0
 11
-254.7010846712079
 21
0.0745486134799762
 31
0.0
210
0.0
220
0.0
230
1.0
 40
0.0586129720057
 41
5.353383735891504
 42
5.392189250558816
  0
ELLIPSE
  5
2598
330
257E
100
AcDbEntity
  8
AM_0
100
AcDbEllipse
 10
11.11721038818399
 20
-0.0841064453099989
 30
0.0
 11
-1.614207963601998
 21
12.15739484326997
 31
0.0
210
0.0
220
0.0
230
1.0
 40
0.0777143912311
 41
0.055594976417498
 42
0.1134651860683928
  0
ELLIPSE
  5
2599
330
257E
100
AcDbEntity
  8
AM_0
100
AcDbEllipse
 10
11.33070373535199
 20
-0.0849914550800009
 30
0.0
 11
-1.755637870871993
 21
12.15859994268999
 31
0.0
210
0.0
220
0.0
230
0.9999999999999998
 40
0.2741947134792
 41
6.258042208615252
 42
6.320064481402481
  0
ELLIPSE
  5
259A
330
257E
100
AcDbEntity
  8
AM_0
100
AcDbEllipse
 10
206.9858169555609
 20
0.0515136718800022
 30
0.0
 11
285.1886773522299
 21
0.0855560288300126
 31
0.0
210
0.0
220
0.0
230
1.0
 40
0.0586131415058
 41
3.949263341233752
 42
3.963788157276116
  0
ELLIPSE
  5
259B
330
257E
100
AcDbEntity
  8
AM_0
100
AcDbEllipse
 10
3.955909729003991
 20
-6.377014160149997
 30
0.0
 11
0.0348663242159972
 21
0.7992401015799829
 31
0.0
210
0.0
220
0.0
230
1.0
 40
0.0785044241906
 41
0.9847930180339247
 42
1.517106023907088
  0
ELLIPSE
  5
259C
330
257E
100
AcDbEntity
  8
AM_0
100
AcDbEllipse
 10
6.943809509277997
 20
-6.507385253899997
 30
0.0
 11
0.0348663242150025
 21
0.7992401015799829
 31
0.0
210
0.0
220
0.0
230
1.0
 40
0.0785044241906
 41
0.9847930180339247
 42
1.405924773372517
  0
SPLINE
  5
259D
330
257E
100
AcDbEntity
  8
AM_0
100
AcDbSpline
210
0.0
220
0.0
230
1.0
 70
     8
 71
     3
 72
    11
 73
     7
 74
     5
 42
0.0000000001
 43
0.0000000001
 44
0.0000000001
 40
0.0
 40
0.0
 40
0.0
 40
0.0
 40
0.3065641301705471
 40
0.5662522029979794
 40
0.7393989452216246
 40
0.8002166195869607
 40
0.8002166195869607
 40
0.8002166195869607
 40
0.8002166195869607
 10
1.245002746581988
 20
-6.258605957029999
 30
0.0
 10
1.249443727948987
 20
-6.156506538338591
 30
0.0
 10
1.257646629838184
 20
-5.967919501992691
 30
0.0
 10
1.265153834163859
 20
-5.72163720040702
 30
0.0
 10
1.272935884173815
 20
-5.557107562179806
 30
0.0
 10
1.270058068755284
 20
-5.479155898795556
 30
0.0
 10
1.269309997558991
 20
-5.458892822259997
 30
0.0
 11
1.245002746581988
 21
-6.258605957029999
 31
0.0
 11
1.257606506347997
 21
-5.952301025389999
 31
0.0
 11
1.266906738281988
 21
-5.692779541009997
 31
0.0
 11
1.271110534667997
 21
-5.519683837889999
 31
0.0
 11
1.269309997558991
 21
-5.458892822259997
 31
0.0
  0
SPLINE
  5
259E
330
257E
100
AcDbEntity
  8
AM_0
100
AcDbSpline
210
0.0
220
0.0
230
1.0
 70
     8
 71
     3
 72
    13
 73
     9
 74
     7
 42
0.0000000001
 43
0.0000000001
 44
0.0000000001
 40
0.0
 40
0.0
 40
0.0
 40
0.0
 40
0.0075014690545401
 40
0.0442820394490187
 40
0.2959885115428607
 40
1.479937841407584
 40
4.198568293454234
 40
5.76617100383363
 40
5.76617100383363
 40
5.76617100383363
 40
5.76617100383363
 10
23.33430862426799
 20
-12.24740600586
 30
0.0
 10
23.33629538795296
 20
-12.24569078809476
 30
0.0
 10
23.34802348377443
 20
-12.23556565924442
 30
0.0
 10
23.27229724267647
 20
-12.12959406331871
 30
0.0
 10
22.93438369475938
 20
-11.87067994704422
 30
0.0
 10
21.76268527002214
 20
-10.97938802444003
 30
0.0
 10
20.28796532778001
 20
-9.993612042076225
 30
0.0
 10
19.09800959982734
 20
-9.193145135664508
 30
0.0
 10
18.66280746459999
 20
-8.900390625
 30
0.0
 11
23.33430862426799
 21
-12.24740600586
 31
0.0
 11
23.33960723876999
 21
-12.24209594725999
 31
0.0
 11
23.32740783691399
 21
-12.20739746094
 31
0.0
 11
23.14600753784199
 21
-12.03289794922
 31
0.0
 11
22.20000839233399
 21
-11.32098388672
 31
0.0
 11
19.96380996704099
 21
-9.77490234375
 31
0.0
 11
18.66280746459999
 21
-8.900390625
 31
0.0
  0
SPLINE
  5
259F
330
257E
100
AcDbEntity
  8
AM_0
100
AcDbSpline
210
0.0
220
0.0
230
1.0
 70
     8
 71
     3
 72
    11
 73
     7
 74
     5
 42
0.0000000001
 43
0.0000000001
 44
0.0000000001
 40
0.0
 40
0.0
 40
0.0
 40
0.0
 40
1.501559613970697
 40
3.077735778844957
 40
4.703546366782386
 40
6.355210511305648
 40
6.355210511305648
 40
6.355210511305648
 40
6.355210511305648
 10
18.66280746459999
 20
-8.900390625
 30
0.0
 10
18.23913786925339
 20
-8.63323913840939
 30
0.0
 10
17.3707453926078
 20
-8.085660686643981
 30
0.0
 10
15.95830195760181
 20
-7.399513579035244
 30
0.0
 10
14.45450335344232
 20
-6.795606791455782
 30
0.0
 10
13.40001152955188
 20
-6.506765784122811
 30
0.0
 10
12.86860656738299
 20
-6.361206054690001
 30
0.0
 11
18.66280746459999
 21
-8.900390625
 31
0.0
 11
17.37850952148499
 21
-8.12240600586
 31
0.0
 11
15.96580886840899
 21
-7.423400878899997
 31
0.0
 11
14.45290756225599
 21
-6.828094482419999
 31
0.0
 11
12.86860656738299
 21
-6.361206054690001
 31
0.0
  0
SPLINE
  5
25A0
330
257E
100
AcDbEntity
  8
AM_0
100
AcDbSpline
210
0.0
220
0.0
230
1.0
 70
     8
 71
     3
 72
    11
 73
     7
 74
     5
 42
0.0000000001
 43
0.0000000001
 44
0.0000000001
 40
0.0
 40
0.0
 40
0.0
 40
0.0
 40
0.1841985886199716
 40
0.3873202971576629
 40
0.6166264834978077
 40
0.8685236645990855
 40
0.8685236645990855
 40
0.8685236645990855
 40
0.8685236645990855
 10
4.038002014160994
 20
10.38290405274
 30
0.0
 10
4.087909796878498
 20
10.41883506357682
 30
0.0
 10
4.192852496914627
 20
10.49438835580755
 30
0.0
 10
4.378047840085268
 20
10.58520681565717
 30
0.0
 10
4.595191878886886
 20
10.65979870205006
 30
0.0
 10
4.755294322270768
 20
10.67601859449098
 30
0.0
 10
4.839103698730994
 20
10.68450927735
 30
0.0
 11
4.038002014160994
 21
10.38290405274
 31
0.0
 11
4.190299987792997
 21
10.48651123047
 31
0.0
 11
4.371803283691988
 21
10.57769775391
 31
0.0
 11
4.589706420898991
 21
10.64910888672
 31
0.0
 11
4.839103698730994
 21
10.68450927735
 31
0.0
  0
SPLINE
  5
25A1
330
257E
100
AcDbEntity
  8
AM_0
100
AcDbSpline
210
0.0
220
0.0
230
1.0
 70
     8
 71
     3
 72
    11
 73
     7
 74
     5
 42
0.0000000001
 43
0.0000000001
 44
0.0000000001
 40
0.0
 40
0.0
 40
0.0
 40
0.0
 40
0.2471242551756548
 40
0.4620138790577368
 40
0.6469521203592736
 40
0.8118100138541151
 40
0.8118100138541151
 40
0.8118100138541151
 40
0.8118100138541151
 10
4.839103698730994
 20
10.68450927735
 30
0.0
 10
4.921817450213088
 20
10.68351150238303
 30
0.0
 10
5.076455857303065
 20
10.68164610117995
 30
0.0
 10
5.285960087362543
 20
10.62318453391551
 30
0.0
 10
5.457794939369819
 20
10.54338577483826
 30
0.0
 10
5.550645792761469
 20
10.47237226685618
 30
0.0
 10
5.59440612793
 20
10.4389038086
 30
0.0
 11
4.839103698730994
 21
10.68450927735
 31
0.0
 11
5.085807800292997
 21
10.67010498047
 31
0.0
 11
5.293403625488991
 21
10.61459350586
 31
0.0
 11
5.460105895995994
 21
10.53451538086
 31
0.0
 11
5.59440612793
 21
10.4389038086
 31
0.0
  0
SPLINE
  5
25A2
330
257E
100
AcDbEntity
  8
AM_0
100
AcDbSpline
210
0.0
220
0.0
230
1.0
 70
     8
 71
     3
 72
    11
 73
     7
 74
     5
 42
0.0000000001
 43
0.0000000001
 44
0.0000000001
 40
0.0
 40
0.0
 40
0.0
 40
0.0
 40
1.48880963195299
 40
3.014200918905995
 40
4.5854213149286
 40
6.197743145554409
 40
6.197743145554409
 40
6.197743145554409
 40
6.197743145554409
 10
18.66280746459999
 20
8.41702270508
 30
0.0
 10
18.24194365244925
 20
8.681951197009222
 30
0.0
 10
17.3898749513253
 20
9.218317759045715
 30
0.0
 10
15.95829468040995
 20
9.774236125734809
 30
0.0
 10
14.44557824924049
 20
10.19995118146129
 30
0.0
 10
13.39876877351997
 20
10.37848379811951
 30
0.0
 10
12.86860656738299
 20
10.46890258789
 30
0.0
 11
18.66280746459999
 21
8.41702270508
 31
0.0
 11
17.37850952148499
 21
9.17010498047
 31
0.0
 11
15.96580886840899
 21
9.745513916020001
 31
0.0
 11
14.45290756225599
 21
10.16961669922
 31
0.0
 11
12.86860656738299
 21
10.46890258789
 31
0.0
  0
SPLINE
  5
25A3
330
257E
100
AcDbEntity
  8
AM_0
100
AcDbSpline
210
0.0
220
0.0
230
1.0
 70
     8
 71
     3
 72
    11
 73
     7
 74
     5
 42
0.0000000001
 43
0.0000000001
 44
0.0000000001
 40
0.0
 40
0.0
 40
0.0
 40
0.0
 40
0.4471226869440373
 40
0.9058691764969461
 40
1.366237298498897
 40
1.826746628828026
 40
1.826746628828026
 40
1.826746628828026
 40
1.826746628828026
 10
23.33430862426799
 20
0.2541198730500014
 30
0.0
 10
23.27284768280058
 20
0.1116445517517329
 30
0.0
 10
23.14832800607753
 20
-0.1770100071518152
 30
0.0
 10
22.69359647350531
 20
-0.3492087417827676
 30
0.0
 10
22.2468984833757
 20
-0.4410520302701314
 30
0.0
 10
21.93818838168092
 20
-0.431278910670225
 30
0.0
 10
21.78380966186599
 20
-0.4263916015599989
 30
0.0
 11
23.33430862426799
 21
0.2541198730500014
 31
0.0
 11
23.10680770874099
 21
-0.1307983398399983
 31
0.0
 11
22.69620895385799
 21
-0.3353881835899983
 31
0.0
 11
22.24430847167999
 21
-0.4232788085899984
 31
0.0
 11
21.78380966186599
 21
-0.4263916015599989
 31
0.0
  0
ELLIPSE
  5
25A4
330
257E
100
AcDbEntity
  8
AM_0
100
AcDbEllipse
 10
11.11721038818399
 20
0.0504150390599989
 30
0.0
 11
0.9782833371390042
 21
12.15719568162001
 31
0.0
210
0.0
220
0.0
230
1.0
 40
0.1310948025444
 41
1.647461508734963
 42
1.705127944940719
  0
ELLIPSE
  5
25A5
330
257E
100
AcDbEntity
  8
AM_0
100
AcDbEllipse
 10
11.33070373535199
 20
0.17822265625
 30
0.0
 11
3.455025169980004
 21
12.16175816950999
 31
0.0
210
0.0
220
0.0
230
1.0
 40
0.1234908239334
 41
1.578108089719601
 42
1.682438595621166
  0
SPLINE
  5
25A6
330
257E
100
AcDbEntity
  8
AM_0
100
AcDbSpline
210
0.0
220
0.0
230
1.0
 70
     8
 71
     3
 72
    11
 73
     7
 74
     5
 42
0.0000000001
 43
0.0000000001
 44
0.0000000001
 40
0.0
 40
0.0
 40
0.0
 40
0.0
 40
0.474573617972398
 40
0.9674480599661759
 40
1.466323348249793
 40
1.946277339440428
 40
1.946277339440428
 40
1.946277339440428
 40
1.946277339440428
 10
4.038002014160994
 20
-5.579803466789996
 30
0.0
 10
4.139508349410304
 20
-5.458384153726048
 30
0.0
 10
4.346435374833225
 20
-5.210863275157163
 30
0.0
 10
4.838835994201641
 20
-4.999670625129294
 30
0.0
 10
5.323335239816765
 20
-5.242334119184505
 30
0.0
 10
5.505221149419629
 20
-5.514395491245794
 30
0.0
 10
5.59440612793
 20
-5.64779663086
 30
0.0
 11
4.038002014160994
 21
-5.579803466789996
 31
0.0
 11
4.370903015136988
 21
-5.241577148440001
 31
0.0
 11
4.835205078125
 21
-5.07620239258
 31
0.0
 11
5.293106079101988
 21
-5.274200439449998
 31
0.0
 11
5.59440612793
 21
-5.64779663086
 31
0.0
  0
SPLINE
  5
25A7
330
257E
100
AcDbEntity
  8
AM_0
100
AcDbSpline
210
0.0
220
0.0
230
1.0
 70
     8
 71
     3
 72
    11
 73
     7
 74
     5
 42
0.0000000001
 43
0.0000000001
 44
0.0000000001
 40
0.0
 40
0.0
 40
0.0
 40
0.0
 40
0.1144427777419535
 40
0.2296230859725631
 40
0.3451841123271572
 40
0.4605540879242167
 40
0.4605540879242167
 40
0.4605540879242167
 40
0.4605540879242167
 10
0.0000076293950002
 20
12.21569824219
 30
0.0
 10
0.0002549602205079
 20
12.25411125847415
 30
0.0
 10
0.0007512158036892
 20
12.33118484507102
 30
0.0
 10
0.042393952829437
 20
12.44073909965424
 30
0.0
 10
0.1133750988266356
 20
12.53493924947328
 30
0.0
 10
0.1802814637794756
 20
12.57432003690709
 30
0.0
 10
0.2137069702150001
 20
12.59399414063
 30
0.0
 11
0.0000076293950002
 21
12.21569824219
 31
0.0
 11
0.0075073242189916
 21
12.32989501952999
 31
0.0
 11
0.0472030639650001
 21
12.43801879883
 31
0.0
 11
0.1183090209959943
 21
12.52911376953
 31
0.0
 11
0.2137069702150001
 21
12.59399414063
 31
0.0
  0
SPLINE
  5
25A8
330
257E
100
AcDbEntity
  8
AM_0
100
AcDbSpline
210
0.0
220
0.0
230
1.0
 70
     8
 71
     3
 72
    11
 73
     7
 74
     5
 42
0.0000000001
 43
0.0000000001
 44
0.0000000001
 40
0.0
 40
0.0
 40
0.0
 40
0.0
 40
2.187197139595289
 40
4.371423263286421
 40
6.5525812250108
 40
8.730572014093194
 40
8.730572014093194
 40
8.730572014093194
 40
8.730572014093194
 10
0.3659057617189916
 20
12.63049316405999
 30
0.0
 10
1.094767267470137
 20
12.64775332289128
 30
0.0
 10
2.55150021772632
 20
12.68225019492773
 30
0.0
 10
4.735173276175531
 20
12.72998653623858
 30
0.0
 10
6.91583996153083
 20
12.77474489725752
 30
0.0
 10
8.36863537373088
 20
12.8019357111433
 30
0.0
 10
9.094505310058991
 20
12.81552124024
 30
0.0
 11
0.3659057617189916
 21
12.63049316405999
 31
0.0
 11
2.552505493163991
 21
12.68161010742
 31
0.0
 11
4.736206054687997
 21
12.72952270508
 31
0.0
 11
6.916908264160994
 21
12.77410888672
 31
0.0
 11
9.094505310058991
 21
12.81552124024
 31
0.0
  0
SPLINE
  5
25A9
330
257E
100
AcDbEntity
  8
AM_0
100
AcDbSpline
210
0.0
220
0.0
230
1.0
 70
     8
 71
     3
 72
    11
 73
     7
 74
     5
 42
0.0000000001
 43
0.0000000001
 44
0.0000000001
 40
0.0
 40
0.0
 40
0.0
 40
0.0
 40
1.051173975236023
 40
2.102438435157288
 40
3.153882703288664
 40
4.205343197452143
 40
4.205343197452143
 40
4.205343197452143
 40
4.205343197452143
 10
0.7218093872069887
 20
6.93310546875
 30
0.0
 10
0.6684408160204566
 20
7.279408625428361
 30
0.0
 10
0.5616990796995977
 20
7.972044748438739
 30
0.0
 10
0.4015922679416834
 20
9.011075727417999
 30
0.0
 10
0.24148473085083
 20
10.05020323034802
 30
0.0
 10
0.1348317324474407
 20
10.74301029748748
 30
0.0
 10
0.0815048217779975
 20
11.08941650391
 30
0.0
 11
0.7218093872069887
 21
6.93310546875
 31
0.0
 11
0.5617065429689916
 21
7.97201538086
 31
0.0
 11
0.4016036987309946
 21
9.011016845710003
 31
0.0
 11
0.2415084838869888
 21
10.05020141602
 31
0.0
 11
0.0815048217779975
 21
11.08941650391
 31
0.0
  0
SPLINE
  5
25AA
330
257E
100
AcDbEntity
  8
AM_0
100
AcDbSpline
210
0.0
220
0.0
230
1.0
 70
     8
 71
     3
 72
    11
 73
     7
 74
     5
 42
0.0000000001
 43
0.0000000001
 44
0.0000000001
 40
0.0
 40
0.0
 40
0.0
 40
0.0
 40
0.188165972227416
 40
0.3762239163905928
 40
0.5640399633431984
 40
0.7511781494839825
 40
0.7511781494839825
 40
0.7511781494839825
 40
0.7511781494839825
 10
1.154205322265994
 20
6.352508544919999
 30
0.0
 10
1.099447169610297
 20
6.383763342155002
 30
0.0
 10
0.9899623015304207
 20
6.446254992917101
 30
0.0
 10
0.8604257914956747
 20
6.585766067590927
 30
0.0
 10
0.7636552753148486
 20
6.749430144670371
 30
0.0
 10
0.7357411950912232
 20
6.871954195737079
 30
0.0
 10
0.7218093872069887
 20
6.93310546875
 30
0.0
 11
1.154205322265994
 21
6.352508544919999
 31
0.0
 11
0.9957046508789915
 21
6.453918457029999
 31
0.0
 11
0.86580657959
 21
6.589904785160001
 31
0.0
 11
0.772705078125
 21
6.753021240240002
 31
0.0
 11
0.7218093872069887
 21
6.93310546875
 31
0.0
  0
SPLINE
  5
25AB
330
257E
100
AcDbEntity
  8
AM_0
100
AcDbSpline
210
0.0
220
0.0
230
1.0
 70
     8
 71
     3
 72
    11
 73
     7
 74
     5
 42
0.0000000001
 43
0.0000000001
 44
0.0000000001
 40
0.0
 40
0.0
 40
0.0
 40
0.0
 40
0.2877001883215623
 40
0.5765352676510211
 40
0.8648768724053301
 40
1.151015227170149
 40
1.151015227170149
 40
1.151015227170149
 40
1.151015227170149
 10
9.094505310058991
 20
12.81552124024
 30
0.0
 10
9.1912610697056
 20
12.80887587664984
 30
0.0
 10
9.385154261469129
 20
12.79555893550203
 30
0.0
 10
9.643114822603317
 20
12.65043278418016
 30
0.0
 10
9.844120646746695
 20
12.43308355665038
 30
0.0
 10
9.898778425188606
 20
12.24713046133307
 30
0.0
 10
9.926002502441988
 20
12.15451049805
 30
0.0
 11
9.094505310058991
 21
12.81552124024
 31
0.0
 11
9.379310607910994
 21
12.77481079102
 31
0.0
 11
9.633804321288991
 21
12.63821411133
 31
0.0
 11
9.82470703125
 21
12.42211914063
 31
0.0
 11
9.926002502441988
 21
12.15451049805
 31
0.0
  0
SPLINE
  5
25AC
330
257E
100
AcDbEntity
  8
AM_0
100
AcDbSpline
210
0.0
220
0.0
230
1.0
 70
     8
 71
     3
 72
    11
 73
     7
 74
     5
 42
0.0000000001
 43
0.0000000001
 44
0.0000000001
 40
0.0
 40
0.0
 40
0.0
 40
0.0
 40
0.0620986754022746
 40
0.12456281478069
 40
0.1872490792798766
 40
0.249692623075629
 40
0.249692623075629
 40
0.249692623075629
 40
0.249692623075629
 10
0.7987060546879974
 20
11.96099853516
 30
0.0
 10
0.7810173121448436
 20
11.95013819755525
 30
0.0
 10
0.7455357250283255
 20
11.92835360693794
 30
0.0
 10
0.70043491421778
 20
11.88464434070925
 30
0.0
 10
0.6619802093110055
 20
11.83484537512531
 30
0.0
 10
0.6441867728313779
 20
11.79699511131612
 30
0.0
 10
0.6353073120119888
 20
11.77810668946
 30
0.0
 11
0.7987060546879974
 21
11.96099853516
 31
0.0
 11
0.7470016479500004
 21
11.92660522461
 31
0.0
 11
0.7016067504889918
 21
11.88369750977
 31
0.0
 11
0.6639022827150001
 21
11.83361816406
 31
0.0
 11
0.6353073120119888
 21
11.77810668946
 31
0.0
  0
SPLINE
  5
25AD
330
257E
100
AcDbEntity
  8
AM_0
100
AcDbSpline
210
0.0
220
0.0
230
1.0
 70
     8
 71
     3
 72
    11
 73
     7
 74
     5
 42
0.0000000001
 43
0.0000000001
 44
0.0000000001
 40
0.0
 40
0.0
 40
0.0
 40
0.0
 40
0.0265135949926538
 40
0.0528728560951892
 40
0.0791717896151849
 40
0.1056602959047656
 40
0.1056602959047656
 40
0.1056602959047656
 40
0.1056602959047656
 10
0.6353073120119888
 20
11.77810668946
 30
0.0
 10
0.6321569076119089
 20
11.76984572595209
 30
0.0
 10
0.6258744371082587
 20
11.75337188546075
 30
0.0
 10
0.6185473458207355
 20
11.72799264639554
 30
0.0
 10
0.6128011577036477
 20
11.70221335512236
 30
0.0
 10
0.6105401042874758
 20
11.68475526584819
 30
0.0
 10
0.6094055175779971
 20
11.67599487305
 30
0.0
 11
0.6353073120119888
 21
11.77810668946
 31
0.0
 11
0.6262054443359944
 21
11.75320434571
 31
0.0
 11
0.6188049316409945
 21
11.72790527344
 31
0.0
 11
0.6132049560550002
 21
11.70220947266
 31
0.0
 11
0.6094055175779971
 21
11.67599487305
 31
0.0
  0
SPLINE
  5
25AE
330
257E
100
AcDbEntity
  8
AM_0
100
AcDbSpline
210
0.0
220
0.0
230
1.0
 70
     8
 71
     3
 72
    11
 73
     7
 74
     5
 42
0.0000000001
 43
0.0000000001
 44
0.0000000001
 40
0.0
 40
0.0
 40
0.0
 40
0.0
 40
0.048550647650632
 40
0.0966011849486632
 40
0.1449503140912897
 40
0.1940790376146199
 40
0.1940790376146199
 40
0.1940790376146199
 40
0.1940790376146199
 10
0.9846038818359943
 20
12.01040649414
 30
0.0
 10
0.9684245035877541
 20
12.00951036888268
 30
0.0
 10
0.9362324075778403
 20
12.00772734917217
 30
0.0
 10
0.8887887569005242
 20
11.99781733247801
 30
0.0
 10
0.8424942333540879
 20
11.98283390956466
 30
0.0
 10
0.8133797301750986
 20
11.96831569718668
 30
0.0
 10
0.7987060546879974
 20
11.96099853516
 30
0.0
 11
0.9846038818359943
 21
12.01040649414
 31
0.0
 11
0.9362106323250003
 21
12.00650024414
 31
0.0
 11
0.8891067504889917
 21
11.99700927735
 31
0.0
 11
0.8432083129889917
 21
11.98181152344
 31
0.0
 11
0.7987060546879974
 21
11.96099853516
 31
0.0
  0
SPLINE
  5
25AF
330
257E
100
AcDbEntity
  8
AM_0
100
AcDbSpline
210
0.0
220
0.0
230
1.0
 70
     8
 71
     3
 72
    11
 73
     7
 74
     5
 42
0.0000000001
 43
0.0000000001
 44
0.0000000001
 40
0.0
 40
0.0
 40
0.0
 40
0.0
 40
0.0614891377699555
 40
0.1225465301325923
 40
0.1833609656272973
 40
0.2444130267555783
 40
0.2444130267555783
 40
0.2444130267555783
 40
0.2444130267555783
 10
0.9662094116209942
 20
7.209411621100002
 30
0.0
 10
0.9744411822674045
 20
7.190628982554029
 30
0.0
 10
0.9908469242594122
 20
7.153195587583438
 30
0.0
 10
1.020750644120025
 20
7.099798894195406
 30
0.0
 10
1.054231953011362
 20
7.048739154243488
 30
0.0
 10
1.07979776142375
 20
7.017141759081706
 30
0.0
 10
1.092605590820994
 20
7.00131225586
 30
0.0
 11
0.9662094116209942
 21
7.209411621100002
 31
0.0
 11
0.9918060302739917
 21
7.15350341797
 31
0.0
 11
1.021400451660994
 21
7.10009765625
 31
0.0
 11
1.055000305175994
 21
7.049407958990002
 31
0.0
 11
1.092605590820994
 21
7.00131225586
 31
0.0
  0
SPLINE
  5
25B0
330
257E
100
AcDbEntity
  8
AM_0
100
AcDbSpline
210
0.0
220
0.0
230
1.0
 70
     8
 71
     3
 72
    11
 73
     7
 74
     5
 42
0.0000000001
 43
0.0000000001
 44
0.0000000001
 40
0.0
 40
0.0
 40
0.0
 40
0.0
 40
0.0523907650520764
 40
0.1044364037383051
 40
0.1565383852738547
 40
0.2088210467586326
 40
0.2088210467586326
 40
0.2088210467586326
 40
0.2088210467586326
 10
0.9127044677739917
 20
7.410705566410001
 30
0.0
 10
0.9152922535266025
 20
7.393427264351956
 30
0.0
 10
0.9204507778844595
 20
7.358984481776579
 30
0.0
 10
0.9325652653231452
 20
7.308181348543085
 30
0.0
 10
0.9473501467745368
 20
7.258131780875334
 30
0.0
 10
0.9599157400541423
 20
7.225670403550267
 30
0.0
 10
0.9662094116209942
 20
7.209411621100002
 30
0.0
 11
0.9127044677739917
 21
7.410705566410001
 31
0.0
 11
0.9212036132819889
 21
7.359008789059998
 31
0.0
 11
0.9330062866209942
 21
7.308319091800001
 31
0.0
 11
0.9480056762700002
 21
7.258422851559998
 31
0.0
 11
0.9662094116209942
 21
7.209411621100002
 31
0.0
  0
SPLINE
  5
25B1
330
257E
100
AcDbEntity
  8
AM_0
100
AcDbSpline
210
0.0
220
0.0
230
1.0
 70
     8
 71
     3
 72
    11
 73
     7
 74
     5
 42
0.0000000001
 43
0.0000000001
 44
0.0000000001
 40
0.0
 40
0.0
 40
0.0
 40
0.0
 40
0.0213096309834476
 40
0.0426987321020857
 40
0.0640824156390202
 40
0.0854195121024956
 40
0.0854195121024956
 40
0.0854195121024956
 40
0.0854195121024956
 10
1.120002746581988
 20
7.369018554690001
 30
0.0
 10
1.117996941872846
 20
7.375833068677005
 30
0.0
 10
1.113977852194977
 20
7.389487510059075
 30
0.0
 10
1.108668412482162
 20
7.410183528995797
 30
0.0
 10
1.104164861609901
 20
7.431080261047819
 30
0.0
 10
1.101722075356629
 20
7.445110466949334
 30
0.0
 10
1.100502014160994
 20
7.452117919919999
 30
0.0
 11
1.120002746581988
 21
7.369018554690001
 31
0.0
 11
1.11410522461
 21
7.38949584961
 31
0.0
 11
1.108802795410994
 21
7.410217285160001
 31
0.0
 11
1.104301452636988
 21
7.431121826169999
 31
0.0
 11
1.100502014160994
 21
7.452117919919999
 31
0.0
  0
SPLINE
  5
25B2
330
257E
100
AcDbEntity
  8
AM_0
100
AcDbSpline
210
0.0
220
0.0
230
1.0
 70
     8
 71
     3
 72
    11
 73
     7
 74
     5
 42
0.0000000001
 43
0.0000000001
 44
0.0000000001
 40
0.0
 40
0.0
 40
0.0
 40
0.0
 40
0.0436189106352409
 40
0.087209471486398
 40
0.1308283821216598
 40
0.174447292756901
 40
0.174447292756901
 40
0.174447292756901
 40
0.174447292756901
 10
8.514205932617997
 20
12.13101196289
 30
0.0
 10
8.514494729154634
 20
12.14554874866567
 30
0.0
 10
8.515072134526764
 20
12.17461287214204
 30
0.0
 10
8.516141500017495
 20
12.21820935467057
 30
0.0
 10
8.516997004716646
 20
12.26181049700372
 30
0.0
 10
8.517603127548884
 20
12.29088344692124
 30
0.0
 10
8.517906188965
 20
12.30541992188
 30
0.0
 11
8.514205932617997
 21
12.13101196289
 31
0.0
 11
8.515106201171988
 21
12.17462158203
 31
0.0
 11
8.516105651855994
 21
12.2182006836
 31
0.0
 11
8.517005920410994
 21
12.26181030274
 31
0.0
 11
8.517906188965
 21
12.30541992188
 31
0.0
  0
SPLINE
  5
25B3
330
257E
100
AcDbEntity
  8
AM_0
100
AcDbSpline
210
0.0
220
0.0
230
1.0
 70
     8
 71
     3
 72
    11
 73
     7
 74
     5
 42
0.0000000001
 43
0.0000000001
 44
0.0000000001
 40
0.0
 40
0.0
 40
0.0
 40
0.0
 40
0.0648843978438372
 40
0.1287719367940352
 40
0.1922528805432052
 40
0.2562579738841789
 40
0.2562579738841789
 40
0.2562579738841789
 40
0.2562579738841789
 10
8.765403747558991
 20
12.08972167969
 30
0.0
 10
8.744963670748154
 20
12.09684637935189
 30
0.0
 10
8.704397550592652
 20
12.11098631753464
 30
0.0
 10
8.641606631446776
 20
12.12449024206433
 30
0.0
 10
8.578088758596532
 20
12.13187593746088
 30
0.0
 10
8.535558494642335
 20
12.13130074270412
 30
0.0
 10
8.514205932617997
 20
12.13101196289
 30
0.0
 11
8.765403747558991
 21
12.08972167969
 31
0.0
 11
8.703704833985
 21
12.1098022461
 31
0.0
 11
8.641304016113991
 21
12.12350463866999
 31
0.0
 11
8.57820892334
 21
12.13049316405999
 31
0.0
 11
8.514205932617997
 21
12.13101196289
 31
0.0
  0
SPLINE
  5
25B4
330
257E
100
AcDbEntity
  8
AM_0
100
AcDbSpline
210
0.0
220
0.0
230
1.0
 70
     8
 71
     3
 72
    11
 73
     7
 74
     5
 42
0.0000000001
 43
0.0000000001
 44
0.0000000001
 40
0.0
 40
0.0
 40
0.0
 40
0.0
 40
0.0866038970921403
 40
0.1717703088167586
 40
0.2565764624418331
 40
0.3418733608069257
 40
0.3418733608069257
 40
0.3418733608069257
 40
0.3418733608069257
 10
8.882102966308991
 20
12.28451538086
 30
0.0
 10
8.8549216811942
 20
12.29431863082338
 30
0.0
 10
8.801010276569577
 20
12.31376241257176
 30
0.0
 10
8.717259187348298
 20
12.33210049776503
 30
0.0
 10
8.632511588342179
 20
12.34192709194658
 30
0.0
 10
8.575765017440511
 20
12.34078343775056
 30
0.0
 10
8.547309875488991
 20
12.34020996094
 30
0.0
 11
8.882102966308991
 21
12.28451538086
 31
0.0
 11
8.800010681152997
 21
12.31210327149
 31
0.0
 11
8.716903686523991
 21
12.33071899413999
 31
0.0
 11
8.632606506347997
 21
12.33999633789
 31
0.0
 11
8.547309875488991
 21
12.34020996094
 31
0.0
  0
SPLINE
  5
25B5
330
257E
100
AcDbEntity
  8
AM_0
100
AcDbSpline
210
0.0
220
0.0
230
1.0
 70
     8
 71
     3
 72
    11
 73
     7
 74
     5
 42
0.0000000001
 43
0.0000000001
 44
0.0000000001
 40
0.0
 40
0.0
 40
0.0
 40
0.0
 40
0.0599909552739234
 40
0.1191126492127493
 40
0.1778919135766885
 40
0.2369774367687816
 40
0.2369774367687816
 40
0.2369774367687816
 40
0.2369774367687816
 10
8.765403747558991
 20
12.08972167969
 30
0.0
 10
8.783820275034535
 20
12.08188548928079
 30
0.0
 10
8.820386476837708
 20
12.06632665386776
 30
0.0
 10
8.871777720786408
 20
12.03650094078425
 30
0.0
 10
8.920101024552877
 20
12.00242150933279
 30
0.0
 10
8.949014369428542
 20
11.97576515349118
 30
0.0
 10
8.963508605956988
 20
11.96240234375
 30
0.0
 11
8.765403747558991
 21
12.08972167969
 31
0.0
 11
8.820106506347997
 21
12.06509399414
 31
0.0
 11
8.871406555175994
 21
12.03570556641
 31
0.0
 11
8.919204711913991
 21
12.00149536133
 31
0.0
 11
8.963508605956988
 21
11.96240234375
 31
0.0
  0
SPLINE
  5
25B6
330
257E
100
AcDbEntity
  8
AM_0
100
AcDbSpline
210
0.0
220
0.0
230
1.0
 70
     8
 71
     3
 72
    11
 73
     7
 74
     5
 42
0.0000000001
 43
0.0000000001
 44
0.0000000001
 40
0.0
 40
0.0
 40
0.0
 40
0.0
 40
0.0937082429227402
 40
0.1857285109477545
 40
0.277167273880801
 40
0.3695791414559685
 40
0.3695791414559685
 40
0.3695791414559685
 40
0.3695791414559685
 10
9.178901672363991
 20
12.06991577149
 30
0.0
 10
9.157787469234133
 20
12.09299038256146
 30
0.0
 10
9.115939394989588
 20
12.13872395968695
 30
0.0
 10
9.043802835242196
 20
12.1968963827289
 30
0.0
 10
8.966326971723439
 20
12.24697171632853
 30
0.0
 10
8.910276524750718
 20
12.27195674485606
 30
0.0
 10
8.882102966308991
 20
12.28451538086
 30
0.0
 11
9.178901672363991
 21
12.06991577149
 31
0.0
 11
9.113906860351988
 21
12.1374206543
 31
0.0
 11
9.042701721191988
 21
12.19570922852
 31
0.0
 11
8.965507507325
 21
12.24472045899
 31
0.0
 11
8.882102966308991
 21
12.28451538086
 31
0.0
  0
SPLINE
  5
25B7
330
257E
100
AcDbEntity
  8
AM_0
100
AcDbSpline
210
0.0
220
0.0
230
1.0
 70
     8
 71
     3
 72
    11
 73
     7
 74
     5
 42
0.0000000001
 43
0.0000000001
 44
0.0000000001
 40
0.0
 40
0.0
 40
0.0
 40
0.0
 40
0.0291772476281149
 40
0.0582735618843947
 40
0.0874224272720034
 40
0.1167157774419971
 40
0.1167157774419971
 40
0.1167157774419971
 40
0.1167157774419971
 10
9.247200012206988
 20
11.97540283202999
 30
0.0
 10
9.242039005521611
 20
11.98364813604852
 30
0.0
 10
9.231731308020487
 20
12.00011587283108
 30
0.0
 10
9.21500708635712
 20
12.02399062124192
 30
0.0
 10
9.197583989294386
 20
12.04740921064163
 30
0.0
 10
9.185139366818805
 20
12.06240122978065
 30
0.0
 10
9.178901672363991
 20
12.06991577149
 30
0.0
 11
9.247200012206988
 21
11.97540283202999
 31
0.0
 11
9.231506347656988
 21
12.0
 31
0.0
 11
9.214904785156988
 21
12.02389526366999
 31
0.0
 11
9.197410583495994
 21
12.04721069336
 31
0.0
 11
9.178901672363991
 21
12.06991577149
 31
0.0
  0
SPLINE
  5
25B8
330
257E
100
AcDbEntity
  8
AM_0
100
AcDbSpline
210
0.0
220
0.0
230
1.0
 70
     8
 71
     3
 72
    11
 73
     7
 74
     5
 42
0.0000000001
 43
0.0000000001
 44
0.0000000001
 40
0.0
 40
0.0
 40
0.0
 40
0.0
 40
0.0193900307808572
 40
0.0622852585432121
 40
0.1323194870882747
 40
0.2244249556128194
 40
0.2244249556128194
 40
0.2244249556128194
 40
0.2244249556128194
 10
-0.0008926391599999
 20
-2.748596191399997
 30
0.0
 10
0.0025084930977852
 20
-2.754370293476536
 30
0.0
 10
0.0134337156727256
 20
-2.772918043336077
 30
0.0
 10
0.062836691014573
 20
-2.776453072404488
 30
0.0
 10
0.1280575799870501
 20
-2.783829368984826
 30
0.0
 10
0.1826787412323509
 20
-2.781892499241549
 30
0.0
 10
0.2137069702150001
 20
-2.78079223633
 30
0.0
 11
-0.0008926391599999
 21
-2.748596191399997
 31
0.0
 11
0.0105056762700002
 21
-2.764282226559998
 31
0.0
 11
0.0518035888679975
 21
-2.77587890625
 31
0.0
 11
0.1216049194339916
 21
-2.78158569336
 31
0.0
 11
0.2137069702150001
 21
-2.78079223633
 31
0.0
  0
SPLINE
  5
25B9
330
257E
100
AcDbEntity
  8
AM_0
100
AcDbSpline
210
0.0
220
0.0
230
1.0
 70
     8
 71
     3
 72
    11
 73
     7
 74
     5
 42
0.0000000001
 43
0.0000000001
 44
0.0000000001
 40
0.0
 40
0.0
 40
0.0
 40
0.0
 40
0.241808207943974
 40
0.4830680193166119
 40
0.7239805095770392
 40
0.9643535324620076
 40
0.9643535324620076
 40
0.9643535324620076
 40
0.9643535324620076
 10
0.7218093872069887
 20
-1.840087890619997
 30
0.0
 10
0.6684705689838142
 20
-1.900517836779031
 30
0.0
 10
0.561913899585199
 20
-2.021240680088046
 30
0.0
 10
0.401699273249007
 20
-2.201712297045809
 30
0.0
 10
0.2416902403749098
 20
-2.381726499945074
 30
0.0
 10
0.1348600463999283
 20
-2.501412047457855
 30
0.0
 10
0.0815048217779975
 20
-2.561187744139999
 30
0.0
 11
0.7218093872069887
 21
-1.840087890619997
 31
0.0
 11
0.5617065429689916
 21
-2.021301269529999
 31
0.0
 11
0.4016036987309946
 21
-2.201782226559998
 31
0.0
 11
0.2415084838869888
 21
-2.381805419919999
 31
0.0
 11
0.0815048217779975
 21
-2.561187744139999
 31
0.0
  0
SPLINE
  5
25BA
330
257E
100
AcDbEntity
  8
AM_0
100
AcDbSpline
210
0.0
220
0.0
230
1.0
 70
     8
 71
     3
 72
    11
 73
     7
 74
     5
 42
0.0000000001
 43
0.0000000001
 44
0.0000000001
 40
0.0
 40
0.0
 40
0.0
 40
0.0
 40
0.1137323359662396
 40
0.2065035348126981
 40
0.2762416647303745
 40
0.3216462857422225
 40
0.3216462857422225
 40
0.3216462857422225
 40
0.3216462857422225
 10
1.023902893066988
 20
-1.738494873039996
 30
0.0
 10
0.9866261601570117
 20
-1.74568308811756
 30
0.0
 10
0.9189428839209185
 20
-1.758734713320718
 30
0.0
 10
0.8307511297184982
 20
-1.784318888769043
 30
0.0
 10
0.7643919091783566
 20
-1.807233521837891
 30
0.0
 10
0.7338522082663373
 20
-1.830796301819156
 30
0.0
 10
0.7218093872069887
 20
-1.840087890619997
 30
0.0
 11
1.023902893066988
 21
-1.738494873039996
 31
0.0
 11
0.9126052856450002
 21
-1.76190185547
 31
0.0
 11
0.8234024047859946
 21
-1.787384033199998
 31
0.0
 11
0.7589035034179972
 21
-1.813903808589998
 31
0.0
 11
0.7218093872069887
 21
-1.840087890619997
 31
0.0
  0
SPLINE
  5
25BB
330
257E
100
AcDbEntity
  8
AM_0
100
AcDbSpline
210
0.0
220
0.0
230
1.0
 70
     8
 71
     3
 72
    11
 73
     7
 74
     5
 42
0.0000000001
 43
0.0000000001
 44
0.0000000001
 40
0.0
 40
0.0
 40
0.0
 40
0.0
 40
0.1769117408240237
 40
0.3396110254214047
 40
0.4883902415765559
 40
0.6238290970243906
 40
0.6238290970243906
 40
0.6238290970243906
 40
0.6238290970243906
 10
10.32030487060599
 20
0.5942077636699992
 30
0.0
 10
10.37630993767183
 20
0.5757061085392874
 30
0.0
 10
10.48382082511455
 20
0.5401891550478605
 30
0.0
 10
10.64101492113486
 20
0.4976497759277254
 30
0.0
 10
10.78649123631809
 20
0.4649402171994158
 30
0.0
 10
10.88036732388527
 20
0.4519157818448197
 30
0.0
 10
10.92510223388698
 20
0.445709228520002
 30
0.0
 11
10.32030487060599
 21
0.5942077636699992
 31
0.0
 11
10.48880767822299
 21
0.5403137207100031
 31
0.0
 11
10.64580535888698
 21
0.4976196289100017
 31
0.0
 11
10.79120635986399
 21
0.4660949707100031
 31
0.0
 11
10.92510223388698
 21
0.445709228520002
 31
0.0
  0
SPLINE
  5
25BC
330
257E
100
AcDbEntity
  8
AM_0
100
AcDbSpline
210
0.0
220
0.0
230
1.0
 70
     8
 71
     3
 72
    11
 73
     7
 74
     5
 42
0.0000000001
 43
0.0000000001
 44
0.0000000001
 40
0.0
 40
0.0
 40
0.0
 40
0.0
 40
1.064372259643673
 40
2.137029102267122
 40
3.209650969235823
 40
4.273311438472515
 40
4.273311438472515
 40
4.273311438472515
 40
4.273311438472515
 10
5.122306823730994
 20
-10.93627929686999
 30
0.0
 10
4.763415812197282
 20
-10.8320450277782
 30
0.0
 10
4.042840346949449
 20
-10.62276517809736
 30
0.0
 10
3.642748266115602
 20
-9.469891898864478
 30
0.0
 10
4.142371300873893
 20
-8.356894903152429
 30
0.0
 10
4.878157162939151
 20
-8.21141290954451
 30
0.0
 10
5.244506835937997
 20
-8.138977050779999
 30
0.0
 11
5.122306823730994
 21
-10.93627929686999
 31
0.0
 11
4.158302307128991
 21
-10.48507690428999
 31
0.0
 11
3.793106079101988
 21
-9.476501464839998
 31
0.0
 11
4.245407104492997
 21
-8.50390625
 31
0.0
 11
5.244506835937997
 21
-8.138977050779999
 31
0.0
  0
SPLINE
  5
25BD
330
257E
100
AcDbEntity
  8
AM_0
100
AcDbSpline
210
0.0
220
0.0
230
1.0
 70
     8
 71
     3
 72
    11
 73
     7
 74
     5
 42
0.0000000001
 43
0.0000000001
 44
0.0000000001
 40
0.0
 40
0.0
 40
0.0
 40
0.0
 40
1.331385275205608
 40
2.673101556141808
 40
4.010731570949931
 40
5.351129783131051
 40
5.351129783131051
 40
5.351129783131051
 40
5.351129783131051
 10
5.280708312988991
 20
-11.29357910155999
 30
0.0
 10
5.738471894522714
 20
-11.20174390544955
 30
0.0
 10
6.657551115940322
 20
-11.01736090963076
 30
0.0
 10
7.289644879971711
 20
-9.631535481330775
 30
0.0
 10
6.791897856151084
 20
-8.184372747230753
 30
0.0
 10
5.886546573621167
 20
-7.926150233083581
 30
0.0
 10
5.433403015136988
 20
-7.79690551758
 30
0.0
 11
5.280708312988991
 21
-11.29357910155999
 31
0.0
 11
6.530509948730994
 21
-10.83468627928999
 31
0.0
 11
7.101203918456988
 21
-9.620391845699998
 31
0.0
 11
6.649101257325
 21
-8.361480712889999
 31
0.0
 11
5.433403015136988
 21
-7.79690551758
 31
0.0
  0
SPLINE
  5
25BE
330
257E
100
AcDbEntity
  8
AM_0
100
AcDbSpline
210
0.0
220
0.0
230
1.0
 70
     8
 71
     3
 72
    11
 73
     7
 74
     5
 42
0.0000000001
 43
0.0000000001
 44
0.0000000001
 40
0.0
 40
0.0
 40
0.0
 40
0.0
 40
1.340900683457282
 40
2.67733318788454
 40
4.019211436467851
 40
5.347420998828328
 40
5.347420998828328
 40
5.347420998828328
 40
5.347420998828328
 10
5.433403015136988
 20
-7.79690551758
 30
0.0
 10
4.970496260054954
 20
-7.886585426420733
 30
0.0
 10
4.046225258058292
 20
-8.065646410718759
 30
0.0
 10
3.427282251868378
 20
-9.464659382555822
 30
0.0
 10
3.935537014796704
 20
-10.89852046437754
 30
0.0
 10
4.833850759771204
 20
-11.16234307516979
 30
0.0
 10
5.280708312988991
 20
-11.29357910155999
 30
0.0
 11
5.433403015136988
 21
-7.79690551758
 31
0.0
 11
4.17310333252
 21
-8.254791259759997
 31
0.0
 11
3.615409851075
 21
-9.469299316399997
 31
0.0
 11
4.078605651855994
 21
-10.72869873047
 31
0.0
 11
5.280708312988991
 21
-11.29357910155999
 31
0.0
  0
SPLINE
  5
25BF
330
257E
100
AcDbEntity
  8
AM_0
100
AcDbSpline
210
0.0
220
0.0
230
1.0
 70
     8
 71
     3
 72
    11
 73
     7
 74
     5
 42
0.0000000001
 43
0.0000000001
 44
0.0000000001
 40
0.0
 40
0.0
 40
0.0
 40
0.0
 40
2.187196426582286
 40
4.371422550273417
 40
6.552580511997796
 40
8.730571301080001
 40
8.730571301080001
 40
8.730571301080001
 40
8.730571301080001
 10
0.3659057617189916
 20
-12.63049316405999
 30
0.0
 10
1.0947673311604
 20
-12.64774042510785
 30
0.0
 10
2.551500645992367
 20
-12.68221152471221
 30
0.0
 10
4.735173225441505
 20
-12.72995818952586
 30
0.0
 10
6.915839974185324
 20
-12.77471383819992
 30
0.0
 10
8.368635377947022
 20
-12.80190501315155
 30
0.0
 10
9.094505310058991
 20
-12.81549072264999
 30
0.0
 11
0.3659057617189916
 21
-12.63049316405999
 31
0.0
 11
2.552505493163991
 21
-12.68157958983999
 31
0.0
 11
4.736206054687997
 21
-12.7294921875
 31
0.0
 11
6.916908264160994
 21
-12.77407836914
 31
0.0
 11
9.094505310058991
 21
-12.81549072264999
 31
0.0
  0
SPLINE
  5
25C0
330
257E
100
AcDbEntity
  8
AM_0
100
AcDbSpline
210
0.0
220
0.0
230
1.0
 70
     8
 71
     3
 72
    11
 73
     7
 74
     5
 42
0.0000000001
 43
0.0000000001
 44
0.0000000001
 40
0.0
 40
0.0
 40
0.0
 40
0.0
 40
0.2877001883201467
 40
0.5765352676496054
 40
0.8648768724114122
 40
1.151015227166875
 40
1.151015227166875
 40
1.151015227166875
 40
1.151015227166875
 10
9.094505310058991
 20
-12.81549072264999
 30
0.0
 10
9.19126106970557
 20
-12.80884535906388
 30
0.0
 10
9.385154261469514
 20
-12.79552841792414
 30
0.0
 10
9.643114822607179
 20
-12.6504022665996
 30
0.0
 10
9.844120646741345
 20
-12.43305303906354
 30
0.0
 10
9.898778425187362
 20
-12.24709994374897
 30
0.0
 10
9.926002502441988
 20
-12.15447998047
 30
0.0
 11
9.094505310058991
 21
-12.81549072264999
 31
0.0
 11
9.379310607910994
 21
-12.77478027344
 31
0.0
 11
9.633804321288991
 21
-12.63818359375
 31
0.0
 11
9.82470703125
 21
-12.42208862303999
 31
0.0
 11
9.926002502441988
 21
-12.15447998047
 31
0.0
  0
SPLINE
  5
25C1
330
257E
100
AcDbEntity
  8
AM_0
100
AcDbSpline
210
0.0
220
0.0
230
1.0
 70
     8
 71
     3
 72
    11
 73
     7
 74
     5
 42
0.0000000001
 43
0.0000000001
 44
0.0000000001
 40
0.0
 40
0.0
 40
0.0
 40
0.0
 40
1.054494873781583
 40
2.10900084526933
 40
3.163669452629743
 40
4.218423089306853
 40
4.218423089306853
 40
4.218423089306853
 40
4.218423089306853
 10
9.926002502441988
 20
-12.15447998047
 30
0.0
 10
9.988345134037825
 20
-11.80855448934334
 30
0.0
 10
10.11303105333529
 20
-11.11669986650385
 30
0.0
 10
10.29992703381331
 20
-10.07883702781402
 30
0.0
 10
10.48675694592743
 20
-9.040874644329303
 30
0.0
 10
10.61111844218652
 20
-8.348818913275229
 30
0.0
 10
10.67330169677799
 20
-8.00277709961
 30
0.0
 11
9.926002502441988
 21
-12.15447998047
 31
0.0
 11
10.11300659179698
 21
-11.11669921875
 31
0.0
 11
10.29990386962899
 21
-10.07888793944999
 31
0.0
 11
10.48670196533198
 21
-9.040893554690001
 31
0.0
 11
10.67330169677799
 21
-8.00277709961
 31
0.0
  0
SPLINE
  5
25C2
330
257E
100
AcDbEntity
  8
AM_0
100
AcDbSpline
210
0.0
220
0.0
230
1.0
 70
     8
 71
     3
 72
    11
 73
     7
 74
     5
 42
0.0000000001
 43
0.0000000001
 44
0.0000000001
 40
0.0
 40
0.0
 40
0.0
 40
0.0
 40
0.1141677444377579
 40
0.2283401181602595
 40
0.3426820563596898
 40
0.4571625548848514
 40
0.4571625548848514
 40
0.4571625548848514
 40
0.4571625548848514
 10
10.783210754395
 20
-6.87777709961
 30
0.0
 10
10.78398702868689
 20
-6.839448809448008
 30
0.0
 10
10.78553960874712
 20
-6.762790674984806
 30
0.0
 10
10.74622520916431
 20
-6.653209712911669
 30
0.0
 10
10.67720436315075
 20
-6.558730983266146
 30
0.0
 10
10.61101731231348
 20
-6.51944250925639
 30
0.0
 10
10.57790374755899
 20
-6.499786376949998
 30
0.0
 11
10.783210754395
 21
-6.87777709961
 31
0.0
 11
10.77860260009799
 21
-6.76370239258
 31
0.0
 11
10.74131011962899
 21
-6.65579223633
 31
0.0
 11
10.672203063965
 21
-6.564697265619997
 31
0.0
 11
10.57790374755899
 21
-6.499786376949998
 31
0.0
  0
SPLINE
  5
25C3
330
257E
100
AcDbEntity
  8
AM_0
100
AcDbSpline
210
0.0
220
0.0
230
1.0
 70
     8
 71
     3
 72
    11
 73
     7
 74
     5
 42
0.0000000001
 43
0.0000000001
 44
0.0000000001
 40
0.0
 40
0.0
 40
0.0
 40
0.0
 40
2.221321853965364
 40
4.443211147306149
 40
6.665658488607328
 40
8.888687087920914
 40
8.888687087920914
 40
8.888687087920914
 40
8.888687087920914
 10
1.539100646972997
 20
-6.271484375
 30
0.0
 10
2.279405595816937
 20
-6.285665005817241
 30
0.0
 10
3.760204605306443
 20
-6.314029889911154
 30
0.0
 10
5.981603483103263
 20
-6.360610115919794
 30
0.0
 10
8.203509073346818
 20
-6.410069967695569
 30
0.0
 10
9.684908429493697
 20
-6.445607711179803
 30
0.0
 10
10.42570495605499
 20
-6.46337890625
 30
0.0
 11
1.539100646972997
 21
-6.271484375
 31
0.0
 11
3.760002136230994
 21
-6.314697265619997
 31
0.0
 11
5.981407165527997
 21
-6.361083984369997
 31
0.0
 11
8.203300476075
 21
-6.410705566399997
 31
0.0
 11
10.42570495605499
 21
-6.46337890625
 31
0.0
  0
SPLINE
  5
25C4
330
257E
100
AcDbEntity
  8
AM_0
100
AcDbSpline
210
0.0
220
0.0
230
1.0
 70
     8
 71
     3
 72
    11
 73
     7
 74
     5
 42
0.0000000001
 43
0.0000000001
 44
0.0000000001
 40
0.0
 40
0.0
 40
0.0
 40
0.0
 40
0.2882893054634473
 40
0.5747979150557027
 40
0.8598833377768695
 40
1.143938702530697
 40
1.143938702530697
 40
1.143938702530697
 40
1.143938702530697
 10
1.539100646972997
 20
-6.271484375
 30
0.0
 10
1.442116639304422
 20
-6.278008077091059
 30
0.0
 10
1.248747671586292
 20
-6.291015185885321
 30
0.0
 10
0.9924880572288804
 20
-6.436189086223876
 30
0.0
 10
0.7960929341059947
 20
-6.654848593291586
 30
0.0
 10
0.7465406754980616
 20
-6.84046515614765
 30
0.0
 10
0.7218093872069887
 20
-6.93310546875
 30
0.0
 11
1.539100646972997
 21
-6.271484375
 31
0.0
 11
1.253700256347997
 21
-6.31219482422
 31
0.0
 11
1.001899719238991
 21
-6.448883056639999
 31
0.0
 11
0.8162002563479973
 21
-6.665191650389999
 31
0.0
 11
0.7218093872069887
 21
-6.93310546875
 31
0.0
  0
SPLINE
  5
25C5
330
257E
100
AcDbEntity
  8
AM_0
100
AcDbSpline
210
0.0
220
0.0
230
1.0
 70
     8
 71
     3
 72
    11
 73
     7
 74
     5
 42
0.0000000001
 43
0.0000000001
 44
0.0000000001
 40
0.0
 40
0.0
 40
0.0
 40
0.0
 40
1.05114381371538
 40
2.102408273626757
 40
3.15388270351755
 40
4.205313035531734
 40
4.205313035531734
 40
4.205313035531734
 40
4.205313035531734
 10
0.7218093872069887
 20
-6.93310546875
 30
0.0
 10
0.6684405698288187
 20
-7.27939841495036
 30
0.0
 10
0.561696809607326
 20
-7.972024053507709
 30
0.0
 10
0.4015890976373563
 20
-9.011054893998974
 30
0.0
 10
0.241490497132619
 20
-10.05018377337227
 30
0.0
 10
0.1348326346916923
 20
-10.7429900913896
 30
0.0
 10
0.0815048217779975
 20
-11.08938598633
 30
0.0
 11
0.7218093872069887
 21
-6.93310546875
 31
0.0
 11
0.5617065429689916
 21
-7.971984863279999
 31
0.0
 11
0.4016036987309946
 21
-9.010986328119997
 31
0.0
 11
0.2415084838869888
 21
-10.05020141600999
 31
0.0
 11
0.0815048217779975
 21
-11.08938598633
 31
0.0
  0
SPLINE
  5
25C6
330
257E
100
AcDbEntity
  8
AM_0
100
AcDbSpline
210
0.0
220
0.0
230
1.0
 70
     8
 71
     3
 72
    11
 73
     7
 74
     5
 42
0.0000000001
 43
0.0000000001
 44
0.0000000001
 40
0.0
 40
0.0
 40
0.0
 40
0.0
 40
0.1144427777419535
 40
0.2295944385343684
 40
0.3451554648889625
 40
0.4605426053471654
 40
0.4605426053471654
 40
0.4605426053471654
 40
0.4605426053471654
 10
0.0000076293950002
 20
-12.21569824219
 30
0.0
 10
0.0002536351807997
 20
-12.25411159863832
 30
0.0
 10
0.000747170564869
 20
-12.33117625208339
 30
0.0
 10
0.0424014054248581
 20
-12.44071705275741
 30
0.0
 10
0.1133821441150962
 20
-12.53490757159578
 30
0.0
 10
0.1802821516718065
 20
-12.57430850621872
 30
0.0
 10
0.2137069702150001
 20
-12.59399414061999
 30
0.0
 11
0.0000076293950002
 21
-12.21569824219
 31
0.0
 11
0.0075073242189916
 21
-12.32989501952999
 31
0.0
 11
0.0472030639650001
 21
-12.43798828125
 31
0.0
 11
0.1183090209959943
 21
-12.52908325194999
 31
0.0
 11
0.2137069702150001
 21
-12.59399414061999
 31
0.0
  0
SPLINE
  5
25C7
330
257E
100
AcDbEntity
  8
AM_0
100
AcDbSpline
210
0.0
220
0.0
230
1.0
 70
     8
 71
     3
 72
    11
 73
     7
 74
     5
 42
0.0000000001
 43
0.0000000001
 44
0.0000000001
 40
0.0
 40
0.0
 40
0.0
 40
0.0
 40
0.1596177560629055
 40
0.3198500161119224
 40
0.4805567393831582
 40
0.6418851221119012
 40
0.6418851221119012
 40
0.6418851221119012
 40
0.6418851221119012
 10
6.632606506347997
 20
1.93099975586
 30
0.0
 10
6.57955244281876
 20
1.926961195024539
 30
0.0
 10
6.473240065717424
 20
1.918868525511117
 30
0.0
 10
6.313268031364135
 20
1.910393184703644
 30
0.0
 10
6.15261757088515
 20
1.904272353853361
 30
0.0
 10
6.04528058098244
 20
1.902702797186545
 30
0.0
 10
5.991508483886988
 20
1.901916503910001
 30
0.0
 11
6.632606506347997
 21
1.93099975586
 31
0.0
 11
6.473403930663991
 21
1.919494628910001
 31
0.0
 11
6.31340789795
 21
1.910797119139999
 31
0.0
 11
6.152809143066988
 21
1.904907226559998
 31
0.0
 11
5.991508483886988
 21
1.901916503910001
 31
0.0
  0
SPLINE
  5
25C8
330
257E
100
AcDbEntity
  8
AM_0
100
AcDbSpline
210
0.0
220
0.0
230
1.0
 70
     8
 71
     3
 72
    11
 73
     7
 74
     5
 42
0.0000000001
 43
0.0000000001
 44
0.0000000001
 40
0.0
 40
0.0
 40
0.0
 40
0.0
 40
0.8546151575430396
 40
1.680296268830633
 40
2.273621706872043
 40
2.499967917585861
 40
2.499967917585861
 40
2.499967917585861
 40
2.499967917585861
 10
4.632102966308991
 20
2.00619506836
 30
0.0
 10
4.912695039064541
 20
1.95381935202082
 30
0.0
 10
5.464379395178783
 20
1.850841163575076
 30
0.0
 10
6.20993816705224
 20
1.756155712597208
 30
0.0
 10
6.767536051833115
 20
1.676072334856204
 30
0.0
 10
7.030807538638895
 20
1.755094987832353
 30
0.0
 10
7.103507995605994
 20
1.776916503910001
 30
0.0
 11
4.632102966308991
 21
2.00619506836
 31
0.0
 11
5.473701477050994
 21
1.85760498047
 31
0.0
 11
6.291404724120994
 21
1.743103027350002
 31
0.0
 11
6.884300231933991
 21
1.720520019529999
 31
0.0
 11
7.103507995605994
 21
1.776916503910001
 31
0.0
  0
SPLINE
  5
25C9
330
257E
100
AcDbEntity
  8
AM_0
100
AcDbSpline
210
0.0
220
0.0
230
1.0
 70
     8
 71
     3
 72
    11
 73
     7
 74
     5
 42
0.0000000001
 43
0.0000000001
 44
0.0000000001
 40
0.0
 40
0.0
 40
0.0
 40
0.0
 40
0.1698215259554452
 40
0.3429522977759718
 40
0.5191863124719342
 40
0.6987286839326307
 40
0.6987286839326307
 40
0.6987286839326307
 40
0.6987286839326307
 10
5.991508483886988
 20
1.901916503910001
 30
0.0
 10
5.934908184188459
 20
1.901033159464548
 30
0.0
 10
5.820604636818896
 20
1.899249257184838
 30
0.0
 10
5.647570310082646
 20
1.896140974581383
 30
0.0
 10
5.471301081420229
 20
1.892719344472862
 30
0.0
 10
5.352734599805539
 20
1.890252473523796
 30
0.0
 10
5.29290008545
 20
1.88900756836
 30
0.0
 11
5.991508483886988
 21
1.901916503910001
 31
0.0
 11
5.8217086792
 21
1.899200439460003
 31
0.0
 11
5.64860534668
 21
1.896118164059998
 31
0.0
 11
5.472404479980994
 21
1.892700195309998
 31
0.0
 11
5.29290008545
 21
1.88900756836
 31
0.0
  0
SPLINE
  5
25CA
330
257E
100
AcDbEntity
  8
AM_0
100
AcDbSpline
210
0.0
220
0.0
230
1.0
 70
     8
 71
     3
 72
    11
 73
     7
 74
     5
 42
0.0000000001
 43
0.0000000001
 44
0.0000000001
 40
0.0
 40
0.0
 40
0.0
 40
0.0
 40
0.089310000007296
 40
0.3190817081434386
 40
0.6772790400738344
 40
1.131911191870164
 40
1.131911191870164
 40
1.131911191870164
 40
1.131911191870164
 10
7.103507995605994
 20
1.776916503910001
 30
0.0
 10
7.079287699181889
 20
1.794811203867511
 30
0.0
 10
6.992754796325406
 20
1.858744374046552
 30
0.0
 10
6.756537321269556
 20
1.8703230420676
 30
0.0
 10
6.41586861555768
 20
1.905226138190077
 30
0.0
 10
6.143724341464723
 20
1.903103653179248
 30
0.0
 10
5.991508483886988
 20
1.901916503910001
 30
0.0
 11
7.103507995605994
 21
1.776916503910001
 31
0.0
 11
7.028907775878991
 21
1.82601928711
 31
0.0
 11
6.80330657959
 21
1.869598388669999
 31
0.0
 11
6.446105957031988
 21
1.896301269529999
 31
0.0
 11
5.991508483886988
 21
1.901916503910001
 31
0.0
  0
SPLINE
  5
25CB
330
257E
100
AcDbEntity
  8
AM_0
100
AcDbSpline
210
0.0
220
0.0
230
1.0
 70
     8
 71
     3
 72
    11
 73
     7
 74
     5
 42
0.0000000001
 43
0.0000000001
 44
0.0000000001
 40
0.0
 40
0.0
 40
0.0
 40
0.0
 40
1.304663326789887
 40
2.609009732723446
 40
3.913763384707968
 40
5.219612748242969
 40
5.219612748242969
 40
5.219612748242969
 40
5.219612748242969
 10
3.986503601075
 20
2.135894775389999
 30
0.0
 10
4.408370752118477
 20
2.030183430928083
 30
0.0
 10
5.252002576810673
 20
1.818786420759161
 30
0.0
 10
6.526551037924374
 20
1.539722028573361
 30
0.0
 10
7.806812299681425
 20
1.286121205881787
 30
0.0
 10
8.665154220020726
 20
1.142675705118945
 30
0.0
 10
9.094505310058991
 20
1.070922851559998
 30
0.0
 11
3.986503601075
 21
2.135894775389999
 31
0.0
 11
5.253608703613991
 21
1.825103759770001
 31
0.0
 11
6.527305603027997
 21
1.544006347660001
 31
0.0
 11
7.807609558105994
 21
1.292602539059998
 31
0.0
 11
9.094505310058991
 21
1.070922851559998
 31
0.0
  0
SPLINE
  5
25CC
330
257E
100
AcDbEntity
  8
AM_0
100
AcDbSpline
210
0.0
220
0.0
230
1.0
 70
     8
 71
     3
 72
    11
 73
     7
 74
     5
 42
0.0000000001
 43
0.0000000001
 44
0.0000000001
 40
0.0
 40
0.0
 40
0.0
 40
0.0
 40
0.0200357153668668
 40
0.0631494886675764
 40
0.133390905655161
 40
0.2255640889352002
 40
0.2255640889352002
 40
0.2255640889352002
 40
0.2255640889352002
 10
10.78460693359399
 20
1.918914794919999
 30
0.0
 10
10.78226497020434
 20
1.925446243838074
 30
0.0
 10
10.7748834623407
 20
1.946032364766751
 30
0.0
 10
10.72629559354386
 20
1.958094723099745
 30
0.0
 10
10.66308087844967
 20
1.976120324999603
 30
0.0
 10
10.60874201948017
 20
1.982943903635252
 30
0.0
 10
10.57790374755899
 20
1.98681640625
 30
0.0
 11
10.78460693359399
 21
1.918914794919999
 31
0.0
 11
10.77600860595698
 21
1.93701171875
 31
0.0
 11
10.73710632324299
 21
1.95559692383
 31
0.0
 11
10.66900634765698
 21
1.972808837889999
 31
0.0
 11
10.57790374755899
 21
1.98681640625
 31
0.0
  0
SPLINE
  5
25CD
330
257E
100
AcDbEntity
  8
AM_0
100
AcDbSpline
210
0.0
220
0.0
230
1.0
 70
     8
 71
     3
 72
    11
 73
     7
 74
     5
 42
0.0000000001
 43
0.0000000001
 44
0.0000000001
 40
0.0
 40
0.0
 40
0.0
 40
0.0
 40
0.246769099637835
 40
0.4930593304064564
 40
0.7388771189024519
 40
0.9841674553964494
 40
0.9841674553964494
 40
0.9841674553964494
 40
0.9841674553964494
 10
9.926002502441988
 20
1.098510742190001
 30
0.0
 10
9.988319262382045
 20
1.152201840597981
 30
0.0
 10
10.11283185319766
 20
1.259479846915134
 30
0.0
 10
10.29974288957083
 20
1.419867739240338
 30
0.0
 10
10.48652792310369
 20
1.579644990652174
 30
0.0
 10
10.61108836501668
 20
1.685867770867945
 30
0.0
 10
10.67330169677799
 20
1.738922119139999
 30
0.0
 11
9.926002502441988
 21
1.098510742190001
 31
0.0
 11
10.11300659179698
 21
1.259521484380002
 31
0.0
 11
10.29990386962899
 21
1.419921875
 31
0.0
 11
10.48670196533198
 21
1.579711914059998
 31
0.0
 11
10.67330169677799
 21
1.738922119139999
 31
0.0
  0
SPLINE
  5
25CE
330
257E
100
AcDbEntity
  8
AM_0
100
AcDbSpline
210
0.0
220
0.0
230
1.0
 70
     8
 71
     3
 72
    11
 73
     7
 74
     5
 42
0.0000000001
 43
0.0000000001
 44
0.0000000001
 40
0.0
 40
0.0
 40
0.0
 40
0.0
 40
0.0194147269967051
 40
0.0623099547590601
 40
0.1323441833041226
 40
0.2244496518286674
 40
0.2244496518286674
 40
0.2244496518286674
 40
0.2244496518286674
 10
-0.0008926391599999
 20
2.748596191410001
 30
0.0
 10
0.00250683733151
 20
2.754382211731418
 30
0.0
 10
0.0134171749544095
 20
2.772951963679187
 30
0.0
 10
0.062840981176611
 20
2.77648120901235
 30
0.0
 10
0.1280558306731308
 20
2.783860857406411
 30
0.0
 10
0.1826781075078994
 20
2.781923368528607
 30
0.0
 10
0.2137069702150001
 20
2.780822753910001
 30
0.0
 11
-0.0008926391599999
 21
2.748596191410001
 31
0.0
 11
0.0105056762700002
 21
2.764312744139999
 31
0.0
 11
0.0518035888679975
 21
2.77590942383
 31
0.0
 11
0.1216049194339916
 21
2.781616210940001
 31
0.0
 11
0.2137069702150001
 21
2.780822753910001
 31
0.0
  0
SPLINE
  5
25CF
330
257E
100
AcDbEntity
  8
AM_0
100
AcDbSpline
210
0.0
220
0.0
230
1.0
 70
     8
 71
     3
 72
    11
 73
     7
 74
     5
 42
0.0000000001
 43
0.0000000001
 44
0.0000000001
 40
0.0
 40
0.0
 40
0.0
 40
0.0
 40
0.018448828837134
 40
0.0337927760819717
 40
0.0459189828879027
 40
0.0548282473475612
 40
0.0548282473475612
 40
0.0548282473475612
 40
0.0548282473475612
 10
9.087699890136988
 20
-1.42498779297
 30
0.0
 10
9.093834112391535
 20
-1.425422696683372
 30
0.0
 10
9.105070186015229
 20
-1.426219311142367
 30
0.0
 10
9.120335628926552
 20
-1.427336179985324
 30
0.0
 10
9.132434851334309
 20
-1.428154116959601
 30
0.0
 10
9.139436994273387
 20
-1.428523832388117
 30
0.0
 10
9.142402648925994
 20
-1.428680419919999
 30
0.0
 11
9.087699890136988
 21
-1.42498779297
 31
0.0
 11
9.106101989745994
 21
-1.42630004883
 31
0.0
 11
9.121406555175994
 21
-1.427398681639999
 31
0.0
 11
9.133506774902997
 21
-1.428192138669999
 31
0.0
 11
9.142402648925994
 21
-1.428680419919999
 31
0.0
  0
SPLINE
  5
25D0
330
257E
100
AcDbEntity
  8
AM_0
100
AcDbSpline
210
0.0
220
0.0
230
1.0
 70
     8
 71
     3
 72
     9
 73
     5
 74
     3
 42
0.0000000001
 43
0.0000000001
 44
0.0000000001
 40
0.0
 40
0.0
 40
0.0
 40
0.0
 40
1.540966798598452
 40
3.074411529566281
 40
3.074411529566281
 40
3.074411529566281
 40
3.074411529566281
 10
12.86860656738299
 20
0.2745056152400025
 30
0.0
 10
12.35653933376975
 20
0.3148692522861278
 30
0.0
 10
11.33490446897867
 20
0.3953994955221947
 30
0.0
 10
10.31327049497823
 20
0.4759410388419815
 30
0.0
 10
9.803703308105994
 20
0.51611328125
 30
0.0
 11
12.86860656738299
 21
0.2745056152400025
 31
0.0
 11
11.33240509033198
 21
0.3955993652400025
 31
0.0
 11
9.803703308105994
 21
0.51611328125
 31
0.0
  0
SPLINE
  5
25D1
330
257E
100
AcDbEntity
  8
AM_0
100
AcDbSpline
210
0.0
220
0.0
230
1.0
 70
     8
 71
     3
 72
    11
 73
     7
 74
     5
 42
0.0000000001
 43
0.0000000001
 44
0.0000000001
 40
0.0
 40
0.0
 40
0.0
 40
0.0
 40
0.0091023281140329
 40
0.0165279672902687
 40
0.022234693200538
 40
0.0263522202503709
 40
0.0263522202503709
 40
0.0263522202503709
 40
0.0263522202503709
 10
0.6353073120119888
 20
-0.563690185539997
 30
0.0
 10
0.632269913961129
 20
-0.5636707365903138
 30
0.0
 10
0.6267546199612632
 20
-0.5636354212731592
 30
0.0
 10
0.6193808255523667
 20
-0.5642527966563847
 30
0.0
 10
0.6136361601573297
 20
-0.5651079398157095
 30
0.0
 10
0.6106549839478697
 20
-0.5664959118414261
 30
0.0
 10
0.6094055175779971
 20
-0.5670776367200006
 30
0.0
 11
0.6353073120119888
 21
-0.563690185539997
 31
0.0
 11
0.6262054443359944
 21
-0.5637817382799995
 31
0.0
 11
0.6188049316409945
 21
-0.5643920898399984
 31
0.0
 11
0.6132049560550002
 21
-0.5654907226499973
 31
0.0
 11
0.6094055175779971
 21
-0.5670776367200006
 31
0.0
  0
SPLINE
  5
25D2
330
257E
100
AcDbEntity
  8
AM_0
100
AcDbSpline
210
0.0
220
0.0
230
1.0
 70
     8
 71
     3
 72
    11
 73
     7
 74
     5
 42
0.0000000001
 43
0.0000000001
 44
0.0000000001
 40
0.0
 40
0.0
 40
0.0
 40
0.0
 40
0.0085412835130112
 40
0.0203154144464725
 40
0.0353803760071546
 40
0.0535122159844947
 40
0.0535122159844947
 40
0.0535122159844947
 40
0.0535122159844947
 10
9.357002258300994
 20
-1.274505615229998
 30
0.0
 10
9.354281732129367
 20
-1.273660247908448
 30
0.0
 10
9.347810969672543
 20
-1.271649544543946
 30
0.0
 10
9.336222661265088
 20
-1.269381448521269
 30
0.0
 10
9.321516082177497
 20
-1.266497447076903
 30
0.0
 10
9.310577918365506
 20
-1.264808168903046
 30
0.0
 10
9.304603576660994
 20
-1.263885498039996
 30
0.0
 11
9.357002258300994
 21
-1.274505615229998
 31
0.0
 11
9.348808288575
 21
-1.272094726559998
 31
0.0
 11
9.337303161620994
 21
-1.269592285149997
 31
0.0
 11
9.322502136230994
 21
-1.26678466797
 31
0.0
 11
9.304603576660994
 21
-1.263885498039996
 31
0.0
  0
SPLINE
  5
25D3
330
257E
100
AcDbEntity
  8
AM_0
100
AcDbSpline
210
0.0
220
0.0
230
1.0
 70
     8
 71
     3
 72
    11
 73
     7
 74
     5
 42
0.0000000001
 43
0.0000000001
 44
0.0000000001
 40
0.0
 40
0.0
 40
0.0
 40
0.0
 40
0.7856816544716637
 40
1.295969542336711
 40
1.306372243462838
 40
1.312780934868847
 40
1.312780934868847
 40
1.312780934868847
 40
1.312780934868847
 10
10.07120513916099
 20
0.5020141601600017
 30
0.0
 10
10.33235171451947
 20
0.482027797061113
 30
0.0
 10
10.76310888674556
 20
0.4490606052082503
 30
0.0
 10
11.1972188616165
 20
0.4162254715563379
 30
0.0
 10
11.37266760305218
 20
0.4054484691407568
 30
0.0
 10
11.37827256598308
 20
0.4054985042030245
 30
0.0
 10
11.38040924072299
 20
0.4055175781300023
 30
0.0
 11
10.07120513916099
 21
0.5020141601600017
 31
0.0
 11
10.85460662841799
 21
0.4421997070299995
 31
0.0
 11
11.36360931396499
 21
0.4060058593800023
 31
0.0
 11
11.37400054931698
 21
0.4055175781300023
 31
0.0
 11
11.38040924072299
 21
0.4055175781300023
 31
0.0
  0
SPLINE
  5
25D4
330
257E
100
AcDbEntity
  8
AM_0
100
AcDbSpline
210
0.0
220
0.0
230
1.0
 70
     8
 71
     3
 72
    11
 73
     7
 74
     5
 42
0.0000000001
 43
0.0000000001
 44
0.0000000001
 40
0.0
 40
0.0
 40
0.0
 40
0.0
 40
0.0491740283041335
 40
0.0969984252704515
 40
0.1435417340433897
 40
0.1886230154808137
 40
0.1886230154808137
 40
0.1886230154808137
 40
0.1886230154808137
 10
0.9846038818359943
 20
-0.6141052246100003
 30
0.0
 10
0.9684752657493715
 20
-0.6111821722824709
 30
0.0
 10
0.9366606998871199
 20
-0.6054162937784792
 30
0.0
 10
0.8895377526888468
 20
-0.5971205650651111
 30
0.0
 10
0.8436983522405622
 20
-0.5894089248214241
 30
0.0
 10
0.813543094268194
 20
-0.5845664435048088
 30
0.0
 10
0.7987060546879974
 20
-0.5821838378899998
 30
0.0
 11
0.9846038818359943
 21
-0.6141052246100003
 31
0.0
 11
0.9362106323250003
 21
-0.6053771972599975
 31
0.0
 11
0.8891067504889917
 21
-0.5971069335899984
 31
0.0
 11
0.8432083129889917
 21
-0.5893859863300009
 31
0.0
 11
0.7987060546879974
 21
-0.5821838378899998
 31
0.0
  0
SPLINE
  5
25D5
330
257E
100
AcDbEntity
  8
AM_0
100
AcDbSpline
210
0.0
220
0.0
230
1.0
 70
     8
 71
     3
 72
    11
 73
     7
 74
     5
 42
0.0000000001
 43
0.0000000001
 44
0.0000000001
 40
0.0
 40
0.0
 40
0.0
 40
0.0
 40
0.0296834867669784
 40
0.0566524208913956
 40
0.0809197487954453
 40
0.1024713231826682
 40
0.1024713231826682
 40
0.1024713231826682
 40
0.1024713231826682
 10
8.985504150390994
 20
-1.41748046875
 30
0.0
 10
8.995371594536504
 20
-1.418211666315037
 30
0.0
 10
9.01420410579915
 20
-1.419607193482532
 30
0.0
 10
9.041102145408379
 20
-1.421619610960301
 30
0.0
 10
9.065295295956744
 20
-1.423455926035478
 30
0.0
 10
9.080532740639213
 20
-1.424497754219818
 30
0.0
 10
9.087699890136988
 20
-1.42498779297
 30
0.0
 11
8.985504150390994
 21
-1.41748046875
 31
0.0
 11
9.015106201171988
 21
-1.419677734369997
 31
0.0
 11
9.041999816895
 21
-1.421691894529999
 31
0.0
 11
9.066200256347997
 21
-1.423492431639999
 31
0.0
 11
9.087699890136988
 21
-1.42498779297
 31
0.0
  0
SPLINE
  5
25D6
330
257E
100
AcDbEntity
  8
AM_0
100
AcDbSpline
210
0.0
220
0.0
230
1.0
 70
     8
 71
     3
 72
    11
 73
     7
 74
     5
 42
0.0000000001
 43
0.0000000001
 44
0.0000000001
 40
0.0
 40
0.0
 40
0.0
 40
0.0
 40
0.0255540758585771
 40
0.0551628625511759
 40
0.088829854876806
 40
0.1264886204740345
 40
0.1264886204740345
 40
0.1264886204740345
 40
0.1264886204740345
 10
9.304603576660994
 20
-1.263885498039996
 30
0.0
 10
9.296176215890767
 20
-1.262642605397775
 30
0.0
 10
9.2779843099729
 20
-1.259959608119058
 30
0.0
 10
9.248562031555007
 20
-1.256596646122496
 30
0.0
 10
9.215091272880068
 20
-1.253177093584251
 30
0.0
 10
9.191406711050893
 20
-1.251097820302419
 30
0.0
 10
9.178901672363991
 20
-1.25
 30
0.0
 11
9.304603576660994
 21
-1.263885498039996
 31
0.0
 11
9.279304504395
 21
-1.26028442383
 31
0.0
 11
9.249900817870994
 21
-1.256805419919999
 31
0.0
 11
9.216407775878991
 21
-1.253387451169999
 31
0.0
 11
9.178901672363991
 21
-1.25
 31
0.0
  0
SPLINE
  5
25D7
330
257E
100
AcDbEntity
  8
AM_0
100
AcDbSpline
210
0.0
220
0.0
230
1.0
 70
     8
 71
     3
 72
    11
 73
     7
 74
     5
 42
0.0000000001
 43
0.0000000001
 44
0.0000000001
 40
0.0
 40
0.0
 40
0.0
 40
0.0
 40
0.054864632744862
 40
0.1063202197731222
 40
0.1542538355671356
 40
0.1986870422134044
 40
0.1986870422134044
 40
0.1986870422134044
 40
0.1986870422134044
 10
8.765403747558991
 20
-1.400695800779999
 30
0.0
 10
8.783638671609635
 20
-1.402090898864997
 30
0.0
 10
8.818975482148886
 20
-1.404794409807863
 30
0.0
 10
8.870232639900018
 20
-1.408859151223448
 30
0.0
 10
8.918042943189185
 20
-1.412395649952299
 30
0.0
 10
8.948741173504227
 20
-1.414757420983911
 30
0.0
 10
8.963508605956988
 20
-1.415893554690001
 30
0.0
 11
8.765403747558991
 21
-1.400695800779999
 31
0.0
 11
8.820106506347997
 21
-1.404907226559998
 31
0.0
 11
8.871406555175994
 21
-1.408905029289996
 31
0.0
 11
8.919204711913991
 21
-1.412506103509997
 31
0.0
 11
8.963508605956988
 21
-1.415893554690001
 31
0.0
  0
SPLINE
  5
25D8
330
257E
100
AcDbEntity
  8
AM_0
100
AcDbSpline
210
0.0
220
0.0
230
1.0
 70
     8
 71
     3
 72
    11
 73
     7
 74
     5
 42
0.0000000001
 43
0.0000000001
 44
0.0000000001
 40
0.0
 40
0.0
 40
0.0
 40
0.0
 40
0.065203975276715
 40
0.1366045732866535
 40
0.2139812065603466
 40
0.2975604795115483
 40
0.2975604795115483
 40
0.2975604795115483
 40
0.2975604795115483
 10
9.178901672363991
 20
-1.25
 30
0.0
 10
9.157238900314251
 20
-1.248232835201016
 30
0.0
 10
9.11185464698457
 20
-1.244530564100706
 30
0.0
 10
9.040718827991549
 20
-1.239301796074391
 30
0.0
 10
8.963448719160272
 20
-1.233991058009339
 30
0.0
 10
8.909905996138423
 20
-1.230567847388563
 30
0.0
 10
8.882102966308991
 20
-1.228790283199998
 30
0.0
 11
9.178901672363991
 21
-1.25
 31
0.0
 11
9.113906860351988
 21
-1.244781494139999
 31
0.0
 11
9.042701721191988
 21
-1.239501953119997
 31
0.0
 11
8.965507507325
 21
-1.234191894529999
 31
0.0
 11
8.882102966308991
 21
-1.228790283199998
 31
0.0
  0
SPLINE
  5
25D9
330
257E
100
AcDbEntity
  8
AM_0
100
AcDbSpline
210
0.0
220
0.0
230
1.0
 70
     8
 71
     3
 72
    11
 73
     7
 74
     5
 42
0.0000000001
 43
0.0000000001
 44
0.0000000001
 40
0.0
 40
0.0
 40
0.0
 40
0.0
 40
0.0360219937791275
 40
0.0719245796327985
 40
0.1079465734219525
 40
0.1438465351498109
 40
0.1438465351498109
 40
0.1438465351498109
 40
0.1438465351498109
 10
8.514205932617997
 20
-1.381103515619997
 30
0.0
 10
8.514494397758243
 20
-1.369099627752892
 30
0.0
 10
8.515070371816705
 20
-1.345131643246131
 30
0.0
 10
8.51614347220017
 20
-1.309165284135039
 30
0.0
 10
8.516994955390542
 20
-1.273233762271936
 30
0.0
 10
8.517602788216024
 20
-1.249267491002191
 30
0.0
 10
8.517906188965
 20
-1.2373046875
 30
0.0
 11
8.514205932617997
 21
-1.381103515619997
 31
0.0
 11
8.515106201171988
 21
-1.345092773440001
 31
0.0
 11
8.516105651855994
 21
-1.309204101559998
 31
0.0
 11
8.517005920410994
 21
-1.273193359369997
 31
0.0
 11
8.517906188965
 21
-1.2373046875
 31
0.0
  0
SPLINE
  5
25DA
330
257E
100
AcDbEntity
  8
AM_0
100
AcDbSpline
210
0.0
220
0.0
230
1.0
 70
     8
 71
     3
 72
    11
 73
     7
 74
     5
 42
0.0000000001
 43
0.0000000001
 44
0.0000000001
 40
0.0
 40
0.0
 40
0.0
 40
0.0
 40
0.0618846677812404
 40
0.1244715003236154
 40
0.1877647826219798
 40
0.2519607881900967
 40
0.2519607881900967
 40
0.2519607881900967
 40
0.2519607881900967
 10
8.765403747558991
 20
-1.400695800779999
 30
0.0
 10
8.744837882149568
 20
-1.399093085215421
 30
0.0
 10
8.703472803936438
 20
-1.395869469123301
 30
0.0
 10
8.641065702221322
 20
-1.391109711426008
 30
0.0
 10
8.577911838320812
 20
-1.386017369665184
 30
0.0
 10
8.535541240110509
 20
-1.382749180741163
 30
0.0
 10
8.514205932617997
 20
-1.381103515619997
 30
0.0
 11
8.765403747558991
 21
-1.400695800779999
 31
0.0
 11
8.703704833985
 21
-1.395904541009997
 31
0.0
 11
8.641304016113991
 21
-1.391082763669999
 31
0.0
 11
8.57820892334
 21
-1.38607788086
 31
0.0
 11
8.514205932617997
 21
-1.381103515619997
 31
0.0
  0
SPLINE
  5
25DB
330
257E
100
AcDbEntity
  8
AM_0
100
AcDbSpline
210
0.0
220
0.0
230
1.0
 70
     8
 71
     3
 72
    11
 73
     7
 74
     5
 42
0.0000000001
 43
0.0000000001
 44
0.0000000001
 40
0.0
 40
0.0
 40
0.0
 40
0.0
 40
0.0822267020395497
 40
0.1654546871511766
 40
0.249857001650299
 40
0.335243031098681
 40
0.335243031098681
 40
0.335243031098681
 40
0.335243031098681
 10
8.882102966308991
 20
-1.228790283199998
 30
0.0
 10
8.854739885183684
 20
-1.227205712645589
 30
0.0
 10
8.799680519858508
 20
-1.224017276056918
 30
0.0
 10
8.716515483306118
 20
-1.219532542314116
 30
0.0
 10
8.632282496559305
 20
-1.21530258657923
 30
0.0
 10
8.575743274299615
 20
-1.212763643146179
 30
0.0
 10
8.547309875488991
 20
-1.211486816399997
 30
0.0
 11
8.882102966308991
 21
-1.228790283199998
 31
0.0
 11
8.800010681152997
 21
-1.224090576169999
 31
0.0
 11
8.716903686523991
 21
-1.219604492190001
 31
0.0
 11
8.632606506347997
 21
-1.215393066399997
 31
0.0
 11
8.547309875488991
 21
-1.211486816399997
 31
0.0
  0
SPLINE
  5
25DC
330
257E
100
AcDbEntity
  8
AM_0
100
AcDbSpline
210
0.0
220
0.0
230
1.0
 70
     8
 71
     3
 72
    11
 73
     7
 74
     5
 42
0.0000000001
 43
0.0000000001
 44
0.0000000001
 40
0.0
 40
0.0
 40
0.0
 40
0.0
 40
0.052259818283548
 40
0.0980235316437159
 40
0.1359083885645469
 40
0.1645377970127058
 40
0.1645377970127058
 40
0.1645377970127058
 40
0.1645377970127058
 10
0.7987060546879974
 20
-0.5821838378899998
 30
0.0
 10
0.7814807258516952
 20
-0.5795801597762575
 30
0.0
 10
0.7491712456101569
 20
-0.5746964511765127
 30
0.0
 10
0.7042359257659978
 20
-0.5689601523094116
 30
0.0
 10
0.6670050230779995
 20
-0.5649343102273799
 30
0.0
 10
0.6448453788174035
 20
-0.5640645515110228
 30
0.0
 10
0.6353073120119888
 20
-0.563690185539997
 30
0.0
 11
0.7987060546879974
 21
-0.5821838378899998
 31
0.0
 11
0.7470016479500004
 21
-0.5745849609400011
 31
0.0
 11
0.7016067504889918
 21
-0.5687866210899984
 31
0.0
 11
0.6639022827150001
 21
-0.5650939941399998
 31
0.0
 11
0.6353073120119888
 21
-0.563690185539997
 31
0.0
  0
SPLINE
  5
25DD
330
257E
100
AcDbEntity
  8
AM_0
100
AcDbSpline
210
0.0
220
0.0
230
1.0
 70
     8
 71
     3
 72
    11
 73
     7
 74
     5
 42
0.0000000001
 43
0.0000000001
 44
0.0000000001
 40
0.0
 40
0.0
 40
0.0
 40
0.0
 40
0.2859457209096667
 40
0.5404539273687483
 40
0.7323101434156888
 40
0.8400533144084359
 40
0.8400533144084359
 40
0.8400533144084359
 40
0.8400533144084359
 10
9.094505310058991
 20
1.070922851559998
 30
0.0
 10
9.189438878780368
 20
1.060558880041637
 30
0.0
 10
9.368868806570086
 20
1.040970375298788
 30
0.0
 10
9.612016948455829
 20
1.041434110584301
 30
0.0
 10
9.79975818730351
 20
1.046444604562654
 30
0.0
 10
9.892610551209276
 20
1.084739112737847
 30
0.0
 10
9.926002502441988
 20
1.098510742190001
 30
0.0
 11
9.094505310058991
 21
1.070922851559998
 31
0.0
 11
9.379310607910994
 21
1.04541015625
 31
0.0
 11
9.633804321288991
 21
1.042694091800001
 31
0.0
 11
9.82470703125
 21
1.061798095710003
 31
0.0
 11
9.926002502441988
 21
1.098510742190001
 31
0.0
  0
SPLINE
  5
25DE
330
257E
100
AcDbEntity
  8
AM_0
100
AcDbSpline
210
0.0
220
0.0
230
1.0
 70
     8
 71
     3
 72
     9
 73
     5
 74
     3
 42
0.0000000001
 43
0.0000000001
 44
0.0000000001
 40
0.0
 40
0.0
 40
0.0
 40
0.0
 40
4.183175331991354
 40
8.942712291817983
 40
8.942712291817983
 40
8.942712291817983
 40
8.942712291817983
 10
12.86860656738299
 20
0.2745056152400025
 30
0.0
 10
14.25870711417479
 20
0.1651945967051864
 30
0.0
 10
17.23043750079955
 20
-0.0684884099827254
 30
0.0
 10
20.20217567649383
 20
-0.3020723429428425
 30
0.0
 10
21.78380966186599
 20
-0.4263916015599989
 30
0.0
 11
12.86860656738299
 21
0.2745056152400025
 31
0.0
 11
17.03890991210999
 21
-0.0534057617200006
 31
0.0
 11
21.78380966186599
 21
-0.4263916015599989
 31
0.0
  0
LINE
  5
25DF
330
257E
100
AcDbEntity
  8
AM_0
100
AcDbLine
 10
35.00000762939499
 20
12.25
 30
0.0
 11
23.23830795288099
 21
12.25
 31
0.0
  0
LINE
  5
25E0
330
257E
100
AcDbEntity
  8
AM_0
100
AcDbLine
 10
23.23830795288099
 20
-12.25
 30
0.0
 11
35.00000762939499
 21
-12.25
 31
0.0
  0
LWPOLYLINE
  5
25E1
330
257E
100
AcDbEntity
  8
AM_11
100
AcDbPolyline
 90
        4
 70
     1
 43
0.0
 10
0.0
 20
13.0
 10
9.0
 20
13.0
 10
9.0
 20
-13.0
 10
0.0
 20
-13.0
1001
GENIUS_GENREC_14
1002
{
1000
PYDIR
1011
0.0
1021
-13.0
1031
0.0
1002
}
1002
{
1000
PXDIR
1011
9.0
1021
13.0
1031
0.0
1002
}
1002
{
1000
PORI
1011
0.0
1021
13.0
1031
0.0
1002
}
1002
{
1000
PINS
1011
0.0
1021
13.0
1031
0.0
1002
}
1002
{
1000
PINS2
1011
9.0
1021
-13.0
1031
0.0
1002
}
1002
{
1000
C
1070
     1
1002
}
1001
GENIUS_GENODEF_13
1002
{
1000
HIER
1070
     0
1002
}
1002
{
1000
MANEDIT
1070
     0
1002
}
1002
{
1000
NOSEL
1070
     0
1002
}
1002
{
1000
BEHIND
1070
     0
1002
}
1002
{
1000
REACTOR
1002
}
1001
GENIUS_GENOBJ-N-REC_13
1002
{
1000
OWNER
1000
GEN
1002
}
  0
LINE
  5
25E2
330
257E
100
AcDbEntity
  8
AM_0
100
AcDbLine
 10
1.024406433105994
 20
10.04681396485
 30
0.0
 11
1.258705139160994
 21
2.63821411133
 31
0.0
  0
LINE
  5
25E3
330
257E
100
AcDbEntity
  8
AM_0
100
AcDbLine
 10
0.7557144165039916
 20
8.560211181639999
 30
0.0
 11
0.9082107543950002
 21
7.44369506836
 31
0.0
  0
LINE
  5
25E4
330
257E
100
AcDbEntity
  8
AM_0
100
AcDbLine
 10
1.100509643555
 20
7.452117919919999
 30
0.0
 11
0.9479064941409944
 21
8.568634033210003
 31
0.0
  0
LINE
  5
25E5
330
257E
100
AcDbEntity
  8
AM_0
100
AcDbLine
 10
5.59440612793
 20
-5.64779663086
 30
0.0
 11
8.926704406738991
 21
-5.79330444336
 31
0.0
  0
LINE
  5
25E6
330
257E
100
AcDbEntity
  8
AM_0
100
AcDbLine
 10
6.632606506347997
 20
1.931030273440001
 30
0.0
 11
10.42571258544999
 21
1.998931884770001
 31
0.0
  0
LINE
  5
25E7
330
257E
100
AcDbEntity
  8
AM_0
100
AcDbLine
 10
8.514213562011988
 20
-1.381072998039996
 30
0.0
 11
1.024604797363991
 21
-0.7910766601499973
 31
0.0
  0
LINE
  5
25E8
330
257E
100
AcDbEntity
  8
AM_0
100
AcDbLine
 10
8.521705627441988
 20
-1.210083007809998
 30
0.0
 11
1.029014587402997
 21
-0.6197814941399998
 31
0.0
  0
ARC
  5
25E9
330
257E
100
AcDbEntity
  8
AM_0
100
AcDbCircle
 10
4.851203918456988
 20
-9.433898925779999
 30
0.0
 40
1.2499485015869
100
AcDbArc
 50
306.4830192301303
 51
76.53297315947611
  0
ARC
  5
25EA
330
257E
100
AcDbEntity
  8
AM_0
100
AcDbCircle
 10
5.205307006835994
 20
-9.449279785149997
 30
0.0
 40
1.2500885725021
100
AcDbArc
 50
267.5012889008893
 51
87.50108900417147
  0
ARC
  5
25EB
330
257E
100
AcDbEntity
  8
AM_0
100
AcDbCircle
 10
5.205307006835994
 20
-9.449279785149997
 30
0.0
 40
1.2499886751175
100
AcDbArc
 50
87.50108900417147
 51
267.5012989187993
  0
ARC
  5
25EC
330
257E
100
AcDbEntity
  8
AM_0
100
AcDbCircle
 10
5.121406555175994
 20
-9.534881591789996
 30
0.0
 40
1.400003433227499
100
AcDbArc
 50
268.31772190295
 51
86.48212723283968
  0
ARC
  5
25ED
330
257E
100
AcDbEntity
  8
AM_0
100
AcDbCircle
 10
5.253005981445994
 20
-9.540679931639999
 30
0.0
 40
1.7499889135361
100
AcDbArc
 50
268.3922256064153
 51
84.94814870752632
  0
LINE
  5
25EE
330
257E
100
AcDbEntity
  8
AM_0
100
AcDbLine
 10
0.0815048217779975
 20
-11.08938598633
 30
0.0
 11
0.0
 21
-12.21566772461
 31
0.0
  0
LINE
  5
25EF
330
257E
100
AcDbEntity
  8
AM_0
100
AcDbLine
 10
0.3659057617189916
 20
-12.63049316405999
 30
0.0
 11
0.2137145996100003
 21
-12.59399414061999
 31
0.0
  0
LINE
  5
25F0
330
257E
100
AcDbEntity
  8
AM_0
100
AcDbLine
 10
0.2136993408209946
 20
-12.59399414061999
 30
0.0
 11
0.3650054931639914
 21
-12.63040161133
 31
0.0
  0
LINE
  5
25F1
330
257E
100
AcDbEntity
  8
AM_0
100
AcDbLine
 10
0.502502441406989
 20
0.0
 30
0.0
 11
-0.0009002685540054
 21
-2.748596191399997
 31
0.0
  0
LINE
  5
25F2
330
257E
100
AcDbEntity
  8
AM_0
100
AcDbLine
 10
0.0815048217779975
 20
-2.561187744139999
 30
0.0
 11
0.5552062988279971
 21
-0.2879028320299994
 31
0.0
  0
LINE
  5
25F3
330
257E
100
AcDbEntity
  8
AM_0
100
AcDbLine
 10
0.6086044311529975
 20
-0.5734863281199978
 30
0.0
 11
0.8161926269529971
 21
-0.7739868163999973
 31
0.0
  0
LINE
  5
25F4
330
257E
100
AcDbEntity
  8
AM_0
100
AcDbLine
 10
1.157707214355994
 20
-6.35647583008
 30
0.0
 11
1.186508178710994
 21
-5.455291748039996
 31
0.0
  0
LINE
  5
25F5
330
257E
100
AcDbEntity
  8
AM_0
100
AcDbLine
 10
1.215408325195994
 20
-5.45657348633
 30
0.0
 11
1.024406433105994
 21
-5.448181152339998
 31
0.0
  0
LINE
  5
25F6
330
257E
100
AcDbEntity
  8
AM_0
100
AcDbLine
 10
1.024406433105994
 20
-0.7911071777299981
 30
0.0
 11
1.024406433105994
 21
-5.448181152339998
 31
0.0
  0
LINE
  5
25F7
330
257E
100
AcDbEntity
  8
AM_0
100
AcDbLine
 10
0.3659057617189916
 20
-2.768676757809998
 30
0.0
 11
0.2137069702150001
 21
-2.78079223633
 31
0.0
  0
LINE
  5
25F8
330
257E
100
AcDbEntity
  8
AM_0
100
AcDbLine
 10
0.3659133911139918
 20
-2.768707275389999
 30
0.0
 11
1.026313781738991
 21
-2.687103271479998
 31
0.0
  0
LINE
  5
25F9
330
257E
100
AcDbEntity
  8
AM_0
100
AcDbLine
 10
0.0
 20
-2.74560546875
 30
0.0
 11
-0.0008926391599999
 21
-2.748596191399997
 31
0.0
  0
LINE
  5
25FA
330
257E
100
AcDbEntity
  8
AM_0
100
AcDbLine
 10
0.0815124511719887
 20
-2.561187744139999
 30
0.0
 11
0.0
 21
-2.74560546875
 31
0.0
  0
LINE
  5
25FB
330
257E
100
AcDbEntity
  8
AM_0
100
AcDbLine
 10
0.9100112915039915
 20
-0.7819824218699978
 30
0.0
 11
1.024604797363991
 21
-0.7910766601499973
 31
0.0
  0
LINE
  5
25FC
330
257E
100
AcDbEntity
  8
AM_0
100
AcDbLine
 10
0.8362045288089916
 20
-0.7759094238300009
 30
0.0
 11
0.9100036621100002
 21
-0.7820129394499987
 31
0.0
  0
LINE
  5
25FD
330
257E
100
AcDbEntity
  8
AM_0
100
AcDbLine
 10
0.8162078857429975
 20
-0.7739868163999973
 30
0.0
 11
0.8202056884769888
 21
-0.7743835449199992
 31
0.0
  0
LINE
  5
25FE
330
257E
100
AcDbEntity
  8
AM_0
100
AcDbLine
 10
0.8202056884769888
 20
-0.7743835449199992
 30
0.0
 11
0.8362045288089916
 21
-0.77587890625
 31
0.0
  0
LINE
  5
25FF
330
257E
100
AcDbEntity
  8
AM_0
100
AcDbLine
 10
1.215400695800994
 20
-0.8060913085899983
 30
0.0
 11
1.215400695800994
 21
-5.456604003899997
 31
0.0
  0
LINE
  5
2600
330
257E
100
AcDbEntity
  8
AM_0
100
AcDbLine
 10
6.91040802002
 20
-6.068084716789996
 30
0.0
 11
3.922500610351988
 21
-5.937591552729998
 31
0.0
  0
LINE
  5
2601
330
257E
100
AcDbEntity
  8
AM_0
100
AcDbLine
 10
5.609901428222997
 20
-5.648376464839998
 30
0.0
 11
4.031600952148991
 21
-5.579467773440001
 31
0.0
  0
LINE
  5
2602
330
257E
100
AcDbEntity
  8
AM_0
100
AcDbLine
 10
1.245010375976988
 20
-6.258575439449998
 30
0.0
 11
1.242507934570994
 21
-6.318969726559998
 31
0.0
  0
LINE
  5
2603
330
257E
100
AcDbEntity
  8
AM_0
100
AcDbLine
 10
1.215400695800994
 20
-5.45657348633
 30
0.0
 11
4.038009643555
 21
-5.57977294922
 31
0.0
  0
LINE
  5
2604
330
257E
100
AcDbEntity
  8
AM_0
100
AcDbLine
 10
6.890510559081988
 20
-6.111785888669999
 30
0.0
 11
6.910400390625
 21
-6.068084716789996
 31
0.0
  0
LINE
  5
2605
330
257E
100
AcDbEntity
  8
AM_0
100
AcDbLine
 10
1.0244140625
 20
5.4482421875
 30
0.0
 11
1.186500549316988
 21
5.455322265630002
 31
0.0
  0
LINE
  5
2606
330
257E
100
AcDbEntity
  8
AM_0
100
AcDbLine
 10
0.3659057617189916
 20
2.76873779297
 30
0.0
 11
3.986511230468991
 21
2.13592529297
 31
0.0
  0
LINE
  5
2607
330
257E
100
AcDbEntity
  8
AM_0
100
AcDbLine
 10
1.024406433105994
 20
2.67352294922
 30
0.0
 11
1.024406433105994
 21
5.448211669919999
 31
0.0
  0
LINE
  5
2608
330
257E
100
AcDbEntity
  8
AM_0
100
AcDbLine
 10
0.6077117919929976
 20
-0.5723876953099989
 30
0.0
 11
0.6086120605469887
 21
-0.5734863281199978
 31
0.0
  0
LINE
  5
2609
330
257E
100
AcDbEntity
  8
AM_0
100
AcDbLine
 10
0.6094131469729973
 20
-0.5670776367200006
 30
0.0
 11
0.6070175170900001
 21
-0.5708618163999973
 31
0.0
  0
LINE
  5
260A
330
257E
100
AcDbEntity
  8
AM_0
100
AcDbLine
 10
-0.0009002685540054
 20
2.748626708990002
 30
0.0
 11
0.6070022583009945
 21
-0.5708618163999973
 31
0.0
  0
LINE
  5
260B
330
257E
100
AcDbEntity
  8
AM_0
100
AcDbLine
 10
0.6070022583009945
 20
-0.5708923339799981
 30
0.0
 11
0.6076965332029971
 21
-0.5723876953099989
 31
0.0
  0
LINE
  5
260C
330
257E
100
AcDbEntity
  8
AM_0
100
AcDbLine
 10
0.9846038818359943
 20
-0.6140747070299995
 30
0.0
 11
1.029014587402997
 21
-0.6197814941399998
 31
0.0
  0
LINE
  5
260D
330
257E
100
AcDbEntity
  8
AM_0
100
AcDbLine
 10
0.3650054931639914
 20
2.768707275389999
 30
0.0
 11
0.2137069702150001
 21
2.780822753910001
 31
0.0
  0
LINE
  5
260E
330
257E
100
AcDbEntity
  8
AM_0
100
AcDbLine
 10
0.2137069702150001
 20
2.780822753910001
 30
0.0
 11
0.3650054931639914
 21
2.768707275389999
 31
0.0
  0
LINE
  5
260F
330
257E
100
AcDbEntity
  8
AM_0
100
AcDbLine
 10
1.092597961425994
 20
7.00131225586
 30
0.0
 11
1.133506774902997
 21
6.956695556639999
 31
0.0
  0
LINE
  5
2610
330
257E
100
AcDbEntity
  8
AM_0
100
AcDbLine
 10
1.092597961425994
 20
7.00131225586
 30
0.0
 11
1.134109497070994
 21
7.033813476559998
 31
0.0
  0
LINE
  5
2611
330
257E
100
AcDbEntity
  8
AM_0
100
AcDbLine
 10
0.908203125
 20
7.443725585940001
 30
0.0
 11
0.9127044677739917
 21
7.410736083990002
 31
0.0
  0
LINE
  5
2612
330
257E
100
AcDbEntity
  8
AM_0
100
AcDbLine
 10
0.9661941528319886
 20
7.209411621100002
 30
0.0
 11
1.125602722167997
 21
7.26922607422
 31
0.0
  0
LINE
  5
2613
330
257E
100
AcDbEntity
  8
AM_0
100
AcDbLine
 10
0.9082107543950002
 20
7.44369506836
 30
0.0
 11
1.100509643555
 21
7.452087402350002
 31
0.0
  0
LINE
  5
2614
330
257E
100
AcDbEntity
  8
AM_0
100
AcDbLine
 10
4.632102966308991
 20
2.00619506836
 30
0.0
 11
3.986503601075
 21
2.135894775389999
 31
0.0
  0
ARC
  5
2615
330
257E
100
AcDbEntity
  8
AM_0
100
AcDbCircle
 10
9.191200256347997
 20
-8.155395507809998
 30
0.0
 40
1.997671246528599
100
AcDbArc
 50
305.8264160697475
 51
37.26481201720079
  0
ARC
  5
2616
330
257E
100
AcDbEntity
  8
AM_0
100
AcDbCircle
 10
9.386604309081988
 20
-8.164001464839998
 30
0.0
 40
1.998282670974699
100
AcDbArc
 50
298.6633166493973
 51
39.59650882624769
  0
LINE
  5
2617
330
257E
100
AcDbEntity
  8
AM_0
100
AcDbLine
 10
12.86860656738299
 20
-12.25
 30
0.0
 11
16.35990905761799
 21
-12.25
 31
0.0
  0
LINE
  5
2618
330
257E
100
AcDbEntity
  8
AM_0
100
AcDbLine
 10
9.936401367187997
 20
-12.09628295897999
 30
0.0
 11
12.86860656738299
 21
-12.25
 31
0.0
  0
LINE
  5
2619
330
257E
100
AcDbEntity
  8
AM_0
100
AcDbLine
 10
12.86860656738299
 20
-12.24688720702999
 30
0.0
 11
12.86860656738299
 21
-12.25
 31
0.0
  0
LINE
  5
261A
330
257E
100
AcDbEntity
  8
AM_0
100
AcDbLine
 10
12.86860656738299
 20
0.2745056152400025
 30
0.0
 11
12.86860656738299
 21
-6.361206054690001
 31
0.0
  0
LINE
  5
261B
330
257E
100
AcDbEntity
  8
AM_0
100
AcDbLine
 10
8.926704406738991
 20
-5.79330444336
 30
0.0
 11
12.86860656738299
 21
-6.361206054690001
 31
0.0
  0
LINE
  5
261C
330
257E
100
AcDbEntity
  8
AM_0
100
AcDbLine
 10
10.42570495605499
 20
-6.46340942383
 30
0.0
 11
10.57789611816399
 21
-6.499816894529999
 31
0.0
  0
LINE
  5
261D
330
257E
100
AcDbEntity
  8
AM_0
100
AcDbLine
 10
10.57790374755899
 20
-6.499786376949998
 30
0.0
 11
10.42660522461
 21
-6.46337890625
 31
0.0
  0
ARC
  5
261E
330
257E
100
AcDbEntity
  8
AM_0
100
AcDbCircle
 10
9.191200256347997
 20
-8.155395507809998
 30
0.0
 40
1.9986147880554
100
AcDbArc
 50
59.15915757149986
 51
85.34246235850309
  0
LINE
  5
261F
330
257E
100
AcDbEntity
  8
AM_0
100
AcDbLine
 10
10.67330169677799
 20
-8.00277709961
 30
0.0
 11
10.783203125
 21
-6.877807617190001
 31
0.0
  0
LINE
  5
2620
330
257E
100
AcDbEntity
  8
AM_0
100
AcDbLine
 10
9.310111999511988
 20
-1.436889648440001
 30
0.0
 11
9.407211303710994
 21
-1.444488525389999
 31
0.0
  0
LINE
  5
2621
330
257E
100
AcDbEntity
  8
AM_0
100
AcDbLine
 10
9.310104370117997
 20
-1.436889648440001
 30
0.0
 11
9.407707214355994
 21
-1.436889648440001
 31
0.0
  0
LINE
  5
2622
330
257E
100
AcDbEntity
  8
AM_0
100
AcDbLine
 10
9.29500579834
 20
-1.436889648440001
 30
0.0
 11
9.310104370117997
 21
-1.436889648440001
 31
0.0
  0
LINE
  5
2623
330
257E
100
AcDbEntity
  8
AM_0
100
AcDbLine
 10
9.142402648925994
 20
-1.4287109375
 30
0.0
 11
9.29500579834
 21
-1.436889648440001
 31
0.0
  0
LINE
  5
2624
330
257E
100
AcDbEntity
  8
AM_0
100
AcDbLine
 10
9.412902832031988
 20
-1.35418701172
 30
0.0
 11
9.29500579834
 21
-1.436889648440001
 31
0.0
  0
LINE
  5
2625
330
257E
100
AcDbEntity
  8
AM_0
100
AcDbLine
 10
9.41830444336
 20
-1.278289794919999
 30
0.0
 11
9.361404418945994
 21
-1.275299072259997
 31
0.0
  0
LINE
  5
2626
330
257E
100
AcDbEntity
  8
AM_0
100
AcDbLine
 10
9.361404418945994
 20
-1.275268554690001
 30
0.0
 11
9.142410278320994
 21
-1.428680419919999
 31
0.0
  0
LINE
  5
2627
330
257E
100
AcDbEntity
  8
AM_0
100
AcDbLine
 10
9.304603576660994
 20
-1.263885498039996
 30
0.0
 11
9.087699890136988
 21
-1.42498779297
 31
0.0
  0
LINE
  5
2628
330
257E
100
AcDbEntity
  8
AM_0
100
AcDbLine
 10
8.517906188965
 20
-1.2373046875
 30
0.0
 11
8.521705627441988
 21
-1.210113525389999
 31
0.0
  0
LINE
  5
2629
330
257E
100
AcDbEntity
  8
AM_0
100
AcDbLine
 10
8.963508605956988
 20
-1.415893554690001
 30
0.0
 11
8.985504150390994
 21
-1.41748046875
 31
0.0
  0
LINE
  5
262A
330
257E
100
AcDbEntity
  8
AM_0
100
AcDbLine
 10
9.178909301757997
 20
-1.25
 30
0.0
 11
8.985496520995994
 21
-1.41748046875
 31
0.0
  0
LINE
  5
262B
330
257E
100
AcDbEntity
  8
AM_0
100
AcDbLine
 10
8.882110595702997
 20
-1.228790283199998
 30
0.0
 11
8.765411376952997
 21
-1.400695800779999
 31
0.0
  0
LINE
  5
262C
330
257E
100
AcDbEntity
  8
AM_0
100
AcDbLine
 10
8.521705627441988
 20
-1.20999145508
 30
0.0
 11
8.547309875488991
 21
-1.211486816399997
 31
0.0
  0
LINE
  5
262D
330
257E
100
AcDbEntity
  8
AM_0
100
AcDbLine
 10
9.361404418945994
 20
-1.275268554690001
 30
0.0
 11
9.357009887695994
 21
-1.274475097649997
 31
0.0
  0
LINE
  5
262E
330
257E
100
AcDbEntity
  8
AM_0
100
AcDbLine
 10
9.406806945800994
 20
-1.450805664059998
 30
0.0
 11
8.96240234375
 21
-1.415802001949998
 31
0.0
  0
LINE
  5
262F
330
257E
100
AcDbEntity
  8
AM_0
100
AcDbLine
 10
10.28131103515699
 20
0.4859008789100017
 30
0.0
 11
10.78460693359399
 21
1.918884277350002
 31
0.0
  0
LINE
  5
2630
330
257E
100
AcDbEntity
  8
AM_0
100
AcDbLine
 10
10.42570495605499
 20
1.998931884770001
 30
0.0
 11
10.57790374755899
 21
1.98681640625
 31
0.0
  0
LINE
  5
2631
330
257E
100
AcDbEntity
  8
AM_0
100
AcDbLine
 10
10.57790374755899
 20
1.98681640625
 30
0.0
 11
10.42660522461
 21
1.998809814460003
 31
0.0
  0
LINE
  5
2632
330
257E
100
AcDbEntity
  8
AM_0
100
AcDbLine
 10
10.67330932617198
 20
1.738922119139999
 30
0.0
 11
10.20262145996099
 21
0.4920349121100003
 31
0.0
  0
LINE
  5
2633
330
257E
100
AcDbEntity
  8
AM_0
100
AcDbLine
 10
10.07120513916099
 20
0.5020141601600017
 30
0.0
 11
9.8037109375
 21
0.51611328125
 31
0.0
  0
LINE
  5
2634
330
257E
100
AcDbEntity
  8
AM_0
100
AcDbLine
 10
10.783203125
 20
1.916076660160001
 30
0.0
 11
10.78460693359399
 21
1.918914794919999
 31
0.0
  0
LINE
  5
2635
330
257E
100
AcDbEntity
  8
AM_0
100
AcDbLine
 10
10.67330169677799
 20
1.738891601559998
 30
0.0
 11
10.783210754395
 21
1.916107177740002
 31
0.0
  0
LINE
  5
2636
330
257E
100
AcDbEntity
  8
AM_0
100
AcDbLine
 10
11.38040161132799
 20
0.4054870605500014
 30
0.0
 11
10.92510986328198
 21
0.445709228520002
 31
0.0
  0
LINE
  5
2637
330
257E
100
AcDbEntity
  8
AM_0
100
AcDbLine
 10
5.59440612793
 20
10.4389038086
 30
0.0
 11
8.926712036132997
 21
10.55850219727
 31
0.0
  0
LINE
  5
2638
330
257E
100
AcDbEntity
  8
AM_0
100
AcDbLine
 10
8.521705627441988
 20
12.33901977539
 30
0.0
 11
1.029006958007997
 21
12.01190185547
 31
0.0
  0
LINE
  5
2639
330
257E
100
AcDbEntity
  8
AM_0
100
AcDbLine
 10
8.514198303222997
 20
12.13012695313
 30
0.0
 11
1.024604797363991
 21
11.80310058594
 31
0.0
  0
LINE
  5
263A
330
257E
100
AcDbEntity
  8
AM_0
100
AcDbLine
 10
1.024406433105994
 20
11.40170288086
 30
0.0
 11
1.21541595459
 21
11.61141967774
 31
0.0
  0
LINE
  5
263B
330
257E
100
AcDbEntity
  8
AM_0
100
AcDbLine
 10
1.215423583985
 20
10.28103637696
 30
0.0
 11
1.024421691895
 21
10.04681396485
 31
0.0
  0
ARC
  5
263C
330
257E
100
AcDbEntity
  8
AM_0
100
AcDbCircle
 10
1.019104003906988
 20
11.58950805664
 30
0.0
 40
0.2029217779636
100
AcDbArc
 50
168.573781546445
 51
182.4858796781367
  0
LINE
  5
263D
330
257E
100
AcDbEntity
  8
AM_0
100
AcDbLine
 10
0.0815048217779975
 20
11.08941650391
 30
0.0
 11
0.0
 21
12.21569824219
 31
0.0
  0
LINE
  5
263E
330
257E
100
AcDbEntity
  8
AM_0
100
AcDbLine
 10
0.6094055175779971
 20
11.67599487305
 30
0.0
 11
0.6077041625979973
 21
11.60751342774
 31
0.0
  0
LINE
  5
263F
330
257E
100
AcDbEntity
  8
AM_0
100
AcDbLine
 10
0.0814971923829973
 20
11.08941650391
 30
0.0
 11
0.7348022460939916
 21
8.70281982422
 31
0.0
  0
LINE
  5
2640
330
257E
100
AcDbEntity
  8
AM_0
100
AcDbLine
 10
0.6077041625979973
 20
11.60751342774
 30
0.0
 11
0.6096038818359944
 21
11.57162475586
 31
0.0
  0
LINE
  5
2641
330
257E
100
AcDbEntity
  8
AM_0
100
AcDbLine
 10
0.6096115112309946
 20
11.57159423828
 30
0.0
 11
0.7348098754889918
 21
8.70281982422
 31
0.0
  0
LINE
  5
2642
330
257E
100
AcDbEntity
  8
AM_0
100
AcDbLine
 10
0.7348022460939916
 20
8.70281982422
 30
0.0
 11
0.7557067871100003
 21
8.560211181639999
 31
0.0
  0
LINE
  5
2643
330
257E
100
AcDbEntity
  8
AM_0
100
AcDbLine
 10
0.7557144165039916
 20
8.560211181639999
 30
0.0
 11
0.9479141235359946
 21
8.568603515630002
 31
0.0
  0
LINE
  5
2644
330
257E
100
AcDbEntity
  8
AM_0
100
AcDbLine
 10
0.9479064941409944
 20
8.568634033210003
 30
0.0
 11
0.81640625
 21
11.58071899414
 31
0.0
  0
LINE
  5
2645
330
257E
100
AcDbEntity
  8
AM_0
100
AcDbLine
 10
1.024406433105994
 20
11.40170288086
 30
0.0
 11
1.024406433105994
 21
10.04681396485
 31
0.0
  0
ARC
  5
2646
330
257E
100
AcDbEntity
  8
AM_0
100
AcDbCircle
 10
1.034606933593991
 20
11.57470703125
 30
0.0
 40
0.2286188155413
100
AcDbArc
 50
92.50696879781854
 51
123.0638349556739
  0
ARC
  5
2647
330
257E
100
AcDbEntity
  8
AM_0
100
AcDbCircle
 10
1.020500183105994
 20
11.59631347655999
 30
0.0
 40
0.2025889754295
100
AcDbArc
 50
123.0546961625658
 51
155.6779609217274
  0
ARC
  5
2648
330
257E
100
AcDbEntity
  8
AM_0
100
AcDbCircle
 10
1.048904418945994
 20
11.58349609375
 30
0.0
 40
0.2334020137787
100
AcDbArc
 50
155.6860751864611
 51
168.5793003392884
  0
LINE
  5
2649
330
257E
100
AcDbEntity
  8
AM_0
100
AcDbLine
 10
0.2137145996100003
 20
12.59399414063
 30
0.0
 11
0.3650054931639914
 21
12.63040161133
 31
0.0
  0
LINE
  5
264A
330
257E
100
AcDbEntity
  8
AM_0
100
AcDbLine
 10
0.9846038818359943
 20
12.01043701172
 30
0.0
 11
1.029006958007997
 21
12.01193237305
 31
0.0
  0
ARC
  5
264B
330
257E
100
AcDbEntity
  8
AM_0
100
AcDbCircle
 10
5.205307006835994
 20
9.449310302740002
 30
0.0
 40
1.249979019164999
100
AcDbArc
 50
97.66854958378569
 51
261.4458990874758
  0
ARC
  5
264C
330
257E
100
AcDbEntity
  8
AM_0
100
AcDbCircle
 10
4.851203918456988
 20
9.433898925779999
 30
0.0
 40
1.249758124351499
100
AcDbArc
 50
130.5933398740464
 51
272.4897412394968
  0
LINE
  5
264D
330
257E
100
AcDbEntity
  8
AM_0
100
AcDbLine
 10
1.215408325195994
 20
10.28100585938
 30
0.0
 11
4.038009643555
 21
10.38290405274
 31
0.0
  0
LINE
  5
264E
330
257E
100
AcDbEntity
  8
AM_0
100
AcDbLine
 10
1.215400695800994
 20
11.61141967774
 30
0.0
 11
1.215400695800994
 21
10.28100585938
 31
0.0
  0
ARC
  5
264F
330
257E
100
AcDbEntity
  8
AM_0
100
AcDbCircle
 10
4.851203918456988
 20
9.433898925779999
 30
0.0
 40
1.2499799728394
100
AcDbArc
 50
272.4897517121509
 51
53.51698076986971
  0
LINE
  5
2650
330
257E
100
AcDbEntity
  8
AM_0
100
AcDbLine
 10
16.35990905761799
 20
12.25
 30
0.0
 11
12.86860656738299
 21
12.25
 31
0.0
  0
LINE
  5
2651
330
257E
100
AcDbEntity
  8
AM_0
100
AcDbLine
 10
12.86860656738299
 20
12.25
 30
0.0
 11
12.86860656738299
 21
10.46890258789
 31
0.0
  0
LINE
  5
2652
330
257E
100
AcDbEntity
  8
AM_0
100
AcDbLine
 10
8.926704406738991
 20
10.55850219727
 30
0.0
 11
12.86860656738299
 21
10.46890258789
 31
0.0
  0
LINE
  5
2653
330
257E
100
AcDbEntity
  8
AM_0
100
AcDbLine
 10
12.86861419677799
 20
12.25003051758
 30
0.0
 11
9.659004211425994
 21
12.08181762696
 31
0.0
  0
LINE
  5
2654
330
257E
100
AcDbEntity
  8
AM_0
100
AcDbLine
 10
9.926002502441988
 20
12.15451049805
 30
0.0
 11
9.936401367187997
 21
12.09631347655999
 31
0.0
  0
LINE
  5
2655
330
257E
100
AcDbEntity
  8
AM_0
100
AcDbLine
 10
8.521705627441988
 20
12.33898925781
 30
0.0
 11
8.547302246093991
 21
12.34020996094
 31
0.0
  0
LINE
  5
2656
330
257E
100
AcDbEntity
  8
AM_0
100
AcDbLine
 10
8.882102966308991
 20
12.28451538086
 30
0.0
 11
8.765403747558991
 21
12.08972167969
 31
0.0
  0
LINE
  5
2657
330
257E
100
AcDbEntity
  8
AM_0
100
AcDbLine
 10
8.517906188965
 20
12.30541992188
 30
0.0
 11
8.521705627441988
 21
12.33901977539
 31
0.0
  0
LINE
  5
2658
330
257E
100
AcDbEntity
  8
AM_0
100
AcDbLine
 10
9.178916931152997
 20
12.06991577149
 30
0.0
 11
9.022201538085994
 21
11.96438598633
 31
0.0
  0
LINE
  5
2659
330
257E
100
AcDbEntity
  8
AM_0
100
AcDbLine
 10
34.99999237060599
 20
-12.25
 30
0.0
 11
35.43299484252999
 21
-12.5
 31
0.0
  0
LINE
  5
265A
330
257E
100
AcDbEntity
  8
AM_0
100
AcDbLine
 10
35.43300247192399
 20
12.50003051758
 30
0.0
 11
35.00000762939499
 21
12.25003051758
 31
0.0
  0
ENDBLK
  5
265C
330
257E
100
AcDbEntity
  8
0
100
AcDbBlockEnd
  0
BLOCK
  5
27A6
330
279C
100
AcDbEntity
  8
0
100
AcDbBlockBegin
  2
*D12
 70
     1
 10
0.0
 20
0.0
 30
0.0
  3
*D12
  1

  0
LINE
  5
284D
330
279C
100
AcDbEntity
  8
AM_5
 62
     3
100
AcDbLine
 10
-8.999999999999975
 20
13.00000000000502
 30
0.0
 11
-8.999999999999973
 21
28.00000100000502
 31
0.0
  0
LINE
  5
284E
330
279C
100
AcDbEntity
  8
AM_5
 62
     3
100
AcDbLine
 10
0.0000000000000239
 20
13.00000000000502
 30
0.0
 11
0.0000000000000248
 21
28.00000100000502
 31
0.0
  0
LINE
  5
284F
330
279C
100
AcDbEntity
  8
AM_5
 62
     3
100
AcDbLine
 10
-6.499999999999975
 20
27.00000100000502
 30
0.0
 11
-2.499999999999975
 21
27.00000100000502
 31
0.0
  0
INSERT
  5
2850
330
279C
100
AcDbEntity
  8
AM_5
 62
     3
100
AcDbBlockReference
  2
_OPEN30
 10
-8.999999999999975
 20
27.00000100000502
 30
0.0
 41
2.5
 42
2.5
 43
2.5
 50
180.0
  0
INSERT
  5
2851
330
279C
100
AcDbEntity
  8
AM_5
 62
     3
100
AcDbBlockReference
  2
_OPEN30
 10
0.0000000000000248
 20
27.00000100000502
 30
0.0
 41
2.5
 42
2.5
 43
2.5
  0
MTEXT
  5
2852
330
279C
100
AcDbEntity
  8
AM_5
 62
     2
100
AcDbMText
 10
-4.499999999999975
 20
30.40000100000502
 30
0.0
 40
3.799999999999999
 41
0.0
 71
     5
 72
     1
  1
9
1001
ACAD
1000
MTEXTBEGIN
1070
    73
1070
     1
1070
    44
1040
1.0
1070
    74
1070
     0
1000
MTEXTEND
  0
POINT
  5
2853
330
279C
100
AcDbEntity
  8
DEFPOINTS
 62
     0
100
AcDbPoint
 10
-8.999999999999975
 20
13.00000000000502
 30
0.0
  0
POINT
  5
2854
330
279C
100
AcDbEntity
  8
DEFPOINTS
 62
     0
100
AcDbPoint
 10
0.0000000000000239
 20
13.00000000000502
 30
0.0
  0
POINT
  5
2855
330
279C
100
AcDbEntity
  8
DEFPOINTS
 62
     0
100
AcDbPoint
 10
0.0000000000000248
 20
27.00000100000502
 30
0.0
  0
ENDBLK
  5
27A7
330
279C
100
AcDbEntity
  8
0
100
AcDbBlockEnd
  0
ENDSEC
  0
SECTION
  2
ENTITIES
  0
TEXT
  5
1142
330
1F
100
AcDbEntity
  8
AM_6
100
AcDbText
 10
-101.1904761904756
 20
-59.50000099999498
 30
0.0
 40
5.0
  1
WEM2026EL
 72
     4
 11
-79.99999999999947
 21
-57.00000099999498
 31
0.0
100
AcDbText
  0
DIMENSION
  5
155D
330
1F
100
AcDbEntity
  8
AM_5
100
AcDbDimension
  2
*D5
 10
-35.00000762939497
 20
-27.00000099999504
 30
0.0
 11
-17.50000381469748
 21
-23.60000099999504
 31
0.0
 70
    32
  1
<>
  3
AM_JIS$0
100
AcDbAlignedDimension
 13
-0.0000000000000008
 23
-6.0
 33
0.0
 14
-35.00000762939497
 24
-12.00009155272999
 34
0.0
 50
0.0000000000001132
100
AcDbRotatedDimension
1001
ACAD
1000
DSTYLE
1002
{
1070
   171
1070
     0
1070
   271
1070
     0
1002
}
1001
GENIUS_GENDTOL_13
1000

1000
h7
1000

1040
0.0
  0
DIMENSION
  5
15E8
330
1F
100
AcDbEntity
  8
AM_5
100
AcDbDimension
  2
*D6
 10
-159.9999999999989
 20
-27.00000099999529
 30
0.0
 11
-97.50000381469698
 21
-23.60000099999529
 31
0.0
 70
    32
  1
<>
  3
AM_JIS$0
100
AcDbAlignedDimension
 13
-35.00000762939497
 23
-12.24999999999497
 33
0.0
 14
-159.9999999999989
 24
-10.16149902342994
 34
0.0
 50
0.0000000000001132
100
AcDbRotatedDimension
1001
ACAD
1000
DSTYLE
1002
{
1070
   171
1070
     0
1070
   271
1070
     0
1002
}
1001
GENIUS_GENDTOL_13
1000

1000
h7
1000

1040
0.0
  0
DIMENSION
  5
1673
330
1F
100
AcDbEntity
  8
AM_5
100
AcDbDimension
  2
*D7
 10
0.0000000000000183
 20
-37.00000099999498
 30
0.0
 11
-79.99999999999947
 21
-33.60000099999498
 31
0.0
 70
    32
  1
<>
  3
AM_JIS$0
100
AcDbAlignedDimension
 13
-159.9999999999989
 23
-10.16149902342994
 33
0.0
 14
0.0000000000000198
 24
-12.49999999999996
 34
0.0
 50
0.0000000000001132
100
AcDbRotatedDimension
1001
ACAD
1000
DSTYLE
1002
{
1070
   171
1070
     0
1070
   271
1070
     0
1002
}
1001
GENIUS_GENDTOL_13
1000

1000
h7
1000

1040
0.0
  0
DIMENSION
  5
1895
330
1F
100
AcDbEntity
  8
AM_5
100
AcDbDimension
  2
*D8
 10
15.899590538574
 20
13.00000000000501
 30
0.0
 11
12.49959053857399
 21
0.0000000000050159
 31
0.0
 70
    32
  1
%%c<>
  3
AM_JIS$0
100
AcDbAlignedDimension
 13
0.0000000000000207
 23
-12.99999999999498
 33
0.0
 14
0.0000000000000239
 24
13.00000000000501
 34
0.0
 50
90.00000000000003
100
AcDbRotatedDimension
1001
ACAD
1000
DSTYLE
1002
{
1070
   171
1070
     0
1070
   271
1070
     0
1002
}
1001
GENIUS_GENDTOL_13
1000

1000
h7
1000

1040
0.0
  0
DIMENSION
  5
1E16
330
1F
100
AcDbEntity
  8
AM_5
100
AcDbDimension
  2
*D9
 10
-177.7581853182377
 20
-12.49996948241997
 30
0.0
 11
-177.7581853182377
 21
0.0000152587900358
 31
0.0
 70
   160
  1
%%c<>
  3
AM_JIS$0
100
AcDbAlignedDimension
 13
-156.9999999999989
 23
12.50000000000001
 33
0.0
 14
-156.9999389648429
 24
-12.49996948241998
 34
0.0
 50
270.0
100
AcDbRotatedDimension
1001
ACAD
1000
DSTYLE
1002
{
1070
   171
1070
     0
1070
   271
1070
     0
1002
}
1001
GENIUS_GENDTOL_13
1000

1000
h7
1000

1040
0.0
  0
LINE
  5
265E
330
1F
100
AcDbEntity
  8
AM_7
  6
AM_ISO08W050X2
100
AcDbLine
 10
1.899589538574027
 20
0.000000000005018
 30
0.0
 11
-163.7581843182377
 21
0.0000000000050383
 31
0.0
  0
LINE
  5
265F
330
1F
100
AcDbEntity
  8
AM_0
100
AcDbLine
 10
-157.0000076293939
 20
-12.49999999999496
 30
0.0
 11
-35.43300628662097
 21
-12.49999999999497
 31
0.0
  0
LINE
  5
2660
330
1F
100
AcDbEntity
  8
AM_0
100
AcDbLine
 10
-35.43300628662097
 20
12.50000000000502
 30
0.0
 11
-157.0000076293939
 21
12.50000000000503
 31
0.0
  0
LINE
  5
2661
330
1F
100
AcDbEntity
  8
AM_0
100
AcDbLine
 10
-160.0000076293939
 20
-10.16149902343496
 30
0.0
 11
-160.0000076293939
 21
10.16149902344503
 31
0.0
  0
LINE
  5
2662
330
1F
100
AcDbEntity
  8
AM_0
100
AcDbLine
 10
-157.0000076293939
 20
-12.49999999999496
 30
0.0
 11
-157.0000076293939
 21
12.50000000000503
 31
0.0
  0
ARC
  5
2663
330
1F
100
AcDbEntity
  8
AM_0
100
AcDbCircle
 10
-158.0000076293939
 20
10.16149902344503
 30
0.0
 40
2.0000627040863
100
AcDbArc
 50
105.0013537054863
 51
180.0
  0
LINE
  5
2664
330
1F
100
AcDbEntity
  8
AM_0
100
AcDbLine
 10
-157.0000076293939
 20
12.50000000000503
 30
0.0
 11
-158.5177078247059
 21
12.09338378906503
 31
0.0
  0
ARC
  5
2665
330
1F
100
AcDbEntity
  8
AM_0
100
AcDbCircle
 10
-158.0000076293939
 20
-10.16149902343496
 30
0.0
 40
2.0
100
AcDbArc
 50
180.0
 51
254.9986462945136
  0
LINE
  5
2666
330
1F
100
AcDbEntity
  8
AM_0
100
AcDbLine
 10
-158.5177078247059
 20
-12.09341430663496
 30
0.0
 11
-156.9999999999989
 21
-12.49999999999496
 31
0.0
  0
ELLIPSE
  5
2667
330
1F
100
AcDbEntity
  8
AM_0
100
AcDbEllipse
 10
-4.034408569335972
 20
0.0000000000050187
 30
0.0
 11
-19.296919888604
 21
-0.95017998434997
 31
0.0
210
0.0
220
0.0
230
1.0
 40
0.6329035645839
 41
6.226388422732376
 42
6.963021796405268
  0
LINE
  5
2668
330
1F
100
AcDbEntity
  8
AM_0
100
AcDbLine
 10
-35.00000762939497
 20
-12.24999999999497
 30
0.0
 11
-35.00000762939497
 21
12.25000000000502
 31
0.0
  0
LINE
  5
2669
330
1F
100
AcDbEntity
  8
AM_0
100
AcDbLine
 10
-35.43300628662097
 20
-12.49999999999497
 30
0.0
 11
-35.43300628662097
 21
12.50000000000502
 31
0.0
  0
SPLINE
  5
266B
330
1F
100
AcDbEntity
  8
AM_0
100
AcDbSpline
210
0.0
220
0.0
230
1.0
 70
     8
 71
     3
 72
    11
 73
     7
 74
     5
 42
0.0000000001
 43
0.0000000001
 44
0.0000000001
 40
0.0
 40
0.0
 40
0.0
 40
0.0
 40
0.3059100740291535
 40
0.6745229399441227
 40
1.064528014209305
 40
1.4545275232578
 40
1.4545275232578
 40
1.4545275232578
 40
1.4545275232578
 10
-23.23830795288097
 20
12.25000000000502
 30
0.0
 10
-23.13634080057916
 20
12.24922787621179
 30
0.0
 10
-22.91150615410135
 20
12.2475253653917
 30
0.0
 10
-22.55668025481679
 20
12.24411324019461
 30
0.0
 10
-22.17381167862438
 20
12.24173313652567
 30
0.0
 10
-21.91380971576033
 20
12.24230053253466
 30
0.0
 10
-21.78380966186597
 20
12.24258422851502
 30
0.0
 11
-23.23830795288097
 21
12.25000000000502
 31
0.0
 11
-22.93240737915097
 21
12.24758911133502
 31
0.0
 11
-22.56380844116197
 21
12.24438476562502
 31
0.0
 11
-22.17380905151397
 21
12.24227905273502
 31
0.0
 11
-21.78380966186597
 21
12.24258422851502
 31
0.0
  0
SPLINE
  5
266C
330
1F
100
AcDbEntity
  8
AM_0
100
AcDbSpline
210
0.0
220
0.0
230
1.0
 70
     8
 71
     3
 72
    11
 73
     7
 74
     5
 42
0.0000000001
 43
0.0000000001
 44
0.0000000001
 40
0.0
 40
0.0
 40
0.0
 40
0.0
 40
0.0086840885735989
 40
0.0285973636897987
 40
0.0582034412587723
 40
0.0961026551825902
 40
0.0961026551825902
 40
0.0961026551825902
 40
0.0961026551825902
 10
-23.33430862426797
 20
12.24740600586502
 30
0.0
 10
-23.33144528510141
 20
12.24784682854155
 30
0.0
 10
-23.32201609160351
 20
12.24929849111924
 30
0.0
 10
-23.30255749918931
 20
12.24933338591392
 30
0.0
 10
-23.27345201167582
 20
12.25006343867028
 30
0.0
 10
-23.25094434064403
 20
12.25002280999342
 30
0.0
 10
-23.23830795288097
 20
12.25000000000502
 30
0.0
 11
-23.33430862426797
 21
12.24740600586502
 31
0.0
 11
-23.32570648193397
 21
12.24859619140501
 31
0.0
 11
-23.30580902099597
 21
12.24938964844502
 31
0.0
 11
-23.27620697021497
 21
12.24987792969502
 31
0.0
 11
-23.23830795288097
 21
12.25000000000502
 31
0.0
  0
ELLIPSE
  5
266D
330
1F
100
AcDbEntity
  8
AM_0
100
AcDbEllipse
 10
-16.89470291137697
 20
0.0000000000050203
 30
0.0
 11
-155.8002859584619
 21
-0.0467376680499947
 31
0.0
210
0.0
220
0.0
230
0.9999999999999998
 40
0.0786256168633
 41
4.708935998134831
 42
4.743760582868457
  0
ELLIPSE
  5
266E
330
1F
100
AcDbEntity
  8
AM_0
100
AcDbEllipse
 10
-16.89470291137697
 20
-0.0001220703049786
 30
0.0
 11
-155.80098786279
 21
-0.0467376700299647
 31
0.0
210
0.0
220
0.0
230
1.0
 40
0.078626633772
 41
4.68652485112342
 42
4.708935991039818
  0
SPLINE
  5
266F
330
1F
100
AcDbEntity
  8
AM_0
100
AcDbSpline
210
0.0
220
0.0
230
1.0
 70
     8
 71
     3
 72
    11
 73
     7
 74
     5
 42
0.0000000001
 43
0.0000000001
 44
0.0000000001
 40
0.0
 40
0.0
 40
0.0
 40
0.0
 40
0.3059098350410936
 40
0.6745227009559759
 40
1.064527775221212
 40
1.454527284269715
 40
1.454527284269715
 40
1.454527284269715
 40
1.454527284269715
 10
-23.23830795288097
 20
-12.24999999999497
 30
0.0
 10
-23.1363407811364
 20
-12.24924053140235
 30
0.0
 10
-22.91150599579925
 20
-12.2475659242217
 30
0.0
 10
-22.5566802788695
 20
-12.24414068645539
 30
0.0
 10
-22.17381167247067
 20
-12.2417644398662
 30
0.0
 10
-21.9138097137091
 20
-12.24233131203356
 30
0.0
 10
-21.78380966186597
 20
-12.24261474609498
 30
0.0
 11
-23.23830795288097
 21
-12.24999999999497
 31
0.0
 11
-22.93240737915097
 21
-12.24761962890497
 31
0.0
 11
-22.56380844116197
 21
-12.24441528320498
 31
0.0
 11
-22.17380905151397
 21
-12.24230957030497
 31
0.0
 11
-21.78380966186597
 21
-12.24261474609498
 31
0.0
  0
ELLIPSE
  5
2670
330
1F
100
AcDbEntity
  8
AM_0
100
AcDbEllipse
 10
-16.89471054077197
 20
0.0000000000050203
 30
0.0
 11
155.7999963782309
 21
-0.0456011945299983
 31
0.0
210
0.0
220
0.0
230
1.0
 40
0.078625763172
 41
4.681025300888831
 42
4.71584160531941
  0
SPLINE
  5
2671
330
1F
100
AcDbEntity
  8
AM_0
100
AcDbSpline
210
0.0
220
0.0
230
1.0
 70
     8
 71
     3
 72
    11
 73
     7
 74
     5
 42
0.0000000001
 43
0.0000000001
 44
0.0000000001
 40
0.0
 40
0.0
 40
0.0
 40
0.0
 40
0.1813265704564974
 40
0.3407874884369904
 40
0.4841554757724124
 40
0.6150777570316805
 40
0.6150777570316805
 40
0.6150777570316805
 40
0.6150777570316805
 10
-5.036109924316965
 20
10.67718505859501
 30
0.0
 10
-5.095859504403801
 20
10.66719390040466
 30
0.0
 10
-5.208153633618817
 20
10.64841638921202
 30
0.0
 10
-5.359898697292948
 20
10.59098377284266
 30
0.0
 10
-5.487382240992227
 20
10.52159008459269
 30
0.0
 10
-5.559827210193657
 20
10.46561935796867
 30
0.0
 10
-5.594406127929977
 20
10.43890380859501
 30
0.0
 11
-5.036109924316965
 21
10.67718505859501
 31
0.0
 11
-5.213806152343968
 21
10.64108276367501
 31
0.0
 11
-5.363304138183968
 21
10.58560180664501
 31
0.0
 11
-5.488807678222974
 21
10.51629638672501
 31
0.0
 11
-5.594406127929977
 21
10.43890380859501
 31
0.0
  0
SPLINE
  5
2672
330
1F
100
AcDbEntity
  8
AM_0
100
AcDbSpline
210
0.0
220
0.0
230
1.0
 70
     8
 71
     3
 72
    11
 73
     7
 74
     5
 42
0.0000000001
 43
0.0000000001
 44
0.0000000001
 40
0.0
 40
0.0
 40
0.0
 40
0.0
 40
0.059893382800206
 40
0.1200740468608948
 40
0.1804907226186626
 40
0.2411526464048431
 40
0.2411526464048431
 40
0.2411526464048431
 40
0.2411526464048431
 10
-10.76160430908196
 20
6.714294433595017
 30
0.0
 10
-10.77585076202526
 20
6.728282515966526
 30
0.0
 10
-10.80441200165373
 20
6.756325775165517
 30
0.0
 10
-10.84587226279703
 20
6.799938742414058
 30
0.0
 10
-10.88621679553269
 20
6.844930254456112
 30
0.0
 10
-10.91212292990667
 20
6.875881147161001
 30
0.0
 10
-10.92510223388696
 20
6.891387939455018
 30
0.0
 11
-10.76160430908196
 21
6.714294433595017
 31
0.0
 11
-10.80410003662097
 21
6.756500244145018
 31
0.0
 11
-10.84560394287097
 21
6.800079345705017
 31
0.0
 11
-10.88590240478597
 21
6.845092773445021
 31
0.0
 11
-10.92510223388696
 21
6.891387939455018
 31
0.0
  0
SPLINE
  5
2673
330
1F
100
AcDbEntity
  8
AM_0
100
AcDbSpline
210
0.0
220
0.0
230
1.0
 70
     8
 71
     3
 72
    11
 73
     7
 74
     5
 42
0.0000000001
 43
0.0000000001
 44
0.0000000001
 40
0.0
 40
0.0
 40
0.0
 40
0.0
 40
0.2543698150576577
 40
0.5065422363799113
 40
0.7564226773114424
 40
1.003932859481977
 40
1.003932859481977
 40
1.003932859481977
 40
1.003932859481977
 10
-9.487403869628968
 20
6.16638183594502
 30
0.0
 10
-9.572059550750093
 20
6.173144526867072
 30
0.0
 10
-9.740639608205569
 20
6.186611488671585
 30
0.0
 10
-9.986057593450475
 20
6.248322928743285
 30
0.0
 10
-10.22098724341853
 20
6.335991386519301
 30
0.0
 10
-10.36489136695935
 20
6.418850753029765
 30
0.0
 10
-10.43650054931696
 20
6.460083007815017
 30
0.0
 11
-9.487403869628968
 21
6.16638183594502
 31
0.0
 11
-9.740303039550971
 21
6.193695068365019
 31
0.0
 11
-9.985404968261965
 21
6.252990722655016
 31
0.0
 11
-10.21870422363297
 21
6.342498779295016
 31
0.0
 11
-10.43650054931696
 21
6.460083007815017
 31
0.0
  0
SPLINE
  5
2674
330
1F
100
AcDbEntity
  8
AM_0
100
AcDbSpline
210
0.0
220
0.0
230
1.0
 70
     8
 71
     3
 72
    11
 73
     7
 74
     5
 42
0.0000000001
 43
0.0000000001
 44
0.0000000001
 40
0.0
 40
0.0
 40
0.0
 40
0.0
 40
0.2703036874837126
 40
0.5411400018455711
 40
0.8120631813587804
 40
1.082837579834517
 40
1.082837579834517
 40
1.082837579834517
 40
1.082837579834517
 10
-8.443000793456965
 20
6.40319824219502
 30
0.0
 10
-8.524215737623919
 20
6.363828460006804
 30
0.0
 10
-8.686805658040901
 20
6.285011318426837
 30
0.0
 10
-8.948003407077314
 20
6.210089093823497
 30
0.0
 10
-9.216126904656878
 20
6.165073857315803
 30
0.0
 10
-9.396994773514334
 20
6.165945922908257
 30
0.0
 10
-9.487403869628968
 20
6.16638183594502
 30
0.0
 11
-8.443000793456965
 21
6.40319824219502
 31
0.0
 11
-8.689506530761965
 21
6.292297363285018
 31
0.0
 11
-8.949104309081965
 21
6.215087890625016
 31
0.0
 11
-9.216705322265971
 21
6.172790527345017
 31
0.0
 11
-9.487403869628968
 21
6.16638183594502
 31
0.0
  0
ELLIPSE
  5
2675
330
1F
100
AcDbEntity
  8
AM_0
100
AcDbEllipse
 10
-5.396606445312974
 20
6.046569824225019
 30
0.0
 11
1.499397226267006
 21
-0.0425873210299985
 31
0.0
210
0.0
220
0.0
230
1.0
 40
0.1902110144793
 41
0.1515046486906716
 42
3.064547116630097
  0
ELLIPSE
  5
2676
330
1F
100
AcDbEntity
  8
AM_0
100
AcDbEllipse
 10
-161.2474899291989
 20
0.0457763671950391
 30
0.0
 11
254.7010846712079
 21
-0.0745486134800074
 31
0.0
210
0.0
220
0.0
230
1.0
 40
0.0586129720057
 41
5.353383735891504
 42
5.392189250558816
  0
ELLIPSE
  5
2677
330
1F
100
AcDbEntity
  8
AM_0
100
AcDbEllipse
 10
-11.11721038818396
 20
0.0841064453150185
 30
0.0
 11
1.614207963601997
 21
-12.15739484326997
 31
0.0
210
0.0
220
0.0
230
1.0
 40
0.0777143912311
 41
0.055594976417498
 42
0.1134651860683928
  0
ELLIPSE
  5
2678
330
1F
100
AcDbEntity
  8
AM_0
100
AcDbEllipse
 10
-11.33070373535196
 20
0.0849914550850204
 30
0.0
 11
1.755637870871992
 21
-12.15859994268999
 31
0.0
210
0.0
220
0.0
230
0.9999999999999998
 40
0.2741947134792
 41
6.258042208615252
 42
6.320064481402481
  0
ELLIPSE
  5
2679
330
1F
100
AcDbEntity
  8
AM_0
100
AcDbEllipse
 10
-206.9858169555609
 20
-0.0515136718749587
 30
0.0
 11
-285.1886773522299
 21
-0.0855560288299777
 31
0.0
210
0.0
220
0.0
230
1.0
 40
0.0586131415058
 41
3.949263341233752
 42
3.963788157276116
  0
ELLIPSE
  5
267A
330
1F
100
AcDbEntity
  8
AM_0
100
AcDbEllipse
 10
-3.955909729003968
 20
6.377014160155016
 30
0.0
 11
-0.0348663242159973
 21
-0.7992401015799829
 31
0.0
210
0.0
220
0.0
230
1.0
 40
0.0785044241906
 41
0.9847930180339247
 42
1.517106023907088
  0
ELLIPSE
  5
267B
330
1F
100
AcDbEntity
  8
AM_0
100
AcDbEllipse
 10
-6.943809509277974
 20
6.507385253905016
 30
0.0
 11
-0.0348663242150026
 21
-0.7992401015799829
 31
0.0
210
0.0
220
0.0
230
1.0
 40
0.0785044241906
 41
0.9847930180339247
 42
1.405924773372517
  0
SPLINE
  5
267C
330
1F
100
AcDbEntity
  8
AM_0
100
AcDbSpline
210
0.0
220
0.0
230
1.0
 70
     8
 71
     3
 72
    11
 73
     7
 74
     5
 42
0.0000000001
 43
0.0000000001
 44
0.0000000001
 40
0.0
 40
0.0
 40
0.0
 40
0.0
 40
0.3065641301705471
 40
0.5662522029979794
 40
0.7393989452216246
 40
0.8002166195869607
 40
0.8002166195869607
 40
0.8002166195869607
 40
0.8002166195869607
 10
-1.245002746581965
 20
6.258605957035017
 30
0.0
 10
-1.249443727948964
 20
6.156506538343609
 30
0.0
 10
-1.257646629838161
 20
5.967919501997709
 30
0.0
 10
-1.265153834163836
 20
5.721637200412036
 30
0.0
 10
-1.272935884173792
 20
5.557107562184827
 30
0.0
 10
-1.270058068755261
 20
5.479155898800573
 30
0.0
 10
-1.269309997558968
 20
5.458892822265015
 30
0.0
 11
-1.245002746581965
 21
6.258605957035017
 31
0.0
 11
-1.257606506347974
 21
5.952301025395017
 31
0.0
 11
-1.266906738281965
 21
5.692779541015015
 31
0.0
 11
-1.271110534667974
 21
5.519683837895017
 31
0.0
 11
-1.269309997558968
 21
5.458892822265015
 31
0.0
  0
SPLINE
  5
267D
330
1F
100
AcDbEntity
  8
AM_0
100
AcDbSpline
210
0.0
220
0.0
230
1.0
 70
     8
 71
     3
 72
    13
 73
     9
 74
     7
 42
0.0000000001
 43
0.0000000001
 44
0.0000000001
 40
0.0
 40
0.0
 40
0.0
 40
0.0
 40
0.0075014690545401
 40
0.0442820394490187
 40
0.2959885115428607
 40
1.479937841407584
 40
4.198568293454236
 40
5.766171003833632
 40
5.766171003833632
 40
5.766171003833632
 40
5.766171003833632
 10
-23.33430862426797
 20
12.24740600586502
 30
0.0
 10
-23.33629538795293
 20
12.24569078809978
 30
0.0
 10
-23.3480234837744
 20
12.23556565924944
 30
0.0
 10
-23.27229724267645
 20
12.12959406332374
 30
0.0
 10
-22.93438369475935
 20
11.87067994704921
 30
0.0
 10
-21.76268527002212
 20
10.97938802444509
 30
0.0
 10
-20.28796532777997
 20
9.99361204208124
 30
0.0
 10
-19.09800959982731
 20
9.193145135669526
 30
0.0
 10
-18.66280746459997
 20
8.900390625005019
 30
0.0
 11
-23.33430862426797
 21
12.24740600586502
 31
0.0
 11
-23.33960723876997
 21
12.24209594726501
 31
0.0
 11
-23.32740783691396
 21
12.20739746094502
 31
0.0
 11
-23.14600753784197
 21
12.03289794922502
 31
0.0
 11
-22.20000839233397
 21
11.32098388672502
 31
0.0
 11
-19.96380996704097
 21
9.774902343755019
 31
0.0
 11
-18.66280746459997
 21
8.900390625005019
 31
0.0
  0
SPLINE
  5
267E
330
1F
100
AcDbEntity
  8
AM_0
100
AcDbSpline
210
0.0
220
0.0
230
1.0
 70
     8
 71
     3
 72
    11
 73
     7
 74
     5
 42
0.0000000001
 43
0.0000000001
 44
0.0000000001
 40
0.0
 40
0.0
 40
0.0
 40
0.0
 40
1.501559613970697
 40
3.07773577884496
 40
4.703546366782386
 40
6.355210511305648
 40
6.355210511305648
 40
6.355210511305648
 40
6.355210511305648
 10
-18.66280746459997
 20
8.900390625005019
 30
0.0
 10
-18.23913786925336
 20
8.63323913841441
 30
0.0
 10
-17.37074539260779
 20
8.085660686649001
 30
0.0
 10
-15.95830195760179
 20
7.399513579040266
 30
0.0
 10
-14.45450335344229
 20
6.795606791460798
 30
0.0
 10
-13.40001152955186
 20
6.50676578412783
 30
0.0
 10
-12.86860656738297
 20
6.361206054695021
 30
0.0
 11
-18.66280746459997
 21
8.900390625005019
 31
0.0
 11
-17.37850952148497
 21
8.12240600586502
 31
0.0
 11
-15.96580886840896
 21
7.423400878905017
 31
0.0
 11
-14.45290756225597
 21
6.828094482425019
 31
0.0
 11
-12.86860656738297
 21
6.361206054695021
 31
0.0
  0
SPLINE
  5
267F
330
1F
100
AcDbEntity
  8
AM_0
100
AcDbSpline
210
0.0
220
0.0
230
1.0
 70
     8
 71
     3
 72
    11
 73
     7
 74
     5
 42
0.0000000001
 43
0.0000000001
 44
0.0000000001
 40
0.0
 40
0.0
 40
0.0
 40
0.0
 40
0.1841985886199716
 40
0.3873202971576629
 40
0.6166264834978077
 40
0.8685236645990855
 40
0.8685236645990855
 40
0.8685236645990855
 40
0.8685236645990855
 10
-4.038002014160973
 20
-10.38290405273498
 30
0.0
 10
-4.087909796878477
 20
-10.4188350635718
 30
0.0
 10
-4.192852496914605
 20
-10.49438835580253
 30
0.0
 10
-4.378047840085246
 20
-10.58520681565215
 30
0.0
 10
-4.595191878886865
 20
-10.65979870204504
 30
0.0
 10
-4.755294322270747
 20
-10.67601859448597
 30
0.0
 10
-4.839103698730973
 20
-10.68450927734498
 30
0.0
 11
-4.038002014160973
 21
-10.38290405273498
 31
0.0
 11
-4.190299987792975
 21
-10.48651123046498
 31
0.0
 11
-4.371803283691967
 21
-10.57769775390498
 31
0.0
 11
-4.58970642089897
 21
-10.64910888671498
 31
0.0
 11
-4.839103698730973
 21
-10.68450927734498
 31
0.0
  0
SPLINE
  5
2680
330
1F
100
AcDbEntity
  8
AM_0
100
AcDbSpline
210
0.0
220
0.0
230
1.0
 70
     8
 71
     3
 72
    11
 73
     7
 74
     5
 42
0.0000000001
 43
0.0000000001
 44
0.0000000001
 40
0.0
 40
0.0
 40
0.0
 40
0.0
 40
0.2471242551756548
 40
0.4620138790577368
 40
0.6469521203592736
 40
0.8118100138541151
 40
0.8118100138541151
 40
0.8118100138541151
 40
0.8118100138541151
 10
-4.839103698730973
 20
-10.68450927734498
 30
0.0
 10
-4.921817450213066
 20
-10.68351150237801
 30
0.0
 10
-5.076455857303042
 20
-10.68164610117493
 30
0.0
 10
-5.285960087362522
 20
-10.6231845339105
 30
0.0
 10
-5.457794939369795
 20
-10.54338577483324
 30
0.0
 10
-5.550645792761447
 20
-10.47237226685116
 30
0.0
 10
-5.594406127929978
 20
-10.43890380859498
 30
0.0
 11
-4.839103698730973
 21
-10.68450927734498
 31
0.0
 11
-5.085807800292975
 21
-10.67010498046498
 31
0.0
 11
-5.29340362548897
 21
-10.61459350585498
 31
0.0
 11
-5.460105895995972
 21
-10.53451538085498
 31
0.0
 11
-5.594406127929978
 21
-10.43890380859498
 31
0.0
  0
SPLINE
  5
2681
330
1F
100
AcDbEntity
  8
AM_0
100
AcDbSpline
210
0.0
220
0.0
230
1.0
 70
     8
 71
     3
 72
    11
 73
     7
 74
     5
 42
0.0000000001
 43
0.0000000001
 44
0.0000000001
 40
0.0
 40
0.0
 40
0.0
 40
0.0
 40
1.48880963195299
 40
3.014200918905995
 40
4.5854213149286
 40
6.197743145554409
 40
6.197743145554409
 40
6.197743145554409
 40
6.197743145554409
 10
-18.66280746459997
 20
-8.41702270507498
 30
0.0
 10
-18.24194365244923
 20
-8.681951197004202
 30
0.0
 10
-17.38987495132527
 20
-9.218317759040697
 30
0.0
 10
-15.95829468040993
 20
-9.774236125729789
 30
0.0
 10
-14.44557824924047
 20
-10.19995118145627
 30
0.0
 10
-13.39876877351995
 20
-10.37848379811449
 30
0.0
 10
-12.86860656738297
 20
-10.46890258788498
 30
0.0
 11
-18.66280746459997
 21
-8.41702270507498
 31
0.0
 11
-17.37850952148497
 21
-9.17010498046498
 31
0.0
 11
-15.96580886840897
 21
-9.745513916014981
 31
0.0
 11
-14.45290756225597
 21
-10.16961669921498
 31
0.0
 11
-12.86860656738297
 21
-10.46890258788498
 31
0.0
  0
SPLINE
  5
2682
330
1F
100
AcDbEntity
  8
AM_0
100
AcDbSpline
210
0.0
220
0.0
230
1.0
 70
     8
 71
     3
 72
    11
 73
     7
 74
     5
 42
0.0000000001
 43
0.0000000001
 44
0.0000000001
 40
0.0
 40
0.0
 40
0.0
 40
0.0
 40
0.4471226869440373
 40
0.9058691764969459
 40
1.366237298498897
 40
1.826746628828026
 40
1.826746628828026
 40
1.826746628828026
 40
1.826746628828026
 10
-23.33430862426797
 20
-0.2541198730449803
 30
0.0
 10
-23.27284768280056
 20
-0.1116445517467118
 30
0.0
 10
-23.14832800607752
 20
0.1770100071568363
 30
0.0
 10
-22.69359647350529
 20
0.3492087417877886
 30
0.0
 10
-22.24689848337568
 20
0.4410520302751526
 30
0.0
 10
-21.93818838168089
 20
0.4312789106752458
 30
0.0
 10
-21.78380966186597
 20
0.4263916015650198
 30
0.0
 11
-23.33430862426797
 21
-0.2541198730449803
 31
0.0
 11
-23.10680770874097
 21
0.1307983398450194
 31
0.0
 11
-22.69620895385797
 21
0.3353881835950193
 31
0.0
 11
-22.24430847167997
 21
0.4232788085950193
 31
0.0
 11
-21.78380966186597
 21
0.4263916015650198
 31
0.0
  0
ELLIPSE
  5
2683
330
1F
100
AcDbEntity
  8
AM_0
100
AcDbEllipse
 10
-11.11721038818396
 20
-0.0504150390549793
 30
0.0
 11
-0.9782833371390056
 21
-12.15719568162001
 31
0.0
210
0.0
220
0.0
230
1.0
 40
0.1310948025444
 41
1.647461508734963
 42
1.705127944940719
  0
ELLIPSE
  5
2684
330
1F
100
AcDbEntity
  8
AM_0
100
AcDbEllipse
 10
-11.33070373535196
 20
-0.1782226562449804
 30
0.0
 11
-3.455025169980005
 21
-12.16175816950999
 31
0.0
210
0.0
220
0.0
230
1.0
 40
0.1234908239334
 41
1.578108089719601
 42
1.682438595621166
  0
SPLINE
  5
2685
330
1F
100
AcDbEntity
  8
AM_0
100
AcDbSpline
210
0.0
220
0.0
230
1.0
 70
     8
 71
     3
 72
    11
 73
     7
 74
     5
 42
0.0000000001
 43
0.0000000001
 44
0.0000000001
 40
0.0
 40
0.0
 40
0.0
 40
0.0
 40
0.474573617972398
 40
0.9674480599661759
 40
1.466323348249793
 40
1.946277339440428
 40
1.946277339440428
 40
1.946277339440428
 40
1.946277339440428
 10
-4.038002014160971
 20
5.579803466795016
 30
0.0
 10
-4.139508349410282
 20
5.458384153731067
 30
0.0
 10
-4.346435374833203
 20
5.210863275162183
 30
0.0
 10
-4.838835994201617
 20
4.999670625134311
 30
0.0
 10
-5.323335239816744
 20
5.242334119189525
 30
0.0
 10
-5.505221149419606
 20
5.514395491250814
 30
0.0
 10
-5.594406127929977
 20
5.647796630865019
 30
0.0
 11
-4.038002014160971
 21
5.579803466795016
 31
0.0
 11
-4.370903015136965
 21
5.24157714844502
 31
0.0
 11
-4.835205078124976
 21
5.076202392585019
 31
0.0
 11
-5.293106079101965
 21
5.274200439455017
 31
0.0
 11
-5.594406127929977
 21
5.647796630865019
 31
0.0
  0
SPLINE
  5
2686
330
1F
100
AcDbEntity
  8
AM_0
100
AcDbSpline
210
0.0
220
0.0
230
1.0
 70
     8
 71
     3
 72
    11
 73
     7
 74
     5
 42
0.0000000001
 43
0.0000000001
 44
0.0000000001
 40
0.0
 40
0.0
 40
0.0
 40
0.0
 40
0.1144427777419535
 40
0.2296230859725631
 40
0.3451841123271573
 40
0.4605540879242167
 40
0.4605540879242167
 40
0.4605540879242167
 40
0.4605540879242167
 10
-0.0000076293949794
 20
-12.21569824218498
 30
0.0
 10
-0.0002549602204871
 20
-12.25411125846913
 30
0.0
 10
-0.0007512158036684
 20
-12.331184845066
 30
0.0
 10
-0.0423939528294162
 20
-12.44073909964922
 30
0.0
 10
-0.1133750988266148
 20
-12.53493924946826
 30
0.0
 10
-0.1802814637794549
 20
-12.57432003690207
 30
0.0
 10
-0.2137069702149793
 20
-12.59399414062498
 30
0.0
 11
-0.0000076293949794
 21
-12.21569824218498
 31
0.0
 11
-0.0075073242189708
 21
-12.32989501952498
 31
0.0
 11
-0.0472030639649793
 21
-12.43801879882498
 31
0.0
 11
-0.1183090209959735
 21
-12.52911376952498
 31
0.0
 11
-0.2137069702149793
 21
-12.59399414062498
 31
0.0
  0
SPLINE
  5
2687
330
1F
100
AcDbEntity
  8
AM_0
100
AcDbSpline
210
0.0
220
0.0
230
1.0
 70
     8
 71
     3
 72
    11
 73
     7
 74
     5
 42
0.0000000001
 43
0.0000000001
 44
0.0000000001
 40
0.0
 40
0.0
 40
0.0
 40
0.0
 40
2.187197139595289
 40
4.371423263286422
 40
6.552581225010801
 40
8.730572014093194
 40
8.730572014093194
 40
8.730572014093194
 40
8.730572014093194
 10
-0.3659057617189708
 20
-12.63049316405498
 30
0.0
 10
-1.094767267470116
 20
-12.64775332288626
 30
0.0
 10
-2.551500217726299
 20
-12.68225019492271
 30
0.0
 10
-4.735173276175514
 20
-12.72998653623357
 30
0.0
 10
-6.915839961530807
 20
-12.7747448972525
 30
0.0
 10
-8.36863537373086
 20
-12.80193571113829
 30
0.0
 10
-9.09450531005897
 20
-12.81552124023498
 30
0.0
 11
-0.3659057617189708
 21
-12.63049316405498
 31
0.0
 11
-2.55250549316397
 21
-12.68161010741498
 31
0.0
 11
-4.736206054687976
 21
-12.72952270507498
 31
0.0
 11
-6.916908264160974
 21
-12.77410888671498
 31
0.0
 11
-9.09450531005897
 21
-12.81552124023498
 31
0.0
  0
SPLINE
  5
2688
330
1F
100
AcDbEntity
  8
AM_0
100
AcDbSpline
210
0.0
220
0.0
230
1.0
 70
     8
 71
     3
 72
    11
 73
     7
 74
     5
 42
0.0000000001
 43
0.0000000001
 44
0.0000000001
 40
0.0
 40
0.0
 40
0.0
 40
0.0
 40
1.051173975236023
 40
2.102438435157288
 40
3.153882703288664
 40
4.205343197452143
 40
4.205343197452143
 40
4.205343197452143
 40
4.205343197452143
 10
-0.7218093872069673
 20
-6.933105468744981
 30
0.0
 10
-0.6684408160204352
 20
-7.279408625423345
 30
0.0
 10
-0.5616990796995763
 20
-7.972044748433722
 30
0.0
 10
-0.4015922679416623
 20
-9.011075727412981
 30
0.0
 10
-0.2414847308508089
 20
-10.050203230343
 30
0.0
 10
-0.1348317324474196
 20
-10.74301029748246
 30
0.0
 10
-0.0815048217779765
 20
-11.08941650390498
 30
0.0
 11
-0.7218093872069673
 21
-6.933105468744981
 31
0.0
 11
-0.5617065429689703
 21
-7.972015380854982
 31
0.0
 11
-0.4016036987309734
 21
-9.011016845704984
 31
0.0
 11
-0.2415084838869677
 21
-10.05020141601498
 31
0.0
 11
-0.0815048217779765
 21
-11.08941650390498
 31
0.0
  0
SPLINE
  5
2689
330
1F
100
AcDbEntity
  8
AM_0
100
AcDbSpline
210
0.0
220
0.0
230
1.0
 70
     8
 71
     3
 72
    11
 73
     7
 74
     5
 42
0.0000000001
 43
0.0000000001
 44
0.0000000001
 40
0.0
 40
0.0
 40
0.0
 40
0.0
 40
0.188165972227416
 40
0.3762239163905928
 40
0.5640399633431984
 40
0.7511781494839825
 40
0.7511781494839825
 40
0.7511781494839825
 40
0.7511781494839825
 10
-1.154205322265972
 20
-6.35250854491498
 30
0.0
 10
-1.099447169610275
 20
-6.383763342149984
 30
0.0
 10
-0.9899623015303992
 20
-6.446254992912083
 30
0.0
 10
-0.8604257914956534
 20
-6.585766067585907
 30
0.0
 10
-0.7636552753148269
 20
-6.749430144665352
 30
0.0
 10
-0.7357411950912017
 20
-6.87195419573206
 30
0.0
 10
-0.7218093872069673
 20
-6.933105468744981
 30
0.0
 11
-1.154205322265972
 21
-6.35250854491498
 31
0.0
 11
-0.99570465087897
 21
-6.453918457024981
 31
0.0
 11
-0.8658065795899785
 21
-6.589904785154983
 31
0.0
 11
-0.7727050781249785
 21
-6.753021240234984
 31
0.0
 11
-0.7218093872069673
 21
-6.933105468744981
 31
0.0
  0
SPLINE
  5
268A
330
1F
100
AcDbEntity
  8
AM_0
100
AcDbSpline
210
0.0
220
0.0
230
1.0
 70
     8
 71
     3
 72
    11
 73
     7
 74
     5
 42
0.0000000001
 43
0.0000000001
 44
0.0000000001
 40
0.0
 40
0.0
 40
0.0
 40
0.0
 40
0.2877001883215623
 40
0.5765352676510211
 40
0.8648768724053301
 40
1.151015227170149
 40
1.151015227170149
 40
1.151015227170149
 40
1.151015227170149
 10
-9.09450531005897
 20
-12.81552124023498
 30
0.0
 10
-9.19126106970558
 20
-12.80887587664482
 30
0.0
 10
-9.385154261469109
 20
-12.79555893549701
 30
0.0
 10
-9.643114822603294
 20
-12.65043278417514
 30
0.0
 10
-9.844120646746674
 20
-12.43308355664536
 30
0.0
 10
-9.898778425188584
 20
-12.24713046132805
 30
0.0
 10
-9.926002502441967
 20
-12.15451049804498
 30
0.0
 11
-9.09450531005897
 21
-12.81552124023498
 31
0.0
 11
-9.379310607910973
 21
-12.77481079101498
 31
0.0
 11
-9.63380432128897
 21
-12.63821411132498
 31
0.0
 11
-9.824707031249978
 21
-12.42211914062498
 31
0.0
 11
-9.926002502441967
 21
-12.15451049804498
 31
0.0
  0
SPLINE
  5
268B
330
1F
100
AcDbEntity
  8
AM_0
100
AcDbSpline
210
0.0
220
0.0
230
1.0
 70
     8
 71
     3
 72
    11
 73
     7
 74
     5
 42
0.0000000001
 43
0.0000000001
 44
0.0000000001
 40
0.0
 40
0.0
 40
0.0
 40
0.0
 40
0.0620986754022746
 40
0.12456281478069
 40
0.1872490792798766
 40
0.249692623075629
 40
0.249692623075629
 40
0.249692623075629
 40
0.249692623075629
 10
-0.7987060546879765
 20
-11.96099853515498
 30
0.0
 10
-0.7810173121448225
 20
-11.95013819755023
 30
0.0
 10
-0.7455357250283045
 20
-11.92835360693293
 30
0.0
 10
-0.700434914217759
 20
-11.88464434070423
 30
0.0
 10
-0.6619802093109847
 20
-11.83484537512029
 30
0.0
 10
-0.644186772831357
 20
-11.7969951113111
 30
0.0
 10
-0.6353073120119679
 20
-11.77810668945498
 30
0.0
 11
-0.7987060546879765
 21
-11.96099853515498
 31
0.0
 11
-0.7470016479499795
 21
-11.92660522460498
 31
0.0
 11
-0.701606750488971
 21
-11.88369750976498
 31
0.0
 11
-0.6639022827149792
 21
-11.83361816405498
 31
0.0
 11
-0.6353073120119679
 21
-11.77810668945498
 31
0.0
  0
SPLINE
  5
268C
330
1F
100
AcDbEntity
  8
AM_0
100
AcDbSpline
210
0.0
220
0.0
230
1.0
 70
     8
 71
     3
 72
    11
 73
     7
 74
     5
 42
0.0000000001
 43
0.0000000001
 44
0.0000000001
 40
0.0
 40
0.0
 40
0.0
 40
0.0
 40
0.0265135949926538
 40
0.0528728560951892
 40
0.0791717896151849
 40
0.1056602959047656
 40
0.1056602959047656
 40
0.1056602959047656
 40
0.1056602959047656
 10
-0.6353073120119679
 20
-11.77810668945498
 30
0.0
 10
-0.6321569076118881
 20
-11.76984572594707
 30
0.0
 10
-0.625874437108238
 20
-11.75337188545573
 30
0.0
 10
-0.6185473458207146
 20
-11.72799264639052
 30
0.0
 10
-0.6128011577036265
 20
-11.70221335511734
 30
0.0
 10
-0.6105401042874549
 20
-11.68475526584318
 30
0.0
 10
-0.6094055175779763
 20
-11.67599487304498
 30
0.0
 11
-0.6353073120119679
 21
-11.77810668945498
 31
0.0
 11
-0.6262054443359735
 21
-11.75320434570498
 31
0.0
 11
-0.6188049316409736
 21
-11.72790527343498
 31
0.0
 11
-0.6132049560549793
 21
-11.70220947265498
 31
0.0
 11
-0.6094055175779763
 21
-11.67599487304498
 31
0.0
  0
SPLINE
  5
268D
330
1F
100
AcDbEntity
  8
AM_0
100
AcDbSpline
210
0.0
220
0.0
230
1.0
 70
     8
 71
     3
 72
    11
 73
     7
 74
     5
 42
0.0000000001
 43
0.0000000001
 44
0.0000000001
 40
0.0
 40
0.0
 40
0.0
 40
0.0
 40
0.048550647650632
 40
0.0966011849486632
 40
0.1449503140912897
 40
0.1940790376146199
 40
0.1940790376146199
 40
0.1940790376146199
 40
0.1940790376146199
 10
-0.9846038818359733
 20
-12.01040649413498
 30
0.0
 10
-0.9684245035877331
 20
-12.00951036887766
 30
0.0
 10
-0.9362324075778193
 20
-12.00772734916715
 30
0.0
 10
-0.8887887569005034
 20
-11.99781733247299
 30
0.0
 10
-0.842494233354067
 20
-11.98283390955964
 30
0.0
 10
-0.8133797301750774
 20
-11.96831569718167
 30
0.0
 10
-0.7987060546879765
 20
-11.96099853515498
 30
0.0
 11
-0.9846038818359733
 21
-12.01040649413498
 31
0.0
 11
-0.9362106323249793
 21
-12.00650024413498
 31
0.0
 11
-0.8891067504889708
 21
-11.99700927734498
 31
0.0
 11
-0.8432083129889708
 21
-11.98181152343498
 31
0.0
 11
-0.7987060546879765
 21
-11.96099853515498
 31
0.0
  0
SPLINE
  5
268E
330
1F
100
AcDbEntity
  8
AM_0
100
AcDbSpline
210
0.0
220
0.0
230
1.0
 70
     8
 71
     3
 72
    11
 73
     7
 74
     5
 42
0.0000000001
 43
0.0000000001
 44
0.0000000001
 40
0.0
 40
0.0
 40
0.0
 40
0.0
 40
0.0614891377699555
 40
0.1225465301325922
 40
0.1833609656272972
 40
0.2444130267555783
 40
0.2444130267555783
 40
0.2444130267555783
 40
0.2444130267555783
 10
-0.9662094116209727
 20
-7.209411621094984
 30
0.0
 10
-0.9744411822673828
 20
-7.190628982549009
 30
0.0
 10
-0.9908469242593906
 20
-7.153195587578418
 30
0.0
 10
-1.020750644120003
 20
-7.09979889419039
 30
0.0
 10
-1.054231953011341
 20
-7.048739154238472
 30
0.0
 10
-1.079797761423729
 20
-7.017141759076688
 30
0.0
 10
-1.092605590820973
 20
-7.001312255854982
 30
0.0
 11
-0.9662094116209727
 21
-7.209411621094984
 31
0.0
 11
-0.9918060302739702
 21
-7.153503417964982
 31
0.0
 11
-1.021400451660973
 21
-7.100097656244981
 31
0.0
 11
-1.055000305175972
 21
-7.049407958984984
 31
0.0
 11
-1.092605590820973
 21
-7.001312255854982
 31
0.0
  0
SPLINE
  5
268F
330
1F
100
AcDbEntity
  8
AM_0
100
AcDbSpline
210
0.0
220
0.0
230
1.0
 70
     8
 71
     3
 72
    11
 73
     7
 74
     5
 42
0.0000000001
 43
0.0000000001
 44
0.0000000001
 40
0.0
 40
0.0
 40
0.0
 40
0.0
 40
0.0523907650520764
 40
0.1044364037383051
 40
0.1565383852738547
 40
0.2088210467586326
 40
0.2088210467586326
 40
0.2088210467586326
 40
0.2088210467586326
 10
-0.9127044677739702
 20
-7.410705566404983
 30
0.0
 10
-0.915292253526581
 20
-7.393427264346938
 30
0.0
 10
-0.920450777884438
 20
-7.35898448177156
 30
0.0
 10
-0.9325652653231239
 20
-7.308181348538067
 30
0.0
 10
-0.9473501467745155
 20
-7.258131780870315
 30
0.0
 10
-0.9599157400541209
 20
-7.22567040354525
 30
0.0
 10
-0.9662094116209727
 20
-7.209411621094984
 30
0.0
 11
-0.9127044677739702
 21
-7.410705566404983
 31
0.0
 11
-0.9212036132819674
 21
-7.35900878905498
 31
0.0
 11
-0.9330062866209727
 21
-7.308319091794983
 31
0.0
 11
-0.9480056762699787
 21
-7.25842285155498
 31
0.0
 11
-0.9662094116209727
 21
-7.209411621094984
 31
0.0
  0
SPLINE
  5
2690
330
1F
100
AcDbEntity
  8
AM_0
100
AcDbSpline
210
0.0
220
0.0
230
1.0
 70
     8
 71
     3
 72
    11
 73
     7
 74
     5
 42
0.0000000001
 43
0.0000000001
 44
0.0000000001
 40
0.0
 40
0.0
 40
0.0
 40
0.0
 40
0.0213096309834476
 40
0.0426987321020857
 40
0.0640824156390202
 40
0.0854195121024956
 40
0.0854195121024956
 40
0.0854195121024956
 40
0.0854195121024956
 10
-1.120002746581967
 20
-7.369018554684982
 30
0.0
 10
-1.117996941872824
 20
-7.375833068671988
 30
0.0
 10
-1.113977852194955
 20
-7.389487510054058
 30
0.0
 10
-1.108668412482141
 20
-7.410183528990778
 30
0.0
 10
-1.104164861609879
 20
-7.431080261042801
 30
0.0
 10
-1.101722075356607
 20
-7.445110466944316
 30
0.0
 10
-1.100502014160973
 20
-7.45211791991498
 30
0.0
 11
-1.120002746581967
 21
-7.369018554684982
 31
0.0
 11
-1.114105224609978
 21
-7.389495849604982
 31
0.0
 11
-1.108802795410973
 21
-7.410217285154983
 31
0.0
 11
-1.104301452636967
 21
-7.43112182616498
 31
0.0
 11
-1.100502014160973
 21
-7.45211791991498
 31
0.0
  0
SPLINE
  5
2691
330
1F
100
AcDbEntity
  8
AM_0
100
AcDbSpline
210
0.0
220
0.0
230
1.0
 70
     8
 71
     3
 72
    11
 73
     7
 74
     5
 42
0.0000000001
 43
0.0000000001
 44
0.0000000001
 40
0.0
 40
0.0
 40
0.0
 40
0.0
 40
0.0436189106352409
 40
0.087209471486398
 40
0.1308283821216598
 40
0.174447292756901
 40
0.174447292756901
 40
0.174447292756901
 40
0.174447292756901
 10
-8.514205932617976
 20
-12.13101196288498
 30
0.0
 10
-8.514494729154613
 20
-12.14554874866065
 30
0.0
 10
-8.515072134526741
 20
-12.17461287213702
 30
0.0
 10
-8.516141500017475
 20
-12.21820935466555
 30
0.0
 10
-8.516997004716625
 20
-12.26181049699869
 30
0.0
 10
-8.517603127548863
 20
-12.29088344691622
 30
0.0
 10
-8.517906188964978
 20
-12.30541992187498
 30
0.0
 11
-8.514205932617976
 21
-12.13101196288498
 31
0.0
 11
-8.515106201171967
 21
-12.17462158202498
 31
0.0
 11
-8.516105651855973
 21
-12.21820068359498
 31
0.0
 11
-8.517005920410973
 21
-12.26181030273498
 31
0.0
 11
-8.517906188964978
 21
-12.30541992187498
 31
0.0
  0
SPLINE
  5
2692
330
1F
100
AcDbEntity
  8
AM_0
100
AcDbSpline
210
0.0
220
0.0
230
1.0
 70
     8
 71
     3
 72
    11
 73
     7
 74
     5
 42
0.0000000001
 43
0.0000000001
 44
0.0000000001
 40
0.0
 40
0.0
 40
0.0
 40
0.0
 40
0.0648843978438372
 40
0.1287719367940352
 40
0.1922528805432052
 40
0.2562579738841789
 40
0.2562579738841789
 40
0.2562579738841789
 40
0.2562579738841789
 10
-8.76540374755897
 20
-12.08972167968498
 30
0.0
 10
-8.744963670748132
 20
-12.09684637934687
 30
0.0
 10
-8.704397550592631
 20
-12.11098631752962
 30
0.0
 10
-8.641606631446755
 20
-12.12449024205931
 30
0.0
 10
-8.578088758596509
 20
-12.13187593745585
 30
0.0
 10
-8.535558494642314
 20
-12.1313007426991
 30
0.0
 10
-8.514205932617976
 20
-12.13101196288498
 30
0.0
 11
-8.76540374755897
 21
-12.08972167968498
 31
0.0
 11
-8.703704833984978
 21
-12.10980224609498
 31
0.0
 11
-8.64130401611397
 21
-12.12350463866497
 31
0.0
 11
-8.578208923339978
 21
-12.13049316405498
 31
0.0
 11
-8.514205932617976
 21
-12.13101196288498
 31
0.0
  0
SPLINE
  5
2693
330
1F
100
AcDbEntity
  8
AM_0
100
AcDbSpline
210
0.0
220
0.0
230
1.0
 70
     8
 71
     3
 72
    11
 73
     7
 74
     5
 42
0.0000000001
 43
0.0000000001
 44
0.0000000001
 40
0.0
 40
0.0
 40
0.0
 40
0.0
 40
0.0866038970921403
 40
0.1717703088167586
 40
0.2565764624418331
 40
0.3418733608069257
 40
0.3418733608069257
 40
0.3418733608069257
 40
0.3418733608069257
 10
-8.88210296630897
 20
-12.28451538085498
 30
0.0
 10
-8.854921681194179
 20
-12.29431863081836
 30
0.0
 10
-8.801010276569556
 20
-12.31376241256675
 30
0.0
 10
-8.717259187348277
 20
-12.33210049776001
 30
0.0
 10
-8.632511588342156
 20
-12.34192709194157
 30
0.0
 10
-8.57576501744049
 20
-12.34078343774554
 30
0.0
 10
-8.54730987548897
 20
-12.34020996093498
 30
0.0
 11
-8.88210296630897
 21
-12.28451538085498
 31
0.0
 11
-8.800010681152976
 21
-12.31210327148498
 31
0.0
 11
-8.71690368652397
 21
-12.33071899413498
 31
0.0
 11
-8.632606506347975
 21
-12.33999633788497
 31
0.0
 11
-8.54730987548897
 21
-12.34020996093498
 31
0.0
  0
SPLINE
  5
2694
330
1F
100
AcDbEntity
  8
AM_0
100
AcDbSpline
210
0.0
220
0.0
230
1.0
 70
     8
 71
     3
 72
    11
 73
     7
 74
     5
 42
0.0000000001
 43
0.0000000001
 44
0.0000000001
 40
0.0
 40
0.0
 40
0.0
 40
0.0
 40
0.0599909552739234
 40
0.1191126492127493
 40
0.1778919135766885
 40
0.2369774367687816
 40
0.2369774367687816
 40
0.2369774367687816
 40
0.2369774367687816
 10
-8.76540374755897
 20
-12.08972167968498
 30
0.0
 10
-8.783820275034514
 20
-12.08188548927576
 30
0.0
 10
-8.820386476837686
 20
-12.06632665386274
 30
0.0
 10
-8.871777720786386
 20
-12.03650094077923
 30
0.0
 10
-8.920101024552856
 20
-12.00242150932777
 30
0.0
 10
-8.949014369428521
 20
-11.97576515348616
 30
0.0
 10
-8.963508605956967
 20
-11.96240234374498
 30
0.0
 11
-8.76540374755897
 21
-12.08972167968498
 31
0.0
 11
-8.820106506347975
 21
-12.06509399413498
 31
0.0
 11
-8.871406555175973
 21
-12.03570556640498
 31
0.0
 11
-8.91920471191397
 21
-12.00149536132498
 31
0.0
 11
-8.963508605956967
 21
-11.96240234374498
 31
0.0
  0
SPLINE
  5
2695
330
1F
100
AcDbEntity
  8
AM_0
100
AcDbSpline
210
0.0
220
0.0
230
1.0
 70
     8
 71
     3
 72
    11
 73
     7
 74
     5
 42
0.0000000001
 43
0.0000000001
 44
0.0000000001
 40
0.0
 40
0.0
 40
0.0
 40
0.0
 40
0.0937082429227402
 40
0.1857285109477545
 40
0.277167273880801
 40
0.3695791414559685
 40
0.3695791414559685
 40
0.3695791414559685
 40
0.3695791414559685
 10
-9.17890167236397
 20
-12.06991577148498
 30
0.0
 10
-9.157787469234111
 20
-12.09299038255644
 30
0.0
 10
-9.115939394989567
 20
-12.13872395968193
 30
0.0
 10
-9.043802835242177
 20
-12.19689638272388
 30
0.0
 10
-8.966326971723416
 20
-12.24697171632351
 30
0.0
 10
-8.910276524750699
 20
-12.27195674485104
 30
0.0
 10
-8.88210296630897
 20
-12.28451538085498
 30
0.0
 11
-9.17890167236397
 21
-12.06991577148498
 31
0.0
 11
-9.113906860351967
 21
-12.13742065429498
 31
0.0
 11
-9.042701721191967
 21
-12.19570922851498
 31
0.0
 11
-8.965507507324979
 21
-12.24472045898498
 31
0.0
 11
-8.88210296630897
 21
-12.28451538085498
 31
0.0
  0
SPLINE
  5
2696
330
1F
100
AcDbEntity
  8
AM_0
100
AcDbSpline
210
0.0
220
0.0
230
1.0
 70
     8
 71
     3
 72
    11
 73
     7
 74
     5
 42
0.0000000001
 43
0.0000000001
 44
0.0000000001
 40
0.0
 40
0.0
 40
0.0
 40
0.0
 40
0.0291772476281149
 40
0.0582735618843947
 40
0.0874224272720034
 40
0.1167157774419971
 40
0.1167157774419971
 40
0.1167157774419971
 40
0.1167157774419971
 10
-9.247200012206967
 20
-11.97540283202497
 30
0.0
 10
-9.24203900552159
 20
-11.9836481360435
 30
0.0
 10
-9.231731308020465
 20
-12.00011587282606
 30
0.0
 10
-9.215007086357097
 20
-12.0239906212369
 30
0.0
 10
-9.197583989294367
 20
-12.04740921063661
 30
0.0
 10
-9.185139366818782
 20
-12.06240122977563
 30
0.0
 10
-9.17890167236397
 20
-12.06991577148498
 30
0.0
 11
-9.247200012206967
 21
-11.97540283202497
 31
0.0
 11
-9.231506347656967
 21
-11.99999999999498
 31
0.0
 11
-9.214904785156967
 21
-12.02389526366498
 31
0.0
 11
-9.197410583495972
 21
-12.04721069335498
 31
0.0
 11
-9.17890167236397
 21
-12.06991577148498
 31
0.0
  0
SPLINE
  5
2697
330
1F
100
AcDbEntity
  8
AM_0
100
AcDbSpline
210
0.0
220
0.0
230
1.0
 70
     8
 71
     3
 72
    11
 73
     7
 74
     5
 42
0.0000000001
 43
0.0000000001
 44
0.0000000001
 40
0.0
 40
0.0
 40
0.0
 40
0.0
 40
0.0193900307808572
 40
0.0622852585432121
 40
0.1323194870882747
 40
0.2244249556128195
 40
0.2244249556128195
 40
0.2244249556128195
 40
0.2244249556128195
 10
0.0008926391600226
 20
2.748596191405015
 30
0.0
 10
-0.0025084930977626
 20
2.754370293481554
 30
0.0
 10
-0.0134337156727029
 20
2.772918043341095
 30
0.0
 10
-0.0628366910145503
 20
2.776453072409505
 30
0.0
 10
-0.1280575799870275
 20
2.783829368989846
 30
0.0
 10
-0.1826787412323283
 20
2.781892499246568
 30
0.0
 10
-0.2137069702149774
 20
2.780792236335019
 30
0.0
 11
0.0008926391600226
 21
2.748596191405015
 31
0.0
 11
-0.0105056762699776
 21
2.764282226565017
 31
0.0
 11
-0.0518035888679749
 21
2.775878906255018
 31
0.0
 11
-0.121604919433969
 21
2.781585693365018
 31
0.0
 11
-0.2137069702149774
 21
2.780792236335019
 31
0.0
  0
SPLINE
  5
2698
330
1F
100
AcDbEntity
  8
AM_0
100
AcDbSpline
210
0.0
220
0.0
230
1.0
 70
     8
 71
     3
 72
    11
 73
     7
 74
     5
 42
0.0000000001
 43
0.0000000001
 44
0.0000000001
 40
0.0
 40
0.0
 40
0.0
 40
0.0
 40
0.241808207943974
 40
0.4830680193166121
 40
0.7239805095770393
 40
0.964353532462008
 40
0.964353532462008
 40
0.964353532462008
 40
0.964353532462008
 10
-0.7218093872069661
 20
1.840087890625015
 30
0.0
 10
-0.6684705689837918
 20
1.90051783678405
 30
0.0
 10
-0.5619138995851764
 20
2.021240680093064
 30
0.0
 10
-0.4016992732489845
 20
2.201712297050828
 30
0.0
 10
-0.2416902403748872
 20
2.381726499950092
 30
0.0
 10
-0.1348600463999057
 20
2.501412047462873
 30
0.0
 10
-0.0815048217779748
 20
2.561187744145017
 30
0.0
 11
-0.7218093872069661
 21
1.840087890625015
 31
0.0
 11
-0.5617065429689691
 21
2.021301269535017
 31
0.0
 11
-0.401603698730972
 21
2.201782226565017
 31
0.0
 11
-0.2415084838869661
 21
2.381805419925017
 31
0.0
 11
-0.0815048217779748
 21
2.561187744145017
 31
0.0
  0
SPLINE
  5
2699
330
1F
100
AcDbEntity
  8
AM_0
100
AcDbSpline
210
0.0
220
0.0
230
1.0
 70
     8
 71
     3
 72
    11
 73
     7
 74
     5
 42
0.0000000001
 43
0.0000000001
 44
0.0000000001
 40
0.0
 40
0.0
 40
0.0
 40
0.0
 40
0.1137323359662395
 40
0.206503534812698
 40
0.2762416647303743
 40
0.3216462857422223
 40
0.3216462857422223
 40
0.3216462857422223
 40
0.3216462857422223
 10
-1.023902893066966
 20
1.738494873045015
 30
0.0
 10
-0.986626160156989
 20
1.745683088122579
 30
0.0
 10
-0.9189428839208963
 20
1.758734713325736
 30
0.0
 10
-0.8307511297184754
 20
1.784318888774062
 30
0.0
 10
-0.7643919091783342
 20
1.807233521842909
 30
0.0
 10
-0.7338522082663149
 20
1.830796301824174
 30
0.0
 10
-0.7218093872069661
 20
1.840087890625015
 30
0.0
 11
-1.023902893066966
 21
1.738494873045015
 31
0.0
 11
-0.9126052856449776
 21
1.761901855475018
 31
0.0
 11
-0.8234024047859721
 21
1.787384033205016
 31
0.0
 11
-0.7589035034179747
 21
1.813903808595016
 31
0.0
 11
-0.7218093872069661
 21
1.840087890625015
 31
0.0
  0
SPLINE
  5
269A
330
1F
100
AcDbEntity
  8
AM_0
100
AcDbSpline
210
0.0
220
0.0
230
1.0
 70
     8
 71
     3
 72
    11
 73
     7
 74
     5
 42
0.0000000001
 43
0.0000000001
 44
0.0000000001
 40
0.0
 40
0.0
 40
0.0
 40
0.0
 40
0.1769117408240238
 40
0.3396110254214047
 40
0.4883902415765559
 40
0.6238290970243906
 40
0.6238290970243906
 40
0.6238290970243906
 40
0.6238290970243906
 10
-10.32030487060597
 20
-0.5942077636649798
 30
0.0
 10
-10.37630993767181
 20
-0.5757061085342679
 30
0.0
 10
-10.48382082511452
 20
-0.5401891550428408
 30
0.0
 10
-10.64101492113484
 20
-0.497649775922706
 30
0.0
 10
-10.78649123631807
 20
-0.4649402171943963
 30
0.0
 10
-10.88036732388525
 20
-0.4519157818398002
 30
0.0
 10
-10.92510223388696
 20
-0.4457092285149824
 30
0.0
 11
-10.32030487060597
 21
-0.5942077636649798
 31
0.0
 11
-10.48880767822297
 21
-0.5403137207049836
 31
0.0
 11
-10.64580535888696
 21
-0.4976196289049823
 31
0.0
 11
-10.79120635986396
 21
-0.4660949707049836
 31
0.0
 11
-10.92510223388696
 21
-0.4457092285149824
 31
0.0
  0
SPLINE
  5
269B
330
1F
100
AcDbEntity
  8
AM_0
100
AcDbSpline
210
0.0
220
0.0
230
1.0
 70
     8
 71
     3
 72
    11
 73
     7
 74
     5
 42
0.0000000001
 43
0.0000000001
 44
0.0000000001
 40
0.0
 40
0.0
 40
0.0
 40
0.0
 40
1.064372259643672
 40
2.137029102267122
 40
3.209650969235823
 40
4.273311438472515
 40
4.273311438472515
 40
4.273311438472515
 40
4.273311438472515
 10
-5.12230682373097
 20
10.93627929687501
 30
0.0
 10
-4.763415812197258
 20
10.83204502778322
 30
0.0
 10
-4.042840346949424
 20
10.62276517810237
 30
0.0
 10
-3.642748266115579
 20
9.469891898869498
 30
0.0
 10
-4.14237130087387
 20
8.356894903157447
 30
0.0
 10
-4.878157162939127
 20
8.211412909549528
 30
0.0
 10
-5.244506835937974
 20
8.138977050785017
 30
0.0
 11
-5.12230682373097
 21
10.93627929687501
 31
0.0
 11
-4.158302307128968
 21
10.48507690429501
 31
0.0
 11
-3.793106079101965
 21
9.476501464845016
 31
0.0
 11
-4.245407104492974
 21
8.503906250005018
 31
0.0
 11
-5.244506835937974
 21
8.138977050785017
 31
0.0
  0
SPLINE
  5
269C
330
1F
100
AcDbEntity
  8
AM_0
100
AcDbSpline
210
0.0
220
0.0
230
1.0
 70
     8
 71
     3
 72
    11
 73
     7
 74
     5
 42
0.0000000001
 43
0.0000000001
 44
0.0000000001
 40
0.0
 40
0.0
 40
0.0
 40
0.0
 40
1.331385275205609
 40
2.673101556141808
 40
4.010731570949932
 40
5.351129783131052
 40
5.351129783131052
 40
5.351129783131052
 40
5.351129783131052
 10
-5.280708312988967
 20
11.29357910156501
 30
0.0
 10
-5.738471894522691
 20
11.20174390545457
 30
0.0
 10
-6.657551115940299
 20
11.01736090963578
 30
0.0
 10
-7.289644879971687
 20
9.631535481335792
 30
0.0
 10
-6.791897856151058
 20
8.184372747235771
 30
0.0
 10
-5.886546573621144
 20
7.9261502330886
 30
0.0
 10
-5.433403015136965
 20
7.796905517585019
 30
0.0
 11
-5.280708312988967
 21
11.29357910156501
 31
0.0
 11
-6.530509948730971
 21
10.83468627929501
 31
0.0
 11
-7.101203918456965
 21
9.620391845705016
 31
0.0
 11
-6.649101257324977
 21
8.361480712895017
 31
0.0
 11
-5.433403015136965
 21
7.796905517585019
 31
0.0
  0
SPLINE
  5
269D
330
1F
100
AcDbEntity
  8
AM_0
100
AcDbSpline
210
0.0
220
0.0
230
1.0
 70
     8
 71
     3
 72
    11
 73
     7
 74
     5
 42
0.0000000001
 43
0.0000000001
 44
0.0000000001
 40
0.0
 40
0.0
 40
0.0
 40
0.0
 40
1.340900683457282
 40
2.67733318788454
 40
4.019211436467852
 40
5.347420998828328
 40
5.347420998828328
 40
5.347420998828328
 40
5.347420998828328
 10
-5.433403015136965
 20
7.796905517585019
 30
0.0
 10
-4.970496260054931
 20
7.886585426425751
 30
0.0
 10
-4.046225258058269
 20
8.065646410723777
 30
0.0
 10
-3.427282251868354
 20
9.464659382560842
 30
0.0
 10
-3.935537014796681
 20
10.89852046438256
 30
0.0
 10
-4.83385075977118
 20
11.16234307517481
 30
0.0
 10
-5.280708312988967
 20
11.29357910156501
 30
0.0
 11
-5.433403015136965
 21
7.796905517585019
 31
0.0
 11
-4.173103332519977
 21
8.254791259765015
 31
0.0
 11
-3.615409851074976
 21
9.469299316405015
 31
0.0
 11
-4.078605651855971
 21
10.72869873047501
 31
0.0
 11
-5.280708312988967
 21
11.29357910156501
 31
0.0
  0
SPLINE
  5
269E
330
1F
100
AcDbEntity
  8
AM_0
100
AcDbSpline
210
0.0
220
0.0
230
1.0
 70
     8
 71
     3
 72
    11
 73
     7
 74
     5
 42
0.0000000001
 43
0.0000000001
 44
0.0000000001
 40
0.0
 40
0.0
 40
0.0
 40
0.0
 40
2.187196426582286
 40
4.371422550273417
 40
6.552580511997796
 40
8.730571301079999
 40
8.730571301079999
 40
8.730571301079999
 40
8.730571301079999
 10
-0.3659057617189677
 20
12.63049316406501
 30
0.0
 10
-1.094767331160376
 20
12.64774042511286
 30
0.0
 10
-2.551500645992343
 20
12.68221152471723
 30
0.0
 10
-4.735173225441482
 20
12.72995818953088
 30
0.0
 10
-6.915839974185297
 20
12.77471383820493
 30
0.0
 10
-8.368635377946999
 20
12.80190501315657
 30
0.0
 10
-9.094505310058966
 20
12.81549072265501
 30
0.0
 11
-0.3659057617189677
 21
12.63049316406501
 31
0.0
 11
-2.552505493163967
 21
12.68157958984501
 31
0.0
 11
-4.736206054687973
 21
12.72949218750501
 31
0.0
 11
-6.91690826416097
 21
12.77407836914501
 31
0.0
 11
-9.094505310058966
 21
12.81549072265501
 31
0.0
  0
SPLINE
  5
269F
330
1F
100
AcDbEntity
  8
AM_0
100
AcDbSpline
210
0.0
220
0.0
230
1.0
 70
     8
 71
     3
 72
    11
 73
     7
 74
     5
 42
0.0000000001
 43
0.0000000001
 44
0.0000000001
 40
0.0
 40
0.0
 40
0.0
 40
0.0
 40
0.2877001883201467
 40
0.5765352676496054
 40
0.8648768724114122
 40
1.151015227166875
 40
1.151015227166875
 40
1.151015227166875
 40
1.151015227166875
 10
-9.094505310058966
 20
12.81549072265501
 30
0.0
 10
-9.191261069705545
 20
12.80884535906889
 30
0.0
 10
-9.385154261469487
 20
12.79552841792915
 30
0.0
 10
-9.643114822607154
 20
12.65040226660462
 30
0.0
 10
-9.84412064674132
 20
12.43305303906856
 30
0.0
 10
-9.898778425187337
 20
12.24709994375399
 30
0.0
 10
-9.926002502441964
 20
12.15447998047502
 30
0.0
 11
-9.094505310058966
 21
12.81549072265501
 31
0.0
 11
-9.379310607910969
 21
12.77478027344502
 31
0.0
 11
-9.633804321288966
 21
12.63818359375502
 31
0.0
 11
-9.824707031249975
 21
12.42208862304501
 31
0.0
 11
-9.926002502441964
 21
12.15447998047502
 31
0.0
  0
SPLINE
  5
26A0
330
1F
100
AcDbEntity
  8
AM_0
100
AcDbSpline
210
0.0
220
0.0
230
1.0
 70
     8
 71
     3
 72
    11
 73
     7
 74
     5
 42
0.0000000001
 43
0.0000000001
 44
0.0000000001
 40
0.0
 40
0.0
 40
0.0
 40
0.0
 40
1.054494873781583
 40
2.10900084526933
 40
3.163669452629743
 40
4.218423089306853
 40
4.218423089306853
 40
4.218423089306853
 40
4.218423089306853
 10
-9.926002502441964
 20
12.15447998047502
 30
0.0
 10
-9.9883451340378
 20
11.80855448934836
 30
0.0
 10
-10.11303105333527
 20
11.11669986650887
 30
0.0
 10
-10.29992703381328
 20
10.07883702781904
 30
0.0
 10
-10.4867569459274
 20
9.040874644334325
 30
0.0
 10
-10.6111184421865
 20
8.348818913280247
 30
0.0
 10
-10.67330169677797
 20
8.00277709961502
 30
0.0
 11
-9.926002502441964
 21
12.15447998047502
 31
0.0
 11
-10.11300659179696
 21
11.11669921875501
 31
0.0
 11
-10.29990386962896
 21
10.07888793945501
 31
0.0
 11
-10.48670196533196
 21
9.040893554695021
 31
0.0
 11
-10.67330169677797
 21
8.00277709961502
 31
0.0
  0
SPLINE
  5
26A1
330
1F
100
AcDbEntity
  8
AM_0
100
AcDbSpline
210
0.0
220
0.0
230
1.0
 70
     8
 71
     3
 72
    11
 73
     7
 74
     5
 42
0.0000000001
 43
0.0000000001
 44
0.0000000001
 40
0.0
 40
0.0
 40
0.0
 40
0.0
 40
0.1141677444377579
 40
0.2283401181602595
 40
0.3426820563596898
 40
0.4571625548848514
 40
0.4571625548848514
 40
0.4571625548848514
 40
0.4571625548848514
 10
-10.78321075439497
 20
6.877777099615019
 30
0.0
 10
-10.78398702868686
 20
6.839448809453026
 30
0.0
 10
-10.7855396087471
 20
6.762790674989825
 30
0.0
 10
-10.74622520916429
 20
6.653209712916687
 30
0.0
 10
-10.67720436315073
 20
6.558730983271166
 30
0.0
 10
-10.61101731231346
 20
6.519442509261409
 30
0.0
 10
-10.57790374755896
 20
6.499786376955017
 30
0.0
 11
-10.78321075439497
 21
6.877777099615019
 31
0.0
 11
-10.77860260009797
 21
6.763702392585019
 31
0.0
 11
-10.74131011962896
 21
6.655792236335019
 31
0.0
 11
-10.67220306396497
 21
6.564697265625016
 31
0.0
 11
-10.57790374755896
 21
6.499786376955017
 31
0.0
  0
SPLINE
  5
26A2
330
1F
100
AcDbEntity
  8
AM_0
100
AcDbSpline
210
0.0
220
0.0
230
1.0
 70
     8
 71
     3
 72
    11
 73
     7
 74
     5
 42
0.0000000001
 43
0.0000000001
 44
0.0000000001
 40
0.0
 40
0.0
 40
0.0
 40
0.0
 40
2.221321853965364
 40
4.443211147306149
 40
6.665658488607328
 40
8.888687087920914
 40
8.888687087920914
 40
8.888687087920914
 40
8.888687087920914
 10
-1.539100646972974
 20
6.271484375005018
 30
0.0
 10
-2.279405595816914
 20
6.28566500582226
 30
0.0
 10
-3.760204605306419
 20
6.314029889916174
 30
0.0
 10
-5.98160348310324
 20
6.360610115924812
 30
0.0
 10
-8.203509073346793
 20
6.410069967700588
 30
0.0
 10
-9.684908429493676
 20
6.445607711184823
 30
0.0
 10
-10.42570495605497
 20
6.463378906255019
 30
0.0
 11
-1.539100646972974
 21
6.271484375005018
 31
0.0
 11
-3.760002136230971
 21
6.314697265625016
 31
0.0
 11
-5.981407165527974
 21
6.361083984375016
 31
0.0
 11
-8.203300476074977
 21
6.410705566405016
 31
0.0
 11
-10.42570495605497
 21
6.463378906255019
 31
0.0
  0
SPLINE
  5
26A3
330
1F
100
AcDbEntity
  8
AM_0
100
AcDbSpline
210
0.0
220
0.0
230
1.0
 70
     8
 71
     3
 72
    11
 73
     7
 74
     5
 42
0.0000000001
 43
0.0000000001
 44
0.0000000001
 40
0.0
 40
0.0
 40
0.0
 40
0.0
 40
0.2882893054634473
 40
0.5747979150557028
 40
0.8598833377768693
 40
1.143938702530697
 40
1.143938702530697
 40
1.143938702530697
 40
1.143938702530697
 10
-1.539100646972974
 20
6.271484375005018
 30
0.0
 10
-1.442116639304398
 20
6.278008077096076
 30
0.0
 10
-1.248747671586269
 20
6.291015185890338
 30
0.0
 10
-0.9924880572288573
 20
6.436189086228895
 30
0.0
 10
-0.7960929341059718
 20
6.654848593296605
 30
0.0
 10
-0.7465406754980385
 20
6.840465156152668
 30
0.0
 10
-0.7218093872069655
 20
6.933105468755018
 30
0.0
 11
-1.539100646972974
 21
6.271484375005018
 31
0.0
 11
-1.253700256347974
 21
6.312194824225018
 31
0.0
 11
-1.001899719238968
 21
6.448883056645017
 31
0.0
 11
-0.8162002563479742
 21
6.665191650395017
 31
0.0
 11
-0.7218093872069655
 21
6.933105468755018
 31
0.0
  0
SPLINE
  5
26A4
330
1F
100
AcDbEntity
  8
AM_0
100
AcDbSpline
210
0.0
220
0.0
230
1.0
 70
     8
 71
     3
 72
    11
 73
     7
 74
     5
 42
0.0000000001
 43
0.0000000001
 44
0.0000000001
 40
0.0
 40
0.0
 40
0.0
 40
0.0
 40
1.05114381371538
 40
2.102408273626757
 40
3.15388270351755
 40
4.205313035531734
 40
4.205313035531734
 40
4.205313035531734
 40
4.205313035531734
 10
-0.7218093872069655
 20
6.933105468755018
 30
0.0
 10
-0.6684405698287954
 20
7.279398414955377
 30
0.0
 10
-0.5616968096073027
 20
7.972024053512727
 30
0.0
 10
-0.4015890976373329
 20
9.011054894003992
 30
0.0
 10
-0.2414904971325954
 20
10.05018377337729
 30
0.0
 10
-0.1348326346916687
 20
10.74299009139462
 30
0.0
 10
-0.0815048217779738
 20
11.08938598633501
 30
0.0
 11
-0.7218093872069655
 21
6.933105468755018
 31
0.0
 11
-0.5617065429689684
 21
7.971984863285017
 31
0.0
 11
-0.4016036987309711
 21
9.010986328125015
 31
0.0
 11
-0.2415084838869652
 21
10.05020141601501
 31
0.0
 11
-0.0815048217779738
 21
11.08938598633501
 31
0.0
  0
SPLINE
  5
26A5
330
1F
100
AcDbEntity
  8
AM_0
100
AcDbSpline
210
0.0
220
0.0
230
1.0
 70
     8
 71
     3
 72
    11
 73
     7
 74
     5
 42
0.0000000001
 43
0.0000000001
 44
0.0000000001
 40
0.0
 40
0.0
 40
0.0
 40
0.0
 40
0.1144427777419535
 40
0.2295944385343684
 40
0.3451554648889625
 40
0.4605426053471654
 40
0.4605426053471654
 40
0.4605426053471654
 40
0.4605426053471654
 10
-0.0000076293949764
 20
12.21569824219502
 30
0.0
 10
-0.0002536351807759
 20
12.25411159864334
 30
0.0
 10
-0.0007471705648452
 20
12.33117625208841
 30
0.0
 10
-0.0424014054248342
 20
12.44071705276243
 30
0.0
 10
-0.1133821441150724
 20
12.5349075716008
 30
0.0
 10
-0.1802821516717825
 20
12.57430850622373
 30
0.0
 10
-0.2137069702149762
 20
12.59399414062501
 30
0.0
 11
-0.0000076293949764
 21
12.21569824219502
 31
0.0
 11
-0.0075073242189677
 21
12.32989501953501
 31
0.0
 11
-0.0472030639649762
 21
12.43798828125501
 31
0.0
 11
-0.1183090209959704
 21
12.52908325195501
 31
0.0
 11
-0.2137069702149762
 21
12.59399414062501
 31
0.0
  0
SPLINE
  5
26A6
330
1F
100
AcDbEntity
  8
AM_0
100
AcDbSpline
210
0.0
220
0.0
230
1.0
 70
     8
 71
     3
 72
    11
 73
     7
 74
     5
 42
0.0000000001
 43
0.0000000001
 44
0.0000000001
 40
0.0
 40
0.0
 40
0.0
 40
0.0
 40
0.1596177560629055
 40
0.3198500161119224
 40
0.4805567393831582
 40
0.6418851221119012
 40
0.6418851221119012
 40
0.6418851221119012
 40
0.6418851221119012
 10
-6.632606506347975
 20
-1.930999755854981
 30
0.0
 10
-6.57955244281874
 20
-1.92696119501952
 30
0.0
 10
-6.473240065717404
 20
-1.918868525506097
 30
0.0
 10
-6.313268031364112
 20
-1.910393184698625
 30
0.0
 10
-6.152617570885127
 20
-1.904272353848343
 30
0.0
 10
-6.045280580982419
 20
-1.902702797181525
 30
0.0
 10
-5.991508483886966
 20
-1.901916503904982
 30
0.0
 11
-6.632606506347975
 21
-1.930999755854981
 31
0.0
 11
-6.473403930663969
 21
-1.919494628904982
 31
0.0
 11
-6.313407897949978
 21
-1.91079711913498
 31
0.0
 11
-6.152809143066966
 21
-1.904907226554979
 31
0.0
 11
-5.991508483886966
 21
-1.901916503904982
 31
0.0
  0
SPLINE
  5
26A7
330
1F
100
AcDbEntity
  8
AM_0
100
AcDbSpline
210
0.0
220
0.0
230
1.0
 70
     8
 71
     3
 72
    11
 73
     7
 74
     5
 42
0.0000000001
 43
0.0000000001
 44
0.0000000001
 40
0.0
 40
0.0
 40
0.0
 40
0.0
 40
0.8546151575430398
 40
1.680296268830633
 40
2.273621706872043
 40
2.499967917585861
 40
2.499967917585861
 40
2.499967917585861
 40
2.499967917585861
 10
-4.632102966308969
 20
-2.006195068354981
 30
0.0
 10
-4.912695039064518
 20
-1.953819352015801
 30
0.0
 10
-5.464379395178761
 20
-1.850841163570057
 30
0.0
 10
-6.209938167052216
 20
-1.756155712592189
 30
0.0
 10
-6.767536051833094
 20
-1.676072334851185
 30
0.0
 10
-7.030807538638873
 20
-1.755094987827334
 30
0.0
 10
-7.103507995605972
 20
-1.776916503904982
 30
0.0
 11
-4.632102966308969
 21
-2.006195068354981
 31
0.0
 11
-5.473701477050972
 21
-1.857604980464981
 31
0.0
 11
-6.291404724120972
 21
-1.743103027344983
 31
0.0
 11
-6.884300231933969
 21
-1.72052001952498
 31
0.0
 11
-7.103507995605972
 21
-1.776916503904982
 31
0.0
  0
SPLINE
  5
26A8
330
1F
100
AcDbEntity
  8
AM_0
100
AcDbSpline
210
0.0
220
0.0
230
1.0
 70
     8
 71
     3
 72
    11
 73
     7
 74
     5
 42
0.0000000001
 43
0.0000000001
 44
0.0000000001
 40
0.0
 40
0.0
 40
0.0
 40
0.0
 40
0.1698215259554452
 40
0.3429522977759718
 40
0.5191863124719342
 40
0.6987286839326307
 40
0.6987286839326307
 40
0.6987286839326307
 40
0.6987286839326307
 10
-5.991508483886966
 20
-1.901916503904982
 30
0.0
 10
-5.934908184188436
 20
-1.901033159459529
 30
0.0
 10
-5.820604636818873
 20
-1.899249257179819
 30
0.0
 10
-5.647570310082625
 20
-1.896140974576364
 30
0.0
 10
-5.471301081420206
 20
-1.892719344467843
 30
0.0
 10
-5.352734599805517
 20
-1.890252473518776
 30
0.0
 10
-5.292900085449978
 20
-1.889007568354981
 30
0.0
 11
-5.991508483886966
 21
-1.901916503904982
 31
0.0
 11
-5.821708679199978
 21
-1.899200439454984
 31
0.0
 11
-5.648605346679977
 21
-1.896118164054979
 31
0.0
 11
-5.472404479980972
 21
-1.892700195304979
 31
0.0
 11
-5.292900085449978
 21
-1.889007568354981
 31
0.0
  0
SPLINE
  5
26A9
330
1F
100
AcDbEntity
  8
AM_0
100
AcDbSpline
210
0.0
220
0.0
230
1.0
 70
     8
 71
     3
 72
    11
 73
     7
 74
     5
 42
0.0000000001
 43
0.0000000001
 44
0.0000000001
 40
0.0
 40
0.0
 40
0.0
 40
0.0
 40
0.089310000007296
 40
0.3190817081434386
 40
0.6772790400738344
 40
1.131911191870164
 40
1.131911191870164
 40
1.131911191870164
 40
1.131911191870164
 10
-7.103507995605972
 20
-1.776916503904982
 30
0.0
 10
-7.079287699181866
 20
-1.794811203862492
 30
0.0
 10
-6.992754796325385
 20
-1.858744374041533
 30
0.0
 10
-6.756537321269533
 20
-1.870323042062581
 30
0.0
 10
-6.415868615557658
 20
-1.905226138185058
 30
0.0
 10
-6.143724341464701
 20
-1.903103653174229
 30
0.0
 10
-5.991508483886966
 20
-1.901916503904982
 30
0.0
 11
-7.103507995605972
 21
-1.776916503904982
 31
0.0
 11
-7.028907775878969
 21
-1.826019287104981
 31
0.0
 11
-6.803306579589977
 21
-1.86959838866498
 31
0.0
 11
-6.446105957031966
 21
-1.89630126952498
 31
0.0
 11
-5.991508483886966
 21
-1.901916503904982
 31
0.0
  0
SPLINE
  5
26AA
330
1F
100
AcDbEntity
  8
AM_0
100
AcDbSpline
210
0.0
220
0.0
230
1.0
 70
     8
 71
     3
 72
    11
 73
     7
 74
     5
 42
0.0000000001
 43
0.0000000001
 44
0.0000000001
 40
0.0
 40
0.0
 40
0.0
 40
0.0
 40
1.304663326789887
 40
2.609009732723445
 40
3.913763384707968
 40
5.219612748242968
 40
5.219612748242968
 40
5.219612748242968
 40
5.219612748242968
 10
-3.986503601074978
 20
-2.135894775384981
 30
0.0
 10
-4.408370752118456
 20
-2.030183430923064
 30
0.0
 10
-5.252002576810651
 20
-1.818786420754142
 30
0.0
 10
-6.526551037924351
 20
-1.539722028568342
 30
0.0
 10
-7.806812299681403
 20
-1.286121205876768
 30
0.0
 10
-8.665154220020705
 20
-1.142675705113926
 30
0.0
 10
-9.094505310058968
 20
-1.070922851554979
 30
0.0
 11
-3.986503601074978
 21
-2.135894775384981
 31
0.0
 11
-5.253608703613969
 21
-1.825103759764983
 31
0.0
 11
-6.527305603027975
 21
-1.544006347654982
 31
0.0
 11
-7.807609558105972
 21
-1.292602539054979
 31
0.0
 11
-9.094505310058968
 21
-1.070922851554979
 31
0.0
  0
SPLINE
  5
26AB
330
1F
100
AcDbEntity
  8
AM_0
100
AcDbSpline
210
0.0
220
0.0
230
1.0
 70
     8
 71
     3
 72
    11
 73
     7
 74
     5
 42
0.0000000001
 43
0.0000000001
 44
0.0000000001
 40
0.0
 40
0.0
 40
0.0
 40
0.0
 40
0.0200357153668668
 40
0.0631494886675764
 40
0.133390905655161
 40
0.2255640889352002
 40
0.2255640889352002
 40
0.2255640889352002
 40
0.2255640889352002
 10
-10.78460693359396
 20
-1.918914794914979
 30
0.0
 10
-10.78226497020432
 20
-1.925446243833055
 30
0.0
 10
-10.77488346234068
 20
-1.946032364761732
 30
0.0
 10
-10.72629559354383
 20
-1.958094723094726
 30
0.0
 10
-10.66308087844965
 20
-1.976120324994584
 30
0.0
 10
-10.60874201948015
 20
-1.982943903630233
 30
0.0
 10
-10.57790374755896
 20
-1.98681640624498
 30
0.0
 11
-10.78460693359396
 21
-1.918914794914979
 31
0.0
 11
-10.77600860595696
 21
-1.93701171874498
 31
0.0
 11
-10.73710632324297
 21
-1.955596923824981
 31
0.0
 11
-10.66900634765696
 21
-1.97280883788498
 31
0.0
 11
-10.57790374755896
 21
-1.98681640624498
 31
0.0
  0
SPLINE
  5
26AC
330
1F
100
AcDbEntity
  8
AM_0
100
AcDbSpline
210
0.0
220
0.0
230
1.0
 70
     8
 71
     3
 72
    11
 73
     7
 74
     5
 42
0.0000000001
 43
0.0000000001
 44
0.0000000001
 40
0.0
 40
0.0
 40
0.0
 40
0.0
 40
0.2467690996378348
 40
0.4930593304064561
 40
0.7388771189024518
 40
0.9841674553964491
 40
0.9841674553964491
 40
0.9841674553964491
 40
0.9841674553964491
 10
-9.926002502441965
 20
-1.098510742184981
 30
0.0
 10
-9.988319262382022
 20
-1.152201840592961
 30
0.0
 10
-10.11283185319764
 20
-1.259479846910115
 30
0.0
 10
-10.2997428895708
 20
-1.419867739235319
 30
0.0
 10
-10.48652792310367
 20
-1.579644990647154
 30
0.0
 10
-10.61108836501665
 20
-1.685867770862926
 30
0.0
 10
-10.67330169677797
 20
-1.73892211913498
 30
0.0
 11
-9.926002502441965
 21
-1.098510742184981
 31
0.0
 11
-10.11300659179696
 21
-1.259521484374982
 31
0.0
 11
-10.29990386962896
 21
-1.41992187499498
 31
0.0
 11
-10.48670196533196
 21
-1.579711914054979
 31
0.0
 11
-10.67330169677797
 21
-1.73892211913498
 31
0.0
  0
SPLINE
  5
26AD
330
1F
100
AcDbEntity
  8
AM_0
100
AcDbSpline
210
0.0
220
0.0
230
1.0
 70
     8
 71
     3
 72
    11
 73
     7
 74
     5
 42
0.0000000001
 43
0.0000000001
 44
0.0000000001
 40
0.0
 40
0.0
 40
0.0
 40
0.0
 40
0.0194147269967051
 40
0.0623099547590601
 40
0.1323441833041226
 40
0.2244496518286674
 40
0.2244496518286674
 40
0.2244496518286674
 40
0.2244496518286674
 10
0.0008926391600219
 20
-2.748596191404983
 30
0.0
 10
-0.002506837331488
 20
-2.754382211726399
 30
0.0
 10
-0.0134171749543875
 20
-2.772951963674169
 30
0.0
 10
-0.062840981176589
 20
-2.776481209007331
 30
0.0
 10
-0.1280558306731088
 20
-2.783860857401393
 30
0.0
 10
-0.1826781075078774
 20
-2.78192336852359
 30
0.0
 10
-0.2137069702149781
 20
-2.780822753904983
 30
0.0
 11
0.0008926391600219
 21
-2.748596191404983
 31
0.0
 11
-0.0105056762699782
 21
-2.764312744134981
 31
0.0
 11
-0.0518035888679755
 21
-2.775909423824982
 31
0.0
 11
-0.1216049194339697
 21
-2.781616210934982
 31
0.0
 11
-0.2137069702149781
 21
-2.780822753904983
 31
0.0
  0
SPLINE
  5
26AE
330
1F
100
AcDbEntity
  8
AM_0
100
AcDbSpline
210
0.0
220
0.0
230
1.0
 70
     8
 71
     3
 72
    11
 73
     7
 74
     5
 42
0.0000000001
 43
0.0000000001
 44
0.0000000001
 40
0.0
 40
0.0
 40
0.0
 40
0.0
 40
0.018448828837134
 40
0.0337927760819717
 40
0.0459189828879027
 40
0.0548282473475612
 40
0.0548282473475612
 40
0.0548282473475612
 40
0.0548282473475612
 10
-9.087699890136965
 20
1.424987792975019
 30
0.0
 10
-9.093834112391512
 20
1.425422696688391
 30
0.0
 10
-9.105070186015208
 20
1.426219311147386
 30
0.0
 10
-9.120335628926529
 20
1.427336179990344
 30
0.0
 10
-9.132434851334284
 20
1.42815411696462
 30
0.0
 10
-9.139436994273363
 20
1.428523832393136
 30
0.0
 10
-9.142402648925971
 20
1.428680419925018
 30
0.0
 11
-9.087699890136965
 21
1.424987792975019
 31
0.0
 11
-9.106101989745971
 21
1.42630004883502
 31
0.0
 11
-9.121406555175971
 21
1.427398681645018
 31
0.0
 11
-9.133506774902974
 21
1.428192138675018
 31
0.0
 11
-9.142402648925971
 21
1.428680419925018
 31
0.0
  0
SPLINE
  5
26AF
330
1F
100
AcDbEntity
  8
AM_0
100
AcDbSpline
210
0.0
220
0.0
230
1.0
 70
     8
 71
     3
 72
     9
 73
     5
 74
     3
 42
0.0000000001
 43
0.0000000001
 44
0.0000000001
 40
0.0
 40
0.0
 40
0.0
 40
0.0
 40
1.540966798598452
 40
3.074411529566281
 40
3.074411529566281
 40
3.074411529566281
 40
3.074411529566281
 10
-12.86860656738297
 20
-0.2745056152349827
 30
0.0
 10
-12.35653933376972
 20
-0.3148692522811082
 30
0.0
 10
-11.33490446897864
 20
-0.3953994955171752
 30
0.0
 10
-10.31327049497821
 20
-0.4759410388369619
 30
0.0
 10
-9.803703308105971
 20
-0.5161132812449806
 30
0.0
 11
-12.86860656738297
 21
-0.2745056152349827
 31
0.0
 11
-11.33240509033196
 21
-0.3955993652349829
 31
0.0
 11
-9.803703308105971
 21
-0.5161132812449806
 31
0.0
  0
SPLINE
  5
26B0
330
1F
100
AcDbEntity
  8
AM_0
100
AcDbSpline
210
0.0
220
0.0
230
1.0
 70
     8
 71
     3
 72
    11
 73
     7
 74
     5
 42
0.0000000001
 43
0.0000000001
 44
0.0000000001
 40
0.0
 40
0.0
 40
0.0
 40
0.0
 40
0.0091023281140329
 40
0.0165279672902687
 40
0.022234693200538
 40
0.0263522202503709
 40
0.0263522202503709
 40
0.0263522202503709
 40
0.0263522202503709
 10
-0.6353073120119664
 20
0.5636901855450153
 30
0.0
 10
-0.6322699139611066
 20
0.5636707365953321
 30
0.0
 10
-0.6267546199612408
 20
0.5636354212781774
 30
0.0
 10
-0.6193808255523443
 20
0.5642527966614032
 30
0.0
 10
-0.6136361601573073
 20
0.5651079398207277
 30
0.0
 10
-0.6106549839478474
 20
0.5664959118464444
 30
0.0
 10
-0.6094055175779748
 20
0.5670776367250189
 30
0.0
 11
-0.6353073120119664
 21
0.5636901855450153
 31
0.0
 11
-0.626205444335972
 21
0.5637817382850178
 31
0.0
 11
-0.6188049316409721
 21
0.5643920898450167
 31
0.0
 11
-0.6132049560549778
 21
0.5654907226550156
 31
0.0
 11
-0.6094055175779748
 21
0.5670776367250189
 31
0.0
  0
SPLINE
  5
26B1
330
1F
100
AcDbEntity
  8
AM_0
100
AcDbSpline
210
0.0
220
0.0
230
1.0
 70
     8
 71
     3
 72
    11
 73
     7
 74
     5
 42
0.0000000001
 43
0.0000000001
 44
0.0000000001
 40
0.0
 40
0.0
 40
0.0
 40
0.0
 40
0.0085412835130112
 40
0.0203154144464725
 40
0.0353803760071546
 40
0.0535122159844947
 40
0.0535122159844947
 40
0.0535122159844947
 40
0.0535122159844947
 10
-9.357002258300971
 20
1.274505615235017
 30
0.0
 10
-9.354281732129344
 20
1.273660247913467
 30
0.0
 10
-9.347810969672519
 20
1.271649544548965
 30
0.0
 10
-9.336222661265065
 20
1.269381448526288
 30
0.0
 10
-9.321516082177476
 20
1.266497447081922
 30
0.0
 10
-9.310577918365483
 20
1.264808168908066
 30
0.0
 10
-9.304603576660971
 20
1.263885498045016
 30
0.0
 11
-9.357002258300971
 21
1.274505615235017
 31
0.0
 11
-9.348808288574977
 21
1.272094726565018
 31
0.0
 11
-9.337303161620971
 21
1.269592285155016
 31
0.0
 11
-9.322502136230971
 21
1.266784667975019
 31
0.0
 11
-9.304603576660971
 21
1.263885498045016
 31
0.0
  0
SPLINE
  5
26B2
330
1F
100
AcDbEntity
  8
AM_0
100
AcDbSpline
210
0.0
220
0.0
230
1.0
 70
     8
 71
     3
 72
    11
 73
     7
 74
     5
 42
0.0000000001
 43
0.0000000001
 44
0.0000000001
 40
0.0
 40
0.0
 40
0.0
 40
0.0
 40
0.7856816544716637
 40
1.295969542336711
 40
1.306372243462838
 40
1.312780934868847
 40
1.312780934868847
 40
1.312780934868847
 40
1.312780934868847
 10
-10.07120513916097
 20
-0.5020141601549823
 30
0.0
 10
-10.33235171451945
 20
-0.4820277970560939
 30
0.0
 10
-10.76310888674554
 20
-0.4490606052032316
 30
0.0
 10
-11.19721886161647
 20
-0.416225471551317
 30
0.0
 10
-11.37266760305216
 20
-0.4054484691357371
 30
0.0
 10
-11.37827256598305
 20
-0.4054985041980049
 30
0.0
 10
-11.38040924072297
 20
-0.4055175781249826
 30
0.0
 11
-10.07120513916097
 21
-0.5020141601549823
 31
0.0
 11
-10.85460662841797
 21
-0.4421997070249799
 31
0.0
 11
-11.36360931396497
 21
-0.4060058593749826
 31
0.0
 11
-11.37400054931696
 21
-0.4055175781249826
 31
0.0
 11
-11.38040924072297
 21
-0.4055175781249826
 31
0.0
  0
SPLINE
  5
26B3
330
1F
100
AcDbEntity
  8
AM_0
100
AcDbSpline
210
0.0
220
0.0
230
1.0
 70
     8
 71
     3
 72
    11
 73
     7
 74
     5
 42
0.0000000001
 43
0.0000000001
 44
0.0000000001
 40
0.0
 40
0.0
 40
0.0
 40
0.0
 40
0.0491740283041335
 40
0.0969984252704515
 40
0.1435417340433897
 40
0.1886230154808137
 40
0.1886230154808137
 40
0.1886230154808137
 40
0.1886230154808137
 10
-0.9846038818359719
 20
0.6141052246150186
 30
0.0
 10
-0.9684752657493492
 20
0.6111821722874894
 30
0.0
 10
-0.9366606998870976
 20
0.6054162937834978
 30
0.0
 10
-0.8895377526888244
 20
0.5971205650701295
 30
0.0
 10
-0.8436983522405396
 20
0.5894089248264423
 30
0.0
 10
-0.8135430942681715
 20
0.5845664435098272
 30
0.0
 10
-0.798706054687975
 20
0.5821838378950181
 30
0.0
 11
-0.9846038818359719
 21
0.6141052246150186
 31
0.0
 11
-0.9362106323249779
 21
0.6053771972650158
 31
0.0
 11
-0.8891067504889694
 21
0.5971069335950167
 31
0.0
 11
-0.8432083129889694
 21
0.5893859863350192
 31
0.0
 11
-0.798706054687975
 21
0.5821838378950181
 31
0.0
  0
SPLINE
  5
26B4
330
1F
100
AcDbEntity
  8
AM_0
100
AcDbSpline
210
0.0
220
0.0
230
1.0
 70
     8
 71
     3
 72
    11
 73
     7
 74
     5
 42
0.0000000001
 43
0.0000000001
 44
0.0000000001
 40
0.0
 40
0.0
 40
0.0
 40
0.0
 40
0.0296834867669784
 40
0.0566524208913956
 40
0.0809197487954453
 40
0.1024713231826682
 40
0.1024713231826682
 40
0.1024713231826682
 40
0.1024713231826682
 10
-8.985504150390971
 20
1.417480468755019
 30
0.0
 10
-8.99537159453648
 20
1.418211666320057
 30
0.0
 10
-9.014204105799128
 20
1.419607193487552
 30
0.0
 10
-9.041102145408354
 20
1.42161961096532
 30
0.0
 10
-9.065295295956719
 20
1.423455926040497
 30
0.0
 10
-9.08053274063919
 20
1.424497754224837
 30
0.0
 10
-9.087699890136965
 20
1.424987792975019
 30
0.0
 11
-8.985504150390971
 21
1.417480468755019
 31
0.0
 11
-9.015106201171965
 21
1.419677734375017
 31
0.0
 11
-9.041999816894977
 21
1.421691894535018
 31
0.0
 11
-9.066200256347974
 21
1.423492431645018
 31
0.0
 11
-9.087699890136965
 21
1.424987792975019
 31
0.0
  0
SPLINE
  5
26B5
330
1F
100
AcDbEntity
  8
AM_0
100
AcDbSpline
210
0.0
220
0.0
230
1.0
 70
     8
 71
     3
 72
    11
 73
     7
 74
     5
 42
0.0000000001
 43
0.0000000001
 44
0.0000000001
 40
0.0
 40
0.0
 40
0.0
 40
0.0
 40
0.0255540758585771
 40
0.0551628625511759
 40
0.088829854876806
 40
0.1264886204740345
 40
0.1264886204740345
 40
0.1264886204740345
 40
0.1264886204740345
 10
-9.304603576660971
 20
1.263885498045016
 30
0.0
 10
-9.296176215890742
 20
1.262642605402795
 30
0.0
 10
-9.277984309972875
 20
1.259959608124078
 30
0.0
 10
-9.248562031554985
 20
1.256596646127515
 30
0.0
 10
-9.215091272880041
 20
1.253177093589271
 30
0.0
 10
-9.19140671105087
 20
1.251097820307438
 30
0.0
 10
-9.178901672363968
 20
1.250000000005019
 30
0.0
 11
-9.304603576660971
 21
1.263885498045016
 31
0.0
 11
-9.279304504394977
 21
1.26028442383502
 31
0.0
 11
-9.249900817870971
 21
1.256805419925018
 31
0.0
 11
-9.216407775878968
 21
1.253387451175018
 31
0.0
 11
-9.178901672363968
 21
1.250000000005019
 31
0.0
  0
SPLINE
  5
26B6
330
1F
100
AcDbEntity
  8
AM_0
100
AcDbSpline
210
0.0
220
0.0
230
1.0
 70
     8
 71
     3
 72
    11
 73
     7
 74
     5
 42
0.0000000001
 43
0.0000000001
 44
0.0000000001
 40
0.0
 40
0.0
 40
0.0
 40
0.0
 40
0.054864632744862
 40
0.1063202197731222
 40
0.1542538355671356
 40
0.1986870422134044
 40
0.1986870422134044
 40
0.1986870422134044
 40
0.1986870422134044
 10
-8.765403747558968
 20
1.400695800785018
 30
0.0
 10
-8.783638671609612
 20
1.402090898870016
 30
0.0
 10
-8.818975482148863
 20
1.404794409812883
 30
0.0
 10
-8.870232639899995
 20
1.408859151228468
 30
0.0
 10
-8.91804294318916
 20
1.412395649957318
 30
0.0
 10
-8.948741173504204
 20
1.41475742098893
 30
0.0
 10
-8.963508605956965
 20
1.41589355469502
 30
0.0
 11
-8.765403747558968
 21
1.400695800785018
 31
0.0
 11
-8.820106506347974
 21
1.404907226565018
 31
0.0
 11
-8.871406555175971
 21
1.408905029295016
 31
0.0
 11
-8.919204711913968
 21
1.412506103515016
 31
0.0
 11
-8.963508605956965
 21
1.41589355469502
 31
0.0
  0
SPLINE
  5
26B7
330
1F
100
AcDbEntity
  8
AM_0
100
AcDbSpline
210
0.0
220
0.0
230
1.0
 70
     8
 71
     3
 72
    11
 73
     7
 74
     5
 42
0.0000000001
 43
0.0000000001
 44
0.0000000001
 40
0.0
 40
0.0
 40
0.0
 40
0.0
 40
0.065203975276715
 40
0.1366045732866535
 40
0.2139812065603466
 40
0.2975604795115483
 40
0.2975604795115483
 40
0.2975604795115483
 40
0.2975604795115483
 10
-9.178901672363968
 20
1.250000000005019
 30
0.0
 10
-9.157238900314229
 20
1.248232835206036
 30
0.0
 10
-9.111854646984548
 20
1.244530564105726
 30
0.0
 10
-9.040718827991526
 20
1.239301796079411
 30
0.0
 10
-8.96344871916025
 20
1.233991058014358
 30
0.0
 10
-8.9099059961384
 20
1.230567847393582
 30
0.0
 10
-8.882102966308968
 20
1.228790283205017
 30
0.0
 11
-9.178901672363968
 21
1.250000000005019
 31
0.0
 11
-9.113906860351965
 21
1.244781494145019
 31
0.0
 11
-9.042701721191965
 21
1.239501953125017
 31
0.0
 11
-8.965507507324977
 21
1.234191894535018
 31
0.0
 11
-8.882102966308968
 21
1.228790283205017
 31
0.0
  0
SPLINE
  5
26B8
330
1F
100
AcDbEntity
  8
AM_0
100
AcDbSpline
210
0.0
220
0.0
230
1.0
 70
     8
 71
     3
 72
    11
 73
     7
 74
     5
 42
0.0000000001
 43
0.0000000001
 44
0.0000000001
 40
0.0
 40
0.0
 40
0.0
 40
0.0
 40
0.0360219937791275
 40
0.0719245796327985
 40
0.1079465734219525
 40
0.1438465351498109
 40
0.1438465351498109
 40
0.1438465351498109
 40
0.1438465351498109
 10
-8.514205932617974
 20
1.381103515625017
 30
0.0
 10
-8.51449439775822
 20
1.369099627757911
 30
0.0
 10
-8.515070371816683
 20
1.34513164325115
 30
0.0
 10
-8.516143472200148
 20
1.309165284140059
 30
0.0
 10
-8.516994955390517
 20
1.273233762276955
 30
0.0
 10
-8.517602788216001
 20
1.24926749100721
 30
0.0
 10
-8.517906188964976
 20
1.237304687505019
 30
0.0
 11
-8.514205932617974
 21
1.381103515625017
 31
0.0
 11
-8.515106201171965
 21
1.34509277344502
 31
0.0
 11
-8.516105651855971
 21
1.309204101565018
 31
0.0
 11
-8.517005920410971
 21
1.273193359375017
 31
0.0
 11
-8.517906188964976
 21
1.237304687505019
 31
0.0
  0
SPLINE
  5
26B9
330
1F
100
AcDbEntity
  8
AM_0
100
AcDbSpline
210
0.0
220
0.0
230
1.0
 70
     8
 71
     3
 72
    11
 73
     7
 74
     5
 42
0.0000000001
 43
0.0000000001
 44
0.0000000001
 40
0.0
 40
0.0
 40
0.0
 40
0.0
 40
0.0618846677812404
 40
0.1244715003236154
 40
0.1877647826219798
 40
0.2519607881900967
 40
0.2519607881900967
 40
0.2519607881900967
 40
0.2519607881900967
 10
-8.765403747558968
 20
1.400695800785018
 30
0.0
 10
-8.744837882149544
 20
1.39909308522044
 30
0.0
 10
-8.703472803936417
 20
1.39586946912832
 30
0.0
 10
-8.641065702221297
 20
1.391109711431027
 30
0.0
 10
-8.577911838320789
 20
1.386017369670204
 30
0.0
 10
-8.535541240110488
 20
1.382749180746182
 30
0.0
 10
-8.514205932617974
 20
1.381103515625017
 30
0.0
 11
-8.765403747558968
 21
1.400695800785018
 31
0.0
 11
-8.703704833984977
 21
1.395904541015016
 31
0.0
 11
-8.641304016113968
 21
1.391082763675018
 31
0.0
 11
-8.578208923339976
 21
1.386077880865019
 31
0.0
 11
-8.514205932617974
 21
1.381103515625017
 31
0.0
  0
SPLINE
  5
26BA
330
1F
100
AcDbEntity
  8
AM_0
100
AcDbSpline
210
0.0
220
0.0
230
1.0
 70
     8
 71
     3
 72
    11
 73
     7
 74
     5
 42
0.0000000001
 43
0.0000000001
 44
0.0000000001
 40
0.0
 40
0.0
 40
0.0
 40
0.0
 40
0.0822267020395497
 40
0.1654546871511766
 40
0.249857001650299
 40
0.335243031098681
 40
0.335243031098681
 40
0.335243031098681
 40
0.335243031098681
 10
-8.882102966308968
 20
1.228790283205017
 30
0.0
 10
-8.85473988518366
 20
1.227205712650609
 30
0.0
 10
-8.799680519858483
 20
1.224017276061937
 30
0.0
 10
-8.716515483306096
 20
1.219532542319136
 30
0.0
 10
-8.632282496559284
 20
1.215302586584249
 30
0.0
 10
-8.575743274299593
 20
1.212763643151199
 30
0.0
 10
-8.547309875488968
 20
1.211486816405016
 30
0.0
 11
-8.882102966308968
 21
1.228790283205017
 31
0.0
 11
-8.800010681152974
 21
1.224090576175018
 31
0.0
 11
-8.716903686523968
 21
1.21960449219502
 31
0.0
 11
-8.632606506347974
 21
1.215393066405016
 31
0.0
 11
-8.547309875488968
 21
1.211486816405016
 31
0.0
  0
SPLINE
  5
26BB
330
1F
100
AcDbEntity
  8
AM_0
100
AcDbSpline
210
0.0
220
0.0
230
1.0
 70
     8
 71
     3
 72
    11
 73
     7
 74
     5
 42
0.0000000001
 43
0.0000000001
 44
0.0000000001
 40
0.0
 40
0.0
 40
0.0
 40
0.0
 40
0.052259818283548
 40
0.0980235316437159
 40
0.1359083885645469
 40
0.1645377970127058
 40
0.1645377970127058
 40
0.1645377970127058
 40
0.1645377970127058
 10
-0.798706054687975
 20
0.5821838378950181
 30
0.0
 10
-0.7814807258516728
 20
0.5795801597812758
 30
0.0
 10
-0.7491712456101343
 20
0.5746964511815309
 30
0.0
 10
-0.7042359257659755
 20
0.56896015231443
 30
0.0
 10
-0.667005023077977
 20
0.5649343102323981
 30
0.0
 10
-0.6448453788173811
 20
0.5640645515160412
 30
0.0
 10
-0.6353073120119664
 20
0.5636901855450153
 30
0.0
 11
-0.798706054687975
 21
0.5821838378950181
 31
0.0
 11
-0.747001647949978
 21
0.5745849609450194
 31
0.0
 11
-0.7016067504889694
 21
0.5687866210950167
 31
0.0
 11
-0.6639022827149777
 21
0.5650939941450181
 31
0.0
 11
-0.6353073120119664
 21
0.5636901855450153
 31
0.0
  0
SPLINE
  5
26BC
330
1F
100
AcDbEntity
  8
AM_0
100
AcDbSpline
210
0.0
220
0.0
230
1.0
 70
     8
 71
     3
 72
    11
 73
     7
 74
     5
 42
0.0000000001
 43
0.0000000001
 44
0.0000000001
 40
0.0
 40
0.0
 40
0.0
 40
0.0
 40
0.2859457209096667
 40
0.5404539273687483
 40
0.7323101434156888
 40
0.8400533144084359
 40
0.8400533144084359
 40
0.8400533144084359
 40
0.8400533144084359
 10
-9.094505310058968
 20
-1.070922851554979
 30
0.0
 10
-9.189438878780345
 20
-1.060558880036617
 30
0.0
 10
-9.368868806570063
 20
-1.040970375293768
 30
0.0
 10
-9.612016948455806
 20
-1.041434110579282
 30
0.0
 10
-9.799758187303487
 20
-1.046444604557634
 30
0.0
 10
-9.892610551209253
 20
-1.084739112732828
 30
0.0
 10
-9.926002502441965
 20
-1.098510742184981
 30
0.0
 11
-9.094505310058968
 21
-1.070922851554979
 31
0.0
 11
-9.379310607910971
 21
-1.04541015624498
 31
0.0
 11
-9.633804321288968
 21
-1.042694091794982
 31
0.0
 11
-9.824707031249976
 21
-1.061798095704983
 31
0.0
 11
-9.926002502441965
 21
-1.098510742184981
 31
0.0
  0
SPLINE
  5
26BD
330
1F
100
AcDbEntity
  8
AM_0
100
AcDbSpline
210
0.0
220
0.0
230
1.0
 70
     8
 71
     3
 72
     9
 73
     5
 74
     3
 42
0.0000000001
 43
0.0000000001
 44
0.0000000001
 40
0.0
 40
0.0
 40
0.0
 40
0.0
 40
4.183175331991355
 40
8.942712291817985
 40
8.942712291817985
 40
8.942712291817985
 40
8.942712291817985
 10
-12.86860656738297
 20
-0.2745056152349827
 30
0.0
 10
-14.25870711417476
 20
-0.1651945967001665
 30
0.0
 10
-17.23043750079953
 20
0.0684884099877457
 30
0.0
 10
-20.20217567649381
 20
0.3020723429478632
 30
0.0
 10
-21.78380966186597
 20
0.4263916015650198
 30
0.0
 11
-12.86860656738297
 21
-0.2745056152349827
 31
0.0
 11
-17.03890991210997
 21
0.0534057617250209
 31
0.0
 11
-21.78380966186597
 21
0.4263916015650198
 31
0.0
  0
LINE
  5
26BE
330
1F
100
AcDbEntity
  8
AM_0
100
AcDbLine
 10
-35.00000762939497
 20
-12.24999999999497
 30
0.0
 11
-23.23830795288097
 21
-12.24999999999497
 31
0.0
  0
LINE
  5
26BF
330
1F
100
AcDbEntity
  8
AM_0
100
AcDbLine
 10
-23.23830795288097
 20
12.25000000000502
 30
0.0
 11
-35.00000762939497
 21
12.25000000000502
 31
0.0
  0
LWPOLYLINE
  5
26C0
330
1F
100
AcDbEntity
  8
AM_11
100
AcDbPolyline
 90
        4
 70
     1
 43
0.0
 10
0.0000000000000207
 20
-12.99999999999498
 10
-8.999999999999978
 20
-12.99999999999498
 10
-8.999999999999975
 20
13.00000000000502
 10
0.0000000000000239
 20
13.00000000000501
1001
GENIUS_GENREC_14
1002
{
1000
PYDIR
1011
0.0000000000000239
1021
13.00000000000501
1031
0.0
1002
}
1002
{
1000
PXDIR
1011
-8.999999999999978
1021
-12.99999999999498
1031
0.0
1002
}
1002
{
1000
PORI
1011
0.0000000000000207
1021
-12.99999999999498
1031
0.0
1002
}
1002
{
1000
PINS
1011
0.0000000000000207
1021
-12.99999999999498
1031
0.0
1002
}
1002
{
1000
PINS2
1011
-8.999999999999975
1021
13.00000000000502
1031
0.0
1002
}
1002
{
1000
C
1070
     1
1002
}
1001
GENIUS_GENODEF_13
1002
{
1000
HIER
1070
     0
1002
}
1002
{
1000
MANEDIT
1070
     0
1002
}
1002
{
1000
NOSEL
1070
     0
1002
}
1002
{
1000
BEHIND
1070
     0
1002
}
1002
{
1000
REACTOR
1002
}
1001
GENIUS_GENOBJ-N-REC_13
1002
{
1000
OWNER
1000
GEN
1002
}
  0
LINE
  5
26C1
330
1F
100
AcDbEntity
  8
AM_0
100
AcDbLine
 10
-1.024406433105973
 20
-10.04681396484498
 30
0.0
 11
-1.258705139160972
 21
-2.638214111324982
 31
0.0
  0
LINE
  5
26C2
330
1F
100
AcDbEntity
  8
AM_0
100
AcDbLine
 10
-0.7557144165039702
 20
-8.560211181634981
 30
0.0
 11
-0.9082107543949787
 21
-7.443695068354982
 31
0.0
  0
LINE
  5
26C3
330
1F
100
AcDbEntity
  8
AM_0
100
AcDbLine
 10
-1.100509643554978
 20
-7.45211791991498
 30
0.0
 11
-0.9479064941409731
 21
-8.568634033204984
 31
0.0
  0
LINE
  5
26C4
330
1F
100
AcDbEntity
  8
AM_0
100
AcDbLine
 10
-5.594406127929977
 20
5.647796630865019
 30
0.0
 11
-8.926704406738968
 21
5.793304443365019
 31
0.0
  0
LINE
  5
26C5
330
1F
100
AcDbEntity
  8
AM_0
100
AcDbLine
 10
-6.632606506347975
 20
-1.931030273434982
 30
0.0
 11
-10.42571258544997
 21
-1.998931884764982
 31
0.0
  0
LINE
  5
26C6
330
1F
100
AcDbEntity
  8
AM_0
100
AcDbLine
 10
-8.514213562011965
 20
1.381072998045016
 30
0.0
 11
-1.024604797363969
 21
0.7910766601550156
 31
0.0
  0
LINE
  5
26C7
330
1F
100
AcDbEntity
  8
AM_0
100
AcDbLine
 10
-8.521705627441965
 20
1.210083007815018
 30
0.0
 11
-1.029014587402975
 21
0.6197814941450181
 31
0.0
  0
ARC
  5
26C8
330
1F
100
AcDbEntity
  8
AM_0
100
AcDbCircle
 10
-4.851203918456965
 20
9.433898925785017
 30
0.0
 40
1.2499485015869
100
AcDbArc
 50
126.4830192301302
 51
256.5329731594761
  0
ARC
  5
26C9
330
1F
100
AcDbEntity
  8
AM_0
100
AcDbCircle
 10
-5.205307006835971
 20
9.449279785155015
 30
0.0
 40
1.2500885725021
100
AcDbArc
 50
87.5012889008893
 51
267.5010890041714
  0
ARC
  5
26CA
330
1F
100
AcDbEntity
  8
AM_0
100
AcDbCircle
 10
-5.205307006835971
 20
9.449279785155015
 30
0.0
 40
1.2499886751175
100
AcDbArc
 50
267.5010890041714
 51
87.50129891879934
  0
ARC
  5
26CB
330
1F
100
AcDbEntity
  8
AM_0
100
AcDbCircle
 10
-5.121406555175971
 20
9.534881591795015
 30
0.0
 40
1.400003433227499
100
AcDbArc
 50
88.31772190295003
 51
266.4821272328397
  0
ARC
  5
26CC
330
1F
100
AcDbEntity
  8
AM_0
100
AcDbCircle
 10
-5.253005981445971
 20
9.540679931645017
 30
0.0
 40
1.7499889135361
100
AcDbArc
 50
88.39222560641536
 51
264.9481487075262
  0
LINE
  5
26CD
330
1F
100
AcDbEntity
  8
AM_0
100
AcDbLine
 10
-0.0815048217779738
 20
11.08938598633501
 30
0.0
 11
0.0000000000000238
 21
12.21566772461502
 31
0.0
  0
LINE
  5
26CE
330
1F
100
AcDbEntity
  8
AM_0
100
AcDbLine
 10
-0.3659057617189677
 20
12.63049316406501
 30
0.0
 11
-0.2137145996099764
 21
12.59399414062501
 31
0.0
  0
LINE
  5
26CF
330
1F
100
AcDbEntity
  8
AM_0
100
AcDbLine
 10
-0.2136993408209707
 20
12.59399414062501
 30
0.0
 11
-0.3650054931639675
 21
12.63040161133502
 31
0.0
  0
LINE
  5
26D0
330
1F
100
AcDbEntity
  8
AM_0
100
AcDbLine
 10
-0.5025024414069667
 20
0.0000000000050183
 30
0.0
 11
0.000900268554028
 21
2.748596191405015
 31
0.0
  0
LINE
  5
26D1
330
1F
100
AcDbEntity
  8
AM_0
100
AcDbLine
 10
-0.0815048217779748
 20
2.561187744145017
 30
0.0
 11
-0.5552062988279748
 21
0.2879028320350177
 31
0.0
  0
LINE
  5
26D2
330
1F
100
AcDbEntity
  8
AM_0
100
AcDbLine
 10
-0.6086044311529751
 20
0.5734863281250161
 30
0.0
 11
-0.8161926269529747
 21
0.7739868164050156
 31
0.0
  0
LINE
  5
26D3
330
1F
100
AcDbEntity
  8
AM_0
100
AcDbLine
 10
-1.157707214355971
 20
6.356475830085019
 30
0.0
 11
-1.186508178710971
 21
5.455291748045015
 31
0.0
  0
LINE
  5
26D4
330
1F
100
AcDbEntity
  8
AM_0
100
AcDbLine
 10
-1.215408325195971
 20
5.456573486335019
 30
0.0
 11
-1.024406433105971
 21
5.448181152345016
 31
0.0
  0
LINE
  5
26D5
330
1F
100
AcDbEntity
  8
AM_0
100
AcDbLine
 10
-1.024406433105972
 20
0.7911071777350164
 30
0.0
 11
-1.024406433105971
 21
5.448181152345016
 31
0.0
  0
LINE
  5
26D6
330
1F
100
AcDbEntity
  8
AM_0
100
AcDbLine
 10
-0.3659057617189689
 20
2.768676757815017
 30
0.0
 11
-0.2137069702149774
 21
2.780792236335019
 31
0.0
  0
LINE
  5
26D7
330
1F
100
AcDbEntity
  8
AM_0
100
AcDbLine
 10
-0.3659133911139691
 20
2.768707275395017
 30
0.0
 11
-1.026313781738969
 21
2.687103271485016
 31
0.0
  0
LINE
  5
26D8
330
1F
100
AcDbEntity
  8
AM_0
100
AcDbLine
 10
0.0000000000000227
 20
2.745605468755018
 30
0.0
 11
0.0008926391600226
 21
2.748596191405015
 31
0.0
  0
LINE
  5
26D9
330
1F
100
AcDbEntity
  8
AM_0
100
AcDbLine
 10
-0.0815124511719661
 20
2.561187744145017
 30
0.0
 11
0.0000000000000227
 21
2.745605468755018
 31
0.0
  0
LINE
  5
26DA
330
1F
100
AcDbEntity
  8
AM_0
100
AcDbLine
 10
-0.9100112915039691
 20
0.7819824218750161
 30
0.0
 11
-1.024604797363969
 21
0.7910766601550156
 31
0.0
  0
LINE
  5
26DB
330
1F
100
AcDbEntity
  8
AM_0
100
AcDbLine
 10
-0.8362045288089692
 20
0.7759094238350192
 30
0.0
 11
-0.9100036621099778
 21
0.7820129394550169
 31
0.0
  0
LINE
  5
26DC
330
1F
100
AcDbEntity
  8
AM_0
100
AcDbLine
 10
-0.8162078857429751
 20
0.7739868164050156
 30
0.0
 11
-0.8202056884769664
 21
0.7743835449250175
 31
0.0
  0
LINE
  5
26DD
330
1F
100
AcDbEntity
  8
AM_0
100
AcDbLine
 10
-0.8202056884769664
 20
0.7743835449250175
 30
0.0
 11
-0.8362045288089692
 21
0.7758789062550183
 31
0.0
  0
LINE
  5
26DE
330
1F
100
AcDbEntity
  8
AM_0
100
AcDbLine
 10
-1.215400695800971
 20
0.8060913085950167
 30
0.0
 11
-1.215400695800971
 21
5.456604003905015
 31
0.0
  0
LINE
  5
26DF
330
1F
100
AcDbEntity
  8
AM_0
100
AcDbLine
 10
-6.910408020019977
 20
6.068084716795016
 30
0.0
 11
-3.922500610351965
 21
5.937591552735017
 31
0.0
  0
LINE
  5
26E0
330
1F
100
AcDbEntity
  8
AM_0
100
AcDbLine
 10
-5.609901428222974
 20
5.648376464845017
 30
0.0
 11
-4.031600952148968
 21
5.57946777344502
 31
0.0
  0
LINE
  5
26E1
330
1F
100
AcDbEntity
  8
AM_0
100
AcDbLine
 10
-1.245010375976965
 20
6.258575439455016
 30
0.0
 11
-1.242507934570971
 21
6.318969726565017
 31
0.0
  0
LINE
  5
26E2
330
1F
100
AcDbEntity
  8
AM_0
100
AcDbLine
 10
-1.215400695800971
 20
5.456573486335019
 30
0.0
 11
-4.038009643554977
 21
5.579772949225019
 31
0.0
  0
LINE
  5
26E3
330
1F
100
AcDbEntity
  8
AM_0
100
AcDbLine
 10
-6.890510559081965
 20
6.111785888675018
 30
0.0
 11
-6.910400390624976
 21
6.068084716795016
 31
0.0
  0
LINE
  5
26E4
330
1F
100
AcDbEntity
  8
AM_0
100
AcDbLine
 10
-1.024414062499978
 20
-5.448242187494981
 30
0.0
 11
-1.186500549316967
 21
-5.455322265624984
 31
0.0
  0
LINE
  5
26E5
330
1F
100
AcDbEntity
  8
AM_0
100
AcDbLine
 10
-0.3659057617189696
 20
-2.768737792964982
 30
0.0
 11
-3.986511230468969
 21
-2.135925292964981
 31
0.0
  0
LINE
  5
26E6
330
1F
100
AcDbEntity
  8
AM_0
100
AcDbLine
 10
-1.024406433105972
 20
-2.673522949214982
 30
0.0
 11
-1.024406433105972
 21
-5.44821166991498
 31
0.0
  0
LINE
  5
26E7
330
1F
100
AcDbEntity
  8
AM_0
100
AcDbLine
 10
-0.6077117919929752
 20
0.5723876953150172
 30
0.0
 11
-0.6086120605469663
 21
0.5734863281250161
 31
0.0
  0
LINE
  5
26E8
330
1F
100
AcDbEntity
  8
AM_0
100
AcDbLine
 10
-0.609413146972975
 20
0.5670776367250189
 30
0.0
 11
-0.6070175170899777
 21
0.5708618164050156
 31
0.0
  0
LINE
  5
26E9
330
1F
100
AcDbEntity
  8
AM_0
100
AcDbLine
 10
0.0009002685540274
 20
-2.748626708984984
 30
0.0
 11
-0.6070022583009721
 21
0.5708618164050156
 31
0.0
  0
LINE
  5
26EA
330
1F
100
AcDbEntity
  8
AM_0
100
AcDbLine
 10
-0.6070022583009721
 20
0.5708923339850164
 30
0.0
 11
-0.6076965332029748
 21
0.5723876953150172
 31
0.0
  0
LINE
  5
26EB
330
1F
100
AcDbEntity
  8
AM_0
100
AcDbLine
 10
-0.9846038818359719
 20
0.6140747070350178
 30
0.0
 11
-1.029014587402975
 21
0.6197814941450181
 31
0.0
  0
LINE
  5
26EC
330
1F
100
AcDbEntity
  8
AM_0
100
AcDbLine
 10
-0.3650054931639695
 20
-2.768707275384981
 30
0.0
 11
-0.2137069702149781
 21
-2.780822753904983
 31
0.0
  0
LINE
  5
26ED
330
1F
100
AcDbEntity
  8
AM_0
100
AcDbLine
 10
-0.2137069702149781
 20
-2.780822753904983
 30
0.0
 11
-0.3650054931639695
 21
-2.768707275384981
 31
0.0
  0
LINE
  5
26EE
330
1F
100
AcDbEntity
  8
AM_0
100
AcDbLine
 10
-1.092597961425972
 20
-7.001312255854982
 30
0.0
 11
-1.133506774902975
 21
-6.956695556634981
 31
0.0
  0
LINE
  5
26EF
330
1F
100
AcDbEntity
  8
AM_0
100
AcDbLine
 10
-1.092597961425972
 20
-7.001312255854982
 30
0.0
 11
-1.134109497070973
 21
-7.03381347655498
 31
0.0
  0
LINE
  5
26F0
330
1F
100
AcDbEntity
  8
AM_0
100
AcDbLine
 10
-0.9082031249999785
 20
-7.443725585934982
 30
0.0
 11
-0.9127044677739702
 21
-7.410736083984984
 31
0.0
  0
LINE
  5
26F1
330
1F
100
AcDbEntity
  8
AM_0
100
AcDbLine
 10
-0.9661941528319671
 20
-7.209411621094984
 30
0.0
 11
-1.125602722167975
 21
-7.269226074214982
 31
0.0
  0
LINE
  5
26F2
330
1F
100
AcDbEntity
  8
AM_0
100
AcDbLine
 10
-0.9082107543949787
 20
-7.443695068354982
 30
0.0
 11
-1.100509643554978
 21
-7.452087402344984
 31
0.0
  0
LINE
  5
26F3
330
1F
100
AcDbEntity
  8
AM_0
100
AcDbLine
 10
-4.632102966308969
 20
-2.006195068354981
 30
0.0
 11
-3.986503601074978
 21
-2.135894775384981
 31
0.0
  0
ARC
  5
26F4
330
1F
100
AcDbEntity
  8
AM_0
100
AcDbCircle
 10
-9.191200256347972
 20
8.155395507815018
 30
0.0
 40
1.997671246528599
100
AcDbArc
 50
125.8264160697474
 51
217.2648120172008
  0
ARC
  5
26F5
330
1F
100
AcDbEntity
  8
AM_0
100
AcDbCircle
 10
-9.386604309081963
 20
8.164001464845018
 30
0.0
 40
1.998282670974699
100
AcDbArc
 50
118.6633166493973
 51
219.5965088262477
  0
LINE
  5
26F6
330
1F
100
AcDbEntity
  8
AM_0
100
AcDbLine
 10
-12.86860656738297
 20
12.25000000000502
 30
0.0
 11
-16.35990905761797
 21
12.25000000000502
 31
0.0
  0
LINE
  5
26F7
330
1F
100
AcDbEntity
  8
AM_0
100
AcDbLine
 10
-9.936401367187972
 20
12.09628295898501
 30
0.0
 11
-12.86860656738297
 21
12.25000000000502
 31
0.0
  0
LINE
  5
26F8
330
1F
100
AcDbEntity
  8
AM_0
100
AcDbLine
 10
-12.86860656738297
 20
12.24688720703501
 30
0.0
 11
-12.86860656738297
 21
12.25000000000502
 31
0.0
  0
LINE
  5
26F9
330
1F
100
AcDbEntity
  8
AM_0
100
AcDbLine
 10
-12.86860656738297
 20
-0.2745056152349827
 30
0.0
 11
-12.86860656738297
 21
6.361206054695021
 31
0.0
  0
LINE
  5
26FA
330
1F
100
AcDbEntity
  8
AM_0
100
AcDbLine
 10
-8.926704406738968
 20
5.793304443365019
 30
0.0
 11
-12.86860656738297
 21
6.361206054695021
 31
0.0
  0
LINE
  5
26FB
330
1F
100
AcDbEntity
  8
AM_0
100
AcDbLine
 10
-10.42570495605497
 20
6.463409423835019
 30
0.0
 11
-10.57789611816396
 21
6.499816894535018
 31
0.0
  0
LINE
  5
26FC
330
1F
100
AcDbEntity
  8
AM_0
100
AcDbLine
 10
-10.57790374755896
 20
6.499786376955017
 30
0.0
 11
-10.42660522460997
 21
6.463378906255019
 31
0.0
  0
ARC
  5
26FD
330
1F
100
AcDbEntity
  8
AM_0
100
AcDbCircle
 10
-9.191200256347972
 20
8.155395507815018
 30
0.0
 40
1.9986147880554
100
AcDbArc
 50
239.1591575714998
 51
265.342462358503
  0
LINE
  5
26FE
330
1F
100
AcDbEntity
  8
AM_0
100
AcDbLine
 10
-10.67330169677797
 20
8.00277709961502
 30
0.0
 11
-10.78320312499997
 21
6.87780761719502
 31
0.0
  0
LINE
  5
26FF
330
1F
100
AcDbEntity
  8
AM_0
100
AcDbLine
 10
-9.310111999511965
 20
1.43688964844502
 30
0.0
 11
-9.407211303710971
 21
1.444488525395018
 31
0.0
  0
LINE
  5
2700
330
1F
100
AcDbEntity
  8
AM_0
100
AcDbLine
 10
-9.310104370117974
 20
1.43688964844502
 30
0.0
 11
-9.407707214355971
 21
1.43688964844502
 31
0.0
  0
LINE
  5
2701
330
1F
100
AcDbEntity
  8
AM_0
100
AcDbLine
 10
-9.295005798339976
 20
1.43688964844502
 30
0.0
 11
-9.310104370117974
 21
1.43688964844502
 31
0.0
  0
LINE
  5
2702
330
1F
100
AcDbEntity
  8
AM_0
100
AcDbLine
 10
-9.142402648925971
 20
1.428710937505019
 30
0.0
 11
-9.295005798339976
 21
1.43688964844502
 31
0.0
  0
LINE
  5
2703
330
1F
100
AcDbEntity
  8
AM_0
100
AcDbLine
 10
-9.412902832031965
 20
1.354187011725019
 30
0.0
 11
-9.295005798339976
 21
1.43688964844502
 31
0.0
  0
LINE
  5
2704
330
1F
100
AcDbEntity
  8
AM_0
100
AcDbLine
 10
-9.418304443359977
 20
1.278289794925018
 30
0.0
 11
-9.361404418945971
 21
1.275299072265016
 31
0.0
  0
LINE
  5
2705
330
1F
100
AcDbEntity
  8
AM_0
100
AcDbLine
 10
-9.361404418945971
 20
1.27526855469502
 30
0.0
 11
-9.142410278320971
 21
1.428680419925018
 31
0.0
  0
LINE
  5
2706
330
1F
100
AcDbEntity
  8
AM_0
100
AcDbLine
 10
-9.304603576660971
 20
1.263885498045016
 30
0.0
 11
-9.087699890136965
 21
1.424987792975019
 31
0.0
  0
LINE
  5
2707
330
1F
100
AcDbEntity
  8
AM_0
100
AcDbLine
 10
-8.517906188964976
 20
1.237304687505019
 30
0.0
 11
-8.521705627441965
 21
1.210113525395019
 31
0.0
  0
LINE
  5
2708
330
1F
100
AcDbEntity
  8
AM_0
100
AcDbLine
 10
-8.963508605956965
 20
1.41589355469502
 30
0.0
 11
-8.985504150390971
 21
1.417480468755019
 31
0.0
  0
LINE
  5
2709
330
1F
100
AcDbEntity
  8
AM_0
100
AcDbLine
 10
-9.178909301757974
 20
1.250000000005019
 30
0.0
 11
-8.985496520995971
 21
1.417480468755019
 31
0.0
  0
LINE
  5
270A
330
1F
100
AcDbEntity
  8
AM_0
100
AcDbLine
 10
-8.882110595702974
 20
1.228790283205017
 30
0.0
 11
-8.765411376952974
 21
1.400695800785018
 31
0.0
  0
LINE
  5
270B
330
1F
100
AcDbEntity
  8
AM_0
100
AcDbLine
 10
-8.521705627441965
 20
1.20999145508502
 30
0.0
 11
-8.547309875488968
 21
1.211486816405016
 31
0.0
  0
LINE
  5
270C
330
1F
100
AcDbEntity
  8
AM_0
100
AcDbLine
 10
-9.361404418945971
 20
1.27526855469502
 30
0.0
 11
-9.357009887695971
 21
1.274475097655016
 31
0.0
  0
LINE
  5
270D
330
1F
100
AcDbEntity
  8
AM_0
100
AcDbLine
 10
-9.406806945800971
 20
1.450805664065018
 30
0.0
 11
-8.962402343749976
 21
1.415802001955017
 31
0.0
  0
LINE
  5
270E
330
1F
100
AcDbEntity
  8
AM_0
100
AcDbLine
 10
-10.28131103515696
 20
-0.4859008789049823
 30
0.0
 11
-10.78460693359396
 21
-1.918884277344983
 31
0.0
  0
LINE
  5
270F
330
1F
100
AcDbEntity
  8
AM_0
100
AcDbLine
 10
-10.42570495605497
 20
-1.998931884764982
 30
0.0
 11
-10.57790374755896
 21
-1.98681640624498
 31
0.0
  0
LINE
  5
2710
330
1F
100
AcDbEntity
  8
AM_0
100
AcDbLine
 10
-10.57790374755896
 20
-1.98681640624498
 30
0.0
 11
-10.42660522460997
 21
-1.998809814454983
 31
0.0
  0
LINE
  5
2711
330
1F
100
AcDbEntity
  8
AM_0
100
AcDbLine
 10
-10.67330932617196
 20
-1.73892211913498
 30
0.0
 11
-10.20262145996097
 21
-0.4920349121049809
 31
0.0
  0
LINE
  5
2712
330
1F
100
AcDbEntity
  8
AM_0
100
AcDbLine
 10
-10.07120513916097
 20
-0.5020141601549823
 30
0.0
 11
-9.803710937499976
 21
-0.5161132812449806
 31
0.0
  0
LINE
  5
2713
330
1F
100
AcDbEntity
  8
AM_0
100
AcDbLine
 10
-10.78320312499997
 20
-1.916076660154982
 30
0.0
 11
-10.78460693359396
 21
-1.918914794914979
 31
0.0
  0
LINE
  5
2714
330
1F
100
AcDbEntity
  8
AM_0
100
AcDbLine
 10
-10.67330169677797
 20
-1.738891601554979
 30
0.0
 11
-10.78321075439497
 21
-1.916107177734982
 31
0.0
  0
LINE
  5
2715
330
1F
100
AcDbEntity
  8
AM_0
100
AcDbLine
 10
-11.38040161132797
 20
-0.4054870605449818
 30
0.0
 11
-10.92510986328196
 21
-0.4457092285149824
 31
0.0
  0
LINE
  5
2716
330
1F
100
AcDbEntity
  8
AM_0
100
AcDbLine
 10
-5.594406127929978
 20
-10.43890380859498
 30
0.0
 11
-8.926712036132975
 21
-10.55850219726498
 31
0.0
  0
LINE
  5
2717
330
1F
100
AcDbEntity
  8
AM_0
100
AcDbLine
 10
-8.521705627441967
 20
-12.33901977538498
 30
0.0
 11
-1.029006958007976
 21
-12.01190185546498
 31
0.0
  0
LINE
  5
2718
330
1F
100
AcDbEntity
  8
AM_0
100
AcDbLine
 10
-8.514198303222975
 20
-12.13012695312498
 30
0.0
 11
-1.02460479736397
 21
-11.80310058593498
 31
0.0
  0
LINE
  5
2719
330
1F
100
AcDbEntity
  8
AM_0
100
AcDbLine
 10
-1.024406433105973
 20
-11.40170288085498
 30
0.0
 11
-1.215415954589978
 21
-11.61141967773498
 31
0.0
  0
LINE
  5
271A
330
1F
100
AcDbEntity
  8
AM_0
100
AcDbLine
 10
-1.215423583984979
 20
-10.28103637695498
 30
0.0
 11
-1.024421691894979
 21
-10.04681396484498
 31
0.0
  0
ARC
  5
271B
330
1F
100
AcDbEntity
  8
AM_0
100
AcDbCircle
 10
-1.019104003906967
 20
-11.58950805663498
 30
0.0
 40
0.2029217779636
100
AcDbArc
 50
348.573781546445
 51
2.485879678136723
  0
LINE
  5
271C
330
1F
100
AcDbEntity
  8
AM_0
100
AcDbLine
 10
-0.0815048217779765
 20
-11.08941650390498
 30
0.0
 11
0.0000000000000208
 21
-12.21569824218498
 31
0.0
  0
LINE
  5
271D
330
1F
100
AcDbEntity
  8
AM_0
100
AcDbLine
 10
-0.6094055175779763
 20
-11.67599487304498
 30
0.0
 11
-0.6077041625979765
 21
-11.60751342773498
 31
0.0
  0
LINE
  5
271E
330
1F
100
AcDbEntity
  8
AM_0
100
AcDbLine
 10
-0.0814971923829763
 20
-11.08941650390498
 30
0.0
 11
-0.7348022460939704
 21
-8.702819824214982
 31
0.0
  0
LINE
  5
271F
330
1F
100
AcDbEntity
  8
AM_0
100
AcDbLine
 10
-0.6077041625979765
 20
-11.60751342773498
 30
0.0
 11
-0.6096038818359735
 21
-11.57162475585498
 31
0.0
  0
LINE
  5
2720
330
1F
100
AcDbEntity
  8
AM_0
100
AcDbLine
 10
-0.6096115112309737
 20
-11.57159423827498
 30
0.0
 11
-0.7348098754889706
 21
-8.702819824214982
 31
0.0
  0
LINE
  5
2721
330
1F
100
AcDbEntity
  8
AM_0
100
AcDbLine
 10
-0.7348022460939704
 20
-8.702819824214982
 30
0.0
 11
-0.755706787109979
 21
-8.560211181634981
 31
0.0
  0
LINE
  5
2722
330
1F
100
AcDbEntity
  8
AM_0
100
AcDbLine
 10
-0.7557144165039702
 20
-8.560211181634981
 30
0.0
 11
-0.9479141235359733
 21
-8.568603515624984
 31
0.0
  0
LINE
  5
2723
330
1F
100
AcDbEntity
  8
AM_0
100
AcDbLine
 10
-0.9479064941409731
 20
-8.568634033204984
 30
0.0
 11
-0.816406249999979
 21
-11.58071899413498
 31
0.0
  0
LINE
  5
2724
330
1F
100
AcDbEntity
  8
AM_0
100
AcDbLine
 10
-1.024406433105973
 20
-11.40170288085498
 30
0.0
 11
-1.024406433105973
 21
-10.04681396484498
 31
0.0
  0
ARC
  5
2725
330
1F
100
AcDbEntity
  8
AM_0
100
AcDbCircle
 10
-1.03460693359397
 20
-11.57470703124498
 30
0.0
 40
0.2286188155413
100
AcDbArc
 50
272.5069687978185
 51
303.0638349556738
  0
ARC
  5
2726
330
1F
100
AcDbEntity
  8
AM_0
100
AcDbCircle
 10
-1.020500183105973
 20
-11.59631347655498
 30
0.0
 40
0.2025889754295
100
AcDbArc
 50
303.0546961625657
 51
335.6779609217275
  0
ARC
  5
2727
330
1F
100
AcDbEntity
  8
AM_0
100
AcDbCircle
 10
-1.048904418945973
 20
-11.58349609374498
 30
0.0
 40
0.2334020137787
100
AcDbArc
 50
335.6860751864611
 51
348.5793003392884
  0
LINE
  5
2728
330
1F
100
AcDbEntity
  8
AM_0
100
AcDbLine
 10
-0.2137145996099795
 20
-12.59399414062498
 30
0.0
 11
-0.3650054931639707
 21
-12.63040161132498
 31
0.0
  0
LINE
  5
2729
330
1F
100
AcDbEntity
  8
AM_0
100
AcDbLine
 10
-0.9846038818359733
 20
-12.01043701171498
 30
0.0
 11
-1.029006958007976
 21
-12.01193237304498
 31
0.0
  0
ARC
  5
272A
330
1F
100
AcDbEntity
  8
AM_0
100
AcDbCircle
 10
-5.205307006835973
 20
-9.449310302734984
 30
0.0
 40
1.249979019164999
100
AcDbArc
 50
277.6685495837857
 51
81.44589908747589
  0
ARC
  5
272B
330
1F
100
AcDbEntity
  8
AM_0
100
AcDbCircle
 10
-4.851203918456967
 20
-9.433898925774981
 30
0.0
 40
1.249758124351499
100
AcDbArc
 50
310.5933398740464
 51
92.48974123949677
  0
LINE
  5
272C
330
1F
100
AcDbEntity
  8
AM_0
100
AcDbLine
 10
-1.215408325195973
 20
-10.28100585937498
 30
0.0
 11
-4.038009643554978
 21
-10.38290405273498
 31
0.0
  0
LINE
  5
272D
330
1F
100
AcDbEntity
  8
AM_0
100
AcDbLine
 10
-1.215400695800973
 20
-11.61141967773498
 30
0.0
 11
-1.215400695800973
 21
-10.28100585937498
 31
0.0
  0
ARC
  5
272E
330
1F
100
AcDbEntity
  8
AM_0
100
AcDbCircle
 10
-4.851203918456967
 20
-9.433898925774981
 30
0.0
 40
1.2499799728394
100
AcDbArc
 50
92.48975171215096
 51
233.5169807698696
  0
LINE
  5
272F
330
1F
100
AcDbEntity
  8
AM_0
100
AcDbLine
 10
-16.35990905761797
 20
-12.24999999999498
 30
0.0
 11
-12.86860656738297
 21
-12.24999999999498
 31
0.0
  0
LINE
  5
2730
330
1F
100
AcDbEntity
  8
AM_0
100
AcDbLine
 10
-12.86860656738297
 20
-12.24999999999498
 30
0.0
 11
-12.86860656738297
 21
-10.46890258788498
 31
0.0
  0
LINE
  5
2731
330
1F
100
AcDbEntity
  8
AM_0
100
AcDbLine
 10
-8.92670440673897
 20
-10.55850219726498
 30
0.0
 11
-12.86860656738297
 21
-10.46890258788498
 31
0.0
  0
LINE
  5
2732
330
1F
100
AcDbEntity
  8
AM_0
100
AcDbLine
 10
-12.86861419677797
 20
-12.25003051757498
 30
0.0
 11
-9.659004211425973
 21
-12.08181762695498
 31
0.0
  0
LINE
  5
2733
330
1F
100
AcDbEntity
  8
AM_0
100
AcDbLine
 10
-9.926002502441967
 20
-12.15451049804498
 30
0.0
 11
-9.936401367187976
 21
-12.09631347655498
 31
0.0
  0
LINE
  5
2734
330
1F
100
AcDbEntity
  8
AM_0
100
AcDbLine
 10
-8.521705627441967
 20
-12.33898925780497
 30
0.0
 11
-8.54730224609397
 21
-12.34020996093498
 31
0.0
  0
LINE
  5
2735
330
1F
100
AcDbEntity
  8
AM_0
100
AcDbLine
 10
-8.88210296630897
 20
-12.28451538085498
 30
0.0
 11
-8.76540374755897
 21
-12.08972167968498
 31
0.0
  0
LINE
  5
2736
330
1F
100
AcDbEntity
  8
AM_0
100
AcDbLine
 10
-8.517906188964978
 20
-12.30541992187498
 30
0.0
 11
-8.521705627441967
 21
-12.33901977538498
 31
0.0
  0
LINE
  5
2737
330
1F
100
AcDbEntity
  8
AM_0
100
AcDbLine
 10
-9.178916931152976
 20
-12.06991577148498
 30
0.0
 11
-9.022201538085973
 21
-11.96438598632498
 31
0.0
  0
LINE
  5
2738
330
1F
100
AcDbEntity
  8
AM_0
100
AcDbLine
 10
-34.99999237060597
 20
12.25000000000502
 30
0.0
 11
-35.43299484252997
 21
12.50000000000502
 31
0.0
  0
LINE
  5
2739
330
1F
100
AcDbEntity
  8
AM_0
100
AcDbLine
 10
-35.43300247192397
 20
-12.50003051757498
 30
0.0
 11
-35.00000762939497
 21
-12.25003051757497
 31
0.0
  0
DIMENSION
  5
279B
330
1F
100
AcDbEntity
  8
AM_5
100
AcDbDimension
  2
*D12
 10
0.0000000000000248
 20
27.00000100000502
 30
0.0
 11
-4.499999999999975
 21
30.40000100000502
 31
0.0
 70
    32
  1
<>
  3
AM_JIS$0
100
AcDbAlignedDimension
 13
-8.999999999999975
 23
13.00000000000502
 33
0.0
 14
0.0000000000000239
 24
13.00000000000502
 34
0.0
 50
180.0
100
AcDbRotatedDimension
1001
ACAD
1000
DSTYLE
1002
{
1070
   271
1070
     0
1002
}
1001
GENIUS_GENDTOL_13
1000

1000
h7
1000

1040
0.0
  0
VIEWPORT
  5
110
330
101
100
AcDbEntity
 67
     1
  8
0
100
AcDbViewport
 10
420.5
 20
297.0
 30
0.0
 40
948.9782706766916
 41
628.452
 68
     1
 69
     1
1001
ACAD
1000
MVIEW
1002
{
1070
    16
1010
0.0
1020
0.0
1030
0.0
1010
0.0
1020
0.0
1030
1.0
1040
0.0
1040
628.452
1040
420.5
1040
297.0
1040
50.0
1040
0.0
1040
0.0
1070
     0
1070
   100
1070
     1
1070
     1
1070
     0
1070
     0
1070
     0
1070
     0
1040
0.0
1040
0.0
1040
0.0
1040
10.0
1040
10.0
1040
10.0
1040
10.0
1070
     0
1002
{
1002
}
1002
}
  0
ENDSEC
  0
SECTION
  2
OBJECTS
  0
DICTIONARY
  5
C
330
0
100
AcDbDictionary
  3
ACAD_GROUP
350
D
  3
ACAD_LAYOUT
350
1A
  3
ACAD_MLINESTYLE
350
17
  3
ACAD_PLOTSETTINGS
350
19
  3
ACAD_PLOTSTYLENAME
350
E
  3
ACDBVARIABLEDICTIONARY
350
34
  3
ACMDICTIONARY
350
43
  3
AMG
350
2B
  3
AMGSNAPSETTINGS
350
6E
  3
ASE_INDEX_DICTIONARY
350
2774
  3
DWGPROPS
350
28B2
  3
ACDBHEADERROUNDTRIPXREC
350
28C0
  0
DICTIONARY
  5
74
330
1F
100
AcDbDictionary
280
     1
  3
ACAD_INDEX
360
28B4
  3
ACAD_LAYOUTSELFREF
360
28E3
  0
DICTIONARY
  5
28E8
330
101
100
AcDbDictionary
280
     1
  3
ACAD_LAYOUTSELFREF
360
28E9
  0
DICTIONARY
  5
D
102
{ACAD_REACTORS
330
C
102
}
330
C
100
AcDbDictionary
  0
DICTIONARY
  5
1A
102
{ACAD_REACTORS
330
C
102
}
330
C
100
AcDbDictionary
  0
DICTIONARY
  5
17
102
{ACAD_REACTORS
330
C
102
}
330
C
100
AcDbDictionary
  3
STANDARD
350
18
  0
DICTIONARY
  5
19
102
{ACAD_REACTORS
330
C
102
}
330
C
100
AcDbDictionary
  0
ACDBDICTIONARYWDFLT
  5
E
102
{ACAD_REACTORS
330
C
102
}
330
C
100
AcDbDictionary
281
     1
  3
Normal
350
F
100
AcDbDictionaryWithDefault
340
F
  0
DICTIONARY
  5
34
102
{ACAD_REACTORS
330
C
102
}
330
C
100
AcDbDictionary
  3
INDEXCTL
350
35
  3
SORTENTS
350
B5E
  0
DICTIONARY
  5
43
102
{ACAD_REACTORS
330
C
102
}
330
C
100
AcDbDictionary
  3
ACMSTDDICTIONARY
350
260
  0
DICTIONARY
  5
2B
102
{ACAD_REACTORS
330
C
102
}
330
C
100
AcDbDictionary
  3
ACMGSETTINGS
350
2C
  0
DICTIONARY
  5
6E
102
{ACAD_REACTORS
330
C
102
}
330
C
100
AcDbDictionary
  0
DICTIONARY
  5
2774
102
{ACAD_REACTORS
330
C
102
}
330
C
100
AcDbDictionary
  3
ASEBLOCKHIERARCHYINDEXRECORD
350
2776
1001
DCO15
1040
1471940276.64
  0
XRECORD
  5
28B2
102
{ACAD_REACTORS
330
C
102
}
330
C
100
AcDbXrecord
  1
DWGPROPS COOKIE
  2

  3

  4

  6

  7

  8

  9

300
AmdtFileType=82
301
=
302
=
303
=
304
=
305
=
306
=
307
=
308
=
309
=
 40
0.0566087847222222
 41
2452839.420061482
 42
2452872.427755162
  1

 90
        1
  0
DICTIONARY
  5
28C0
102
{ACAD_REACTORS
330
C
102
}
330
C
100
AcDbDictionary
  3
TSTACKALIGN
350
28C1
  3
TSTACKSIZE
350
28C2
  3
HYPERLINKBASE
350
28C3
  3
STYLESHEET
350
28C4
  3
LAYOUTDICT
350
28C5
  3
PLOTSETDICT
350
28C6
  3
PLOTSTYLNAMDICT
350
28C7
  3
LWETCUNION
350
28C8
  3
INSUNITS
350
28C9
  3
CEPSNTYPE
350
28CA
  3
FINGERPRINTGUID
350
28CB
  3
VERSIONGUID
350
28CC
  3
PSVPSCALE
350
28CD
  3
DIMSTYLEDATA
350
28CE
  3
PUCSORTHOREF
350
28CF
  3
PUCSORTHOVIEW
350
28D0
  3
PUCSBASE
350
28D1
  3
PUCSORGTOP
350
28D2
  3
PUCSORGBOTTOM
350
28D3
  3
PUCSORGLEFT
350
28D4
  3
PUCSORGRIGHT
350
28D5
  3
PUCSORGFRONT
350
28D6
  3
PUCSORGBACK
350
28D7
  3
UCSORTHOREF
350
28D8
  3
UCSORTHOVIEW
350
28D9
  3
UCSBASE
350
28DA
  3
UCSORGTOP
350
28DB
  3
UCSORGBOTTOM
350
28DC
  3
UCSORGLEFT
350
28DD
  3
UCSORGRIGHT
350
28DE
  3
UCSORGFRONT
350
28DF
  3
UCSORGBACK
350
28E0
  0
DICTIONARY
  5
28B4
102
{ACAD_REACTORS
330
74
102
}
330
74
100
AcDbDictionary
  3
*A1
350
28B5
  0
XRECORD
  5
28E3
102
{ACAD_REACTORS
330
74
102
}
330
74
100
AcDbXrecord
340
1F
  0
XRECORD
  5
28E9
102
{ACAD_REACTORS
330
28E8
102
}
330
28E8
100
AcDbXrecord
340
101
  0
MLINESTYLE
  5
18
102
{ACAD_REACTORS
330
17
102
}
330
17
100
AcDbMlineStyle
  2
STANDARD
 70
     0
  3

 62
   256
 51
90.0
 52
90.0
 71
     2
 49
0.5
 62
   256
  6
BYLAYER
 49
-0.5
 62
   256
  6
BYLAYER
  0
ACDBPLACEHOLDER
  5
F
102
{ACAD_REACTORS
330
E
102
}
330
E
100
AcDbPlaceHolder
280
     0
  0
DICTIONARYVAR
  5
35
102
{ACAD_REACTORS
330
34
102
}
330
34
100
DictionaryVariables
280
     0
  1
1
  0
DICTIONARYVAR
  5
B5E
102
{ACAD_REACTORS
330
34
102
}
330
34
100
DictionaryVariables
280
     0
  1
96
  0
DICTIONARY
  5
260
102
{ACAD_REACTORS
330
43
102
}
330
43
100
AcDbDictionary
  0
DICTIONARY
  5
2C
102
{ACAD_REACTORS
330
2B
102
}
330
2B
100
AcDbDictionary
  3
DWGSETTINGS
350
2D
  0
XRECORD
  5
2776
102
{ACAD_REACTORS
330
2774
102
}
330
2774
100
AcDbXrecord
330
0
330
0
330
0
330
0
330
0
330
0
330
0
330
0
330
0
330
0
330
0
330
0
330
2575
330
2576
330
0
330
0
  0
XRECORD
  5
28C1
102
{ACAD_REACTORS
330
28C0
102
}
330
28C0
100
AcDbXrecord
 90
        1
  0
XRECORD
  5
28C2
102
{ACAD_REACTORS
330
28C0
102
}
330
28C0
100
AcDbXrecord
 90
       70
  0
XRECORD
  5
28C3
102
{ACAD_REACTORS
330
28C0
102
}
330
28C0
100
AcDbXrecord
  1

  0
XRECORD
  5
28C4
102
{ACAD_REACTORS
330
28C0
102
}
330
28C0
100
AcDbXrecord
  1
ASAMI.ctb
  0
XRECORD
  5
28C5
102
{ACAD_REACTORS
330
28C0
102
}
330
28C0
100
AcDbXrecord
340
1A
  0
XRECORD
  5
28C6
102
{ACAD_REACTORS
330
28C0
102
}
330
28C0
100
AcDbXrecord
340
19
  0
XRECORD
  5
28C7
102
{ACAD_REACTORS
330
28C0
102
}
330
28C0
100
AcDbXrecord
340
E
  0
XRECORD
  5
28C8
102
{ACAD_REACTORS
330
28C0
102
}
330
28C0
100
AcDbXrecord
 90
    10781
  0
XRECORD
  5
28C9
102
{ACAD_REACTORS
330
28C0
102
}
330
28C0
100
AcDbXrecord
 90
        4
  0
XRECORD
  5
28CA
102
{ACAD_REACTORS
330
28C0
102
}
330
28C0
100
AcDbXrecord
 90
        0
  0
XRECORD
  5
28CB
102
{ACAD_REACTORS
330
28C0
102
}
330
28C0
100
AcDbXrecord
  1
{AFB28963-8C59-40AE-9337-C84526B81ACE}
  0
XRECORD
  5
28CC
102
{ACAD_REACTORS
330
28C0
102
}
330
28C0
100
AcDbXrecord
  1
{6DC4E640-F36A-46A9-B64A-1E00F256C034}
  0
XRECORD
  5
28CD
102
{ACAD_REACTORS
330
28C0
102
}
330
28C0
100
AcDbXrecord
 40
0.0
  0
XRECORD
  5
28CE
102
{ACAD_REACTORS
330
28C0
102
}
330
28C0
100
AcDbXrecord
1000
DSTYLE
1002
{
1070
    79
 70
     2
1070
   341
340
59
1070
   342
340
59
1070
   371
 70
    -1
1070
   372
 70
    -1
1002
}
  0
XRECORD
  5
28CF
102
{ACAD_REACTORS
330
28C0
102
}
330
28C0
100
AcDbXrecord
340
0
  0
XRECORD
  5
28D0
102
{ACAD_REACTORS
330
28C0
102
}
330
28C0
100
AcDbXrecord
 70
     0
  0
XRECORD
  5
28D1
102
{ACAD_REACTORS
330
28C0
102
}
330
28C0
100
AcDbXrecord
340
0
  0
XRECORD
  5
28D2
102
{ACAD_REACTORS
330
28C0
102
}
330
28C0
100
AcDbXrecord
 10
0.0
 20
0.0
 30
0.0
  0
XRECORD
  5
28D3
102
{ACAD_REACTORS
330
28C0
102
}
330
28C0
100
AcDbXrecord
 10
0.0
 20
0.0
 30
0.0
  0
XRECORD
  5
28D4
102
{ACAD_REACTORS
330
28C0
102
}
330
28C0
100
AcDbXrecord
 10
0.0
 20
0.0
 30
0.0
  0
XRECORD
  5
28D5
102
{ACAD_REACTORS
330
28C0
102
}
330
28C0
100
AcDbXrecord
 10
0.0
 20
0.0
 30
0.0
  0
XRECORD
  5
28D6
102
{ACAD_REACTORS
330
28C0
102
}
330
28C0
100
AcDbXrecord
 10
0.0
 20
0.0
 30
0.0
  0
XRECORD
  5
28D7
102
{ACAD_REACTORS
330
28C0
102
}
330
28C0
100
AcDbXrecord
 10
0.0
 20
0.0
 30
0.0
  0
XRECORD
  5
28D8
102
{ACAD_REACTORS
330
28C0
102
}
330
28C0
100
AcDbXrecord
340
0
  0
XRECORD
  5
28D9
102
{ACAD_REACTORS
330
28C0
102
}
330
28C0
100
AcDbXrecord
 70
     0
  0
XRECORD
  5
28DA
102
{ACAD_REACTORS
330
28C0
102
}
330
28C0
100
AcDbXrecord
340
0
  0
XRECORD
  5
28DB
102
{ACAD_REACTORS
330
28C0
102
}
330
28C0
100
AcDbXrecord
 10
0.0
 20
0.0
 30
0.0
  0
XRECORD
  5
28DC
102
{ACAD_REACTORS
330
28C0
102
}
330
28C0
100
AcDbXrecord
 10
0.0
 20
0.0
 30
0.0
  0
XRECORD
  5
28DD
102
{ACAD_REACTORS
330
28C0
102
}
330
28C0
100
AcDbXrecord
 10
0.0
 20
0.0
 30
0.0
  0
XRECORD
  5
28DE
102
{ACAD_REACTORS
330
28C0
102
}
330
28C0
100
AcDbXrecord
 10
0.0
 20
0.0
 30
0.0
  0
XRECORD
  5
28DF
102
{ACAD_REACTORS
330
28C0
102
}
330
28C0
100
AcDbXrecord
 10
0.0
 20
0.0
 30
0.0
  0
XRECORD
  5
28E0
102
{ACAD_REACTORS
330
28C0
102
}
330
28C0
100
AcDbXrecord
 10
0.0
 20
0.0
 30
0.0
  0
LAYER_INDEX
  5
28B5
102
{ACAD_REACTORS
330
28B4
102
}
330
28B4
100
AcDbIndex
 40
2453152.402424178
100
AcDbLayerIndex
  8
0
360
28B6
 90
        0
  8
AM_0
360
28B7
 90
      217
  8
AM_7
360
28B8
 90
        1
  8
AM_11
360
28B9
 90
        1
  8
AM_5
360
28BA
 90
        6
  8
Defpoints
360
28BB
 90
        0
  8
AM_6
360
28BC
 90
        1
  8
AM_CL
360
28BD
 90
        0
  8
PV0001_1
360
28BE
 90
        0
  0
XRECORD
  5
2D
102
{ACAD_REACTORS
330
2C
102
}
330
2C
100
AcDbXrecord
  1
VERSION
140
15.0
  1
PRODUCT
  2
AutoCAD Mechanical 2000
  0
IDBUFFER
  5
28B6
330
0
100
AcDbIdBuffer
  0
IDBUFFER
  5
28B7
330
0
100
AcDbIdBuffer
330
26D1
330
26D2
330
26D3
330
26D4
330
26D5
330
26D6
330
26D7
330
26D8
330
26D9
330
26DA
330
26DB
330
26DC
330
26DD
330
26DE
330
26DF
330
26E0
330
26E1
330
26E2
330
26E3
330
26E4
330
26E5
330
26E6
330
26E7
330
26E8
330
26E9
330
26EA
330
26EB
330
26EC
330
26ED
330
26EE
330
26EF
330
26F0
330
26F1
330
26F2
330
26F3
330
26F4
330
26F5
330
26F6
330
26F7
330
26F8
330
26F9
330
26FA
330
26FB
330
26FC
330
26FD
330
26FE
330
26FF
330
2700
330
2701
330
2702
330
2703
330
2704
330
2705
330
2706
330
2707
330
2708
330
2709
330
270A
330
270B
330
270C
330
270D
330
270E
330
270F
330
2710
330
2711
330
2712
330
2713
330
2714
330
2715
330
2716
330
2717
330
2718
330
2719
330
271A
330
271B
330
271C
330
271D
330
271E
330
271F
330
2720
330
2721
330
2722
330
2723
330
2724
330
2725
330
2726
330
2727
330
2728
330
2729
330
272A
330
272B
330
272C
330
272D
330
272E
330
272F
330
2730
330
2731
330
2732
330
2733
330
2734
330
2735
330
2736
330
2737
330
2738
330
2739
330
265F
330
2660
330
2661
330
2662
330
2663
330
2664
330
2665
330
2666
330
2667
330
2668
330
2669
330
266B
330
266C
330
266D
330
266E
330
266F
330
2670
330
2671
330
2672
330
2673
330
2674
330
2675
330
2676
330
2677
330
2678
330
2679
330
267A
330
267B
330
267C
330
267D
330
267E
330
267F
330
2680
330
2681
330
2682
330
2683
330
2684
330
2685
330
2686
330
2687
330
2688
330
2689
330
268A
330
268B
330
268C
330
268D
330
268E
330
268F
330
2690
330
2691
330
2692
330
2693
330
2694
330
2695
330
2696
330
2697
330
2698
330
2699
330
269A
330
269B
330
269C
330
269D
330
269E
330
269F
330
26A0
330
26A1
330
26A2
330
26A3
330
26A4
330
26A5
330
26A6
330
26A7
330
26A8
330
26A9
330
26AA
330
26AB
330
26AC
330
26AD
330
26AE
330
26AF
330
26B0
330
26B1
330
26B2
330
26B3
330
26B4
330
26B5
330
26B6
330
26B7
330
26B8
330
26B9
330
26BA
330
26BB
330
26BC
330
26BD
330
26BE
330
26BF
330
26C1
330
26C2
330
26C3
330
26C4
330
26C5
330
26C6
330
26C7
330
26C8
330
26C9
330
26CA
330
26CB
330
26CC
330
26CD
330
26CE
330
26CF
330
26D0
  0
IDBUFFER
  5
28B8
330
0
100
AcDbIdBuffer
330
265E
  0
IDBUFFER
  5
28B9
330
0
100
AcDbIdBuffer
330
26C0
  0
IDBUFFER
  5
28BA
330
0
100
AcDbIdBuffer
330
155D
330
15E8
330
1673
330
1895
330
1E16
330
279B
  0
IDBUFFER
  5
28BB
330
0
100
AcDbIdBuffer
  0
IDBUFFER
  5
28BC
330
0
100
AcDbIdBuffer
330
1142
  0
IDBUFFER
  5
28BD
330
0
100
AcDbIdBuffer
  0
IDBUFFER
  5
28BE
330
0
100
AcDbIdBuffer
  0
ENDSEC
  0
EOF
