  0
SECTION
  2
HEADER
  9
$ACADVER
  1
AC1014
  9
$ACADMAINTVER
 70
     9
  9
$DWGCODEPAGE
  3
ANSI_932
  9
$INSBASE
 10
0.0
 20
0.0
 30
0.0
  9
$EXTMIN
 10
-179.2999999999989
 20
-60.00000095366853
 30
-0.00000001
  9
$EXTMAX
 10
15.00000000000002
 20
32.80000000000505
 30
0.00000001
  9
$LIMMIN
 10
-193.0318204924019
 20
-101.4128512899792
  9
$LIMMAX
 10
32.81299406515063
 20
35.04014666359427
  9
$ORTHOMODE
 70
     0
  9
$REGENMODE
 70
     1
  9
$FILLMODE
 70
     1
  9
$QTEXTMODE
 70
     0
  9
$MIRRTEXT
 70
     0
  9
$DRAGMODE
 70
     2
  9
$LTSCALE
 40
1.0
  9
$OSMODE
 70
    55
  9
$ATTMODE
 70
     1
  9
$TEXTSIZE
 40
2.5
  9
$TRACEWID
 40
1.0
  9
$TEXTSTYLE
  7
STANDARD
  9
$CLAYER
  8
AM_0
  9
$CELTYPE
  6
BYLAYER
  9
$CECOLOR
 62
   256
  9
$CELTSCALE
 40
1.0
  9
$DELOBJ
 70
     1
  9
$DISPSILH
 70
     0
  9
$DIMSCALE
 40
1.0
  9
$DIMASZ
 40
2.5
  9
$DIMEXO
 40
1.0
  9
$DIMDLI
 40
12.0
  9
$DIMRND
 40
0.0
  9
$DIMDLE
 40
0.0
  9
$DIMEXE
 40
1.0
  9
$DIMTP
 40
0.1
  9
$DIMTM
 40
0.1
  9
$DIMTXT
 40
3.2
  9
$DIMCEN
 40
0.0
  9
$DIMTSZ
 40
0.0
  9
$DIMTOL
 70
     0
  9
$DIMLIM
 70
     0
  9
$DIMTIH
 70
     0
  9
$DIMTOH
 70
     0
  9
$DIMSE1
 70
     0
  9
$DIMSE2
 70
     0
  9
$DIMTAD
 70
     3
  9
$DIMZIN
 70
     8
  9
$DIMBLK
  1
OPEN30
  9
$DIMASO
 70
     1
  9
$DIMSHO
 70
     1
  9
$DIMPOST
  1

  9
$DIMAPOST
  1
"
  9
$DIMALT
 70
     0
  9
$DIMALTD
 70
     2
  9
$DIMALTF
 40
0.0393701
  9
$DIMLFAC
 40
1.0
  9
$DIMTOFL
 70
     1
  9
$DIMTVP
 40
0.0
  9
$DIMTIX
 70
     0
  9
$DIMSOXD
 70
     0
  9
$DIMSAH
 70
     0
  9
$DIMBLK1
  1

  9
$DIMBLK2
  1

  9
$DIMSTYLE
  2
AM_JIS
  9
$DIMCLRD
 70
   256
  9
$DIMCLRE
 70
   256
  9
$DIMCLRT
 70
     2
  9
$DIMTFAC
 40
0.71
  9
$DIMGAP
 40
1.5
  9
$DIMJUST
 70
     0
  9
$DIMSD1
 70
     0
  9
$DIMSD2
 70
     0
  9
$DIMTOLJ
 70
     0
  9
$DIMTZIN
 70
     0
  9
$DIMALTZ
 70
     0
  9
$DIMALTTZ
 70
     0
  9
$DIMFIT
 70
     3
  9
$DIMUPT
 70
     0
  9
$DIMUNIT
 70
     2
  9
$DIMDEC
 70
     3
  9
$DIMTDEC
 70
     3
  9
$DIMALTU
 70
     2
  9
$DIMALTTD
 70
     2
  9
$DIMTXSTY
  7
ASAMI
  9
$DIMAUNIT
 70
     0
  9
$LUNITS
 70
     2
  9
$LUPREC
 70
     0
  9
$SKETCHINC
 40
1.0
  9
$FILLETRAD
 40
2.5
  9
$AUNITS
 70
     0
  9
$AUPREC
 70
     0
  9
$MENU
  1
.
  9
$ELEVATION
 40
0.0
  9
$PELEVATION
 40
0.0
  9
$THICKNESS
 40
0.0
  9
$LIMCHECK
 70
     0
  9
$BLIPMODE
 70
     0
  9
$CHAMFERA
 40
2.5
  9
$CHAMFERB
 40
2.5
  9
$CHAMFERC
 40
20.0
  9
$CHAMFERD
 40
0.0
  9
$SKPOLY
 70
     0
  9
$TDCREATE
 40
2452839.420061482
  9
$TDUPDATE
 40
2453152.402549328
  9
$TDINDWG
 40
0.0600576852
  9
$TDUSRTIMER
 40
0.0600576852
  9
$USRTIMER
 70
     1
  9
$ANGBASE
 50
0.0
  9
$ANGDIR
 70
     0
  9
$PDMODE
 70
     0
  9
$PDSIZE
 40
0.0
  9
$PLINEWID
 40
0.0
  9
$COORDS
 70
     1
  9
$SPLFRAME
 70
     0
  9
$SPLINETYPE
 70
     6
  9
$SPLINESEGS
 70
     8
  9
$ATTDIA
 70
     1
  9
$ATTREQ
 70
     1
  9
$HANDLING
 70
 12289
  9
$HANDSEED
  5
2BB6
  9
$SURFTAB1
 70
     6
  9
$SURFTAB2
 70
     6
  9
$SURFTYPE
 70
     6
  9
$SURFU
 70
     6
  9
$SURFV
 70
     6
  9
$UCSNAME
  2

  9
$UCSORG
 10
0.0
 20
0.0
 30
0.0
  9
$UCSXDIR
 10
1.0
 20
0.0
 30
0.0
  9
$UCSYDIR
 10
0.0
 20
1.0
 30
0.0
  9
$PUCSNAME
  2

  9
$PUCSORG
 10
0.0
 20
0.0
 30
0.0
  9
$PUCSXDIR
 10
1.0
 20
0.0
 30
0.0
  9
$PUCSYDIR
 10
0.0
 20
1.0
 30
0.0
  9
$USERI1
 70
     0
  9
$USERI2
 70
     0
  9
$USERI3
 70
     0
  9
$USERI4
 70
     0
  9
$USERI5
 70
     0
  9
$USERR1
 40
0.0
  9
$USERR2
 40
0.0
  9
$USERR3
 40
0.0
  9
$USERR4
 40
0.0
  9
$USERR5
 40
0.0
  9
$WORLDVIEW
 70
     1
  9
$SHADEDGE
 70
     3
  9
$SHADEDIF
 70
    70
  9
$TILEMODE
 70
     1
  9
$MAXACTVP
 70
    64
  9
$PINSBASE
 10
0.0
 20
0.0
 30
0.0
  9
$PLIMCHECK
 70
     0
  9
$PEXTMIN
 10
1.000000000000000E+20
 20
1.000000000000000E+20
 30
1.000000000000000E+20
  9
$PEXTMAX
 10
-1.000000000000000E+20
 20
-1.000000000000000E+20
 30
-1.000000000000000E+20
  9
$PLIMMIN
 10
0.0
 20
0.0
  9
$PLIMMAX
 10
841.0
 20
594.0
  9
$UNITMODE
 70
     0
  9
$VISRETAIN
 70
     1
  9
$PLINEGEN
 70
     0
  9
$PSLTSCALE
 70
     0
  9
$TREEDEPTH
 70
  3020
  9
$PICKSTYLE
 70
     0
  9
$CMLSTYLE
  2
STANDARD
  9
$CMLJUST
 70
     0
  9
$CMLSCALE
 40
20.0
  9
$PROXYGRAPHICS
 70
     1
  9
$MEASUREMENT
 70
     1
  0
ENDSEC
  0
SECTION
  2
CLASSES
  0
CLASS
  1
ACDBDICTIONARYWDFLT
  2
AcDbDictionaryWithDefault
  3
AutoCAD 2000
 90
        0
280
     0
281
     0
  0
CLASS
  1
ACDBPLACEHOLDER
  2
AcDbPlaceHolder
  3
AutoCAD 2000
 90
        0
280
     0
281
     0
  0
CLASS
  1
LAYOUT
  2
AcDbLayout
  3
AutoCAD 2000
 90
        0
280
     0
281
     0
  0
CLASS
  1
AMGSETTINGSOBJ
  2
AmgSettingsObj
  3
"AcadM|Product Description: AutoCAD Mechanical 2000|Company: Autodesk"
 90
        0
280
     0
281
     0
  0
CLASS
  1
ACME_DOCUMENT
  2
AcMeDbDoc
  3
AcMeServices
 90
        0
280
     0
281
     0
  0
CLASS
  1
ACMESCOPE
  2
AcMeScope
  3
AcMeServices
 90
        0
280
     0
281
     0
  0
CLASS
  1
ACMECOMMANDHISTORY
  2
AcMeCommandHistory
  3
AcMeServices
 90
        0
280
     0
281
     0
  0
CLASS
  1
DICTIONARYVAR
  2
AcDbDictionaryVar
  3
AutoCAD 2000
 90
        0
280
     0
281
     0
  0
CLASS
  1
ACIMSYSVARMAN
  2
AcImSysVarManager
  3
AcMeServices
 90
        0
280
     0
281
     0
  0
CLASS
  1
ACIMREALSYSVAR
  2
AcImRealSysVar
  3
AcMeServices
 90
        0
280
     0
281
     0
  0
CLASS
  1
ACIMINTSYSVAR
  2
AcImIntSysVar
  3
AcMeServices
 90
        0
280
     0
281
     0
  0
CLASS
  1
ACMEDRAWINGMAN
  2
AcMeDrawingMan
  3
AcMeServices
 90
        0
280
     0
281
     0
  0
CLASS
  1
ACMEVIEW
  2
AcMeView
  3
AcMeServices
 90
        0
280
     0
281
     0
  0
CLASS
  1
ACDBENTITYCACHE
  2
AcMeEntityCache
  3
AcMeServices
 90
        0
280
     0
281
     0
  0
CLASS
  1
GSMANAGER
  2
AcMeGSManager
  3
AcMeServices
 90
        0
280
     0
281
     0
  0
CLASS
  1
AmdtInternalReactor
  2
AmdtInternalReactor
  3
AcMeServices
 90
        0
280
     0
281
     0
  0
CLASS
  1
ACMESTATEMGR
  2
AcMeStateMgr
  3
AcMeServices
 90
        0
280
     0
281
     0
  0
CLASS
  1
ACME_DATABASE
  2
AcMeDbDatabase
  3
AcMeServices
 90
        0
280
     0
281
     0
  0
CLASS
  1
ACRFINSADJUSTERMGR
  2
AcRfInsAdjusterMgr
  3
AcMeServices
 90
        0
280
     0
281
     0
  0
CLASS
  1
ACMDATADICTIONARY
  2
AcmDataDictionary
  3
"AcmSymBB|Product Description: AutoCAD Mechanical 2000|Company: Autodesk"
 90
        0
280
     0
281
     0
  0
CLASS
  1
ACMDATAENTRYBLOCK
  2
AcmDataEntryBlock
  3
"AcmSymBB|Product Description: AutoCAD Mechanical 2000|Company: Autodesk"
 90
        0
280
     0
281
     0
  0
CLASS
  1
AMGOBJPROPCFG
  2
AmgObjPropCfg
  3
"AmgLay|Product Description: AutoCAD Mechanical 2000|Company: Autodesk"
 90
        1
280
     0
281
     0
  0
CLASS
  1
ACAMGFILTERDAT
  2
AcAmgFilterDat
  3
"AcadM|Product Description: AutoCAD Mechanical 2000|Company: Autodesk"
 90
        0
280
     0
281
     0
  0
CLASS
  1
LAYER_INDEX
  2
AcDbLayerIndex
  3
AutoCAD 2000
 90
        0
280
     0
281
     0
  0
CLASS
  1
IDBUFFER
  2
AcDbIdBuffer
  3
AutoCAD 2000
 90
        0
280
     0
281
     0
  0
CLASS
  1
ACIMSTRSYSVAR
  2
AcImStrSysVar
  3
AcMeServices
 90
        0
280
     0
281
     0
  0
CLASS
  1
ACMSTANDARDJIS
  2
AcmStandardJIS
  3
"AcmSymBB|Product Description: AutoCAD Mechanical 2000|Company: Autodesk"
 90
        0
280
     0
281
     0
  0
CLASS
  1
ACMSURFSTANDARDJIS
  2
AcmSurfTextStdJIS
  3
"AcmSymBB|Product Description: AutoCAD Mechanical 2000|Company: Autodesk"
 90
        0
280
     0
281
     0
  0
CLASS
  1
ACMFCFSTANDARDJIS
  2
AcmFCFStdJIS
  3
"AcmSymBB|Product Description: AutoCAD Mechanical 2000|Company: Autodesk"
 90
        0
280
     0
281
     0
  0
CLASS
  1
ACMWELDSTANDARDJIS
  2
AcmWeldingStdJIS
  3
"AcmSymBB|Product Description: AutoCAD Mechanical 2000|Company: Autodesk"
 90
        0
280
     0
281
     0
  0
CLASS
  1
ACMIDSTANDARDJIS
  2
AcmIdStdJIS
  3
"AcmSymBB|Product Description: AutoCAD Mechanical 2000|Company: Autodesk"
 90
        0
280
     0
281
     0
  0
CLASS
  1
ACMDATUMSTANDARDJIS
  2
AcmDatumStdJIS
  3
"AcmSymBB|Product Description: AutoCAD Mechanical 2000|Company: Autodesk"
 90
        0
280
     0
281
     0
  0
CLASS
  1
ACMBOMSTANDARDJIS
  2
AcmBOMStdJIS
  3
"AcmSymBB|Product Description: AutoCAD Mechanical 2000|Company: Autodesk"
 90
        0
280
     0
281
     0
  0
CLASS
  1
ACMSTANDARDANSI
  2
AcmStandardANSI
  3
"AcmSymBB|Product Description: AutoCAD Mechanical 2000|Company: Autodesk"
 90
        0
280
     0
281
     0
  0
CLASS
  1
ACMSURFSTANDARDANSI
  2
AcmSurfTextStdANSI
  3
"AcmSymBB|Product Description: AutoCAD Mechanical 2000|Company: Autodesk"
 90
        0
280
     0
281
     0
  0
CLASS
  1
ACMFCFSTANDARDANSI
  2
AcmFCFStdANSI
  3
"AcmSymBB|Product Description: AutoCAD Mechanical 2000|Company: Autodesk"
 90
        0
280
     0
281
     0
  0
CLASS
  1
ACMWELDSTANDARDANSI
  2
AcmWeldingStdANSI
  3
"AcmSymBB|Product Description: AutoCAD Mechanical 2000|Company: Autodesk"
 90
        0
280
     0
281
     0
  0
CLASS
  1
ACMIDSTANDARDANSI
  2
AcmIdStdANSI
  3
"AcmSymBB|Product Description: AutoCAD Mechanical 2000|Company: Autodesk"
 90
        0
280
     0
281
     0
  0
CLASS
  1
ACMDATUMSTANDARDANSI
  2
AcmDatumStdANSI
  3
"AcmSymBB|Product Description: AutoCAD Mechanical 2000|Company: Autodesk"
 90
        0
280
     0
281
     0
  0
CLASS
  1
ACMBOMSTANDARDANSI
  2
AcmBOMStdANSI
  3
"AcmSymBB|Product Description: AutoCAD Mechanical 2000|Company: Autodesk"
 90
        0
280
     0
281
     0
  0
CLASS
  1
ACMSTANDARDBSI
  2
AcmStandardBSI
  3
"AcmSymBB|Product Description: AutoCAD Mechanical 2000|Company: Autodesk"
 90
        0
280
     0
281
     0
  0
CLASS
  1
ACMSURFSTANDARDBSI
  2
AcmSurfTextStdBSI
  3
"AcmSymBB|Product Description: AutoCAD Mechanical 2000|Company: Autodesk"
 90
        0
280
     0
281
     0
  0
CLASS
  1
ACMFCFSTANDARDBSI
  2
AcmFCFStdBSI
  3
"AcmSymBB|Product Description: AutoCAD Mechanical 2000|Company: Autodesk"
 90
        0
280
     0
281
     0
  0
CLASS
  1
ACMWELDSTANDARDBSI
  2
AcmWeldingStdBSI
  3
"AcmSymBB|Product Description: AutoCAD Mechanical 2000|Company: Autodesk"
 90
        0
280
     0
281
     0
  0
CLASS
  1
ACMIDSTANDARDBSI
  2
AcmIdStdBSI
  3
"AcmSymBB|Product Description: AutoCAD Mechanical 2000|Company: Autodesk"
 90
        0
280
     0
281
     0
  0
CLASS
  1
ACMDATUMSTANDARDBSI
  2
AcmDatumStdBSI
  3
"AcmSymBB|Product Description: AutoCAD Mechanical 2000|Company: Autodesk"
 90
        0
280
     0
281
     0
  0
CLASS
  1
ACMBOMSTANDARDBSI
  2
AcmBOMStdBSI
  3
"AcmSymBB|Product Description: AutoCAD Mechanical 2000|Company: Autodesk"
 90
        0
280
     0
281
     0
  0
CLASS
  1
LONG_TRANSACTION
  2
AcDbLongTransaction
  3
AutoCAD 2000
 90
        0
280
     0
281
     0
  0
CLASS
  1
LWPOLYLINE
  2
AcDbPolyline
  3
AutoCAD 2000
 90
        0
280
     0
281
     1
  0
CLASS
  1
HATCH
  2
AcDbHatch
  3
AutoCAD 2000
 90
        0
280
     0
281
     1
  0
CLASS
  1
XRECORD
  2
AcDbXrecord
  3
AutoCAD 2000
 90
        0
280
     0
281
     0
  0
ENDSEC
  0
SECTION
  2
TABLES
  0
TABLE
  2
VPORT
  5
8
330
0
100
AcDbSymbolTable
 70
     3
  0
VPORT
  5
2B8B
330
8
100
AcDbSymbolTableRecord
100
AcDbViewportTableRecord
  2
*ACTIVE
 70
     0
 10
0.0
 20
0.0
 11
1.0
 21
1.0
 12
-68.29806547526226
 22
0.567218948409348
 13
0.0
 23
0.0
 14
2.5
 24
2.5
 15
10.0
 25
10.0
 16
0.0
 26
0.0
 36
1.0
 17
0.0
 27
0.0
 37
0.0
 40
180.9699808726715
 41
1.56570841889117
 42
50.0
 43
0.0
 44
0.0
 50
0.0
 51
0.0
 71
     0
 72
   100
 73
     1
 74
     3
 75
     0
 76
     0
 77
     0
 78
     0
  0
ENDTAB
  0
TABLE
  2
LTYPE
  5
5
330
0
100
AcDbSymbolTable
 70
    10
  0
LTYPE
  5
14
330
5
100
AcDbSymbolTableRecord
100
AcDbLinetypeTableRecord
  2
BYBLOCK
 70
     0
  3

 72
    65
 73
     0
 40
0.0
  0
LTYPE
  5
15
330
5
100
AcDbSymbolTableRecord
100
AcDbLinetypeTableRecord
  2
BYLAYER
 70
     0
  3

 72
    65
 73
     0
 40
0.0
  0
LTYPE
  5
16
330
5
100
AcDbSymbolTableRecord
100
AcDbLinetypeTableRecord
  2
CONTINUOUS
 70
     0
  3
Solid line
 72
    65
 73
     0
 40
0.0
  0
LTYPE
  5
4B
330
5
100
AcDbSymbolTableRecord
100
AcDbLinetypeTableRecord
  2
AM_ISO02W050
 70
     0
  3
__ __ __ __ __ __ __ __ __ __ __ __ __ __ __
 72
    65
 73
     2
 40
7.5
 49
6.0
 74
     0
 49
-1.5
 74
     0
  0
LTYPE
  5
4C
330
5
100
AcDbSymbolTableRecord
100
AcDbLinetypeTableRecord
  2
AM_ISO08W050
 70
     0
  3
____ . ____ . ____ . ____ . ____ . ____ . ____
 72
    65
 73
     4
 40
18.0
 49
12.0
 74
     0
 49
-1.5
 74
     0
 49
3.0
 74
     0
 49
-1.5
 74
     0
  0
LTYPE
  5
4D
330
5
100
AcDbSymbolTableRecord
100
AcDbLinetypeTableRecord
  2
AM_ISO09W050
 70
     0
  3
_____ . . _____ . . _____ . . ____ .. ____
 72
    65
 73
     6
 40
22.5
 49
12.0
 74
     0
 49
-1.5
 74
     0
 49
3.0
 74
     0
 49
-1.5
 74
     0
 49
3.0
 74
     0
 49
-1.5
 74
     0
  0
LTYPE
  5
4E
330
5
100
AcDbSymbolTableRecord
100
AcDbLinetypeTableRecord
  2
AMCONSTR
 70
     0
  3
_______________________
 72
    65
 73
     2
 40
9999.0
 49
9999.0
 74
     0
 49
0.0
 74
     0
  0
LTYPE
  5
4F
330
5
100
AcDbSymbolTableRecord
100
AcDbLinetypeTableRecord
  2
AM_ISO02W050X2
 70
     0
  3
 _ _ _ _ _ _ _ _ _ _ _ _
 72
    65
 73
     2
 40
3.75
 49
3.0
 74
     0
 49
-0.75
 74
     0
  0
LTYPE
  5
50
330
5
100
AcDbSymbolTableRecord
100
AcDbLinetypeTableRecord
  2
AM_ISO08W050X2
 70
     0
  3
__ . __ . __ . __ . __ . __
 72
    65
 73
     4
 40
9.0
 49
6.0
 74
     0
 49
-0.75
 74
     0
 49
1.5
 74
     0
 49
-0.75
 74
     0
  0
LTYPE
  5
53
330
5
100
AcDbSymbolTableRecord
100
AcDbLinetypeTableRecord
  2
AMZIGZAG
 70
     0
  3
/\/-/\/-/\/-/\/-/\/-/\/
 72
    65
 73
     2
 40
11.00009999999999
 49
0.0001
 74
     4
 75
   135
340
52
 46
0.04
 50
0.0
 44
0.0
 45
0.0
 49
-11.0
 74
     0
  0
LTYPE
  5
166
330
5
100
AcDbSymbolTableRecord
100
AcDbLinetypeTableRecord
  2
ACJISTGL
 70
     0
  3
_ _ _ _ _
 72
    65
 73
     2
 40
3.0
 49
2.0
 74
     0
 49
-1.0
 74
     0
  0
LTYPE
  5
26A
330
5
100
AcDbSymbolTableRecord
100
AcDbLinetypeTableRecord
  2
ACJISTGB
 70
     0
  3
__ . . __ . .
 72
    65
 73
     6
 40
9.0
 49
4.0
 74
     0
 49
-1.0
 74
     0
 49
1.0
 74
     0
 49
-1.0
 74
     0
 49
1.0
 74
     0
 49
-1.0
 74
     0
  0
ENDTAB
  0
TABLE
  2
LAYER
  5
2
330
0
100
AcDbSymbolTable
 70
     7
  0
LAYER
  5
10
330
2
100
AcDbSymbolTableRecord
100
AcDbLayerTableRecord
  2
0
 70
     0
 62
     7
  6
CONTINUOUS
  0
LAYER
  5
3F9
330
2
100
AcDbSymbolTableRecord
100
AcDbLayerTableRecord
  2
AM_0
 70
     0
 62
     7
  6
CONTINUOUS
  0
LAYER
  5
CD5
330
2
100
AcDbSymbolTableRecord
100
AcDbLayerTableRecord
  2
AM_7
 70
     0
 62
     4
  6
AM_ISO08W050
  0
LAYER
  5
CDE
330
2
100
AcDbSymbolTableRecord
100
AcDbLayerTableRecord
  2
AM_11
 70
     0
 62
     3
  6
AM_ISO09W050
  0
LAYER
  5
CFB
330
2
100
AcDbSymbolTableRecord
100
AcDbLayerTableRecord
  2
AM_5
 70
     0
 62
     3
  6
CONTINUOUS
  0
LAYER
  5
CFD
330
2
100
AcDbSymbolTableRecord
100
AcDbLayerTableRecord
  2
DEFPOINTS
 70
     0
 62
     7
  6
CONTINUOUS
  0
LAYER
  5
113C
330
2
100
AcDbSymbolTableRecord
100
AcDbLayerTableRecord
  2
AM_6
 70
     0
 62
     2
  6
CONTINUOUS
  0
ENDTAB
  0
TABLE
  2
STYLE
  5
3
330
0
100
AcDbSymbolTable
 70
     5
  0
STYLE
  5
11
330
3
100
AcDbSymbolTableRecord
100
AcDbTextStyleTableRecord
  2
STANDARD
 70
     0
 40
0.0
 41
1.0
 50
0.0
 71
     0
 42
2.5
  3
simplex.shx
  4
EXTFONT.SHX
  0
STYLE
  5
52
330
3
100
AcDbSymbolTableRecord
100
AcDbTextStyleTableRecord
  2

 70
     1
 40
0.0
 41
1.0
 50
0.0
 71
     0
 42
2.5
  3
ltypeshp.shx
  4

  0
STYLE
  5
6B
330
3
100
AcDbSymbolTableRecord
100
AcDbTextStyleTableRecord
  2
ASAMI
 70
     0
 40
0.0
 41
1.0
 50
0.0
 71
     0
 42
2.5
  3
simplex.shx
  4
EXTFONT.SHX
  0
STYLE
  5
262
330
3
100
AcDbSymbolTableRecord
100
AcDbTextStyleTableRecord
  2
ACJISTS
 70
     0
 40
1.0
 41
1.0
 50
0.0
 71
     0
 42
2.5
  3
simplex.shx
  4
bigfont.shx
  0
STYLE
  5
269
330
3
100
AcDbSymbolTableRecord
100
AcDbTextStyleTableRecord
  2
ACJISGDT
 70
     0
 40
0.0
 41
1.0
 50
0.0
 71
     0
 42
2.5
  3
amgdtans.shx
  4

  0
ENDTAB
  0
TABLE
  2
VIEW
  5
6
330
0
100
AcDbSymbolTable
 70
     0
  0
ENDTAB
  0
TABLE
  2
UCS
  5
7
330
0
100
AcDbSymbolTable
 70
     0
  0
ENDTAB
  0
TABLE
  2
APPID
  5
9
330
0
100
AcDbSymbolTable
 70
    13
  0
APPID
  5
12
330
9
100
AcDbSymbolTableRecord
100
AcDbRegAppTableRecord
  2
ACAD
 70
     0
  0
APPID
  5
30
330
9
100
AcDbSymbolTableRecord
100
AcDbRegAppTableRecord
  2
MCAD_NO_VIS
 70
     0
  0
APPID
  5
31
330
9
100
AcDbSymbolTableRecord
100
AcDbRegAppTableRecord
  2
ACAD_TEMP_GRAPHIC
 70
     0
  0
APPID
  5
2C2
330
9
100
AcDbSymbolTableRecord
100
AcDbRegAppTableRecord
  2
GENIUS_GENDTOL_13
 70
     0
  0
APPID
  5
339
330
9
100
AcDbSymbolTableRecord
100
AcDbRegAppTableRecord
  2
GENIUS_GENODEF_13
 70
     0
  0
APPID
  5
33A
330
9
100
AcDbSymbolTableRecord
100
AcDbRegAppTableRecord
  2
GENIUS_GENOBJ-N-RSBK_13
 70
     0
  0
APPID
  5
33B
330
9
100
AcDbSymbolTableRecord
100
AcDbRegAppTableRecord
  2
GENIUS_GENOBJ-N-LIB_13
 70
     0
  0
APPID
  5
33C
330
9
100
AcDbSymbolTableRecord
100
AcDbRegAppTableRecord
  2
GENIUS_GENSCALE_13
 70
     0
  0
APPID
  5
378
330
9
100
AcDbSymbolTableRecord
100
AcDbRegAppTableRecord
  2
GENIUS_GENDIMSH_14
 70
     0
  0
APPID
  5
13A0
330
9
100
AcDbSymbolTableRecord
100
AcDbRegAppTableRecord
  2
GENIUS_GENOBJ-N-CEN_13
 70
     0
  0
APPID
  5
13D7
330
9
100
AcDbSymbolTableRecord
100
AcDbRegAppTableRecord
  2
GENIUS_GENREC_14
 70
     0
  0
APPID
  5
13D8
330
9
100
AcDbSymbolTableRecord
100
AcDbRegAppTableRecord
  2
GENIUS_GENOBJ-N-REC_13
 70
     0
  0
APPID
  5
2775
330
9
100
AcDbSymbolTableRecord
100
AcDbRegAppTableRecord
  2
DCO15
 70
     0
  0
ENDTAB
  0
TABLE
  2
DIMSTYLE
  5
A
330
0
100
AcDbSymbolTable
 70
     9
  0
DIMSTYLE
105
58
330
A
100
AcDbSymbolTableRecord
100
AcDbDimStyleTableRecord
  2
AM_JIS
 70
     0
  3

  4
"
  5
OPEN30
  6

  7

 40
1.0
 41
2.5
 42
1.0
 43
12.0
 44
1.0
 45
0.0
 46
0.0
 47
0.1
 48
0.1
140
3.2
141
0.0
142
0.0
143
0.0393701
144
1.0
145
0.0
146
0.71
147
1.5
 71
     0
 72
     0
 73
     0
 74
     0
 75
     0
 76
     0
 77
     3
 78
     8
170
     0
171
     2
172
     1
173
     0
174
     0
175
     0
176
   256
177
   256
178
     2
270
     2
271
     3
272
     3
273
     2
274
     2
340
6B
275
     0
280
     0
281
     0
282
     0
283
     0
284
     0
285
     0
286
     0
287
     3
288
     0
  0
DIMSTYLE
105
5F
330
A
100
AcDbSymbolTableRecord
100
AcDbDimStyleTableRecord
  2
AM_JIS$3
 70
     0
  3

  4
"
  5
OPEN30
  6

  7

 40
1.0
 41
2.5
 42
1.0
 43
10.0
 44
1.0
 45
0.0
 46
0.0
 47
0.1
 48
0.1
140
3.2
141
0.0
142
0.0
143
0.0393701
144
1.0
145
0.0
146
0.71
147
1.5
 71
     0
 72
     0
 73
     0
 74
     1
 75
     0
 76
     0
 77
     3
 78
     8
170
     0
171
     2
172
     0
173
     0
174
     0
175
     0
176
   256
177
   256
178
     2
270
     2
271
     2
272
     3
273
     2
274
     2
340
6B
275
     0
280
     0
281
     0
282
     0
283
     0
284
     0
285
     0
286
     0
287
     0
288
     1
  0
DIMSTYLE
105
60
330
A
100
AcDbSymbolTableRecord
100
AcDbDimStyleTableRecord
  2
AM_JIS$4
 70
     0
  3

  4
"
  5
OPEN30
  6

  7

 40
1.0
 41
2.5
 42
1.0
 43
10.0
 44
1.0
 45
0.0
 46
0.0
 47
0.1
 48
0.1
140
3.2
141
0.0
142
0.0
143
0.0393701
144
1.0
145
0.0
146
0.71
147
1.5
 71
     0
 72
     0
 73
     0
 74
     1
 75
     0
 76
     0
 77
     3
 78
     8
170
     0
171
     2
172
     0
173
     0
174
     0
175
     0
176
   256
177
   256
178
     2
270
     2
271
     2
272
     3
273
     2
274
     2
340
6B
275
     0
280
     0
281
     0
282
     0
283
     0
284
     0
285
     0
286
     0
287
     0
288
     1
  0
DIMSTYLE
105
61
330
A
100
AcDbSymbolTableRecord
100
AcDbDimStyleTableRecord
  2
AM_JIS$6
 70
     0
  3

  4
"
  5
OPEN30
  6

  7

 40
1.0
 41
2.5
 42
1.0
 43
10.0
 44
1.0
 45
0.0
 46
0.0
 47
0.1
 48
0.1
140
3.2
141
0.0
142
0.0
143
0.0393701
144
1.0
145
0.0
146
0.71
147
1.5
 71
     0
 72
     0
 73
     0
 74
     0
 75
     0
 76
     0
 77
     0
 78
     8
170
     0
171
     2
172
     1
173
     0
174
     0
175
     0
176
   256
177
   256
178
     2
270
     2
271
     2
272
     2
273
     2
274
     2
340
6B
275
     0
280
     0
281
     0
282
     0
283
     0
284
     0
285
     0
286
     0
287
     3
288
     0
  0
DIMSTYLE
105
62
330
A
100
AcDbSymbolTableRecord
100
AcDbDimStyleTableRecord
  2
AM_JIS$7
 70
     0
  3

  4
"
  5
OPEN30
  6

  7

 40
1.0
 41
2.5
 42
1.0
 43
10.0
 44
1.0
 45
0.0
 46
0.0
 47
0.1
 48
0.1
140
3.2
141
0.0
142
0.0
143
0.0393701
144
1.0
145
0.0
146
0.71
147
1.5
 71
     0
 72
     0
 73
     0
 74
     0
 75
     0
 76
     0
 77
     3
 78
     8
170
     0
171
     2
172
     1
173
     0
174
     0
175
     0
176
   256
177
   256
178
     2
270
     2
271
     2
272
     3
273
     2
274
     2
340
6B
275
     0
280
     0
281
     0
282
     0
283
     0
284
     0
285
     0
286
     0
287
     3
288
     0
  0
DIMSTYLE
105
63
330
A
100
AcDbSymbolTableRecord
100
AcDbDimStyleTableRecord
  2
AM_JIS$SF
 70
     0
  3

  4
"
  5
OPEN30
  6

  7

 40
1.0
 41
2.5
 42
1.0
 43
10.0
 44
1.0
 45
0.0
 46
0.0
 47
0.1
 48
0.1
140
3.2
141
0.0
142
0.0
143
0.0393701
144
1.0
145
0.0
146
0.71
147
1.5
 71
     0
 72
     0
 73
     0
 74
     0
 75
     1
 76
     1
 77
     3
 78
     8
170
     0
171
     2
172
     1
173
     0
174
     0
175
     0
176
   256
177
   256
178
     2
270
     2
271
     2
272
     2
273
     2
274
     2
340
6B
275
     0
280
     0
281
     0
282
     0
283
     0
284
     0
285
     0
286
     0
287
     3
288
     0
  0
DIMSTYLE
105
68
330
A
100
AcDbSymbolTableRecord
100
AcDbDimStyleTableRecord
  2
AM_JIS$SH
 70
     0
  3

  4
"
  5

  6
GENAXEH
  7
OPEN30
 40
1.0
 41
2.5
 42
1.0
 43
10.0
 44
1.0
 45
0.0
 46
0.0
 47
0.1
 48
0.1
140
3.2
141
0.0
142
0.0
143
0.0393701
144
2.0
145
0.0
146
0.71
147
1.5
 71
     0
 72
     0
 73
     0
 74
     0
 75
     1
 76
     1
 77
     3
 78
     8
170
     0
171
     2
172
     1
173
     1
174
     0
175
     0
176
   256
177
   256
178
     2
270
     2
271
     2
272
     2
273
     2
274
     2
340
6B
275
     0
280
     0
281
     0
282
     0
283
     0
284
     0
285
     0
286
     0
287
     3
288
     0
  0
DIMSTYLE
105
B34
330
A
100
AcDbSymbolTableRecord
100
AcDbDimStyleTableRecord
  2
AM_JIS$2
 70
     0
  3

  4
"
  5
OPEN30
  6

  7

 40
1.0
 41
2.5
 42
1.0
 43
12.0
 44
1.0
 45
0.0
 46
0.0
 47
0.1
 48
0.1
140
3.2
141
0.0
142
0.0
143
0.0393701
144
1.0
145
0.0
146
0.71
147
1.5
 71
     0
 72
     0
 73
     0
 74
     0
 75
     0
 76
     0
 77
     3
 78
     8
170
     0
171
     2
172
     1
173
     0
174
     0
175
     0
176
   256
177
   256
178
     2
270
     2
271
     3
272
     3
273
     2
274
     2
340
6B
275
     0
280
     0
281
     0
282
     0
283
     0
284
     0
285
     0
286
     0
287
     3
288
     0
  0
DIMSTYLE
105
BA5
102
{ACAD_REACTORS
330
155D
330
15E8
330
1673
330
1895
330
1E16
330
2A6E
102
}
330
A
100
AcDbSymbolTableRecord
100
AcDbDimStyleTableRecord
  2
AM_JIS$0
 70
     0
  3

  4
"
  5
OPEN30
  6

  7

 40
1.0
 41
2.5
 42
0.0
 43
10.0
 44
1.0
 45
0.0
 46
0.0
 47
0.1
 48
0.1000000001
140
3.799999999999999
141
0.0
142
0.0
143
0.0393701
144
1.0
145
0.0
146
0.71
147
1.5
 71
     0
 72
     0
 73
     0
 74
     0
 75
     0
 76
     0
 77
     3
 78
     1
170
     0
171
     2
172
     1
173
     0
174
     0
175
     0
176
     3
177
     3
178
     2
270
     2
271
     2
272
     2
273
     2
274
     2
340
11
275
     1
280
     0
281
     0
282
     0
283
     0
284
     8
285
     0
286
     0
287
     0
288
     0
  0
ENDTAB
  0
TABLE
  2
BLOCK_RECORD
  5
1
330
0
100
AcDbSymbolTable
 70
    11
  0
BLOCK_RECORD
  5
1F
102
{ACAD_XDICTIONARY
360
74
102
}
330
1
100
AcDbSymbolTableRecord
100
AcDbBlockTableRecord
  2
*MODEL_SPACE
  0
BLOCK_RECORD
  5
101
102
{ACAD_XDICTIONARY
360
2BB4
102
}
330
1
100
AcDbSymbolTableRecord
100
AcDbBlockTableRecord
  2
*PAPER_SPACE
  0
BLOCK_RECORD
  5
59
330
1
100
AcDbSymbolTableRecord
100
AcDbBlockTableRecord
  2
_OPEN30
  0
BLOCK_RECORD
  5
64
330
1
100
AcDbSymbolTableRecord
100
AcDbBlockTableRecord
  2
GENAXEH
  0
BLOCK_RECORD
  5
155E
330
1
100
AcDbSymbolTableRecord
100
AcDbBlockTableRecord
  2
*D5
  0
BLOCK_RECORD
  5
15E9
330
1
100
AcDbSymbolTableRecord
100
AcDbBlockTableRecord
  2
*D6
  0
BLOCK_RECORD
  5
1674
330
1
100
AcDbSymbolTableRecord
100
AcDbBlockTableRecord
  2
*D7
  0
BLOCK_RECORD
  5
1896
330
1
100
AcDbSymbolTableRecord
100
AcDbBlockTableRecord
  2
*D8
  0
BLOCK_RECORD
  5
1E17
330
1
100
AcDbSymbolTableRecord
100
AcDbBlockTableRecord
  2
*D9
  0
BLOCK_RECORD
  5
2A6F
330
1
100
AcDbSymbolTableRecord
100
AcDbBlockTableRecord
  2
*D10
  0
ENDTAB
  0
ENDSEC
  0
SECTION
  2
BLOCKS
  0
BLOCK
  5
20
330
1F
100
AcDbEntity
  8
0
100
AcDbBlockBegin
  2
*MODEL_SPACE
 70
     0
 10
0.0
 20
0.0
 30
0.0
  3
*MODEL_SPACE
  1

  0
ENDBLK
  5
21
330
1F
100
AcDbEntity
  8
0
100
AcDbBlockEnd
  0
BLOCK
  5
103
330
101
100
AcDbEntity
 67
     1
  8
0
100
AcDbBlockBegin
  2
*PAPER_SPACE
 70
     0
 10
0.0
 20
0.0
 30
0.0
  3
*PAPER_SPACE
  1

  0
ENDBLK
  5
104
330
101
100
AcDbEntity
 67
     1
  8
0
100
AcDbBlockEnd
  0
BLOCK
  5
5D
330
59
100
AcDbEntity
  8
0
100
AcDbBlockBegin
  2
_OPEN30
 70
     0
 10
0.0
 20
0.0
 30
0.0
  3
_OPEN30
  1

  0
LINE
  5
5A
330
59
100
AcDbEntity
  8
0
 62
     0
100
AcDbLine
 10
-1.0
 20
0.26794919
 30
0.0
 11
0.0
 21
0.0
 31
0.0
  0
LINE
  5
5B
330
59
100
AcDbEntity
  8
0
 62
     0
100
AcDbLine
 10
0.0
 20
0.0
 30
0.0
 11
-1.0
 21
-0.26794919
 31
0.0
  0
LINE
  5
5C
330
59
100
AcDbEntity
  8
0
 62
     0
100
AcDbLine
 10
0.0
 20
0.0
 30
0.0
 11
-1.0
 21
0.0
 31
0.0
  0
ENDBLK
  5
5E
330
59
100
AcDbEntity
  8
0
100
AcDbBlockEnd
  0
BLOCK
  5
66
330
64
100
AcDbEntity
  8
0
100
AcDbBlockBegin
  2
GENAXEH
 70
     0
 10
0.0
 20
0.0
 30
0.0
  3
GENAXEH
  1

  0
LINE
  5
65
330
64
100
AcDbEntity
  8
0
100
AcDbLine
 10
-1.0
 20
0.0
 30
0.0
 11
1.0
 21
0.0
 31
0.0
  0
ENDBLK
  5
67
330
64
100
AcDbEntity
  8
0
100
AcDbBlockEnd
  0
BLOCK
  5
1568
330
155E
100
AcDbEntity
  8
0
100
AcDbBlockBegin
  2
*D5
 70
     1
 10
0.0
 20
0.0
 30
0.0
  3
*D5
  1

  0
LINE
  5
2AFC
330
155E
100
AcDbEntity
  8
AM_5
 62
     3
100
AcDbLine
 10
-0.0000000000000008
 20
-6.0
 30
0.0
 11
-0.0000000000000022
 21
-28.5000009536686
 31
0.0
  0
LINE
  5
2AFD
330
155E
100
AcDbEntity
  8
AM_5
 62
     3
100
AcDbLine
 10
-35.00000762939497
 20
-12.00009155272999
 30
0.0
 11
-35.00000762939497
 21
-28.5000009536686
 31
0.0
  0
LINE
  5
2AFE
330
155E
100
AcDbEntity
  8
AM_5
 62
     3
100
AcDbLine
 10
-2.500000000000002
 20
-27.50000095366861
 30
0.0
 11
-32.50000762939497
 21
-27.50000095366861
 31
0.0
  0
INSERT
  5
2AFF
330
155E
100
AcDbEntity
  8
AM_5
 62
     3
100
AcDbBlockReference
  2
_OPEN30
 10
-0.0000000000000021
 20
-27.50000095366861
 30
0.0
 41
2.5
 42
2.5
 43
2.5
  0
INSERT
  5
2B00
330
155E
100
AcDbEntity
  8
AM_5
 62
     3
100
AcDbBlockReference
  2
_OPEN30
 10
-35.00000762939497
 20
-27.50000095366861
 30
0.0
 41
2.5
 42
2.5
 43
2.5
 50
180.0
  0
MTEXT
  5
2B01
330
155E
100
AcDbEntity
  8
AM_5
 62
     2
100
AcDbMText
 10
-17.50000381469748
 20
-24.10000095366861
 30
0.0
 40
3.799999999999999
 41
0.0
 71
     5
 72
     1
  1
35
1001
ACAD
1000
MTEXTBEGIN
1070
    73
1070
     1
1070
    44
1040
1.0
1070
    74
1070
     0
1000
MTEXTEND
  0
POINT
  5
2B02
330
155E
100
AcDbEntity
  8
DEFPOINTS
 62
     0
100
AcDbPoint
 10
-0.0000000000000008
 20
-6.0
 30
0.0
  0
POINT
  5
2B03
330
155E
100
AcDbEntity
  8
DEFPOINTS
 62
     0
100
AcDbPoint
 10
-35.00000762939497
 20
-12.00009155272999
 30
0.0
  0
POINT
  5
2B04
330
155E
100
AcDbEntity
  8
DEFPOINTS
 62
     0
100
AcDbPoint
 10
-35.00000762939497
 20
-27.50000095366861
 30
0.0
  0
ENDBLK
  5
1569
330
155E
100
AcDbEntity
  8
0
100
AcDbBlockEnd
  0
BLOCK
  5
15F3
330
15E9
100
AcDbEntity
  8
0
100
AcDbBlockBegin
  2
*D6
 70
     1
 10
0.0
 20
0.0
 30
0.0
  3
*D6
  1

  0
LINE
  5
2B0E
330
15E9
100
AcDbEntity
  8
AM_5
 62
     3
100
AcDbLine
 10
-35.00000762939497
 20
-12.24999999999497
 30
0.0
 11
-35.00000762939497
 21
-28.50000095366885
 31
0.0
  0
LINE
  5
2B0F
330
15E9
100
AcDbEntity
  8
AM_5
 62
     3
100
AcDbLine
 10
-159.9999999999989
 20
-10.16149902342994
 30
0.0
 11
-159.9999999999989
 21
-28.50000095366885
 31
0.0
  0
LINE
  5
2B10
330
15E9
100
AcDbEntity
  8
AM_5
 62
     3
100
AcDbLine
 10
-37.50000762939497
 20
-27.50000095366885
 30
0.0
 11
-157.4999999999989
 21
-27.50000095366885
 31
0.0
  0
INSERT
  5
2B11
330
15E9
100
AcDbEntity
  8
AM_5
 62
     3
100
AcDbBlockReference
  2
_OPEN30
 10
-35.00000762939497
 20
-27.50000095366885
 30
0.0
 41
2.5
 42
2.5
 43
2.5
  0
INSERT
  5
2B12
330
15E9
100
AcDbEntity
  8
AM_5
 62
     3
100
AcDbBlockReference
  2
_OPEN30
 10
-159.9999999999989
 20
-27.50000095366885
 30
0.0
 41
2.5
 42
2.5
 43
2.5
 50
180.0
  0
MTEXT
  5
2B13
330
15E9
100
AcDbEntity
  8
AM_5
 62
     2
100
AcDbMText
 10
-97.50000381469698
 20
-24.10000095366886
 30
0.0
 40
3.799999999999999
 41
0.0
 71
     5
 72
     1
  1
125
1001
ACAD
1000
MTEXTBEGIN
1070
    73
1070
     1
1070
    44
1040
1.0
1070
    74
1070
     0
1000
MTEXTEND
  0
POINT
  5
2B14
330
15E9
100
AcDbEntity
  8
DEFPOINTS
 62
     0
100
AcDbPoint
 10
-35.00000762939497
 20
-12.24999999999497
 30
0.0
  0
POINT
  5
2B15
330
15E9
100
AcDbEntity
  8
DEFPOINTS
 62
     0
100
AcDbPoint
 10
-159.9999999999989
 20
-10.16149902342994
 30
0.0
  0
POINT
  5
2B16
330
15E9
100
AcDbEntity
  8
DEFPOINTS
 62
     0
100
AcDbPoint
 10
-159.9999999999989
 20
-27.50000095366885
 30
0.0
  0
ENDBLK
  5
15F4
330
15E9
100
AcDbEntity
  8
0
100
AcDbBlockEnd
  0
BLOCK
  5
167E
330
1674
100
AcDbEntity
  8
0
100
AcDbBlockBegin
  2
*D7
 70
     1
 10
0.0
 20
0.0
 30
0.0
  3
*D7
  1

  0
LINE
  5
2B05
330
1674
100
AcDbEntity
  8
AM_5
 62
     3
100
AcDbLine
 10
-159.9999999999989
 20
-10.16149902342994
 30
0.0
 11
-159.9999999999989
 21
-38.50000095366853
 31
0.0
  0
LINE
  5
2B06
330
1674
100
AcDbEntity
  8
AM_5
 62
     3
100
AcDbLine
 10
0.0000000000000198
 20
-12.49999999999996
 30
0.0
 11
0.0000000000000182
 21
-38.50000095366853
 31
0.0
  0
LINE
  5
2B07
330
1674
100
AcDbEntity
  8
AM_5
 62
     3
100
AcDbLine
 10
-157.4999999999989
 20
-37.50000095366853
 30
0.0
 11
-2.499999999999981
 21
-37.50000095366853
 31
0.0
  0
INSERT
  5
2B08
330
1674
100
AcDbEntity
  8
AM_5
 62
     3
100
AcDbBlockReference
  2
_OPEN30
 10
-159.9999999999989
 20
-37.50000095366853
 30
0.0
 41
2.5
 42
2.5
 43
2.5
 50
180.0
  0
INSERT
  5
2B09
330
1674
100
AcDbEntity
  8
AM_5
 62
     3
100
AcDbBlockReference
  2
_OPEN30
 10
0.0000000000000183
 20
-37.50000095366853
 30
0.0
 41
2.5
 42
2.5
 43
2.5
  0
MTEXT
  5
2B0A
330
1674
100
AcDbEntity
  8
AM_5
 62
     2
100
AcDbMText
 10
-79.99999999999947
 20
-34.10000095366854
 30
0.0
 40
3.799999999999999
 41
0.0
 71
     5
 72
     1
  1
160
1001
ACAD
1000
MTEXTBEGIN
1070
    73
1070
     1
1070
    44
1040
1.0
1070
    74
1070
     0
1000
MTEXTEND
  0
POINT
  5
2B0B
330
1674
100
AcDbEntity
  8
DEFPOINTS
 62
     0
100
AcDbPoint
 10
-159.9999999999989
 20
-10.16149902342994
 30
0.0
  0
POINT
  5
2B0C
330
1674
100
AcDbEntity
  8
DEFPOINTS
 62
     0
100
AcDbPoint
 10
0.0000000000000198
 20
-12.49999999999996
 30
0.0
  0
POINT
  5
2B0D
330
1674
100
AcDbEntity
  8
DEFPOINTS
 62
     0
100
AcDbPoint
 10
0.0000000000000183
 20
-37.50000095366853
 30
0.0
  0
ENDBLK
  5
167F
330
1674
100
AcDbEntity
  8
0
100
AcDbBlockEnd
  0
BLOCK
  5
18A0
330
1896
100
AcDbEntity
  8
0
100
AcDbBlockBegin
  2
*D8
 70
     1
 10
0.0
 20
0.0
 30
0.0
  3
*D8
  1

  0
LINE
  5
2B29
330
1896
100
AcDbEntity
  8
AM_5
 62
     3
100
AcDbLine
 10
0.0000000000000199
 20
-13.50000095366854
 30
0.0
 11
15.00000000000001
 21
-13.50000095366854
 31
0.0
  0
LINE
  5
2B2A
330
1896
100
AcDbEntity
  8
AM_5
 62
     3
100
AcDbLine
 10
0.000000000000024
 20
13.50000000000505
 30
0.0
 11
15.00000000000002
 21
13.50000000000505
 31
0.0
  0
LINE
  5
2B2B
330
1896
100
AcDbEntity
  8
AM_5
 62
     3
100
AcDbLine
 10
14.00000000000002
 20
-11.00000095366854
 30
0.0
 11
14.00000000000002
 21
11.00000000000505
 31
0.0
  0
INSERT
  5
2B2C
330
1896
100
AcDbEntity
  8
AM_5
 62
     3
100
AcDbBlockReference
  2
_OPEN30
 10
14.00000000000001
 20
-13.50000095366854
 30
0.0
 41
2.5
 42
2.5
 43
2.5
 50
270.0
  0
INSERT
  5
2B2D
330
1896
100
AcDbEntity
  8
AM_5
 62
     3
100
AcDbBlockReference
  2
_OPEN30
 10
14.00000000000002
 20
13.50000000000505
 30
0.0
 41
2.5
 42
2.5
 43
2.5
 50
90.0
  0
MTEXT
  5
2B2E
330
1896
100
AcDbEntity
  8
AM_5
 62
     2
100
AcDbMText
 10
10.60000000000002
 20
-0.0000004768317434
 30
0.0
 40
3.799999999999999
 41
0.0
 71
     5
 72
     1
  1
%%c27
 11
0.0000000000000001
 21
1.0
 31
0.0
1001
ACAD
1000
MTEXTBEGIN
1070
    73
1070
     1
1070
    44
1040
1.0
1070
    74
1070
     0
1000
MTEXTEND
  0
POINT
  5
2B2F
330
1896
100
AcDbEntity
  8
DEFPOINTS
 62
     0
100
AcDbPoint
 10
0.0000000000000199
 20
-13.50000095366854
 30
0.0
  0
POINT
  5
2B30
330
1896
100
AcDbEntity
  8
DEFPOINTS
 62
     0
100
AcDbPoint
 10
0.000000000000024
 20
13.50000000000505
 30
0.0
  0
POINT
  5
2B31
330
1896
100
AcDbEntity
  8
DEFPOINTS
 62
     0
100
AcDbPoint
 10
14.00000000000002
 20
13.50000000000505
 30
0.0
  0
ENDBLK
  5
18A1
330
1896
100
AcDbEntity
  8
0
100
AcDbBlockEnd
  0
BLOCK
  5
1E21
330
1E17
100
AcDbEntity
  8
0
100
AcDbBlockBegin
  2
*D9
 70
     1
 10
0.0
 20
0.0
 30
0.0
  3
*D9
  1

  0
LINE
  5
2B17
330
1E17
100
AcDbEntity
  8
AM_5
 62
     3
100
AcDbLine
 10
-156.9999999999989
 20
12.50000000000001
 30
0.0
 11
-174.9999999999989
 21
12.50000000000002
 31
0.0
  0
LINE
  5
2B18
330
1E17
100
AcDbEntity
  8
AM_5
 62
     3
100
AcDbLine
 10
-156.9999389648429
 20
-12.49996948241998
 30
0.0
 11
-174.9999999999989
 21
-12.49996948241997
 31
0.0
  0
LINE
  5
2B19
330
1E17
100
AcDbEntity
  8
AM_5
 62
     3
100
AcDbLine
 10
-173.9999999999989
 20
10.00000000000002
 30
0.0
 11
-173.9999999999989
 21
-9.999969482419977
 31
0.0
  0
INSERT
  5
2B1A
330
1E17
100
AcDbEntity
  8
AM_5
 62
     3
100
AcDbBlockReference
  2
_OPEN30
 10
-173.9999999999989
 20
12.50000000000002
 30
0.0
 41
2.5
 42
2.5
 43
2.5
 50
90.0
  0
INSERT
  5
2B1B
330
1E17
100
AcDbEntity
  8
AM_5
 62
     3
100
AcDbBlockReference
  2
_OPEN30
 10
-173.9999999999989
 20
-12.49996948241997
 30
0.0
 41
2.5
 42
2.5
 43
2.5
 50
270.0
  0
MTEXT
  5
2B1C
330
1E17
100
AcDbEntity
  8
AM_5
 62
     2
100
AcDbMText
 10
-177.3999999999989
 20
0.000015258790038
 30
0.0
 40
3.799999999999999
 41
0.0
 71
     5
 72
     1
  1
%%c25
 11
0.0000000000000001
 21
1.0
 31
0.0
1001
ACAD
1000
MTEXTBEGIN
1070
    73
1070
     1
1070
    44
1040
1.0
1070
    74
1070
     0
1000
MTEXTEND
  0
POINT
  5
2B1D
330
1E17
100
AcDbEntity
  8
DEFPOINTS
 62
     0
100
AcDbPoint
 10
-156.9999999999989
 20
12.50000000000001
 30
0.0
  0
POINT
  5
2B1E
330
1E17
100
AcDbEntity
  8
DEFPOINTS
 62
     0
100
AcDbPoint
 10
-156.9999389648429
 20
-12.49996948241998
 30
0.0
  0
POINT
  5
2B1F
330
1E17
100
AcDbEntity
  8
DEFPOINTS
 62
     0
100
AcDbPoint
 10
-173.9999999999989
 20
-12.49996948241997
 30
0.0
  0
ENDBLK
  5
1E22
330
1E17
100
AcDbEntity
  8
0
100
AcDbBlockEnd
  0
BLOCK
  5
2A79
330
2A6F
100
AcDbEntity
  8
0
100
AcDbBlockBegin
  2
*D10
 70
     1
 10
0.0
 20
0.0
 30
0.0
  3
*D10
  1

  0
LINE
  5
2B20
330
2A6F
100
AcDbEntity
  8
AM_5
 62
     3
100
AcDbLine
 10
0.0000000000000027
 20
13.50000000000505
 30
0.0
 11
0.0000000000000036
 21
28.50000000000505
 31
0.0
  0
LINE
  5
2B21
330
2A6F
100
AcDbEntity
  8
AM_5
 62
     3
100
AcDbLine
 10
-8.999999999999976
 20
13.50000000000505
 30
0.0
 11
-8.999999999999975
 21
28.50000000000505
 31
0.0
  0
LINE
  5
2B22
330
2A6F
100
AcDbEntity
  8
AM_5
 62
     3
100
AcDbLine
 10
-2.499999999999996
 20
27.50000000000506
 30
0.0
 11
-6.499999999999976
 21
27.50000000000506
 31
0.0
  0
INSERT
  5
2B23
330
2A6F
100
AcDbEntity
  8
AM_5
 62
     3
100
AcDbBlockReference
  2
_OPEN30
 10
0.0000000000000035
 20
27.50000000000506
 30
0.0
 41
2.5
 42
2.5
 43
2.5
  0
INSERT
  5
2B24
330
2A6F
100
AcDbEntity
  8
AM_5
 62
     3
100
AcDbBlockReference
  2
_OPEN30
 10
-8.999999999999976
 20
27.50000000000506
 30
0.0
 41
2.5
 42
2.5
 43
2.5
 50
180.0
  0
MTEXT
  5
2B25
330
2A6F
100
AcDbEntity
  8
AM_5
 62
     2
100
AcDbMText
 10
-4.499999999999986
 20
30.90000000000506
 30
0.0
 40
3.799999999999999
 41
0.0
 71
     5
 72
     1
  1
9
1001
ACAD
1000
MTEXTBEGIN
1070
    73
1070
     1
1070
    44
1040
1.0
1070
    74
1070
     0
1000
MTEXTEND
  0
POINT
  5
2B26
330
2A6F
100
AcDbEntity
  8
DEFPOINTS
 62
     0
100
AcDbPoint
 10
0.0000000000000027
 20
13.50000000000505
 30
0.0
  0
POINT
  5
2B27
330
2A6F
100
AcDbEntity
  8
DEFPOINTS
 62
     0
100
AcDbPoint
 10
-8.999999999999976
 20
13.50000000000505
 30
0.0
  0
POINT
  5
2B28
330
2A6F
100
AcDbEntity
  8
DEFPOINTS
 62
     0
100
AcDbPoint
 10
-8.999999999999976
 20
27.50000000000506
 30
0.0
  0
ENDBLK
  5
2A7A
330
2A6F
100
AcDbEntity
  8
0
100
AcDbBlockEnd
  0
ENDSEC
  0
SECTION
  2
ENTITIES
  0
TEXT
  5
1142
330
1F
100
AcDbEntity
  8
AM_6
100
AcDbText
 10
-101.1904761904756
 20
-60.00000095366853
 30
0.0
 40
5.0
  1
WEM2027EL
 72
     4
 11
-79.99999999999947
 21
-57.50000095366853
 31
0.0
100
AcDbText
  0
DIMENSION
  5
155D
330
1F
100
AcDbEntity
  8
AM_5
100
AcDbDimension
  2
*D5
 10
-35.00000762939497
 20
-27.50000095366861
 30
0.0
 11
-17.50000381469748
 21
-24.10000095366861
 31
0.0
 70
    32
  1
<>
  3
AM_JIS$0
100
AcDbAlignedDimension
 13
-0.0000000000000008
 23
-6.0
 33
0.0
 14
-35.00000762939497
 24
-12.00009155272999
 34
0.0
 50
0.0000000000001132
100
AcDbRotatedDimension
1001
ACAD
1000
DSTYLE
1002
{
1070
   171
1070
     0
1070
   271
1070
     0
1002
}
1001
GENIUS_GENDTOL_13
1000

1000
h7
1000

1040
0.0
  0
DIMENSION
  5
15E8
330
1F
100
AcDbEntity
  8
AM_5
100
AcDbDimension
  2
*D6
 10
-159.9999999999989
 20
-27.50000095366885
 30
0.0
 11
-97.50000381469698
 21
-24.10000095366886
 31
0.0
 70
    32
  1
<>
  3
AM_JIS$0
100
AcDbAlignedDimension
 13
-35.00000762939497
 23
-12.24999999999497
 33
0.0
 14
-159.9999999999989
 24
-10.16149902342994
 34
0.0
 50
0.0000000000001132
100
AcDbRotatedDimension
1001
ACAD
1000
DSTYLE
1002
{
1070
   171
1070
     0
1070
   271
1070
     0
1002
}
1001
GENIUS_GENDTOL_13
1000

1000
h7
1000

1040
0.0
  0
DIMENSION
  5
1673
330
1F
100
AcDbEntity
  8
AM_5
100
AcDbDimension
  2
*D7
 10
0.0000000000000183
 20
-37.50000095366853
 30
0.0
 11
-79.99999999999947
 21
-34.10000095366854
 31
0.0
 70
    32
  1
<>
  3
AM_JIS$0
100
AcDbAlignedDimension
 13
-159.9999999999989
 23
-10.16149902342994
 33
0.0
 14
0.0000000000000198
 24
-12.49999999999996
 34
0.0
 50
0.0000000000001132
100
AcDbRotatedDimension
1001
ACAD
1000
DSTYLE
1002
{
1070
   171
1070
     0
1070
   271
1070
     0
1002
}
1001
GENIUS_GENDTOL_13
1000

1000
h7
1000

1040
0.0
  0
DIMENSION
  5
1895
330
1F
100
AcDbEntity
  8
AM_5
100
AcDbDimension
  2
*D8
 10
14.00000000000002
 20
13.50000000000505
 30
0.0
 11
10.60000000000002
 21
-0.0000004768317434
 31
0.0
 70
    32
  1
%%c<>
  3
AM_JIS$0
100
AcDbAlignedDimension
 13
0.0000000000000199
 23
-13.50000095366854
 33
0.0
 14
0.000000000000024
 24
13.50000000000505
 34
0.0
 50
90.00000000000003
100
AcDbRotatedDimension
1001
ACAD
1000
DSTYLE
1002
{
1070
   171
1070
     0
1070
   271
1070
     0
1002
}
1001
GENIUS_GENDTOL_13
1000

1000
h7
1000

1040
0.0
  0
DIMENSION
  5
1E16
330
1F
100
AcDbEntity
  8
AM_5
100
AcDbDimension
  2
*D9
 10
-173.9999999999989
 20
-12.49996948241997
 30
0.0
 11
-173.9999999999989
 21
0.0000152587900376
 31
0.0
 70
   160
  1
%%c<>
  3
AM_JIS$0
100
AcDbAlignedDimension
 13
-156.9999999999989
 23
12.50000000000001
 33
0.0
 14
-156.9999389648429
 24
-12.49996948241998
 34
0.0
 50
270.0
100
AcDbRotatedDimension
1001
ACAD
1000
DSTYLE
1002
{
1070
   171
1070
     0
1070
   271
1070
     0
1002
}
1001
GENIUS_GENDTOL_13
1000

1000
h7
1000

1040
0.0
  0
LINE
  5
265E
330
1F
100
AcDbEntity
  8
AM_7
  6
AM_ISO08W050X2
100
AcDbLine
 10
1.899589538574027
 20
0.000000000005018
 30
0.0
 11
-163.7581843182377
 21
0.0000000000050383
 31
0.0
  0
LINE
  5
2903
330
1F
100
AcDbEntity
  8
AM_7
  6
AM_ISO08W050X2
100
AcDbLine
 10
-163.0993233196886
 20
0.0000000000050773
 30
0.0
 11
1.263565063477024
 21
0.0000000000050571
 31
0.0
  0
LINE
  5
2904
330
1F
100
AcDbEntity
  8
AM_0
100
AcDbLine
 10
-157.0011100769029
 20
-12.50000095366852
 30
0.0
 11
-38.00111007690397
 21
-12.50000095366853
 31
0.0
  0
LINE
  5
2905
330
1F
100
AcDbEntity
  8
AM_0
100
AcDbLine
 10
-38.00111007690397
 20
12.50000000000506
 30
0.0
 11
-157.0011100769029
 21
12.50000000000507
 31
0.0
  0
LINE
  5
2906
330
1F
100
AcDbEntity
  8
AM_11
100
AcDbLine
 10
0.0000000000000199
 20
-13.50000095366854
 30
0.0
 11
0.0000000000000232
 21
13.50000000000505
 31
0.0
  0
LINE
  5
2907
330
1F
100
AcDbEntity
  8
AM_11
100
AcDbLine
 10
-8.999999999999966
 20
-13.50000095366854
 30
0.0
 11
-8.999999999999976
 21
13.50000000000505
 31
0.0
  0
LINE
  5
2908
330
1F
100
AcDbEntity
  8
AM_0
100
AcDbLine
 10
-11.43335723876898
 20
5.702719062571759
 30
0.0
 11
-6.311454772948983
 21
5.479086458688058
 31
0.0
  0
LINE
  5
2909
330
1F
100
AcDbEntity
  8
AM_0
100
AcDbLine
 10
-35.00111007690398
 20
-12.50000095366853
 30
0.0
 11
-35.00111007690398
 21
12.50000000000506
 31
0.0
  0
LINE
  5
290A
330
1F
100
AcDbEntity
  8
AM_0
100
AcDbLine
 10
-34.50111007690397
 20
-13.00000095366853
 30
0.0
 11
-34.50111007690397
 21
13.00000000000506
 31
0.0
  0
LINE
  5
290B
330
1F
100
AcDbEntity
  8
AM_0
100
AcDbLine
 10
-17.09327697753898
 20
0.0074462890675594
 30
0.0
 11
-17.09327697753898
 21
6.781402587895659
 31
0.0
  0
LINE
  5
290C
330
1F
100
AcDbEntity
  8
AM_0
100
AcDbLine
 10
-38.00111007690397
 20
-12.50000095366853
 30
0.0
 11
-38.00111007690397
 21
12.50000000000506
 31
0.0
  0
SPLINE
  5
290D
330
1F
100
AcDbEntity
  8
AM_0
100
AcDbSpline
210
0.0
220
0.0
230
1.0
 70
     8
 71
     3
 72
    11
 73
     7
 74
     5
 42
0.0000000001
 43
0.0000000001
 44
0.0000000001
 40
0.0
 40
0.0
 40
0.0
 40
0.0
 40
1.438974373362963
 40
2.884487634783028
 40
4.332676534509467
 40
5.780941086521414
 40
5.780941086521414
 40
5.780941086521414
 40
5.780941086521414
 10
-17.09327697753898
 20
6.781402587895659
 30
0.0
 10
-16.63682458029452
 20
6.633221120277031
 30
0.0
 10
-15.7218456063176
 20
6.336184829039257
 30
0.0
 10
-14.31053270705149
 20
6.021683768104741
 30
0.0
 10
-12.87933973175562
 20
5.795526576438765
 30
0.0
 10
-11.91536488202735
 20
5.733661578421892
 30
0.0
 10
-11.43336486816398
 20
5.702728271489459
 30
0.0
 11
-17.09327697753898
 21
6.781402587895659
 31
0.0
 11
-15.71779632568297
 21
6.358673095708159
 31
0.0
 11
-14.30860137939398
 21
6.036682114010159
 31
0.0
 11
-12.87705230712797
 21
5.817779526119559
 31
0.0
 11
-11.43336486816398
 21
5.702728271489459
 31
0.0
  0
SPLINE
  5
290E
330
1F
100
AcDbEntity
  8
AM_0
100
AcDbSpline
210
0.0
220
0.0
230
1.0
 70
     8
 71
     3
 72
    11
 73
     7
 74
     5
 42
0.0000000001
 43
0.0000000001
 44
0.0000000001
 40
0.0
 40
0.0
 40
0.0
 40
0.0
 40
0.0609379719447292
 40
0.2339371057573702
 40
0.4936588020313616
 40
0.8003731382025765
 40
0.8003731382025765
 40
0.8003731382025765
 40
0.8003731382025765
 10
-1.417724609374977
 20
5.265441894536257
 30
0.0
 10
-1.419050266622287
 20
5.285723314414992
 30
0.0
 10
-1.424139382813145
 20
5.363582431081771
 30
0.0
 10
-1.41179951723133
 20
5.528124609291088
 30
0.0
 10
-1.400043467200218
 20
5.774127679441811
 30
0.0
 10
-1.386994406825598
 20
5.962528955719637
 30
0.0
 10
-1.37992858886698
 20
6.064544662838257
 30
0.0
 11
-1.417724609374977
 21
5.265441894536257
 31
0.0
 11
-1.420959472655972
 21
5.326293945317557
 31
0.0
 11
-1.41459655761698
 21
5.499176025395657
 31
0.0
 11
-1.39994049072198
 21
5.758483871822657
 31
0.0
 11
-1.37992858886698
 21
6.064544662838257
 31
0.0
  0
SPLINE
  5
290F
330
1F
100
AcDbEntity
  8
AM_0
100
AcDbSpline
210
0.0
220
0.0
230
1.0
 70
     8
 71
     3
 72
    11
 73
     7
 74
     5
 42
0.0000000001
 43
0.0000000001
 44
0.0000000001
 40
0.0
 40
0.0
 40
0.0
 40
0.0
 40
0.3928896512497506
 40
0.7857866929438763
 40
1.178712862735449
 40
1.571625278542893
 40
1.571625278542893
 40
1.571625278542893
 40
1.571625278542893
 10
-1.210311889647974
 20
6.829437255864458
 30
0.0
 10
-1.217492144046065
 20
6.698671004379734
 30
0.0
 10
-1.231852787906304
 20
6.437136041633845
 30
0.0
 10
-1.252872894596172
 20
6.044794397488036
 30
0.0
 10
-1.273413270801825
 20
5.652419355139356
 30
0.0
 10
-1.286318089383272
 20
5.390791090715472
 30
0.0
 10
-1.29277038574198
 20
5.259979248051958
 30
0.0
 11
-1.210311889647974
 21
6.829437255864458
 31
0.0
 11
-1.231765747069977
 21
6.437133789067557
 31
0.0
 11
-1.252792358397974
 21
6.044799789791357
 31
0.0
 11
-1.273216247557974
 21
5.652404785161257
 31
0.0
 11
-1.29277038574198
 21
5.259979248051958
 31
0.0
  0
ARC
  5
2910
330
1F
100
AcDbEntity
  8
AM_0
100
AcDbCircle
 10
-9.772804260252971
 20
25.64929103851745
 30
0.0
 40
19.984603881835
100
AcDbArc
 50
237.5765344389168
 51
265.7776478614684
  0
SPLINE
  5
2911
330
1F
100
AcDbEntity
  8
AM_0
100
AcDbSpline
210
0.0
220
0.0
230
1.0
 70
     8
 71
     3
 72
    11
 73
     7
 74
     5
 42
0.0000000001
 43
0.0000000001
 44
0.0000000001
 40
0.0
 40
0.0
 40
0.0
 40
0.0
 40
0.4615021004203076
 40
0.9143491373463998
 40
1.327814388743435
 40
1.569530257206741
 40
1.569530257206741
 40
1.569530257206741
 40
1.569530257206741
 10
-25.52224731445297
 20
12.98272705078626
 30
0.0
 10
-25.67608211740745
 20
12.98248755738102
 30
0.0
 10
-25.98086668772073
 20
12.98201306205743
 30
0.0
 10
-26.42346039514345
 20
12.98628940102824
 30
0.0
 10
-26.79274478303952
 20
12.99301666439903
 30
0.0
 10
-27.01107901437357
 20
12.99811797447397
 30
0.0
 10
-27.09162902831998
 20
13.00000000000506
 30
0.0
 11
-25.52224731445297
 21
12.98272705078626
 31
0.0
 11
-25.98374938964797
 21
12.98287963867696
 31
0.0
 11
-26.43657684326097
 21
12.98709106445816
 31
0.0
 11
-26.84997558593698
 21
12.99450683594256
 31
0.0
 11
-27.09162902831998
 21
13.00000000000506
 31
0.0
  0
SPLINE
  5
2912
330
1F
100
AcDbEntity
  8
AM_0
100
AcDbSpline
210
0.0
220
0.0
230
1.0
 70
     8
 71
     3
 72
    11
 73
     7
 74
     5
 42
0.0000000001
 43
0.0000000001
 44
0.0000000001
 40
0.0
 40
0.0
 40
0.0
 40
0.0
 40
1.103085225095695
 40
2.242135084802888
 40
3.406764584534018
 40
4.589219961177458
 40
4.589219961177458
 40
4.589219961177458
 40
4.589219961177458
 10
-21.19689178466698
 20
8.811065673833159
 30
0.0
 10
-20.88677308277286
 20
8.613270151298946
 30
0.0
 10
-20.25642466893202
 20
8.211230244860709
 30
0.0
 10
-19.25232475165484
 20
7.678730313776288
 30
0.0
 10
-18.19716259864382
 20
7.18961573708164
 30
0.0
 10
-17.46309723578896
 20
6.918160861911312
 30
0.0
 10
-17.09327697753898
 20
6.781402587895659
 30
0.0
 11
-21.19689178466698
 21
8.811065673833159
 31
0.0
 11
-20.25915527343698
 21
8.230163574223759
 31
0.0
 11
-19.25539398193297
 21
7.691741943364459
 31
0.0
 11
-18.19673156738198
 21
7.20635986328626
 31
0.0
 11
-17.09327697753898
 21
6.781402587895659
 31
0.0
  0
SPLINE
  5
2913
330
1F
100
AcDbEntity
  8
AM_0
100
AcDbSpline
210
0.0
220
0.0
230
1.0
 70
     8
 71
     3
 72
    11
 73
     7
 74
     5
 42
0.0000000001
 43
0.0000000001
 44
0.0000000001
 40
0.0
 40
0.0
 40
0.0
 40
0.0
 40
0.3441926723634192
 40
0.6876551745234197
 40
1.031418207517013
 40
1.375544894966308
 40
1.375544894966308
 40
1.375544894966308
 40
1.375544894966308
 10
-8.621719360350972
 20
6.380737304692558
 30
0.0
 10
-8.71727004032841
 20
6.316640633083478
 30
0.0
 10
-8.908168699107349
 20
6.188583264519937
 30
0.0
 10
-9.230946007518916
 20
6.063920130737867
 30
0.0
 10
-9.568223272376886
 20
5.987171486679071
 30
0.0
 10
-9.798142062726199
 20
5.985775334519861
 30
0.0
 10
-9.913162231444978
 20
5.985076889400758
 30
0.0
 11
-8.621719360350972
 21
6.380737304692558
 31
0.0
 11
-8.914459228514978
 21
6.199707016353858
 31
0.0
 11
-9.233268737791981
 21
6.071929916744558
 31
0.0
 11
-9.569343566893984
 21
5.999633775097758
 31
0.0
 11
-9.913162231444978
 21
5.985076889400758
 31
0.0
  0
SPLINE
  5
2914
330
1F
100
AcDbEntity
  8
AM_0
100
AcDbSpline
210
0.0
220
0.0
230
1.0
 70
     8
 71
     3
 72
    11
 73
     7
 74
     5
 42
0.0000000001
 43
0.0000000001
 44
0.0000000001
 40
0.0
 40
0.0
 40
0.0
 40
0.0
 40
0.1729419796389271
 40
0.3466387341329622
 40
0.5216432227568701
 40
0.698127715457953
 40
0.698127715457953
 40
0.698127715457953
 40
0.698127715457953
 10
-10.56811523437497
 20
6.128540024166358
 30
0.0
 10
-10.62091330493054
 20
6.151787204764598
 30
0.0
 10
-10.72673987393509
 20
6.198383024192353
 30
0.0
 10
-10.87718211122187
 20
6.28616175261941
 30
0.0
 10
-11.02153376343052
 20
6.385699577290122
 30
0.0
 10
-11.11013685432992
 20
6.462483819837675
 30
0.0
 10
-11.15462493896398
 20
6.501037597661259
 30
0.0
 11
-10.56811523437497
 21
6.128540024166358
 31
0.0
 11
-10.72505187988198
 21
6.201202377682058
 31
0.0
 11
-10.87563323974597
 21
6.287780761723758
 31
0.0
 11
-11.01914215087797
 21
6.387939453130059
 31
0.0
 11
-11.15462493896398
 21
6.501037597661259
 31
0.0
  0
SPLINE
  5
2915
330
1F
100
AcDbEntity
  8
AM_0
100
AcDbSpline
210
0.0
220
0.0
230
1.0
 70
     8
 71
     3
 72
    11
 73
     7
 74
     5
 42
0.0000000001
 43
0.0000000001
 44
0.0000000001
 40
0.0
 40
0.0
 40
0.0
 40
0.0
 40
0.1700139716718705
 40
0.339024707082023
 40
0.5067320800250548
 40
0.6735954808940678
 40
0.6735954808940678
 40
0.6735954808940678
 40
0.6735954808940678
 10
-9.913162231444978
 20
5.985076889400758
 30
0.0
 10
-9.969726742794716
 20
5.989088850528039
 30
0.0
 10
-10.08252198369759
 20
5.997089098581923
 30
0.0
 10
-10.24907057351361
 20
6.026751101572349
 30
0.0
 10
-10.41185149403243
 20
6.068895153755901
 30
0.0
 10
-10.5161149909479
 20
6.108691863782374
 30
0.0
 10
-10.56811523437497
 20
6.128540024166358
 30
0.0
 11
-9.913162231444978
 21
5.985076889400758
 31
0.0
 11
-10.08251190185497
 21
6.000091538769558
 31
0.0
 11
-10.24903869628898
 21
6.028961166744558
 31
0.0
 11
-10.41114807128898
 21
6.071929916744558
 31
0.0
 11
-10.56811523437497
 21
6.128540024166358
 31
0.0
  0
SPLINE
  5
2916
330
1F
100
AcDbEntity
  8
AM_0
100
AcDbSpline
210
0.0
220
0.0
230
1.0
 70
     8
 71
     3
 72
    11
 73
     7
 74
     5
 42
0.0000000001
 43
0.0000000001
 44
0.0000000001
 40
0.0
 40
0.0
 40
0.0
 40
0.0
 40
0.0236080096669915
 40
0.0472220407679001
 40
0.0708284526778269
 40
0.0944440810203196
 40
0.0944440810203196
 40
0.0944440810203196
 40
0.0944440810203196
 10
-16.99896240234297
 20
12.99505615234876
 30
0.0
 10
-17.0068205433224
 20
12.99547580884417
 30
0.0
 10
-17.02253882957037
 20
12.99631522887213
 30
0.0
 10
-17.04611716241504
 20
12.99752777546203
 30
0.0
 10
-17.0696979783603
 20
12.99874147389789
 30
0.0
 10
-17.08541628855335
 20
12.99958043672191
 30
0.0
 10
-17.09327697753898
 20
13.00000000000506
 30
0.0
 11
-16.99896240234297
 21
12.99505615234876
 31
0.0
 11
-17.02253723144497
 21
12.99630737305196
 31
0.0
 11
-17.04611968994097
 21
12.99752807617696
 31
0.0
 11
-17.06969451904198
 21
12.99874877930196
 31
0.0
 11
-17.09327697753898
 21
13.00000000000506
 31
0.0
  0
SPLINE
  5
2917
330
1F
100
AcDbEntity
  8
AM_0
100
AcDbSpline
210
0.0
220
0.0
230
1.0
 70
     8
 71
     3
 72
    11
 73
     7
 74
     5
 42
0.0000000001
 43
0.0000000001
 44
0.0000000001
 40
0.0
 40
0.0
 40
0.0
 40
0.0
 40
0.0391503092166814
 40
0.0783055898897441
 40
0.1174470369297256
 40
0.1565888089034352
 40
0.1565888089034352
 40
0.1565888089034352
 40
0.1565888089034352
 10
-0.2147369384759709
 20
13.09478759766125
 30
0.0
 10
-0.2267543992705228
 20
13.09990419361896
 30
0.0
 10
-0.2507908468828778
 20
13.11013803525935
 30
0.0
 10
-0.2885148520198785
 20
13.12091286258213
 30
0.0
 10
-0.3270230965491812
 20
13.12837144305106
 30
0.0
 10
-0.353071993863598
 20
13.1302335122982
 30
0.0
 10
-0.3660964965819797
 20
13.13116455078625
 30
0.0
 11
-0.2147369384759709
 21
13.09478759766125
 31
0.0
 11
-0.2510681152339824
 21
13.10937500000505
 31
0.0
 11
-0.2886505126949767
 21
13.12036132813005
 31
0.0
 11
-0.3271179199209708
 21
13.12759399414565
 31
0.0
 11
-0.3660964965819797
 21
13.13116455078625
 31
0.0
  0
SPLINE
  5
2918
330
1F
100
AcDbEntity
  8
AM_0
100
AcDbSpline
210
0.0
220
0.0
230
1.0
 70
     8
 71
     3
 72
    11
 73
     7
 74
     5
 42
0.0000000001
 43
0.0000000001
 44
0.0000000001
 40
0.0
 40
0.0
 40
0.0
 40
0.0
 40
1.051209947396468
 40
2.102504568912722
 40
3.15388154415614
 40
4.205373361478079
 40
4.205373361478079
 40
4.205373361478079
 40
4.205373361478079
 10
-0.7229003906249777
 20
7.433837890630057
 30
0.0
 10
-0.6695167418856503
 20
7.780150855740281
 30
0.0
 10
-0.5627451443968225
 20
8.472804681192851
 30
0.0
 10
-0.4026411531999179
 20
9.511835705031074
 30
0.0
 10
-0.2425901899001603
 20
10.55096996335232
 30
0.0
 10
-0.1359292217564858
 20
11.2437636717209
 30
0.0
 10
-0.0825958251949769
 20
11.59017944336445
 30
0.0
 11
-0.7229003906249777
 21
7.433837890630057
 31
0.0
 11
-0.5627593994139831
 21
8.472778320317557
 31
0.0
 11
-0.402656555174977
 21
9.511810302739457
 31
0.0
 11
-0.2426071166989828
 21
10.55093383789565
 31
0.0
 11
-0.0825958251949769
 21
11.59017944336445
 31
0.0
  0
SPLINE
  5
2919
330
1F
100
AcDbEntity
  8
AM_0
100
AcDbSpline
210
0.0
220
0.0
230
1.0
 70
     8
 71
     3
 72
    11
 73
     7
 74
     5
 42
0.0000000001
 43
0.0000000001
 44
0.0000000001
 40
0.0
 40
0.0
 40
0.0
 40
0.0
 40
0.2881825019547498
 40
0.5746989674102922
 40
0.8595808568025834
 40
1.143903645037908
 40
1.143903645037908
 40
1.143903645037908
 40
1.143903645037908
 10
-1.540184020995971
 20
6.772216796880057
 30
0.0
 10
-1.443232220850153
 20
6.778716845634536
 30
0.0
 10
-1.249889116898894
 20
6.791679365155941
 30
0.0
 10
-0.9937425508071465
 20
6.936869408166722
 30
0.0
 10
-0.7973224196035334
 20
7.155499904497963
 30
0.0
 10
-0.7476914836262085
 20
7.341119336800191
 30
0.0
 10
-0.7229003906249777
 20
7.433837890630057
 30
0.0
 11
-1.540184020995971
 21
6.772216796880057
 31
0.0
 11
-1.254882812499977
 21
6.812866210942557
 31
0.0
 11
-1.003089904784977
 21
6.949584960942557
 31
0.0
 11
-0.8174896240229745
 21
7.165710449223757
 31
0.0
 11
-0.7229003906249777
 21
7.433837890630057
 31
0.0
  0
SPLINE
  5
291A
330
1F
100
AcDbEntity
  8
AM_0
100
AcDbSpline
210
0.0
220
0.0
230
1.0
 70
     8
 71
     3
 72
    11
 73
     7
 74
     5
 42
0.0000000001
 43
0.0000000001
 44
0.0000000001
 40
0.0
 40
0.0
 40
0.0
 40
0.0
 40
2.224824739652686
 40
4.443875289477984
 40
6.664033711477762
 40
8.888903411788676
 40
8.888903411788676
 40
8.888903411788676
 40
8.888903411788676
 10
-1.540184020995971
 20
6.772216796880057
 30
0.0
 10
-2.28147855447318
 20
6.794479719495255
 30
0.0
 10
-3.762143705679082
 20
6.838947784740108
 30
0.0
 10
-5.983421748380711
 20
6.861897464958401
 30
0.0
 10
-8.204684838746041
 20
6.889700152383428
 30
0.0
 10
-9.685574141412923
 20
6.939310420651493
 30
0.0
 10
-10.42680358886698
 20
6.964141845708158
 30
0.0
 11
-1.540184020995971
 21
6.772216796880057
 31
0.0
 11
-3.764213562010971
 21
6.831695556645658
 31
0.0
 11
-5.983047485350971
 21
6.862701416020658
 31
0.0
 11
-8.202934265135972
 21
6.897430419926958
 31
0.0
 11
-10.42680358886698
 21
6.964141845708158
 31
0.0
  0
SPLINE
  5
291B
330
1F
100
AcDbEntity
  8
AM_0
100
AcDbSpline
210
0.0
220
0.0
230
1.0
 70
     8
 71
     3
 72
    11
 73
     7
 74
     5
 42
0.0000000001
 43
0.0000000001
 44
0.0000000001
 40
0.0
 40
0.0
 40
0.0
 40
0.0
 40
0.1142315205152608
 40
0.2282985080848947
 40
0.3425095669685149
 40
0.4571707979779714
 40
0.4571707979779714
 40
0.4571707979779714
 40
0.4571707979779714
 10
-10.78431701660097
 20
7.378570556645658
 30
0.0
 10
-10.78508132369862
 20
7.340214109251151
 30
0.0
 10
-10.78660883702705
 20
7.263556461028454
 30
0.0
 10
-10.74713475453875
 20
7.154143780136546
 30
0.0
 10
-10.67852525785337
 20
7.059376519883029
 30
0.0
 10
-10.61222522794819
 20
7.020184080288728
 30
0.0
 10
-10.57901000976497
 20
7.000549316411258
 30
0.0
 11
-10.78431701660097
 21
7.378570556645658
 31
0.0
 11
-10.77964019775297
 21
7.264434814458158
 31
0.0
 11
-10.74231719970698
 21
7.156646728520658
 31
0.0
 11
-10.67350769042898
 21
7.065490722661258
 31
0.0
 11
-10.57901000976497
 21
7.000549316411258
 31
0.0
  0
SPLINE
  5
291C
330
1F
100
AcDbEntity
  8
AM_0
100
AcDbSpline
210
0.0
220
0.0
230
1.0
 70
     8
 71
     3
 72
    11
 73
     7
 74
     5
 42
0.0000000001
 43
0.0000000001
 44
0.0000000001
 40
0.0
 40
0.0
 40
0.0
 40
0.0
 40
1.054468899276429
 40
2.109036291837663
 40
3.163670810394195
 40
4.2183724745702
 40
4.2183724745702
 40
4.2183724745702
 40
4.2183724745702
 10
-9.927047729491979
 20
12.65521240234876
 30
0.0
 10
-9.989399984472974
 20
12.30929744331094
 30
0.0
 10
-10.11411031848383
 20
11.61743521484605
 30
0.0
 10
-10.30100395308747
 20
10.57957149014274
 30
0.0
 10
-10.48778908638735
 20
9.541609398068235
 30
0.0
 10
-10.61219526179846
 20
8.849590846699216
 30
0.0
 10
-10.67440032958898
 20
8.503570556645659
 30
0.0
 11
-9.927047729491979
 21
12.65521240234876
 31
0.0
 11
-10.11407470703097
 21
11.61746215820816
 31
0.0
 11
-10.30097961425697
 21
10.57958984375505
 31
0.0
 11
-10.48775482177698
 21
9.541625976567559
 31
0.0
 11
-10.67440032958898
 21
8.503570556645659
 31
0.0
  0
SPLINE
  5
291D
330
1F
100
AcDbEntity
  8
AM_0
100
AcDbSpline
210
0.0
220
0.0
230
1.0
 70
     8
 71
     3
 72
    11
 73
     7
 74
     5
 42
0.0000000001
 43
0.0000000001
 44
0.0000000001
 40
0.0
 40
0.0
 40
0.0
 40
0.0
 40
0.2876807661067863
 40
0.5764620685639754
 40
0.8646007847791615
 40
1.150990251659131
 40
1.150990251659131
 40
1.150990251659131
 40
1.150990251659131
 10
-9.095581054686979
 20
13.31622314453626
 30
0.0
 10
-9.192333728469836
 20
13.30959354576316
 30
0.0
 10
-9.386209207956214
 20
13.29630898637392
 30
0.0
 10
-9.644061373032169
 20
13.15117315106528
 30
0.0
 10
-9.845094419750211
 20
12.93387687201832
 30
0.0
 10
-9.899785464992381
 20
12.74791182477245
 30
0.0
 10
-9.927047729491979
 20
12.65521240234876
 30
0.0
 11
-9.095581054686979
 21
13.31622314453626
 31
0.0
 11
-9.380371093749976
 21
13.27554321289565
 31
0.0
 11
-9.634803771971979
 21
13.13894653320816
 31
0.0
 11
-9.825607299803982
 21
12.92303466797376
 31
0.0
 11
-9.927047729491979
 21
12.65521240234876
 31
0.0
  0
SPLINE
  5
291E
330
1F
100
AcDbEntity
  8
AM_0
100
AcDbSpline
210
0.0
220
0.0
230
1.0
 70
     8
 71
     3
 72
    11
 73
     7
 74
     5
 42
0.0000000001
 43
0.0000000001
 44
0.0000000001
 40
0.0
 40
0.0
 40
0.0
 40
0.0
 40
2.200365979983966
 40
4.370325273408825
 40
6.53634857078655
 40
8.73082147311174
 40
8.73082147311174
 40
8.73082147311174
 40
8.73082147311174
 10
-0.3669433593749769
 20
13.13119506836445
 30
0.0
 10
-1.100011108992944
 20
13.15575036973697
 30
0.0
 10
-2.556016401939566
 20
13.20452164467971
 30
0.0
 10
-4.734729702707433
 20
13.23013089178685
 30
0.0
 10
-6.911503830778915
 20
13.25086587376042
 30
0.0
 10
-8.364395566265843
 20
13.2943428339726
 30
0.0
 10
-9.095581054686979
 20
13.31622314453626
 30
0.0
 11
-0.3669433593749769
 21
13.13119506836445
 31
0.0
 11
-2.566329956053982
 21
13.19683837891125
 31
0.0
 11
-4.736045837401979
 21
13.22933959961445
 31
0.0
 11
-6.901878356932973
 21
13.25808715820815
 31
0.0
 11
-9.095581054686979
 21
13.31622314453626
 31
0.0
  0
SPLINE
  5
291F
330
1F
100
AcDbEntity
  8
AM_0
100
AcDbSpline
210
0.0
220
0.0
230
1.0
 70
     8
 71
     3
 72
    11
 73
     7
 74
     5
 42
0.0000000001
 43
0.0000000001
 44
0.0000000001
 40
0.0
 40
0.0
 40
0.0
 40
0.0
 40
0.2160953865967005
 40
0.43220499121308
 40
0.6482752853803932
 40
0.8643469918304955
 40
0.8643469918304955
 40
0.8643469918304955
 40
0.8643469918304955
 10
-6.255264282225971
 20
8.541564941411257
 30
0.0
 10
-6.191915879670911
 20
8.507066555719118
 30
0.0
 10
-6.065214906545691
 20
8.43806751450977
 30
0.0
 10
-5.860963923152626
 20
8.365396607088726
 30
0.0
 10
-5.650192233448431
 20
8.314664976935649
 30
0.0
 10
-5.506388493911074
 20
8.303313630983092
 30
0.0
 10
-5.434486389159977
 20
8.297637939458157
 30
0.0
 11
-6.255264282225971
 21
8.541564941411257
 31
0.0
 11
-6.062850952147974
 21
8.443206787114457
 31
0.0
 11
-5.859863281249977
 21
8.369049072270657
 31
0.0
 11
-5.64936828613198
 21
8.320281982426957
 31
0.0
 11
-5.434486389159977
 21
8.297637939458157
 31
0.0
  0
SPLINE
  5
2920
330
1F
100
AcDbEntity
  8
AM_0
100
AcDbSpline
210
0.0
220
0.0
230
1.0
 70
     8
 71
     3
 72
    11
 73
     7
 74
     5
 42
0.0000000001
 43
0.0000000001
 44
0.0000000001
 40
0.0
 40
0.0
 40
0.0
 40
0.0
 40
0.1144722310778326
 40
0.2294942281901855
 40
0.3449267203623902
 40
0.4605230607598817
 40
0.4605230607598817
 40
0.4605230607598817
 40
0.4605230607598817
 10
-0.0011062622069797
 20
12.71643066406755
 30
0.0
 10
-0.0013165192876531
 20
12.75486801714716
 30
0.0
 10
-0.0017380432327733
 20
12.83192732310826
 30
0.0
 10
-0.0437735737595719
 20
12.94119351506126
 30
0.0
 10
-0.1141863914418793
 20
13.03577410199963
 30
0.0
 10
-0.181204246194539
 20
13.07510713396569
 30
0.0
 10
-0.2147369384759709
 20
13.09478759766125
 30
0.0
 11
-0.0011062622069797
 21
12.71643066406755
 31
0.0
 11
-0.0085906982419797
 21
12.83065795898945
 31
0.0
 11
-0.0484085082999766
 21
12.93856811523945
 31
0.0
 11
-0.1191482543939823
 21
13.02978515625505
 31
0.0
 11
-0.2147369384759709
 21
13.09478759766125
 31
0.0
  0
SPLINE
  5
2921
330
1F
100
AcDbEntity
  8
AM_0
100
AcDbSpline
210
0.0
220
0.0
230
1.0
 70
     8
 71
     3
 72
    11
 73
     7
 74
     5
 42
0.0000000001
 43
0.0000000001
 44
0.0000000001
 40
0.0
 40
0.0
 40
0.0
 40
0.0
 40
1.129125746613403
 40
2.268748797895657
 40
3.404458430132849
 40
4.541974457202286
 40
4.541974457202286
 40
4.541974457202286
 40
4.541974457202286
 10
-5.281806945799976
 20
11.79431152344255
 30
0.0
 10
-5.667666956621188
 20
11.73294761127896
 30
0.0
 10
-6.442974258161589
 20
11.60964929630132
 30
0.0
 10
-7.148371767412017
 20
10.58383453283622
 30
0.0
 10
-7.132625700042342
 20
9.333891781086309
 30
0.0
 10
-6.547872977362565
 20
8.805813765181101
 30
0.0
 10
-6.255264282225971
 20
8.541564941411257
 30
0.0
 11
-5.281806945799976
 21
11.79431152344255
 31
0.0
 11
-6.363784790038982
 21
11.47143554688005
 31
0.0
 11
-7.02828216552698
 21
10.54559326172375
 31
0.0
 11
-6.98929595947198
 21
9.410552978520657
 31
0.0
 11
-6.255264282225971
 21
8.541564941411257
 31
0.0
  0
SPLINE
  5
2922
330
1F
100
AcDbEntity
  8
AM_0
100
AcDbSpline
210
0.0
220
0.0
230
1.0
 70
     8
 71
     3
 72
    11
 73
     7
 74
     5
 42
0.0000000001
 43
0.0000000001
 44
0.0000000001
 40
0.0
 40
0.0
 40
0.0
 40
0.0
 40
1.341272168937169
 40
2.677353196967602
 40
4.018647096193755
 40
5.347254925633389
 40
5.347254925633389
 40
5.347254925633389
 40
5.347254925633389
 10
-5.434486389159977
 20
8.297637939458157
 30
0.0
 10
-4.971481096316558
 20
8.387460148115224
 30
0.0
 10
-4.04726248527243
 20
8.566756925515175
 30
0.0
 10
-3.428474614934528
 20
9.965492521954292
 30
0.0
 10
-3.936580736650141
 20
11.39909482637818
 30
0.0
 10
-4.834820875647696
 20
11.66299059237698
 30
0.0
 10
-5.281806945799976
 20
11.79431152344255
 30
0.0
 11
-5.434486389159977
 21
8.297637939458157
 31
0.0
 11
-4.17395782470698
 21
8.755981445317557
 31
0.0
 11
-3.616508483885971
 21
9.970214843755057
 31
0.0
 11
-4.079421997069976
 21
11.22909545898945
 31
0.0
 11
-5.281806945799976
 21
11.79431152344255
 31
0.0
  0
SPLINE
  5
2923
330
1F
100
AcDbEntity
  8
AM_0
100
AcDbSpline
210
0.0
220
0.0
230
1.0
 70
     8
 71
     3
 72
    11
 73
     7
 74
     5
 42
0.0000000001
 43
0.0000000001
 44
0.0000000001
 40
0.0
 40
0.0
 40
0.0
 40
0.0
 40
0.0391503092166311
 40
0.0782970381177384
 40
0.1174441357701345
 40
0.1565859077428486
 40
0.1565859077428486
 40
0.1565859077428486
 40
0.1565859077428486
 10
-10.57901000976497
 20
7.000549316411258
 30
0.0
 10
-10.56699365427914
 20
6.99542862723418
 30
0.0
 10
-10.54296204220925
 20
6.985187717169633
 30
0.0
 10
-10.50522257384702
 20
6.974474047812323
 30
0.0
 10
-10.46672833409557
 20
6.966953179992852
 30
0.0
 10
-10.44067582172232
 20
6.965099260150196
 30
0.0
 10
-10.42765045165997
 20
6.964172363286258
 30
0.0
 11
-10.57901000976497
 21
7.000549316411258
 31
0.0
 11
-10.54267883300698
 21
6.985961914067558
 31
0.0
 11
-10.50509643554597
 21
6.975006103520658
 31
0.0
 11
-10.46662902831997
 21
6.967742919926958
 31
0.0
 11
-10.42765045165997
 21
6.964172363286258
 31
0.0
  0
SPLINE
  5
2924
330
1F
100
AcDbEntity
  8
AM_0
100
AcDbSpline
210
0.0
220
0.0
230
1.0
 70
     8
 71
     3
 72
    11
 73
     7
 74
     5
 42
0.0000000001
 43
0.0000000001
 44
0.0000000001
 40
0.0
 40
0.0
 40
0.0
 40
0.0
 40
0.7721557469814421
 40
1.548546938662491
 40
2.328352874561538
 40
3.106935647385629
 40
3.106935647385629
 40
3.106935647385629
 40
3.106935647385629
 10
-5.097373962401979
 20
11.43569946289565
 30
0.0
 10
-4.839634873289138
 20
11.37539834019778
 30
0.0
 10
-4.322742939272436
 20
11.2544653298346
 30
0.0
 10
-3.827187408377509
 20
10.58723871981731
 30
0.0
 10
-3.726015133217973
 20
9.760579873347587
 30
0.0
 10
-4.016922463044273
 20
9.312715276522212
 30
0.0
 10
-4.162261962889977
 20
9.088958740239457
 30
0.0
 11
-5.097373962401979
 21
11.43569946289565
 31
0.0
 11
-4.370727539061979
 21
11.17453002930195
 31
0.0
 11
-3.893569946288982
 21
10.56207275391125
 31
0.0
 11
-3.815711975096979
 21
9.786163330083157
 31
0.0
 11
-4.162261962889977
 21
9.088958740239457
 31
0.0
  0
ELLIPSE
  5
2925
330
1F
100
AcDbEntity
  8
AM_0
100
AcDbEllipse
 10
-10.61029815673797
 20
6.467559814458158
 30
0.0
 11
0.0348968484979936
 21
0.7992248682834
 31
0.0
210
0.0
220
0.0
230
1.0
 40
0.0784589872819
 41
3.141593767838264
 42
4.280731898328275
  0
ELLIPSE
  5
2926
330
1F
100
AcDbEntity
  8
AM_0
100
AcDbEllipse
 10
-20.05939483642497
 20
9.454895019536259
 30
0.0
 11
0.4307403791350028
 21
0.6741332862906999
 31
0.0
210
0.0
220
0.0
230
1.0
 40
0.0679478525781
 41
3.170233300408746
 42
4.752303433211009
  0
ELLIPSE
  5
2927
330
1F
100
AcDbEntity
  8
AM_0
100
AcDbEllipse
 10
-5.425888061522974
 20
6.512817382817558
 30
0.0
 11
-1.499397302936003
 21
0.0425720226603002
 31
0.0
210
0.0
220
0.0
230
1.0
 40
0.1902212323446
 41
3.165607426296632
 42
6.145702349734166
  0
ELLIPSE
  5
2928
330
1F
100
AcDbEntity
  8
AM_0
100
AcDbEllipse
 10
-17.56633758544898
 20
0.0000000000050594
 30
0.0
 11
165.338998402704
 21
0.04496364014158
 31
0.0
210
0.0
220
0.0
230
1.0
 40
0.0786257872965
 41
1.567913763996031
 42
1.618912580547334
  0
ELLIPSE
  5
2929
330
1F
100
AcDbEntity
  8
AM_0
100
AcDbEllipse
 10
-6.625534057616981
 20
-0.0000004768321418
 30
0.0
 11
-20.48650424194799
 21
12.9928590233694
 31
0.0
210
0.0
220
0.0
230
0.9999999999999998
 40
0.0210264950388
 41
6.249229588941913
 42
7.076115448573781
  0
ELLIPSE
  5
292A
330
1F
100
AcDbEntity
  8
AM_0
100
AcDbEllipse
 10
-5.438262939452974
 20
6.076690673833158
 30
0.0
 11
0.3429028268240026
 21
7.853759645174001
 31
0.0
210
0.0
220
0.0
230
1.0
 40
0.1902199497653
 41
4.792315020405581
 42
4.817357871726973
  0
ELLIPSE
  5
292B
330
1F
100
AcDbEntity
  8
AM_0
100
AcDbEllipse
 10
-5.43827056884698
 20
6.076690673833158
 30
0.0
 11
0.3429032217379993
 21
7.8537901745834
 31
0.0
210
0.0
220
0.0
230
1.0
 40
0.1902201818323999
 41
1.477539321277331
 42
1.513178492682795
  0
ELLIPSE
  5
292C
330
1F
100
AcDbEntity
  8
AM_0
100
AcDbEllipse
 10
-5.43827819824198
 20
6.076690673833158
 30
0.0
 11
0.3429032217379993
 21
7.8537901745834
 31
0.0
210
0.0
220
0.0
230
1.0
 40
0.1902211523362
 41
4.770014684389053
 42
4.792315550075464
  0
ELLIPSE
  5
292D
330
1F
100
AcDbEntity
  8
AM_0
100
AcDbEllipse
 10
-216.2553176879849
 20
-0.053649902338716
 30
0.0
 11
298.08900882985
 21
0.0807804843751637
 31
0.0
210
0.0
220
0.0
230
1.0
 40
0.0586130053489
 41
0.8063254668346651
 42
0.8386677473248761
  0
LINE
  5
292E
330
1F
100
AcDbEntity
  8
AM_11
100
AcDbLine
 10
-8.999999999999976
 20
13.50000000000505
 30
0.0
 11
0.0000000000000232
 21
13.50000000000505
 31
0.0
  0
LINE
  5
292F
330
1F
100
AcDbEntity
  8
AM_0
100
AcDbLine
 10
-0.3669281005849764
 20
13.13120412827045
 30
0.0
 11
-0.2147293090819797
 21
13.09479808807875
 31
0.0
  0
LINE
  5
2930
330
1F
100
AcDbEntity
  8
AM_0
100
AcDbLine
 10
-0.0825881957999767
 20
11.59019041061905
 30
0.0
 11
-0.0011062622069797
 21
12.71642732620745
 31
0.0
  0
LINE
  5
2931
330
1F
100
AcDbEntity
  8
AM_0
100
AcDbLine
 10
-27.09236907958898
 20
12.99999284744766
 30
0.0
 11
-20.48799896240198
 21
8.780112504964158
 31
0.0
  0
LINE
  5
2932
330
1F
100
AcDbEntity
  8
AM_0
100
AcDbLine
 10
-19.99668121337797
 20
9.45214653015646
 30
0.0
 11
-25.52223968505797
 21
12.98271989822896
 31
0.0
  0
LINE
  5
2933
330
1F
100
AcDbEntity
  8
AM_0
100
AcDbLine
 10
-9.932540893553982
 20
12.62471723557025
 30
0.0
 11
-16.99896240234297
 21
12.99504804611715
 31
0.0
  0
ARC
  5
2934
330
1F
100
AcDbEntity
  8
AM_0
100
AcDbCircle
 10
-9.710098266600969
 20
25.64654445648645
 30
0.0
 40
19.185220718383
100
AcDbArc
 50
237.5765344389168
 51
265.6852149114302
  0
LINE
  5
2935
330
1F
100
AcDbEntity
  8
AM_0
100
AcDbLine
 10
-1.37992095947198
 20
6.064533218746457
 30
0.0
 11
-8.621711730956981
 21
6.380725741391458
 31
0.0
  0
LINE
  5
2936
330
1F
100
AcDbEntity
  8
AM_0
100
AcDbLine
 10
-3.927055358885971
 20
6.463876277213358
 30
0.0
 11
-6.909988403319977
 21
6.594125092034658
 31
0.0
  0
ARC
  5
2937
330
1F
100
AcDbEntity
  8
AM_0
100
AcDbCircle
 10
-5.516784667967974
 20
9.829742431645657
 30
0.0
 40
1.4999996423721
100
AcDbArc
 50
267.5000030040902
 51
87.50001484323735
  0
ARC
  5
2938
330
1F
100
AcDbEntity
  8
AM_0
100
AcDbCircle
 10
-5.516784667967974
 20
9.829742431645657
 30
0.0
 40
1.4999996423721
100
AcDbArc
 50
87.50000482532158
 51
267.5000166644695
  0
ARC
  5
2939
330
1F
100
AcDbEntity
  8
AM_0
100
AcDbCircle
 10
-5.254058837889977
 20
10.04144287109875
 30
0.0
 40
1.749988794326799
100
AcDbArc
 50
90.15908626166782
 51
179.7635711876091
  0
CIRCLE
  5
293A
330
1F
100
AcDbEntity
  8
AM_0
100
AcDbCircle
 10
-5.518585205077974
 20
9.829833984380057
 30
0.0
 40
1.096614956855799
  0
ARC
  5
293B
330
1F
100
AcDbEntity
  8
AM_0
100
AcDbCircle
 10
-5.463714599608983
 20
9.827423095708157
 30
0.0
 40
1.4999996423721
100
AcDbArc
 50
267.5000030040902
 51
87.49996020172526
  0
ARC
  5
293C
330
1F
100
AcDbEntity
  8
AM_0
100
AcDbCircle
 10
-6.082351684569977
 20
9.535400390630057
 30
0.0
 40
0.2246538549662
100
AcDbArc
 50
132.3121144036838
 51
267.5000986267409
  0
ARC
  5
293D
330
1F
100
AcDbEntity
  8
AM_0
100
AcDbCircle
 10
-4.98262023925698
 20
9.487365722661257
 30
0.0
 40
0.22500012815
100
AcDbArc
 50
267.5000917965513
 51
42.68794966110657
  0
ARC
  5
293E
330
1F
100
AcDbEntity
  8
AM_0
100
AcDbCircle
 10
-6.01964569091698
 20
9.532653808598757
 30
0.0
 40
0.2246545404196
100
AcDbArc
 50
132.3123056489799
 51
259.5201154118462
  0
ARC
  5
293F
330
1F
100
AcDbEntity
  8
AM_0
100
AcDbCircle
 10
-5.206390380858983
 20
9.950103759770657
 30
0.0
 40
1.2461539506912
100
AcDbArc
 50
359.9999913485782
 51
56.49584642682727
  0
LINE
  5
2940
330
1F
100
AcDbEntity
  8
AM_0
100
AcDbLine
 10
-5.398277282713982
 20
11.32602119446305
 30
0.0
 11
-5.451354980467973
 21
11.32834100723775
 31
0.0
  0
LINE
  5
2941
330
1F
100
AcDbEntity
  8
AM_0
100
AcDbLine
 10
-5.003715515135971
 20
10.34383249283345
 30
0.0
 11
-4.941001892088983
 21
10.34108591080215
 31
0.0
  0
LINE
  5
2942
330
1F
100
AcDbEntity
  8
AM_0
100
AcDbLine
 10
-5.062416076659977
 20
10.33860826492815
 30
0.0
 11
-4.99971008300698
 21
10.33589220047505
 31
0.0
  0
LINE
  5
2943
330
1F
100
AcDbEntity
  8
AM_0
100
AcDbLine
 10
-5.704811096190971
 20
10.53399181366475
 30
0.0
 11
-5.642089843749977
 21
10.53124523163345
 31
0.0
  0
LINE
  5
2944
330
1F
100
AcDbEntity
  8
AM_0
100
AcDbLine
 10
-5.928657531737974
 20
10.37647676468395
 30
0.0
 11
-5.865951538084977
 21
10.37373018265275
 31
0.0
  0
LINE
  5
2945
330
1F
100
AcDbEntity
  8
AM_0
100
AcDbLine
 10
-6.219673156737974
 20
10.01996707916765
 30
0.0
 11
-6.156967163084977
 21
10.01725149155165
 31
0.0
  0
LINE
  5
2946
330
1F
100
AcDbEntity
  8
AM_0
100
AcDbLine
 10
-6.233581542967974
 20
9.701551675801557
 30
0.0
 11
-6.170867919920971
 21
9.698805093770257
 31
0.0
  0
ARC
  5
2947
330
1F
100
AcDbEntity
  8
AM_0
100
AcDbCircle
 10
-5.206390380858983
 20
9.950103759770657
 30
0.0
 40
1.2461570501328
100
AcDbArc
 50
354.5462355604865
 51
0.0000050089578472
  0
ARC
  5
2948
330
1F
100
AcDbEntity
  8
AM_0
100
AcDbCircle
 10
-4.652351379393983
 20
9.792022705083157
 30
0.0
 40
0.2246546000242
100
AcDbArc
 50
132.3119504791466
 51
222.6879480672464
  0
ARC
  5
2949
330
1F
100
AcDbEntity
  8
AM_0
100
AcDbCircle
 10
-4.954811096190971
 20
10.12426757813005
 30
0.0
 40
0.2246538549662
100
AcDbArc
 50
312.3121159975496
 51
87.50009680550892
  0
ARC
  5
294A
330
1F
100
AcDbEntity
  8
AM_0
100
AcDbCircle
 10
-5.05261230468698
 20
10.56341552734875
 30
0.0
 40
0.2243522107601
100
AcDbArc
 50
192.4446268658771
 51
267.5000917965513
  0
ARC
  5
294B
330
1F
100
AcDbEntity
  8
AM_0
100
AcDbCircle
 10
-5.490776062010971
 20
10.46673583984875
 30
0.0
 40
0.2243520021439
100
AcDbArc
 50
12.4443810927543
 51
87.50009361778339
  0
ARC
  5
294C
330
1F
100
AcDbEntity
  8
AM_0
100
AcDbCircle
 10
-5.918838500975971
 20
10.60122680664565
 30
0.0
 40
0.2249536365271
100
AcDbArc
 50
252.4449410166826
 51
267.5000917965513
  0
ARC
  5
294D
330
1F
100
AcDbEntity
  8
AM_0
100
AcDbCircle
 10
-6.054542541502974
 20
10.17230224609875
 30
0.0
 40
0.2249523848295
100
AcDbArc
 50
72.44510676245763
 51
87.50009361778339
  0
ARC
  5
294E
330
1F
100
AcDbEntity
  8
AM_0
100
AcDbCircle
 10
-6.38481140136698
 20
9.867645263676957
 30
0.0
 40
0.2246552705765
100
AcDbArc
 50
312.3121296579233
 51
42.6877857365634
  0
ARC
  5
294F
330
1F
100
AcDbEntity
  8
AM_0
100
AcDbCircle
 10
-4.954811096190971
 20
10.12426757813005
 30
0.0
 40
0.22500012815
100
AcDbArc
 50
87.50009361778339
 51
102.5551077938677
  0
ARC
  5
2950
330
1F
100
AcDbEntity
  8
AM_0
100
AcDbCircle
 10
-4.892105102538983
 20
10.12152099609875
 30
0.0
 40
0.2249862700701
100
AcDbArc
 50
95.61694016326617
 51
102.5551077938677
  0
ARC
  5
2951
330
1F
100
AcDbEntity
  8
AM_0
100
AcDbCircle
 10
-5.05261230468698
 20
10.56341552734875
 30
0.0
 40
0.22500012815
100
AcDbArc
 50
267.5000917965513
 51
282.5551059726362
  0
ARC
  5
2952
330
1F
100
AcDbEntity
  8
AM_0
100
AcDbCircle
 10
-4.989906311034977
 20
10.56066894531755
 30
0.0
 40
0.2250001728535
100
AcDbArc
 50
267.4998390795531
 51
282.554860085821
  0
ARC
  5
2953
330
1F
100
AcDbEntity
  8
AM_0
100
AcDbCircle
 10
-5.490776062010971
 20
10.46673583984875
 30
0.0
 40
0.22500012815
100
AcDbArc
 50
87.50009361778339
 51
162.5554560956163
  0
ARC
  5
2954
330
1F
100
AcDbEntity
  8
AM_0
100
AcDbCircle
 10
-5.428070068358983
 20
10.46398925781755
 30
0.0
 40
0.2249867767096
100
AcDbArc
 50
95.2692698741345
 51
162.5554560956163
  0
ARC
  5
2955
330
1F
100
AcDbEntity
  8
AM_0
100
AcDbCircle
 10
-5.918838500975971
 20
10.60122680664565
 30
0.0
 40
0.22500012815
100
AcDbArc
 50
267.5000917965513
 51
342.5554559819361
  0
ARC
  5
2956
330
1F
100
AcDbEntity
  8
AM_0
100
AcDbCircle
 10
-5.856132507323983
 20
10.59851074219255
 30
0.0
 40
0.2250001728535
100
AcDbArc
 50
267.4998390795531
 51
342.5553740196647
  0
ARC
  5
2957
330
1F
100
AcDbEntity
  8
AM_0
100
AcDbCircle
 10
-6.054542541502974
 20
10.17230224609875
 30
0.0
 40
0.22500012815
100
AcDbArc
 50
87.50009361778339
 51
222.6879480672464
  0
ARC
  5
2958
330
1F
100
AcDbEntity
  8
AM_0
100
AcDbCircle
 10
-5.991836547850971
 20
10.16955566406755
 30
0.0
 40
0.2249856591225
100
AcDbArc
 50
95.82989863139747
 51
222.6879480672464
  0
ARC
  5
2959
330
1F
100
AcDbEntity
  8
AM_0
100
AcDbCircle
 10
-6.322105407713983
 20
9.864929199223757
 30
0.0
 40
0.2246546000242
100
AcDbArc
 50
312.3119520730063
 51
42.68794966110657
  0
ARC
  5
295A
330
1F
100
AcDbEntity
  8
AM_0
100
AcDbCircle
 10
-5.184501647948983
 20
10.03836059570815
 30
0.0
 40
1.4000384807587
100
AcDbArc
 50
87.50003214608065
 51
88.60973981072184
  0
ARC
  5
295B
330
1F
100
AcDbEntity
  8
AM_0
100
AcDbCircle
 10
-5.184501647948983
 20
10.03839111328625
 30
0.0
 40
1.399998068809499
100
AcDbArc
 50
88.60974664091127
 51
114.8498512810524
  0
ARC
  5
295C
330
1F
100
AcDbEntity
  8
AM_0
100
AcDbCircle
 10
-5.122528076170971
 20
10.03570556641125
 30
0.0
 40
1.399997591972399
100
AcDbArc
 50
89.05449440871695
 51
113.2283233909557
  0
LINE
  5
295D
330
1F
100
AcDbEntity
  8
AM_0
100
AcDbLine
 10
-1.329948425291979
 20
6.792362809186257
 30
0.0
 11
-1.37992095947198
 21
6.064553644513157
 31
0.0
  0
LINE
  5
295E
330
1F
100
AcDbEntity
  8
AM_0
100
AcDbLine
 10
-5.582214355467974
 20
8.331165313725756
 30
0.0
 11
-5.529144287108983
 21
8.328845977788256
 31
0.0
  0
LINE
  5
295F
330
1F
100
AcDbEntity
  8
AM_0
100
AcDbLine
 10
-5.050468444823983
 20
9.272884130482957
 30
0.0
 11
-4.98775482177698
 21
9.270168066029857
 31
0.0
  0
LINE
  5
2960
330
1F
100
AcDbEntity
  8
AM_0
100
AcDbLine
 10
-5.045791625975971
 20
9.280501604085257
 30
0.0
 11
-5.108497619627974
 21
9.283217668538357
 31
0.0
  0
LINE
  5
2961
330
1F
100
AcDbEntity
  8
AM_0
100
AcDbLine
 10
-5.765472412108983
 20
9.144584894185358
 30
0.0
 11
-5.70276641845698
 21
9.141838073735558
 31
0.0
  0
LINE
  5
2962
330
1F
100
AcDbEntity
  8
AM_0
100
AcDbLine
 10
-5.912017822264977
 20
9.318291187291457
 30
0.0
 11
-5.97473907470698
 21
9.321037769322657
 31
0.0
  0
ARC
  5
2963
330
1F
100
AcDbEntity
  8
AM_0
100
AcDbCircle
 10
-5.984550476073983
 20
9.096252441411257
 30
0.0
 40
0.2243522107601
100
AcDbArc
 50
12.4446269795631
 51
87.50009361778339
  0
ARC
  5
2964
330
1F
100
AcDbEntity
  8
AM_0
100
AcDbCircle
 10
-5.546386718749977
 20
9.192932128911257
 30
0.0
 40
0.2243520021439
100
AcDbArc
 50
192.4443809790684
 51
267.5000917965513
  0
ARC
  5
2965
330
1F
100
AcDbEntity
  8
AM_0
100
AcDbCircle
 10
-5.118324279784977
 20
9.058410644536257
 30
0.0
 40
0.2249533385038
100
AcDbArc
 50
72.44518872472889
 51
87.50009361778339
  0
ARC
  5
2966
330
1F
100
AcDbEntity
  8
AM_0
100
AcDbCircle
 10
-4.98262023925698
 20
9.487365722661257
 30
0.0
 40
0.2249526828527
100
AcDbArc
 50
252.4448658846067
 51
267.5000917965513
  0
ARC
  5
2967
330
1F
100
AcDbEntity
  8
AM_0
100
AcDbCircle
 10
-4.919914245604977
 20
9.484649658208157
 30
0.0
 40
0.2249526828527
100
AcDbArc
 50
252.4448658846067
 51
259.7305945213089
  0
ARC
  5
2968
330
1F
100
AcDbEntity
  8
AM_0
100
AcDbCircle
 10
-5.118324279784977
 20
9.058410644536257
 30
0.0
 40
0.22500012815
100
AcDbArc
 50
87.50009361778339
 51
162.5554560956163
  0
ARC
  5
2969
330
1F
100
AcDbEntity
  8
AM_0
100
AcDbCircle
 10
-5.055610656737974
 20
9.055694580083157
 30
0.0
 40
0.2249526828527
100
AcDbArc
 50
72.4448677058382
 51
87.49982724040526
  0
ARC
  5
296A
330
1F
100
AcDbEntity
  8
AM_0
100
AcDbCircle
 10
-5.546386718749977
 20
9.192932128911257
 30
0.0
 40
0.22500012815
100
AcDbArc
 50
267.5000917965513
 51
342.5554559819361
  0
ARC
  5
296B
330
1F
100
AcDbEntity
  8
AM_0
100
AcDbCircle
 10
-5.48368072509698
 20
9.190216064458157
 30
0.0
 40
0.2243529707193
100
AcDbArc
 50
192.4443263375561
 51
259.1901626334218
  0
ARC
  5
296C
330
1F
100
AcDbEntity
  8
AM_0
100
AcDbCircle
 10
-5.984550476073983
 20
9.096252441411257
 30
0.0
 40
0.22500012815
100
AcDbArc
 50
87.50009361778339
 51
102.5551077938677
  0
ARC
  5
296D
330
1F
100
AcDbEntity
  8
AM_0
100
AcDbCircle
 10
-5.921844482420971
 20
9.093505859380057
 30
0.0
 40
0.2243522107601
100
AcDbArc
 50
12.4446269795631
 51
87.49984090078466
  0
ARC
  5
296E
330
1F
100
AcDbEntity
  8
AM_0
100
AcDbCircle
 10
-6.082351684569977
 20
9.535400390630057
 30
0.0
 40
0.22500012815
100
AcDbArc
 50
267.5000917965513
 51
282.5551059726362
  0
ARC
  5
296F
330
1F
100
AcDbEntity
  8
AM_0
100
AcDbCircle
 10
-5.254058837889977
 20
10.04144287109875
 30
0.0
 40
1.749842286109899
100
AcDbArc
 50
257.6787032417994
 51
264.9484492358471
  0
ARC
  5
2970
330
1F
100
AcDbEntity
  8
AM_0
100
AcDbCircle
 10
-9.654907226561979
 20
7.975708007817558
 30
0.0
 40
1.9988452196121
100
AcDbArc
 50
113.0970676456755
 51
264.1854624640461
  0
ARC
  5
2971
330
1F
100
AcDbEntity
  8
AM_0
100
AcDbCircle
 10
-9.814987182616979
 20
7.982696533208158
 30
0.0
 40
1.999254822731
100
AcDbArc
 50
107.7977765856587
 51
227.8818288177993
  0
ARC
  5
2972
330
1F
100
AcDbEntity
  8
AM_0
100
AcDbCircle
 10
-9.814987182616979
 20
7.982696533208158
 30
0.0
 40
1.997532725334199
100
AcDbArc
 50
306.6819091024369
 51
326.9916951655226
  0
LINE
  5
2973
330
1F
100
AcDbEntity
  8
AM_0
100
AcDbLine
 10
-10.42678833007797
 20
6.964149057870158
 30
0.0
 11
-10.57900238037097
 21
7.000558674340558
 31
0.0
  0
LINE
  5
2974
330
1F
100
AcDbEntity
  8
AM_0
100
AcDbLine
 10
-10.67440032958898
 20
8.503577232365859
 30
0.0
 11
-10.78431701660097
 21
7.378563046460458
 31
0.0
  0
ARC
  5
2975
330
1F
100
AcDbEntity
  8
AM_0
100
AcDbCircle
 10
-9.77279663085898
 20
25.64935207367446
 30
0.0
 40
20.000015258789
100
AcDbArc
 50
265.7776478614684
 51
266.8995132628322
  0
LINE
  5
2976
330
1F
100
AcDbEntity
  8
AM_0
100
AcDbLine
 10
-20.48799896240198
 20
8.780119657521559
 30
0.0
 11
-21.19689178466698
 21
8.81106448174026
 31
0.0
  0
LINE
  5
2977
330
1F
100
AcDbEntity
  8
AM_0
100
AcDbLine
 10
-35.00111007690398
 20
12.00000000000506
 30
0.0
 11
-38.00111007690397
 21
12.00000000000506
 31
0.0
  0
LINE
  5
2978
330
1F
100
AcDbEntity
  8
AM_0
100
AcDbLine
 10
-27.09111022949198
 20
13.00000000000506
 30
0.0
 11
-34.50111007690397
 21
13.00000000000506
 31
0.0
  0
LINE
  5
2979
330
1F
100
AcDbEntity
  8
AM_0
100
AcDbLine
 10
-34.50111770629797
 20
13.00000476837666
 30
0.0
 11
-35.00111770629797
 21
12.50000381470236
 31
0.0
  0
SPLINE
  5
297A
330
1F
100
AcDbEntity
  8
AM_0
100
AcDbSpline
210
0.0
220
0.0
230
1.0
 70
     8
 71
     3
 72
    11
 73
     7
 74
     5
 42
0.0000000001
 43
0.0000000001
 44
0.0000000001
 40
0.0
 40
0.0
 40
0.0
 40
0.0
 40
0.0490280593965786
 40
0.0972943974802135
 40
0.1440912608274709
 40
0.1886463298186439
 40
0.1886463298186439
 40
0.1886463298186439
 40
0.1886463298186439
 10
-0.9856567382809725
 20
0.5631103515675574
 30
0.0
 10
-0.9695729183391906
 20
0.5602129769103001
 30
0.0
 10
-0.9376551636967317
 20
0.5544632424720659
 30
0.0
 10
-0.8903595252469731
 20
0.5460945635323747
 30
0.0
 10
-0.8444893224930789
 20
0.5382238597269628
 30
0.0
 10
-0.8144077199863863
 20
0.5334952494667511
 30
0.0
 10
-0.799736022948984
 20
0.5311889648487577
 30
0.0
 11
-0.9856567382809725
 21
0.5631103515675574
 31
0.0
 11
-0.9374008178709726
 21
0.5544433593800574
 31
0.0
 11
-0.8898696899409724
 21
0.5460510253956575
 31
0.0
 11
-0.8437347412099779
 21
0.5382080078175574
 31
0.0
 11
-0.799736022948984
 21
0.5311889648487577
 31
0.0
  0
SPLINE
  5
297B
330
1F
100
AcDbEntity
  8
AM_0
100
AcDbSpline
210
0.0
220
0.0
230
1.0
 70
     8
 71
     3
 72
    11
 73
     7
 74
     5
 42
0.0000000001
 43
0.0000000001
 44
0.0000000001
 40
0.0
 40
0.0
 40
0.0
 40
0.0
 40
0.0522900117138483
 40
0.0980688609304074
 40
0.1358398234912835
 40
0.164478364374734
 40
0.164478364374734
 40
0.164478364374734
 40
0.164478364374734
 10
-0.799736022948984
 20
0.5311889648487577
 30
0.0
 10
-0.7825005279453176
 20
0.5285853230379463
 30
0.0
 10
-0.7501757051506493
 20
0.5237022454044138
 30
0.0
 10
-0.705262501701069
 20
0.5179715955899605
 30
0.0
 10
-0.6680624467682845
 20
0.5139453117242813
 30
0.0
 10
-0.6459389064670522
 20
0.5130506222515649
 30
0.0
 10
-0.6363983154289837
 20
0.5126647949269582
 30
0.0
 11
-0.799736022948984
 21
0.5311889648487577
 31
0.0
 11
-0.7480010986319808
 21
0.5235900878956575
 31
0.0
 11
-0.7025909423819808
 21
0.5177917480519582
 31
0.0
 11
-0.6650009155269811
 21
0.5140991210987577
 31
0.0
 11
-0.6363983154289837
 21
0.5126647949269582
 31
0.0
  0
SPLINE
  5
297C
330
1F
100
AcDbEntity
  8
AM_0
100
AcDbSpline
210
0.0
220
0.0
230
1.0
 70
     8
 71
     3
 72
    11
 73
     7
 74
     5
 42
0.0000000001
 43
0.0000000001
 44
0.0000000001
 40
0.0
 40
0.0
 40
0.0
 40
0.0
 40
0.0091565449144666
 40
0.0165517702020755
 40
0.0222360377852716
 40
0.0263162733593421
 40
0.0263162733593421
 40
0.0263162733593421
 40
0.0263162733593421
 10
-0.6363983154289837
 20
0.5126647949269582
 30
0.0
 10
-0.633343543634741
 20
0.5126719146441704
 30
0.0
 10
-0.6278216048215315
 20
0.5126847845557255
 30
0.0
 10
-0.620442993982964
 20
0.5132781340682488
 30
0.0
 10
-0.6147398405782678
 20
0.5141626077278722
 30
0.0
 10
-0.6117578476518326
 20
0.515495343592135
 30
0.0
 10
-0.6105117797849783
 20
0.5160522460987577
 30
0.0
 11
-0.6363983154289837
 21
0.5126647949269582
 31
0.0
 11
-0.6272430419919811
 21
0.5128173828175574
 31
0.0
 11
-0.6198730468749784
 21
0.5134277343800574
 31
0.0
 11
-0.6142959594719809
 21
0.5145263671925574
 31
0.0
 11
-0.6105117797849783
 21
0.5160522460987577
 31
0.0
  0
SPLINE
  5
297D
330
1F
100
AcDbEntity
  8
AM_0
100
AcDbSpline
210
0.0
220
0.0
230
1.0
 70
     8
 71
     3
 72
    11
 73
     7
 74
     5
 42
0.0000000001
 43
0.0000000001
 44
0.0000000001
 40
0.0
 40
0.0
 40
0.0
 40
0.0
 40
0.0014651616070568
 40
0.0026998984431019
 40
0.0037539704671214
 40
0.004791568123422
 40
0.004791568123422
 40
0.004791568123422
 40
0.004791568123422
 10
-0.6105117797849783
 20
0.5160522460987577
 30
0.0
 10
-0.610097945465761
 20
0.5163168847970185
 30
0.0
 10
-0.6093353602132023
 20
0.5168045426812938
 30
0.0
 10
-0.6085173407602685
 20
0.5177685895337369
 30
0.0
 10
-0.6080430062238782
 20
0.5188115908428136
 30
0.0
 10
-0.6081020963367371
 20
0.5195170111965624
 30
0.0
 10
-0.6081314086909725
 20
0.5198669433644582
 30
0.0
 11
-0.6105117797849783
 21
0.5160522460987577
 31
0.0
 11
-0.6093215942379754
 21
0.5169067382862577
 31
0.0
 11
-0.6085281372069812
 21
0.5178527832081575
 31
0.0
 11
-0.6081314086909725
 21
0.5188293457081575
 31
0.0
 11
-0.6081314086909725
 21
0.5198669433644582
 31
0.0
  0
SPLINE
  5
297E
330
1F
100
AcDbEntity
  8
AM_0
100
AcDbSpline
210
0.0
220
0.0
230
1.0
 70
     8
 71
     3
 72
    11
 73
     7
 74
     5
 42
0.0000000001
 43
0.0000000001
 44
0.0000000001
 40
0.0
 40
0.0
 40
0.0
 40
0.0
 40
0.0610332641305768
 40
0.1238149838560548
 40
0.1876687044634655
 40
0.2519151037611329
 40
0.2519151037611329
 40
0.2519151037611329
 40
0.2519151037611329
 10
-8.766433715819978
 20
1.349700927739459
 30
0.0
 10
-8.746149377859525
 20
1.348138494054163
 30
0.0
 10
-8.704999604651739
 20
1.344968866732459
 30
0.0
 10
-8.642634125520125
 20
1.340087216797311
 30
0.0
 10
-8.579199289928666
 20
1.335142264185946
 30
0.0
 10
-8.53663104443799
 20
1.331789941858791
 30
0.0
 10
-8.515281677245972
 20
1.330108642583158
 30
0.0
 11
-8.766433715819978
 21
1.349700927739459
 31
0.0
 11
-8.705581665038984
 21
1.345001220708158
 31
0.0
 11
-8.642990112303984
 21
1.340118408208158
 31
0.0
 11
-8.579330444334978
 21
1.335144042973758
 31
0.0
 11
-8.515281677245972
 21
1.330108642583158
 31
0.0
  0
SPLINE
  5
297F
330
1F
100
AcDbEntity
  8
AM_0
100
AcDbSpline
210
0.0
220
0.0
230
1.0
 70
     8
 71
     3
 72
    11
 73
     7
 74
     5
 42
0.0000000001
 43
0.0000000001
 44
0.0000000001
 40
0.0
 40
0.0
 40
0.0
 40
0.0
 40
0.0359922620262522
 40
0.0719540166894288
 40
0.1079157713527053
 40
0.1438773293555511
 40
0.1438773293555511
 40
0.1438773293555511
 40
0.1438773293555511
 10
-8.515281677245972
 20
1.330108642583158
 30
0.0
 10
-8.515591914200594
 20
1.31811523372638
 30
0.0
 10
-8.516212125150218
 20
1.294138581733395
 30
0.0
 10
-8.517142761257211
 20
1.258178698358148
 30
0.0
 10
-8.518076062098337
 20
1.222229121737773
 30
0.0
 10
-8.518690149513801
 20
1.19826254998864
 30
0.0
 10
-8.518997192381981
 20
1.186279296880058
 30
0.0
 11
-8.515281677245972
 21
1.330108642583158
 31
0.0
 11
-8.516212463377975
 21
1.294128417973758
 31
0.0
 11
-8.517143249510972
 21
1.258178710942558
 31
0.0
 11
-8.518074035643984
 21
1.222229003911258
 31
0.0
 11
-8.518997192381981
 21
1.186279296880058
 31
0.0
  0
SPLINE
  5
2980
330
1F
100
AcDbEntity
  8
AM_0
100
AcDbSpline
210
0.0
220
0.0
230
1.0
 70
     8
 71
     3
 72
    11
 73
     7
 74
     5
 42
0.0000000001
 43
0.0000000001
 44
0.0000000001
 40
0.0
 40
0.0
 40
0.0
 40
0.0
 40
0.0424688613857972
 40
0.08336894110529
 40
0.1224392634311515
 40
0.1594416853309223
 40
0.1594416853309223
 40
0.1594416853309223
 40
0.1594416853309223
 10
-8.766433715819978
 20
1.349700927739459
 30
0.0
 10
-8.780548096111054
 20
1.350789383573091
 30
0.0
 10
-8.808255477491851
 20
1.352926088145072
 30
0.0
 10
-8.84894773943963
 20
1.356064221284648
 30
0.0
 10
-8.887823899722919
 20
1.359053866296874
 30
0.0
 10
-8.913108680077831
 20
1.360973993154424
 30
0.0
 10
-8.925407409666981
 20
1.361907958989459
 30
0.0
 11
-8.766433715819978
 21
1.349700927739459
 31
0.0
 11
-8.808776855467975
 21
1.352966308598758
 31
0.0
 11
-8.849555969237975
 21
1.356109619145658
 31
0.0
 11
-8.888511657713983
 21
1.359100341801959
 31
0.0
 11
-8.925407409666981
 21
1.361907958989459
 31
0.0
  0
SPLINE
  5
2981
330
1F
100
AcDbEntity
  8
AM_0
100
AcDbSpline
210
0.0
220
0.0
230
1.0
 70
     8
 71
     3
 72
    11
 73
     7
 74
     5
 42
0.0000000001
 43
0.0000000001
 44
0.0000000001
 40
0.0
 40
0.0
 40
0.0
 40
0.0
 40
0.0161039169880415
 40
0.0316905011355718
 40
0.0467703714345088
 40
0.0613306166645352
 40
0.0613306166645352
 40
0.0613306166645352
 40
0.0613306166645352
 10
-8.925407409666981
 20
1.361907958989459
 30
0.0
 10
-8.930761020474871
 20
1.362300457840889
 30
0.0
 10
-8.941296259169462
 20
1.36307284665202
 30
0.0
 10
-8.956839203881802
 20
1.36428529638604
 30
0.0
 10
-8.971873512770692
 20
1.365400056510438
 30
0.0
 10
-8.981725165316197
 20
1.366148467862838
 30
0.0
 10
-8.986564636229978
 20
1.366516113286258
 30
0.0
 11
-8.925407409666981
 21
1.361907958989459
 31
0.0
 11
-8.941467285155972
 21
1.363098144536258
 31
0.0
 11
-8.957008361815972
 21
1.364288330083158
 31
0.0
 11
-8.972045898436981
 21
1.365417480473758
 31
0.0
 11
-8.986564636229978
 21
1.366516113286258
 31
0.0
  0
SPLINE
  5
2982
330
1F
100
AcDbEntity
  8
AM_0
100
AcDbSpline
210
0.0
220
0.0
230
1.0
 70
     8
 71
     3
 72
    11
 73
     7
 74
     5
 42
0.0000000001
 43
0.0000000001
 44
0.0000000001
 40
0.0
 40
0.0
 40
0.0
 40
0.0
 40
0.0694260615942267
 40
0.2419512821587349
 40
0.514327961232262
 40
0.8700659869479425
 40
0.8700659869479425
 40
0.8700659869479425
 40
0.8700659869479425
 10
-7.104560852049978
 20
-1.827911376948041
 30
0.0
 10
-7.08684159841909
 20
-1.843292396978771
 30
0.0
 10
-7.025089627524552
 20
-1.896895574688822
 30
0.0
 10
-6.844870685238795
 20
-1.911554241283469
 30
0.0
 10
-6.584891220448112
 20
-1.946951915648494
 30
0.0
 10
-6.374449636486944
 20
-1.950386396153781
 30
0.0
 10
-6.255264282225972
 20
-1.952331542963741
 30
0.0
 11
-7.104560852049978
 21
-1.827911376948041
 31
0.0
 11
-7.049507141112975
 21
-1.870208740229341
 31
0.0
 11
-6.881576538084978
 21
-1.909759521479341
 31
0.0
 11
-6.610740661620972
 21
-1.938690185541841
 31
0.0
 11
-6.255264282225972
 21
-1.952331542963741
 31
0.0
  0
SPLINE
  5
2983
330
1F
100
AcDbEntity
  8
AM_0
100
AcDbSpline
210
0.0
220
0.0
230
1.0
 70
     8
 71
     3
 72
    11
 73
     7
 74
     5
 42
0.0000000001
 43
0.0000000001
 44
0.0000000001
 40
0.0
 40
0.0
 40
0.0
 40
0.0
 40
0.3785052771752977
 40
0.7570080260737131
 40
1.1355107749717
 40
1.514013523870111
 40
1.514013523870111
 40
1.514013523870111
 40
1.514013523870111
 10
-10.28260040283198
 20
-0.5386352539012412
 30
0.0
 10
-10.32441263438759
 20
-0.6576739406557786
 30
0.0
 10
-10.40803681820839
 20
-0.8957505190299421
 30
0.0
 10
-10.53346203930635
 20
-1.252868822724252
 30
0.0
 10
-10.65888989178371
 20
-1.609985308961238
 30
0.0
 10
-10.7425079749952
 20
-1.848063136837862
 30
0.0
 10
-10.78431701660097
 20
-1.967102050776241
 30
0.0
 11
-10.28260040283198
 21
-0.5386352539012412
 31
0.0
 11
-10.40803527831997
 21
-0.8957519531199414
 31
0.0
 11
-10.53346252441398
 21
-1.252868652338741
 31
0.0
 11
-10.65888977050698
 21
-1.609985351557441
 31
0.0
 11
-10.78431701660097
 21
-1.967102050776241
 31
0.0
  0
SPLINE
  5
2984
330
1F
100
AcDbEntity
  8
AM_0
100
AcDbSpline
210
0.0
220
0.0
230
1.0
 70
     8
 71
     3
 72
    11
 73
     7
 74
     5
 42
0.0000000001
 43
0.0000000001
 44
0.0000000001
 40
0.0
 40
0.0
 40
0.0
 40
0.0
 40
0.0200941277715334
 40
0.0631947545495795
 40
0.1331624189614951
 40
0.2255438410624304
 40
0.2255438410624304
 40
0.2255438410624304
 40
0.2255438410624304
 10
-10.78565216064398
 20
-1.969848632807441
 30
0.0
 10
-10.78331175028404
 20
-1.976404339906888
 30
0.0
 10
-10.77595130847121
 20
-1.9970216220183
 30
0.0
 10
-10.72741385083035
 20
-2.00901297304045
 30
0.0
 10
-10.66424592209244
 20
-2.027109905433404
 30
0.0
 10
-10.60992195210644
 20
-2.033910833123024
 30
0.0
 10
-10.57901000976497
 20
-2.03778076171374
 30
0.0
 11
-10.78565216064398
 21
-1.969848632807441
 31
0.0
 11
-10.77704620361297
 21
-1.988006591791841
 31
0.0
 11
-10.73814392089797
 21
-2.00656127929184
 31
0.0
 11
-10.67031860351497
 21
-2.02374267577624
 31
0.0
 11
-10.57901000976497
 21
-2.03778076171374
 31
0.0
  0
SPLINE
  5
2985
330
1F
100
AcDbEntity
  8
AM_0
100
AcDbSpline
210
0.0
220
0.0
230
1.0
 70
     8
 71
     3
 72
    11
 73
     7
 74
     5
 42
0.0000000001
 43
0.0000000001
 44
0.0000000001
 40
0.0
 40
0.0
 40
0.0
 40
0.0
 40
0.0364466677606652
 40
0.0741478749153987
 40
0.1127361457296839
 40
0.1518363996933474
 40
0.1518363996933474
 40
0.1518363996933474
 40
0.1518363996933474
 10
-10.57901000976497
 20
-2.03778076171374
 30
0.0
 10
-10.56689966127197
 20
-2.038747700553438
 30
0.0
 10
-10.54226211110859
 20
-2.040714861463938
 30
0.0
 10
-10.5048017833027
 20
-2.043695416694464
 30
0.0
 10
-10.46645906857058
 20
-2.04673801558123
 30
0.0
 10
-10.44064336753368
 20
-2.048777982258861
 30
0.0
 10
-10.42765045165997
 20
-2.04980468749494
 30
0.0
 11
-10.57901000976497
 21
-2.03778076171374
 31
0.0
 11
-10.54267883300698
 21
-2.04067993163554
 31
0.0
 11
-10.50509643554597
 21
-2.04367065429184
 31
0.0
 11
-10.46662902831997
 21
-2.04672241210434
 31
0.0
 11
-10.42765045165997
 21
-2.04980468749494
 31
0.0
  0
SPLINE
  5
2986
330
1F
100
AcDbEntity
  8
AM_0
100
AcDbSpline
210
0.0
220
0.0
230
1.0
 70
     8
 71
     3
 72
    11
 73
     7
 74
     5
 42
0.0000000001
 43
0.0000000001
 44
0.0000000001
 40
0.0
 40
0.0
 40
0.0
 40
0.0
 40
0.2417191492398452
 40
0.483001790967508
 40
0.7238610571197429
 40
0.9642847095180984
 40
0.9642847095180984
 40
0.9642847095180984
 40
0.9642847095180984
 10
-0.7229003906249783
 20
1.891143798833157
 30
0.0
 10
-0.6695385973225161
 20
1.951513808394544
 30
0.0
 10
-0.5629113738882933
 20
2.072144808588668
 30
0.0
 10
-0.4027794139197919
 20
2.252636428626121
 30
0.0
 10
-0.2427593068933552
 20
2.43264984782641
 30
0.0
 10
-0.1359514281516331
 20
2.552354130847363
 30
0.0
 10
-0.082595825194978
 20
2.612152099614457
 30
0.0
 11
-0.7229003906249783
 21
1.891143798833157
 31
0.0
 11
-0.5627593994139839
 21
2.072204589848757
 31
0.0
 11
-0.4026565551749778
 21
2.252716064458157
 31
0.0
 11
-0.2426071166989837
 21
2.432708740239457
 31
0.0
 11
-0.082595825194978
 21
2.612152099614457
 31
0.0
  0
SPLINE
  5
2987
330
1F
100
AcDbEntity
  8
AM_0
100
AcDbSpline
210
0.0
220
0.0
230
1.0
 70
     8
 71
     3
 72
    11
 73
     7
 74
     5
 42
0.0000000001
 43
0.0000000001
 44
0.0000000001
 40
0.0
 40
0.0
 40
0.0
 40
0.0
 40
0.0955286625373457
 40
0.1737986448305062
 40
0.2329894136067143
 40
0.2727432836396465
 40
0.2727432836396465
 40
0.2727432836396465
 40
0.2727432836396465
 10
-0.9768905639639836
 20
1.798828125005057
 30
0.0
 10
-0.9457261994497416
 20
1.805570075569402
 30
0.0
 10
-0.8890277785181002
 20
1.81783594259271
 30
0.0
 10
-0.8151295097802584
 20
1.841082337270288
 30
0.0
 10
-0.7591193414004947
 20
1.862044660763117
 30
0.0
 10
-0.733281493305026
 20
1.882803382180056
 30
0.0
 10
-0.7229003906249783
 20
1.891143798833157
 30
0.0
 11
-0.9768905639639836
 21
1.798828125005057
 31
0.0
 11
-0.8838729858389836
 21
1.820587158208157
 31
0.0
 11
-0.809127807616981
 21
1.843811035161257
 31
0.0
 11
-0.7549209594719808
 21
1.867584228520657
 31
0.0
 11
-0.7229003906249783
 21
1.891143798833157
 31
0.0
  0
SPLINE
  5
2988
330
1F
100
AcDbEntity
  8
AM_0
100
AcDbSpline
210
0.0
220
0.0
230
1.0
 70
     8
 71
     3
 72
    11
 73
     7
 74
     5
 42
0.0000000001
 43
0.0000000001
 44
0.0000000001
 40
0.0
 40
0.0
 40
0.0
 40
0.0
 40
0.1536658767814726
 40
0.3073257482401007
 40
0.4609989158698448
 40
0.6146704420652711
 40
0.6146704420652711
 40
0.6146704420652711
 40
0.6146704420652711
 10
-0.3669433593749781
 20
2.819671630864457
 30
0.0
 10
-0.417838012518656
 20
2.813889199788724
 30
0.0
 10
-0.5196253298229686
 20
2.802324563616936
 30
0.0
 10
-0.6721910678457013
 20
2.783958459382218
 30
0.0
 10
-0.8246739403953689
 20
2.76490209315759
 30
0.0
 10
-0.9262485092647107
 20
2.751549371868296
 30
0.0
 10
-0.9770355224599777
 20
2.744873046880057
 30
0.0
 11
-0.3669433593749781
 21
2.819671630864457
 31
0.0
 11
-0.5196075439449781
 21
2.802154541020657
 31
0.0
 11
-0.6721725463859722
 21
2.783843994145657
 31
0.0
 11
-0.8246536254879751
 21
2.764739990239457
 31
0.0
 11
-0.9770355224599777
 21
2.744873046880057
 31
0.0
  0
SPLINE
  5
2989
330
1F
100
AcDbEntity
  8
AM_0
100
AcDbSpline
210
0.0
220
0.0
230
1.0
 70
     8
 71
     3
 72
    11
 73
     7
 74
     5
 42
0.0000000001
 43
0.0000000001
 44
0.0000000001
 40
0.0
 40
0.0
 40
0.0
 40
0.0
 40
0.2935906129392309
 40
0.5871812258783629
 40
0.8807718388176734
 40
1.174363047630717
 40
1.174363047630717
 40
1.174363047630717
 40
1.174363047630717
 10
-0.7229003906249783
 20
1.891143798833157
 30
0.0
 10
-0.7305424556777185
 20
1.7935790980315
 30
0.0
 10
-0.7458265857831964
 20
1.598449696428218
 30
0.0
 10
-0.768753593388057
 20
1.305755657671683
 30
0.0
 10
-0.791677366715235
 20
1.013061166303226
 30
0.0
 10
-0.806968011922734
 20
0.8179320758706936
 30
0.0
 10
-0.8146133422849782
 20
0.7203674316456575
 30
0.0
 11
-0.7229003906249783
 21
1.891143798833157
 31
0.0
 11
-0.7458267211909724
 21
1.598449707036257
 31
0.0
 11
-0.7687530517569808
 21
1.305755615239458
 31
0.0
 11
-0.791679382323984
 21
1.013061523442557
 31
0.0
 11
-0.8146133422849782
 21
0.7203674316456575
 31
0.0
  0
SPLINE
  5
298A
330
1F
100
AcDbEntity
  8
AM_0
100
AcDbSpline
210
0.0
220
0.0
230
1.0
 70
     8
 71
     3
 72
    11
 73
     7
 74
     5
 42
0.0000000001
 43
0.0000000001
 44
0.0000000001
 40
0.0
 40
0.0
 40
0.0
 40
0.0
 40
0.5926947478614523
 40
1.185419371566216
 40
1.778145551648053
 40
2.370840299509411
 40
2.370840299509411
 40
2.370840299509411
 40
2.370840299509411
 10
-0.082595825194978
 20
2.612152099614457
 30
0.0
 10
-0.1229000988276585
 20
2.418742013153653
 30
0.0
 10
-0.2035106777023228
 20
2.031912091049251
 30
0.0
 10
-0.324414608673669
 20
1.451659104207069
 30
0.0
 10
-0.4453342078654173
 20
0.8714093822985345
 30
0.0
 10
-0.5259428035612171
 20
0.4845785170044767
 30
0.0
 10
-0.5662460327139839
 20
0.2911682128956575
 30
0.0
 11
-0.082595825194978
 21
2.612152099614457
 31
0.0
 11
-0.2035064697259723
 21
2.031921386723757
 31
0.0
 11
-0.3244171142569808
 21
1.451660156255057
 31
0.0
 11
-0.4453353881829753
 21
0.8713989257862575
 31
0.0
 11
-0.5662460327139839
 21
0.2911682128956575
 31
0.0
  0
SPLINE
  5
298B
330
1F
100
AcDbEntity
  8
AM_0
100
AcDbSpline
210
0.0
220
0.0
230
1.0
 70
     8
 71
     3
 72
    11
 73
     7
 74
     5
 42
0.0000000001
 43
0.0000000001
 44
0.0000000001
 40
0.0
 40
0.0
 40
0.0
 40
0.0
 40
0.7105076389364726
 40
1.421016652352211
 40
2.131554309591479
 40
2.842063323007218
 40
2.842063323007218
 40
2.842063323007218
 40
2.842063323007218
 10
-0.5131149291989841
 20
0.0010681152394581
 30
0.0
 10
-0.470449851563079
 20
0.234029324544415
 30
0.0
 10
-0.3851196137555417
 20
0.6999521938185219
 30
0.0
 10
-0.2571037805978045
 20
1.398842687097787
 30
0.0
 10
-0.1291184348908701
 20
2.097739229900582
 30
0.0
 10
-0.0437764130261873
 20
2.563670113453094
 30
0.0
 10
-0.001106262206981
 20
2.796630859380057
 30
0.0
 11
-0.5131149291989841
 21
0.0010681152394581
 31
0.0
 11
-0.3851165771479753
 21
0.6999511718800573
 31
0.0
 11
-0.2571105957029754
 21
1.398834228520657
 31
0.0
 11
-0.1291122436519809
 21
2.097747802739457
 31
0.0
 11
-0.001106262206981
 21
2.796630859380057
 31
0.0
  0
SPLINE
  5
298C
330
1F
100
AcDbEntity
  8
AM_0
100
AcDbSpline
210
0.0
220
0.0
230
1.0
 70
     8
 71
     3
 72
    11
 73
     7
 74
     5
 42
0.0000000001
 43
0.0000000001
 44
0.0000000001
 40
0.0
 40
0.0
 40
0.0
 40
0.0
 40
0.0194865325781175
 40
0.0623791487654002
 40
0.1321978786705611
 40
0.2244104224037182
 40
0.2244104224037182
 40
0.2244104224037182
 40
0.2244104224037182
 10
-0.0001907348629752
 20
2.799560546880057
 30
0.0
 10
-0.0035993814126296
 20
2.805373567392428
 30
0.0
 10
-0.0145109414532462
 20
2.823981868785395
 30
0.0
 10
-0.0639240345765877
 20
2.827335965632176
 30
0.0
 10
-0.1290766932310733
 20
2.834926355656227
 30
0.0
 10
-0.1836685365281795
 20
2.832925693151821
 30
0.0
 10
-0.2147369384759722
 20
2.831787109380057
 30
0.0
 11
-0.0001907348629752
 21
2.799560546880057
 31
0.0
 11
-0.0116271972649779
 21
2.815338134770657
 31
0.0
 11
-0.0529479980459721
 21
2.826843261723757
 31
0.0
 11
-0.1225280761709721
 21
2.832611083989457
 31
0.0
 11
-0.2147369384759722
 21
2.831787109380057
 31
0.0
  0
SPLINE
  5
298D
330
1F
100
AcDbEntity
  8
AM_0
100
AcDbSpline
210
0.0
220
0.0
230
1.0
 70
     8
 71
     3
 72
    11
 73
     7
 74
     5
 42
0.0000000001
 43
0.0000000001
 44
0.0000000001
 40
0.0
 40
0.0
 40
0.0
 40
0.0
 40
1.064841644581541
 40
2.151889858656657
 40
3.263659541867352
 40
4.399969293964343
 40
4.399969293964343
 40
4.399969293964343
 40
4.399969293964343
 10
-21.19689178466698
 20
-9.558502197260541
 30
0.0
 10
-20.88773492512544
 20
-9.733595797840129
 30
0.0
 10
-20.26297394384075
 20
-10.0874344604433
 30
0.0
 10
-19.25184663465218
 20
-10.49548047399626
 30
0.0
 10
-18.19306069076889
 20
-10.83754130433519
 30
0.0
 10
-17.46252971099867
 20
-11.00596487960021
 30
0.0
 10
-17.09327697753898
 20
-11.09109592437154
 30
0.0
 11
-21.19689178466698
 21
-9.558502197260541
 31
0.0
 11
-20.25915527343698
 21
-10.06301975249654
 31
0.0
 11
-19.25539398193297
 21
-10.48031711577854
 31
0.0
 11
-18.19673156738198
 21
-10.81982517241854
 31
0.0
 11
-17.09327697753898
 21
-11.09109592437154
 31
0.0
  0
SPLINE
  5
298E
330
1F
100
AcDbEntity
  8
AM_0
100
AcDbSpline
210
0.0
220
0.0
230
1.0
 70
     8
 71
     3
 72
    11
 73
     7
 74
     5
 42
0.0000000001
 43
0.0000000001
 44
0.0000000001
 40
0.0
 40
0.0
 40
0.0
 40
0.0
 40
0.4615021004203074
 40
0.9143491373463977
 40
1.327814388743443
 40
1.569530257206737
 40
1.569530257206737
 40
1.569530257206737
 40
1.569530257206737
 10
-25.52224731445297
 20
-12.98272800445054
 30
0.0
 10
-25.67608211740745
 20
-12.98248851104506
 30
0.0
 10
-25.98086668772072
 20
-12.98201401572099
 30
0.0
 10
-26.42346039514346
 20
-12.98629035469125
 30
0.0
 10
-26.79274478303951
 20
-12.99301761806337
 30
0.0
 10
-27.01107901437357
 20
-12.99811892813768
 30
0.0
 10
-27.09162902831998
 20
-13.00000095366853
 30
0.0
 11
-25.52224731445297
 21
-12.98272800445054
 31
0.0
 11
-25.98374938964797
 21
-12.98288059234054
 31
0.0
 11
-26.43657684326097
 21
-12.98709201812153
 31
0.0
 11
-26.84997558593698
 21
-12.99450778960653
 31
0.0
 11
-27.09162902831998
 21
-13.00000095366853
 31
0.0
  0
SPLINE
  5
298F
330
1F
100
AcDbEntity
  8
AM_0
100
AcDbSpline
210
0.0
220
0.0
230
1.0
 70
     8
 71
     3
 72
    11
 73
     7
 74
     5
 42
0.0000000001
 43
0.0000000001
 44
0.0000000001
 40
0.0
 40
0.0
 40
0.0
 40
0.0
 40
0.4637250471676146
 40
0.9271658858531701
 40
1.389121360320513
 40
1.839632967730845
 40
1.839632967730845
 40
1.839632967730845
 40
1.839632967730845
 10
-25.52224731445297
 20
0.6701049804737607
 30
0.0
 10
-25.67769088354484
 20
0.6750975254611597
 30
0.0
 10
-25.98848275324764
 20
0.6850795555977168
 30
0.0
 10
-26.43845634990872
 20
0.591685964925524
 30
0.0
 10
-26.89534778329591
 20
0.4201032666674858
 30
0.0
 10
-27.02724672545047
 20
0.1329338283793635
 30
0.0
 10
-27.09236907958898
 20
-0.0088500976512391
 30
0.0
 11
-25.52224731445297
 21
0.6701049804737607
 31
0.0
 11
-25.98596191406198
 21
0.6669921875050605
 31
0.0
 11
-26.44082641601498
 21
0.5782470703175605
 31
0.0
 11
-26.85529327392497
 21
0.3742370605519613
 31
0.0
 11
-27.09236907958898
 21
-0.0088500976512391
 31
0.0
  0
SPLINE
  5
2990
330
1F
100
AcDbEntity
  8
AM_0
100
AcDbSpline
210
0.0
220
0.0
230
1.0
 70
     8
 71
     3
 72
    11
 73
     7
 74
     5
 42
0.0000000001
 43
0.0000000001
 44
0.0000000001
 40
0.0
 40
0.0
 40
0.0
 40
0.0
 40
2.017228009482378
 40
4.034446129775682
 40
6.051678739359456
 40
8.068882926827004
 40
8.068882926827004
 40
8.068882926827004
 40
8.068882926827004
 10
-0.9769592285149794
 20
-10.74255466460654
 30
0.0
 10
-1.018747891177608
 20
-10.0714434144926
 30
0.0
 10
-1.102325011639567
 20
-8.7292242042974
 30
0.0
 10
-1.217987670178946
 20
-6.715322589226239
 30
0.0
 10
-1.325408100733799
 20
-4.700907304703349
 30
0.0
 10
-1.374928630335285
 20
-3.356984663088528
 30
0.0
 10
-1.399688720702975
 20
-2.685028076166841
 30
0.0
 11
-0.9769592285149794
 21
-10.74255466460654
 31
0.0
 11
-1.100708007811982
 21
-8.729125976556543
 31
0.0
 11
-1.216613769530973
 21
-6.715240478510541
 31
0.0
 11
-1.319885253905973
 21
-4.700653076166541
 31
0.0
 11
-1.399688720702975
 21
-2.685028076166841
 31
0.0
  0
SPLINE
  5
2991
330
1F
100
AcDbEntity
  8
AM_0
100
AcDbSpline
210
0.0
220
0.0
230
1.0
 70
     8
 71
     3
 72
    11
 73
     7
 74
     5
 42
0.0000000001
 43
0.0000000001
 44
0.0000000001
 40
0.0
 40
0.0
 40
0.0
 40
0.0
 40
0.0631376757031005
 40
0.1257143626519317
 40
0.1876242291622996
 40
0.2488430276177161
 40
0.2488430276177161
 40
0.2488430276177161
 40
0.2488430276177161
 10
-10.32579803466698
 20
-0.6603698730418414
 30
0.0
 10
-10.34638037018197
 20
-0.6559751303484628
 30
0.0
 10
-10.38736216373615
 20
-0.6472246929817893
 30
0.0
 10
-10.44828661738024
 20
-0.6330853059814508
 30
0.0
 10
-10.50848870599967
 20
-0.6186774675071789
 30
0.0
 10
-10.54831423274761
 20
-0.608754458497598
 30
0.0
 10
-10.56811523437497
 20
-0.6038208007762412
 30
0.0
 11
-10.32579803466698
 21
-0.6603698730418414
 31
0.0
 11
-10.38750457763597
 21
-0.6470031738230408
 31
0.0
 11
-10.44848632812497
 21
-0.6329650878855407
 31
0.0
 11
-10.50868988037097
 21
-0.6185302734324414
 31
0.0
 11
-10.56811523437497
 21
-0.6038208007762412
 31
0.0
  0
SPLINE
  5
2992
330
1F
100
AcDbEntity
  8
AM_0
100
AcDbSpline
210
0.0
220
0.0
230
1.0
 70
     8
 71
     3
 72
    11
 73
     7
 74
     5
 42
0.0000000001
 43
0.0000000001
 44
0.0000000001
 40
0.0
 40
0.0
 40
0.0
 40
0.0
 40
0.1618213255972303
 40
0.316641616584635
 40
0.4630195586267792
 40
0.5996576354837342
 40
0.5996576354837342
 40
0.5996576354837342
 40
0.5996576354837342
 10
-10.56811523437497
 20
-0.6038208007762412
 30
0.0
 10
-10.62040583708816
 20
-0.5905715323444829
 30
0.0
 10
-10.72272474291951
 20
-0.5646462115666912
 30
0.0
 10
-10.87270692117022
 20
-0.5283517503548653
 30
0.0
 10
-11.01558615973367
 20
-0.4978350880153542
 30
0.0
 10
-11.10935434207312
 20
-0.4870287465482028
 30
0.0
 10
-11.15462493896398
 20
-0.4818115234324413
 30
0.0
 11
-10.56811523437497
 21
-0.6038208007762412
 31
0.0
 11
-10.72505187988198
 21
-0.5643615722605407
 31
0.0
 11
-10.87563323974597
 21
-0.5283813476512412
 31
0.0
 11
-11.01914215087797
 21
-0.4995422363230407
 31
0.0
 11
-11.15462493896398
 21
-0.4818115234324413
 31
0.0
  0
SPLINE
  5
2993
330
1F
100
AcDbEntity
  8
AM_0
100
AcDbSpline
210
0.0
220
0.0
230
1.0
 70
     8
 71
     3
 72
    11
 73
     7
 74
     5
 42
0.0000000001
 43
0.0000000001
 44
0.0000000001
 40
0.0
 40
0.0
 40
0.0
 40
0.0
 40
1.385335592774628
 40
2.79755107926412
 40
4.229405548783158
 40
5.673336544332856
 40
5.673336544332856
 40
5.673336544332856
 40
5.673336544332856
 10
-17.09327697753898
 20
-11.09109592437154
 30
0.0
 10
-16.63533085235783
 20
-11.15152181720785
 30
0.0
 10
-15.71055299822109
 20
-11.27354605638961
 30
0.0
 10
-14.30232645031897
 20
-11.35734645678295
 30
0.0
 10
-12.87297506592289
 20
-11.38973008876186
 30
0.0
 10
-11.91457649513172
 20
-11.36421964947891
 30
0.0
 10
-11.43336486816398
 20
-11.35141086577853
 30
0.0
 11
-17.09327697753898
 21
-11.09109592437154
 31
0.0
 11
-15.71779632568297
 21
-11.25604343413754
 31
0.0
 11
-14.30860137939398
 21
-11.34835910796554
 31
0.0
 11
-12.87705230712797
 21
-11.37793064116854
 31
0.0
 11
-11.43336486816398
 21
-11.35141086577853
 31
0.0
  0
SPLINE
  5
2994
330
1F
100
AcDbEntity
  8
AM_0
100
AcDbSpline
210
0.0
220
0.0
230
1.0
 70
     8
 71
     3
 72
    11
 73
     7
 74
     5
 42
0.0000000001
 43
0.0000000001
 44
0.0000000001
 40
0.0
 40
0.0
 40
0.0
 40
0.0
 40
0.9492339517912171
 40
1.898358467106681
 40
2.847342843343749
 40
3.796145483579119
 40
3.796145483579119
 40
3.796145483579119
 40
3.796145483579119
 10
-6.633636474608984
 20
-1.982025146479341
 30
0.0
 10
-6.949256740276965
 20
-2.004803571327953
 30
0.0
 10
-7.580460883987425
 20
-2.05035779491753
 30
0.0
 10
-8.529310455549795
 20
-2.08020087424617
 30
0.0
 10
-9.478478478877089
 20
-2.084397835643687
 30
0.0
 10
-10.11071540030786
 20
-2.061375692099395
 30
0.0
 10
-10.42680358886698
 20
-2.04986572265124
 30
0.0
 11
-6.633636474608984
 21
-1.982025146479341
 31
0.0
 11
-7.580848693846981
 21
-2.04394531249494
 31
0.0
 11
-8.529434204100972
 21
-2.07592773436994
 31
0.0
 11
-9.478416442870972
 21
-2.07794189452624
 31
0.0
 11
-10.42680358886698
 21
-2.04986572265124
 31
0.0
  0
SPLINE
  5
2995
330
1F
100
AcDbEntity
  8
AM_0
100
AcDbSpline
210
0.0
220
0.0
230
1.0
 70
     8
 71
     3
 72
    11
 73
     7
 74
     5
 42
0.0000000001
 43
0.0000000001
 44
0.0000000001
 40
0.0
 40
0.0
 40
0.0
 40
0.0
 40
1.305613492552228
 40
2.61115137936352
 40
3.916484710575371
 40
5.221514463225334
 40
5.221514463225334
 40
5.221514463225334
 40
5.221514463225334
 10
-3.987625122069978
 20
-2.186920166010541
 30
0.0
 10
-4.409121881912087
 20
-2.078524386701957
 30
0.0
 10
-5.252090993473215
 20
-1.861739105090393
 30
0.0
 10
-6.522495821500816
 20
-1.560700489017803
 30
0.0
 10
-7.803087507387063
 20
-1.304644063326166
 30
0.0
 10
-8.664783276592968
 20
-1.182781089956528
 30
0.0
 10
-9.095581054686981
 20
-1.12185668944804
 30
0.0
 11
-3.987625122069978
 21
-2.186920166010541
 31
0.0
 11
-5.253120422362975
 21
-1.865753173823041
 31
0.0
 11
-6.524291992186981
 21
-1.568176269526241
 31
0.0
 11
-7.805198669432975
 21
-1.316833496088741
 31
0.0
 11
-9.095581054686981
 21
-1.12185668944804
 31
0.0
  0
SPLINE
  5
2996
330
1F
100
AcDbEntity
  8
AM_0
100
AcDbSpline
210
0.0
220
0.0
230
1.0
 70
     8
 71
     3
 72
    11
 73
     7
 74
     5
 42
0.0000000001
 43
0.0000000001
 44
0.0000000001
 40
0.0
 40
0.0
 40
0.0
 40
0.0
 40
0.8550239687876043
 40
1.680161074770029
 40
2.273289455062902
 40
2.499946214715745
 40
2.499946214715745
 40
2.499946214715745
 40
2.499946214715745
 10
-4.633186340331981
 20
-2.057250976557441
 30
0.0
 10
-4.913913976010293
 20
-2.00486342299025
 30
0.0
 10
-5.465556577033198
 20
-1.901919492154214
 30
0.0
 10
-6.210998745446033
 20
-1.807103395710545
 30
0.0
 10
-6.76843348547276
 20
-1.727089938288604
 30
0.0
 10
-7.031756485397361
 20
-1.806073699577847
 30
0.0
 10
-7.104560852049978
 20
-1.827911376948041
 30
0.0
 11
-4.633186340331981
 21
-2.057250976557441
 31
0.0
 11
-5.475189208983984
 21
-1.908599853510541
 31
0.0
 11
-6.292343139647975
 21
-1.794097900385541
 31
0.0
 11
-6.885040283202975
 21
-1.771484374994941
 31
0.0
 11
-7.104560852049978
 21
-1.827911376948041
 31
0.0
  0
SPLINE
  5
2997
330
1F
100
AcDbEntity
  8
AM_0
100
AcDbSpline
210
0.0
220
0.0
230
1.0
 70
     8
 71
     3
 72
    11
 73
     7
 74
     5
 42
0.0000000001
 43
0.0000000001
 44
0.0000000001
 40
0.0
 40
0.0
 40
0.0
 40
0.0
 40
0.1664357215301046
 40
0.3375163814206131
 40
0.5115216716441154
 40
0.686736576457979
 40
0.686736576457979
 40
0.686736576457979
 40
0.686736576457979
 10
-5.992515563963983
 20
-1.952911376948041
 30
0.0
 10
-5.937040535053441
 20
-1.952247596154825
 30
0.0
 10
-5.824542263378608
 20
-1.950901509573634
 30
0.0
 10
-5.654077744280052
 20
-1.947007419086485
 30
0.0
 10
-5.480686386878234
 20
-1.943183407039628
 30
0.0
 10
-5.364296893164496
 20
-1.941166816868549
 30
0.0
 10
-5.305900573729978
 20
-1.940155029291841
 30
0.0
 11
-5.992515563963983
 21
-1.952911376948041
 31
0.0
 11
-5.826095581053984
 21
-1.950622558588741
 31
0.0
 11
-5.655052185057975
 21
-1.947052001948041
 31
0.0
 11
-5.481086730956981
 21
-1.943328857416841
 31
0.0
 11
-5.305900573729978
 21
-1.940155029291841
 31
0.0
  0
SPLINE
  5
2998
330
1F
100
AcDbEntity
  8
AM_0
100
AcDbSpline
210
0.0
220
0.0
230
1.0
 70
     8
 71
     3
 72
    11
 73
     7
 74
     5
 42
0.0000000001
 43
0.0000000001
 44
0.0000000001
 40
0.0
 40
0.0
 40
0.0
 40
0.0
 40
0.1312947133321266
 40
0.2621719409294478
 40
0.3926477797993048
 40
0.5227254375913129
 40
0.5227254375913129
 40
0.5227254375913129
 40
0.5227254375913129
 10
-4.633316040038984
 20
-2.057220458979341
 30
0.0
 10
-4.59014757834915
 20
-2.064426709677545
 30
0.0
 10
-4.503947920336013
 20
-2.078816296923097
 30
0.0
 10
-4.375283219192943
 20
-2.102845065436969
 30
0.0
 10
-4.247341654536445
 20
-2.128470362622263
 30
0.0
 10
-4.162497381945035
 20
-2.147040270562618
 30
0.0
 10
-4.120140075682975
 20
-2.156311035151241
 30
0.0
 11
-4.633316040038984
 21
-2.057220458979341
 31
0.0
 11
-4.503883361815972
 21
-2.079254150385541
 31
0.0
 11
-4.375205993651981
 21
-2.103149414057441
 31
0.0
 11
-4.247291564940972
 21
-2.128875732416841
 31
0.0
 11
-4.120140075682975
 21
-2.156311035151241
 31
0.0
  0
SPLINE
  5
2999
330
1F
100
AcDbEntity
  8
AM_0
100
AcDbSpline
210
0.0
220
0.0
230
1.0
 70
     8
 71
     3
 72
    11
 73
     7
 74
     5
 42
0.0000000001
 43
0.0000000001
 44
0.0000000001
 40
0.0
 40
0.0
 40
0.0
 40
0.0
 40
0.1258352655326667
 40
0.2519969497200117
 40
0.3784983833573514
 40
0.5053486138013755
 40
0.5053486138013755
 40
0.5053486138013755
 40
0.5053486138013755
 10
-6.633682250975972
 20
-1.982025146479341
 30
0.0
 10
-6.591861385526376
 20
-1.978789815509773
 30
0.0
 10
-6.508111170645528
 20
-1.972310761071301
 30
0.0
 10
-6.382163976895149
 20
-1.964793599712331
 30
0.0
 10
-6.255795631116125
 20
-1.958804707068329
 30
0.0
 10
-6.171378779207562
 20
-1.95636213004653
 30
0.0
 10
-6.129112243651981
 20
-1.955139160151241
 30
0.0
 11
-6.633682250975972
 21
-1.982025146479341
 31
0.0
 11
-6.508193969725972
 21
-1.972686767573041
 31
0.0
 11
-6.382263183592975
 21
-1.965057373041841
 31
0.0
 11
-6.255897521971981
 21
-1.959197998041841
 31
0.0
 11
-6.129112243651981
 21
-1.955139160151241
 31
0.0
  0
SPLINE
  5
299A
330
1F
100
AcDbEntity
  8
AM_0
100
AcDbSpline
210
0.0
220
0.0
230
1.0
 70
     8
 71
     3
 72
    11
 73
     7
 74
     5
 42
0.0000000001
 43
0.0000000001
 44
0.0000000001
 40
0.0
 40
0.0
 40
0.0
 40
0.0
 40
0.2467068200619345
 40
0.4929829669504255
 40
0.7388230451984834
 40
0.9842076323847058
 40
0.9842076323847058
 40
0.9842076323847058
 40
0.9842076323847058
 10
-9.927047729491981
 20
-1.149536132807441
 30
0.0
 10
-9.989375274223423
 20
-1.203182888246434
 30
0.0
 10
-10.11392155922976
 20
-1.310382748618917
 30
0.0
 10
-10.30084177880252
 20
-1.470732135908727
 30
0.0
 10
-10.48759210221609
 20
-1.630602472374772
 30
0.0
 10
-10.61216942549185
 20
-1.736865341596105
 30
0.0
 10
-10.67440032958898
 20
-1.78994750976054
 30
0.0
 11
-9.927047729491981
 21
-1.149536132807441
 31
0.0
 11
-10.11407470703097
 21
-1.310424804682441
 31
0.0
 11
-10.30097961425698
 21
-1.470794677729341
 31
0.0
 11
-10.48775482177698
 21
-1.63064575194804
 31
0.0
 11
-10.67440032958898
 21
-1.78994750976054
 31
0.0
  0
SPLINE
  5
299B
330
1F
100
AcDbEntity
  8
AM_0
100
AcDbSpline
210
0.0
220
0.0
230
1.0
 70
     8
 71
     3
 72
    11
 73
     7
 74
     5
 42
0.0000000001
 43
0.0000000001
 44
0.0000000001
 40
0.0
 40
0.0
 40
0.0
 40
0.0
 40
0.2859305229799926
 40
0.5403770535670453
 40
0.7321315427292188
 40
0.8400317949842055
 40
0.8400317949842055
 40
0.8400317949842055
 40
0.8400317949842055
 10
-9.095581054686981
 20
-1.12185668944804
 30
0.0
 10
-9.190509522316508
 20
-1.111483228120072
 30
0.0
 10
-9.369913823412646
 20
-1.091878533912271
 30
0.0
 10
-9.613002737327086
 20
-1.092453242771253
 30
0.0
 10
-9.800743700595646
 20
-1.097419243068208
 30
0.0
 10
-9.893608716867101
 20
-1.135738177594231
 30
0.0
 10
-9.927047729491981
 20
-1.149536132807441
 30
0.0
 11
-9.095581054686981
 21
-1.12185668944804
 31
0.0
 11
-9.380371093749978
 21
-1.09634399413554
 31
0.0
 11
-9.634803771971981
 21
-1.093688964838741
 31
0.0
 11
-9.825607299803984
 21
-1.112762451166841
 31
0.0
 11
-9.927047729491981
 21
-1.149536132807441
 31
0.0
  0
SPLINE
  5
299C
330
1F
100
AcDbEntity
  8
AM_0
100
AcDbSpline
210
0.0
220
0.0
230
1.0
 70
     8
 71
     3
 72
    11
 73
     7
 74
     5
 42
0.0000000001
 43
0.0000000001
 44
0.0000000001
 40
0.0
 40
0.0
 40
0.0
 40
0.0
 40
0.9192035011589265
 40
1.838574769192303
 40
2.758092483500969
 40
3.67770671064484
 40
3.67770671064484
 40
3.67770671064484
 40
3.67770671064484
 10
-0.3669433593749788
 20
-2.819671630854341
 30
0.0
 10
-0.6711482291915554
 20
-2.782824831359179
 30
0.0
 10
-1.279613490262711
 20
-2.70912450733748
 30
0.0
 10
-2.187432275940955
 20
-2.562700960441292
 30
0.0
 10
-3.09122859683623
 20
-2.392475975077678
 30
0.0
 10
-3.688815827053651
 20
-2.255441166109069
 30
0.0
 10
-3.987625122069978
 20
-2.186920166010541
 30
0.0
 11
-0.3669433593749788
 21
-2.819671630854341
 31
0.0
 11
-1.278732299803984
 21
-2.703155517573041
 31
0.0
 11
-2.186691284178984
 21
-2.558746337885541
 31
0.0
 11
-3.089950561522976
 21
-2.386596679682441
 31
0.0
 11
-3.987625122069978
 21
-2.186920166010541
 31
0.0
  0
SPLINE
  5
299D
330
1F
100
AcDbEntity
  8
AM_0
100
AcDbSpline
210
0.0
220
0.0
230
1.0
 70
     8
 71
     3
 72
    11
 73
     7
 74
     5
 42
0.0000000001
 43
0.0000000001
 44
0.0000000001
 40
0.0
 40
0.0
 40
0.0
 40
0.0
 40
0.0636559084788424
 40
0.1287581113910437
 40
0.1951720188320604
 40
0.26275402932322
 40
0.26275402932322
 40
0.26275402932322
 40
0.26275402932322
 10
-6.255264282225972
 20
-1.952331542963741
 30
0.0
 10
-6.234047210732846
 20
-1.952597636177039
 30
0.0
 10
-6.191131005152156
 20
-1.953135868376013
 30
0.0
 10
-6.126073352048609
 20
-1.953354026311711
 30
0.0
 10
-6.059707184221297
 20
-1.953301927515358
 30
0.0
 10
-6.015042557969058
 20
-1.953042314857485
 30
0.0
 10
-5.992515563963983
 20
-1.952911376948041
 30
0.0
 11
-6.255264282225972
 21
-1.952331542963741
 31
0.0
 11
-6.191612243651981
 21
-1.953033447260541
 31
0.0
 11
-6.126510620116981
 21
-1.953308105463741
 31
0.0
 11
-6.060096740721981
 21
-1.953247070307442
 31
0.0
 11
-5.992515563963983
 21
-1.952911376948041
 31
0.0
  0
SPLINE
  5
299E
330
1F
100
AcDbEntity
  8
AM_0
100
AcDbSpline
210
0.0
220
0.0
230
1.0
 70
     8
 71
     3
 72
    11
 73
     7
 74
     5
 42
0.0000000001
 43
0.0000000001
 44
0.0000000001
 40
0.0
 40
0.0
 40
0.0
 40
0.0
 40
0.5867577664925918
 40
1.173515532985085
 40
1.76027329947758
 40
2.347032844811491
 40
2.347032844811491
 40
2.347032844811491
 40
2.347032844811491
 10
-8.548362731932975
 20
1.160491943364459
 30
0.0
 10
-8.593963580102121
 20
0.9702962136669048
 30
0.0
 10
-8.685165276440404
 20
0.5899047542718279
 30
0.0
 10
-8.821968593943207
 20
0.0193177505160028
 30
0.0
 10
-8.958768957707864
 20
-0.5512705711934063
 30
0.0
 10
-9.049976976275617
 20
-0.9316611244952493
 30
0.0
 10
-9.095581054686981
 20
-1.12185668944804
 30
0.0
 11
-8.548362731932975
 21
1.160491943364459
 31
0.0
 11
-8.685165405272975
 21
0.5899047851612587
 31
0.0
 11
-8.821968078612975
 21
0.0193176269581585
 31
0.0
 11
-8.958770751952975
 21
-0.5512695312449417
 31
0.0
 11
-9.095581054686981
 21
-1.12185668944804
 31
0.0
  0
SPLINE
  5
299F
330
1F
100
AcDbEntity
  8
AM_0
100
AcDbSpline
210
0.0
220
0.0
230
1.0
 70
     8
 71
     3
 72
    11
 73
     7
 74
     5
 42
0.0000000001
 43
0.0000000001
 44
0.0000000001
 40
0.0
 40
0.0
 40
0.0
 40
0.0
 40
0.2118307579741854
 40
0.4236318394174428
 40
0.6354625973916239
 40
0.8472933553656716
 40
0.8472933553656716
 40
0.8472933553656716
 40
0.8472933553656716
 10
-9.927047729491981
 20
-1.149536132807441
 30
0.0
 10
-9.910586821834627
 20
-1.080871394388891
 30
0.0
 10
-9.877667312618616
 20
-0.943551537171022
 30
0.0
 10
-9.828272810416127
 20
-0.737570318612015
 30
0.0
 10
-9.778893134941196
 20
-0.5315855452190658
 30
0.0
 10
-9.745969342506386
 20
-0.394256542413368
 30
0.0
 10
-9.729507446288984
 20
-0.3255920410105408
 30
0.0
 11
-9.927047729491981
 21
-1.149536132807441
 31
0.0
 11
-9.877662658690972
 21
-0.9435424804637412
 31
0.0
 11
-9.828277587889978
 21
-0.7375793456980408
 31
0.0
 11
-9.778892517088983
 21
-0.5315856933543414
 31
0.0
 11
-9.729507446288984
 21
-0.3255920410105408
 31
0.0
  0
SPLINE
  5
29A0
330
1F
100
AcDbEntity
  8
AM_0
100
AcDbSpline
210
0.0
220
0.0
230
1.0
 70
     8
 71
     3
 72
    11
 73
     7
 74
     5
 42
0.0000000001
 43
0.0000000001
 44
0.0000000001
 40
0.0
 40
0.0
 40
0.0
 40
0.0
 40
0.0085462603200407
 40
0.0203186212775003
 40
0.0353254386270374
 40
0.0535525395921984
 40
0.0535525395921984
 40
0.0535525395921984
 40
0.0535525395921984
 10
-9.358085632323984
 20
1.223510742192558
 30
0.0
 10
-9.355355161867636
 20
1.222694790820527
 30
0.0
 10
-9.348863504343256
 20
1.22075487718716
 30
0.0
 10
-9.337327205419521
 20
1.218345263629468
 30
0.0
 10
-9.322589567451554
 20
1.215549416859182
 30
0.0
 10
-9.311644166040633
 20
1.21383234882337
 30
0.0
 10
-9.305641174315972
 20
1.212890625005058
 30
0.0
 11
-9.358085632323984
 21
1.223510742192558
 31
0.0
 11
-9.349868774413984
 21
1.221160888676959
 31
0.0
 11
-9.338378906249978
 21
1.218597412114459
 31
0.0
 11
-9.323631286620972
 21
1.215820312505058
 31
0.0
 11
-9.305641174315972
 21
1.212890625005058
 31
0.0
  0
SPLINE
  5
29A1
330
1F
100
AcDbEntity
  8
AM_0
100
AcDbSpline
210
0.0
220
0.0
230
1.0
 70
     8
 71
     3
 72
    11
 73
     7
 74
     5
 42
0.0000000001
 43
0.0000000001
 44
0.0000000001
 40
0.0
 40
0.0
 40
0.0
 40
0.0
 40
0.0253599788879428
 40
0.0549911486224407
 40
0.0887478674956646
 40
0.1264522241164725
 40
0.1264522241164725
 40
0.1264522241164725
 40
0.1264522241164725
 10
-9.305641174315972
 20
1.212890625005058
 30
0.0
 10
-9.297273525408057
 20
1.211688178095346
 30
0.0
 10
-9.279128927309264
 20
1.209080765170644
 30
0.0
 10
-9.249747332785434
 20
1.205615068964557
 30
0.0
 10
-9.216228486040463
 20
1.20214089318902
 30
0.0
 10
-9.192498076772375
 20
1.200068203676192
 30
0.0
 10
-9.179977416991981
 20
1.198974609380058
 30
0.0
 11
-9.305641174315972
 21
1.212890625005058
 31
0.0
 11
-9.280525207518984
 21
1.209381103520658
 31
0.0
 11
-9.251106262206981
 21
1.205841064458158
 31
0.0
 11
-9.217529296874978
 21
1.202362060551959
 31
0.0
 11
-9.179977416991981
 21
1.198974609380058
 31
0.0
  0
SPLINE
  5
29A2
330
1F
100
AcDbEntity
  8
AM_0
100
AcDbSpline
210
0.0
220
0.0
230
1.0
 70
     8
 71
     3
 72
    11
 73
     7
 74
     5
 42
0.0000000001
 43
0.0000000001
 44
0.0000000001
 40
0.0
 40
0.0
 40
0.0
 40
0.0
 40
0.0641015394877885
 40
0.1357684380350323
 40
0.2139692020151946
 40
0.2975332480823203
 40
0.2975332480823203
 40
0.2975332480823203
 40
0.2975332480823203
 10
-9.179977416991981
 20
1.198974609380058
 30
0.0
 10
-9.158680875143764
 20
1.197237675879008
 30
0.0
 10
-9.113574341893794
 20
1.193558813400936
 30
0.0
 10
-9.042440728545173
 20
1.188353768875229
 30
0.0
 10
-8.964810767788835
 20
1.183052641236109
 30
0.0
 10
-8.910999357762461
 20
1.179606253683709
 30
0.0
 10
-8.883201599120972
 20
1.177825927739459
 30
0.0
 11
-9.179977416991981
 21
1.198974609380058
 31
0.0
 11
-9.116081237791981
 21
1.193847656255058
 31
0.0
 11
-9.044609069823984
 21
1.188568115239459
 31
0.0
 11
-8.966590881346981
 21
1.183227539067558
 31
0.0
 11
-8.883201599120972
 21
1.177825927739459
 31
0.0
  0
SPLINE
  5
29A3
330
1F
100
AcDbEntity
  8
AM_0
100
AcDbSpline
210
0.0
220
0.0
230
1.0
 70
     8
 71
     3
 72
    11
 73
     7
 74
     5
 42
0.0000000001
 43
0.0000000001
 44
0.0000000001
 40
0.0
 40
0.0
 40
0.0
 40
0.0
 40
0.081022813933138
 40
0.164599610667633
 40
0.2496923434866892
 40
0.3352917728780849
 40
0.3352917728780849
 40
0.3352917728780849
 40
0.3352917728780849
 10
-8.883201599120972
 20
1.177825927739459
 30
0.0
 10
-8.856243991147959
 20
1.176181559315336
 30
0.0
 10
-8.801479023585232
 20
1.172840989057826
 30
0.0
 10
-8.718362329900241
 20
1.168470435979887
 30
0.0
 10
-8.633706787848201
 20
1.164336674293613
 30
0.0
 10
-8.576866993202846
 20
1.161776054059008
 30
0.0
 10
-8.548362731932975
 20
1.160491943364459
 30
0.0
 11
-8.883201599120972
 21
1.177825927739459
 31
0.0
 11
-8.802322387694978
 21
1.173004150395658
 31
0.0
 11
-8.718864440916981
 21
1.168548583989459
 31
0.0
 11
-8.633872985838983
 21
1.164398193364459
 31
0.0
 11
-8.548362731932975
 21
1.160491943364459
 31
0.0
  0
SPLINE
  5
29A4
330
1F
100
AcDbEntity
  8
AM_0
100
AcDbSpline
210
0.0
220
0.0
230
1.0
 70
     8
 71
     3
 72
    11
 73
     7
 74
     5
 42
0.0000000001
 43
0.0000000001
 44
0.0000000001
 40
0.0
 40
0.0
 40
0.0
 40
0.0
 40
0.8597704910703534
 40
1.719540982140706
 40
2.579311473211242
 40
3.439110608162841
 40
3.439110608162841
 40
3.439110608162841
 40
3.439110608162841
 10
-0.3660964965819816
 20
-2.819732666010541
 30
0.0
 10
-0.4177272286318107
 20
-2.537831638285794
 30
0.0
 10
-0.5209886927314689
 20
-1.9740295828363
 30
0.0
 10
-0.6758795186220242
 20
-1.128326248707447
 30
0.0
 10
-0.8307775457095139
 20
-0.2826145266667316
 30
0.0
 10
-0.9340297674461892
 20
0.2811989282321901
 30
0.0
 10
-0.9856567382809725
 20
0.5631103515675574
 30
0.0
 11
-0.3660964965819816
 21
-2.819732666010541
 31
0.0
 11
-0.5209884643549785
 21
-1.974029541010541
 31
0.0
 11
-0.6758804321279754
 21
-1.128326416010541
 31
0.0
 11
-0.8307723999019811
 21
-0.2826232910105419
 31
0.0
 11
-0.9856567382809725
 21
0.5631103515675574
 31
0.0
  0
SPLINE
  5
29A5
330
1F
100
AcDbEntity
  8
AM_0
100
AcDbSpline
210
0.0
220
0.0
230
1.0
 70
     8
 71
     3
 72
    11
 73
     7
 74
     5
 42
0.0000000001
 43
0.0000000001
 44
0.0000000001
 40
0.0
 40
0.0
 40
0.0
 40
0.0
 40
0.0364491079927826
 40
0.074150315147494
 40
0.1127385859617792
 40
0.1518388399264565
 40
0.1518388399264565
 40
0.1518388399264565
 40
0.1518388399264565
 10
-0.2147369384759728
 20
-2.831787109369941
 30
0.0
 10
-0.2268470733623185
 20
-2.830807335189386
 30
0.0
 10
-0.2514833502906591
 20
-2.82881412964164
 30
0.0
 10
-0.2889453524893677
 20
-2.825844274817743
 30
0.0
 10
-0.3272878315965968
 20
-2.822798738633951
 30
0.0
 10
-0.3531035646129823
 20
-2.820759170607465
 30
0.0
 10
-0.3660964965819816
 20
-2.819732666010541
 30
0.0
 11
-0.2147369384759728
 21
-2.831787109369941
 31
0.0
 11
-0.2510681152339843
 21
-2.828857421869941
 31
0.0
 11
-0.2886505126949786
 21
-2.825866699213741
 31
0.0
 11
-0.3271179199209727
 21
-2.822814941401241
 31
0.0
 11
-0.3660964965819816
 21
-2.819732666010541
 31
0.0
  0
SPLINE
  5
29A6
330
1F
100
AcDbEntity
  8
AM_0
100
AcDbSpline
210
0.0
220
0.0
230
1.0
 70
     8
 71
     3
 72
    11
 73
     7
 74
     5
 42
0.0000000001
 43
0.0000000001
 44
0.0000000001
 40
0.0
 40
0.0
 40
0.0
 40
0.0
 40
0.0194865325781175
 40
0.062379148765427
 40
0.1321978786705797
 40
0.2244104224037367
 40
0.2244104224037367
 40
0.2244104224037367
 40
0.2244104224037367
 10
-0.0001907348629758
 20
-2.799560546869941
 30
0.0
 10
-0.0035993814126312
 20
-2.805373567382308
 30
0.0
 10
-0.0145109414532557
 20
-2.823981868775273
 30
0.0
 10
-0.0639240345765583
 20
-2.82733596562224
 30
0.0
 10
-0.1290766932310877
 20
-2.834926355646036
 30
0.0
 10
-0.1836685365281841
 20
-2.832925693141678
 30
0.0
 10
-0.2147369384759728
 20
-2.831787109369941
 30
0.0
 11
-0.0001907348629758
 21
-2.799560546869941
 31
0.0
 11
-0.0116271972649786
 21
-2.815338134760541
 31
0.0
 11
-0.0529479980459728
 21
-2.826843261713741
 31
0.0
 11
-0.1225280761709727
 21
-2.832611083979341
 31
0.0
 11
-0.2147369384759728
 21
-2.831787109369941
 31
0.0
  0
SPLINE
  5
29A7
330
1F
100
AcDbEntity
  8
AM_0
100
AcDbSpline
210
0.0
220
0.0
230
1.0
 70
     8
 71
     3
 72
    11
 73
     7
 74
     5
 42
0.0000000001
 43
0.0000000001
 44
0.0000000001
 40
0.0
 40
0.0
 40
0.0
 40
0.0
 40
0.0153735934606918
 40
0.0307495796212244
 40
0.0461231730819163
 40
0.0614991592414431
 40
0.0614991592414431
 40
0.0614991592414431
 40
0.0614991592414431
 10
-8.924682617186981
 20
1.361846923833158
 30
0.0
 10
-8.929792052321865
 20
1.362240042114368
 30
0.0
 10
-8.940011717808744
 20
1.363026339860536
 30
0.0
 10
-8.95533570701772
 20
1.364270748536079
 30
0.0
 10
-8.970666625048675
 20
1.365437228363816
 30
0.0
 10
-8.980883564441326
 20
1.366258188945604
 30
0.0
 10
-8.985992431639978
 20
1.366668701176959
 30
0.0
 11
-8.924682617186981
 21
1.361846923833158
 31
0.0
 11
-8.940010070799978
 21
1.363037109380058
 31
0.0
 11
-8.955337524413984
 21
1.364257812505058
 31
0.0
 11
-8.970664978026981
 21
1.365447998051959
 31
0.0
 11
-8.985992431639978
 21
1.366668701176959
 31
0.0
  0
SPLINE
  5
29A8
330
1F
100
AcDbEntity
  8
AM_0
100
AcDbSpline
210
0.0
220
0.0
230
1.0
 70
     8
 71
     3
 72
    11
 73
     7
 74
     5
 42
0.0000000001
 43
0.0000000001
 44
0.0000000001
 40
0.0
 40
0.0
 40
0.0
 40
0.0
 40
0.023608009666981
 40
0.0472220407678895
 40
0.0708284526778163
 40
0.0944440810203036
 40
0.0944440810203036
 40
0.0944440810203036
 40
0.0944440810203036
 10
-16.99896240234297
 20
-12.99505710601254
 30
0.0
 10
-17.0068205433224
 20
-12.99547676250787
 30
0.0
 10
-17.02253882957039
 20
-12.99631618253566
 30
0.0
 10
-17.04611716241504
 20
-12.99752872912563
 30
0.0
 10
-17.0696979783603
 20
-12.9987424275615
 30
0.0
 10
-17.08541628855335
 20
-12.99958139038543
 30
0.0
 10
-17.09327697753898
 20
-13.00000095366854
 30
0.0
 11
-16.99896240234297
 21
-12.99505710601254
 31
0.0
 11
-17.02253723144497
 21
-12.99630832671554
 31
0.0
 11
-17.04611968994097
 21
-12.99752902984054
 31
0.0
 11
-17.06969451904198
 21
-12.99874973296554
 31
0.0
 11
-17.09327697753898
 21
-13.00000095366854
 31
0.0
  0
SPLINE
  5
29A9
330
1F
100
AcDbEntity
  8
AM_0
100
AcDbSpline
210
0.0
220
0.0
230
1.0
 70
     8
 71
     3
 72
    11
 73
     7
 74
     5
 42
0.0000000001
 43
0.0000000001
 44
0.0000000001
 40
0.0
 40
0.0
 40
0.0
 40
0.0
 40
0.0461205046194104
 40
0.0922699856449882
 40
0.1384065915651545
 40
0.1845675129215772
 40
0.1845675129215772
 40
0.1845675129215772
 40
0.1845675129215772
 10
-8.76643371581998
 20
-12.59039402007554
 30
0.0
 10
-8.780659232671624
 20
-12.58454004679727
 30
0.0
 10
-8.809119203925739
 20
-12.57282842232981
 30
0.0
 10
-8.849807912541225
 20
-12.5509493664092
 30
0.0
 10
-8.888974362858379
 20
-12.5264256028854
 30
0.0
 10
-8.913260927996049
 20
-12.50750874793224
 30
0.0
 10
-8.925407409666982
 20
-12.49804782866854
 30
0.0
 11
-8.76643371581998
 21
-12.59039402007554
 31
0.0
 11
-8.808776855467977
 21
-12.57211399077854
 31
0.0
 11
-8.849555969237977
 21
-12.55050754546554
 31
0.0
 11
-8.888511657713985
 21
-12.52578830718454
 31
0.0
 11
-8.925407409666982
 21
-12.49804782866854
 31
0.0
  0
SPLINE
  5
29AA
330
1F
100
AcDbEntity
  8
AM_0
100
AcDbSpline
210
0.0
220
0.0
230
1.0
 70
     8
 71
     3
 72
    11
 73
     7
 74
     5
 42
0.0000000001
 43
0.0000000001
 44
0.0000000001
 40
0.0
 40
0.0
 40
0.0
 40
0.0
 40
0.0452580165773746
 40
0.0904661552996018
 40
0.1357082673798054
 40
0.1809712841521674
 40
0.1809712841521674
 40
0.1809712841521674
 40
0.1809712841521674
 10
-1.156311035155973
 20
-7.781036376947542
 30
0.0
 10
-1.14996030912866
 20
-7.794728991546465
 30
0.0
 10
-1.137265856068176
 20
-7.822099130417798
 30
0.0
 10
-1.122165070509783
 20
-7.864796220704407
 30
0.0
 10
-1.10977118568636
 20
-7.908357777077148
 30
0.0
 10
-1.104278806382334
 20
-7.938037546814288
 30
0.0
 10
-1.101531982420973
 20
-7.952880859369542
 30
0.0
 11
-1.156311035155973
 21
-7.781036376947542
 31
0.0
 11
-1.137916564940973
 21
-7.822387695306542
 31
0.0
 11
-1.122619628905973
 21
-7.864929199213542
 31
0.0
 11
-1.110466003416981
 21
-7.908508300775541
 31
0.0
 11
-1.101531982420973
 21
-7.952880859369542
 31
0.0
  0
SPLINE
  5
29AB
330
1F
100
AcDbEntity
  8
AM_0
100
AcDbSpline
210
0.0
220
0.0
230
1.0
 70
     8
 71
     3
 72
    11
 73
     7
 74
     5
 42
0.0000000001
 43
0.0000000001
 44
0.0000000001
 40
0.0
 40
0.0
 40
0.0
 40
0.0
 40
0.0640796475601917
 40
0.1281469765180462
 40
0.1922025297291113
 40
0.2562533979343557
 40
0.2562533979343557
 40
0.2562533979343557
 40
0.2562533979343557
 10
-8.76643371581998
 20
-12.59039402007554
 30
0.0
 10
-8.746282726775961
 20
-12.59754257826146
 30
0.0
 10
-8.705984622492319
 20
-12.61183832040219
 30
0.0
 10
-8.643149287838616
 20
-12.62509162247948
 30
0.0
 10
-8.579391629686178
 20
-12.63266845750204
 30
0.0
 10
-8.536651140369018
 20
-12.63207338258817
 30
0.0
 10
-8.515281677245974
 20
-12.63177585601254
 30
0.0
 11
-8.76643371581998
 21
-12.59039402007554
 31
0.0
 11
-8.705581665038986
 21
-12.61047458648154
 31
0.0
 11
-8.642990112303985
 21
-12.62414646148154
 31
0.0
 11
-8.57933044433498
 21
-12.63125705718454
 31
0.0
 11
-8.515281677245974
 21
-12.63177585601254
 31
0.0
  0
SPLINE
  5
29AC
330
1F
100
AcDbEntity
  8
AM_0
100
AcDbSpline
210
0.0
220
0.0
230
1.0
 70
     8
 71
     3
 72
    11
 73
     7
 74
     5
 42
0.0000000001
 43
0.0000000001
 44
0.0000000001
 40
0.0
 40
0.0
 40
0.0
 40
0.0
 40
0.0187092308657819
 40
0.0374409839589018
 40
0.0561484227031781
 40
0.0748717605321667
 40
0.0748717605321667
 40
0.0748717605321667
 40
0.0748717605321667
 10
-9.225486755370974
 20
-12.51123142241854
 30
0.0
 10
-9.221903445165434
 20
-12.51633598772478
 30
0.0
 10
-9.21473251115495
 20
-12.52655126322807
 30
0.0
 10
-9.203521084799911
 20
-12.54154085390698
 30
0.0
 10
-9.191974032987083
 20
-12.55627961422163
 30
0.0
 10
-9.183977421203106
 20
-12.56585794659643
 30
0.0
 10
-9.179977416991983
 20
-12.57064914702854
 30
0.0
 11
-9.225486755370974
 21
-12.51123142241854
 31
0.0
 11
-9.214660644530974
 21
-12.52649021148154
 31
0.0
 11
-9.203460693358985
 21
-12.54150485991853
 31
0.0
 11
-9.191902160643985
 21
-12.55621433257554
 31
0.0
 11
-9.179977416991983
 21
-12.57064914702854
 31
0.0
  0
SPLINE
  5
29AD
330
1F
100
AcDbEntity
  8
AM_0
100
AcDbSpline
210
0.0
220
0.0
230
1.0
 70
     8
 71
     3
 72
    11
 73
     7
 74
     5
 42
0.0000000001
 43
0.0000000001
 44
0.0000000001
 40
0.0
 40
0.0
 40
0.0
 40
0.0
 40
0.092397016833309
 40
0.1847978987866684
 40
0.2771939993193882
 40
0.369565824806859
 40
0.369565824806859
 40
0.369565824806859
 40
0.369565824806859
 10
-9.179977416991983
 20
-12.57064914702854
 30
0.0
 10
-9.15923099626112
 20
-12.5934692491965
 30
0.0
 10
-9.117737286942304
 20
-12.63911040813503
 30
0.0
 10
-9.045555546893393
 20
-12.69726093873533
 30
0.0
 10
-8.967709813849516
 20
-12.74756163140023
 30
0.0
 10
-8.911368536634254
 20
-12.77264678987111
 30
0.0
 10
-8.883201599120974
 20
-12.78518772124654
 30
0.0
 11
-9.179977416991983
 21
-12.57064914702854
 31
0.0
 11
-9.116081237791982
 21
-12.63739109038754
 31
0.0
 11
-9.044609069823986
 21
-12.69595432280954
 31
0.0
 11
-8.966590881346983
 21
-12.74545383452854
 31
0.0
 11
-8.883201599120974
 21
-12.78518772124654
 31
0.0
  0
SPLINE
  5
29AE
330
1F
100
AcDbEntity
  8
AM_0
100
AcDbSpline
210
0.0
220
0.0
230
1.0
 70
     8
 71
     3
 72
    11
 73
     7
 74
     5
 42
0.0000000001
 43
0.0000000001
 44
0.0000000001
 40
0.0
 40
0.0
 40
0.0
 40
0.0
 40
0.0854746157510476
 40
0.1709702607197927
 40
0.2564765391887048
 40
0.341987059932507
 40
0.341987059932507
 40
0.341987059932507
 40
0.341987059932507
 10
-8.883201599120974
 20
-12.78518772124654
 30
0.0
 10
-8.85643706229769
 20
-12.7950521468535
 30
0.0
 10
-8.802901403804073
 20
-12.81478342500029
 30
0.0
 10
-8.719076533935933
 20
-12.83271284400611
 30
0.0
 10
-8.633946309714566
 20
-12.84271889524875
 30
0.0
 10
-8.5768910629679
 20
-12.84155554407537
 30
0.0
 10
-8.548362731932977
 20
-12.84097385405954
 30
0.0
 11
-8.883201599120974
 21
-12.78518772124654
 31
0.0
 11
-8.80232238769498
 21
-12.81283664702854
 31
0.0
 11
-8.718864440916982
 21
-12.83139133452854
 31
0.0
 11
-8.633872985838985
 21
-12.84076023101254
 31
0.0
 11
-8.548362731932977
 21
-12.84097385405954
 31
0.0
  0
SPLINE
  5
29AF
330
1F
100
AcDbEntity
  8
AM_0
100
AcDbSpline
210
0.0
220
0.0
230
1.0
 70
     8
 71
     3
 72
    11
 73
     7
 74
     5
 42
0.0000000001
 43
0.0000000001
 44
0.0000000001
 40
0.0
 40
0.0
 40
0.0
 40
0.0
 40
0.0435890405476179
 40
0.0871780810942554
 40
0.1307976322662736
 40
0.1744170213025581
 40
0.1744170213025581
 40
0.1744170213025581
 40
0.1744170213025581
 10
-8.515281677245974
 20
-12.63177585601254
 30
0.0
 10
-8.51559196913903
 20
-12.6463022225672
 30
0.0
 10
-8.516212552925134
 20
-12.6753549556762
 30
0.0
 10
-8.517143108388141
 20
-12.71894423462531
 30
0.0
 10
-8.518076030655242
 20
-12.7625435818193
 30
0.0
 10
-8.518690138853513
 20
-12.79161674356319
 30
0.0
 10
-8.518997192381982
 20
-12.80615329741854
 30
0.0
 11
-8.515281677245974
 21
-12.63177585601254
 31
0.0
 11
-8.516212463377977
 21
-12.67535495757554
 31
0.0
 11
-8.517143249510974
 21
-12.71893405913754
 31
0.0
 11
-8.518074035643985
 21
-12.76254367827854
 31
0.0
 11
-8.518997192381982
 21
-12.80615329741854
 31
0.0
  0
SPLINE
  5
29B0
330
1F
100
AcDbEntity
  8
AM_0
100
AcDbSpline
210
0.0
220
0.0
230
1.0
 70
     8
 71
     3
 72
    11
 73
     7
 74
     5
 42
0.0000000001
 43
0.0000000001
 44
0.0000000001
 40
0.0
 40
0.0
 40
0.0
 40
0.0
 40
0.1812093690294516
 40
0.3623987263740699
 40
0.5435880837193451
 40
0.7247832015244154
 40
0.7247832015244154
 40
0.7247832015244154
 40
0.7247832015244154
 10
-8.548362731932977
 20
-12.84097385405954
 30
0.0
 10
-8.593962254402235
 20
-12.88058724624677
 30
0.0
 10
-8.685156263600728
 20
-12.95980965595386
 30
0.0
 10
-8.821969391948039
 20
-13.0786127227789
 30
0.0
 10
-8.958771053378812
 20
-13.1974217478841
 30
0.0
 10
-9.049977237646745
 20
-13.27662289510153
 30
0.0
 10
-9.095581054686983
 20
-13.31622409820054
 30
0.0
 11
-8.548362731932977
 21
-12.84097385405954
 31
0.0
 11
-8.685165405272977
 21
-12.95980930327853
 31
0.0
 11
-8.821968078612977
 21
-13.07861423491853
 31
0.0
 11
-8.958770751952977
 21
-13.19741916655954
 31
0.0
 11
-9.095581054686983
 21
-13.31622409820054
 31
0.0
  0
SPLINE
  5
29B1
330
1F
100
AcDbEntity
  8
AM_0
100
AcDbSpline
210
0.0
220
0.0
230
1.0
 70
     8
 71
     3
 72
    11
 73
     7
 74
     5
 42
0.0000000001
 43
0.0000000001
 44
0.0000000001
 40
0.0
 40
0.0
 40
0.0
 40
0.0
 40
0.2876807661068431
 40
0.5764620685642692
 40
0.8646007847791544
 40
1.150990251659124
 40
1.150990251659124
 40
1.150990251659124
 40
1.150990251659124
 10
-9.095581054686983
 20
-13.31622409820054
 30
0.0
 10
-9.192333728469865
 20
-13.30959449942732
 30
0.0
 10
-9.386209207956348
 20
-13.29630994003784
 30
0.0
 10
-9.644061373031888
 20
-13.1511741047286
 30
0.0
 10
-9.845094419750338
 20
-12.9338778256821
 30
0.0
 10
-9.899785464992417
 20
-12.74791277843626
 30
0.0
 10
-9.927047729491983
 20
-12.65521335601254
 30
0.0
 11
-9.095581054686983
 21
-13.31622409820054
 31
0.0
 11
-9.38037109374998
 21
-13.27554416655954
 31
0.0
 11
-9.634803771971983
 21
-13.13894748687154
 31
0.0
 11
-9.825607299803985
 21
-12.92303562163754
 31
0.0
 11
-9.927047729491983
 21
-12.65521335601254
 31
0.0
  0
SPLINE
  5
29B2
330
1F
100
AcDbEntity
  8
AM_0
100
AcDbSpline
210
0.0
220
0.0
230
1.0
 70
     8
 71
     3
 72
    11
 73
     7
 74
     5
 42
0.0000000001
 43
0.0000000001
 44
0.0000000001
 40
0.0
 40
0.0
 40
0.0
 40
0.0
 40
0.219125861696314
 40
0.4382733110772001
 40
0.6574207604587992
 40
0.8765412292850999
 40
0.8765412292850999
 40
0.8765412292850999
 40
0.8765412292850999
 10
-0.3660964965819829
 20
-13.13116550445054
 30
0.0
 10
-0.4177284466687869
 20
-13.0795005378299
 30
0.0
 10
-0.5209974334818435
 20
-12.97616551469648
 30
0.0
 10
-0.6758801594193106
 20
-12.82113715576417
 30
0.0
 10
-0.8307632510284372
 20
-12.66611170355878
 30
0.0
 10
-0.9340276949112883
 20
-12.56277468205346
 30
0.0
 10
-0.9856567382809743
 20
-12.51110935210654
 30
0.0
 11
-0.3660964965819829
 21
-13.13116550445054
 31
0.0
 11
-0.5209884643549798
 21
-12.97616672515354
 31
0.0
 11
-0.6758804321279768
 21
-12.82113742827854
 31
0.0
 11
-0.8307723999019827
 21
-12.66610813140354
 31
0.0
 11
-0.9856567382809743
 21
-12.51110935210654
 31
0.0
  0
SPLINE
  5
29B3
330
1F
100
AcDbEntity
  8
AM_0
100
AcDbSpline
210
0.0
220
0.0
230
1.0
 70
     8
 71
     3
 72
    11
 73
     7
 74
     5
 42
0.0000000001
 43
0.0000000001
 44
0.0000000001
 40
0.0
 40
0.0
 40
0.0
 40
0.0
 40
2.200365979983973
 40
4.370325273408829
 40
6.536348570786544
 40
8.730821473111758
 40
8.730821473111758
 40
8.730821473111758
 40
8.730821473111758
 10
-0.3669433593749801
 20
-13.13119602202854
 30
0.0
 10
-1.100011108992947
 20
-13.15575132340113
 30
0.0
 10
-2.556016401939565
 20
-13.20452259834404
 30
0.0
 10
-4.734729702707432
 20
-13.23013184545117
 30
0.0
 10
-6.911503830778938
 20
-13.25086682742335
 30
0.0
 10
-8.36439556626585
 20
-13.29434378763643
 30
0.0
 10
-9.095581054686983
 20
-13.31622409820054
 30
0.0
 11
-0.3669433593749801
 21
-13.13119602202854
 31
0.0
 11
-2.566329956053985
 21
-13.19683933257554
 31
0.0
 11
-4.736045837401983
 21
-13.22934055327854
 31
0.0
 11
-6.901878356932977
 21
-13.25808811187154
 31
0.0
 11
-9.095581054686983
 21
-13.31622409820054
 31
0.0
  0
SPLINE
  5
29B4
330
1F
100
AcDbEntity
  8
AM_0
100
AcDbSpline
210
0.0
220
0.0
230
1.0
 70
     8
 71
     3
 72
    11
 73
     7
 74
     5
 42
0.0000000001
 43
0.0000000001
 44
0.0000000001
 40
0.0
 40
0.0
 40
0.0
 40
0.0
 40
0.0295126439821493
 40
0.0589715778565172
 40
0.0884354905562958
 40
0.1179365677162636
 40
0.1179365677162636
 40
0.1179365677162636
 40
0.1179365677162636
 10
-1.093711853026982
 20
-7.502014160150541
 30
0.0
 10
-1.10016338997026
 20
-7.49458579373068
 30
0.0
 10
-1.113054722694459
 20
-7.479742579786831
 30
0.0
 10
-1.13344458505717
 20
-7.458440414361719
 30
0.0
 10
-1.154532674464967
 20
-7.437834554779055
 30
0.0
 10
-1.169244617012732
 20
-7.424796874573543
 30
0.0
 10
-1.176605224608984
 20
-7.418273925775541
 30
0.0
 11
-1.093711853026982
 21
-7.502014160150541
 31
0.0
 11
-1.113243103026982
 21
-7.479888916010541
 31
0.0
 11
-1.133560180663985
 21
-7.458557128900541
 31
0.0
 11
-1.154685974120973
 21
-7.438018798822542
 31
0.0
 11
-1.176605224608984
 21
-7.418273925775541
 31
0.0
  0
SPLINE
  5
29B5
330
1F
100
AcDbEntity
  8
AM_0
100
AcDbSpline
210
0.0
220
0.0
230
1.0
 70
     8
 71
     3
 72
    11
 73
     7
 74
     5
 42
0.0000000001
 43
0.0000000001
 44
0.0000000001
 40
0.0
 40
0.0
 40
0.0
 40
0.0
 40
0.0611259395650332
 40
0.122281902162588
 40
0.1834011546065081
 40
0.2444814225309354
 40
0.2444814225309354
 40
0.2444814225309354
 40
0.2444814225309354
 10
-0.967300415038985
 20
-7.710174560541541
 30
0.0
 10
-0.9754613088353497
 20
-7.69149255707534
 30
0.0
 10
-0.9917871047882226
 20
-7.654119374162961
 30
0.0
 10
-1.021722594681369
 20
-7.600725120957905
 30
0.0
 10
-1.055217502099208
 20
-7.549500906316263
 30
0.0
 10
-1.08088313203081
 20
-7.517839708650347
 30
0.0
 10
-1.093711853026982
 20
-7.502014160150541
 30
0.0
 11
-0.967300415038985
 21
-7.710174560541541
 31
0.0
 11
-0.992691040038985
 21
-7.654571533197542
 31
0.0
 11
-1.022323608397976
 21
-7.601074218744542
 31
0.0
 11
-1.056060791014979
 21
-7.550109863275541
 31
0.0
 11
-1.093711853026982
 21
-7.502014160150541
 31
0.0
  0
SPLINE
  5
29B6
330
1F
100
AcDbEntity
  8
AM_0
100
AcDbSpline
210
0.0
220
0.0
230
1.0
 70
     8
 71
     3
 72
    11
 73
     7
 74
     5
 42
0.0000000001
 43
0.0000000001
 44
0.0000000001
 40
0.0
 40
0.0
 40
0.0
 40
0.0
 40
0.0484137650227572
 40
0.0968891895902781
 40
0.1454438366276946
 40
0.1941299634519367
 40
0.1941299634519367
 40
0.1941299634519367
 40
0.1941299634519367
 10
-0.9856567382809743
 20
-12.51110935210654
 30
0.0
 10
-0.9695229571438872
 20
-12.51020792332433
 30
0.0
 10
-0.9372348469614943
 20
-12.50840391770444
 30
0.0
 10
-0.889640318201526
 20
-12.49846942245449
 30
0.0
 10
-0.8431807793075744
 20
-12.48374364269127
 30
0.0
 10
-0.8142306562755393
 20
-12.46905542964941
 30
0.0
 10
-0.7997360229489856
 20
-12.46170139312154
 30
0.0
 11
-0.9856567382809743
 21
-12.51110935210654
 31
0.0
 11
-0.9374008178709743
 21
-12.50720310210654
 31
0.0
 11
-0.8898696899409742
 21
-12.49768161773154
 31
0.0
 11
-0.8437347412099796
 21
-12.48254489898154
 31
0.0
 11
-0.7997360229489856
 21
-12.46170139312154
 31
0.0
  0
SPLINE
  5
29B7
330
1F
100
AcDbEntity
  8
AM_0
100
AcDbSpline
210
0.0
220
0.0
230
1.0
 70
     8
 71
     3
 72
    11
 73
     7
 74
     5
 42
0.0000000001
 43
0.0000000001
 44
0.0000000001
 40
0.0
 40
0.0
 40
0.0
 40
0.0
 40
0.0521812264670158
 40
0.1044000487089419
 40
0.1565984927198889
 40
0.208839915930452
 40
0.208839915930452
 40
0.208839915930452
 40
0.208839915930452
 10
-0.9137344360349793
 20
-7.911468505853542
 30
0.0
 10
-0.9163370431883453
 20
-7.894263885837506
 30
0.0
 10
-0.9215441326336925
 20
-7.859842250140069
 30
0.0
 10
-0.9335513883354028
 20
-7.808995109364907
 30
0.0
 10
-0.9483710230145778
 20
-7.758872625489413
 30
0.0
 10
-0.9609888868588258
 20
-7.72641170164155
 30
0.0
 10
-0.967300415038985
 20
-7.710174560541541
 30
0.0
 11
-0.9137344360349793
 21
-7.911468505853542
 31
0.0
 11
-0.922241210936982
 21
-7.859985351556542
 31
0.0
 11
-0.9340209960929762
 21
-7.809112548822542
 31
0.0
 11
-0.9490509033199792
 21
-7.759124755853542
 31
0.0
 11
-0.967300415038985
 21
-7.710174560541541
 31
0.0
  0
SPLINE
  5
29B8
330
1F
100
AcDbEntity
  8
AM_0
100
AcDbSpline
210
0.0
220
0.0
230
1.0
 70
     8
 71
     3
 72
    11
 73
     7
 74
     5
 42
0.0000000001
 43
0.0000000001
 44
0.0000000001
 40
0.0
 40
0.0
 40
0.0
 40
0.0
 40
0.062174819578308
 40
0.1245453508524331
 40
0.1870652635479253
 40
0.2496751268478143
 40
0.2496751268478143
 40
0.2496751268478143
 40
0.2496751268478143
 10
-0.7997360229489856
 20
-12.46170139312154
 30
0.0
 10
-0.7820484764781864
 20
-12.45079747599904
 30
0.0
 10
-0.7466177073040209
 20
-12.42895531878975
 30
0.0
 10
-0.7014031814823654
 20
-12.38546241413812
 30
0.0
 10
-0.6630160790180756
 20
-12.33563353795149
 30
0.0
 10
-0.6452751543635732
 20
-12.29775995284585
 30
0.0
 10
-0.6363983154289854
 20
-12.27880954741854
 30
0.0
 11
-0.7997360229489856
 21
-12.46170139312154
 31
0.0
 11
-0.7480010986319825
 21
-12.42721652984054
 31
0.0
 11
-0.7025909423819825
 21
-12.38446140288754
 31
0.0
 11
-0.6650009155269827
 21
-12.33450412749654
 31
0.0
 11
-0.6363983154289854
 21
-12.27880954741854
 31
0.0
  0
SPLINE
  5
29B9
330
1F
100
AcDbEntity
  8
AM_0
100
AcDbSpline
210
0.0
220
0.0
230
1.0
 70
     8
 71
     3
 72
    11
 73
     7
 74
     5
 42
0.0000000001
 43
0.0000000001
 44
0.0000000001
 40
0.0
 40
0.0
 40
0.0
 40
0.0
 40
0.026474698191269
 40
0.0528254075848512
 40
0.0791493009178901
 40
0.1056054186935992
 40
0.1056054186935992
 40
0.1056054186935992
 40
0.1056054186935992
 10
-0.6363983154289854
 20
-12.27880954741854
 30
0.0
 10
-0.6332219241262446
 20
-12.27057180738569
 30
0.0
 10
-0.6268840174953921
 20
-12.25413490707925
 30
0.0
 10
-0.6196182188424153
 20
-12.22874311187549
 30
0.0
 10
-0.6138986125880131
 20
-12.20296503242584
 30
0.0
 10
-0.6116426079663305
 20
-12.18550876539649
 30
0.0
 10
-0.6105117797849799
 20
-12.17675876616854
 30
0.0
 11
-0.6363983154289854
 21
-12.27880954741854
 31
0.0
 11
-0.6272430419919828
 21
-12.25396823882554
 31
0.0
 11
-0.61987304687498
 21
-12.22866916655954
 31
0.0
 11
-0.6142959594719825
 21
-12.20294284820054
 31
0.0
 11
-0.6105117797849799
 21
-12.17675876616854
 31
0.0
  0
SPLINE
  5
29BA
330
1F
100
AcDbEntity
  8
AM_0
100
AcDbSpline
210
0.0
220
0.0
230
1.0
 70
     8
 71
     3
 72
    11
 73
     7
 74
     5
 42
0.0000000001
 43
0.0000000001
 44
0.0000000001
 40
0.0
 40
0.0
 40
0.0
 40
0.0
 40
0.0171875493768564
 40
0.0343259360301087
 40
0.0514769523868406
 40
0.0686406705456397
 40
0.0686406705456397
 40
0.0686406705456397
 40
0.0686406705456397
 10
-0.6105117797849799
 20
-12.17675876616854
 30
0.0
 10
-0.6099531911259535
 20
-12.17105586640893
 30
0.0
 10
-0.6088376115772658
 20
-12.15966637928414
 30
0.0
 10
-0.6081068093210482
 20
-12.14251635811045
 30
0.0
 10
-0.6079812984587072
 20
-12.12535912597244
 30
0.0
 10
-0.6085288955274571
 20
-12.1139319757336
 30
0.0
 10
-0.6088027954099799
 20
-12.10821628570054
 30
0.0
 11
-0.6105117797849799
 21
-12.17675876616854
 31
0.0
 11
-0.6089935302729769
 21
-12.15963840484054
 31
0.0
 11
-0.608207702635974
 21
-12.14251804351254
 31
0.0
 11
-0.6081390380849795
 21
-12.12536716460654
 31
0.0
 11
-0.6088027954099799
 21
-12.10821628570054
 31
0.0
  0
SPLINE
  5
29BB
330
1F
100
AcDbEntity
  8
AM_0
100
AcDbSpline
210
0.0
220
0.0
230
1.0
 70
     8
 71
     3
 72
    11
 73
     7
 74
     5
 42
0.0000000001
 43
0.0000000001
 44
0.0000000001
 40
0.0
 40
0.0
 40
0.0
 40
0.0
 40
0.2034850254049258
 40
0.4060884192586455
 40
0.6081263154918537
 40
0.8101016099892268
 40
0.8101016099892268
 40
0.8101016099892268
 40
0.8101016099892268
 10
-1.209663391112976
 20
-6.829284667963542
 30
0.0
 10
-1.14822697311046
 20
-6.858993308257744
 30
0.0
 10
-1.025620320252793
 20
-6.918281871391018
 30
0.0
 10
-0.8790436755476703
 20
-7.062494362218696
 30
0.0
 10
-0.7691398820501032
 20
-7.235874107462861
 30
0.0
 10
-0.7383119621740411
 20
-7.367856779793906
 30
0.0
 10
-0.7229003906249794
 20
-7.433837890619542
 30
0.0
 11
-1.209663391112976
 21
-6.829284667963542
 31
0.0
 11
-1.031562805174979
 21
-6.927703857416541
 31
0.0
 11
-0.8849792480459733
 21
-7.067565917963542
 31
0.0
 11
-0.7797241210929763
 21
-7.240020751947542
 31
0.0
 11
-0.7229003906249794
 21
-7.433837890619542
 31
0.0
  0
SPLINE
  5
29BC
330
1F
100
AcDbEntity
  8
AM_0
100
AcDbSpline
210
0.0
220
0.0
230
1.0
 70
     8
 71
     3
 72
    11
 73
     7
 74
     5
 42
0.0000000001
 43
0.0000000001
 44
0.0000000001
 40
0.0
 40
0.0
 40
0.0
 40
0.0
 40
0.1285921067871259
 40
0.2571842135746245
 40
0.3857508123948066
 40
0.5143429191823068
 40
0.5143429191823068
 40
0.5143429191823068
 40
0.5143429191823068
 10
-0.7229003906249794
 20
-7.433837890619542
 30
0.0
 10
-0.7388031008064298
 20
-7.473642781693033
 30
0.0
 10
-0.7706085211693767
 20
-7.553252563840131
 30
0.0
 10
-0.8183043385556777
 20
-7.672663000880533
 30
0.0
 10
-0.8660367868837919
 20
-7.792058800758175
 30
0.0
 10
-0.8978341683075358
 20
-7.871662638812732
 30
0.0
 10
-0.9137344360349793
 20
-7.911468505853542
 30
0.0
 11
-0.7229003906249794
 21
-7.433837890619542
 31
0.0
 11
-0.7706069946279762
 21
-7.553253173822542
 31
0.0
 11
-0.8183135986319818
 21
-7.672668457025541
 31
0.0
 11
-0.8660278320309735
 21
-7.792053222650541
 31
0.0
 11
-0.9137344360349793
 21
-7.911468505853542
 31
0.0
  0
SPLINE
  5
29BD
330
1F
100
AcDbEntity
  8
AM_0
100
AcDbSpline
210
0.0
220
0.0
230
1.0
 70
     8
 71
     3
 72
    11
 73
     7
 74
     5
 42
0.0000000001
 43
0.0000000001
 44
0.0000000001
 40
0.0
 40
0.0
 40
0.0
 40
0.0
 40
0.2149556953395695
 40
0.4298898022882101
 40
0.6448239092368383
 40
0.8597796045764134
 40
0.8597796045764134
 40
0.8597796045764134
 40
0.8597796045764134
 10
-0.6088027954099799
 20
-12.10821628570054
 30
0.0
 10
-0.558162689335937
 20
-12.1589072535741
 30
0.0
 10
-0.4568875630656868
 20
-12.26028409833524
 30
0.0
 10
-0.3049545288080493
 20
-12.41232395171561
 30
0.0
 10
-0.1530214945499937
 20
-12.56436380509556
 30
0.0
 10
-0.0517463682805998
 20
-12.66574064985755
 30
0.0
 10
-0.0011062622069829
 20
-12.71643161773154
 30
0.0
 11
-0.6088027954099799
 21
-12.10821628570054
 31
0.0
 11
-0.4568786621089855
 21
-12.26028537749654
 31
0.0
 11
-0.3049545288079769
 21
-12.41232395171554
 31
0.0
 11
-0.1530303955069825
 21
-12.56436252593454
 31
0.0
 11
-0.0011062622069829
 21
-12.71643161773154
 31
0.0
  0
SPLINE
  5
29BE
330
1F
100
AcDbEntity
  8
AM_0
100
AcDbSpline
210
0.0
220
0.0
230
1.0
 70
     8
 71
     3
 72
    11
 73
     7
 74
     5
 42
0.0000000001
 43
0.0000000001
 44
0.0000000001
 40
0.0
 40
0.0
 40
0.0
 40
0.0
 40
0.1144722310779318
 40
0.2294942281902848
 40
0.344926720362015
 40
0.4605230607599581
 40
0.4605230607599581
 40
0.4605230607599581
 40
0.4605230607599581
 10
-0.0011062622069829
 20
-12.71643161773154
 30
0.0
 10
-0.0013165192876647
 20
-12.75486897081116
 30
0.0
 10
-0.0017380432328019
 20
-12.83192827677228
 30
0.0
 10
-0.0437735737593715
 20
-12.94119446872532
 30
0.0
 10
-0.1141863914423094
 20
-13.03577505566309
 30
0.0
 10
-0.181204246194595
 20
-13.07510808762965
 30
0.0
 10
-0.2147369384759741
 20
-13.09478855132554
 30
0.0
 11
-0.0011062622069829
 21
-12.71643161773154
 31
0.0
 11
-0.0085906982419828
 21
-12.83065891265354
 31
0.0
 11
-0.0484085082999797
 21
-12.93856906890354
 31
0.0
 11
-0.1191482543939855
 21
-13.02978610991854
 31
0.0
 11
-0.2147369384759741
 21
-13.09478855132554
 31
0.0
  0
SPLINE
  5
29BF
330
1F
100
AcDbEntity
  8
AM_0
100
AcDbSpline
210
0.0
220
0.0
230
1.0
 70
     8
 71
     3
 72
    11
 73
     7
 74
     5
 42
0.0000000001
 43
0.0000000001
 44
0.0000000001
 40
0.0
 40
0.0
 40
0.0
 40
0.0
 40
0.0391503092163822
 40
0.0783055898894449
 40
0.1174470369295006
 40
0.1565888089032469
 40
0.1565888089032469
 40
0.1565888089032469
 40
0.1565888089032469
 10
-0.2147369384759741
 20
-13.09478855132554
 30
0.0
 10
-0.2267543992705499
 20
-13.09990514728292
 30
0.0
 10
-0.2507908468830444
 20
-13.1101389889227
 30
0.0
 10
-0.2885148520199097
 20
-13.12091381624555
 30
0.0
 10
-0.3270230965491618
 20
-13.12837239671496
 30
0.0
 10
-0.3530719938635979
 20
-13.13023446596236
 30
0.0
 10
-0.3660964965819829
 20
-13.13116550445054
 30
0.0
 11
-0.2147369384759741
 21
-13.09478855132554
 31
0.0
 11
-0.2510681152339856
 21
-13.10937595366854
 31
0.0
 11
-0.2886505126949799
 21
-13.12036228179354
 31
0.0
 11
-0.327117919920974
 21
-13.12759494780954
 31
0.0
 11
-0.3660964965819829
 21
-13.13116550445054
 31
0.0
  0
SPLINE
  5
29C0
330
1F
100
AcDbEntity
  8
AM_0
100
AcDbSpline
210
0.0
220
0.0
230
1.0
 70
     8
 71
     3
 72
    11
 73
     7
 74
     5
 42
0.0000000001
 43
0.0000000001
 44
0.0000000001
 40
0.0
 40
0.0
 40
0.0
 40
0.0
 40
0.6186302319604307
 40
1.237229014878546
 40
1.855860166675258
 40
2.474460963949023
 40
2.474460963949023
 40
2.474460963949023
 40
2.474460963949023
 10
-0.0825958251949798
 20
-11.59018039702854
 30
0.0
 10
-0.1370390548783014
 20
-11.39128713236079
 30
0.0
 10
-0.2459227465376041
 20
-10.99351071407771
 30
0.0
 10
-0.4092520831838981
 20
-10.39684137438674
 30
0.0
 10
-0.5725735345167783
 20
-9.800180048720545
 30
0.0
 10
-0.6814644075565194
 20
-9.402404582210049
 30
0.0
 10
-0.7359085082999793
 20
-9.203521728510542
 30
0.0
 11
-0.0825958251949798
 21
-11.59018039702854
 31
0.0
 11
-0.2459259033199797
 21
-10.99350070952854
 31
0.0
 11
-0.4092483520499794
 21
-10.39685153960654
 31
0.0
 11
-0.5725784301749794
 21
-9.800170898431543
 31
0.0
 11
-0.7359085082999793
 21
-9.203521728510542
 31
0.0
  0
SPLINE
  5
29C1
330
1F
100
AcDbEntity
  8
AM_0
100
AcDbSpline
210
0.0
220
0.0
230
1.0
 70
     8
 71
     3
 72
    11
 73
     7
 74
     5
 42
0.0000000001
 43
0.0000000001
 44
0.0000000001
 40
0.0
 40
0.0
 40
0.0
 40
0.0
 40
1.051209947395976
 40
2.102504568912328
 40
3.153882486715802
 40
4.205374304037936
 40
4.205374304037936
 40
4.205374304037936
 40
4.205374304037936
 10
-0.7229003906249794
 20
-7.433837890619542
 30
0.0
 10
-0.6695167461544015
 20
-7.780150856387087
 30
0.0
 10
-0.5627451572033867
 20
-8.472804683154546
 30
0.0
 10
-0.4026410541187384
 20
-9.511836007650906
 30
0.0
 10
-0.242590286402939
 20
-10.55097061398836
 30
0.0
 10
-0.135929237988604
 20
-11.24376462788504
 30
0.0
 10
-0.0825958251949798
 20
-11.59018039702854
 30
0.0
 11
-0.7229003906249794
 21
-7.433837890619542
 31
0.0
 11
-0.5627593994139852
 21
-8.472778320306543
 31
0.0
 11
-0.4026565551749794
 21
-9.511810302728543
 31
0.0
 11
-0.2426071166989853
 21
-10.55093479155954
 31
0.0
 11
-0.0825958251949798
 21
-11.59018039702854
 31
0.0
  0
ELLIPSE
  5
29C2
330
1F
100
AcDbEntity
  8
AM_0
100
AcDbEllipse
 10
-20.05939483642497
 20
-0.5740051269480395
 30
0.0
 11
0.064445505140995
 21
0.7973938034409001
 31
0.0
210
0.0
220
0.0
230
0.9999999999999998
 40
0.5371891901074
 41
0.0061420179371698
 42
1.574097535735365
  0
ELLIPSE
  5
29C3
330
1F
100
AcDbEntity
  8
AM_0
100
AcDbEllipse
 10
-9.814987182616981
 20
-0.5820617675730408
 30
0.0
 11
-1.993843070867995
 21
0.1567688021253002
 31
0.0
210
0.0
220
0.0
230
1.0
 40
0.0034283894521
 41
4.877883680097426
 42
6.283185307179586
  0
ELLIPSE
  5
29C4
330
1F
100
AcDbEntity
  8
AM_0
100
AcDbEllipse
 10
-9.710098266600972
 20
-0.5296630859324415
 30
0.0
 11
-19.140926382889
 21
1.505004898298703
 31
0.0
210
0.0
220
0.0
230
1.0
 40
0.0034231043627
 41
1.004414905936416
 42
1.495703648796487
  0
ELLIPSE
  5
29C5
330
1F
100
AcDbEntity
  8
AM_0
100
AcDbEllipse
 10
-9.814987182616981
 20
-0.5820617675730408
 30
0.0
 11
-1.993843070867995
 21
0.1567688021253002
 31
0.0
210
0.0
220
0.0
230
1.0
 40
0.0034283894521
 41
0.0
 42
0.7851218874843173
  0
ELLIPSE
  5
29C6
330
1F
100
AcDbEntity
  8
AM_0
100
AcDbEllipse
 10
-9.658241271971981
 20
1.403991699223758
 30
0.0
 11
-1.991783153981998
 21
0.1566162152741006
 31
0.0
210
0.0
220
0.0
230
1.0
 40
0.0034167058799
 41
4.547720895388193
 42
4.597837660675235
  0
ELLIPSE
  5
29C7
330
1F
100
AcDbEntity
  8
AM_0
100
AcDbEllipse
 10
-10.61029815673797
 20
-1.327209472651241
 30
0.0
 11
0.0628281009109913
 21
0.7975158761932005
 31
0.0
210
0.0
220
0.0
230
1.0
 40
0.0434904761759
 41
0.4485677632395728
 42
1.574107652118438
  0
ELLIPSE
  5
29C8
330
1F
100
AcDbEntity
  8
AM_0
100
AcDbEllipse
 10
-9.772804260252975
 20
-1.327209472651241
 30
0.0
 11
-19.938458455351
 21
1.567687960802802
 31
0.0
210
0.0
220
0.0
230
0.9999999999999998
 40
0.0034223968641
 41
1.00438239968649
 42
1.527347923636866
  0
ELLIPSE
  5
29C9
330
1F
100
AcDbEntity
  8
AM_0
100
AcDbEllipse
 10
-1.035675048827975
 20
0.7401123046925574
 30
0.0
 11
-0.2279090851079956
 21
0.0179138184991006
 31
0.0
210
0.0
220
0.0
230
1.0
 40
0.0034823310775
 41
3.514239706915247
 42
4.709151376840496
  0
ELLIPSE
  5
29CA
330
1F
100
AcDbEntity
  8
AM_0
100
AcDbEllipse
 10
-1.021606445311981
 20
0.7390747070362577
 30
0.0
 11
-0.2021522460849923
 21
0.0158996584356999
 31
0.0
210
0.0
220
0.0
230
0.9999999999999998
 40
0.0034729497745
 41
3.141617826083582
 42
3.515912862838264
  0
ELLIPSE
  5
29CB
330
1F
100
AcDbEntity
  8
AM_0
100
AcDbEllipse
 10
-6.625534057616981
 20
0.0000000000050581
 30
0.0
 11
20.478385967422
 21
1.008085444151898
 31
0.0
210
0.0
220
0.0
230
1.0
 40
0.6329036976632
 41
3.064650542438545
 42
3.890050155202805
  0
ELLIPSE
  5
29CC
330
1F
100
AcDbEntity
  8
AM_0
100
AcDbEllipse
 10
-17.56633758544898
 20
0.0000000000050594
 30
0.0
 11
-165.3390289316419
 21
0.0449218746292209
 31
0.0
210
0.0
220
0.0
230
1.0
 40
0.0786259631279
 41
1.522681402343853
 42
1.573678874766507
  0
ELLIPSE
  5
29CD
330
1F
100
AcDbEntity
  8
AM_0
100
AcDbEllipse
 10
-17.56615447997997
 20
-0.0000309944102398
 30
0.0
 11
-165.342901922913
 21
13.00027455803712
 31
0.0
210
0.0
220
0.0
230
1.0
 40
0.0002681795264
 41
4.709397975006488
 42
4.760049899302039
  0
ELLIPSE
  5
29CE
330
1F
100
AcDbEntity
  8
AM_0
100
AcDbEllipse
 10
-11.38530731201097
 20
-0.1860051155039408
 30
0.0
 11
3.606498371950992
 21
12.6927496149264
 31
0.0
210
0.0
220
0.0
230
0.9999999999999998
 40
0.1234907828747
 41
4.717460202186583
 42
4.817375422006964
  0
ELLIPSE
  5
29CF
330
1F
100
AcDbEntity
  8
AM_0
100
AcDbEllipse
 10
-11.17936706542898
 20
-0.0525822639414408
 30
0.0
 11
1.021156141862009
 21
12.6890570197969
 31
0.0
210
0.0
220
0.0
230
1.0
 40
0.1310935324655
 41
4.782398128291876
 42
4.837611415613762
  0
ELLIPSE
  5
29D0
330
1F
100
AcDbEntity
  8
AM_0
100
AcDbEllipse
 10
-170.5194320678699
 20
0.0481262207081783
 30
0.0
 11
-267.6039635816049
 21
0.0724487268206335
 31
0.0
210
0.0
220
0.0
230
1.0
 40
0.0586129581802
 41
2.216915529444167
 42
2.25615341518944
  0
ELLIPSE
  5
29D1
330
1F
100
AcDbEntity
  8
AM_0
100
AcDbEllipse
 10
-11.17936706542898
 20
0.0877375602772595
 30
0.0
 11
-1.68441759477899
 21
12.6892705202325
 31
0.0
210
0.0
220
0.0
230
1.0
 40
0.0777173960417
 41
3.19125174936695
 42
3.245139534545212
  0
ELLIPSE
  5
29D2
330
1F
100
AcDbEntity
  8
AM_0
100
AcDbEllipse
 10
-11.38530731201097
 20
0.0887446403553587
 30
0.0
 11
-1.832382699382007
 21
12.6895449074419
 31
0.0
210
0.0
220
0.0
230
0.9999999999999998
 40
0.2741911387432
 41
3.116581297204075
 42
3.17166612154881
  0
ELLIPSE
  5
29D3
330
1F
100
AcDbEntity
  8
AM_0
100
AcDbEllipse
 10
-7.235763549803984
 20
0.0285639762928582
 30
0.0
 11
-0.5484396453359876
 21
12.4832155668523
 31
0.0
210
0.0
220
0.0
230
1.0
 40
0.0786260801313
 41
3.52627980438577
 42
3.597767689048365
  0
ELLIPSE
  5
29D4
330
1F
100
AcDbEntity
  8
AM_0
100
AcDbEllipse
 10
-90.16913604736227
 20
0.0383300781300683
 30
0.0
 11
-214.0461499915527
 21
0.0579528833779262
 31
0.0
210
0.0
220
0.0
230
1.0
 40
0.0586127706416
 41
1.973141127402607
 42
1.988367085870411
  0
ELLIPSE
  5
29D5
330
1F
100
AcDbEntity
  8
AM_0
100
AcDbEllipse
 10
-4.223548889159978
 20
0.0281977653553579
 30
0.0
 11
-0.5415039002109962
 21
12.3253487856288
 31
0.0
210
0.0
220
0.0
230
1.0
 40
0.0786266365669
 41
3.510445032471842
 42
3.591130478969794
  0
LINE
  5
29D6
330
1F
100
AcDbEntity
  8
AM_11
100
AcDbLine
 10
-8.999999999999966
 20
-13.50000095366854
 30
0.0
 11
0.0000000000000199
 21
-13.50000095366854
 31
0.0
  0
LINE
  5
29D7
330
1F
100
AcDbEntity
  8
AM_0
100
AcDbLine
 10
-0.9489974975579764
 20
-9.069379806513543
 30
0.0
 11
-0.8174896240229768
 21
-12.08143329619854
 31
0.0
  0
LINE
  5
29D8
330
1F
100
AcDbEntity
  8
AM_0
100
AcDbLine
 10
-0.9092788696279761
 20
-7.944488525385541
 30
0.0
 11
-1.101524353026982
 21
-7.952880859369542
 31
0.0
  0
LINE
  5
29D9
330
1F
100
AcDbEntity
  8
AM_0
100
AcDbLine
 10
-0.7567520141599795
 20
-9.060987472528543
 30
0.0
 11
-0.9490051269529766
 21
-9.069379806513543
 31
0.0
  0
ARC
  5
29DA
330
1F
100
AcDbEntity
  8
AM_0
100
AcDbCircle
 10
-1.035682678221982
 20
-12.07544040679354
 30
0.0
 40
0.2286105901003
100
AcDbArc
 50
272.500036155811
 51
303.052401219004
  0
LINE
  5
29DB
330
1F
100
AcDbEntity
  8
AM_0
100
AcDbLine
 10
-0.610649108885974
 20
-12.07239627837554
 30
0.0
 11
-0.7359085082999793
 21
-9.203517913812541
 31
0.0
  0
LINE
  5
29DC
330
1F
100
AcDbEntity
  8
AM_0
100
AcDbLine
 10
-0.0002136230459727
 20
-2.799417495722441
 30
0.0
 11
-0.6081542968749784
 21
0.519972801213558
 31
0.0
  0
LINE
  5
29DD
330
1F
100
AcDbEntity
  8
AM_0
100
AcDbLine
 10
-0.3669357299799779
 20
2.819672584538757
 30
0.0
 11
-0.2147369384759722
 21
2.831788063054357
 31
0.0
  0
LINE
  5
29DE
330
1F
100
AcDbEntity
  8
AM_0
100
AcDbLine
 10
-0.0010986328119807
 20
2.796627044682757
 30
0.0
 11
-0.0001754760739837
 21
2.799567937855957
 31
0.0
  0
LINE
  5
29DF
330
1F
100
AcDbEntity
  8
AM_0
100
AcDbLine
 10
-0.0825881957999778
 20
2.612154722218757
 30
0.0
 11
-0.001106262206981
 21
2.796620845799757
 31
0.0
  0
LINE
  5
29E0
330
1F
100
AcDbEntity
  8
AM_0
100
AcDbLine
 10
-0.6087875366209726
 20
0.5214166641285579
 30
0.0
 11
-0.6096572875969809
 21
0.5225172042897574
 31
0.0
  0
LINE
  5
29E1
330
1F
100
AcDbEntity
  8
AM_0
100
AcDbLine
 10
-0.799736022948984
 20
0.531192302708858
 30
0.0
 11
-0.911094665526981
 21
0.7309489250233582
 31
0.0
  0
LINE
  5
29E2
330
1F
100
AcDbEntity
  8
AM_0
100
AcDbLine
 10
-0.636405944823984
 20
0.5126719474842575
 30
0.0
 11
-0.8372726440419807
 21
0.7248468399098577
 31
0.0
  0
LINE
  5
29E3
330
1F
100
AcDbEntity
  8
AM_0
100
AcDbLine
 10
-0.6105041503899781
 20
0.5160622596791581
 30
0.0
 11
-0.8212890624999783
 21
0.7234268188526577
 31
0.0
  0
LINE
  5
29E4
330
1F
100
AcDbEntity
  8
AM_0
100
AcDbLine
 10
-0.6094512939449782
 20
0.5222826004078575
 30
0.0
 11
-0.8173065185539837
 21
0.7229909896900574
 31
0.0
  0
LINE
  5
29E5
330
1F
100
AcDbEntity
  8
AM_0
100
AcDbLine
 10
-0.3669433593749788
 20
-2.819669723505742
 30
0.0
 11
-0.2147369384759728
 21
-2.831785202021342
 31
0.0
  0
LINE
  5
29E6
330
1F
100
AcDbEntity
  8
AM_0
100
AcDbLine
 10
-0.9092788696279761
 20
-7.944495201105541
 30
0.0
 11
-0.9137344360349793
 21
-7.911468505853542
 31
0.0
  0
LINE
  5
29E7
330
1F
100
AcDbEntity
  8
AM_0
100
AcDbLine
 10
-0.7567443847649793
 20
-9.060980796808541
 30
0.0
 11
-0.9092712402339849
 21
-7.944489479059542
 31
0.0
  0
LINE
  5
29E8
330
1F
100
AcDbEntity
  8
AM_0
100
AcDbLine
 10
-0.7359085082999793
 20
-9.203513145441542
 30
0.0
 11
-0.7567520141599795
 21
-9.060985565180542
 31
0.0
  0
LINE
  5
29E9
330
1F
100
AcDbEntity
  8
AM_0
100
AcDbLine
 10
-0.6088027954099799
 20
-12.10820293425954
 30
0.0
 11
-0.610649108885974
 21
-12.07239246367854
 31
0.0
  0
LINE
  5
29EA
330
1F
100
AcDbEntity
  8
AM_0
100
AcDbLine
 10
-0.0825881957999796
 20
-11.59019184111954
 30
0.0
 11
-0.0011062622069829
 21
-12.71642971038254
 31
0.0
  0
LINE
  5
29EB
330
1F
100
AcDbEntity
  8
AM_0
100
AcDbLine
 10
-0.7997360229489856
 20
-12.46169185637854
 30
0.0
 11
-0.9110946655269827
 21
-12.26690959929854
 31
0.0
  0
LINE
  5
29EC
330
1F
100
AcDbEntity
  8
AM_0
100
AcDbLine
 10
-0.6364135742179769
 20
-12.27882099151054
 30
0.0
 11
-0.8372879028319827
 21
-12.18040370940654
 31
0.0
  0
LINE
  5
29ED
330
1F
100
AcDbEntity
  8
AM_0
100
AcDbLine
 10
-0.6105194091789853
 20
-12.17676448821454
 30
0.0
 11
-0.8212890624999799
 21
-12.13050174712554
 31
0.0
  0
LINE
  5
29EE
330
1F
100
AcDbEntity
  8
AM_0
100
AcDbLine
 10
-0.610649108885974
 20
-12.07238674163254
 30
0.0
 11
-0.8174972534169823
 21
-12.08141994475754
 31
0.0
  0
ARC
  5
29EF
330
1F
100
AcDbEntity
  8
AM_0
100
AcDbCircle
 10
-1.020210266112977
 20
-12.09027194976254
 30
0.0
 40
0.2029392719269
100
AcDbArc
 50
348.5693009423449
 51
2.499854245183327
  0
ARC
  5
29F0
330
1F
100
AcDbEntity
  8
AM_0
100
AcDbCircle
 10
-1.049964904784979
 20
-12.08425998687154
 30
0.0
 40
0.2334033995867
100
AcDbArc
 50
335.6751742045477
 51
348.569464866888
  0
ARC
  5
29F1
330
1F
100
AcDbEntity
  8
AM_0
100
AcDbCircle
 10
-1.021598815916982
 20
-12.09707736968454
 30
0.0
 40
0.2026131898165
100
AcDbArc
 50
303.0522646152201
 51
335.6751332234146
  0
LINE
  5
29F2
330
1F
100
AcDbEntity
  8
AM_0
100
AcDbLine
 10
-19.99667358398398
 20
0.2235412597706599
 30
0.0
 11
-25.52223968505797
 21
0.6701049804737607
 31
0.0
  0
LINE
  5
29F3
330
1F
100
AcDbEntity
  8
AM_0
100
AcDbLine
 10
-27.09236907958898
 20
-0.0088639259287391
 30
0.0
 11
-20.48799133300698
 21
-0.5426168441722396
 31
0.0
  0
LINE
  5
29F4
330
1F
100
AcDbEntity
  8
AM_0
100
AcDbLine
 10
-0.9769592285149794
 20
-10.74255084990954
 30
0.0
 11
-1.162742614745974
 21
-10.97189807891254
 31
0.0
  0
LINE
  5
29F5
330
1F
100
AcDbEntity
  8
AM_0
100
AcDbLine
 10
-0.9769592285149796
 20
-11.93252658843454
 30
0.0
 11
-0.9769592285149794
 21
-10.74255466460654
 31
0.0
  0
LINE
  5
29F6
330
1F
100
AcDbEntity
  8
AM_0
100
AcDbLine
 10
-3.365890502928985
 20
-9.869739532465542
 30
0.0
 11
-3.314460754393985
 21
-11.05181789397654
 31
0.0
  0
LINE
  5
29F7
330
1F
100
AcDbEntity
  8
AM_0
100
AcDbLine
 10
-6.362022399901982
 20
-10.00054073333154
 30
0.0
 11
-6.311454772948986
 21
-11.16273975371754
 31
0.0
  0
LINE
  5
29F8
330
1F
100
AcDbEntity
  8
AM_0
100
AcDbLine
 10
-3.438087463377976
 20
-9.872904777521542
 30
0.0
 11
-3.369094848631982
 21
-11.45303440093454
 31
0.0
  0
ARC
  5
29F9
330
1F
100
AcDbEntity
  8
AM_0
100
AcDbCircle
 10
-4.932044982909979
 20
-9.938110351556543
 30
0.0
 40
1.2500007152557
100
AcDbArc
 50
272.4999883444883
 51
0.0000050089578472
  0
ARC
  5
29FA
330
1F
100
AcDbEntity
  8
AM_0
100
AcDbCircle
 10
-4.932044982909979
 20
-9.938110351556543
 30
0.0
 40
1.2499997615814
100
AcDbArc
 50
92.49999016572045
 51
272.4999883444883
  0
ARC
  5
29FB
330
1F
100
AcDbEntity
  8
AM_0
100
AcDbCircle
 10
-5.206390380858985
 20
-9.950103759760542
 30
0.0
 40
1.2499533891678
100
AcDbArc
 50
278.8440592908889
 51
0.0000050089578472
  0
ARC
  5
29FC
330
1F
100
AcDbEntity
  8
AM_0
100
AcDbCircle
 10
-5.122741699217976
 20
-9.812561035150542
 30
0.0
 40
1.099999904632599
100
AcDbArc
 50
272.4999815142983
 51
92.50004116476914
  0
ARC
  5
29FD
330
1F
100
AcDbEntity
  8
AM_0
100
AcDbCircle
 10
-5.122741699217976
 20
-9.812561035150542
 30
0.0
 40
1.0969549417496
100
AcDbArc
 50
201.148254962955
 51
272.4999815142983
  0
ARC
  5
29FE
330
1F
100
AcDbEntity
  8
AM_0
100
AcDbCircle
 10
-5.398902893065973
 20
-9.824615478510542
 30
0.0
 40
1.0994985103607
100
AcDbArc
 50
249.9375239308582
 51
269.5816260970557
  0
ARC
  5
29FF
330
1F
100
AcDbEntity
  8
AM_0
100
AcDbCircle
 10
-5.463714599608985
 20
-9.827423095697541
 30
0.0
 40
1.498348712921099
100
AcDbArc
 50
309.1326082973955
 51
359.8285399400328
  0
LINE
  5
2A00
330
1F
100
AcDbEntity
  8
AM_0
100
AcDbLine
 10
-8.522773742674978
 20
1.159096241002358
 30
0.0
 11
-1.030075073241981
 21
0.5688557624867575
 31
0.0
  0
LINE
  5
2A01
330
1F
100
AcDbEntity
  8
AM_0
100
AcDbLine
 10
-8.515327453612975
 20
1.330101013188658
 30
0.0
 11
-1.025711059569978
 21
0.7401041984608582
 31
0.0
  0
LINE
  5
2A02
330
1F
100
AcDbEntity
  8
AM_0
100
AcDbLine
 10
-1.162734985350972
 20
0.7503051757862577
 30
0.0
 11
-1.162734985350971
 21
5.254302978520657
 31
0.0
  0
LINE
  5
2A03
330
1F
100
AcDbEntity
  8
AM_0
100
AcDbLine
 10
-0.976959228514978
 20
0.7362365722706575
 30
0.0
 11
-0.9769592285149775
 21
5.246185302739458
 31
0.0
  0
LINE
  5
2A04
330
1F
100
AcDbEntity
  8
AM_0
100
AcDbLine
 10
-3.365890502928983
 20
5.350487351422557
 30
0.0
 11
-6.310127258299977
 21
5.479057967667858
 31
0.0
  0
LINE
  5
2A05
330
1F
100
AcDbEntity
  8
AM_0
100
AcDbLine
 10
-3.314453124999978
 20
5.348274111752758
 30
0.0
 11
-1.16272735595698
 21
5.254310429101257
 31
0.0
  0
LINE
  5
2A06
330
1F
100
AcDbEntity
  8
AM_0
100
AcDbLine
 10
-0.9769592285149775
 20
5.246186792855557
 30
0.0
 11
-1.162734985350971
 21
5.254304707055357
 31
0.0
  0
LINE
  5
2A07
330
1F
100
AcDbEntity
  8
AM_0
100
AcDbLine
 10
-3.314460754393983
 20
5.348266124730357
 30
0.0
 11
-3.365882873534978
 21
5.350493788724257
 31
0.0
  0
LINE
  5
2A08
330
1F
100
AcDbEntity
  8
AM_0
100
AcDbLine
 10
-0.9856567382809725
 20
0.5631022453358582
 30
0.0
 11
-1.030090332030972
 21
0.5688405036976577
 31
0.0
  0
LINE
  5
2A09
330
1F
100
AcDbEntity
  8
AM_0
100
AcDbLine
 10
-1.030082702635972
 20
0.5688428878834576
 30
0.0
 11
-1.025711059569978
 21
0.7401127815296579
 31
0.0
  0
LINE
  5
2A0A
330
1F
100
AcDbEntity
  8
AM_0
100
AcDbLine
 10
-9.412681579588983
 20
1.226995468144658
 30
0.0
 11
-9.362449645995972
 21
1.224309921269658
 31
0.0
  0
LINE
  5
2A0B
330
1F
100
AcDbEntity
  8
AM_0
100
AcDbLine
 10
-9.362442016600972
 20
1.224316596989958
 30
0.0
 11
-9.358078002928984
 21
1.223522186284358
 31
0.0
  0
LINE
  5
2A0C
330
1F
100
AcDbEntity
  8
AM_0
100
AcDbLine
 10
-9.431556701659978
 20
0.917108058934459
 30
0.0
 11
-9.358085632323984
 21
1.223517894749958
 31
0.0
  0
LINE
  5
2A0D
330
1F
100
AcDbEntity
  8
AM_0
100
AcDbLine
 10
-8.522789001463983
 20
1.158974170689858
 30
0.0
 11
-8.548355102538984
 21
1.160500049596158
 31
0.0
  0
LINE
  5
2A0E
330
1F
100
AcDbEntity
  8
AM_0
100
AcDbLine
 10
-8.883201599120972
 20
1.177822113042158
 30
0.0
 11
-8.766433715819978
 21
1.349702358250859
 31
0.0
  0
LINE
  5
2A0F
330
1F
100
AcDbEntity
  8
AM_0
100
AcDbLine
 10
-8.518989562987975
 20
1.186280727391558
 30
0.0
 11
-8.522781372069978
 21
1.159076690678858
 31
0.0
  0
LINE
  5
2A10
330
1F
100
AcDbEntity
  8
AM_0
100
AcDbLine
 10
-9.179985046385972
 20
1.198984622960358
 30
0.0
 11
-8.986572265624978
 21
1.366527080540958
 31
0.0
  0
LINE
  5
2A11
330
1F
100
AcDbEntity
  8
AM_0
100
AcDbLine
 10
-9.305641174315972
 20
1.212887287144958
 30
0.0
 11
-9.088745117186981
 21
1.374022006993558
 31
0.0
  0
LINE
  5
2A12
330
1F
100
AcDbEntity
  8
AM_0
100
AcDbLine
 10
-9.362449645995972
 20
1.224306583409558
 30
0.0
 11
-9.143524169920972
 21
1.377751827245058
 31
0.0
  0
LINE
  5
2A13
330
1F
100
AcDbEntity
  8
AM_0
100
AcDbLine
 10
-9.407272338866981
 20
1.307927131657858
 30
0.0
 11
-9.296043395995972
 21
1.385894298558558
 31
0.0
  0
LINE
  5
2A14
330
1F
100
AcDbEntity
  8
AM_0
100
AcDbLine
 10
-9.143524169920972
 20
1.377760887151058
 30
0.0
 11
-9.296043395995972
 21
1.385908603673258
 31
0.0
  0
LINE
  5
2A15
330
1F
100
AcDbEntity
  8
AM_0
100
AcDbLine
 10
-9.296051025389978
 20
1.385894775395658
 30
0.0
 11
-9.341957092284978
 21
1.385894775395658
 31
0.0
  0
LINE
  5
2A16
330
1F
100
AcDbEntity
  8
AM_0
100
AcDbLine
 10
-9.341957092284978
 20
1.385894775395658
 30
0.0
 11
-9.402267456053984
 21
1.385894775395658
 31
0.0
  0
LINE
  5
2A17
330
1F
100
AcDbEntity
  8
AM_0
100
AcDbLine
 10
-10.67437744140597
 20
-1.789939403528841
 30
0.0
 11
-10.20431518554597
 21
-0.5447149276683409
 31
0.0
  0
LINE
  5
2A18
330
1F
100
AcDbEntity
  8
AM_0
100
AcDbLine
 10
-10.42679595947198
 20
-2.04986476897684
 30
0.0
 11
-10.57901000976497
 21
-2.03777980803934
 31
0.0
  0
LINE
  5
2A19
330
1F
100
AcDbEntity
  8
AM_0
100
AcDbLine
 10
-10.78432464599597
 20
-1.967103958124841
 30
0.0
 11
-10.78565979003898
 21
-1.969848632807441
 31
0.0
  0
LINE
  5
2A1A
330
1F
100
AcDbEntity
  8
AM_0
100
AcDbLine
 10
-10.67440795898398
 20
-1.78994607924914
 30
0.0
 11
-10.78432464599597
 21
-1.96709823607894
 31
0.0
  0
LINE
  5
2A1B
330
1F
100
AcDbEntity
  8
AM_0
100
AcDbLine
 10
-9.799713134764978
 20
-0.5673799514720411
 30
0.0
 11
-10.14793395995997
 21
-0.5490999221751413
 31
0.0
  0
LINE
  5
2A1C
330
1F
100
AcDbEntity
  8
AM_0
100
AcDbLine
 10
-10.64519500732398
 20
-1.32720804213974
 30
0.0
 11
-10.66978454589797
 21
-1.639963150019341
 31
0.0
  0
LINE
  5
2A1D
330
1F
100
AcDbEntity
  8
AM_0
100
AcDbLine
 10
-10.64519500732398
 20
-1.32720994948834
 30
0.0
 11
-10.56223297119097
 21
-1.33374118804424
 31
0.0
  0
LINE
  5
2A1E
330
1F
100
AcDbEntity
  8
AM_0
100
AcDbLine
 10
-0.9769515991209733
 20
-5.246193885797542
 30
0.0
 11
-1.292770385741981
 21
-5.259987831110541
 31
0.0
  0
LINE
  5
2A1F
330
1F
100
AcDbEntity
  8
AM_0
100
AcDbLine
 10
-0.9769592285149785
 20
-2.744323730463741
 30
0.0
 11
-0.9769592285149787
 21
-5.246185302728542
 31
0.0
  0
ARC
  5
2A20
330
1F
100
AcDbEntity
  8
AM_0
100
AcDbCircle
 10
-4.932044982909979
 20
-9.938110351556543
 30
0.0
 40
1.4953752756119
100
AcDbArc
 50
2.499980831051489
 51
89.80905272708302
  0
ARC
  5
2A21
330
1F
100
AcDbEntity
  8
AM_0
100
AcDbCircle
 10
-4.932044982909979
 20
-9.938110351556543
 30
0.0
 40
1.2461539506912
100
AcDbArc
 50
359.9999913485782
 51
92.49998652325052
  0
ARC
  5
2A22
330
1F
100
AcDbEntity
  8
AM_0
100
AcDbCircle
 10
-4.863960266112976
 20
-9.935150146478543
 30
0.0
 40
1.4994901418686
100
AcDbArc
 50
2.499967170671978
 51
92.49143193869095
  0
LINE
  5
2A23
330
1F
100
AcDbEntity
  8
AM_0
100
AcDbLine
 10
-1.101531982420973
 20
-7.952886581415541
 30
0.0
 11
-0.9490051269529766
 21
-9.069377899164541
 31
0.0
  0
LINE
  5
2A24
330
1F
100
AcDbEntity
  8
AM_0
100
AcDbLine
 10
-1.093711853026982
 20
-7.502010345453542
 30
0.0
 11
-1.168746948241982
 21
-7.560725212091543
 31
0.0
  0
LINE
  5
2A25
330
1F
100
AcDbEntity
  8
AM_0
100
AcDbLine
 10
-0.967300415038985
 20
-7.710163116449542
 30
0.0
 11
-1.156318664549979
 21
-7.781024932855541
 31
0.0
  0
LINE
  5
2A26
330
1F
100
AcDbEntity
  8
AM_0
100
AcDbLine
 10
-3.438095092772976
 20
-9.872881889337543
 30
0.0
 11
-3.365890502928985
 21
-9.86973857879054
 31
0.0
  0
LINE
  5
2A27
330
1F
100
AcDbEntity
  8
AM_0
100
AcDbLine
 10
-5.170715332030973
 20
-8.713605880731543
 30
0.0
 11
-5.185844421385973
 21
-8.714277267450542
 31
0.0
  0
ARC
  5
2A28
330
1F
100
AcDbEntity
  8
AM_0
100
AcDbCircle
 10
-5.206390380858985
 20
-9.950103759760542
 30
0.0
 40
1.249831199646
100
AcDbArc
 50
80.46795624458219
 51
86.32092292928524
  0
ARC
  5
2A29
330
1F
100
AcDbEntity
  8
AM_0
100
AcDbCircle
 10
-5.206390380858985
 20
-9.950103759760542
 30
0.0
 40
1.2461539506912
100
AcDbArc
 50
359.9999913485782
 51
36.68817489038373
  0
CIRCLE
  5
2A2A
330
1F
100
AcDbEntity
  8
AM_0
100
AcDbCircle
 10
-5.087463378905973
 20
-9.81100463866654
 30
0.0
 40
0.6480000019073
  0
ARC
  5
2A2B
330
1F
100
AcDbEntity
  8
AM_0
100
AcDbCircle
 10
-5.418388366698985
 20
-9.825103759760542
 30
0.0
 40
1.166175842285199
100
AcDbArc
 50
72.29453524220724
 51
73.22893244142166
  0
ARC
  5
2A2C
330
1F
100
AcDbEntity
  8
AM_0
100
AcDbCircle
 10
-4.863960266112976
 20
-9.935150146478543
 30
0.0
 40
1.499999880790699
100
AcDbArc
 50
92.49143193869095
 51
182.500004409583
  0
LINE
  5
2A2D
330
1F
100
AcDbEntity
  8
AM_0
100
AcDbLine
 10
-16.99896240234297
 20
-12.99504947661754
 30
0.0
 11
-9.640571594237977
 21
-12.60939884185254
 31
0.0
  0
LINE
  5
2A2E
330
1F
100
AcDbEntity
  8
AM_0
100
AcDbLine
 10
-11.43335723876898
 20
-11.35139942168654
 30
0.0
 11
-6.311454772948986
 21
-11.16273975371754
 31
0.0
  0
LINE
  5
2A2F
330
1F
100
AcDbEntity
  8
AM_0
100
AcDbLine
 10
-8.515319824217977
 20
-12.63082790374254
 30
0.0
 11
-1.025711059569979
 21
-12.30383205413254
 31
0.0
  0
LINE
  5
2A30
330
1F
100
AcDbEntity
  8
AM_0
100
AcDbLine
 10
-8.52278137206998
 20
-12.83974170684254
 30
0.0
 11
-1.030082702635974
 21
-12.51259326934254
 31
0.0
  0
LINE
  5
2A31
330
1F
100
AcDbEntity
  8
AM_0
100
AcDbLine
 10
-3.31445312499998
 20
-11.05181407927954
 30
0.0
 11
-1.162734985350973
 21
-10.97188854216954
 31
0.0
  0
LINE
  5
2A32
330
1F
100
AcDbEntity
  8
AM_0
100
AcDbLine
 10
-0.9769744873039853
 20
-11.93252658843454
 30
0.0
 11
-1.162742614745974
 21
-12.14196300506054
 31
0.0
  0
LINE
  5
2A33
330
1F
100
AcDbEntity
  8
AM_0
100
AcDbLine
 10
-0.9856567382809743
 20
-12.51111888884954
 30
0.0
 11
-1.030082702635974
 21
-12.51261425017754
 31
0.0
  0
LINE
  5
2A34
330
1F
100
AcDbEntity
  8
AM_0
100
AcDbLine
 10
-1.162734985350974
 20
-12.14196872710654
 30
0.0
 11
-1.162734985350973
 21
-10.97189426421554
 31
0.0
  0
LINE
  5
2A35
330
1F
100
AcDbEntity
  8
AM_0
100
AcDbLine
 10
-1.030082702635974
 20
-12.51261615752654
 30
0.0
 11
-1.025711059569979
 21
-12.30383014678454
 31
0.0
  0
LINE
  5
2A36
330
1F
100
AcDbEntity
  8
AM_0
100
AcDbLine
 10
-5.350921630858985
 20
-10.92356395720854
 30
0.0
 11
-5.074760437010974
 21
-10.91150951384954
 31
0.0
  0
ARC
  5
2A37
330
1F
100
AcDbEntity
  8
AM_0
100
AcDbCircle
 10
-5.398902893065973
 20
-9.824615478510542
 30
0.0
 40
1.0999913215637
100
AcDbArc
 50
269.5816260970557
 51
272.500036155811
  0
ARC
  5
2A38
330
1F
100
AcDbEntity
  8
AM_0
100
AcDbCircle
 10
-5.418502807616982
 20
-9.825469970697541
 30
0.0
 40
1.166986703872699
100
AcDbArc
 50
272.4999883444883
 51
292.6507607735027
  0
ARC
  5
2A39
330
1F
100
AcDbEntity
  8
AM_0
100
AcDbCircle
 10
-5.418502807616982
 20
-9.825469970697541
 30
0.0
 40
1.166804552078199
100
AcDbArc
 50
259.4907729191725
 51
272.4999883444883
  0
LINE
  5
2A3A
330
1F
100
AcDbEntity
  8
AM_0
100
AcDbLine
 10
-8.522796630858985
 20
-12.83976840972353
 30
0.0
 11
-8.548355102538986
 21
-12.84095668792154
 31
0.0
  0
LINE
  5
2A3B
330
1F
100
AcDbEntity
  8
AM_0
100
AcDbLine
 10
-9.179977416991983
 20
-12.57064914702854
 30
0.0
 11
-9.082298278807977
 21
-12.50488567351754
 31
0.0
  0
LINE
  5
2A3C
330
1F
100
AcDbEntity
  8
AM_0
100
AcDbLine
 10
-8.883201599120974
 20
-12.78518009185254
 30
0.0
 11
-8.76643371581998
 21
-12.59038639068054
 31
0.0
  0
LINE
  5
2A3D
330
1F
100
AcDbEntity
  8
AM_0
100
AcDbLine
 10
-8.522789001463985
 20
-12.83979511260454
 30
0.0
 11
-8.518989562987977
 21
-12.80616664885954
 31
0.0
  0
LINE
  5
2A3E
330
1F
100
AcDbEntity
  8
AM_0
100
AcDbLine
 10
-8.518997192381982
 20
-12.80615520476754
 30
0.0
 11
-8.52278137206998
 21
-12.83975696563154
 31
0.0
  0
LINE
  5
2A3F
330
1F
100
AcDbEntity
  8
AM_0
100
AcDbLine
 10
-9.927047729491983
 20
-12.65521907805854
 30
0.0
 11
-9.88932037353498
 21
-12.62247180938154
 31
0.0
  0
LINE
  5
2A40
330
1F
100
AcDbEntity
  8
AM_0
100
AcDbLine
 10
-9.927047729491983
 20
-12.65521144866354
 30
0.0
 11
-9.932540893553985
 21
-12.62472820281454
 31
0.0
  0
LINE
  5
2A41
330
1F
100
AcDbEntity
  8
AM_0
100
AcDbLine
 10
-17.09327697753898
 20
-13.00000095366854
 30
0.0
 11
-17.09327697753898
 21
-11.09109592437154
 31
0.0
  0
LINE
  5
2A42
330
1F
100
AcDbEntity
  8
AM_0
100
AcDbLine
 10
-38.00111007690397
 20
-12.00000095366853
 30
0.0
 11
-35.00111007690398
 21
-12.00000095366853
 31
0.0
  0
LINE
  5
2A43
330
1F
100
AcDbEntity
  8
AM_0
100
AcDbLine
 10
-34.50111007690397
 20
-13.00000095366853
 30
0.0
 11
-27.09111022949198
 21
-13.00000095366853
 31
0.0
  0
LINE
  5
2A44
330
1F
100
AcDbEntity
  8
AM_0
100
AcDbLine
 10
-35.00111770629797
 20
-12.50000286101754
 30
0.0
 11
-34.50110626220698
 21
-13.00001430510953
 31
0.0
  0
LINE
  5
2A45
330
1F
100
AcDbEntity
  8
AM_0
100
AcDbLine
 10
-157.0011100769029
 20
-12.50000095366852
 30
0.0
 11
-157.0011100769029
 21
12.50000000000507
 31
0.0
  0
LINE
  5
2A46
330
1F
100
AcDbEntity
  8
AM_0
100
AcDbLine
 10
-158.5187530517559
 20
-12.09335422515352
 30
0.0
 11
-158.5187530517559
 21
12.09335327148947
 31
0.0
  0
LINE
  5
2A47
330
1F
100
AcDbEntity
  8
AM_0
100
AcDbLine
 10
-160.0011138915999
 20
-10.16149997710652
 30
0.0
 11
-160.0011138915999
 21
10.16149902344257
 31
0.0
  0
LINE
  5
2A48
330
1F
100
AcDbEntity
  8
AM_0
100
AcDbLine
 10
-157.0011100769029
 20
12.49999761581927
 30
0.0
 11
-158.5187530517559
 21
12.09335088730367
 31
0.0
  0
ARC
  5
2A49
330
1F
100
AcDbEntity
  8
AM_0
100
AcDbCircle
 10
-158.0011138915999
 20
10.16149902344257
 30
0.0
 40
2.000000238418599
100
AcDbArc
 50
104.9999944978377
 51
180.0000050089574
  0
ARC
  5
2A4A
330
1F
100
AcDbEntity
  8
AM_0
100
AcDbCircle
 10
-158.0011138915999
 20
-10.16149997710652
 30
0.0
 40
2.0
100
AcDbArc
 50
180.0000050089574
 51
255.0000055021623
  0
LINE
  5
2A4B
330
1F
100
AcDbEntity
  8
AM_0
100
AcDbLine
 10
-158.5187377929669
 20
-12.09334850310752
 30
0.0
 11
-157.0011024475079
 21
-12.49999141692552
 31
0.0
  0
DIMENSION
  5
2A6E
330
1F
100
AcDbEntity
  8
AM_5
100
AcDbDimension
  2
*D10
 10
-8.999999999999976
 20
27.50000000000506
 30
0.0
 11
-4.499999999999986
 21
30.90000000000506
 31
0.0
 70
    32
  1
<>
  3
AM_JIS$0
100
AcDbAlignedDimension
 13
0.0000000000000027
 23
13.50000000000505
 33
0.0
 14
-8.999999999999976
 24
13.50000000000505
 34
0.0
 50
180.0
100
AcDbRotatedDimension
1001
ACAD
1000
DSTYLE
1002
{
1070
   271
1070
     0
1002
}
1001
GENIUS_GENDTOL_13
1000

1000
h7
1000

1040
0.0
  0
VIEWPORT
  5
110
330
101
100
AcDbEntity
 67
     1
  8
0
100
AcDbViewport
 10
420.5
 20
297.0
 30
0.0
 40
948.9782706766916
 41
628.452
 68
     1
 69
     1
1001
ACAD
1000
MVIEW
1002
{
1070
    16
1010
0.0
1020
0.0
1030
0.0
1010
0.0
1020
0.0
1030
1.0
1040
0.0
1040
628.452
1040
420.5
1040
297.0
1040
50.0
1040
0.0
1040
0.0
1070
     0
1070
   100
1070
     1
1070
     1
1070
     0
1070
     0
1070
     0
1070
     0
1040
0.0
1040
0.0
1040
0.0
1040
10.0
1040
10.0
1040
10.0
1040
10.0
1070
     0
1002
{
1002
}
1002
}
  0
ENDSEC
  0
SECTION
  2
OBJECTS
  0
DICTIONARY
  5
C
330
0
100
AcDbDictionary
  3
ACAD_GROUP
350
D
  3
ACAD_LAYOUT
350
1A
  3
ACAD_MLINESTYLE
350
17
  3
ACAD_PLOTSETTINGS
350
19
  3
ACAD_PLOTSTYLENAME
350
E
  3
ACDBVARIABLEDICTIONARY
350
34
  3
ACMDICTIONARY
350
43
  3
AMG
350
2B
  3
AMGSNAPSETTINGS
350
6E
  3
ASE_INDEX_DICTIONARY
350
2774
  3
DWGPROPS
350
2B80
  3
ACDBHEADERROUNDTRIPXREC
350
2B8C
  0
DICTIONARY
  5
74
330
1F
100
AcDbDictionary
280
     1
  3
ACAD_INDEX
360
2B82
  3
ACAD_LAYOUTSELFREF
360
2BAF
  0
DICTIONARY
  5
2BB4
330
101
100
AcDbDictionary
280
     1
  3
ACAD_LAYOUTSELFREF
360
2BB5
  0
DICTIONARY
  5
D
102
{ACAD_REACTORS
330
C
102
}
330
C
100
AcDbDictionary
  0
DICTIONARY
  5
1A
102
{ACAD_REACTORS
330
C
102
}
330
C
100
AcDbDictionary
  0
DICTIONARY
  5
17
102
{ACAD_REACTORS
330
C
102
}
330
C
100
AcDbDictionary
  3
STANDARD
350
18
  0
DICTIONARY
  5
19
102
{ACAD_REACTORS
330
C
102
}
330
C
100
AcDbDictionary
  0
ACDBDICTIONARYWDFLT
  5
E
102
{ACAD_REACTORS
330
C
102
}
330
C
100
AcDbDictionary
281
     1
  3
Normal
350
F
100
AcDbDictionaryWithDefault
340
F
  0
DICTIONARY
  5
34
102
{ACAD_REACTORS
330
C
102
}
330
C
100
AcDbDictionary
  3
INDEXCTL
350
35
  3
SORTENTS
350
B5E
  0
DICTIONARY
  5
43
102
{ACAD_REACTORS
330
C
102
}
330
C
100
AcDbDictionary
  3
ACMSTDDICTIONARY
350
260
  0
DICTIONARY
  5
2B
102
{ACAD_REACTORS
330
C
102
}
330
C
100
AcDbDictionary
  3
ACMGSETTINGS
350
2C
  0
DICTIONARY
  5
6E
102
{ACAD_REACTORS
330
C
102
}
330
C
100
AcDbDictionary
  0
DICTIONARY
  5
2774
102
{ACAD_REACTORS
330
C
102
}
330
C
100
AcDbDictionary
  3
ASEBLOCKHIERARCHYINDEXRECORD
350
2776
1001
DCO15
1040
1471940582.171
  0
XRECORD
  5
2B80
102
{ACAD_REACTORS
330
C
102
}
330
C
100
AcDbXrecord
  1
DWGPROPS COOKIE
  2

  3

  4

  6

  7

  8

  9

300
AmdtFileType=82
301
=
302
=
303
=
304
=
305
=
306
=
307
=
308
=
309
=
 40
0.0599640046296296
 41
2452839.420061482
 42
2452872.428044873
  1

 90
        1
  0
DICTIONARY
  5
2B8C
102
{ACAD_REACTORS
330
C
102
}
330
C
100
AcDbDictionary
  3
TSTACKALIGN
350
2B8D
  3
TSTACKSIZE
350
2B8E
  3
HYPERLINKBASE
350
2B8F
  3
STYLESHEET
350
2B90
  3
LAYOUTDICT
350
2B91
  3
PLOTSETDICT
350
2B92
  3
PLOTSTYLNAMDICT
350
2B93
  3
LWETCUNION
350
2B94
  3
INSUNITS
350
2B95
  3
CEPSNTYPE
350
2B96
  3
FINGERPRINTGUID
350
2B97
  3
VERSIONGUID
350
2B98
  3
PSVPSCALE
350
2B99
  3
DIMSTYLEDATA
350
2B9A
  3
PUCSORTHOREF
350
2B9B
  3
PUCSORTHOVIEW
350
2B9C
  3
PUCSBASE
350
2B9D
  3
PUCSORGTOP
350
2B9E
  3
PUCSORGBOTTOM
350
2B9F
  3
PUCSORGLEFT
350
2BA0
  3
PUCSORGRIGHT
350
2BA1
  3
PUCSORGFRONT
350
2BA2
  3
PUCSORGBACK
350
2BA3
  3
UCSORTHOREF
350
2BA4
  3
UCSORTHOVIEW
350
2BA5
  3
UCSBASE
350
2BA6
  3
UCSORGTOP
350
2BA7
  3
UCSORGBOTTOM
350
2BA8
  3
UCSORGLEFT
350
2BA9
  3
UCSORGRIGHT
350
2BAA
  3
UCSORGFRONT
350
2BAB
  3
UCSORGBACK
350
2BAC
  0
DICTIONARY
  5
2B82
102
{ACAD_REACTORS
330
74
102
}
330
74
100
AcDbDictionary
  3
*A1
350
2B83
  0
XRECORD
  5
2BAF
102
{ACAD_REACTORS
330
74
102
}
330
74
100
AcDbXrecord
340
1F
  0
XRECORD
  5
2BB5
102
{ACAD_REACTORS
330
2BB4
102
}
330
2BB4
100
AcDbXrecord
340
101
  0
MLINESTYLE
  5
18
102
{ACAD_REACTORS
330
17
102
}
330
17
100
AcDbMlineStyle
  2
STANDARD
 70
     0
  3

 62
   256
 51
90.0
 52
90.0
 71
     2
 49
0.5
 62
   256
  6
BYLAYER
 49
-0.5
 62
   256
  6
BYLAYER
  0
ACDBPLACEHOLDER
  5
F
102
{ACAD_REACTORS
330
E
102
}
330
E
100
AcDbPlaceHolder
280
     0
  0
DICTIONARYVAR
  5
35
102
{ACAD_REACTORS
330
34
102
}
330
34
100
DictionaryVariables
280
     0
  1
1
  0
DICTIONARYVAR
  5
B5E
102
{ACAD_REACTORS
330
34
102
}
330
34
100
DictionaryVariables
280
     0
  1
96
  0
DICTIONARY
  5
260
102
{ACAD_REACTORS
330
43
102
}
330
43
100
AcDbDictionary
  0
DICTIONARY
  5
2C
102
{ACAD_REACTORS
330
2B
102
}
330
2B
100
AcDbDictionary
  3
DWGSETTINGS
350
2D
  0
XRECORD
  5
2776
102
{ACAD_REACTORS
330
2774
102
}
330
2774
100
AcDbXrecord
330
0
330
0
330
0
330
0
330
0
330
0
330
0
330
0
330
0
330
0
330
0
330
0
330
0
330
0
  0
XRECORD
  5
2B8D
102
{ACAD_REACTORS
330
2B8C
102
}
330
2B8C
100
AcDbXrecord
 90
        1
  0
XRECORD
  5
2B8E
102
{ACAD_REACTORS
330
2B8C
102
}
330
2B8C
100
AcDbXrecord
 90
       70
  0
XRECORD
  5
2B8F
102
{ACAD_REACTORS
330
2B8C
102
}
330
2B8C
100
AcDbXrecord
  1

  0
XRECORD
  5
2B90
102
{ACAD_REACTORS
330
2B8C
102
}
330
2B8C
100
AcDbXrecord
  1
ASAMI.ctb
  0
XRECORD
  5
2B91
102
{ACAD_REACTORS
330
2B8C
102
}
330
2B8C
100
AcDbXrecord
340
1A
  0
XRECORD
  5
2B92
102
{ACAD_REACTORS
330
2B8C
102
}
330
2B8C
100
AcDbXrecord
340
19
  0
XRECORD
  5
2B93
102
{ACAD_REACTORS
330
2B8C
102
}
330
2B8C
100
AcDbXrecord
340
E
  0
XRECORD
  5
2B94
102
{ACAD_REACTORS
330
2B8C
102
}
330
2B8C
100
AcDbXrecord
 90
    10781
  0
XRECORD
  5
2B95
102
{ACAD_REACTORS
330
2B8C
102
}
330
2B8C
100
AcDbXrecord
 90
        4
  0
XRECORD
  5
2B96
102
{ACAD_REACTORS
330
2B8C
102
}
330
2B8C
100
AcDbXrecord
 90
        0
  0
XRECORD
  5
2B97
102
{ACAD_REACTORS
330
2B8C
102
}
330
2B8C
100
AcDbXrecord
  1
{AFB28963-8C59-40AE-9337-C84526B81ACE}
  0
XRECORD
  5
2B98
102
{ACAD_REACTORS
330
2B8C
102
}
330
2B8C
100
AcDbXrecord
  1
{E43AD79F-4269-4115-B15D-E816CA73B49B}
  0
XRECORD
  5
2B99
102
{ACAD_REACTORS
330
2B8C
102
}
330
2B8C
100
AcDbXrecord
 40
0.0
  0
XRECORD
  5
2B9A
102
{ACAD_REACTORS
330
2B8C
102
}
330
2B8C
100
AcDbXrecord
1000
DSTYLE
1002
{
1070
    79
 70
     2
1070
   341
340
59
1070
   342
340
59
1070
   371
 70
    -1
1070
   372
 70
    -1
1002
}
  0
XRECORD
  5
2B9B
102
{ACAD_REACTORS
330
2B8C
102
}
330
2B8C
100
AcDbXrecord
340
0
  0
XRECORD
  5
2B9C
102
{ACAD_REACTORS
330
2B8C
102
}
330
2B8C
100
AcDbXrecord
 70
     0
  0
XRECORD
  5
2B9D
102
{ACAD_REACTORS
330
2B8C
102
}
330
2B8C
100
AcDbXrecord
340
0
  0
XRECORD
  5
2B9E
102
{ACAD_REACTORS
330
2B8C
102
}
330
2B8C
100
AcDbXrecord
 10
0.0
 20
0.0
 30
0.0
  0
XRECORD
  5
2B9F
102
{ACAD_REACTORS
330
2B8C
102
}
330
2B8C
100
AcDbXrecord
 10
0.0
 20
0.0
 30
0.0
  0
XRECORD
  5
2BA0
102
{ACAD_REACTORS
330
2B8C
102
}
330
2B8C
100
AcDbXrecord
 10
0.0
 20
0.0
 30
0.0
  0
XRECORD
  5
2BA1
102
{ACAD_REACTORS
330
2B8C
102
}
330
2B8C
100
AcDbXrecord
 10
0.0
 20
0.0
 30
0.0
  0
XRECORD
  5
2BA2
102
{ACAD_REACTORS
330
2B8C
102
}
330
2B8C
100
AcDbXrecord
 10
0.0
 20
0.0
 30
0.0
  0
XRECORD
  5
2BA3
102
{ACAD_REACTORS
330
2B8C
102
}
330
2B8C
100
AcDbXrecord
 10
0.0
 20
0.0
 30
0.0
  0
XRECORD
  5
2BA4
102
{ACAD_REACTORS
330
2B8C
102
}
330
2B8C
100
AcDbXrecord
340
0
  0
XRECORD
  5
2BA5
102
{ACAD_REACTORS
330
2B8C
102
}
330
2B8C
100
AcDbXrecord
 70
     0
  0
XRECORD
  5
2BA6
102
{ACAD_REACTORS
330
2B8C
102
}
330
2B8C
100
AcDbXrecord
340
0
  0
XRECORD
  5
2BA7
102
{ACAD_REACTORS
330
2B8C
102
}
330
2B8C
100
AcDbXrecord
 10
0.0
 20
0.0
 30
0.0
  0
XRECORD
  5
2BA8
102
{ACAD_REACTORS
330
2B8C
102
}
330
2B8C
100
AcDbXrecord
 10
0.0
 20
0.0
 30
0.0
  0
XRECORD
  5
2BA9
102
{ACAD_REACTORS
330
2B8C
102
}
330
2B8C
100
AcDbXrecord
 10
0.0
 20
0.0
 30
0.0
  0
XRECORD
  5
2BAA
102
{ACAD_REACTORS
330
2B8C
102
}
330
2B8C
100
AcDbXrecord
 10
0.0
 20
0.0
 30
0.0
  0
XRECORD
  5
2BAB
102
{ACAD_REACTORS
330
2B8C
102
}
330
2B8C
100
AcDbXrecord
 10
0.0
 20
0.0
 30
0.0
  0
XRECORD
  5
2BAC
102
{ACAD_REACTORS
330
2B8C
102
}
330
2B8C
100
AcDbXrecord
 10
0.0
 20
0.0
 30
0.0
  0
LAYER_INDEX
  5
2B83
102
{ACAD_REACTORS
330
2B82
102
}
330
2B82
100
AcDbIndex
 40
2453152.402549328
100
AcDbLayerIndex
  8
0
360
2B84
 90
        0
  8
AM_0
360
2B85
 90
      324
  8
AM_7
360
2B86
 90
        2
  8
AM_11
360
2B87
 90
        4
  8
AM_5
360
2B88
 90
        6
  8
Defpoints
360
2B89
 90
        0
  8
AM_6
360
2B8A
 90
        1
  0
XRECORD
  5
2D
102
{ACAD_REACTORS
330
2C
102
}
330
2C
100
AcDbXrecord
  1
VERSION
140
15.0
  1
PRODUCT
  2
AutoCAD Mechanical 2000
  0
IDBUFFER
  5
2B84
330
0
100
AcDbIdBuffer
  0
IDBUFFER
  5
2B85
330
0
100
AcDbIdBuffer
330
29F8
330
29F9
330
29FA
330
29FB
330
29FC
330
29FD
330
29FE
330
29FF
330
2A00
330
2A01
330
2A02
330
2A03
330
2A04
330
2A05
330
2A06
330
2A07
330
2A08
330
2A09
330
2A0A
330
2A0B
330
2A0C
330
2A0D
330
2A0E
330
2A0F
330
2A10
330
2A11
330
2A12
330
2A13
330
2A14
330
2A15
330
2A16
330
2A17
330
2A18
330
2A19
330
2A1A
330
2A1B
330
2A1C
330
2A1D
330
2A1E
330
2A1F
330
2A20
330
2A21
330
2A22
330
2A23
330
2A24
330
2A25
330
2A26
330
2A27
330
2A28
330
2A29
330
2A2A
330
2A2B
330
2A2C
330
2A2D
330
2A2E
330
2A2F
330
2A30
330
2A31
330
2A32
330
2A33
330
2A34
330
2A35
330
2A36
330
2A37
330
2A38
330
2A39
330
2A3A
330
2A3B
330
2A3C
330
2A3D
330
2A3E
330
2A3F
330
2A40
330
2A41
330
2A42
330
2A43
330
2A44
330
2A45
330
2A46
330
2A47
330
2A48
330
2A49
330
2A4A
330
2A4B
330
2904
330
2905
330
2908
330
2909
330
290A
330
290B
330
290C
330
290D
330
290E
330
290F
330
2910
330
2911
330
2912
330
2913
330
2914
330
2915
330
2916
330
2917
330
2918
330
2919
330
291A
330
291B
330
291C
330
291D
330
291E
330
291F
330
2920
330
2921
330
2922
330
2923
330
2924
330
2925
330
2926
330
2927
330
2928
330
2929
330
292A
330
292B
330
292C
330
292D
330
292F
330
2930
330
2931
330
2932
330
2933
330
2934
330
2935
330
2936
330
2937
330
2938
330
2939
330
293A
330
293B
330
293C
330
293D
330
293E
330
293F
330
2940
330
2941
330
2942
330
2943
330
2944
330
2945
330
2946
330
2947
330
2948
330
2949
330
294A
330
294B
330
294C
330
294D
330
294E
330
294F
330
2950
330
2951
330
2952
330
2953
330
2954
330
2955
330
2956
330
2957
330
2958
330
2959
330
295A
330
295B
330
295C
330
295D
330
295E
330
295F
330
2960
330
2961
330
2962
330
2963
330
2964
330
2965
330
2966
330
2967
330
2968
330
2969
330
296A
330
296B
330
296C
330
296D
330
296E
330
296F
330
2970
330
2971
330
2972
330
2973
330
2974
330
2975
330
2976
330
2977
330
2978
330
2979
330
297A
330
297B
330
297C
330
297D
330
297E
330
297F
330
2980
330
2981
330
2982
330
2983
330
2984
330
2985
330
2986
330
2987
330
2988
330
2989
330
298A
330
298B
330
298C
330
298D
330
298E
330
298F
330
2990
330
2991
330
2992
330
2993
330
2994
330
2995
330
2996
330
2997
330
2998
330
2999
330
299A
330
299B
330
299C
330
299D
330
299E
330
299F
330
29A0
330
29A1
330
29A2
330
29A3
330
29A4
330
29A5
330
29A6
330
29A7
330
29A8
330
29A9
330
29AA
330
29AB
330
29AC
330
29AD
330
29AE
330
29AF
330
29B0
330
29B1
330
29B2
330
29B3
330
29B4
330
29B5
330
29B6
330
29B7
330
29B8
330
29B9
330
29BA
330
29BB
330
29BC
330
29BD
330
29BE
330
29BF
330
29C0
330
29C1
330
29C2
330
29C3
330
29C4
330
29C5
330
29C6
330
29C7
330
29C8
330
29C9
330
29CA
330
29CB
330
29CC
330
29CD
330
29CE
330
29CF
330
29D0
330
29D1
330
29D2
330
29D3
330
29D4
330
29D5
330
29D7
330
29D8
330
29D9
330
29DA
330
29DB
330
29DC
330
29DD
330
29DE
330
29DF
330
29E0
330
29E1
330
29E2
330
29E3
330
29E4
330
29E5
330
29E6
330
29E7
330
29E8
330
29E9
330
29EA
330
29EB
330
29EC
330
29ED
330
29EE
330
29EF
330
29F0
330
29F1
330
29F2
330
29F3
330
29F4
330
29F5
330
29F6
330
29F7
  0
IDBUFFER
  5
2B86
330
0
100
AcDbIdBuffer
330
265E
330
2903
  0
IDBUFFER
  5
2B87
330
0
100
AcDbIdBuffer
330
2906
330
2907
330
292E
330
29D6
  0
IDBUFFER
  5
2B88
330
0
100
AcDbIdBuffer
330
155D
330
15E8
330
1673
330
1895
330
1E16
330
2A6E
  0
IDBUFFER
  5
2B89
330
0
100
AcDbIdBuffer
  0
IDBUFFER
  5
2B8A
330
0
100
AcDbIdBuffer
330
1142
  0
ENDSEC
  0
EOF
