  0
SECTION
  2
HEADER
  9
$ACADVER
  1
AC1014
  9
$ACADMAINTVER
 70
     9
  9
$DWGCODEPAGE
  3
ANSI_932
  9
$INSBASE
 10
0.0
 20
0.0
 30
0.0
  9
$EXTMIN
 10
-73.13244732062225
 20
-86.50000290735386
 30
-0.00000001
  9
$EXTMAX
 10
26.65873086849384
 20
39.29999433846793
 30
0.00000001
  9
$LIMMIN
 10
-115.3165102585135
 20
-95.62518456515954
  9
$LIMMAX
 10
111.2668593493902
 20
46.0918537569537
  9
$ORTHOMODE
 70
     0
  9
$REGENMODE
 70
     1
  9
$FILLMODE
 70
     1
  9
$QTEXTMODE
 70
     0
  9
$MIRRTEXT
 70
     0
  9
$DRAGMODE
 70
     2
  9
$LTSCALE
 40
1.0
  9
$OSMODE
 70
    55
  9
$ATTMODE
 70
     1
  9
$TEXTSIZE
 40
2.5
  9
$TRACEWID
 40
1.0
  9
$TEXTSTYLE
  7
STANDARD
  9
$CLAYER
  8
AM_11
  9
$CELTYPE
  6
BYLAYER
  9
$CECOLOR
 62
   256
  9
$CELTSCALE
 40
1.0
  9
$DELOBJ
 70
     1
  9
$DISPSILH
 70
     0
  9
$DIMSCALE
 40
1.0
  9
$DIMASZ
 40
2.5
  9
$DIMEXO
 40
1.0
  9
$DIMDLI
 40
12.0
  9
$DIMRND
 40
0.0
  9
$DIMDLE
 40
0.0
  9
$DIMEXE
 40
1.0
  9
$DIMTP
 40
0.1
  9
$DIMTM
 40
0.1
  9
$DIMTXT
 40
3.2
  9
$DIMCEN
 40
0.0
  9
$DIMTSZ
 40
0.0
  9
$DIMTOL
 70
     0
  9
$DIMLIM
 70
     0
  9
$DIMTIH
 70
     0
  9
$DIMTOH
 70
     0
  9
$DIMSE1
 70
     0
  9
$DIMSE2
 70
     0
  9
$DIMTAD
 70
     3
  9
$DIMZIN
 70
     8
  9
$DIMBLK
  1
OPEN30
  9
$DIMASO
 70
     1
  9
$DIMSHO
 70
     1
  9
$DIMPOST
  1

  9
$DIMAPOST
  1
"
  9
$DIMALT
 70
     0
  9
$DIMALTD
 70
     2
  9
$DIMALTF
 40
0.0393701
  9
$DIMLFAC
 40
1.0
  9
$DIMTOFL
 70
     1
  9
$DIMTVP
 40
0.0
  9
$DIMTIX
 70
     0
  9
$DIMSOXD
 70
     0
  9
$DIMSAH
 70
     0
  9
$DIMBLK1
  1

  9
$DIMBLK2
  1

  9
$DIMSTYLE
  2
AM_JIS
  9
$DIMCLRD
 70
   256
  9
$DIMCLRE
 70
   256
  9
$DIMCLRT
 70
     2
  9
$DIMTFAC
 40
0.71
  9
$DIMGAP
 40
1.5
  9
$DIMJUST
 70
     0
  9
$DIMSD1
 70
     0
  9
$DIMSD2
 70
     0
  9
$DIMTOLJ
 70
     0
  9
$DIMTZIN
 70
     0
  9
$DIMALTZ
 70
     0
  9
$DIMALTTZ
 70
     0
  9
$DIMFIT
 70
     3
  9
$DIMUPT
 70
     0
  9
$DIMUNIT
 70
     2
  9
$DIMDEC
 70
     3
  9
$DIMTDEC
 70
     3
  9
$DIMALTU
 70
     2
  9
$DIMALTTD
 70
     2
  9
$DIMTXSTY
  7
ASAMI
  9
$DIMAUNIT
 70
     0
  9
$LUNITS
 70
     2
  9
$LUPREC
 70
     0
  9
$SKETCHINC
 40
1.0
  9
$FILLETRAD
 40
2.5
  9
$AUNITS
 70
     0
  9
$AUPREC
 70
     0
  9
$MENU
  1
.
  9
$ELEVATION
 40
0.0
  9
$PELEVATION
 40
0.0
  9
$THICKNESS
 40
0.0
  9
$LIMCHECK
 70
     0
  9
$BLIPMODE
 70
     0
  9
$CHAMFERA
 40
2.5
  9
$CHAMFERB
 40
2.5
  9
$CHAMFERC
 40
20.0
  9
$CHAMFERD
 40
0.0
  9
$SKPOLY
 70
     0
  9
$TDCREATE
 40
2452839.420061482
  9
$TDUPDATE
 40
2453152.392642384
  9
$TDINDWG
 40
0.1547974421
  9
$TDUSRTIMER
 40
0.1547974421
  9
$USRTIMER
 70
     1
  9
$ANGBASE
 50
0.0
  9
$ANGDIR
 70
     0
  9
$PDMODE
 70
     0
  9
$PDSIZE
 40
0.0
  9
$PLINEWID
 40
0.0
  9
$COORDS
 70
     1
  9
$SPLFRAME
 70
     0
  9
$SPLINETYPE
 70
     6
  9
$SPLINESEGS
 70
     8
  9
$ATTDIA
 70
     1
  9
$ATTREQ
 70
     1
  9
$HANDLING
 70
 12289
  9
$HANDSEED
  5
5033
  9
$SURFTAB1
 70
     6
  9
$SURFTAB2
 70
     6
  9
$SURFTYPE
 70
     6
  9
$SURFU
 70
     6
  9
$SURFV
 70
     6
  9
$UCSNAME
  2

  9
$UCSORG
 10
0.0
 20
0.0
 30
0.0
  9
$UCSXDIR
 10
1.0
 20
0.0
 30
0.0
  9
$UCSYDIR
 10
0.0
 20
1.0
 30
0.0
  9
$PUCSNAME
  2

  9
$PUCSORG
 10
0.0
 20
0.0
 30
0.0
  9
$PUCSXDIR
 10
1.0
 20
0.0
 30
0.0
  9
$PUCSYDIR
 10
0.0
 20
1.0
 30
0.0
  9
$USERI1
 70
     0
  9
$USERI2
 70
     0
  9
$USERI3
 70
     0
  9
$USERI4
 70
     0
  9
$USERI5
 70
     0
  9
$USERR1
 40
0.0
  9
$USERR2
 40
0.0
  9
$USERR3
 40
0.0
  9
$USERR4
 40
0.0
  9
$USERR5
 40
0.0
  9
$WORLDVIEW
 70
     1
  9
$SHADEDGE
 70
     3
  9
$SHADEDIF
 70
    70
  9
$TILEMODE
 70
     1
  9
$MAXACTVP
 70
    64
  9
$PINSBASE
 10
0.0
 20
0.0
 30
0.0
  9
$PLIMCHECK
 70
     0
  9
$PEXTMIN
 10
1.000000000000000E+20
 20
1.000000000000000E+20
 30
1.000000000000000E+20
  9
$PEXTMAX
 10
-1.000000000000000E+20
 20
-1.000000000000000E+20
 30
-1.000000000000000E+20
  9
$PLIMMIN
 10
0.0
 20
0.0
  9
$PLIMMAX
 10
841.0
 20
594.0
  9
$UNITMODE
 70
     0
  9
$VISRETAIN
 70
     1
  9
$PLINEGEN
 70
     0
  9
$PSLTSCALE
 70
     0
  9
$TREEDEPTH
 70
  3020
  9
$PICKSTYLE
 70
     0
  9
$CMLSTYLE
  2
STANDARD
  9
$CMLJUST
 70
     0
  9
$CMLSCALE
 40
20.0
  9
$PROXYGRAPHICS
 70
     1
  9
$MEASUREMENT
 70
     1
  0
ENDSEC
  0
SECTION
  2
CLASSES
  0
CLASS
  1
ACDBDICTIONARYWDFLT
  2
AcDbDictionaryWithDefault
  3
AutoCAD 2000
 90
        0
280
     0
281
     0
  0
CLASS
  1
ACDBPLACEHOLDER
  2
AcDbPlaceHolder
  3
AutoCAD 2000
 90
        0
280
     0
281
     0
  0
CLASS
  1
LAYOUT
  2
AcDbLayout
  3
AutoCAD 2000
 90
        0
280
     0
281
     0
  0
CLASS
  1
AMGSETTINGSOBJ
  2
AmgSettingsObj
  3
"AcadM|Product Description: AutoCAD Mechanical 2000|Company: Autodesk"
 90
        0
280
     0
281
     0
  0
CLASS
  1
ACME_DOCUMENT
  2
AcMeDbDoc
  3
AcMeServices
 90
        0
280
     0
281
     0
  0
CLASS
  1
ACMESCOPE
  2
AcMeScope
  3
AcMeServices
 90
        0
280
     0
281
     0
  0
CLASS
  1
ACMECOMMANDHISTORY
  2
AcMeCommandHistory
  3
AcMeServices
 90
        0
280
     0
281
     0
  0
CLASS
  1
DICTIONARYVAR
  2
AcDbDictionaryVar
  3
AutoCAD 2000
 90
        0
280
     0
281
     0
  0
CLASS
  1
ACIMSYSVARMAN
  2
AcImSysVarManager
  3
AcMeServices
 90
        0
280
     0
281
     0
  0
CLASS
  1
ACIMREALSYSVAR
  2
AcImRealSysVar
  3
AcMeServices
 90
        0
280
     0
281
     0
  0
CLASS
  1
ACIMINTSYSVAR
  2
AcImIntSysVar
  3
AcMeServices
 90
        0
280
     0
281
     0
  0
CLASS
  1
ACMEDRAWINGMAN
  2
AcMeDrawingMan
  3
AcMeServices
 90
        0
280
     0
281
     0
  0
CLASS
  1
ACMEVIEW
  2
AcMeView
  3
AcMeServices
 90
        0
280
     0
281
     0
  0
CLASS
  1
ACDBENTITYCACHE
  2
AcMeEntityCache
  3
AcMeServices
 90
        0
280
     0
281
     0
  0
CLASS
  1
GSMANAGER
  2
AcMeGSManager
  3
AcMeServices
 90
        0
280
     0
281
     0
  0
CLASS
  1
AmdtInternalReactor
  2
AmdtInternalReactor
  3
AcMeServices
 90
        0
280
     0
281
     0
  0
CLASS
  1
ACMESTATEMGR
  2
AcMeStateMgr
  3
AcMeServices
 90
        0
280
     0
281
     0
  0
CLASS
  1
ACME_DATABASE
  2
AcMeDbDatabase
  3
AcMeServices
 90
        0
280
     0
281
     0
  0
CLASS
  1
ACRFINSADJUSTERMGR
  2
AcRfInsAdjusterMgr
  3
AcMeServices
 90
        0
280
     0
281
     0
  0
CLASS
  1
ACMDATADICTIONARY
  2
AcmDataDictionary
  3
"AcmSymBB|Product Description: AutoCAD Mechanical 2000|Company: Autodesk"
 90
        0
280
     0
281
     0
  0
CLASS
  1
ACMDATAENTRYBLOCK
  2
AcmDataEntryBlock
  3
"AcmSymBB|Product Description: AutoCAD Mechanical 2000|Company: Autodesk"
 90
        0
280
     0
281
     0
  0
CLASS
  1
AMGOBJPROPCFG
  2
AmgObjPropCfg
  3
"AmgLay|Product Description: AutoCAD Mechanical 2000|Company: Autodesk"
 90
        1
280
     0
281
     0
  0
CLASS
  1
ACAMGFILTERDAT
  2
AcAmgFilterDat
  3
"AcadM|Product Description: AutoCAD Mechanical 2000|Company: Autodesk"
 90
        0
280
     0
281
     0
  0
CLASS
  1
LAYER_INDEX
  2
AcDbLayerIndex
  3
AutoCAD 2000
 90
        0
280
     0
281
     0
  0
CLASS
  1
IDBUFFER
  2
AcDbIdBuffer
  3
AutoCAD 2000
 90
        0
280
     0
281
     0
  0
CLASS
  1
ACIMSTRSYSVAR
  2
AcImStrSysVar
  3
AcMeServices
 90
        0
280
     0
281
     0
  0
CLASS
  1
ACMSTANDARDJIS
  2
AcmStandardJIS
  3
"AcmSymBB|Product Description: AutoCAD Mechanical 2000|Company: Autodesk"
 90
        0
280
     0
281
     0
  0
CLASS
  1
ACMSURFSTANDARDJIS
  2
AcmSurfTextStdJIS
  3
"AcmSymBB|Product Description: AutoCAD Mechanical 2000|Company: Autodesk"
 90
        0
280
     0
281
     0
  0
CLASS
  1
ACMFCFSTANDARDJIS
  2
AcmFCFStdJIS
  3
"AcmSymBB|Product Description: AutoCAD Mechanical 2000|Company: Autodesk"
 90
        0
280
     0
281
     0
  0
CLASS
  1
ACMWELDSTANDARDJIS
  2
AcmWeldingStdJIS
  3
"AcmSymBB|Product Description: AutoCAD Mechanical 2000|Company: Autodesk"
 90
        0
280
     0
281
     0
  0
CLASS
  1
ACMIDSTANDARDJIS
  2
AcmIdStdJIS
  3
"AcmSymBB|Product Description: AutoCAD Mechanical 2000|Company: Autodesk"
 90
        0
280
     0
281
     0
  0
CLASS
  1
ACMDATUMSTANDARDJIS
  2
AcmDatumStdJIS
  3
"AcmSymBB|Product Description: AutoCAD Mechanical 2000|Company: Autodesk"
 90
        0
280
     0
281
     0
  0
CLASS
  1
ACMBOMSTANDARDJIS
  2
AcmBOMStdJIS
  3
"AcmSymBB|Product Description: AutoCAD Mechanical 2000|Company: Autodesk"
 90
        0
280
     0
281
     0
  0
CLASS
  1
ACMSTANDARDANSI
  2
AcmStandardANSI
  3
"AcmSymBB|Product Description: AutoCAD Mechanical 2000|Company: Autodesk"
 90
        0
280
     0
281
     0
  0
CLASS
  1
ACMSURFSTANDARDANSI
  2
AcmSurfTextStdANSI
  3
"AcmSymBB|Product Description: AutoCAD Mechanical 2000|Company: Autodesk"
 90
        0
280
     0
281
     0
  0
CLASS
  1
ACMFCFSTANDARDANSI
  2
AcmFCFStdANSI
  3
"AcmSymBB|Product Description: AutoCAD Mechanical 2000|Company: Autodesk"
 90
        0
280
     0
281
     0
  0
CLASS
  1
ACMWELDSTANDARDANSI
  2
AcmWeldingStdANSI
  3
"AcmSymBB|Product Description: AutoCAD Mechanical 2000|Company: Autodesk"
 90
        0
280
     0
281
     0
  0
CLASS
  1
ACMIDSTANDARDANSI
  2
AcmIdStdANSI
  3
"AcmSymBB|Product Description: AutoCAD Mechanical 2000|Company: Autodesk"
 90
        0
280
     0
281
     0
  0
CLASS
  1
ACMDATUMSTANDARDANSI
  2
AcmDatumStdANSI
  3
"AcmSymBB|Product Description: AutoCAD Mechanical 2000|Company: Autodesk"
 90
        0
280
     0
281
     0
  0
CLASS
  1
ACMBOMSTANDARDANSI
  2
AcmBOMStdANSI
  3
"AcmSymBB|Product Description: AutoCAD Mechanical 2000|Company: Autodesk"
 90
        0
280
     0
281
     0
  0
CLASS
  1
ACMSTANDARDBSI
  2
AcmStandardBSI
  3
"AcmSymBB|Product Description: AutoCAD Mechanical 2000|Company: Autodesk"
 90
        0
280
     0
281
     0
  0
CLASS
  1
ACMSURFSTANDARDBSI
  2
AcmSurfTextStdBSI
  3
"AcmSymBB|Product Description: AutoCAD Mechanical 2000|Company: Autodesk"
 90
        0
280
     0
281
     0
  0
CLASS
  1
ACMFCFSTANDARDBSI
  2
AcmFCFStdBSI
  3
"AcmSymBB|Product Description: AutoCAD Mechanical 2000|Company: Autodesk"
 90
        0
280
     0
281
     0
  0
CLASS
  1
ACMWELDSTANDARDBSI
  2
AcmWeldingStdBSI
  3
"AcmSymBB|Product Description: AutoCAD Mechanical 2000|Company: Autodesk"
 90
        0
280
     0
281
     0
  0
CLASS
  1
ACMIDSTANDARDBSI
  2
AcmIdStdBSI
  3
"AcmSymBB|Product Description: AutoCAD Mechanical 2000|Company: Autodesk"
 90
        0
280
     0
281
     0
  0
CLASS
  1
ACMDATUMSTANDARDBSI
  2
AcmDatumStdBSI
  3
"AcmSymBB|Product Description: AutoCAD Mechanical 2000|Company: Autodesk"
 90
        0
280
     0
281
     0
  0
CLASS
  1
ACMBOMSTANDARDBSI
  2
AcmBOMStdBSI
  3
"AcmSymBB|Product Description: AutoCAD Mechanical 2000|Company: Autodesk"
 90
        0
280
     0
281
     0
  0
CLASS
  1
LONG_TRANSACTION
  2
AcDbLongTransaction
  3
AutoCAD 2000
 90
        0
280
     0
281
     0
  0
CLASS
  1
LWPOLYLINE
  2
AcDbPolyline
  3
AutoCAD 2000
 90
        0
280
     0
281
     1
  0
CLASS
  1
HATCH
  2
AcDbHatch
  3
AutoCAD 2000
 90
        0
280
     0
281
     1
  0
CLASS
  1
XRECORD
  2
AcDbXrecord
  3
AutoCAD 2000
 90
        0
280
     0
281
     0
  0
ENDSEC
  0
SECTION
  2
TABLES
  0
TABLE
  2
VPORT
  5
8
330
0
100
AcDbSymbolTable
 70
     3
  0
VPORT
  5
5008
330
8
100
AcDbSymbolTableRecord
100
AcDbViewportTableRecord
  2
*ACTIVE
 70
     0
 10
0.0
 20
0.0
 11
1.0
 21
1.0
 12
-3.330840005641533
 22
-20.47932987046985
 13
0.0
 23
0.0
 14
2.5
 24
2.5
 15
10.0
 25
10.0
 16
0.0
 26
0.0
 36
1.0
 17
0.0
 27
0.0
 37
0.0
 40
143.5428995496977
 41
1.56570841889117
 42
50.0
 43
0.0
 44
0.0
 50
0.0
 51
0.0
 71
     0
 72
   100
 73
     1
 74
     3
 75
     0
 76
     0
 77
     0
 78
     0
  0
ENDTAB
  0
TABLE
  2
LTYPE
  5
5
330
0
100
AcDbSymbolTable
 70
    10
  0
LTYPE
  5
14
330
5
100
AcDbSymbolTableRecord
100
AcDbLinetypeTableRecord
  2
BYBLOCK
 70
     0
  3

 72
    65
 73
     0
 40
0.0
  0
LTYPE
  5
15
330
5
100
AcDbSymbolTableRecord
100
AcDbLinetypeTableRecord
  2
BYLAYER
 70
     0
  3

 72
    65
 73
     0
 40
0.0
  0
LTYPE
  5
16
330
5
100
AcDbSymbolTableRecord
100
AcDbLinetypeTableRecord
  2
CONTINUOUS
 70
     0
  3
Solid line
 72
    65
 73
     0
 40
0.0
  0
LTYPE
  5
4B
330
5
100
AcDbSymbolTableRecord
100
AcDbLinetypeTableRecord
  2
AM_ISO02W050
 70
     0
  3
__ __ __ __ __ __ __ __ __ __ __ __ __ __ __
 72
    65
 73
     2
 40
7.5
 49
6.0
 74
     0
 49
-1.5
 74
     0
  0
LTYPE
  5
4C
330
5
100
AcDbSymbolTableRecord
100
AcDbLinetypeTableRecord
  2
AM_ISO08W050
 70
     0
  3
____ . ____ . ____ . ____ . ____ . ____ . ____
 72
    65
 73
     4
 40
18.0
 49
12.0
 74
     0
 49
-1.5
 74
     0
 49
3.0
 74
     0
 49
-1.5
 74
     0
  0
LTYPE
  5
4D
330
5
100
AcDbSymbolTableRecord
100
AcDbLinetypeTableRecord
  2
AM_ISO09W050
 70
     0
  3
_____ . . _____ . . _____ . . ____ .. ____
 72
    65
 73
     6
 40
22.5
 49
12.0
 74
     0
 49
-1.5
 74
     0
 49
3.0
 74
     0
 49
-1.5
 74
     0
 49
3.0
 74
     0
 49
-1.5
 74
     0
  0
LTYPE
  5
4E
330
5
100
AcDbSymbolTableRecord
100
AcDbLinetypeTableRecord
  2
AMCONSTR
 70
     0
  3
_______________________
 72
    65
 73
     2
 40
9999.0
 49
9999.0
 74
     0
 49
0.0
 74
     0
  0
LTYPE
  5
4F
330
5
100
AcDbSymbolTableRecord
100
AcDbLinetypeTableRecord
  2
AM_ISO02W050X2
 70
     0
  3
 _ _ _ _ _ _ _ _ _ _ _ _
 72
    65
 73
     2
 40
3.75
 49
3.0
 74
     0
 49
-0.75
 74
     0
  0
LTYPE
  5
50
330
5
100
AcDbSymbolTableRecord
100
AcDbLinetypeTableRecord
  2
AM_ISO08W050X2
 70
     0
  3
__ . __ . __ . __ . __ . __
 72
    65
 73
     4
 40
9.0
 49
6.0
 74
     0
 49
-0.75
 74
     0
 49
1.5
 74
     0
 49
-0.75
 74
     0
  0
LTYPE
  5
53
330
5
100
AcDbSymbolTableRecord
100
AcDbLinetypeTableRecord
  2
AMZIGZAG
 70
     0
  3
/\/-/\/-/\/-/\/-/\/-/\/
 72
    65
 73
     2
 40
11.00009999999999
 49
0.0001
 74
     4
 75
   135
340
52
 46
0.04
 50
0.0
 44
0.0
 45
0.0
 49
-11.0
 74
     0
  0
LTYPE
  5
166
330
5
100
AcDbSymbolTableRecord
100
AcDbLinetypeTableRecord
  2
ACJISTGL
 70
     0
  3
_ _ _ _ _
 72
    65
 73
     2
 40
3.0
 49
2.0
 74
     0
 49
-1.0
 74
     0
  0
LTYPE
  5
26A
330
5
100
AcDbSymbolTableRecord
100
AcDbLinetypeTableRecord
  2
ACJISTGB
 70
     0
  3
__ . . __ . .
 72
    65
 73
     6
 40
9.0
 49
4.0
 74
     0
 49
-1.0
 74
     0
 49
1.0
 74
     0
 49
-1.0
 74
     0
 49
1.0
 74
     0
 49
-1.0
 74
     0
  0
ENDTAB
  0
TABLE
  2
LAYER
  5
2
330
0
100
AcDbSymbolTable
 70
     7
  0
LAYER
  5
10
330
2
100
AcDbSymbolTableRecord
100
AcDbLayerTableRecord
  2
0
 70
     0
 62
     7
  6
CONTINUOUS
  0
LAYER
  5
3F9
330
2
100
AcDbSymbolTableRecord
100
AcDbLayerTableRecord
  2
AM_0
 70
     0
 62
     7
  6
CONTINUOUS
  0
LAYER
  5
CD5
330
2
100
AcDbSymbolTableRecord
100
AcDbLayerTableRecord
  2
AM_7
 70
     0
 62
     4
  6
AM_ISO08W050
  0
LAYER
  5
CDE
330
2
100
AcDbSymbolTableRecord
100
AcDbLayerTableRecord
  2
AM_11
 70
     0
 62
     3
  6
AM_ISO09W050
  0
LAYER
  5
CFB
330
2
100
AcDbSymbolTableRecord
100
AcDbLayerTableRecord
  2
AM_5
 70
     0
 62
     3
  6
CONTINUOUS
  0
LAYER
  5
CFD
330
2
100
AcDbSymbolTableRecord
100
AcDbLayerTableRecord
  2
DEFPOINTS
 70
     0
 62
     7
  6
CONTINUOUS
  0
LAYER
  5
113C
330
2
100
AcDbSymbolTableRecord
100
AcDbLayerTableRecord
  2
AM_6
 70
     0
 62
     2
  6
CONTINUOUS
  0
ENDTAB
  0
TABLE
  2
STYLE
  5
3
330
0
100
AcDbSymbolTable
 70
     5
  0
STYLE
  5
11
330
3
100
AcDbSymbolTableRecord
100
AcDbTextStyleTableRecord
  2
STANDARD
 70
     0
 40
0.0
 41
1.0
 50
0.0
 71
     0
 42
2.5
  3
simplex.shx
  4
EXTFONT.SHX
  0
STYLE
  5
52
330
3
100
AcDbSymbolTableRecord
100
AcDbTextStyleTableRecord
  2

 70
     1
 40
0.0
 41
1.0
 50
0.0
 71
     0
 42
2.5
  3
ltypeshp.shx
  4

  0
STYLE
  5
6B
330
3
100
AcDbSymbolTableRecord
100
AcDbTextStyleTableRecord
  2
ASAMI
 70
     0
 40
0.0
 41
1.0
 50
0.0
 71
     0
 42
2.5
  3
simplex.shx
  4
EXTFONT.SHX
  0
STYLE
  5
262
330
3
100
AcDbSymbolTableRecord
100
AcDbTextStyleTableRecord
  2
ACJISTS
 70
     0
 40
1.0
 41
1.0
 50
0.0
 71
     0
 42
2.5
  3
simplex.shx
  4
bigfont.shx
  0
STYLE
  5
269
330
3
100
AcDbSymbolTableRecord
100
AcDbTextStyleTableRecord
  2
ACJISGDT
 70
     0
 40
0.0
 41
1.0
 50
0.0
 71
     0
 42
2.5
  3
amgdtans.shx
  4

  0
ENDTAB
  0
TABLE
  2
VIEW
  5
6
330
0
100
AcDbSymbolTable
 70
     0
  0
ENDTAB
  0
TABLE
  2
UCS
  5
7
330
0
100
AcDbSymbolTable
 70
     0
  0
ENDTAB
  0
TABLE
  2
APPID
  5
9
330
0
100
AcDbSymbolTable
 70
    12
  0
APPID
  5
12
330
9
100
AcDbSymbolTableRecord
100
AcDbRegAppTableRecord
  2
ACAD
 70
     0
  0
APPID
  5
30
330
9
100
AcDbSymbolTableRecord
100
AcDbRegAppTableRecord
  2
MCAD_NO_VIS
 70
     0
  0
APPID
  5
31
330
9
100
AcDbSymbolTableRecord
100
AcDbRegAppTableRecord
  2
ACAD_TEMP_GRAPHIC
 70
     0
  0
APPID
  5
2C2
330
9
100
AcDbSymbolTableRecord
100
AcDbRegAppTableRecord
  2
GENIUS_GENDTOL_13
 70
     0
  0
APPID
  5
339
330
9
100
AcDbSymbolTableRecord
100
AcDbRegAppTableRecord
  2
GENIUS_GENODEF_13
 70
     0
  0
APPID
  5
33A
330
9
100
AcDbSymbolTableRecord
100
AcDbRegAppTableRecord
  2
GENIUS_GENOBJ-N-RSBK_13
 70
     0
  0
APPID
  5
33B
330
9
100
AcDbSymbolTableRecord
100
AcDbRegAppTableRecord
  2
GENIUS_GENOBJ-N-LIB_13
 70
     0
  0
APPID
  5
33C
330
9
100
AcDbSymbolTableRecord
100
AcDbRegAppTableRecord
  2
GENIUS_GENSCALE_13
 70
     0
  0
APPID
  5
378
330
9
100
AcDbSymbolTableRecord
100
AcDbRegAppTableRecord
  2
GENIUS_GENDIMSH_14
 70
     0
  0
APPID
  5
13A0
330
9
100
AcDbSymbolTableRecord
100
AcDbRegAppTableRecord
  2
GENIUS_GENOBJ-N-CEN_13
 70
     0
  0
APPID
  5
13D7
330
9
100
AcDbSymbolTableRecord
100
AcDbRegAppTableRecord
  2
GENIUS_GENREC_14
 70
     0
  0
APPID
  5
13D8
330
9
100
AcDbSymbolTableRecord
100
AcDbRegAppTableRecord
  2
GENIUS_GENOBJ-N-REC_13
 70
     0
  0
ENDTAB
  0
TABLE
  2
DIMSTYLE
  5
A
330
0
100
AcDbSymbolTable
 70
     9
  0
DIMSTYLE
105
58
330
A
100
AcDbSymbolTableRecord
100
AcDbDimStyleTableRecord
  2
AM_JIS
 70
     0
  3

  4
"
  5
OPEN30
  6

  7

 40
1.0
 41
2.5
 42
1.0
 43
12.0
 44
1.0
 45
0.0
 46
0.0
 47
0.1
 48
0.1
140
3.2
141
0.0
142
0.0
143
0.0393701
144
1.0
145
0.0
146
0.71
147
1.5
 71
     0
 72
     0
 73
     0
 74
     0
 75
     0
 76
     0
 77
     3
 78
     8
170
     0
171
     2
172
     1
173
     0
174
     0
175
     0
176
   256
177
   256
178
     2
270
     2
271
     3
272
     3
273
     2
274
     2
340
6B
275
     0
280
     0
281
     0
282
     0
283
     0
284
     0
285
     0
286
     0
287
     3
288
     0
  0
DIMSTYLE
105
5F
330
A
100
AcDbSymbolTableRecord
100
AcDbDimStyleTableRecord
  2
AM_JIS$3
 70
     0
  3

  4
"
  5
OPEN30
  6

  7

 40
1.0
 41
2.5
 42
1.0
 43
10.0
 44
1.0
 45
0.0
 46
0.0
 47
0.1
 48
0.1
140
3.2
141
0.0
142
0.0
143
0.0393701
144
1.0
145
0.0
146
0.71
147
1.5
 71
     0
 72
     0
 73
     0
 74
     1
 75
     0
 76
     0
 77
     3
 78
     8
170
     0
171
     2
172
     0
173
     0
174
     0
175
     0
176
   256
177
   256
178
     2
270
     2
271
     2
272
     3
273
     2
274
     2
340
6B
275
     0
280
     0
281
     0
282
     0
283
     0
284
     0
285
     0
286
     0
287
     0
288
     1
  0
DIMSTYLE
105
60
330
A
100
AcDbSymbolTableRecord
100
AcDbDimStyleTableRecord
  2
AM_JIS$4
 70
     0
  3

  4
"
  5
OPEN30
  6

  7

 40
1.0
 41
2.5
 42
1.0
 43
10.0
 44
1.0
 45
0.0
 46
0.0
 47
0.1
 48
0.1
140
3.2
141
0.0
142
0.0
143
0.0393701
144
1.0
145
0.0
146
0.71
147
1.5
 71
     0
 72
     0
 73
     0
 74
     1
 75
     0
 76
     0
 77
     3
 78
     8
170
     0
171
     2
172
     0
173
     0
174
     0
175
     0
176
   256
177
   256
178
     2
270
     2
271
     2
272
     3
273
     2
274
     2
340
6B
275
     0
280
     0
281
     0
282
     0
283
     0
284
     0
285
     0
286
     0
287
     0
288
     1
  0
DIMSTYLE
105
61
330
A
100
AcDbSymbolTableRecord
100
AcDbDimStyleTableRecord
  2
AM_JIS$6
 70
     0
  3

  4
"
  5
OPEN30
  6

  7

 40
1.0
 41
2.5
 42
1.0
 43
10.0
 44
1.0
 45
0.0
 46
0.0
 47
0.1
 48
0.1
140
3.2
141
0.0
142
0.0
143
0.0393701
144
1.0
145
0.0
146
0.71
147
1.5
 71
     0
 72
     0
 73
     0
 74
     0
 75
     0
 76
     0
 77
     0
 78
     8
170
     0
171
     2
172
     1
173
     0
174
     0
175
     0
176
   256
177
   256
178
     2
270
     2
271
     2
272
     2
273
     2
274
     2
340
6B
275
     0
280
     0
281
     0
282
     0
283
     0
284
     0
285
     0
286
     0
287
     3
288
     0
  0
DIMSTYLE
105
62
330
A
100
AcDbSymbolTableRecord
100
AcDbDimStyleTableRecord
  2
AM_JIS$7
 70
     0
  3

  4
"
  5
OPEN30
  6

  7

 40
1.0
 41
2.5
 42
1.0
 43
10.0
 44
1.0
 45
0.0
 46
0.0
 47
0.1
 48
0.1
140
3.2
141
0.0
142
0.0
143
0.0393701
144
1.0
145
0.0
146
0.71
147
1.5
 71
     0
 72
     0
 73
     0
 74
     0
 75
     0
 76
     0
 77
     3
 78
     8
170
     0
171
     2
172
     1
173
     0
174
     0
175
     0
176
   256
177
   256
178
     2
270
     2
271
     2
272
     3
273
     2
274
     2
340
6B
275
     0
280
     0
281
     0
282
     0
283
     0
284
     0
285
     0
286
     0
287
     3
288
     0
  0
DIMSTYLE
105
63
330
A
100
AcDbSymbolTableRecord
100
AcDbDimStyleTableRecord
  2
AM_JIS$SF
 70
     0
  3

  4
"
  5
OPEN30
  6

  7

 40
1.0
 41
2.5
 42
1.0
 43
10.0
 44
1.0
 45
0.0
 46
0.0
 47
0.1
 48
0.1
140
3.2
141
0.0
142
0.0
143
0.0393701
144
1.0
145
0.0
146
0.71
147
1.5
 71
     0
 72
     0
 73
     0
 74
     0
 75
     1
 76
     1
 77
     3
 78
     8
170
     0
171
     2
172
     1
173
     0
174
     0
175
     0
176
   256
177
   256
178
     2
270
     2
271
     2
272
     2
273
     2
274
     2
340
6B
275
     0
280
     0
281
     0
282
     0
283
     0
284
     0
285
     0
286
     0
287
     3
288
     0
  0
DIMSTYLE
105
68
330
A
100
AcDbSymbolTableRecord
100
AcDbDimStyleTableRecord
  2
AM_JIS$SH
 70
     0
  3

  4
"
  5

  6
GENAXEH
  7
OPEN30
 40
1.0
 41
2.5
 42
1.0
 43
10.0
 44
1.0
 45
0.0
 46
0.0
 47
0.1
 48
0.1
140
3.2
141
0.0
142
0.0
143
0.0393701
144
2.0
145
0.0
146
0.71
147
1.5
 71
     0
 72
     0
 73
     0
 74
     0
 75
     1
 76
     1
 77
     3
 78
     8
170
     0
171
     2
172
     1
173
     1
174
     0
175
     0
176
   256
177
   256
178
     2
270
     2
271
     2
272
     2
273
     2
274
     2
340
6B
275
     0
280
     0
281
     0
282
     0
283
     0
284
     0
285
     0
286
     0
287
     3
288
     0
  0
DIMSTYLE
105
B34
330
A
100
AcDbSymbolTableRecord
100
AcDbDimStyleTableRecord
  2
AM_JIS$2
 70
     0
  3

  4
"
  5
OPEN30
  6

  7

 40
1.0
 41
2.5
 42
1.0
 43
12.0
 44
1.0
 45
0.0
 46
0.0
 47
0.1
 48
0.1
140
3.2
141
0.0
142
0.0
143
0.0393701
144
1.0
145
0.0
146
0.71
147
1.5
 71
     0
 72
     0
 73
     0
 74
     0
 75
     0
 76
     0
 77
     3
 78
     8
170
     0
171
     2
172
     1
173
     0
174
     0
175
     0
176
   256
177
   256
178
     2
270
     2
271
     3
272
     3
273
     2
274
     2
340
6B
275
     0
280
     0
281
     0
282
     0
283
     0
284
     0
285
     0
286
     0
287
     3
288
     0
  0
DIMSTYLE
105
BA5
102
{ACAD_REACTORS
330
38E8
330
385C
330
48F8
330
49AE
330
4A36
330
4AC1
330
4B52
330
4E51
330
4EED
102
}
330
A
100
AcDbSymbolTableRecord
100
AcDbDimStyleTableRecord
  2
AM_JIS$0
 70
     0
  3

  4
"
  5
OPEN30
  6

  7

 40
1.0
 41
2.5
 42
0.0
 43
10.0
 44
1.0
 45
0.0
 46
0.0
 47
0.1
 48
0.1000000001
140
3.799999999999999
141
0.0
142
0.0
143
0.0393701
144
1.0
145
0.0
146
0.71
147
1.5
 71
     0
 72
     0
 73
     0
 74
     0
 75
     0
 76
     0
 77
     3
 78
     1
170
     0
171
     2
172
     1
173
     0
174
     0
175
     0
176
     3
177
     3
178
     2
270
     2
271
     2
272
     2
273
     2
274
     2
340
11
275
     1
280
     0
281
     0
282
     0
283
     0
284
     8
285
     0
286
     0
287
     0
288
     0
  0
ENDTAB
  0
TABLE
  2
BLOCK_RECORD
  5
1
330
0
100
AcDbSymbolTable
 70
    14
  0
BLOCK_RECORD
  5
1F
102
{ACAD_XDICTIONARY
360
74
102
}
330
1
100
AcDbSymbolTableRecord
100
AcDbBlockTableRecord
  2
*MODEL_SPACE
  0
BLOCK_RECORD
  5
101
102
{ACAD_XDICTIONARY
360
5031
102
}
330
1
100
AcDbSymbolTableRecord
100
AcDbBlockTableRecord
  2
*PAPER_SPACE
  0
BLOCK_RECORD
  5
59
330
1
100
AcDbSymbolTableRecord
100
AcDbBlockTableRecord
  2
_OPEN30
  0
BLOCK_RECORD
  5
64
330
1
100
AcDbSymbolTableRecord
100
AcDbBlockTableRecord
  2
GENAXEH
  0
BLOCK_RECORD
  5
385D
330
1
100
AcDbSymbolTableRecord
100
AcDbBlockTableRecord
  2
*D5
  0
BLOCK_RECORD
  5
38E9
330
1
100
AcDbSymbolTableRecord
100
AcDbBlockTableRecord
  2
*D6
  0
BLOCK_RECORD
  5
48F9
330
1
100
AcDbSymbolTableRecord
100
AcDbBlockTableRecord
  2
*D7
  0
BLOCK_RECORD
  5
49AF
330
1
100
AcDbSymbolTableRecord
100
AcDbBlockTableRecord
  2
*D8
  0
BLOCK_RECORD
  5
4A37
330
1
100
AcDbSymbolTableRecord
100
AcDbBlockTableRecord
  2
*D9
  0
BLOCK_RECORD
  5
4AC2
330
1
100
AcDbSymbolTableRecord
100
AcDbBlockTableRecord
  2
*D10
  0
BLOCK_RECORD
  5
4B53
330
1
100
AcDbSymbolTableRecord
100
AcDbBlockTableRecord
  2
*D11
  0
BLOCK_RECORD
  5
4E52
330
1
100
AcDbSymbolTableRecord
100
AcDbBlockTableRecord
  2
*D12
  0
BLOCK_RECORD
  5
4EEE
330
1
100
AcDbSymbolTableRecord
100
AcDbBlockTableRecord
  2
*D13
  0
ENDTAB
  0
ENDSEC
  0
SECTION
  2
BLOCKS
  0
BLOCK
  5
20
330
1F
100
AcDbEntity
  8
0
100
AcDbBlockBegin
  2
*MODEL_SPACE
 70
     0
 10
0.0
 20
0.0
 30
0.0
  3
*MODEL_SPACE
  1

  0
ENDBLK
  5
21
330
1F
100
AcDbEntity
  8
0
100
AcDbBlockEnd
  0
BLOCK
  5
103
330
101
100
AcDbEntity
 67
     1
  8
0
100
AcDbBlockBegin
  2
*PAPER_SPACE
 70
     0
 10
0.0
 20
0.0
 30
0.0
  3
*PAPER_SPACE
  1

  0
ENDBLK
  5
104
330
101
100
AcDbEntity
 67
     1
  8
0
100
AcDbBlockEnd
  0
BLOCK
  5
5D
330
59
100
AcDbEntity
  8
0
100
AcDbBlockBegin
  2
_OPEN30
 70
     0
 10
0.0
 20
0.0
 30
0.0
  3
_OPEN30
  1

  0
LINE
  5
5A
330
59
100
AcDbEntity
  8
0
 62
     0
100
AcDbLine
 10
-1.0
 20
0.26794919
 30
0.0
 11
0.0
 21
0.0
 31
0.0
  0
LINE
  5
5B
330
59
100
AcDbEntity
  8
0
 62
     0
100
AcDbLine
 10
0.0
 20
0.0
 30
0.0
 11
-1.0
 21
-0.26794919
 31
0.0
  0
LINE
  5
5C
330
59
100
AcDbEntity
  8
0
 62
     0
100
AcDbLine
 10
0.0
 20
0.0
 30
0.0
 11
-1.0
 21
0.0
 31
0.0
  0
ENDBLK
  5
5E
330
59
100
AcDbEntity
  8
0
100
AcDbBlockEnd
  0
BLOCK
  5
66
330
64
100
AcDbEntity
  8
0
100
AcDbBlockBegin
  2
GENAXEH
 70
     0
 10
0.0
 20
0.0
 30
0.0
  3
GENAXEH
  1

  0
LINE
  5
65
330
64
100
AcDbEntity
  8
0
100
AcDbLine
 10
-1.0
 20
0.0
 30
0.0
 11
1.0
 21
0.0
 31
0.0
  0
ENDBLK
  5
67
330
64
100
AcDbEntity
  8
0
100
AcDbBlockEnd
  0
BLOCK
  5
3867
330
385D
100
AcDbEntity
  8
0
100
AcDbBlockBegin
  2
*D5
 70
     1
 10
0.0
 20
0.0
 30
0.0
  3
*D5
  1

  0
LINE
  5
4F9F
330
385D
100
AcDbEntity
  8
AM_5
 62
     3
100
AcDbLine
 10
0.0000000000000032
 20
19.99999809265018
 30
0.0
 11
26.65873086849384
 21
19.99999809265018
 31
0.0
  0
LINE
  5
4FA0
330
385D
100
AcDbEntity
  8
AM_5
 62
     3
100
AcDbLine
 10
-0.0000000000000018
 20
-20.00000190734981
 30
0.0
 11
26.65873086849384
 21
-20.00000190734982
 31
0.0
  0
LINE
  5
4FA1
330
385D
100
AcDbEntity
  8
AM_5
 62
     3
100
AcDbLine
 10
25.65873086849384
 20
17.49999809265018
 30
0.0
 11
25.65873086849384
 21
-17.50000190734982
 31
0.0
  0
INSERT
  5
4FA2
330
385D
100
AcDbEntity
  8
AM_5
 62
     3
100
AcDbBlockReference
  2
_OPEN30
 10
25.65873086849384
 20
19.99999809265018
 30
0.0
 41
2.5
 42
2.5
 43
2.5
 50
90.0
  0
INSERT
  5
4FA3
330
385D
100
AcDbEntity
  8
AM_5
 62
     3
100
AcDbBlockReference
  2
_OPEN30
 10
25.65873086849384
 20
-20.00000190734982
 30
0.0
 41
2.5
 42
2.5
 43
2.5
 50
270.0
  0
MTEXT
  5
4FA4
330
385D
100
AcDbEntity
  8
AM_5
 62
     2
100
AcDbMText
 10
22.25873086849384
 20
-0.0000019073498135
 30
0.0
 40
3.799999999999999
 41
0.0
 71
     5
 72
     1
  1
%%c40
 11
0.0000000000000001
 21
1.0
 31
0.0
1001
ACAD
1000
MTEXTBEGIN
1070
    73
1070
     1
1070
    44
1040
1.0
1070
    74
1070
     0
1000
MTEXTEND
  0
POINT
  5
4FA5
330
385D
100
AcDbEntity
  8
DEFPOINTS
 62
     0
100
AcDbPoint
 10
0.0000000000000032
 20
19.99999809265018
 30
0.0
  0
POINT
  5
4FA6
330
385D
100
AcDbEntity
  8
DEFPOINTS
 62
     0
100
AcDbPoint
 10
-0.0000000000000018
 20
-20.00000190734981
 30
0.0
  0
POINT
  5
4FA7
330
385D
100
AcDbEntity
  8
DEFPOINTS
 62
     0
100
AcDbPoint
 10
25.65873086849384
 20
-20.00000190734982
 30
0.0
  0
ENDBLK
  5
3868
330
385D
100
AcDbEntity
  8
0
100
AcDbBlockEnd
  0
BLOCK
  5
38F3
330
38E9
100
AcDbEntity
  8
0
100
AcDbBlockBegin
  2
*D6
 70
     1
 10
0.0
 20
0.0
 30
0.0
  3
*D6
  1

  0
LINE
  5
4CD9
330
38E9
100
AcDbEntity
  8
AM_5
 62
     3
100
AcDbLine
 10
0.0000000000000031
 20
12.49999809265016
 30
0.0
 11
0.0000000000000044
 21
34.99999433846793
 31
0.0
  0
LINE
  5
4CDA
330
38E9
100
AcDbEntity
  8
AM_5
 62
     3
100
AcDbLine
 10
-12.99999999999999
 20
12.51002622227675
 30
0.0
 11
-12.99999999999999
 21
34.99999433846793
 31
0.0
  0
LINE
  5
4CDB
330
38E9
100
AcDbEntity
  8
AM_5
 62
     3
100
AcDbLine
 10
-2.499999999999995
 20
33.99999433846793
 30
0.0
 11
-10.49999999999999
 21
33.99999433846793
 31
0.0
  0
INSERT
  5
4CDC
330
38E9
100
AcDbEntity
  8
AM_5
 62
     3
100
AcDbBlockReference
  2
_OPEN30
 10
0.0000000000000044
 20
33.99999433846793
 30
0.0
 41
2.5
 42
2.5
 43
2.5
  0
INSERT
  5
4CDD
330
38E9
100
AcDbEntity
  8
AM_5
 62
     3
100
AcDbBlockReference
  2
_OPEN30
 10
-12.99999999999999
 20
33.99999433846793
 30
0.0
 41
2.5
 42
2.5
 43
2.5
 50
180.0
  0
MTEXT
  5
4CDE
330
38E9
100
AcDbEntity
  8
AM_5
 62
     2
100
AcDbMText
 10
-6.499999999999994
 20
37.39999433846793
 30
0.0
 40
3.799999999999999
 41
0.0
 71
     5
 72
     1
  1
13
1001
ACAD
1000
MTEXTBEGIN
1070
    73
1070
     1
1070
    44
1040
1.0
1070
    74
1070
     0
1000
MTEXTEND
  0
POINT
  5
4CDF
330
38E9
100
AcDbEntity
  8
DEFPOINTS
 62
     0
100
AcDbPoint
 10
0.0000000000000031
 20
12.49999809265016
 30
0.0
  0
POINT
  5
4CE0
330
38E9
100
AcDbEntity
  8
DEFPOINTS
 62
     0
100
AcDbPoint
 10
-12.99999999999999
 20
12.51002622227675
 30
0.0
  0
POINT
  5
4CE1
330
38E9
100
AcDbEntity
  8
DEFPOINTS
 62
     0
100
AcDbPoint
 10
-12.99999999999999
 20
33.99999433846793
 30
0.0
  0
ENDBLK
  5
38F4
330
38E9
100
AcDbEntity
  8
0
100
AcDbBlockEnd
  0
BLOCK
  5
4905
330
48F9
100
AcDbEntity
  8
0
100
AcDbBlockBegin
  2
*D7
 70
     1
 10
0.0
 20
0.0
 30
0.0
  3
*D7
  1

  0
LINE
  5
4F79
330
48F9
100
AcDbEntity
  8
AM_5
 62
     3
100
AcDbLine
 10
-40.00083374780309
 20
-15.00001582065132
 30
0.0
 11
-40.00083374780309
 21
-35.00001548796078
 31
0.0
  0
LINE
  5
4F7A
330
48F9
100
AcDbEntity
  8
AM_5
 62
     3
100
AcDbLine
 10
-34.40085600796685
 20
-4.200026658418629
 30
0.0
 11
-34.40085600796685
 21
-35.00001548796078
 31
0.0
  0
LINE
  5
4F7B
330
48F9
100
AcDbEntity
  8
AM_5
 62
     3
100
AcDbLine
 10
-31.90085600796685
 20
-34.00001548796078
 30
0.0
 11
-29.40085600796685
 21
-34.00001548796078
 31
0.0
  0
LINE
  5
4F7C
330
48F9
100
AcDbEntity
  8
AM_5
 62
     3
100
AcDbLine
 10
-42.50083374780309
 20
-34.00001548796078
 30
0.0
 11
-55.87226231923164
 21
-34.00001548796078
 31
0.0
  0
LINE
  5
4F7D
330
48F9
100
AcDbEntity
  8
AM_5
 62
     3
100
AcDbLine
 10
-34.40085600796685
 20
-34.00001548796078
 30
0.0
 11
-40.00083374780309
 21
-34.00001548796078
 31
0.0
  0
INSERT
  5
4F7E
330
48F9
100
AcDbEntity
  8
AM_5
 62
     3
100
AcDbBlockReference
  2
_OPEN30
 10
-34.40085600796685
 20
-34.00001548796078
 30
0.0
 41
2.5
 42
2.5
 43
2.5
 50
180.0
  0
INSERT
  5
4F7F
330
48F9
100
AcDbEntity
  8
AM_5
 62
     3
100
AcDbBlockReference
  2
_OPEN30
 10
-40.00083374780309
 20
-34.00001548796078
 30
0.0
 41
2.5
 42
2.5
 43
2.5
  0
MTEXT
  5
4F80
330
48F9
100
AcDbEntity
  8
AM_5
 62
     2
100
AcDbMText
 10
-50.48178612875545
 20
-30.60001548796078
 30
0.0
 40
3.799999999999999
 41
0.0
 71
     5
 72
     1
  1
5.6
1001
ACAD
1000
MTEXTBEGIN
1070
    73
1070
     1
1070
    44
1040
1.0
1070
    74
1070
     0
1000
MTEXTEND
  0
POINT
  5
4F81
330
48F9
100
AcDbEntity
  8
DEFPOINTS
 62
     0
100
AcDbPoint
 10
-40.00083374780309
 20
-15.00001582065132
 30
0.0
  0
POINT
  5
4F82
330
48F9
100
AcDbEntity
  8
DEFPOINTS
 62
     0
100
AcDbPoint
 10
-34.40085600796685
 20
-4.200026658418629
 30
0.0
  0
POINT
  5
4F83
330
48F9
100
AcDbEntity
  8
DEFPOINTS
 62
     0
100
AcDbPoint
 10
-34.40085600796685
 20
-34.00001548796078
 30
0.0
  0
ENDBLK
  5
4906
330
48F9
100
AcDbEntity
  8
0
100
AcDbBlockEnd
  0
BLOCK
  5
49B9
330
49AF
100
AcDbEntity
  8
0
100
AcDbBlockBegin
  2
*D8
 70
     1
 10
0.0
 20
0.0
 30
0.0
  3
*D8
  1

  0
LINE
  5
4F96
330
49AF
100
AcDbEntity
  8
AM_5
 62
     3
100
AcDbLine
 10
-40.00083374780309
 20
-15.00001653590703
 30
0.0
 11
-40.00083374780309
 21
-45.00001095319624
 31
0.0
  0
LINE
  5
4F97
330
49AF
100
AcDbEntity
  8
AM_5
 62
     3
100
AcDbLine
 10
-22.00083608832226
 20
-8.600016056714354
 30
0.0
 11
-22.00083608832226
 21
-45.00001095319624
 31
0.0
  0
LINE
  5
4F98
330
49AF
100
AcDbEntity
  8
AM_5
 62
     3
100
AcDbLine
 10
-37.50083374780308
 20
-44.00001095319623
 30
0.0
 11
-24.50083608832226
 21
-44.00001095319623
 31
0.0
  0
INSERT
  5
4F99
330
49AF
100
AcDbEntity
  8
AM_5
 62
     3
100
AcDbBlockReference
  2
_OPEN30
 10
-40.00083374780309
 20
-44.00001095319623
 30
0.0
 41
2.5
 42
2.5
 43
2.5
 50
180.0
  0
INSERT
  5
4F9A
330
49AF
100
AcDbEntity
  8
AM_5
 62
     3
100
AcDbBlockReference
  2
_OPEN30
 10
-22.00083608832226
 20
-44.00001095319623
 30
0.0
 41
2.5
 42
2.5
 43
2.5
  0
MTEXT
  5
4F9B
330
49AF
100
AcDbEntity
  8
AM_5
 62
     2
100
AcDbMText
 10
-31.00083491806267
 20
-40.60001095319623
 30
0.0
 40
3.799999999999999
 41
0.0
 71
     5
 72
     1
  1
18
1001
ACAD
1000
MTEXTBEGIN
1070
    73
1070
     1
1070
    44
1040
1.0
1070
    74
1070
     0
1000
MTEXTEND
  0
POINT
  5
4F9C
330
49AF
100
AcDbEntity
  8
DEFPOINTS
 62
     0
100
AcDbPoint
 10
-40.00083374780309
 20
-15.00001653590703
 30
0.0
  0
POINT
  5
4F9D
330
49AF
100
AcDbEntity
  8
DEFPOINTS
 62
     0
100
AcDbPoint
 10
-22.00083608832226
 20
-8.600016056714354
 30
0.0
  0
POINT
  5
4F9E
330
49AF
100
AcDbEntity
  8
DEFPOINTS
 62
     0
100
AcDbPoint
 10
-22.00083608832226
 20
-44.00001095319623
 30
0.0
  0
ENDBLK
  5
49BA
330
49AF
100
AcDbEntity
  8
0
100
AcDbBlockEnd
  0
BLOCK
  5
4A41
330
4A37
100
AcDbEntity
  8
0
100
AcDbBlockBegin
  2
*D9
 70
     1
 10
0.0
 20
0.0
 30
0.0
  3
*D9
  1

  0
LINE
  5
4F8D
330
4A37
100
AcDbEntity
  8
AM_5
 62
     3
100
AcDbLine
 10
-40.00083374780309
 20
-15.00001582065132
 30
0.0
 11
-40.00083374780309
 21
-55.0000072961342
 31
0.0
  0
LINE
  5
4F8E
330
4A37
100
AcDbEntity
  8
AM_5
 62
     3
100
AcDbLine
 10
-12.00083649060207
 20
-7.500006296131596
 30
0.0
 11
-12.00083649060207
 21
-55.0000072961342
 31
0.0
  0
LINE
  5
4F8F
330
4A37
100
AcDbEntity
  8
AM_5
 62
     3
100
AcDbLine
 10
-37.50083374780308
 20
-54.0000072961342
 30
0.0
 11
-14.50083649060207
 21
-54.0000072961342
 31
0.0
  0
INSERT
  5
4F90
330
4A37
100
AcDbEntity
  8
AM_5
 62
     3
100
AcDbBlockReference
  2
_OPEN30
 10
-40.00083374780309
 20
-54.0000072961342
 30
0.0
 41
2.5
 42
2.5
 43
2.5
 50
180.0
  0
INSERT
  5
4F91
330
4A37
100
AcDbEntity
  8
AM_5
 62
     3
100
AcDbBlockReference
  2
_OPEN30
 10
-12.00083649060207
 20
-54.0000072961342
 30
0.0
 41
2.5
 42
2.5
 43
2.5
  0
MTEXT
  5
4F92
330
4A37
100
AcDbEntity
  8
AM_5
 62
     2
100
AcDbMText
 10
-26.00083511920258
 20
-50.6000072961342
 30
0.0
 40
3.799999999999999
 41
0.0
 71
     5
 72
     1
  1
28
1001
ACAD
1000
MTEXTBEGIN
1070
    73
1070
     1
1070
    44
1040
1.0
1070
    74
1070
     0
1000
MTEXTEND
  0
POINT
  5
4F93
330
4A37
100
AcDbEntity
  8
DEFPOINTS
 62
     0
100
AcDbPoint
 10
-40.00083374780309
 20
-15.00001582065132
 30
0.0
  0
POINT
  5
4F94
330
4A37
100
AcDbEntity
  8
DEFPOINTS
 62
     0
100
AcDbPoint
 10
-12.00083649060207
 20
-7.500006296131596
 30
0.0
  0
POINT
  5
4F95
330
4A37
100
AcDbEntity
  8
DEFPOINTS
 62
     0
100
AcDbPoint
 10
-12.00083649060207
 20
-54.0000072961342
 30
0.0
  0
ENDBLK
  5
4A42
330
4A37
100
AcDbEntity
  8
0
100
AcDbBlockEnd
  0
BLOCK
  5
4ACC
330
4AC2
100
AcDbEntity
  8
0
100
AcDbBlockBegin
  2
*D10
 70
     1
 10
0.0
 20
0.0
 30
0.0
  3
*D10
  1

  0
LINE
  5
4F84
330
4AC2
100
AcDbEntity
  8
AM_5
 62
     3
100
AcDbLine
 10
-40.00083374780309
 20
-15.00001653590703
 30
0.0
 11
-40.00083374780309
 21
-65.00000290735354
 31
0.0
  0
LINE
  5
4F85
330
4AC2
100
AcDbEntity
  8
AM_5
 62
     3
100
AcDbLine
 10
-0.0000000000000005
 20
-20.00000190735112
 30
0.0
 11
-0.0000000000000032
 21
-65.00000290735354
 31
0.0
  0
LINE
  5
4F86
330
4AC2
100
AcDbEntity
  8
AM_5
 62
     3
100
AcDbLine
 10
-37.50083374780308
 20
-64.00000290735355
 30
0.0
 11
-2.500000000000003
 21
-64.00000290735355
 31
0.0
  0
INSERT
  5
4F87
330
4AC2
100
AcDbEntity
  8
AM_5
 62
     3
100
AcDbBlockReference
  2
_OPEN30
 10
-40.00083374780309
 20
-64.00000290735355
 30
0.0
 41
2.5
 42
2.5
 43
2.5
 50
180.0
  0
INSERT
  5
4F88
330
4AC2
100
AcDbEntity
  8
AM_5
 62
     3
100
AcDbBlockReference
  2
_OPEN30
 10
-0.0000000000000032
 20
-64.00000290735355
 30
0.0
 41
2.5
 42
2.5
 43
2.5
  0
MTEXT
  5
4F89
330
4AC2
100
AcDbEntity
  8
AM_5
 62
     2
100
AcDbMText
 10
-20.00041687390154
 20
-60.60000290735355
 30
0.0
 40
3.799999999999999
 41
0.0
 71
     5
 72
     1
  1
40
1001
ACAD
1000
MTEXTBEGIN
1070
    73
1070
     1
1070
    44
1040
1.0
1070
    74
1070
     0
1000
MTEXTEND
  0
POINT
  5
4F8A
330
4AC2
100
AcDbEntity
  8
DEFPOINTS
 62
     0
100
AcDbPoint
 10
-40.00083374780309
 20
-15.00001653590703
 30
0.0
  0
POINT
  5
4F8B
330
4AC2
100
AcDbEntity
  8
DEFPOINTS
 62
     0
100
AcDbPoint
 10
-0.0000000000000005
 20
-20.00000190735112
 30
0.0
  0
POINT
  5
4F8C
330
4AC2
100
AcDbEntity
  8
DEFPOINTS
 62
     0
100
AcDbPoint
 10
-0.0000000000000032
 20
-64.00000290735355
 30
0.0
  0
ENDBLK
  5
4ACD
330
4AC2
100
AcDbEntity
  8
0
100
AcDbBlockEnd
  0
BLOCK
  5
4B5E
330
4B53
100
AcDbEntity
  8
0
100
AcDbBlockBegin
  2
*D11
 70
     1
 10
0.0
 20
0.0
 30
0.0
  3
*D11
  1

  0
LINE
  5
4E41
330
4B53
100
AcDbEntity
  8
AM_5
 62
     3
100
AcDbLine
 10
-39.00080717984095
 20
-4.200043636010305
 30
0.0
 11
-58.83244454125761
 21
-4.2000436360103
 31
0.0
  0
LINE
  5
4E42
330
4B53
100
AcDbEntity
  8
AM_5
 62
     3
100
AcDbLine
 10
-39.00080717984095
 20
4.199965519260255
 30
0.0
 11
-58.83244454125761
 21
4.199965519260261
 31
0.0
  0
LINE
  5
4E43
330
4B53
100
AcDbEntity
  8
AM_5
 62
     3
100
AcDbLine
 10
-57.8324445412576
 20
-1.7000436360103
 30
0.0
 11
-57.8324445412576
 21
1.69996551926026
 31
0.0
  0
INSERT
  5
4E44
330
4B53
100
AcDbEntity
  8
AM_5
 62
     3
100
AcDbBlockReference
  2
_OPEN30
 10
-57.8324445412576
 20
-4.200043636010301
 30
0.0
 41
2.5
 42
2.5
 43
2.5
 50
270.0
  0
INSERT
  5
4E45
330
4B53
100
AcDbEntity
  8
AM_5
 62
     3
100
AcDbBlockReference
  2
_OPEN30
 10
-57.8324445412576
 20
4.19996551926026
 30
0.0
 41
2.5
 42
2.5
 43
2.5
 50
90.0
  0
MTEXT
  5
4E46
330
4B53
100
AcDbEntity
  8
AM_5
 62
     2
100
AcDbMText
 10
-61.2324445412576
 20
-0.000039058375029
 30
0.0
 40
3.799999999999999
 41
0.0
 71
     5
 72
     1
  1
8.4
 11
0.0000000000000001
 21
1.0
 31
0.0
1001
ACAD
1000
MTEXTBEGIN
1070
    73
1070
     1
1070
    44
1040
1.0
1070
    74
1070
     0
1000
MTEXTEND
  0
POINT
  5
4E47
330
4B53
100
AcDbEntity
  8
DEFPOINTS
 62
     0
100
AcDbPoint
 10
-39.00080717984095
 20
-4.200043636010305
 30
0.0
  0
POINT
  5
4E48
330
4B53
100
AcDbEntity
  8
DEFPOINTS
 62
     0
100
AcDbPoint
 10
-39.00080717984095
 20
4.199965519260255
 30
0.0
  0
POINT
  5
4E49
330
4B53
100
AcDbEntity
  8
DEFPOINTS
 62
     0
100
AcDbPoint
 10
-57.8324445412576
 20
4.19996551926026
 30
0.0
  0
ENDBLK
  5
4B5F
330
4B53
100
AcDbEntity
  8
0
100
AcDbBlockEnd
  0
BLOCK
  5
4E5C
330
4E52
100
AcDbEntity
  8
0
100
AcDbBlockBegin
  2
*D12
 70
     1
 10
0.0
 20
0.0
 30
0.0
  3
*D12
  1

  0
LINE
  5
4FB1
330
4E52
100
AcDbEntity
  8
AM_5
 62
     3
100
AcDbLine
 10
-12.00084087907747
 20
4.499993703867603
 30
0.0
 11
16.658730868492
 21
4.499993703867595
 31
0.0
  0
LINE
  5
4FB2
330
4E52
100
AcDbEntity
  8
AM_5
 62
     3
100
AcDbLine
 10
-12.00083758772092
 20
-4.500006296131793
 30
0.0
 11
16.658730868492
 21
-4.500006296131801
 31
0.0
  0
LINE
  5
4FB3
330
4E52
100
AcDbEntity
  8
AM_5
 62
     3
100
AcDbLine
 10
15.65873086849201
 20
1.999993703867595
 30
0.0
 11
15.65873086849201
 21
-2.000006296131801
 31
0.0
  0
INSERT
  5
4FB4
330
4E52
100
AcDbEntity
  8
AM_5
 62
     3
100
AcDbBlockReference
  2
_OPEN30
 10
15.65873086849201
 20
4.499993703867595
 30
0.0
 41
2.5
 42
2.5
 43
2.5
 50
90.0
  0
INSERT
  5
4FB5
330
4E52
100
AcDbEntity
  8
AM_5
 62
     3
100
AcDbBlockReference
  2
_OPEN30
 10
15.658730868492
 20
-4.500006296131801
 30
0.0
 41
2.5
 42
2.5
 43
2.5
 50
270.0
  0
MTEXT
  5
4FB6
330
4E52
100
AcDbEntity
  8
AM_5
 62
     2
100
AcDbMText
 10
12.258730868492
 20
-0.0000062961321002
 30
0.0
 40
3.799999999999999
 41
0.0
 71
     5
 72
     1
  1
%%c9
 11
0.0000000000000001
 21
1.0
 31
0.0
1001
ACAD
1000
MTEXTBEGIN
1070
    73
1070
     1
1070
    44
1040
1.0
1070
    74
1070
     0
1000
MTEXTEND
  0
POINT
  5
4FB7
330
4E52
100
AcDbEntity
  8
DEFPOINTS
 62
     0
100
AcDbPoint
 10
-12.00084087907747
 20
4.499993703867603
 30
0.0
  0
POINT
  5
4FB8
330
4E52
100
AcDbEntity
  8
DEFPOINTS
 62
     0
100
AcDbPoint
 10
-12.00083758772092
 20
-4.500006296131793
 30
0.0
  0
POINT
  5
4FB9
330
4E52
100
AcDbEntity
  8
DEFPOINTS
 62
     0
100
AcDbPoint
 10
15.658730868492
 20
-4.500006296131801
 30
0.0
  0
ENDBLK
  5
4E5D
330
4E52
100
AcDbEntity
  8
0
100
AcDbBlockEnd
  0
BLOCK
  5
4EF8
330
4EEE
100
AcDbEntity
  8
0
100
AcDbBlockBegin
  2
*D13
 70
     1
 10
0.0
 20
0.0
 30
0.0
  3
*D13
  1

  0
LINE
  5
4FA8
330
4EEE
100
AcDbEntity
  8
AM_5
 62
     3
100
AcDbLine
 10
-39.00083566798931
 20
-8.000016170201181
 30
0.0
 11
-68.83244732062225
 21
-8.000016170201172
 31
0.0
  0
LINE
  5
4FA9
330
4EEE
100
AcDbEntity
  8
AM_5
 62
     3
100
AcDbLine
 10
-39.00084151928984
 20
7.999983829797955
 30
0.0
 11
-68.83244732062225
 21
7.999983829797963
 31
0.0
  0
LINE
  5
4FAA
330
4EEE
100
AcDbEntity
  8
AM_5
 62
     3
100
AcDbLine
 10
-67.83244732062225
 20
-5.500016170201173
 30
0.0
 11
-67.83244732062225
 21
5.499983829797963
 31
0.0
  0
INSERT
  5
4FAB
330
4EEE
100
AcDbEntity
  8
AM_5
 62
     3
100
AcDbBlockReference
  2
_OPEN30
 10
-67.83244732062225
 20
-8.000016170201174
 30
0.0
 41
2.5
 42
2.5
 43
2.5
 50
270.0
  0
INSERT
  5
4FAC
330
4EEE
100
AcDbEntity
  8
AM_5
 62
     3
100
AcDbBlockReference
  2
_OPEN30
 10
-67.83244732062225
 20
7.999983829797963
 30
0.0
 41
2.5
 42
2.5
 43
2.5
 50
90.0
  0
MTEXT
  5
4FAD
330
4EEE
100
AcDbEntity
  8
AM_5
 62
     2
100
AcDbMText
 10
-71.23244732062225
 20
-0.0000161702016154
 30
0.0
 40
3.799999999999999
 41
0.0
 71
     5
 72
     1
  1
%%c16
 11
0.0000000000000001
 21
1.0
 31
0.0
1001
ACAD
1000
MTEXTBEGIN
1070
    73
1070
     1
1070
    44
1040
1.0
1070
    74
1070
     0
1000
MTEXTEND
  0
POINT
  5
4FAE
330
4EEE
100
AcDbEntity
  8
DEFPOINTS
 62
     0
100
AcDbPoint
 10
-39.00083566798931
 20
-8.000016170201181
 30
0.0
  0
POINT
  5
4FAF
330
4EEE
100
AcDbEntity
  8
DEFPOINTS
 62
     0
100
AcDbPoint
 10
-39.00084151928984
 20
7.999983829797955
 30
0.0
  0
POINT
  5
4FB0
330
4EEE
100
AcDbEntity
  8
DEFPOINTS
 62
     0
100
AcDbPoint
 10
-67.83244732062225
 20
7.999983829797963
 30
0.0
  0
ENDBLK
  5
4EF9
330
4EEE
100
AcDbEntity
  8
0
100
AcDbBlockEnd
  0
ENDSEC
  0
SECTION
  2
ENTITIES
  0
TEXT
  5
1142
330
1F
100
AcDbEntity
  8
AM_6
100
AcDbText
 10
-39.04803592152059
 20
-86.50000290735386
 30
0.0
 40
5.0
  1
WEM3040F
 72
     4
 11
-20.00041687390154
 21
-84.00000290735386
 31
0.0
100
AcDbText
  0
DIMENSION
  5
385C
330
1F
100
AcDbEntity
  8
AM_5
100
AcDbDimension
  2
*D5
 10
25.65873086849384
 20
-20.00000190734982
 30
0.0
 11
22.25873086849384
 21
-0.0000019073498135
 31
0.0
 70
    32
  1
%%c<>
  3
AM_JIS$0
100
AcDbAlignedDimension
 13
0.0000000000000032
 23
19.99999809265018
 33
0.0
 14
-0.0000000000000018
 24
-20.00000190734981
 34
0.0
 50
90.00000000000003
100
AcDbRotatedDimension
1001
ACAD
1000
DSTYLE
1002
{
1070
   271
1070
     0
1002
}
1001
GENIUS_GENDTOL_13
1000

1000
h7
1000

1040
0.0
  0
DIMENSION
  5
38E8
330
1F
100
AcDbEntity
  8
AM_5
100
AcDbDimension
  2
*D6
 10
-12.99999999999999
 20
33.99999433846793
 30
0.0
 11
-6.499999999999994
 21
37.39999433846793
 31
0.0
 70
    32
  1
<>
  3
AM_JIS$0
100
AcDbAlignedDimension
 13
0.0000000000000031
 23
12.49999809265016
 33
0.0
 14
-12.99999999999999
 24
12.51002622227675
 34
0.0
 50
180.0
100
AcDbRotatedDimension
1001
ACAD
1000
DSTYLE
1002
{
1070
   271
1070
     0
1002
}
1001
GENIUS_GENDTOL_13
1000

1000
h7
1000

1040
0.0
  0
LINE
  5
4777
330
1F
100
AcDbEntity
  8
AM_7
  6
AM_ISO08W050X2
100
AcDbLine
 10
1.65873718261989
 20
-0.0000013007391721
 30
0.0
 11
-43.83244778344897
 21
-0.0000157408361407
 31
0.0
  0
ARC
  5
4778
330
1F
100
AcDbEntity
  8
AM_0
100
AcDbCircle
 10
-16.5818374482953
 20
12.4760052121589
 30
0.0
 40
2.499624967575099
100
AcDbArc
 50
98.0490821971065
 51
316.3814270546823
  0
ARC
  5
4779
330
1F
100
AcDbEntity
  8
AM_0
100
AcDbCircle
 10
-16.86484221415236
 20
12.48999741823228
 30
0.0
 40
2.5004417896271
100
AcDbArc
 50
91.07705731878915
 51
241.8654770590006
  0
LINE
  5
477A
330
1F
100
AcDbEntity
  8
AM_0
100
AcDbLine
 10
-16.0935585841583
 20
18.99999220713599
 30
0.0
 11
-19.00084618181811
 21
18.99999114392264
 31
0.0
  0
LINE
  5
477B
330
1F
100
AcDbEntity
  8
AM_0
100
AcDbLine
 10
-12.00084087907747
 20
4.499993703867603
 30
0.0
 11
-22.0008408790768
 21
4.49999004680477
 31
0.0
  0
LINE
  5
477C
330
1F
100
AcDbEntity
  8
AM_0
100
AcDbLine
 10
-12.31284400372979
 20
-19.00000641023547
 30
0.0
 11
-19.00083228497934
 21
-19.00000885607481
 31
0.0
  0
LINE
  5
477D
330
1F
100
AcDbEntity
  8
AM_0
100
AcDbLine
 10
-12.00083758772092
 20
-4.500006296131794
 30
0.0
 11
-22.00083758772025
 21
-4.500009953194627
 31
0.0
  0
LINE
  5
477E
330
1F
100
AcDbEntity
  8
AM_0
100
AcDbLine
 10
-18.04281992414701
 20
10.28703983411829
 30
0.0
 11
-18.25781626642864
 21
10.29904842248277
 31
0.0
  0
LINE
  5
477F
330
1F
100
AcDbEntity
  8
AM_0
100
AcDbLine
 10
-19.00084272115165
 20
9.537024224973281
 30
0.0
 11
-12.31283905274995
 21
9.186028746018223
 31
0.0
  0
LINE
  5
4780
330
1F
100
AcDbEntity
  8
AM_11
100
AcDbLine
 10
-0.0000073141256671
 20
19.99999809264888
 30
0.0
 11
0.0000073141256671
 21
-20.00000190734842
 31
0.0
  0
LINE
  5
4781
330
1F
100
AcDbEntity
  8
AM_11
100
AcDbLine
 10
-12.99999268587346
 20
-20.00000666153013
 30
0.0
 11
-13.00000731412479
 21
19.99999333846719
 31
0.0
  0
SPLINE
  5
4782
330
1F
100
AcDbEntity
  8
AM_0
100
AcDbSpline
210
0.0
220
0.0
230
1.0
 70
     8
 71
     3
 72
    11
 73
     7
 74
     5
 42
0.0000000001
 43
0.0000000001
 44
0.0000000001
 40
0.0
 40
0.0
 40
0.0
 40
0.0
 40
1.411460349820512
 40
2.820532164968353
 40
4.218417610418696
 40
5.62046085382095
 40
5.62046085382095
 40
5.62046085382095
 40
5.62046085382095
 10
-9.404835363153004
 20
12.11500014640364
 30
0.0
 10
-9.850809298765939
 20
12.29104783898981
 30
0.0
 10
-10.74200247347592
 20
12.64284530858994
 30
0.0
 10
-11.5916132330664
 20
13.84897463375823
 30
0.0
 10
-11.86201809677924
 20
15.28944331804938
 30
0.0
 10
-11.52073785174323
 20
16.17537407232882
 30
0.0
 10
-11.34984433450316
 20
16.61899723784193
 30
0.0
 11
-9.404835363153004
 21
12.11500014640364
 31
0.0
 11
-10.66183938211572
 21
12.75699797772941
 31
0.0
 11
-11.49684651105587
 21
13.89200743798213
 31
0.0
 11
-11.73184762534572
 21
15.26999807470084
 31
0.0
 11
-11.34984433450316
 21
16.61899723784193
 31
0.0
  0
SPLINE
  5
4783
330
1F
100
AcDbEntity
  8
AM_0
100
AcDbSpline
210
0.0
220
0.0
230
1.0
 70
     8
 71
     3
 72
    11
 73
     7
 74
     5
 42
0.0000000001
 43
0.0000000001
 44
0.0000000001
 40
0.0
 40
0.0
 40
0.0
 40
0.0
 40
1.411460349820512
 40
2.820532164968353
 40
4.218417610418696
 40
5.62046085382095
 40
5.62046085382095
 40
5.62046085382095
 40
5.62046085382095
 10
-9.404835363153004
 20
12.11500014640364
 30
0.0
 10
-9.850809298765939
 20
12.29104783898981
 30
0.0
 10
-10.74200247347592
 20
12.64284530858994
 30
0.0
 10
-11.5916132330664
 20
13.84897463375823
 30
0.0
 10
-11.86201809677924
 20
15.28944331804938
 30
0.0
 10
-11.52073785174323
 20
16.17537407232882
 30
0.0
 10
-11.34984433450316
 20
16.61899723784193
 30
0.0
 11
-9.404835363153004
 21
12.11500014640364
 31
0.0
 11
-10.66183938211572
 21
12.75699797772941
 31
0.0
 11
-11.49684651105587
 21
13.89200743798213
 31
0.0
 11
-11.73184762534572
 21
15.26999807470084
 31
0.0
 11
-11.34984433450316
 21
16.61899723784193
 31
0.0
  0
CIRCLE
  5
4784
330
1F
100
AcDbEntity
  8
AM_0
100
AcDbCircle
 10
-8.423833673499677
 20
15.17200734110232
 30
0.0
 40
3.0060000419617
  0
ARC
  5
4785
330
1F
100
AcDbEntity
  8
AM_0
100
AcDbCircle
 10
-8.554845638945415
 20
15.17899581858042
 30
0.0
 40
3.152935028076199
100
AcDbArc
 50
280.7112149067785
 51
332.7667776659789
  0
CIRCLE
  5
4786
330
1F
100
AcDbEntity
  8
AM_0
100
AcDbCircle
 10
-8.423833673499677
 20
15.17200734110232
 30
0.0
 40
3.0060000419617
  0
ARC
  5
4787
330
1F
100
AcDbEntity
  8
AM_0
100
AcDbCircle
 10
-8.554845638945415
 20
15.17899581858042
 30
0.0
 40
3.152935028076199
100
AcDbArc
 50
280.7112149067785
 51
332.7667776659789
  0
LINE
  5
4788
330
1F
100
AcDbEntity
  8
AM_0
100
AcDbLine
 10
-14.25385019100805
 20
13.60700276761855
 30
0.0
 11
-14.39084309856494
 21
12.23799942161929
 31
0.0
  0
LINE
  5
4789
330
1F
100
AcDbEntity
  8
AM_0
100
AcDbLine
 10
-3.239765808703435
 20
12.18508601917832
 30
0.0
 11
-3.046850079189068
 21
15.30399783288902
 31
0.0
  0
LINE
  5
478A
330
1F
100
AcDbEntity
  8
AM_0
100
AcDbLine
 10
-0.9218185080161928
 20
12.42301716471623
 30
0.0
 11
-0.1158205367991147
 21
17.30300708349507
 31
0.0
  0
LINE
  5
478B
330
1F
100
AcDbEntity
  8
AM_0
100
AcDbLine
 10
-15.21185778336214
 20
13.00502792996911
 30
0.0
 11
-17.37486693066053
 21
11.64803251003298
 31
0.0
  0
LINE
  5
478C
330
1F
100
AcDbEntity
  8
AM_0
100
AcDbLine
 10
-17.37488218943379
 20
11.6479867336574
 30
0.0
 11
-17.29987050316807
 21
13.07198273276974
 31
0.0
  0
LINE
  5
478D
330
1F
100
AcDbEntity
  8
AM_0
100
AcDbLine
 10
-14.25385019100805
 20
13.60700276761855
 30
0.0
 11
-14.39084309856494
 21
12.23799942161929
 31
0.0
  0
LINE
  5
478E
330
1F
100
AcDbEntity
  8
AM_0
100
AcDbLine
 10
-0.9218185080161928
 20
12.42301716471623
 30
0.0
 11
-0.1158205367991147
 21
17.30300708349507
 31
0.0
  0
LINE
  5
478F
330
1F
100
AcDbEntity
  8
AM_0
100
AcDbLine
 10
-15.21185778336214
 20
13.00502792996911
 30
0.0
 11
-17.37486693066053
 21
11.64803251003298
 31
0.0
  0
LINE
  5
4790
330
1F
100
AcDbEntity
  8
AM_0
100
AcDbLine
 10
-17.37488218943379
 20
11.6479867336574
 30
0.0
 11
-17.29987050316807
 21
13.07198273276974
 31
0.0
  0
SPLINE
  5
4791
330
1F
100
AcDbEntity
  8
AM_0
100
AcDbSpline
210
0.0
220
0.0
230
1.0
 70
     8
 71
     3
 72
    11
 73
     7
 74
     5
 42
0.0000000001
 43
0.0000000001
 44
0.0000000001
 40
0.0
 40
0.0
 40
0.0
 40
0.0
 40
0.354023087740272
 40
0.6980094855159607
 40
1.034299242050482
 40
1.369669023309384
 40
1.369669023309384
 40
1.369669023309384
 40
1.369669023309384
 10
-7.781836509955046
 20
18.25501538838492
 30
0.0
 10
-7.89742949789951
 20
18.27938484093912
 30
0.0
 10
-8.125338368361546
 20
18.32743286274535
 30
0.0
 10
-8.4701252172114
 20
18.35184859186051
 30
0.0
 10
-8.809599853697445
 20
18.34063189593667
 30
0.0
 10
-9.029859332955506
 20
18.29886482037474
 30
0.0
 10
-9.139838227354372
 20
18.27800988687517
 30
0.0
 11
-7.781836509955046
 21
18.25501538838492
 31
0.0
 11
-8.129843735871244
 21
18.3200024437365
 31
0.0
 11
-8.472846064719943
 21
18.34600329485839
 31
0.0
 11
-8.808844594752844
 21
18.33201086241162
 31
0.0
 11
-9.139838227354372
 21
18.27800988687517
 31
0.0
  0
ELLIPSE
  5
4792
330
1F
100
AcDbEntity
  8
AM_0
100
AcDbEllipse
 10
-18.62084451063545
 20
27.78200422234223
 30
0.0
 11
39.73634411598101
 21
-2.72989121338947
 31
0.0
210
0.0
220
0.0
230
0.9999999999999998
 40
0.1901330134849
 41
4.846092815317954
 42
4.997776921525795
  0
SPLINE
  5
4793
330
1F
100
AcDbEntity
  8
AM_0
100
AcDbSpline
210
0.0
220
0.0
230
1.0
 70
     8
 71
     3
 72
    11
 73
     7
 74
     5
 42
0.0000000001
 43
0.0000000001
 44
0.0000000001
 40
0.0
 40
0.0
 40
0.0
 40
0.0
 40
0.1353546242690367
 40
0.2702027384456836
 40
0.4047232059672159
 40
0.5390233059306518
 40
0.5390233059306518
 40
0.5390233059306518
 40
0.5390233059306518
 10
-14.25385019100805
 20
13.60700276761855
 30
0.0
 10
-14.29177844144236
 20
13.5825661926196
 30
0.0
 10
-14.36749301113029
 20
13.53378448664829
 30
0.0
 10
-14.48208619727338
 20
13.46257696044937
 30
0.0
 10
-14.59439551513018
 20
13.38844010997449
 30
0.0
 10
-14.67071046334151
 20
13.34146795899878
 30
0.0
 10
-14.70883665758837
 20
13.31800113638712
 30
0.0
 11
-14.25385019100805
 21
13.60700276761855
 31
0.0
 11
-14.3678333186122
 21
13.5340046790642
 31
0.0
 11
-14.48184696414906
 21
13.46199841177868
 31
0.0
 11
-14.59483827046321
 21
13.38900032358705
 31
0.0
 11
-14.70883665758837
 21
13.31800113638712
 31
0.0
  0
SPLINE
  5
4794
330
1F
100
AcDbEntity
  8
AM_0
100
AcDbSpline
210
0.0
220
0.0
230
1.0
 70
     8
 71
     3
 72
    11
 73
     7
 74
     5
 42
0.0000000001
 43
0.0000000001
 44
0.0000000001
 40
0.0
 40
0.0
 40
0.0
 40
0.0
 40
0.133446318789718
 40
0.2688137928515229
 40
0.4036619070281699
 40
0.5390165312972066
 40
0.5390165312972066
 40
0.5390165312972066
 40
0.5390165312972066
 10
-14.70883665758837
 20
13.31800113638712
 30
0.0
 10
-14.67110542096598
 20
13.34156122565548
 30
0.0
 10
-14.59509975128972
 20
13.38902058619525
 30
0.0
 10
-14.48219980602729
 20
13.46223080969878
 30
0.0
 10
-14.36752465177671
 20
13.53383390522236
 30
0.0
 10
-14.29178900149675
 20
13.58258268605096
 30
0.0
 10
-14.25385019100805
 20
13.60700276761855
 30
0.0
 11
-14.70883665758837
 21
13.31800113638712
 31
0.0
 11
-14.59584535054322
 21
13.38900032321875
 31
0.0
 11
-14.48184696414906
 21
13.46199841177868
 31
0.0
 11
-14.3678333186122
 21
13.5340046790642
 31
0.0
 11
-14.25385019100805
 21
13.60700276761855
 31
0.0
  0
SPLINE
  5
4795
330
1F
100
AcDbEntity
  8
AM_0
100
AcDbSpline
210
0.0
220
0.0
230
1.0
 70
     8
 71
     3
 72
    11
 73
     7
 74
     5
 42
0.0000000001
 43
0.0000000001
 44
0.0000000001
 40
0.0
 40
0.0
 40
0.0
 40
0.0
 40
0.031072683489057
 40
0.0624598456863159
 40
0.0943589527746254
 40
0.1262791031597182
 40
0.1262791031597182
 40
0.1262791031597182
 40
0.1262791031597182
 10
-15.0658464629922
 20
13.09299490230637
 30
0.0
 10
-15.05725530798747
 20
13.09878818721388
 30
0.0
 10
-15.03998604908836
 20
13.11043338938857
 30
0.0
 10
-15.01250841003654
 20
13.12579002860181
 30
0.0
 10
-14.98588458142518
 20
13.14307642042729
 30
0.0
 10
-14.96785457537639
 20
13.15436526138276
 30
0.0
 10
-14.9588365998106
 20
13.16001154301056
 30
0.0
 11
-15.0658464629922
 21
13.09299490230637
 31
0.0
 11
-15.03984549265417
 21
13.11000846162509
 31
0.0
 11
-15.01283744186226
 21
13.12599968244211
 31
0.0
 11
-14.98584465022864
 21
13.14299798332354
 31
0.0
 11
-14.9588365998106
 21
13.16001154301056
 31
0.0
  0
SPLINE
  5
4796
330
1F
100
AcDbEntity
  8
AM_0
100
AcDbSpline
210
0.0
220
0.0
230
1.0
 70
     8
 71
     3
 72
    11
 73
     7
 74
     5
 42
0.0000000001
 43
0.0000000001
 44
0.0000000001
 40
0.0
 40
0.0
 40
0.0
 40
0.0
 40
1.383000239273905
 40
2.796418679337844
 40
4.201407800103579
 40
5.596271846149135
 40
5.596271846149135
 40
5.596271846149135
 40
5.596271846149135
 10
-7.74783992463271
 20
18.24601271526769
 30
0.0
 10
-7.313124246898784
 20
18.06843855087274
 30
0.0
 10
-6.434131599685362
 20
17.70938459254332
 30
0.0
 10
-5.593549145522089
 20
16.51088267349442
 30
0.0
 10
-5.279465578934598
 20
15.08035529810378
 30
0.0
 10
-5.599434134885691
 20
14.18570765143646
 30
0.0
 10
-5.758839863675959
 20
13.74000147976721
 30
0.0
 11
-7.74783992463271
 21
18.24601271526769
 31
0.0
 11
-6.521841765775415
 21
17.60599851518287
 31
0.0
 11
-5.680837932368134
 21
16.47001249462319
 31
0.0
 11
-5.411840235679992
 21
15.09101479025724
 31
0.0
 11
-5.758839863675959
 21
13.74000147976721
 31
0.0
  0
ELLIPSE
  5
4797
330
1F
100
AcDbEntity
  8
AM_0
100
AcDbEllipse
 10
-15.37685593667799
 20
26.31400308934914
 30
0.0
 11
40.69765715916335
 21
-2.142349298651215
 31
0.0
210
0.0
220
0.0
230
1.0
 40
0.1914904714952
 41
4.850764780258928
 42
4.876456759591806
  0
SPLINE
  5
4798
330
1F
100
AcDbEntity
  8
AM_0
100
AcDbSpline
210
0.0
220
0.0
230
1.0
 70
     8
 71
     3
 72
    11
 73
     7
 74
     5
 42
0.0000000001
 43
0.0000000001
 44
0.0000000001
 40
0.0
 40
0.0
 40
0.0
 40
0.0
 40
1.232780322805918
 40
2.455296926954722
 40
3.669609041380897
 40
4.874760611164619
 40
4.874760611164619
 40
4.874760611164619
 40
4.874760611164619
 10
-2.872839881475498
 20
18.12800302347583
 30
0.0
 10
-3.283482847692754
 20
18.14334172429267
 30
0.0
 10
-4.10134990346627
 20
18.17389142100858
 30
0.0
 10
-5.324097891779974
 20
18.20763231931714
 30
0.0
 10
-6.537747890271726
 20
18.23698845877727
 30
0.0
 10
-7.344161058198762
 20
18.24834937208987
 30
0.0
 10
-7.745841026186752
 20
18.2540083214687
 30
0.0
 11
-2.872839881475498
 21
18.12800302347583
 31
0.0
 11
-4.104834526478815
 21
18.17200892058765
 31
0.0
 11
-5.326849920139793
 21
18.20701213579894
 31
0.0
 11
-6.540839188189442
 21
18.23501156976544
 31
0.0
 11
-7.745841026186752
 21
18.2540083214687
 31
0.0
  0
ELLIPSE
  5
4799
330
1F
100
AcDbEntity
  8
AM_0
100
AcDbEllipse
 10
2.950175818462076
 20
11.58100808267882
 30
0.0
 11
40.53846261225002
 21
-2.784987131609699
 31
0.0
210
0.0
220
0.0
230
1.0
 40
0.190136069286
 41
1.676063988306867
 42
1.855838454891697
  0
SPLINE
  5
479A
330
1F
100
AcDbEntity
  8
AM_0
100
AcDbSpline
210
0.0
220
0.0
230
1.0
 70
     8
 71
     3
 72
    11
 73
     7
 74
     5
 42
0.0000000001
 43
0.0000000001
 44
0.0000000001
 40
0.0
 40
0.0
 40
0.0
 40
0.0
 40
0.0721052700725559
 40
0.144219004579766
 40
0.214682309832153
 40
0.284562126333898
 40
0.284562126333898
 40
0.284562126333898
 40
0.284562126333898
 10
-2.519842659979352
 20
17.04700950022906
 30
0.0
 10
-2.499860707307288
 20
17.06036597859846
 30
0.0
 10
-2.459894456282567
 20
17.0870805032537
 30
0.0
 10
-2.400093485143703
 20
17.12639401598347
 30
0.0
 10
-2.342157914268175
 20
17.16713555306233
 30
0.0
 10
-2.3032322167539
 20
17.19308525945081
 30
0.0
 10
-2.283850286485417
 20
17.20600616856296
 30
0.0
 11
-2.519842659979352
 21
17.04700950022906
 31
0.0
 11
-2.459845116015153
 21
17.08700280830054
 31
0.0
 11
-2.399847572046531
 21
17.12701137516202
 31
0.0
 11
-2.341833670662333
 21
17.16700468251807
 31
0.0
 11
-2.283850286485417
 21
17.20600616856296
 31
0.0
  0
SPLINE
  5
479B
330
1F
100
AcDbEntity
  8
AM_0
100
AcDbSpline
210
0.0
220
0.0
230
1.0
 70
     8
 71
     3
 72
    11
 73
     7
 74
     5
 42
0.0000000001
 43
0.0000000001
 44
0.0000000001
 40
0.0
 40
0.0
 40
0.0
 40
0.0
 40
0.0726686800906301
 40
0.1447739501715106
 40
0.2146790909786139
 40
0.2845589074803589
 40
0.2845589074803589
 40
0.2845589074803589
 40
0.2845589074803589
 10
-2.519842659979352
 20
17.04700950022906
 30
0.0
 10
-2.499889329072582
 20
17.06074427520385
 30
0.0
 10
-2.460137368106048
 20
17.08810733760346
 30
0.0
 10
-2.400381327609335
 20
17.12748257491928
 30
0.0
 10
-2.341856773437921
 20
17.16702393999763
 30
0.0
 10
-2.303183446703421
 20
17.19301366186064
 30
0.0
 10
-2.283850286485417
 20
17.20600616856296
 30
0.0
 11
-2.519842659979352
 21
17.04700950022906
 31
0.0
 11
-2.459845116383449
 21
17.08800988838054
 31
0.0
 11
-2.399847572409246
 21
17.12800319645202
 31
0.0
 11
-2.341833670662333
 21
17.16700468251807
 31
0.0
 11
-2.283850286485417
 21
17.20600616856296
 31
0.0
  0
SPLINE
  5
479C
330
1F
100
AcDbEntity
  8
AM_0
100
AcDbSpline
210
0.0
220
0.0
230
1.0
 70
     8
 71
     3
 72
    11
 73
     7
 74
     5
 42
0.0000000001
 43
0.0000000001
 44
0.0000000001
 40
0.0
 40
0.0
 40
0.0
 40
0.0
 40
0.0208122555331599
 40
0.0416157104830598
 40
0.0588233290903761
 40
0.0694526611329802
 40
0.0694526611329802
 40
0.0694526611329802
 40
0.0694526611329802
 10
-2.185843108838235
 20
17.27300754717481
 30
0.0
 10
-2.1801688189201
 20
17.2770004304945
 30
0.0
 10
-2.168822638490314
 20
17.28498450871995
 30
0.0
 10
-2.152923875842853
 20
17.29643958999415
 30
0.0
 10
-2.139326830580864
 20
17.30535546754864
 30
0.0
 10
-2.132463919424766
 20
17.31161701041082
 30
0.0
 10
-2.12984336797233
 20
17.31400793386426
 30
0.0
 11
-2.185843108838235
 21
17.27300754717481
 31
0.0
 11
-2.168844822219884
 21
17.28501622039119
 31
0.0
 11
-2.151846535585947
 21
17.29700963480757
 31
0.0
 11
-2.137838970881002
 21
17.30700414676022
 31
0.0
 11
-2.12984336797233
 21
17.31400793386426
 31
0.0
  0
SPLINE
  5
479D
330
1F
100
AcDbEntity
  8
AM_0
100
AcDbSpline
210
0.0
220
0.0
230
1.0
 70
     8
 71
     3
 72
    11
 73
     7
 74
     5
 42
0.0000000001
 43
0.0000000001
 44
0.0000000001
 40
0.0
 40
0.0
 40
0.0
 40
0.0
 40
0.0216425846701713
 40
0.0424460396200713
 40
0.058844297524287
 40
0.0694736295668911
 40
0.0694736295668911
 40
0.0694736295668911
 40
0.0694736295668911
 10
-2.185843108838235
 20
17.27300754717481
 30
0.0
 10
-2.179818966854015
 20
17.27697816398922
 30
0.0
 10
-2.168004251872606
 20
17.28476544823411
 30
0.0
 10
-2.151982723198176
 20
17.29607750898946
 30
0.0
 10
-2.139190569906057
 20
17.30562305814402
 30
0.0
 10
-2.132481780985766
 20
17.31164115443944
 30
0.0
 10
-2.12984336797233
 20
17.31400793386426
 30
0.0
 11
-2.185843108838235
 21
17.27300754717481
 31
0.0
 11
-2.167837742139883
 21
17.28501622075949
 31
0.0
 11
-2.150839455505946
 21
17.29700963517587
 31
0.0
 11
-2.137838970881002
 21
17.30700414676022
 31
0.0
 11
-2.12984336797233
 21
17.31400793386426
 31
0.0
  0
ELLIPSE
  5
479E
330
1F
100
AcDbEntity
  8
AM_0
100
AcDbEllipse
 10
52.69512608494489
 20
50.77401943878232
 30
0.0
 11
-80.21368000011598
 21
-50.96297280466021
 31
0.0
210
0.0
220
0.0
230
1.0
 40
0.0320936974036
 41
5.426684395073695
 42
5.45429749490932
  0
ELLIPSE
  5
479F
330
1F
100
AcDbEntity
  8
AM_0
100
AcDbEllipse
 10
-0.8668433971699311
 20
18.72901694068139
 30
0.0
 11
-0.6902921585846208
 21
-0.4804003407442134
 31
0.0
210
0.0
220
0.0
230
1.0
 40
0.9500538848931
 41
3.92699317531372
 42
4.027162277758526
  0
ELLIPSE
  5
47A0
330
1F
100
AcDbEntity
  8
AM_0
100
AcDbEllipse
 10
-0.8668433971699311
 20
18.72901694068139
 30
0.0
 11
-0.6902921585846208
 21
-0.4804003407442134
 31
0.0
210
0.0
220
0.0
230
1.0
 40
0.9500538848931
 41
3.681171440054557
 42
3.92699317531372
  0
ELLIPSE
  5
47A1
330
1F
100
AcDbEntity
  8
AM_0
100
AcDbEllipse
 10
-0.8668433971699311
 20
18.72901694068139
 30
0.0
 11
-0.6902921585846208
 21
-0.4804003407442134
 31
0.0
210
0.0
220
0.0
230
1.0
 40
0.9500538848931
 41
3.36551033971795
 42
3.681171440054557
  0
ELLIPSE
  5
47A2
330
1F
100
AcDbEntity
  8
AM_0
100
AcDbEllipse
 10
-0.8668433971699311
 20
18.72901694068139
 30
0.0
 11
-0.6902921585846208
 21
-0.4804003407442134
 31
0.0
210
0.0
220
0.0
230
1.0
 40
0.9500538848931
 41
3.240947566341581
 42
3.36551033971795
  0
ELLIPSE
  5
47A3
330
1F
100
AcDbEntity
  8
AM_0
100
AcDbEllipse
 10
-0.8668433971699311
 20
18.72901694068139
 30
0.0
 11
-0.6902921585846208
 21
-0.4804003407442134
 31
0.0
210
0.0
220
0.0
230
1.0
 40
0.9500538848931
 41
2.504886916190101
 42
2.928872764781786
  0
ELLIPSE
  5
47A4
330
1F
100
AcDbEntity
  8
AM_0
100
AcDbEllipse
 10
-0.8668433971699311
 20
18.72901694068139
 30
0.0
 11
-0.6902921585846208
 21
-0.4804003407442134
 31
0.0
210
0.0
220
0.0
230
1.0
 40
0.9500538848931
 41
2.928872764781786
 42
3.240947750202689
  0
SPLINE
  5
47A5
330
1F
100
AcDbEntity
  8
AM_0
100
AcDbSpline
210
0.0
220
0.0
230
1.0
 70
     8
 71
     3
 72
    11
 73
     7
 74
     5
 42
0.0000000001
 43
0.0000000001
 44
0.0000000001
 40
0.0
 40
0.0
 40
0.0
 40
0.0
 40
0.4099160345294763
 40
0.7526319152670485
 40
1.044706435670192
 40
1.316241376858733
 40
1.316241376858733
 40
1.316241376858733
 40
1.316241376858733
 10
-8.010839981739092
 20
17.06699650580684
 30
0.0
 10
-8.146974195459558
 20
17.04884823671744
 30
0.0
 10
-8.396925271716959
 20
17.01552686020868
 30
0.0
 10
-8.718593439943395
 20
16.87317413441984
 30
0.0
 10
-8.971477901313887
 20
16.70427540986382
 30
0.0
 10
-9.101296053678561
 20
16.56777288708822
 30
0.0
 10
-9.163839653049651
 20
16.50200890152757
 30
0.0
 11
-8.010839981739092
 21
17.06699650580684
 31
0.0
 11
-8.41383983224779
 21
16.99201466897726
 31
0.0
 11
-8.728842224283852
 21
16.85700478814889
 31
0.0
 11
-8.969839478389172
 21
16.69199615509467
 31
0.0
 11
-9.163839653049651
 21
16.50200890152757
 31
0.0
  0
SPLINE
  5
47A6
330
1F
100
AcDbEntity
  8
AM_0
100
AcDbSpline
210
0.0
220
0.0
230
1.0
 70
     8
 71
     3
 72
    11
 73
     7
 74
     5
 42
0.0000000001
 43
0.0000000001
 44
0.0000000001
 40
0.0
 40
0.0
 40
0.0
 40
0.0
 40
0.354023087740272
 40
0.6980094855159607
 40
1.034299242050482
 40
1.369669023309384
 40
1.369669023309384
 40
1.369669023309384
 40
1.369669023309384
 10
-7.781836509955046
 20
18.25501538838492
 30
0.0
 10
-7.89742949789951
 20
18.27938484093912
 30
0.0
 10
-8.125338368361546
 20
18.32743286274535
 30
0.0
 10
-8.4701252172114
 20
18.35184859186051
 30
0.0
 10
-8.809599853697445
 20
18.34063189593667
 30
0.0
 10
-9.029859332955506
 20
18.29886482037474
 30
0.0
 10
-9.139838227354372
 20
18.27800988687517
 30
0.0
 11
-7.781836509955046
 21
18.25501538838492
 31
0.0
 11
-8.129843735871244
 21
18.3200024437365
 31
0.0
 11
-8.472846064719943
 21
18.34600329485839
 31
0.0
 11
-8.808844594752844
 21
18.33201086241162
 31
0.0
 11
-9.139838227354372
 21
18.27800988687517
 31
0.0
  0
ELLIPSE
  5
47A7
330
1F
100
AcDbEntity
  8
AM_0
100
AcDbEllipse
 10
-18.62084451063545
 20
27.78200422234223
 30
0.0
 11
39.73634411598101
 21
-2.72989121338947
 31
0.0
210
0.0
220
0.0
230
0.9999999999999998
 40
0.1901330134849
 41
4.846092815317954
 42
4.997776921525795
  0
SPLINE
  5
47A8
330
1F
100
AcDbEntity
  8
AM_0
100
AcDbSpline
210
0.0
220
0.0
230
1.0
 70
     8
 71
     3
 72
    11
 73
     7
 74
     5
 42
0.0000000001
 43
0.0000000001
 44
0.0000000001
 40
0.0
 40
0.0
 40
0.0
 40
0.0
 40
0.133446318789718
 40
0.2688137928515229
 40
0.4036619070281699
 40
0.5390165312972066
 40
0.5390165312972066
 40
0.5390165312972066
 40
0.5390165312972066
 10
-14.70883665758837
 20
13.31800113638712
 30
0.0
 10
-14.67110542096598
 20
13.34156122565548
 30
0.0
 10
-14.59509975128972
 20
13.38902058619525
 30
0.0
 10
-14.48219980602729
 20
13.46223080969878
 30
0.0
 10
-14.36752465177671
 20
13.53383390522236
 30
0.0
 10
-14.29178900149675
 20
13.58258268605096
 30
0.0
 10
-14.25385019100805
 20
13.60700276761855
 30
0.0
 11
-14.70883665758837
 21
13.31800113638712
 31
0.0
 11
-14.59584535054322
 21
13.38900032321875
 31
0.0
 11
-14.48184696414906
 21
13.46199841177868
 31
0.0
 11
-14.3678333186122
 21
13.5340046790642
 31
0.0
 11
-14.25385019100805
 21
13.60700276761855
 31
0.0
  0
SPLINE
  5
47A9
330
1F
100
AcDbEntity
  8
AM_0
100
AcDbSpline
210
0.0
220
0.0
230
1.0
 70
     8
 71
     3
 72
    11
 73
     7
 74
     5
 42
0.0000000001
 43
0.0000000001
 44
0.0000000001
 40
0.0
 40
0.0
 40
0.0
 40
0.0
 40
0.1353546242690367
 40
0.2702027384456836
 40
0.4047232059672159
 40
0.5390233059306518
 40
0.5390233059306518
 40
0.5390233059306518
 40
0.5390233059306518
 10
-14.25385019100805
 20
13.60700276761855
 30
0.0
 10
-14.29177844144236
 20
13.5825661926196
 30
0.0
 10
-14.36749301113029
 20
13.53378448664829
 30
0.0
 10
-14.48208619727338
 20
13.46257696044937
 30
0.0
 10
-14.59439551513018
 20
13.38844010997449
 30
0.0
 10
-14.67071046334151
 20
13.34146795899878
 30
0.0
 10
-14.70883665758837
 20
13.31800113638712
 30
0.0
 11
-14.25385019100805
 21
13.60700276761855
 31
0.0
 11
-14.3678333186122
 21
13.5340046790642
 31
0.0
 11
-14.48184696414906
 21
13.46199841177868
 31
0.0
 11
-14.59483827046321
 21
13.38900032358705
 31
0.0
 11
-14.70883665758837
 21
13.31800113638712
 31
0.0
  0
SPLINE
  5
47AA
330
1F
100
AcDbEntity
  8
AM_0
100
AcDbSpline
210
0.0
220
0.0
230
1.0
 70
     8
 71
     3
 72
    11
 73
     7
 74
     5
 42
0.0000000001
 43
0.0000000001
 44
0.0000000001
 40
0.0
 40
0.0
 40
0.0
 40
0.0
 40
0.031072683489057
 40
0.0624598456863159
 40
0.0943589527746254
 40
0.1262791031597182
 40
0.1262791031597182
 40
0.1262791031597182
 40
0.1262791031597182
 10
-15.0658464629922
 20
13.09299490230637
 30
0.0
 10
-15.05725530798747
 20
13.09878818721388
 30
0.0
 10
-15.03998604908836
 20
13.11043338938857
 30
0.0
 10
-15.01250841003654
 20
13.12579002860181
 30
0.0
 10
-14.98588458142518
 20
13.14307642042729
 30
0.0
 10
-14.96785457537639
 20
13.15436526138276
 30
0.0
 10
-14.9588365998106
 20
13.16001154301056
 30
0.0
 11
-15.0658464629922
 21
13.09299490230637
 31
0.0
 11
-15.03984549265417
 21
13.11000846162509
 31
0.0
 11
-15.01283744186226
 21
13.12599968244211
 31
0.0
 11
-14.98584465022864
 21
13.14299798332354
 31
0.0
 11
-14.9588365998106
 21
13.16001154301056
 31
0.0
  0
SPLINE
  5
47AB
330
1F
100
AcDbEntity
  8
AM_0
100
AcDbSpline
210
0.0
220
0.0
230
1.0
 70
     8
 71
     3
 72
    11
 73
     7
 74
     5
 42
0.0000000001
 43
0.0000000001
 44
0.0000000001
 40
0.0
 40
0.0
 40
0.0
 40
0.0
 40
1.383000239273905
 40
2.796418679337844
 40
4.201407800103579
 40
5.596271846149135
 40
5.596271846149135
 40
5.596271846149135
 40
5.596271846149135
 10
-7.74783992463271
 20
18.24601271526769
 30
0.0
 10
-7.313124246898784
 20
18.06843855087274
 30
0.0
 10
-6.434131599685362
 20
17.70938459254332
 30
0.0
 10
-5.593549145522089
 20
16.51088267349442
 30
0.0
 10
-5.279465578934598
 20
15.08035529810378
 30
0.0
 10
-5.599434134885691
 20
14.18570765143646
 30
0.0
 10
-5.758839863675959
 20
13.74000147976721
 30
0.0
 11
-7.74783992463271
 21
18.24601271526769
 31
0.0
 11
-6.521841765775415
 21
17.60599851518287
 31
0.0
 11
-5.680837932368134
 21
16.47001249462319
 31
0.0
 11
-5.411840235679992
 21
15.09101479025724
 31
0.0
 11
-5.758839863675959
 21
13.74000147976721
 31
0.0
  0
ELLIPSE
  5
47AC
330
1F
100
AcDbEntity
  8
AM_0
100
AcDbEllipse
 10
-15.37685593667799
 20
26.31400308934914
 30
0.0
 11
40.69765715916335
 21
-2.142349298651215
 31
0.0
210
0.0
220
0.0
230
1.0
 40
0.1914904714952
 41
4.850764780258928
 42
4.876456759591806
  0
SPLINE
  5
47AD
330
1F
100
AcDbEntity
  8
AM_0
100
AcDbSpline
210
0.0
220
0.0
230
1.0
 70
     8
 71
     3
 72
    11
 73
     7
 74
     5
 42
0.0000000001
 43
0.0000000001
 44
0.0000000001
 40
0.0
 40
0.0
 40
0.0
 40
0.0
 40
1.232780322805918
 40
2.455296926954722
 40
3.669609041380897
 40
4.874760611164619
 40
4.874760611164619
 40
4.874760611164619
 40
4.874760611164619
 10
-2.872839881475498
 20
18.12800302347583
 30
0.0
 10
-3.283482847692754
 20
18.14334172429267
 30
0.0
 10
-4.10134990346627
 20
18.17389142100858
 30
0.0
 10
-5.324097891779974
 20
18.20763231931714
 30
0.0
 10
-6.537747890271726
 20
18.23698845877727
 30
0.0
 10
-7.344161058198762
 20
18.24834937208987
 30
0.0
 10
-7.745841026186752
 20
18.2540083214687
 30
0.0
 11
-2.872839881475498
 21
18.12800302347583
 31
0.0
 11
-4.104834526478815
 21
18.17200892058765
 31
0.0
 11
-5.326849920139793
 21
18.20701213579894
 31
0.0
 11
-6.540839188189442
 21
18.23501156976544
 31
0.0
 11
-7.745841026186752
 21
18.2540083214687
 31
0.0
  0
ELLIPSE
  5
47AE
330
1F
100
AcDbEntity
  8
AM_0
100
AcDbEllipse
 10
2.950175818462076
 20
11.58100808267882
 30
0.0
 11
40.53846261225002
 21
-2.784987131609699
 31
0.0
210
0.0
220
0.0
230
1.0
 40
0.190136069286
 41
1.676063988306867
 42
1.855838454891697
  0
SPLINE
  5
47AF
330
1F
100
AcDbEntity
  8
AM_0
100
AcDbSpline
210
0.0
220
0.0
230
1.0
 70
     8
 71
     3
 72
    11
 73
     7
 74
     5
 42
0.0000000001
 43
0.0000000001
 44
0.0000000001
 40
0.0
 40
0.0
 40
0.0
 40
0.0
 40
0.0721052700725559
 40
0.144219004579766
 40
0.214682309832153
 40
0.284562126333898
 40
0.284562126333898
 40
0.284562126333898
 40
0.284562126333898
 10
-2.519842659979352
 20
17.04700950022906
 30
0.0
 10
-2.499860707307288
 20
17.06036597859846
 30
0.0
 10
-2.459894456282567
 20
17.0870805032537
 30
0.0
 10
-2.400093485143703
 20
17.12639401598347
 30
0.0
 10
-2.342157914268175
 20
17.16713555306233
 30
0.0
 10
-2.3032322167539
 20
17.19308525945081
 30
0.0
 10
-2.283850286485417
 20
17.20600616856296
 30
0.0
 11
-2.519842659979352
 21
17.04700950022906
 31
0.0
 11
-2.459845116015153
 21
17.08700280830054
 31
0.0
 11
-2.399847572046531
 21
17.12701137516202
 31
0.0
 11
-2.341833670662333
 21
17.16700468251807
 31
0.0
 11
-2.283850286485417
 21
17.20600616856296
 31
0.0
  0
SPLINE
  5
47B0
330
1F
100
AcDbEntity
  8
AM_0
100
AcDbSpline
210
0.0
220
0.0
230
1.0
 70
     8
 71
     3
 72
    11
 73
     7
 74
     5
 42
0.0000000001
 43
0.0000000001
 44
0.0000000001
 40
0.0
 40
0.0
 40
0.0
 40
0.0
 40
0.0726686800906301
 40
0.1447739501715106
 40
0.2146790909786139
 40
0.2845589074803589
 40
0.2845589074803589
 40
0.2845589074803589
 40
0.2845589074803589
 10
-2.519842659979352
 20
17.04700950022906
 30
0.0
 10
-2.499889329072582
 20
17.06074427520385
 30
0.0
 10
-2.460137368106048
 20
17.08810733760346
 30
0.0
 10
-2.400381327609335
 20
17.12748257491928
 30
0.0
 10
-2.341856773437921
 20
17.16702393999763
 30
0.0
 10
-2.303183446703421
 20
17.19301366186064
 30
0.0
 10
-2.283850286485417
 20
17.20600616856296
 30
0.0
 11
-2.519842659979352
 21
17.04700950022906
 31
0.0
 11
-2.459845116383449
 21
17.08800988838054
 31
0.0
 11
-2.399847572409246
 21
17.12800319645202
 31
0.0
 11
-2.341833670662333
 21
17.16700468251807
 31
0.0
 11
-2.283850286485417
 21
17.20600616856296
 31
0.0
  0
SPLINE
  5
47B1
330
1F
100
AcDbEntity
  8
AM_0
100
AcDbSpline
210
0.0
220
0.0
230
1.0
 70
     8
 71
     3
 72
    11
 73
     7
 74
     5
 42
0.0000000001
 43
0.0000000001
 44
0.0000000001
 40
0.0
 40
0.0
 40
0.0
 40
0.0
 40
0.0208122555331599
 40
0.0416157104830598
 40
0.0588233290903761
 40
0.0694526611329802
 40
0.0694526611329802
 40
0.0694526611329802
 40
0.0694526611329802
 10
-2.185843108838235
 20
17.27300754717481
 30
0.0
 10
-2.1801688189201
 20
17.2770004304945
 30
0.0
 10
-2.168822638490314
 20
17.28498450871995
 30
0.0
 10
-2.152923875842853
 20
17.29643958999415
 30
0.0
 10
-2.139326830580864
 20
17.30535546754864
 30
0.0
 10
-2.132463919424766
 20
17.31161701041082
 30
0.0
 10
-2.12984336797233
 20
17.31400793386426
 30
0.0
 11
-2.185843108838235
 21
17.27300754717481
 31
0.0
 11
-2.168844822219884
 21
17.28501622039119
 31
0.0
 11
-2.151846535585947
 21
17.29700963480757
 31
0.0
 11
-2.137838970881002
 21
17.30700414676022
 31
0.0
 11
-2.12984336797233
 21
17.31400793386426
 31
0.0
  0
SPLINE
  5
47B2
330
1F
100
AcDbEntity
  8
AM_0
100
AcDbSpline
210
0.0
220
0.0
230
1.0
 70
     8
 71
     3
 72
    11
 73
     7
 74
     5
 42
0.0000000001
 43
0.0000000001
 44
0.0000000001
 40
0.0
 40
0.0
 40
0.0
 40
0.0
 40
0.0216425846701713
 40
0.0424460396200713
 40
0.058844297524287
 40
0.0694736295668911
 40
0.0694736295668911
 40
0.0694736295668911
 40
0.0694736295668911
 10
-2.185843108838235
 20
17.27300754717481
 30
0.0
 10
-2.179818966854015
 20
17.27697816398922
 30
0.0
 10
-2.168004251872606
 20
17.28476544823411
 30
0.0
 10
-2.151982723198176
 20
17.29607750898946
 30
0.0
 10
-2.139190569906057
 20
17.30562305814402
 30
0.0
 10
-2.132481780985766
 20
17.31164115443944
 30
0.0
 10
-2.12984336797233
 20
17.31400793386426
 30
0.0
 11
-2.185843108838235
 21
17.27300754717481
 31
0.0
 11
-2.167837742139883
 21
17.28501622075949
 31
0.0
 11
-2.150839455505946
 21
17.29700963517587
 31
0.0
 11
-2.137838970881002
 21
17.30700414676022
 31
0.0
 11
-2.12984336797233
 21
17.31400793386426
 31
0.0
  0
ELLIPSE
  5
47B3
330
1F
100
AcDbEntity
  8
AM_0
100
AcDbEllipse
 10
52.69512608494489
 20
50.77401943878232
 30
0.0
 11
-80.21368000011598
 21
-50.96297280466021
 31
0.0
210
0.0
220
0.0
230
1.0
 40
0.0320936974036
 41
5.426684395073695
 42
5.45429749490932
  0
ELLIPSE
  5
47B4
330
1F
100
AcDbEntity
  8
AM_0
100
AcDbEllipse
 10
-0.8668433971699311
 20
18.72901694068139
 30
0.0
 11
-0.6902921585846208
 21
-0.4804003407442134
 31
0.0
210
0.0
220
0.0
230
1.0
 40
0.9500538848931
 41
3.92699317531372
 42
4.027162277758526
  0
ELLIPSE
  5
47B5
330
1F
100
AcDbEntity
  8
AM_0
100
AcDbEllipse
 10
-0.8668433971699311
 20
18.72901694068139
 30
0.0
 11
-0.6902921585846208
 21
-0.4804003407442134
 31
0.0
210
0.0
220
0.0
230
1.0
 40
0.9500538848931
 41
3.681171440054557
 42
3.92699317531372
  0
ELLIPSE
  5
47B6
330
1F
100
AcDbEntity
  8
AM_0
100
AcDbEllipse
 10
-0.8668433971699311
 20
18.72901694068139
 30
0.0
 11
-0.6902921585846208
 21
-0.4804003407442134
 31
0.0
210
0.0
220
0.0
230
1.0
 40
0.9500538848931
 41
3.36551033971795
 42
3.681171440054557
  0
ELLIPSE
  5
47B7
330
1F
100
AcDbEntity
  8
AM_0
100
AcDbEllipse
 10
-0.8668433971699311
 20
18.72901694068139
 30
0.0
 11
-0.6902921585846208
 21
-0.4804003407442134
 31
0.0
210
0.0
220
0.0
230
1.0
 40
0.9500538848931
 41
3.240947566341581
 42
3.36551033971795
  0
ELLIPSE
  5
47B8
330
1F
100
AcDbEntity
  8
AM_0
100
AcDbEllipse
 10
-0.8668433971699311
 20
18.72901694068139
 30
0.0
 11
-0.6902921585846208
 21
-0.4804003407442134
 31
0.0
210
0.0
220
0.0
230
1.0
 40
0.9500538848931
 41
2.928872764781786
 42
3.240947750202689
  0
ELLIPSE
  5
47B9
330
1F
100
AcDbEntity
  8
AM_0
100
AcDbEllipse
 10
-0.8668433971699311
 20
18.72901694068139
 30
0.0
 11
-0.6902921585846208
 21
-0.4804003407442134
 31
0.0
210
0.0
220
0.0
230
1.0
 40
0.9500538848931
 41
2.504886916190101
 42
2.928872764781786
  0
LINE
  5
47BA
330
1F
100
AcDbEntity
  8
AM_11
100
AcDbLine
 10
-13.00000731412479
 20
19.99999333846719
 30
0.0
 11
-0.0000073141256671
 21
19.99999809264888
 31
0.0
  0
ARC
  5
47BB
330
1F
100
AcDbEntity
  8
AM_0
100
AcDbCircle
 10
-8.279836478558358
 20
15.165003609583
 30
0.0
 40
2.2000601291656
100
AcDbArc
 50
86.97765291102777
 51
267.0036604501547
  0
ARC
  5
47BC
330
1F
100
AcDbEntity
  8
AM_0
100
AcDbCircle
 10
-8.374837674755539
 20
15.09800223207046
 30
0.0
 40
2.000704765319799
100
AcDbArc
 50
267.0203466022988
 51
86.99025779777137
  0
ARC
  5
47BD
330
1F
100
AcDbEntity
  8
AM_0
100
AcDbCircle
 10
-8.374837674755539
 20
15.09800223207046
 30
0.0
 40
1.9997584819794
100
AcDbArc
 50
86.990247779856
 51
267.0203466022988
  0
ARC
  5
47BE
330
1F
100
AcDbEntity
  8
AM_0
100
AcDbCircle
 10
-8.279836478558358
 20
15.165003609583
 30
0.0
 40
2.2000601291656
100
AcDbArc
 50
86.97765291102777
 51
267.0036604501547
  0
LINE
  5
47BF
330
1F
100
AcDbEntity
  8
AM_0
100
AcDbLine
 10
-6.487813313784297
 20
13.90800048075705
 30
0.0
 11
-6.876820725255963
 21
13.47899948400457
 31
0.0
  0
LINE
  5
47C0
330
1F
100
AcDbEntity
  8
AM_0
100
AcDbLine
 10
-6.6358092992286
 20
16.61597772155417
 30
0.0
 11
-6.31581705570542
 21
16.12899358564731
 31
0.0
  0
LINE
  5
47C1
330
1F
100
AcDbEntity
  8
AM_0
100
AcDbLine
 10
-6.487813313784297
 20
13.90800048075705
 30
0.0
 11
-6.876820725255963
 21
13.47899948400457
 31
0.0
  0
LINE
  5
47C2
330
1F
100
AcDbEntity
  8
AM_0
100
AcDbLine
 10
-6.6358092992286
 20
16.61597772155417
 30
0.0
 11
-6.31581705570542
 21
16.12899358564731
 31
0.0
  0
LINE
  5
47C3
330
1F
100
AcDbEntity
  8
AM_0
100
AcDbLine
 10
-0.7858500414138502
 20
19.54000635018122
 30
0.0
 11
-1.063849850589755
 21
19.35200270847493
 31
0.0
  0
LINE
  5
47C4
330
1F
100
AcDbEntity
  8
AM_0
100
AcDbLine
 10
-2.057882936318914
 20
17.36204262815065
 30
0.0
 11
-0.0408851441374221
 21
18.72605703765951
 31
0.0
  0
LINE
  5
47C5
330
1F
100
AcDbEntity
  8
AM_0
100
AcDbLine
 10
-2.203832715361312
 20
15.8899661587658
 30
0.0
 11
-0.1158205367879542
 21
17.30297656591507
 31
0.0
  0
LINE
  5
47C6
330
1F
100
AcDbEntity
  8
AM_0
100
AcDbLine
 10
-0.7858500414138502
 20
19.54000635018122
 30
0.0
 11
-1.063849850589755
 21
19.35200270847493
 31
0.0
  0
LINE
  5
47C7
330
1F
100
AcDbEntity
  8
AM_0
100
AcDbLine
 10
-2.057882936318914
 20
17.36204262815065
 30
0.0
 11
-0.0408851441374221
 21
18.72605703765951
 31
0.0
  0
LINE
  5
47C8
330
1F
100
AcDbEntity
  8
AM_0
100
AcDbLine
 10
-2.203832715361312
 20
15.8899661587658
 30
0.0
 11
-0.1158205367879542
 21
17.30297656591507
 31
0.0
  0
LINE
  5
47C9
330
1F
100
AcDbEntity
  8
AM_0
100
AcDbLine
 10
-0.0408546265462608
 20
18.72602652009067
 30
0.0
 11
-0.1158510543846958
 21
17.30302234227391
 31
0.0
  0
LINE
  5
47CA
330
1F
100
AcDbEntity
  8
AM_0
100
AcDbLine
 10
-0.7838206228209832
 20
19.54098291342339
 30
0.0
 11
-0.7858195238282692
 21
19.53999109140238
 31
0.0
  0
LINE
  5
47CB
330
1F
100
AcDbEntity
  8
AM_0
100
AcDbLine
 10
-0.7858195238282692
 20
19.53999109140238
 30
0.0
 11
-0.7838206228209832
 21
19.54098291342339
 31
0.0
  0
LINE
  5
47CC
330
1F
100
AcDbEntity
  8
AM_0
100
AcDbLine
 10
-0.7838511404121446
 20
19.54101343099223
 30
0.0
 11
-0.7858500417821457
 21
19.54101343026122
 31
0.0
  0
LINE
  5
47CD
330
1F
100
AcDbEntity
  8
AM_0
100
AcDbLine
 10
-0.7028422259953928
 20
19.5320260338577
 30
0.0
 11
-0.7838358816277244
 21
19.54102868978781
 31
0.0
  0
LINE
  5
47CE
330
1F
100
AcDbEntity
  8
AM_0
100
AcDbLine
 10
-0.5108561204266343
 20
19.47302036675822
 30
0.0
 11
-0.7028727435653892
 21
19.53202603384654
 31
0.0
  0
LINE
  5
47CF
330
1F
100
AcDbEntity
  8
AM_0
100
AcDbLine
 10
-0.3028177402361367
 20
19.33599651705915
 30
0.0
 11
-0.5108103440554769
 21
19.47298984920496
 31
0.0
  0
LINE
  5
47D0
330
1F
100
AcDbEntity
  8
AM_0
100
AcDbLine
 10
-0.2348703269496054
 20
19.26600447647794
 30
0.0
 11
-0.3028329990149766
 21
19.33596599948358
 31
0.0
  0
LINE
  5
47D1
330
1F
100
AcDbEntity
  8
AM_0
100
AcDbLine
 10
-0.102835949114269
 20
19.05798145347373
 30
0.0
 11
-0.2348398093584442
 21
19.26597395891911
 31
0.0
  0
LINE
  5
47D2
330
1F
100
AcDbEntity
  8
AM_0
100
AcDbLine
 10
-0.04082410896626
 20
18.72602652010183
 30
0.0
 11
-0.1028206903410094
 21
19.05802722984931
 31
0.0
  0
LINE
  5
47D3
330
1F
100
AcDbEntity
  8
AM_0
100
AcDbLine
 10
-0.0408546265462608
 20
18.72602652009067
 30
0.0
 11
-0.1158510543846958
 21
17.30302234227391
 31
0.0
  0
LINE
  5
47D4
330
1F
100
AcDbEntity
  8
AM_0
100
AcDbLine
 10
-0.7838206228209832
 20
19.54098291342339
 30
0.0
 11
-0.7858195238282692
 21
19.53999109140238
 31
0.0
  0
LINE
  5
47D5
330
1F
100
AcDbEntity
  8
AM_0
100
AcDbLine
 10
-0.7858195238282692
 20
19.53999109140238
 30
0.0
 11
-0.7838206228209832
 21
19.54098291342339
 31
0.0
  0
LINE
  5
47D6
330
1F
100
AcDbEntity
  8
AM_0
100
AcDbLine
 10
-0.7838511404121446
 20
19.54101343099223
 30
0.0
 11
-0.7858500417821457
 21
19.54101343026122
 31
0.0
  0
LINE
  5
47D7
330
1F
100
AcDbEntity
  8
AM_0
100
AcDbLine
 10
-0.7028422259953928
 20
19.5320260338577
 30
0.0
 11
-0.7838358816277244
 21
19.54102868978781
 31
0.0
  0
LINE
  5
47D8
330
1F
100
AcDbEntity
  8
AM_0
100
AcDbLine
 10
-0.5108561204266343
 20
19.47302036675822
 30
0.0
 11
-0.7028727435653892
 21
19.53202603384654
 31
0.0
  0
LINE
  5
47D9
330
1F
100
AcDbEntity
  8
AM_0
100
AcDbLine
 10
-0.3028177402361367
 20
19.33599651705915
 30
0.0
 11
-0.5108103440554769
 21
19.47298984920496
 31
0.0
  0
LINE
  5
47DA
330
1F
100
AcDbEntity
  8
AM_0
100
AcDbLine
 10
-0.2348703269496054
 20
19.26600447647794
 30
0.0
 11
-0.3028329990149766
 21
19.33596599948358
 31
0.0
  0
LINE
  5
47DB
330
1F
100
AcDbEntity
  8
AM_0
100
AcDbLine
 10
-0.102835949114269
 20
19.05798145347373
 30
0.0
 11
-0.2348398093584442
 21
19.26597395891911
 31
0.0
  0
LINE
  5
47DC
330
1F
100
AcDbEntity
  8
AM_0
100
AcDbLine
 10
-0.04082410896626
 20
18.72602652010183
 30
0.0
 11
-0.1028206903410094
 21
19.05802722984931
 31
0.0
  0
LINE
  5
47DD
330
1F
100
AcDbEntity
  8
AM_0
100
AcDbLine
 10
-3.046834820404648
 20
15.3040130916846
 30
0.0
 11
-2.956839013886955
 21
16.75701605428673
 31
0.0
  0
LINE
  5
47DE
330
1F
100
AcDbEntity
  8
AM_0
100
AcDbLine
 10
-3.046834820404648
 20
15.3040130916846
 30
0.0
 11
-2.956839013886955
 21
16.75701605428673
 31
0.0
  0
LINE
  5
47DF
330
1F
100
AcDbEntity
  8
AM_0
100
AcDbLine
 10
-2.20886861570131
 20
17.25704684539423
 30
0.0
 11
-2.283865545292158
 21
17.20605194492738
 31
0.0
  0
LINE
  5
47E0
330
1F
100
AcDbEntity
  8
AM_0
100
AcDbLine
 10
-2.185858367639396
 20
17.27303806474923
 30
0.0
 11
-2.208853356905729
 21
17.25703158660981
 31
0.0
  0
LINE
  5
47E1
330
1F
100
AcDbEntity
  8
AM_0
100
AcDbLine
 10
-2.519857918769352
 20
17.04700950022348
 30
0.0
 11
-2.956854272676956
 21
16.75701605428115
 31
0.0
  0
LINE
  5
47E2
330
1F
100
AcDbEntity
  8
AM_0
100
AcDbLine
 10
-2.956823755091375
 20
16.75700079550231
 30
0.0
 11
-2.872824622691078
 21
18.12801828227141
 31
0.0
  0
LINE
  5
47E3
330
1F
100
AcDbEntity
  8
AM_0
100
AcDbLine
 10
-1.947852317429122
 20
18.75397992424963
 30
0.0
 11
-2.872839881469918
 21
18.12798776468583
 31
0.0
  0
LINE
  5
47E4
330
1F
100
AcDbEntity
  8
AM_0
100
AcDbLine
 10
-1.063834591799755
 20
19.35200270848051
 30
0.0
 11
-1.947837058650282
 21
18.75401044183521
 31
0.0
  0
LINE
  5
47E5
330
1F
100
AcDbEntity
  8
AM_0
100
AcDbLine
 10
-2.12985862676791
 20
17.31402319264868
 30
0.0
 11
-2.057852418727752
 21
17.36201211058181
 31
0.0
  0
LINE
  5
47E6
330
1F
100
AcDbEntity
  8
AM_0
100
AcDbLine
 10
-2.20886861570131
 20
17.25704684539423
 30
0.0
 11
-2.283865545292158
 21
17.20605194492738
 31
0.0
  0
LINE
  5
47E7
330
1F
100
AcDbEntity
  8
AM_0
100
AcDbLine
 10
-2.185858367639396
 20
17.27303806474923
 30
0.0
 11
-2.208853356905729
 21
17.25703158660981
 31
0.0
  0
LINE
  5
47E8
330
1F
100
AcDbEntity
  8
AM_0
100
AcDbLine
 10
-2.519857918769352
 20
17.04700950022348
 30
0.0
 11
-2.956854272676956
 21
16.75701605428115
 31
0.0
  0
LINE
  5
47E9
330
1F
100
AcDbEntity
  8
AM_0
100
AcDbLine
 10
-2.956823755091375
 20
16.75700079550231
 30
0.0
 11
-2.872824622691078
 21
18.12801828227141
 31
0.0
  0
LINE
  5
47EA
330
1F
100
AcDbEntity
  8
AM_0
100
AcDbLine
 10
-1.947852317429122
 20
18.75397992424963
 30
0.0
 11
-2.872839881469918
 21
18.12798776468583
 31
0.0
  0
LINE
  5
47EB
330
1F
100
AcDbEntity
  8
AM_0
100
AcDbLine
 10
-1.063834591799755
 20
19.35200270848051
 30
0.0
 11
-1.947837058650282
 21
18.75401044183521
 31
0.0
  0
LINE
  5
47EC
330
1F
100
AcDbEntity
  8
AM_0
100
AcDbLine
 10
-2.12985862676791
 20
17.31402319264868
 30
0.0
 11
-2.057852418727752
 21
17.36201211058181
 31
0.0
  0
LINE
  5
47ED
330
1F
100
AcDbEntity
  8
AM_0
100
AcDbLine
 10
-3.159840743324188
 20
13.4750030405875
 30
0.0
 11
-3.159840744055199
 21
13.4770019419575
 31
0.0
  0
LINE
  5
47EE
330
1F
100
AcDbEntity
  8
AM_0
100
AcDbLine
 10
-2.20387849174921
 20
15.89004245268906
 30
0.0
 11
-3.046865337995809
 21
15.30404360925344
 31
0.0
  0
LINE
  5
47EF
330
1F
100
AcDbEntity
  8
AM_0
100
AcDbLine
 10
-3.159840743324188
 20
13.4750030405875
 30
0.0
 11
-3.159840744055199
 21
13.4770019419575
 31
0.0
  0
LINE
  5
47F0
330
1F
100
AcDbEntity
  8
AM_0
100
AcDbLine
 10
-3.1598560028452
 20
13.47700194195192
 30
0.0
 11
-3.046850079189068
 21
15.30399783288902
 31
0.0
  0
LINE
  5
47F1
330
1F
100
AcDbEntity
  8
AM_0
100
AcDbLine
 10
-2.20387849174921
 20
15.89004245268906
 30
0.0
 11
-3.046865337995809
 21
15.30404360925344
 31
0.0
  0
LINE
  5
47F2
330
1F
100
AcDbEntity
  8
AM_0
100
AcDbLine
 10
-6.222814113203837
 20
14.42499886867896
 30
0.0
 11
-6.487813313784297
 21
13.90800048075705
 31
0.0
  0
LINE
  5
47F3
330
1F
100
AcDbEntity
  8
AM_0
100
AcDbLine
 10
-6.10190367676081
 20
14.9939991570467
 30
0.0
 11
-6.222890407149415
 21
14.42501412744105
 31
0.0
  0
LINE
  5
47F4
330
1F
100
AcDbEntity
  8
AM_0
100
AcDbLine
 10
-6.132818196242133
 20
15.57599987816111
 30
0.0
 11
-6.101812124020807
 21
14.99399915708018
 31
0.0
  0
LINE
  5
47F5
330
1F
100
AcDbEntity
  8
AM_0
100
AcDbLine
 10
-6.315847573269836
 20
16.12897832684615
 30
0.0
 11
-6.132848713816553
 21
15.57598461935995
 31
0.0
  0
LINE
  5
47F6
330
1F
100
AcDbEntity
  8
AM_0
100
AcDbLine
 10
-6.222814113203837
 20
14.42499886867896
 30
0.0
 11
-6.487813313784297
 21
13.90800048075705
 31
0.0
  0
LINE
  5
47F7
330
1F
100
AcDbEntity
  8
AM_0
100
AcDbLine
 10
-6.10190367676081
 20
14.9939991570467
 30
0.0
 11
-6.222890407149415
 21
14.42501412744105
 31
0.0
  0
LINE
  5
47F8
330
1F
100
AcDbEntity
  8
AM_0
100
AcDbLine
 10
-6.132818196242133
 20
15.57599987816111
 30
0.0
 11
-6.101812124020807
 21
14.99399915708018
 31
0.0
  0
LINE
  5
47F9
330
1F
100
AcDbEntity
  8
AM_0
100
AcDbLine
 10
-6.315847573269836
 20
16.12897832684615
 30
0.0
 11
-6.132848713816553
 21
15.57598461935995
 31
0.0
  0
LINE
  5
47FA
330
1F
100
AcDbEntity
  8
AM_0
100
AcDbLine
 10
-13.48683831504425
 20
18.18399889772991
 30
0.0
 11
-10.16184140959371
 21
18.30100450823218
 31
0.0
  0
LINE
  5
47FB
330
1F
100
AcDbEntity
  8
AM_0
100
AcDbLine
 10
-13.48683831504425
 20
18.18399889772991
 30
0.0
 11
-10.16184140959371
 21
18.30100450823218
 31
0.0
  0
ARC
  5
47FC
330
1F
100
AcDbEntity
  8
AM_0
100
AcDbCircle
 10
-8.239843191687349
 20
15.1630047228388
 30
0.0
 40
2.199801206588699
100
AcDbArc
 50
87.68130582951236
 51
266.6916574088672
  0
ARC
  5
47FD
330
1F
100
AcDbEntity
  8
AM_0
100
AcDbCircle
 10
-8.554845638945415
 20
15.17899581858042
 30
0.0
 40
3.153732061386099
100
AcDbArc
 50
100.6899885000718
 51
152.7422386175215
  0
ARC
  5
47FE
330
1F
100
AcDbEntity
  8
AM_0
100
AcDbCircle
 10
-8.239843191687349
 20
15.1630047228388
 30
0.0
 40
2.199801206588699
100
AcDbArc
 50
87.68130582951236
 51
266.6916574088672
  0
ARC
  5
47FF
330
1F
100
AcDbEntity
  8
AM_0
100
AcDbCircle
 10
-8.554845638945415
 20
15.17899581858042
 30
0.0
 40
3.153732061386099
100
AcDbArc
 50
100.6899885000718
 51
152.7422386175215
  0
LINE
  5
4800
330
1F
100
AcDbEntity
  8
AM_0
100
AcDbLine
 10
-7.072821158421926
 20
17.00001076486621
 30
0.0
 11
-6.63580929923418
 21
16.61599298034417
 31
0.0
  0
LINE
  5
4801
330
1F
100
AcDbEntity
  8
AM_0
100
AcDbLine
 10
-7.072821158421926
 20
17.00001076486621
 30
0.0
 11
-6.63580929923418
 21
16.61599298034417
 31
0.0
  0
LINE
  5
4802
330
1F
100
AcDbEntity
  8
AM_0
100
AcDbLine
 10
-7.594839684272034
 20
17.25496968040077
 30
0.0
 11
-7.072836417185182
 21
16.99996498849063
 31
0.0
  0
LINE
  5
4803
330
1F
100
AcDbEntity
  8
AM_0
100
AcDbLine
 10
-8.163839967557345
 20
17.3620098775838
 30
0.0
 11
-7.594854943078775
 21
17.25501545676519
 31
0.0
  0
LINE
  5
4804
330
1F
100
AcDbEntity
  8
AM_0
100
AcDbLine
 10
-7.781836509949465
 20
18.25500012959492
 30
0.0
 11
-7.747855183422711
 21
18.24601271526211
 31
0.0
  0
LINE
  5
4805
330
1F
100
AcDbEntity
  8
AM_0
100
AcDbLine
 10
-7.747855183428291
 20
18.24602797405211
 30
0.0
 11
-7.745856284982333
 21
18.25402358025312
 31
0.0
  0
LINE
  5
4806
330
1F
100
AcDbEntity
  8
AM_0
100
AcDbLine
 10
-7.745841026181172
 20
18.2539930626787
 30
0.0
 11
-7.942847803622924
 21
19.76299567618218
 31
0.0
  0
LINE
  5
4807
330
1F
100
AcDbEntity
  8
AM_0
100
AcDbLine
 10
-7.594839684272034
 20
17.25496968040077
 30
0.0
 11
-7.072836417185182
 21
16.99996498849063
 31
0.0
  0
LINE
  5
4808
330
1F
100
AcDbEntity
  8
AM_0
100
AcDbLine
 10
-8.163839967557345
 20
17.3620098775838
 30
0.0
 11
-7.594854943078775
 21
17.25501545676519
 31
0.0
  0
LINE
  5
4809
330
1F
100
AcDbEntity
  8
AM_0
100
AcDbLine
 10
-7.781836509949465
 20
18.25500012959492
 30
0.0
 11
-7.747855183422711
 21
18.24601271526211
 31
0.0
  0
LINE
  5
480A
330
1F
100
AcDbEntity
  8
AM_0
100
AcDbLine
 10
-7.747855183428291
 20
18.24602797405211
 30
0.0
 11
-7.745856284982333
 21
18.25402358025312
 31
0.0
  0
LINE
  5
480B
330
1F
100
AcDbEntity
  8
AM_0
100
AcDbLine
 10
-7.745841026181172
 20
18.2539930626787
 30
0.0
 11
-7.942847803622924
 21
19.76299567618218
 31
0.0
  0
ARC
  5
480C
330
1F
100
AcDbEntity
  8
AM_0
100
AcDbCircle
 10
-7.772832658173828
 20
15.06600477155748
 30
0.0
 40
1.999244093895
100
AcDbArc
 50
134.0880665035851
 51
258.0833309412799
  0
LINE
  5
480D
330
1F
100
AcDbEntity
  8
AM_0
100
AcDbLine
 10
-7.916859611113553
 20
12.99598213587578
 30
0.0
 11
-8.394856427043789
 21
12.96798208313933
 31
0.0
  0
LINE
  5
480E
330
1F
100
AcDbEntity
  8
AM_0
100
AcDbLine
 10
-7.364842462099577
 20
13.16799466686193
 30
0.0
 11
-7.916829093533552
 21
12.99598213588694
 31
0.0
  0
LINE
  5
480F
330
1F
100
AcDbEntity
  8
AM_0
100
AcDbLine
 10
-6.876851242835964
 20
13.47899948399341
 30
0.0
 11
-7.364857720895158
 21
13.16800992563635
 31
0.0
  0
LINE
  5
4810
330
1F
100
AcDbEntity
  8
AM_0
100
AcDbLine
 10
-7.916859611113553
 20
12.99598213587578
 30
0.0
 11
-8.394856427043789
 21
12.96798208313933
 31
0.0
  0
LINE
  5
4811
330
1F
100
AcDbEntity
  8
AM_0
100
AcDbLine
 10
-7.364842462099577
 20
13.16799466686193
 30
0.0
 11
-7.916829093533552
 21
12.99598213588694
 31
0.0
  0
LINE
  5
4812
330
1F
100
AcDbEntity
  8
AM_0
100
AcDbLine
 10
-6.876851242835964
 20
13.47899948399341
 30
0.0
 11
-7.364857720895158
 21
13.16800992563635
 31
0.0
  0
LINE
  5
4813
330
1F
100
AcDbEntity
  8
AM_0
100
AcDbLine
 10
-13.92584845828292
 20
16.87999788269106
 30
0.0
 11
-14.10884644882664
 21
15.05701502767742
 31
0.0
  0
LINE
  5
4814
330
1F
100
AcDbEntity
  8
AM_0
100
AcDbLine
 10
-16.30884445212711
 20
17.94200872996452
 30
0.0
 11
-17.29985524438923
 21
13.07201325035532
 31
0.0
  0
LINE
  5
4815
330
1F
100
AcDbEntity
  8
AM_0
100
AcDbLine
 10
-13.92584845828292
 20
16.87999788269106
 30
0.0
 11
-14.10884644882664
 21
15.05701502767742
 31
0.0
  0
LINE
  5
4816
330
1F
100
AcDbEntity
  8
AM_0
100
AcDbLine
 10
-16.30884445212711
 20
17.94200872996452
 30
0.0
 11
-17.29985524438923
 21
13.07201325035532
 31
0.0
  0
ARC
  5
4817
330
1F
100
AcDbEntity
  8
AM_0
100
AcDbCircle
 10
-13.78586434578748
 20
16.93021460868413
 30
0.0
 40
3.0
100
AcDbArc
 50
84.02817232174264
 51
141.5347314726085
  0
LINE
  5
4818
330
1F
100
AcDbEntity
  8
AM_0
100
AcDbLine
 10
-13.48683831504983
 20
18.18401415651991
 30
0.0
 11
-13.79386040465273
 21
18.17002173467001
 31
0.0
  0
LINE
  5
4819
330
1F
100
AcDbEntity
  8
AM_0
100
AcDbLine
 10
-13.92584845901393
 20
16.88199678406106
 30
0.0
 11
-13.92584845828292
 21
16.87999788269106
 31
0.0
  0
LINE
  5
481A
330
1F
100
AcDbEntity
  8
AM_0
100
AcDbLine
 10
-13.48683831504983
 20
18.18401415651991
 30
0.0
 11
-13.79386040465273
 21
18.17002173467001
 31
0.0
  0
LINE
  5
481B
330
1F
100
AcDbEntity
  8
AM_0
100
AcDbLine
 10
-13.92584845901393
 20
16.88199678406106
 30
0.0
 11
-13.92584845828292
 21
16.87999788269106
 31
0.0
  0
LINE
  5
481C
330
1F
100
AcDbEntity
  8
AM_0
100
AcDbLine
 10
-13.79648491632251
 20
18.1698844046102
 30
0.0
 11
-13.92586371779392
 21
16.88199678405548
 31
0.0
  0
LINE
  5
481D
330
1F
100
AcDbEntity
  8
AM_0
100
AcDbLine
 10
-16.13481827531448
 20
18.79634839321704
 30
0.0
 11
-16.30884445212711
 21
17.94200872996452
 31
0.0
  0
LINE
  5
481E
330
1F
100
AcDbEntity
  8
AM_0
100
AcDbLine
 10
-15.05986552346913
 20
14.47603628633373
 30
0.0
 11
-17.29987050318482
 21
13.07202850913974
 31
0.0
  0
LINE
  5
481F
330
1F
100
AcDbEntity
  8
AM_0
100
AcDbLine
 10
-15.05986552346913
 20
14.47603628633373
 30
0.0
 11
-17.29987050318482
 21
13.07202850913974
 31
0.0
  0
LINE
  5
4820
330
1F
100
AcDbEntity
  8
AM_0
100
AcDbLine
 10
-15.12685108850843
 20
13.0569993965966
 30
0.0
 11
-15.13383961243641
 21
13.05300159131085
 31
0.0
  0
LINE
  5
4821
330
1F
100
AcDbEntity
  8
AM_0
100
AcDbLine
 10
-15.11584950379262
 20
13.06302662229994
 30
0.0
 11
-15.12685108851959
 21
13.0570299141766
 31
0.0
  0
LINE
  5
4822
330
1F
100
AcDbEntity
  8
AM_0
100
AcDbLine
 10
-15.08183767063987
 20
13.08399221091829
 30
0.0
 11
-15.11583424498588
 21
13.06298084594553
 31
0.0
  0
LINE
  5
4823
330
1F
100
AcDbEntity
  8
AM_0
100
AcDbLine
 10
-15.06584646299778
 20
13.09301016109637
 30
0.0
 11
-15.08183767064545
 21
13.08400746970829
 31
0.0
  0
LINE
  5
4824
330
1F
100
AcDbEntity
  8
AM_0
100
AcDbLine
 10
-14.9208574822456
 20
13.18302181079976
 30
0.0
 11
-14.95885185860061
 21
13.16001154300498
 31
0.0
  0
LINE
  5
4825
330
1F
100
AcDbEntity
  8
AM_0
100
AcDbLine
 10
-14.70883665758837
 20
13.31800113638712
 30
0.0
 11
-14.92084222345002
 21
13.18300655201534
 31
0.0
  0
LINE
  5
4826
330
1F
100
AcDbEntity
  8
AM_0
100
AcDbLine
 10
-14.9588365998106
 20
13.16001154301056
 30
0.0
 11
-15.06584646299778
 21
13.09301016109637
 31
0.0
  0
LINE
  5
4827
330
1F
100
AcDbEntity
  8
AM_0
100
AcDbLine
 10
-15.05985026466797
 20
14.47600576875931
 30
0.0
 11
-14.10884644882664
 21
15.05701502767742
 31
0.0
  0
LINE
  5
4828
330
1F
100
AcDbEntity
  8
AM_0
100
AcDbLine
 10
-14.10883119002548
 20
15.056984510113
 30
0.0
 11
-14.25383493221247
 21
13.60698750883412
 31
0.0
  0
LINE
  5
4829
330
1F
100
AcDbEntity
  8
AM_0
100
AcDbLine
 10
-15.13383961243641
 20
13.05300159131085
 30
0.0
 11
-15.21083544449098
 21
13.00499741276299
 31
0.0
  0
LINE
  5
482A
330
1F
100
AcDbEntity
  8
AM_0
100
AcDbLine
 10
-15.12685108850843
 20
13.0569993965966
 30
0.0
 11
-15.13383961243641
 21
13.05300159131085
 31
0.0
  0
LINE
  5
482B
330
1F
100
AcDbEntity
  8
AM_0
100
AcDbLine
 10
-15.11584950379262
 20
13.06302662229994
 30
0.0
 11
-15.12685108851959
 21
13.0570299141766
 31
0.0
  0
LINE
  5
482C
330
1F
100
AcDbEntity
  8
AM_0
100
AcDbLine
 10
-15.08183767063987
 20
13.08399221091829
 30
0.0
 11
-15.11583424498588
 21
13.06298084594553
 31
0.0
  0
LINE
  5
482D
330
1F
100
AcDbEntity
  8
AM_0
100
AcDbLine
 10
-15.06584646299778
 20
13.09301016109637
 30
0.0
 11
-15.08183767064545
 21
13.08400746970829
 31
0.0
  0
LINE
  5
482E
330
1F
100
AcDbEntity
  8
AM_0
100
AcDbLine
 10
-14.9208574822456
 20
13.18302181079976
 30
0.0
 11
-14.95885185860061
 21
13.16001154300498
 31
0.0
  0
LINE
  5
482F
330
1F
100
AcDbEntity
  8
AM_0
100
AcDbLine
 10
-14.70883665758837
 20
13.31800113638712
 30
0.0
 11
-14.92084222345002
 21
13.18300655201534
 31
0.0
  0
LINE
  5
4830
330
1F
100
AcDbEntity
  8
AM_0
100
AcDbLine
 10
-14.9588365998106
 20
13.16001154301056
 30
0.0
 11
-15.06584646299778
 21
13.09301016109637
 31
0.0
  0
LINE
  5
4831
330
1F
100
AcDbEntity
  8
AM_0
100
AcDbLine
 10
-15.05985026466797
 20
14.47600576875931
 30
0.0
 11
-14.10884644882664
 21
15.05701502767742
 31
0.0
  0
LINE
  5
4832
330
1F
100
AcDbEntity
  8
AM_0
100
AcDbLine
 10
-14.10883119002548
 20
15.056984510113
 30
0.0
 11
-14.25383493221247
 21
13.60698750883412
 31
0.0
  0
LINE
  5
4833
330
1F
100
AcDbEntity
  8
AM_0
100
AcDbLine
 10
-15.13383961243641
 20
13.05300159131085
 30
0.0
 11
-15.21083544449098
 21
13.00499741276299
 31
0.0
  0
ELLIPSE
  5
4834
330
1F
100
AcDbEntity
  8
AM_0
100
AcDbEllipse
 10
-1.731843519933993
 20
4.044019065744429
 30
0.0
 11
40.69764902953675
 21
-2.142358600664187
 31
0.0
210
0.0
220
0.0
230
1.0
 40
0.1914903201373
 41
1.709289048662168
 42
1.734671230836167
  0
ELLIPSE
  5
4835
330
1F
100
AcDbEntity
  8
AM_0
100
AcDbEllipse
 10
-59.95581815069515
 20
-20.9320154107206
 30
0.0
 11
-77.16336515491839
 21
-51.10828445448088
 31
0.0
210
0.0
220
0.0
230
1.0
 40
0.033828956911
 41
4.061702786752128
 42
4.093024815773219
  0
SPLINE
  5
4836
330
1F
100
AcDbEntity
  8
AM_0
100
AcDbSpline
210
0.0
220
0.0
230
1.0
 70
     8
 71
     3
 72
    11
 73
     7
 74
     5
 42
0.0000000001
 43
0.0000000001
 44
0.0000000001
 40
0.0
 40
0.0
 40
0.0
 40
0.0
 40
1.250773846824072
 40
2.498331992764
 40
3.743664978531235
 40
4.985864260325595
 40
4.985864260325595
 40
4.985864260325595
 40
4.985864260325595
 10
-14.39084309856494
 20
12.23799942161929
 30
0.0
 10
-13.97419223405059
 20
12.22286799800201
 30
0.0
 10
-13.14196170151099
 20
12.19264405318969
 30
0.0
 10
-11.8946092200666
 20
12.1557461109014
 30
0.0
 10
-10.64991013360931
 20
12.12660525665147
 30
0.0
 10
-9.820844743064517
 20
12.1128609541057
 30
0.0
 10
-9.406834261220662
 20
12.10599746012263
 30
0.0
 11
-14.39084309856494
 21
12.23799942161929
 31
0.0
 11
-13.14084308247721
 21
12.19400878989215
 31
0.0
 11
-11.89383379159522
 21
12.15700668245128
 31
0.0
 11
-10.64883866379727
 21
12.12800017974381
 31
0.0
 11
-9.406834261220662
 21
12.10599746012263
 31
0.0
  0
ELLIPSE
  5
4837
330
1F
100
AcDbEntity
  8
AM_0
100
AcDbEllipse
 10
-13.65285403403214
 20
18.44100262119694
 30
0.0
 11
40.60826752537718
 21
-1.445953953771505
 31
0.0
210
0.0
220
0.0
230
0.9999999999999998
 40
0.1901365452931
 41
4.645827255761395
 42
4.825566369274593
  0
SPLINE
  5
4838
330
1F
100
AcDbEntity
  8
AM_0
100
AcDbSpline
210
0.0
220
0.0
230
1.0
 70
     8
 71
     3
 72
    11
 73
     7
 74
     5
 42
0.0000000001
 43
0.0000000001
 44
0.0000000001
 40
0.0
 40
0.0
 40
0.0
 40
0.0
 40
0.3601027747022432
 40
0.7120624229618161
 40
1.061342440034724
 40
1.411370332121389
 40
1.411370332121389
 40
1.411370332121389
 40
1.411370332121389
 10
-9.368839876460667
 20
12.10599747401741
 30
0.0
 10
-9.251260153821039
 20
12.08119369264188
 30
0.0
 10
-9.018759578774986
 20
12.03214702622982
 30
0.0
 10
-8.664842042136283
 20
12.00809767866093
 30
0.0
 10
-8.31362665597431
 20
12.01977783639532
 30
0.0
 10
-8.083854775742748
 20
12.06058079290383
 30
0.0
 10
-7.968845970830333
 20
12.08100408952398
 30
0.0
 11
-9.368839876460667
 21
12.10599747401741
 31
0.0
 11
-9.014835946076175
 21
12.04000334078887
 31
0.0
 11
-8.663838011757475
 21
12.01400249259102
 31
0.0
 11
-8.314838993450157
 21
12.02801018858215
 31
0.0
 11
-7.968845970830333
 21
12.08100408952398
 31
0.0
  0
ELLIPSE
  5
4839
330
1F
100
AcDbEntity
  8
AM_0
100
AcDbEllipse
 10
-5.111847992796223
 20
2.923015632395483
 30
0.0
 11
39.80476444035399
 21
-1.417343315267624
 31
0.0
210
0.0
220
0.0
230
1.0
 40
0.1901328229447
 41
1.491458376243742
 42
1.684074863650915
  0
ELLIPSE
  5
483A
330
1F
100
AcDbEntity
  8
AM_0
100
AcDbEllipse
 10
-16.54884764244012
 20
11.64499631309343
 30
0.0
 11
-0.6902845304846116
 21
-0.4804003453014312
 31
0.0
210
0.0
220
0.0
230
1.0
 40
0.9500661287304
 41
0.7853981046130802
 42
0.8855755654228596
  0
ELLIPSE
  5
483B
330
1F
100
AcDbEntity
  8
AM_0
100
AcDbEllipse
 10
-16.54884764244012
 20
11.64499631309343
 30
0.0
 11
-0.6902845304846116
 21
-0.4804003453014312
 31
0.0
210
0.0
220
0.0
230
1.0
 40
0.9500661287304
 41
0.5392274071601989
 42
0.7853981046130802
  0
ELLIPSE
  5
483C
330
1F
100
AcDbEntity
  8
AM_0
100
AcDbEllipse
 10
-16.54884764244012
 20
11.64499631309343
 30
0.0
 11
-0.6902845304846116
 21
-0.4804003453014312
 31
0.0
210
0.0
220
0.0
230
1.0
 40
0.9500661287304
 41
0.224407853357569
 42
0.5392274071601989
  0
ELLIPSE
  5
483D
330
1F
100
AcDbEntity
  8
AM_0
100
AcDbEllipse
 10
-16.54884764244012
 20
11.64499631309343
 30
0.0
 11
-0.6902845304846116
 21
-0.4804003453014312
 31
0.0
210
0.0
220
0.0
230
1.0
 40
0.9500661287304
 41
0.0999154197226577
 42
0.224407853357569
  0
ELLIPSE
  5
483E
330
1F
100
AcDbEntity
  8
AM_0
100
AcDbEllipse
 10
-16.54884764244012
 20
11.64499631309343
 30
0.0
 11
-0.6902845304846116
 21
-0.4804003453014312
 31
0.0
210
0.0
220
0.0
230
1.0
 40
0.9500661287304
 41
6.070099335633095
 42
6.383100726902243
  0
ELLIPSE
  5
483F
330
1F
100
AcDbEntity
  8
AM_0
100
AcDbEllipse
 10
-16.54884764244012
 20
11.64499631309343
 30
0.0
 11
-0.6902845304846116
 21
-0.4804003453014312
 31
0.0
210
0.0
220
0.0
230
1.0
 40
0.9500661287304
 41
5.64686910717019
 42
6.069932463209534
  0
SPLINE
  5
4840
330
1F
100
AcDbEntity
  8
AM_0
100
AcDbSpline
210
0.0
220
0.0
230
1.0
 70
     8
 71
     3
 72
    11
 73
     7
 74
     0
 42
0.0000000001
 43
0.0000000001
 40
0.9804045736097
 40
0.9804045736097
 40
0.9804045736097
 40
0.9804045736097
 40
1.592221294179989
 40
3.185567691940478
 40
4.778931633892061
 40
6.372114011060654
 40
6.372114011060654
 40
6.372114011060654
 40
6.372114011060654
 10
-0.9944303763391159
 20
-11.98434429839359
 30
0.0
 10
-0.9612525847605636
 20
-12.18556634368981
 30
0.0
 10
-0.8416054743263526
 20
-12.91081766289421
 30
0.0
 10
-0.634852454847148
 20
-14.15999906222429
 30
0.0
 10
-0.3745838986671266
 20
-15.731895302005
 30
0.0
 10
-0.2020836222064234
 20
-16.77997670366973
 30
0.0
 10
-0.1158383983837317
 20
-17.30398754542377
 30
0.0
  0
ELLIPSE
  5
4841
330
1F
100
AcDbEntity
  8
AM_0
100
AcDbEllipse
 10
-0.8668296981728165
 20
-18.7299979518961
 30
0.0
 11
0.6900026794759141
 21
-0.4808117546717185
 31
0.0
210
0.0
220
0.0
230
1.0
 40
0.9500582047836999
 41
5.397955561571682
 42
6.919470235614443
  0
ELLIPSE
  5
4842
330
1F
100
AcDbEntity
  8
AM_0
100
AcDbEllipse
 10
-18.62082419016492
 20
-27.78299821906405
 30
0.0
 11
-39.73521903213361
 21
-2.746108237499443
 31
0.0
210
0.0
220
0.0
230
1.0
 40
0.1901330379329
 41
4.427247288376946
 42
4.612445156172664
  0
ELLIPSE
  5
4843
330
1F
100
AcDbEntity
  8
AM_0
100
AcDbEllipse
 10
2.950169030524663
 20
-11.5819863020952
 30
0.0
 11
-40.53730700894334
 21
-2.801536131898081
 31
0.0
210
0.0
220
0.0
230
1.0
 40
0.190136046806
 41
1.285409191705489
 42
1.465388158274866
  0
SPLINE
  5
4844
330
1F
100
AcDbEntity
  8
AM_0
100
AcDbSpline
210
0.0
220
0.0
230
1.0
 70
     8
 71
     3
 72
    11
 73
     7
 74
     5
 42
0.0000000001
 43
0.0000000001
 44
0.0000000001
 40
0.0
 40
0.0
 40
0.0
 40
0.0
 40
0.2858187857159127
 40
0.5720702186111724
 40
0.8565472972980931
 40
1.138619946683187
 40
1.138619946683187
 40
1.138619946683187
 40
1.138619946683187
 10
-15.18582948042464
 20
-19.99300367672438
 30
0.0
 10
-15.28187411908751
 20
-19.98631965722413
 30
0.0
 10
-15.47410878028613
 20
-19.97294150054655
 30
0.0
 10
-15.73117173767567
 20
-19.83320881919829
 30
0.0
 10
-15.93441043811939
 20
-19.62323675756516
 30
0.0
 10
-15.99344387870971
 20
-19.44149227336124
 30
0.0
 10
-16.0228353304474
 20
-19.35100569181263
 30
0.0
 11
-15.18582948042464
 21
-19.99300367672438
 31
0.0
 11
-15.468834255796
 21
-19.952995235301
 31
0.0
 11
-15.72283210681059
 21
-19.8209915440096
 31
0.0
 11
-15.91582534730306
 21
-19.61199198079842
 31
0.0
 11
-16.0228353304474
 21
-19.35100569181263
 31
0.0
  0
ELLIPSE
  5
4845
330
1F
100
AcDbEntity
  8
AM_0
100
AcDbEllipse
 10
-14.18183228001412
 20
-18.34600013573619
 30
0.0
 11
-0.4911649328313836
 21
-0.6641084681121594
 31
0.0
210
0.0
220
0.0
230
0.9999999999999998
 40
0.9660976160285999
 41
5.723314797872704
 42
6.955408238988529
  0
ELLIPSE
  5
4846
330
1F
100
AcDbEntity
  8
AM_0
100
AcDbEllipse
 10
-1.93782921889775
 20
-17.70399736700729
 30
0.0
 11
0.6900026794859186
 21
-0.4808117546717185
 31
0.0
210
0.0
220
0.0
230
1.0
 40
0.9500582047836999
 41
5.397955561571682
 42
6.117797789955129
  0
ELLIPSE
  5
4847
330
1F
100
AcDbEntity
  8
AM_0
100
AcDbEllipse
 10
-1.93782921889775
 20
-17.70399736700729
 30
0.0
 11
0.6900026794859186
 21
-0.4808117546717185
 31
0.0
210
0.0
220
0.0
230
1.0
 40
0.9500582047836999
 41
6.21408300608732
 42
6.919470235614443
  0
SPLINE
  5
4848
330
1F
100
AcDbEntity
  8
AM_0
100
AcDbSpline
210
0.0
220
0.0
230
1.0
 70
     8
 71
     3
 72
    11
 73
     7
 74
     5
 42
0.0000000001
 43
0.0000000001
 44
0.0000000001
 40
0.0
 40
0.0
 40
0.0
 40
0.0
 40
0.0350454558191208
 40
0.0710963979960835
 40
0.108220859319708
 40
0.1462830270126419
 40
0.1462830270126419
 40
0.1462830270126419
 40
0.1462830270126419
 10
-1.692844327957209
 20
10.25901541789709
 30
0.0
 10
-1.692146740147083
 20
10.27067614723182
 30
0.0
 10
-1.690731550091005
 20
10.29433216294997
 30
0.0
 10
-1.689165480010125
 20
10.33037959996507
 30
0.0
 10
-1.685461003581394
 20
10.36728962029953
 30
0.0
 10
-1.684385934379391
 20
10.39233343692715
 30
0.0
 10
-1.683841695798897
 20
10.40501151493942
 30
0.0
 11
-1.692844327957209
 21
10.25901541789709
 31
0.0
 11
-1.690845439382687
 21
10.2940038219481
 31
0.0
 11
-1.688846551186465
 21
10.32999930607911
 31
0.0
 11
-1.685840583268532
 21
10.36700187065841
 31
0.0
 11
-1.683841695798897
 21
10.40501151493942
 31
0.0
  0
ELLIPSE
  5
4849
330
1F
100
AcDbEntity
  8
AM_0
100
AcDbEllipse
 10
12.45014953576087
 20
0.0010097258281326
 30
0.0
 11
225.0139528458911
 21
-0.1332657574136114
 31
0.0
210
0.0
220
0.0
230
0.9999999999999998
 40
0.08444361811
 41
4.596032956472167
 42
4.602132710028747
  0
ELLIPSE
  5
484A
330
1F
100
AcDbEntity
  8
AM_0
100
AcDbEllipse
 10
-18.29983520508436
 20
0.0000066590754993
 30
0.0
 11
2.931251891141169
 21
-18.98302346652402
 31
0.0
210
0.0
220
0.0
230
1.0
 40
0.2799357253037
 41
6.240393543028505
 42
6.301071525065081
  0
SPLINE
  5
484B
330
1F
100
AcDbEntity
  8
AM_0
100
AcDbSpline
210
0.0
220
0.0
230
1.0
 70
     8
 71
     3
 72
    11
 73
     7
 74
     5
 42
0.0000000001
 43
0.0000000001
 44
0.0000000001
 40
0.0
 40
0.0
 40
0.0
 40
0.0
 40
0.2725440999914919
 40
0.5462004436884049
 40
0.8197437491283693
 40
1.092619952128982
 40
1.092619952128982
 40
1.092619952128982
 40
1.092619952128982
 10
-16.99884398689866
 20
9.993995171966831
 30
0.0
 10
-17.0895098608612
 20
10.00142009617316
 30
0.0
 10
-17.27121161330155
 20
10.01630024546269
 30
0.0
 10
-17.53787472414755
 20
10.0792120005278
 30
0.0
 10
-17.79821565344826
 20
10.16479279489161
 30
0.0
 10
-17.96136173267518
 20
10.24629347046631
 30
0.0
 10
-18.04283518292027
 20
10.2869940577427
 30
0.0
 11
-16.99884398689866
 21
9.993995171966831
 31
0.0
 11
-17.26984009125667
 21
10.02300203086185
 31
0.0
 11
-17.53683840421814
 21
10.08299949181889
 31
0.0
 11
-17.79584112193933
 21
10.17099683361998
 31
0.0
 11
-18.04283518292027
 21
10.2869940577427
 31
0.0
  0
SPLINE
  5
484C
330
1F
100
AcDbEntity
  8
AM_0
100
AcDbSpline
210
0.0
220
0.0
230
1.0
 70
     8
 71
     3
 72
    11
 73
     7
 74
     5
 42
0.0000000001
 43
0.0000000001
 44
0.0000000001
 40
0.0
 40
0.0
 40
0.0
 40
0.0
 40
0.0368728156238667
 40
0.1381867362999453
 40
0.3001859309277788
 40
0.5048229050052266
 40
0.5048229050052266
 40
0.5048229050052266
 40
0.5048229050052266
 10
-1.783847151654493
 20
8.634015384616681
 30
0.0
 10
-1.787022590799216
 20
8.64597582024044
 30
0.0
 10
-1.79892305362811
 20
8.690799453467487
 30
0.0
 10
-1.778072854535824
 20
8.791654219078608
 30
0.0
 10
-1.764288243309513
 20
8.945791565037769
 30
0.0
 10
-1.755012644504369
 20
9.06787420632914
 30
0.0
 10
-1.749835494418648
 20
9.136014298424992
 30
0.0
 11
-1.783847151654493
 21
8.634015384616681
 31
0.0
 11
-1.791842770288267
 21
8.670010865092637
 31
0.0
 11
-1.783847201753843
 21
8.771008792826675
 31
0.0
 11
-1.765841889540905
 21
8.932004282801337
 31
0.0
 11
-1.749835494418648
 21
9.136014298424992
 31
0.0
  0
SPLINE
  5
484D
330
1F
100
AcDbEntity
  8
AM_0
100
AcDbSpline
210
0.0
220
0.0
230
1.0
 70
     8
 71
     3
 72
    11
 73
     7
 74
     5
 42
0.0000000001
 43
0.0000000001
 44
0.0000000001
 40
0.0
 40
0.0
 40
0.0
 40
0.0
 40
0.40542997530523
 40
1.300093031921511
 40
2.196597443465393
 40
2.577335563316289
 40
2.577335563316289
 40
2.577335563316289
 40
2.577335563316289
 10
-13.66883160778729
 20
-18.84899067077865
 30
0.0
 10
-13.79541896489251
 20
-18.79916350233006
 30
0.0
 10
-14.20134687088407
 20
-18.63938263153576
 30
0.0
 10
-14.94336966236391
 20
-18.65584584682631
 30
0.0
 10
-15.68229043926029
 20
-18.62917519121007
 30
0.0
 10
-16.07635676375908
 20
-18.79851302924006
 30
0.0
 10
-16.19382550426711
 20
-18.84899159418478
 30
0.0
 11
-13.66883160778729
 21
-18.84899067077865
 31
0.0
 11
-14.05182726188458
 21
-18.71599520537255
 31
0.0
 11
-14.94382557813835
 21
-18.64699528744194
 31
0.0
 11
-15.83782274601548
 21
-18.71399695716233
 31
0.0
 11
-16.19382550426711
 21
-18.84899159418478
 31
0.0
  0
SPLINE
  5
484E
330
1F
100
AcDbEntity
  8
AM_0
100
AcDbSpline
210
0.0
220
0.0
230
1.0
 70
     8
 71
     3
 72
    11
 73
     7
 74
     5
 42
0.0000000001
 43
0.0000000001
 44
0.0000000001
 40
0.0
 40
0.0
 40
0.0
 40
0.0
 40
0.086285559543223
 40
0.2832420580823217
 40
0.5820574079354019
 40
0.9522473521804556
 40
0.9522473521804556
 40
0.9522473521804556
 40
0.9522473521804556
 10
-16.19382550426711
 20
-18.84899159418478
 30
0.0
 10
-16.17013849494049
 20
-18.8659421392216
 30
0.0
 10
-16.09238322155518
 20
-18.92158421058631
 30
0.0
 10
-15.88970465833392
 20
-18.92861087824806
 30
0.0
 10
-15.60647495731067
 20
-18.95690641736843
 30
0.0
 10
-15.38266935219115
 20
-18.96083246818087
 30
0.0
 10
-15.25882790398166
 20
-18.96300492413029
 30
0.0
 11
-16.19382550426711
 21
-18.84899159418478
 31
0.0
 11
-16.12082744056271
 21
-18.89499681650893
 31
0.0
 11
-15.92682718398996
 21
-18.92899332760183
 31
0.0
 11
-15.62882302555328
 21
-18.95099639243983
 31
0.0
 11
-15.25882790398166
 21
-18.96300492413029
 31
0.0
  0
SPLINE
  5
484F
330
1F
100
AcDbEntity
  8
AM_0
100
AcDbSpline
210
0.0
220
0.0
230
1.0
 70
     8
 71
     3
 72
    11
 73
     7
 74
     5
 42
0.0000000001
 43
0.0000000001
 44
0.0000000001
 40
0.0
 40
0.0
 40
0.0
 40
0.0
 40
0.0731074365235382
 40
0.1471583414116715
 40
0.221271371585544
 40
0.2973804692520863
 40
0.2973804692520863
 40
0.2973804692520863
 40
0.2973804692520863
 10
-1.749835494418648
 20
9.136014298424992
 30
0.0
 10
-1.748387815443534
 20
9.160341497488991
 30
0.0
 10
-1.745473774861551
 20
9.209309843743298
 30
0.0
 10
-1.743195603031799
 20
9.283040236632494
 30
0.0
 10
-1.738677856082095
 20
9.357665866675215
 30
0.0
 10
-1.736128054394472
 20
9.407674708545322
 30
0.0
 10
-1.734836213382343
 20
9.433011374220342
 30
0.0
 11
-1.749835494418648
 21
9.136014298424992
 31
0.0
 11
-1.74583771837449
 21
9.209012346767012
 31
0.0
 11
-1.742831763993052
 21
9.283002216026311
 31
0.0
 11
-1.738833988327194
 21
9.357007344438326
 31
0.0
 11
-1.734836213382343
 21
9.433011374220342
 31
0.0
  0
ELLIPSE
  5
4850
330
1F
100
AcDbEntity
  8
AM_0
100
AcDbEllipse
 10
-303.0728302433262
 20
0.1178987316218915
 30
0.0
 11
435.6109160327578
 21
-0.2579929730109176
 31
0.0
210
0.0
220
0.0
230
1.0
 40
0.05821936702
 41
5.442138976444003
 42
5.473852057468613
  0
ELLIPSE
  5
4851
330
1F
100
AcDbEntity
  8
AM_0
100
AcDbEllipse
 10
-1.731843519933993
 20
4.044019065744429
 30
0.0
 11
40.69764902953675
 21
-2.142358600664187
 31
0.0
210
0.0
220
0.0
230
1.0
 40
0.1914903201373
 41
1.709289048662168
 42
1.734671230836167
  0
ELLIPSE
  5
4852
330
1F
100
AcDbEntity
  8
AM_0
100
AcDbEllipse
 10
-59.95581815069515
 20
-20.9320154107206
 30
0.0
 11
-77.16336515491839
 21
-51.10828445448088
 31
0.0
210
0.0
220
0.0
230
1.0
 40
0.033828956911
 41
4.061702786752128
 42
4.093024815773219
  0
SPLINE
  5
4853
330
1F
100
AcDbEntity
  8
AM_0
100
AcDbSpline
210
0.0
220
0.0
230
1.0
 70
     8
 71
     3
 72
    11
 73
     7
 74
     5
 42
0.0000000001
 43
0.0000000001
 44
0.0000000001
 40
0.0
 40
0.0
 40
0.0
 40
0.0
 40
1.250773846824072
 40
2.498331992764
 40
3.743664978531235
 40
4.985864260325595
 40
4.985864260325595
 40
4.985864260325595
 40
4.985864260325595
 10
-14.39084309856494
 20
12.23799942161929
 30
0.0
 10
-13.97419223405059
 20
12.22286799800201
 30
0.0
 10
-13.14196170151099
 20
12.19264405318969
 30
0.0
 10
-11.8946092200666
 20
12.1557461109014
 30
0.0
 10
-10.64991013360931
 20
12.12660525665147
 30
0.0
 10
-9.820844743064517
 20
12.1128609541057
 30
0.0
 10
-9.406834261220662
 20
12.10599746012263
 30
0.0
 11
-14.39084309856494
 21
12.23799942161929
 31
0.0
 11
-13.14084308247721
 21
12.19400878989215
 31
0.0
 11
-11.89383379159522
 21
12.15700668245128
 31
0.0
 11
-10.64883866379727
 21
12.12800017974381
 31
0.0
 11
-9.406834261220662
 21
12.10599746012263
 31
0.0
  0
ELLIPSE
  5
4854
330
1F
100
AcDbEntity
  8
AM_0
100
AcDbEllipse
 10
-13.65285403403214
 20
18.44100262119694
 30
0.0
 11
40.60826752537718
 21
-1.445953953771505
 31
0.0
210
0.0
220
0.0
230
0.9999999999999998
 40
0.1901365452931
 41
4.645827255761395
 42
4.825566369274593
  0
SPLINE
  5
4855
330
1F
100
AcDbEntity
  8
AM_0
100
AcDbSpline
210
0.0
220
0.0
230
1.0
 70
     8
 71
     3
 72
    11
 73
     7
 74
     5
 42
0.0000000001
 43
0.0000000001
 44
0.0000000001
 40
0.0
 40
0.0
 40
0.0
 40
0.0
 40
0.3601027747022432
 40
0.7120624229618161
 40
1.061342440034724
 40
1.411370332121389
 40
1.411370332121389
 40
1.411370332121389
 40
1.411370332121389
 10
-9.368839876460667
 20
12.10599747401741
 30
0.0
 10
-9.251260153821039
 20
12.08119369264188
 30
0.0
 10
-9.018759578774986
 20
12.03214702622982
 30
0.0
 10
-8.664842042136283
 20
12.00809767866093
 30
0.0
 10
-8.31362665597431
 20
12.01977783639532
 30
0.0
 10
-8.083854775742748
 20
12.06058079290383
 30
0.0
 10
-7.968845970830333
 20
12.08100408952398
 30
0.0
 11
-9.368839876460667
 21
12.10599747401741
 31
0.0
 11
-9.014835946076175
 21
12.04000334078887
 31
0.0
 11
-8.663838011757475
 21
12.01400249259102
 31
0.0
 11
-8.314838993450157
 21
12.02801018858215
 31
0.0
 11
-7.968845970830333
 21
12.08100408952398
 31
0.0
  0
ELLIPSE
  5
4856
330
1F
100
AcDbEntity
  8
AM_0
100
AcDbEllipse
 10
-5.111847992796223
 20
2.923015632395483
 30
0.0
 11
39.80476444035399
 21
-1.417343315267624
 31
0.0
210
0.0
220
0.0
230
1.0
 40
0.1901328229447
 41
1.498963478843712
 42
1.684074863650915
  0
ELLIPSE
  5
4857
330
1F
100
AcDbEntity
  8
AM_0
100
AcDbEllipse
 10
-16.54884764244012
 20
11.64499631309343
 30
0.0
 11
-0.6902845304846116
 21
-0.4804003453014312
 31
0.0
210
0.0
220
0.0
230
1.0
 40
0.9500661287304
 41
0.7853981046130802
 42
0.8855755654228596
  0
ELLIPSE
  5
4858
330
1F
100
AcDbEntity
  8
AM_0
100
AcDbEllipse
 10
-16.54884764244012
 20
11.64499631309343
 30
0.0
 11
-0.6902845304846116
 21
-0.4804003453014312
 31
0.0
210
0.0
220
0.0
230
1.0
 40
0.9500661287304
 41
0.5392274071601989
 42
0.7853981046130802
  0
ELLIPSE
  5
4859
330
1F
100
AcDbEntity
  8
AM_0
100
AcDbEllipse
 10
-16.54884764244012
 20
11.64499631309343
 30
0.0
 11
-0.6902845304846116
 21
-0.4804003453014312
 31
0.0
210
0.0
220
0.0
230
1.0
 40
0.9500661287304
 41
0.224407853357569
 42
0.5392274071601989
  0
ELLIPSE
  5
485A
330
1F
100
AcDbEntity
  8
AM_0
100
AcDbEllipse
 10
-16.54884764244012
 20
11.64499631309343
 30
0.0
 11
-0.6902845304846116
 21
-0.4804003453014312
 31
0.0
210
0.0
220
0.0
230
1.0
 40
0.9500661287304
 41
0.0999154197226577
 42
0.224407853357569
  0
ELLIPSE
  5
485B
330
1F
100
AcDbEntity
  8
AM_0
100
AcDbEllipse
 10
-16.54884764244012
 20
11.64499631309343
 30
0.0
 11
-0.6902845304846116
 21
-0.4804003453014312
 31
0.0
210
0.0
220
0.0
230
1.0
 40
0.9500661287304
 41
6.070099335633095
 42
6.383100726902243
  0
ELLIPSE
  5
485C
330
1F
100
AcDbEntity
  8
AM_0
100
AcDbEllipse
 10
-16.54884764244012
 20
11.64499631309343
 30
0.0
 11
-0.6902845304846116
 21
-0.4804003453014312
 31
0.0
210
0.0
220
0.0
230
1.0
 40
0.9500661287304
 41
5.64686910717019
 42
6.069932463209534
  0
LINE
  5
485D
330
1F
100
AcDbEntity
  8
AM_0
100
AcDbLine
 10
-1.750591662208788
 20
-9.380648299512783
 30
0.0
 11
-1.750598523330974
 21
9.380643204395964
 31
0.0
  0
LINE
  5
485E
330
1F
100
AcDbEntity
  8
AM_0
100
AcDbLine
 10
-12.00087139665747
 20
4.499993703856443
 30
0.0
 11
-12.00086700818207
 21
-7.500006296142754
 31
0.0
  0
LINE
  5
485F
330
1F
100
AcDbEntity
  8
AM_0
100
AcDbLine
 10
-3.747851253536873
 20
7.499996722037967
 30
0.0
 11
-12.00084197619632
 21
7.499993703867403
 31
0.0
  0
LINE
  5
4860
330
1F
100
AcDbEntity
  8
AM_0
100
AcDbLine
 10
-3.621830623976576
 20
12.17399273980481
 30
0.0
 11
-6.946827529442694
 21
12.05700238808254
 31
0.0
  0
LINE
  5
4861
330
1F
100
AcDbEntity
  8
AM_0
100
AcDbLine
 10
-3.241825745195532
 20
12.18500972447498
 30
0.0
 11
-6.933827041152691
 21
12.0570023928369
 31
0.0
  0
LINE
  5
4862
330
1F
100
AcDbEntity
  8
AM_0
100
AcDbLine
 10
-1.734836213382343
 20
9.433011374220342
 30
0.0
 11
-15.63980474121724
 21
10.16068268068603
 31
0.0
  0
LINE
  5
4863
330
1F
100
AcDbEntity
  8
AM_0
100
AcDbLine
 10
-9.20883508687535
 20
9.022989720031965
 30
0.0
 11
-6.248828316321518
 21
8.86799202323503
 31
0.0
  0
LINE
  5
4864
330
1F
100
AcDbEntity
  8
AM_0
100
AcDbLine
 10
-3.621830623976576
 20
12.17399273980481
 30
0.0
 11
-6.946827529442694
 21
12.05700238808254
 31
0.0
  0
LINE
  5
4865
330
1F
100
AcDbEntity
  8
AM_0
100
AcDbLine
 10
-3.241825745195532
 20
12.18500972447498
 30
0.0
 11
-6.933827041152691
 21
12.0570023928369
 31
0.0
  0
ARC
  5
4866
330
1F
100
AcDbEntity
  8
AM_0
100
AcDbCircle
 10
-3.74785198494944
 20
9.499996722037833
 30
0.0
 40
2.0
100
AcDbArc
 50
269.9999756465824
 51
356.9916964632072
  0
ARC
  5
4867
330
1F
100
AcDbEntity
  8
AM_0
100
AcDbCircle
 10
-3.36697878957665
 20
13.43325491796582
 30
0.0
 40
3.0
100
AcDbArc
 50
263.0165921636703
 51
319.8297710005724
  0
LINE
  5
4868
330
1F
100
AcDbEntity
  8
AM_0
100
AcDbLine
 10
-1.750628767323212
 20
8.632535294224851
 30
0.0
 11
-6.269870186809813
 21
8.868999095619887
 31
0.0
  0
LINE
  5
4869
330
1F
100
AcDbEntity
  8
AM_0
100
AcDbLine
 10
-1.749789812750815
 20
9.394971207621717
 30
0.0
 11
-1.699436160165679
 21
10.35561880904642
 31
0.0
  0
LINE
  5
486A
330
1F
100
AcDbEntity
  8
AM_0
100
AcDbLine
 10
-1.07429924898184
 20
11.49841078570299
 30
0.0
 11
-0.9218490255906136
 21
12.42300190591506
 31
0.0
  0
LINE
  5
486B
330
1F
100
AcDbEntity
  8
AM_0
100
AcDbLine
 10
-3.621876400352157
 20
12.17400799857807
 30
0.0
 11
-3.241871521565533
 21
12.18500972445824
 31
0.0
  0
LINE
  5
486C
330
1F
100
AcDbEntity
  8
AM_0
100
AcDbLine
 10
-1.981815315438365
 20
10.36897014620859
 30
0.0
 11
-1.967823005500071
 21
10.36796307124567
 31
0.0
  0
LINE
  5
486D
330
1F
100
AcDbEntity
  8
AM_0
100
AcDbLine
 10
-1.749835325460291
 20
8.674008683195026
 30
0.0
 11
-1.749835524401251
 21
9.217999772054985
 31
0.0
  0
LINE
  5
486E
330
1F
100
AcDbEntity
  8
AM_0
100
AcDbLine
 10
-1.734836213387923
 20
9.433026633010342
 30
0.0
 11
-1.656315046517427
 21
10.96879326328612
 31
0.0
  0
LINE
  5
486F
330
1F
100
AcDbEntity
  8
AM_0
100
AcDbLine
 10
-1.981815315438365
 20
10.36897014620859
 30
0.0
 11
-1.967823005500071
 21
10.36796307124567
 31
0.0
  0
LINE
  5
4870
330
1F
100
AcDbEntity
  8
AM_0
100
AcDbLine
 10
-1.07429924898184
 20
11.49841078570299
 30
0.0
 11
-0.9218490255906136
 21
12.42300190591506
 31
0.0
  0
LINE
  5
4871
330
1F
100
AcDbEntity
  8
AM_0
100
AcDbLine
 10
-3.621876400352157
 20
12.17400799857807
 30
0.0
 11
-3.241871521565533
 21
12.18500972445824
 31
0.0
  0
LINE
  5
4872
330
1F
100
AcDbEntity
  8
AM_0
100
AcDbLine
 10
-9.163852175995499
 20
9.021021352702502
 30
0.0
 11
-12.31285431153995
 21
9.186028746012643
 31
0.0
  0
LINE
  5
4873
330
1F
100
AcDbEntity
  8
AM_0
100
AcDbLine
 10
-7.968845970830333
 20
12.08100408952398
 30
0.0
 11
-6.933857558732692
 21
12.05700239282574
 31
0.0
  0
LINE
  5
4874
330
1F
100
AcDbEntity
  8
AM_0
100
AcDbLine
 10
-6.946842788232695
 20
12.05700238807696
 30
0.0
 11
-6.933842299942692
 21
12.05700239283132
 31
0.0
  0
LINE
  5
4875
330
1F
100
AcDbEntity
  8
AM_0
100
AcDbLine
 10
-9.368839876471827
 20
12.10602799159741
 30
0.0
 11
-9.404835363158584
 21
12.11501540519364
 31
0.0
  0
LINE
  5
4876
330
1F
100
AcDbEntity
  8
AM_0
100
AcDbLine
 10
-9.404850621937423
 20
12.11498488760806
 30
0.0
 11
-9.406849520005081
 21
12.10598220133705
 31
0.0
  0
LINE
  5
4877
330
1F
100
AcDbEntity
  8
AM_0
100
AcDbLine
 10
-9.406834261220662
 20
12.10599746012263
 30
0.0
 11
-9.339832369528528
 21
10.60500566334554
 31
0.0
  0
LINE
  5
4878
330
1F
100
AcDbEntity
  8
AM_0
100
AcDbLine
 10
-7.983844792172456
 20
10.52700322954871
 30
0.0
 11
-7.980838830475329
 21
10.58098882634801
 31
0.0
  0
LINE
  5
4879
330
1F
100
AcDbEntity
  8
AM_0
100
AcDbLine
 10
-7.968845970830333
 20
12.08100408952398
 30
0.0
 11
-6.933857558732692
 21
12.05700239282574
 31
0.0
  0
LINE
  5
487A
330
1F
100
AcDbEntity
  8
AM_0
100
AcDbLine
 10
-6.946842788232695
 20
12.05700238807696
 30
0.0
 11
-6.933842299942692
 21
12.05700239283132
 31
0.0
  0
LINE
  5
487B
330
1F
100
AcDbEntity
  8
AM_0
100
AcDbLine
 10
-9.368839876471827
 20
12.10602799159741
 30
0.0
 11
-9.404835363158584
 21
12.11501540519364
 31
0.0
  0
LINE
  5
487C
330
1F
100
AcDbEntity
  8
AM_0
100
AcDbLine
 10
-9.404850621937423
 20
12.11498488760806
 30
0.0
 11
-9.406849520005081
 21
12.10598220133705
 31
0.0
  0
LINE
  5
487D
330
1F
100
AcDbEntity
  8
AM_0
100
AcDbLine
 10
-9.406834261220662
 20
12.10599746012263
 30
0.0
 11
-9.339832369528528
 21
10.60500566334554
 31
0.0
  0
LINE
  5
487E
330
1F
100
AcDbEntity
  8
AM_0
100
AcDbLine
 10
-12.00087139665747
 20
4.499993703856443
 30
0.0
 11
-12.00087249377632
 21
7.499993703856243
 31
0.0
  0
LINE
  5
487F
330
1F
100
AcDbEntity
  8
AM_0
100
AcDbLine
 10
-16.62984099855892
 20
10.83499872487359
 30
0.0
 11
-16.33183691655472
 21
11.02199529382557
 31
0.0
  0
LINE
  5
4880
330
1F
100
AcDbEntity
  8
AM_0
100
AcDbLine
 10
-16.71283355481908
 20
10.84197196113269
 30
0.0
 11
-16.63183989955504
 21
10.83397638528258
 31
0.0
  0
LINE
  5
4881
330
1F
100
AcDbEntity
  8
AM_0
100
AcDbLine
 10
-16.903812580319
 20
10.90100814617047
 30
0.0
 11
-16.71283355483024
 21
10.84200247870269
 31
0.0
  0
LINE
  5
4882
330
1F
100
AcDbEntity
  8
AM_0
100
AcDbLine
 10
-17.11186621965663
 20
11.03900855836395
 30
0.0
 11
-16.90387361548458
 21
10.90102340493815
 31
0.0
  0
LINE
  5
4883
330
1F
100
AcDbEntity
  8
AM_0
100
AcDbLine
 10
-17.18085123060316
 20
11.10900059856571
 30
0.0
 11
-17.11183570207105
 21
11.03899329958512
 31
0.0
  0
LINE
  5
4884
330
1F
100
AcDbEntity
  8
AM_0
100
AcDbLine
 10
-17.31285509084176
 20
11.31697784521108
 30
0.0
 11
-17.180851230592
 21
11.1089700809857
 31
0.0
  0
LINE
  5
4885
330
1F
100
AcDbEntity
  8
AM_0
100
AcDbLine
 10
-17.37486693064937
 20
11.64800199245298
 30
0.0
 11
-17.31287034964292
 21
11.3170083627855
 31
0.0
  0
LINE
  5
4886
330
1F
100
AcDbEntity
  8
AM_0
100
AcDbLine
 10
-16.6288339184845
 20
10.83501398403189
 30
0.0
 11
-16.62982573904349
 21
10.83301508230917
 31
0.0
  0
LINE
  5
4887
330
1F
100
AcDbEntity
  8
AM_0
100
AcDbLine
 10
-16.62984099782791
 20
10.83299982351359
 30
0.0
 11
-16.62984099855892
 21
10.83499872487359
 31
0.0
  0
LINE
  5
4888
330
1F
100
AcDbEntity
  8
AM_0
100
AcDbLine
 10
-16.62984099855892
 20
10.83499872487359
 30
0.0
 11
-16.6318551583562
 21
10.834006902857
 31
0.0
  0
LINE
  5
4889
330
1F
100
AcDbEntity
  8
AM_0
100
AcDbLine
 10
-16.63183989956062
 20
10.83399164407258
 30
0.0
 11
-16.62981048024233
 21
10.83298456473475
 31
0.0
  0
LINE
  5
488A
330
1F
100
AcDbEntity
  8
AM_0
100
AcDbLine
 10
-16.62984099855892
 20
10.83499872487359
 30
0.0
 11
-16.33183691655472
 21
11.02199529382557
 31
0.0
  0
LINE
  5
488B
330
1F
100
AcDbEntity
  8
AM_0
100
AcDbLine
 10
-16.71283355481908
 20
10.84197196113269
 30
0.0
 11
-16.63183989955504
 21
10.83397638528258
 31
0.0
  0
LINE
  5
488C
330
1F
100
AcDbEntity
  8
AM_0
100
AcDbLine
 10
-16.903812580319
 20
10.90100814617047
 30
0.0
 11
-16.71283355483024
 21
10.84200247870269
 31
0.0
  0
LINE
  5
488D
330
1F
100
AcDbEntity
  8
AM_0
100
AcDbLine
 10
-17.11186621965663
 20
11.03900855836395
 30
0.0
 11
-16.90387361548458
 21
10.90102340493815
 31
0.0
  0
LINE
  5
488E
330
1F
100
AcDbEntity
  8
AM_0
100
AcDbLine
 10
-17.18085123060316
 20
11.10900059856571
 30
0.0
 11
-17.11183570207105
 21
11.03899329958512
 31
0.0
  0
LINE
  5
488F
330
1F
100
AcDbEntity
  8
AM_0
100
AcDbLine
 10
-17.31285509084176
 20
11.31697784521108
 30
0.0
 11
-17.180851230592
 21
11.1089700809857
 31
0.0
  0
LINE
  5
4890
330
1F
100
AcDbEntity
  8
AM_0
100
AcDbLine
 10
-17.37486693064937
 20
11.64800199245298
 30
0.0
 11
-17.31287034964292
 21
11.3170083627855
 31
0.0
  0
LINE
  5
4891
330
1F
100
AcDbEntity
  8
AM_0
100
AcDbLine
 10
-16.6288339184845
 20
10.83501398403189
 30
0.0
 11
-16.62982573904349
 21
10.83301508230917
 31
0.0
  0
LINE
  5
4892
330
1F
100
AcDbEntity
  8
AM_0
100
AcDbLine
 10
-16.62984099782791
 20
10.83299982351359
 30
0.0
 11
-16.62984099855892
 21
10.83499872487359
 31
0.0
  0
LINE
  5
4893
330
1F
100
AcDbEntity
  8
AM_0
100
AcDbLine
 10
-16.62984099855892
 20
10.83499872487359
 30
0.0
 11
-16.6318551583562
 21
10.834006902857
 31
0.0
  0
LINE
  5
4894
330
1F
100
AcDbEntity
  8
AM_0
100
AcDbLine
 10
-16.63183989956062
 20
10.83399164407258
 30
0.0
 11
-16.62981048024233
 21
10.83298456473475
 31
0.0
  0
LINE
  5
4895
330
1F
100
AcDbEntity
  8
AM_11
100
AcDbLine
 10
0.0000073141256671
 20
-20.00000190734844
 30
0.0
 11
-12.99999268587346
 21
-20.00000666153013
 31
0.0
  0
LINE
  5
4896
330
1F
100
AcDbEntity
  8
AM_0
100
AcDbLine
 10
-12.31284400371863
 20
-19.00003692781547
 30
0.0
 11
-1.483254402318965
 21
-18.33734375838646
 31
0.0
  0
LINE
  5
4897
330
1F
100
AcDbEntity
  8
AM_0
100
AcDbLine
 10
-3.747845767942623
 20
-7.50000327796103
 30
0.0
 11
-12.00083649060207
 21
-7.500006296131594
 31
0.0
  0
LINE
  5
4898
330
1F
100
AcDbEntity
  8
AM_0
100
AcDbLine
 10
-14.1658407710226
 20
-19.16100257128804
 30
0.0
 11
-1.854805850655547
 21
-18.51599379660518
 31
0.0
  0
LINE
  5
4899
330
1F
100
AcDbEntity
  8
AM_0
100
AcDbLine
 10
-1.749737164762205
 20
-9.395022078490287
 30
0.0
 11
-1.292199182023084
 21
-18.12527703812635
 31
0.0
  0
ARC
  5
489A
330
1F
100
AcDbEntity
  8
AM_0
100
AcDbCircle
 10
-3.747845036530056
 20
-9.500003277960898
 30
0.0
 40
2.0
100
AcDbArc
 50
3.008277141753285
 51
90.00000478856811
  0
LINE
  5
489B
330
1F
100
AcDbEntity
  8
AM_0
100
AcDbLine
 10
-1.154826905090866
 20
-11.01301807674797
 30
0.0
 11
-1.153819823548844
 21
-11.01701587911968
 31
0.0
  0
LINE
  5
489C
330
1F
100
AcDbEntity
  8
AM_0
100
AcDbLine
 10
-1.111840450467111
 20
-17.700991083488
 30
0.0
 11
-0.0408561885377593
 21
-18.7269764096024
 31
0.0
  0
LINE
  5
489D
330
1F
100
AcDbEntity
  8
AM_0
100
AcDbLine
 10
-0.1158536571737321
 20
-17.30398754542935
 30
0.0
 11
-1.371852032185745
 21
-12.73498776061554
 31
0.0
  0
LINE
  5
489E
330
1F
100
AcDbEntity
  8
AM_0
100
AcDbLine
 10
-1.854836368241128
 20
-18.51597853782633
 30
0.0
 11
-0.7848286695372066
 21
-19.53998022171786
 31
0.0
  0
LINE
  5
489F
330
1F
100
AcDbEntity
  8
AM_0
100
AcDbLine
 10
-0.0408409297477589
 20
-18.72697640959682
 30
0.0
 11
-0.1158383983837317
 21
-17.30398754542377
 31
0.0
  0
LINE
  5
48A0
330
1F
100
AcDbEntity
  8
AM_0
100
AcDbLine
 10
-0.7838368475106151
 20
-19.54199438150515
 30
0.0
 11
-0.7858357488806163
 21
-19.54199438223616
 31
0.0
  0
LINE
  5
48A1
330
1F
100
AcDbEntity
  8
AM_0
100
AcDbLine
 10
-0.7848286695316263
 20
-19.53999548050786
 30
0.0
 11
-0.7838215887150345
 21
-19.54200964028957
 31
0.0
  0
LINE
  5
48A2
330
1F
100
AcDbEntity
  8
AM_0
100
AcDbLine
 10
-0.7858204900906159
 20
-19.54199438223058
 30
0.0
 11
-0.7858204908216266
 21
-19.53999548087058
 31
0.0
  0
LINE
  5
48A3
330
1F
100
AcDbEntity
  8
AM_0
100
AcDbLine
 10
-0.7847981519516254
 20
-19.5399954804967
 30
0.0
 11
-0.7858052313006155
 21
-19.541994382225
 31
0.0
  0
LINE
  5
48A4
330
1F
100
AcDbEntity
  8
AM_0
100
AcDbLine
 10
-1.11180993288711
 20
-17.70099108347684
 30
0.0
 11
-1.371806255810164
 21
-12.7350030193788
 31
0.0
  0
LINE
  5
48A5
330
1F
100
AcDbEntity
  8
AM_0
100
AcDbLine
 10
-1.453807201087067
 20
-12.15298705815702
 30
0.0
 11
-1.371806255821324
 21
-12.7349725018088
 31
0.0
  0
LINE
  5
48A6
330
1F
100
AcDbEntity
  8
AM_0
100
AcDbLine
 10
-1.292214440769599
 20
-18.12536859086193
 30
0.0
 11
-1.483101814417804
 21
-18.33737427590066
 31
0.0
  0
LINE
  5
48A7
330
1F
100
AcDbEntity
  8
AM_0
100
AcDbLine
 10
-1.281823917585936
 20
-16.17799615054193
 30
0.0
 11
-1.281823147407477
 21
-18.28399895815178
 31
0.0
  0
LINE
  5
48A8
330
1F
100
AcDbEntity
  8
AM_0
100
AcDbLine
 10
-14.16581025342586
 20
-19.16104834764688
 30
0.0
 11
-15.1718066532579
 21
-19.99304944796614
 31
0.0
  0
LINE
  5
48A9
330
1F
100
AcDbEntity
  8
AM_0
100
AcDbLine
 10
-15.2908104070385
 20
-18.74100481375648
 30
0.0
 11
-15.185814711317
 21
-18.65399916011888
 31
0.0
  0
LINE
  5
48AA
330
1F
100
AcDbEntity
  8
AM_0
100
AcDbLine
 10
-15.17183717085464
 20
-19.9930036716073
 30
0.0
 11
-15.18582948042464
 21
-19.99300367672438
 31
0.0
  0
LINE
  5
48AB
330
1F
100
AcDbEntity
  8
AM_0
100
AcDbLine
 10
-13.67482831407474
 20
-18.84300922766168
 30
0.0
 11
-13.67182232568292
 21
-18.86199116015237
 31
0.0
  0
LINE
  5
48AC
330
1F
100
AcDbEntity
  8
AM_0
100
AcDbLine
 10
-13.67185284324619
 20
-18.86203693653353
 30
0.0
 11
-13.6688468665617
 21
-18.84900592957422
 31
0.0
  0
LINE
  5
48AD
330
1F
100
AcDbEntity
  8
AM_0
100
AcDbLine
 10
-15.29084092462408
 20
-18.74098955497764
 30
0.0
 11
-15.30184254188498
 21
-18.657997005291
 31
0.0
  0
LINE
  5
48AE
330
1F
100
AcDbEntity
  8
AM_0
100
AcDbLine
 10
-15.25882790398166
 20
-18.96300492413029
 30
0.0
 11
-15.2908256658285
 21
-18.74100481376206
 31
0.0
  0
LINE
  5
48AF
330
1F
100
AcDbEntity
  8
AM_0
100
AcDbLine
 10
-16.02282007311942
 20
-19.34700788906705
 30
0.0
 11
-16.09381934551953
 21
-19.00000779296191
 31
0.0
  0
LINE
  5
48B0
330
1F
100
AcDbEntity
  8
AM_0
100
AcDbLine
 10
-16.02282007311384
 20
-19.34702314785705
 30
0.0
 11
-15.60382911114399
 21
-19.0000228725594
 31
0.0
  0
LINE
  5
48B1
330
1F
100
AcDbEntity
  8
AM_0
100
AcDbLine
 10
-16.0228353304474
 20
-19.35100569181263
 30
0.0
 11
-16.02283533190942
 21
-19.34700788907263
 31
0.0
  0
SPLINE
  5
48B2
330
1F
100
AcDbEntity
  8
AM_0
100
AcDbSpline
210
0.0
220
0.0
230
1.0
 70
     8
 71
     3
 72
    11
 73
     7
 74
     5
 42
0.0000000001
 43
0.0000000001
 44
0.0000000001
 40
0.0
 40
0.0
 40
0.0
 40
0.0
 40
2.930347392352699
 40
5.200080773321769
 40
6.620618145883312
 40
7.208299035412357
 40
7.208299035412357
 40
7.208299035412357
 40
7.208299035412357
 10
-23.08684161066304
 20
10.50600161253788
 30
0.0
 10
-23.93359975040037
 20
11.02453691801824
 30
0.0
 10
-25.43622388759067
 20
11.94470954988906
 30
0.0
 10
-26.6706654094844
 20
13.78337494545012
 30
0.0
 10
-27.31764494996117
 20
15.1362718475366
 30
0.0
 10
-27.21413475472351
 20
15.80601116568089
 30
0.0
 10
-27.1838437426553
 20
16.00200231149882
 30
0.0
 11
-23.08684161066304
 21
10.50600161253788
 31
0.0
 11
-25.45784443767915
 21
12.22800086751736
 31
0.0
 11
-26.7798360792076
 21
14.07300160475683
 31
0.0
 11
-27.23984328457467
 21
15.4169955771594
 31
0.0
 11
-27.1838437426553
 21
16.00200231149882
 31
0.0
  0
ARC
  5
48B3
330
1F
100
AcDbEntity
  8
AM_0
100
AcDbCircle
 10
-17.84384868034627
 20
19.48999706020393
 30
0.0
 40
9.9700422286987
100
AcDbArc
 50
200.4780431135082
 51
267.0022875821318
  0
ARC
  5
48B4
330
1F
100
AcDbEntity
  8
AM_0
100
AcDbCircle
 10
-17.77584025603426
 20
19.48599928234504
 30
0.0
 40
9.172987937927199
100
AcDbArc
 50
201.8837814220582
 51
266.9967278081467
  0
LINE
  5
48B5
330
1F
100
AcDbEntity
  8
AM_0
100
AcDbLine
 10
-40.00084471899158
 20
14.99998346409096
 30
0.0
 11
-40.0008411350633
 21
5.199965153541621
 31
0.0
  0
SPLINE
  5
48B6
330
1F
100
AcDbEntity
  8
AM_0
100
AcDbSpline
210
0.0
220
0.0
230
1.0
 70
     8
 71
     3
 72
    11
 73
     7
 74
     5
 42
0.0000000001
 43
0.0000000001
 44
0.0000000001
 40
0.0
 40
0.0
 40
0.0
 40
0.0
 40
0.3186207982269051
 40
0.6030680968218149
 40
0.8095516462684228
 40
0.8988182723050551
 40
0.8988182723050551
 40
0.8988182723050551
 40
0.8988182723050551
 10
-26.28784767267158
 20
16.06698982179022
 30
0.0
 10
-26.39386636157882
 20
16.06035361639585
 30
0.0
 10
-26.59453276283898
 20
16.04779296819095
 30
0.0
 10
-26.8636024821988
 20
16.03054450134482
 30
0.0
 10
-27.05757631841291
 20
16.0256133149744
 30
0.0
 10
-27.15456848272909
 20
16.00747655212749
 30
0.0
 10
-27.1838437426553
 20
16.00200231149882
 30
0.0
 11
-26.28784767267158
 21
16.06698982179022
 31
0.0
 11
-26.60584082943145
 21
16.04700069182812
 31
0.0
 11
-26.88983740560777
 21
16.03099411823878
 31
0.0
 11
-27.09584631162068
 21
16.01700173333003
 31
0.0
 11
-27.1838437426553
 21
16.00200231149882
 31
0.0
  0
LINE
  5
48B7
330
1F
100
AcDbEntity
  8
AM_0
100
AcDbLine
 10
-28.29686559250864
 20
15.99998774430974
 30
0.0
 11
-39.00084508469793
 21
15.99998382979718
 31
0.0
  0
ARC
  5
48B8
330
1F
100
AcDbEntity
  8
AM_0
100
AcDbCircle
 10
-28.29687656369714
 20
45.99998774430773
 30
0.0
 40
30.0
100
AcDbArc
 50
269.9999756465824
 51
280.001100629342
  0
LINE
  5
48B9
330
1F
100
AcDbEntity
  8
AM_0
100
AcDbLine
 10
-23.08679801024315
 20
16.45596804321422
 30
0.0
 11
-20.82681890774257
 21
16.8539638648228
 31
0.0
  0
ARC
  5
48BA
330
1F
100
AcDbEntity
  8
AM_0
100
AcDbCircle
 10
-21.00087627480906
 20
17.83897967030899
 30
0.0
 40
1.000250577926599
100
AcDbArc
 50
280.0179233852639
 51
359.9999849812452
  0
ARC
  5
48BB
330
1F
100
AcDbEntity
  8
AM_0
100
AcDbCircle
 10
-19.00087633369183
 20
17.99999114391155
 30
0.0
 40
1.0
100
AcDbArc
 50
90.00000478856811
 51
180.0000072930465
  0
LINE
  5
48BC
330
1F
100
AcDbEntity
  8
AM_0
100
AcDbLine
 10
-20.00087633369176
 20
17.99999077820527
 30
0.0
 11
-20.00087627480912
 21
17.83898003601527
 31
0.0
  0
ARC
  5
48BD
330
1F
100
AcDbEntity
  8
AM_0
100
AcDbCircle
 10
-39.00084471899164
 20
14.99998382979725
 30
0.0
 40
1.0
100
AcDbArc
 50
90.00000478856811
 51
180.0000072930465
  0
ELLIPSE
  5
48BE
330
1F
100
AcDbEntity
  8
AM_0
100
AcDbEllipse
 10
-18.3248481278612
 20
10.3020086030488
 30
0.0
 11
-0.0422131249040091
 21
-0.7988815190976572
 31
0.0
210
0.0
220
0.0
230
0.9999999999999998
 40
0.0837446074292
 41
0.0
 42
1.570799754670849
  0
SPLINE
  5
48BF
330
1F
100
AcDbEntity
  8
AM_0
100
AcDbSpline
210
0.0
220
0.0
230
1.0
 70
     8
 71
     3
 72
    11
 73
     7
 74
     5
 42
0.0000000001
 43
0.0000000001
 44
0.0000000001
 40
0.0
 40
0.0
 40
0.0
 40
0.0
 40
0.0565676794929007
 40
0.2220385836671941
 40
0.4882006789385946
 40
0.8369563311705594
 40
0.8369563311705594
 40
0.8369563311705594
 40
0.8369563311705594
 10
-20.00084274454951
 20
9.601003961806995
 30
0.0
 10
-20.01950520534445
 20
9.603699113108859
 30
0.0
 10
-20.09275880881199
 20
9.614278079458534
 30
0.0
 10
-20.25424223417948
 20
9.63449387937465
 30
0.0
 10
-20.51123712594496
 20
9.675153178840915
 30
0.0
 10
-20.71262693639825
 20
9.713345344671248
 30
0.0
 10
-20.82684682187508
 20
9.735006345282124
 30
0.0
 11
-20.00084274454951
 21
9.601003961806995
 31
0.0
 11
-20.05684250333355
 21
9.60899954679753
 31
0.0
 11
-20.22084397622023
 21
9.631002660651166
 31
0.0
 11
-20.48382922070431
 21
9.67200293068581
 31
0.0
 11
-20.82684682187508
 21
9.735006345282124
 31
0.0
  0
SPLINE
  5
48C0
330
1F
100
AcDbEntity
  8
AM_0
100
AcDbSpline
210
0.0
220
0.0
230
1.0
 70
     8
 71
     3
 72
    11
 73
     7
 74
     5
 42
0.0000000001
 43
0.0000000001
 44
0.0000000001
 40
0.0
 40
0.0
 40
0.0
 40
0.0
 40
0.0251873434444465
 40
0.1006109219295933
 40
0.2260098460357232
 40
0.3983584088662878
 40
0.3983584088662878
 40
0.3983584088662878
 40
0.3983584088662878
 10
-20.00084274418121
 20
9.599996881726994
 30
0.0
 10
-19.99250745987489
 20
9.598991031996408
 30
0.0
 10
-19.95921214072167
 20
9.594973162111074
 30
0.0
 10
-19.88429996603938
 20
9.586909399298999
 30
0.0
 10
-19.76024253540307
 20
9.57758501677868
 30
0.0
 10
-19.66118066644916
 20
9.571513684524616
 30
0.0
 10
-19.60383955864949
 20
9.567999346253552
 30
0.0
 11
-20.00084274418121
 21
9.599996881726994
 31
0.0
 11
-19.97583358780748
 21
9.597006168223002
 31
0.0
 11
-19.90083663663787
 21
9.588995331389856
 31
0.0
 11
-19.77583663298282
 21
9.579000870263142
 31
0.0
 11
-19.60383955864949
 21
9.567999346253552
 31
0.0
  0
LINE
  5
48C1
330
1F
100
AcDbEntity
  8
AM_0
100
AcDbLine
 10
-34.40085600796685
 20
-4.200026658418629
 30
0.0
 11
-34.4008590798974
 21
4.199967238060807
 31
0.0
  0
LINE
  5
48C2
330
1F
100
AcDbEntity
  8
AM_0
100
AcDbLine
 10
-25.00086660590206
 20
-8.600017153844365
 30
0.0
 11
-25.0008726766286
 21
7.999988949674525
 31
0.0
  0
LINE
  5
48C3
330
1F
100
AcDbEntity
  8
AM_0
100
AcDbLine
 10
-22.0008713966568
 20
4.499990046793609
 30
0.0
 11
-22.00086660590226
 21
-8.600016056725515
 31
0.0
  0
LINE
  5
48C4
330
1F
100
AcDbEntity
  8
AM_0
100
AcDbLine
 10
-25.00084215904859
 20
7.999988949685686
 30
0.0
 11
-39.00084215904765
 21
7.999983829797719
 31
0.0
  0
LINE
  5
48C5
330
1F
100
AcDbEntity
  8
AM_0
100
AcDbLine
 10
-25.0008423784746
 20
8.599995053195643
 30
0.0
 11
-22.0008423784748
 21
8.599996150314492
 31
0.0
  0
LINE
  5
48C6
330
1F
100
AcDbEntity
  8
AM_0
100
AcDbLine
 10
-22.0008713966568
 20
4.499990046793609
 30
0.0
 11
-22.0008728960548
 21
8.599996150303333
 31
0.0
  0
LINE
  5
48C7
330
1F
100
AcDbEntity
  8
AM_0
100
AcDbLine
 10
-20.82683156309623
 20
9.735036862867705
 30
0.0
 11
-23.08681109310421
 21
10.50603213012904
 31
0.0
  0
LINE
  5
48C8
330
1F
100
AcDbEntity
  8
AM_0
100
AcDbLine
 10
-19.60383955866064
 20
9.568029863833553
 30
0.0
 11
-19.00084272115723
 21
9.537039483763281
 31
0.0
  0
LINE
  5
48C9
330
1F
100
AcDbEntity
  8
AM_0
100
AcDbLine
 10
-25.0008728960546
 20
8.599995053184482
 30
0.0
 11
-25.0008726766286
 21
7.999988949674525
 31
0.0
  0
LINE
  5
48CA
330
1F
100
AcDbEntity
  8
AM_0
100
AcDbLine
 10
-39.00084076935709
 20
4.199965519247972
 30
0.0
 11
-39.00084215904765
 21
7.999983829797719
 31
0.0
  0
LINE
  5
48CB
330
1F
100
AcDbEntity
  8
AM_0
100
AcDbLine
 10
-40.00078009991447
 20
5.199995671143943
 30
0.0
 11
-39.00077973420824
 21
4.199996036850293
 31
0.0
  0
ARC
  5
48CC
330
1F
100
AcDbEntity
  8
AM_0
100
AcDbCircle
 10
-39.00084252475394
 20
8.999983829797651
 30
0.0
 40
1.0
100
AcDbArc
 50
180.0000072930465
 51
270.0000029673359
  0
LINE
  5
48CD
330
1F
100
AcDbEntity
  8
AM_0
100
AcDbLine
 10
-34.4008590798974
 20
4.199967238060807
 30
0.0
 11
-39.00084076935709
 21
4.199965519247972
 31
0.0
  0
LINE
  5
48CE
330
1F
100
AcDbEntity
  8
AM_0
100
AcDbLine
 10
-28.29685388990757
 20
-16.00001225568812
 30
0.0
 11
-39.00083338209686
 21
-16.00001617020067
 31
0.0
  0
LINE
  5
48CF
330
1F
100
AcDbEntity
  8
AM_0
100
AcDbLine
 10
-25.00083630774806
 20
-8.000011050313243
 30
0.0
 11
-39.00083630774712
 21
-8.000016170201211
 31
0.0
  0
LINE
  5
48D0
330
1F
100
AcDbEntity
  8
AM_0
100
AcDbLine
 10
-25.00083608832206
 20
-8.600017153833205
 30
0.0
 11
-22.00083608832226
 21
-8.600016056714355
 31
0.0
  0
ARC
  5
48D1
330
1F
100
AcDbEntity
  8
AM_0
100
AcDbCircle
 10
-28.29684291872466
 20
-45.99999699689611
 30
0.0
 40
30.0
100
AcDbArc
 50
79.99889346618947
 51
90.00001844894809
  0
LINE
  5
48D2
330
1F
100
AcDbEntity
  8
AM_0
100
AcDbLine
 10
-23.08686226805702
 20
-16.45603452028147
 30
0.0
 11
-20.8268676156779
 21
-16.85402868890726
 31
0.0
  0
ARC
  5
48D3
330
1F
100
AcDbEntity
  8
AM_0
100
AcDbCircle
 10
-21.00086322713698
 20
-17.83902936288861
 30
0.0
 40
1.000250577926599
100
AcDbArc
 50
359.9999849812452
 51
79.98204657722836
  0
ARC
  5
48D4
330
1F
100
AcDbEntity
  8
AM_0
100
AcDbCircle
 10
-19.00086316826563
 20
-18.00000885608603
 30
0.0
 40
1.0
100
AcDbArc
 50
179.9999799722931
 51
269.9999824767667
  0
LINE
  5
48D5
330
1F
100
AcDbEntity
  8
AM_0
100
AcDbLine
 10
-20.00086316826556
 20
-18.00000922179232
 30
0.0
 11
-20.00086322713704
 21
-17.83902899718233
 31
0.0
  0
LINE
  5
48D6
330
1F
100
AcDbEntity
  8
AM_0
100
AcDbLine
 10
-40.00083374780308
 20
-15.00001653590702
 30
0.0
 11
-40.00083733172019
 21
-5.200028742937681
 31
0.0
  0
LINE
  5
48D7
330
1F
100
AcDbEntity
  8
AM_0
100
AcDbLine
 10
-34.40085600796685
 20
-4.200026658418629
 30
0.0
 11
-39.00083769742654
 21
-4.200028377231464
 31
0.0
  0
ARC
  5
48D8
330
1F
100
AcDbEntity
  8
AM_0
100
AcDbCircle
 10
-39.00083594204084
 20
-9.000016170201144
 30
0.0
 40
1.0
100
AcDbArc
 50
89.99998429800388
 51
179.9999799722931
  0
LINE
  5
48D9
330
1F
100
AcDbEntity
  8
AM_0
100
AcDbLine
 10
-39.00083630774712
 20
-8.000016170201211
 30
0.0
 11
-39.00083769742654
 21
-4.200028377231464
 31
0.0
  0
LINE
  5
48DA
330
1F
100
AcDbEntity
  8
AM_0
100
AcDbLine
 10
-40.00083733170902
 20
-5.200059260517682
 30
0.0
 11
-39.00080717984095
 21
-4.200043636010304
 31
0.0
  0
ARC
  5
48DB
330
1F
100
AcDbEntity
  8
AM_0
100
AcDbCircle
 10
-39.00083374780314
 20
-15.00001617020074
 30
0.0
 40
1.0
100
AcDbArc
 50
179.9999799722931
 51
269.9999824767667
  0
DIMENSION
  5
48F8
330
1F
100
AcDbEntity
  8
AM_5
100
AcDbDimension
  2
*D7
 10
-34.40085600796685
 20
-34.00001548796078
 30
0.0
 11
-50.48178612875545
 21
-34.00001548796078
 31
0.0
 70
   160
  1
<>
  3
AM_JIS$0
100
AcDbAlignedDimension
 13
-40.00083374780309
 23
-15.00001582065132
 33
0.0
 14
-34.40085600796685
 24
-4.200026658418629
 34
0.0
 50
0.0000209534266725
100
AcDbRotatedDimension
1001
ACAD
1000
DSTYLE
1002
{
1070
   271
1070
     1
1002
}
1001
GENIUS_GENDTOL_13
1000

1000
h7
1000

1040
0.0
  0
DIMENSION
  5
49AE
330
1F
100
AcDbEntity
  8
AM_5
100
AcDbDimension
  2
*D8
 10
-22.00083608832226
 20
-44.00001095319623
 30
0.0
 11
-31.00083491806267
 21
-40.60001095319623
 31
0.0
 70
    32
  1
<>
  3
AM_JIS$0
100
AcDbAlignedDimension
 13
-40.00083374780309
 23
-15.00001653590703
 33
0.0
 14
-22.00083608832226
 24
-8.600016056714354
 34
0.0
 50
0.0000209534266725
100
AcDbRotatedDimension
1001
ACAD
1000
DSTYLE
1002
{
1070
   271
1070
     0
1002
}
1001
GENIUS_GENDTOL_13
1000

1000
h7
1000

1040
0.0
  0
DIMENSION
  5
4A36
330
1F
100
AcDbEntity
  8
AM_5
100
AcDbDimension
  2
*D9
 10
-12.00083649060207
 20
-54.0000072961342
 30
0.0
 11
-26.00083511920258
 21
-50.6000072961342
 31
0.0
 70
    32
  1
<>
  3
AM_JIS$0
100
AcDbAlignedDimension
 13
-40.00083374780309
 23
-15.00001582065132
 33
0.0
 14
-12.00083649060207
 24
-7.500006296131596
 34
0.0
 50
0.0000209534266725
100
AcDbRotatedDimension
1001
ACAD
1000
DSTYLE
1002
{
1070
   271
1070
     0
1002
}
1001
GENIUS_GENDTOL_13
1000

1000
h7
1000

1040
0.0
  0
DIMENSION
  5
4AC1
330
1F
100
AcDbEntity
  8
AM_5
100
AcDbDimension
  2
*D10
 10
-0.0000000000000032
 20
-64.00000290735355
 30
0.0
 11
-20.00041687390154
 21
-60.60000290735355
 31
0.0
 70
    32
  1
<>
  3
AM_JIS$0
100
AcDbAlignedDimension
 13
-40.00083374780309
 23
-15.00001653590703
 33
0.0
 14
-0.0000000000000005
 24
-20.00000190735112
 34
0.0
 50
0.0000209534266725
100
AcDbRotatedDimension
1001
ACAD
1000
DSTYLE
1002
{
1070
   271
1070
     0
1002
}
1001
GENIUS_GENDTOL_13
1000

1000
h7
1000

1040
0.0
  0
DIMENSION
  5
4B52
330
1F
100
AcDbEntity
  8
AM_5
100
AcDbDimension
  2
*D11
 10
-57.8324445412576
 20
4.19996551926026
 30
0.0
 11
-57.8324445412576
 21
-0.0000390583750294
 31
0.0
 70
   160
  1
<>
  3
AM_JIS$0
100
AcDbAlignedDimension
 13
-39.00080717984095
 23
-4.200043636010305
 33
0.0
 14
-39.00080717984095
 24
4.199965519260255
 34
0.0
 50
270.0000209534266
100
AcDbRotatedDimension
1001
ACAD
1000
DSTYLE
1002
{
1070
   271
1070
     1
1002
}
1001
GENIUS_GENDTOL_13
1000

1000
h7
1000

1040
0.0
  0
DIMENSION
  5
4E51
330
1F
100
AcDbEntity
  8
AM_5
100
AcDbDimension
  2
*D12
 10
15.658730868492
 20
-4.500006296131801
 30
0.0
 11
12.258730868492
 21
-0.0000062961321002
 31
0.0
 70
    32
  1
%%c<>
  3
AM_JIS$0
100
AcDbAlignedDimension
 13
-12.00084087907747
 23
4.499993703867603
 33
0.0
 14
-12.00083758772092
 24
-4.500006296131793
 34
0.0
 50
90.0000209534266
100
AcDbRotatedDimension
1001
ACAD
1000
DSTYLE
1002
{
1070
   271
1070
     0
1002
}
1001
GENIUS_GENDTOL_13
1000

1000
h7
1000

1040
0.0
  0
DIMENSION
  5
4EED
330
1F
100
AcDbEntity
  8
AM_5
100
AcDbDimension
  2
*D13
 10
-67.83244732062225
 20
7.999983829797963
 30
0.0
 11
-71.23244732062225
 21
-0.0000161702016154
 31
0.0
 70
    32
  1
%%c<>
  3
AM_JIS$0
100
AcDbAlignedDimension
 13
-39.00083566798931
 23
-8.000016170201181
 33
0.0
 14
-39.00084151928984
 24
7.999983829797955
 34
0.0
 50
270.0000209534266
100
AcDbRotatedDimension
1001
ACAD
1000
DSTYLE
1002
{
1070
   271
1070
     0
1002
}
1001
GENIUS_GENDTOL_13
1000

1000
h7
1000

1040
0.0
  0
VIEWPORT
  5
110
330
101
100
AcDbEntity
 67
     1
  8
0
100
AcDbViewport
 10
420.5
 20
297.0
 30
0.0
 40
948.9782706766916
 41
628.452
 68
     1
 69
     1
1001
ACAD
1000
MVIEW
1002
{
1070
    16
1010
0.0
1020
0.0
1030
0.0
1010
0.0
1020
0.0
1030
1.0
1040
0.0
1040
628.452
1040
420.5
1040
297.0
1040
50.0
1040
0.0
1040
0.0
1070
     0
1070
   100
1070
     1
1070
     1
1070
     0
1070
     0
1070
     0
1070
     0
1040
0.0
1040
0.0
1040
0.0
1040
10.0
1040
10.0
1040
10.0
1040
10.0
1070
     0
1002
{
1002
}
1002
}
  0
ENDSEC
  0
SECTION
  2
OBJECTS
  0
DICTIONARY
  5
C
330
0
100
AcDbDictionary
  3
ACAD_GROUP
350
D
  3
ACAD_LAYOUT
350
1A
  3
ACAD_MLINESTYLE
350
17
  3
ACAD_PLOTSETTINGS
350
19
  3
ACAD_PLOTSTYLENAME
350
E
  3
ACDBVARIABLEDICTIONARY
350
34
  3
ACMDICTIONARY
350
43
  3
AMG
350
2B
  3
AMGSNAPSETTINGS
350
6E
  3
DWGPROPS
350
4FFD
  3
ACDBHEADERROUNDTRIPXREC
350
5009
  0
DICTIONARY
  5
74
330
1F
100
AcDbDictionary
280
     1
  3
ACAD_INDEX
360
4FFF
  3
ACAD_LAYOUTSELFREF
360
502C
  0
DICTIONARY
  5
5031
330
101
100
AcDbDictionary
280
     1
  3
ACAD_LAYOUTSELFREF
360
5032
  0
DICTIONARY
  5
D
102
{ACAD_REACTORS
330
C
102
}
330
C
100
AcDbDictionary
  0
DICTIONARY
  5
1A
102
{ACAD_REACTORS
330
C
102
}
330
C
100
AcDbDictionary
  0
DICTIONARY
  5
17
102
{ACAD_REACTORS
330
C
102
}
330
C
100
AcDbDictionary
  3
STANDARD
350
18
  0
DICTIONARY
  5
19
102
{ACAD_REACTORS
330
C
102
}
330
C
100
AcDbDictionary
  0
ACDBDICTIONARYWDFLT
  5
E
102
{ACAD_REACTORS
330
C
102
}
330
C
100
AcDbDictionary
281
     1
  3
Normal
350
F
100
AcDbDictionaryWithDefault
340
F
  0
DICTIONARY
  5
34
102
{ACAD_REACTORS
330
C
102
}
330
C
100
AcDbDictionary
  3
INDEXCTL
350
35
  3
SORTENTS
350
B5E
  0
DICTIONARY
  5
43
102
{ACAD_REACTORS
330
C
102
}
330
C
100
AcDbDictionary
  3
ACMSTDDICTIONARY
350
260
  0
DICTIONARY
  5
2B
102
{ACAD_REACTORS
330
C
102
}
330
C
100
AcDbDictionary
  3
ACMGSETTINGS
350
2C
  0
DICTIONARY
  5
6E
102
{ACAD_REACTORS
330
C
102
}
330
C
100
AcDbDictionary
  0
XRECORD
  5
4FFD
102
{ACAD_REACTORS
330
C
102
}
330
C
100
AcDbXrecord
  1
DWGPROPS COOKIE
  2

  3

  4

  6

  7

  8

  9

300
AmdtFileType=82
301
=
302
=
303
=
304
=
305
=
306
=
307
=
308
=
309
=
 40
0.1547138888888889
 41
2452839.420061482
 42
2453075.674394884
  1

 90
        1
  0
DICTIONARY
  5
5009
102
{ACAD_REACTORS
330
C
102
}
330
C
100
AcDbDictionary
  3
TSTACKALIGN
350
500A
  3
TSTACKSIZE
350
500B
  3
HYPERLINKBASE
350
500C
  3
STYLESHEET
350
500D
  3
LAYOUTDICT
350
500E
  3
PLOTSETDICT
350
500F
  3
PLOTSTYLNAMDICT
350
5010
  3
LWETCUNION
350
5011
  3
INSUNITS
350
5012
  3
CEPSNTYPE
350
5013
  3
FINGERPRINTGUID
350
5014
  3
VERSIONGUID
350
5015
  3
PSVPSCALE
350
5016
  3
DIMSTYLEDATA
350
5017
  3
PUCSORTHOREF
350
5018
  3
PUCSORTHOVIEW
350
5019
  3
PUCSBASE
350
501A
  3
PUCSORGTOP
350
501B
  3
PUCSORGBOTTOM
350
501C
  3
PUCSORGLEFT
350
501D
  3
PUCSORGRIGHT
350
501E
  3
PUCSORGFRONT
350
501F
  3
PUCSORGBACK
350
5020
  3
UCSORTHOREF
350
5021
  3
UCSORTHOVIEW
350
5022
  3
UCSBASE
350
5023
  3
UCSORGTOP
350
5024
  3
UCSORGBOTTOM
350
5025
  3
UCSORGLEFT
350
5026
  3
UCSORGRIGHT
350
5027
  3
UCSORGFRONT
350
5028
  3
UCSORGBACK
350
5029
  0
DICTIONARY
  5
4FFF
102
{ACAD_REACTORS
330
74
102
}
330
74
100
AcDbDictionary
  3
*A1
350
5000
  0
XRECORD
  5
502C
102
{ACAD_REACTORS
330
74
102
}
330
74
100
AcDbXrecord
340
1F
  0
XRECORD
  5
5032
102
{ACAD_REACTORS
330
5031
102
}
330
5031
100
AcDbXrecord
340
101
  0
MLINESTYLE
  5
18
102
{ACAD_REACTORS
330
17
102
}
330
17
100
AcDbMlineStyle
  2
STANDARD
 70
     0
  3

 62
   256
 51
90.0
 52
90.0
 71
     2
 49
0.5
 62
   256
  6
BYLAYER
 49
-0.5
 62
   256
  6
BYLAYER
  0
ACDBPLACEHOLDER
  5
F
102
{ACAD_REACTORS
330
E
102
}
330
E
100
AcDbPlaceHolder
280
     0
  0
DICTIONARYVAR
  5
35
102
{ACAD_REACTORS
330
34
102
}
330
34
100
DictionaryVariables
280
     0
  1
1
  0
DICTIONARYVAR
  5
B5E
102
{ACAD_REACTORS
330
34
102
}
330
34
100
DictionaryVariables
280
     0
  1
96
  0
DICTIONARY
  5
260
102
{ACAD_REACTORS
330
43
102
}
330
43
100
AcDbDictionary
  0
DICTIONARY
  5
2C
102
{ACAD_REACTORS
330
2B
102
}
330
2B
100
AcDbDictionary
  3
DWGSETTINGS
350
2D
  0
XRECORD
  5
500A
102
{ACAD_REACTORS
330
5009
102
}
330
5009
100
AcDbXrecord
 90
        1
  0
XRECORD
  5
500B
102
{ACAD_REACTORS
330
5009
102
}
330
5009
100
AcDbXrecord
 90
       70
  0
XRECORD
  5
500C
102
{ACAD_REACTORS
330
5009
102
}
330
5009
100
AcDbXrecord
  1

  0
XRECORD
  5
500D
102
{ACAD_REACTORS
330
5009
102
}
330
5009
100
AcDbXrecord
  1
ASAMI.ctb
  0
XRECORD
  5
500E
102
{ACAD_REACTORS
330
5009
102
}
330
5009
100
AcDbXrecord
340
1A
  0
XRECORD
  5
500F
102
{ACAD_REACTORS
330
5009
102
}
330
5009
100
AcDbXrecord
340
19
  0
XRECORD
  5
5010
102
{ACAD_REACTORS
330
5009
102
}
330
5009
100
AcDbXrecord
340
E
  0
XRECORD
  5
5011
102
{ACAD_REACTORS
330
5009
102
}
330
5009
100
AcDbXrecord
 90
    10781
  0
XRECORD
  5
5012
102
{ACAD_REACTORS
330
5009
102
}
330
5009
100
AcDbXrecord
 90
        4
  0
XRECORD
  5
5013
102
{ACAD_REACTORS
330
5009
102
}
330
5009
100
AcDbXrecord
 90
        0
  0
XRECORD
  5
5014
102
{ACAD_REACTORS
330
5009
102
}
330
5009
100
AcDbXrecord
  1
{AFB28963-8C59-40AE-9337-C84526B81ACE}
  0
XRECORD
  5
5015
102
{ACAD_REACTORS
330
5009
102
}
330
5009
100
AcDbXrecord
  1
{D5686E80-3383-455A-A4D6-B8283A82CA7C}
  0
XRECORD
  5
5016
102
{ACAD_REACTORS
330
5009
102
}
330
5009
100
AcDbXrecord
 40
0.0
  0
XRECORD
  5
5017
102
{ACAD_REACTORS
330
5009
102
}
330
5009
100
AcDbXrecord
1000
DSTYLE
1002
{
1070
    79
 70
     2
1070
   341
340
59
1070
   342
340
59
1070
   371
 70
    -1
1070
   372
 70
    -1
1002
}
  0
XRECORD
  5
5018
102
{ACAD_REACTORS
330
5009
102
}
330
5009
100
AcDbXrecord
340
0
  0
XRECORD
  5
5019
102
{ACAD_REACTORS
330
5009
102
}
330
5009
100
AcDbXrecord
 70
     0
  0
XRECORD
  5
501A
102
{ACAD_REACTORS
330
5009
102
}
330
5009
100
AcDbXrecord
340
0
  0
XRECORD
  5
501B
102
{ACAD_REACTORS
330
5009
102
}
330
5009
100
AcDbXrecord
 10
0.0
 20
0.0
 30
0.0
  0
XRECORD
  5
501C
102
{ACAD_REACTORS
330
5009
102
}
330
5009
100
AcDbXrecord
 10
0.0
 20
0.0
 30
0.0
  0
XRECORD
  5
501D
102
{ACAD_REACTORS
330
5009
102
}
330
5009
100
AcDbXrecord
 10
0.0
 20
0.0
 30
0.0
  0
XRECORD
  5
501E
102
{ACAD_REACTORS
330
5009
102
}
330
5009
100
AcDbXrecord
 10
0.0
 20
0.0
 30
0.0
  0
XRECORD
  5
501F
102
{ACAD_REACTORS
330
5009
102
}
330
5009
100
AcDbXrecord
 10
0.0
 20
0.0
 30
0.0
  0
XRECORD
  5
5020
102
{ACAD_REACTORS
330
5009
102
}
330
5009
100
AcDbXrecord
 10
0.0
 20
0.0
 30
0.0
  0
XRECORD
  5
5021
102
{ACAD_REACTORS
330
5009
102
}
330
5009
100
AcDbXrecord
340
0
  0
XRECORD
  5
5022
102
{ACAD_REACTORS
330
5009
102
}
330
5009
100
AcDbXrecord
 70
     0
  0
XRECORD
  5
5023
102
{ACAD_REACTORS
330
5009
102
}
330
5009
100
AcDbXrecord
340
0
  0
XRECORD
  5
5024
102
{ACAD_REACTORS
330
5009
102
}
330
5009
100
AcDbXrecord
 10
0.0
 20
0.0
 30
0.0
  0
XRECORD
  5
5025
102
{ACAD_REACTORS
330
5009
102
}
330
5009
100
AcDbXrecord
 10
0.0
 20
0.0
 30
0.0
  0
XRECORD
  5
5026
102
{ACAD_REACTORS
330
5009
102
}
330
5009
100
AcDbXrecord
 10
0.0
 20
0.0
 30
0.0
  0
XRECORD
  5
5027
102
{ACAD_REACTORS
330
5009
102
}
330
5009
100
AcDbXrecord
 10
0.0
 20
0.0
 30
0.0
  0
XRECORD
  5
5028
102
{ACAD_REACTORS
330
5009
102
}
330
5009
100
AcDbXrecord
 10
0.0
 20
0.0
 30
0.0
  0
XRECORD
  5
5029
102
{ACAD_REACTORS
330
5009
102
}
330
5009
100
AcDbXrecord
 10
0.0
 20
0.0
 30
0.0
  0
LAYER_INDEX
  5
5000
102
{ACAD_REACTORS
330
4FFF
102
}
330
4FFF
100
AcDbIndex
 40
2453152.392642384
100
AcDbLayerIndex
  8
0
360
5001
 90
        0
  8
AM_0
360
5002
 90
      352
  8
AM_7
360
5003
 90
        1
  8
AM_11
360
5004
 90
        4
  8
AM_5
360
5005
 90
        9
  8
Defpoints
360
5006
 90
        0
  8
AM_6
360
5007
 90
        1
  0
XRECORD
  5
2D
102
{ACAD_REACTORS
330
2C
102
}
330
2C
100
AcDbXrecord
  1
VERSION
140
15.0
  1
PRODUCT
  2
AutoCAD Mechanical 2000
  0
IDBUFFER
  5
5001
330
0
100
AcDbIdBuffer
  0
IDBUFFER
  5
5002
330
0
100
AcDbIdBuffer
330
486B
330
486C
330
486D
330
486E
330
486F
330
4870
330
4871
330
4872
330
4873
330
4874
330
4875
330
4876
330
4877
330
4878
330
4879
330
487A
330
487B
330
487C
330
487D
330
487E
330
487F
330
4880
330
4881
330
4882
330
4883
330
4884
330
4885
330
4886
330
4887
330
4888
330
4889
330
488A
330
488B
330
488C
330
488D
330
488E
330
488F
330
4890
330
4891
330
4892
330
4893
330
4894
330
4896
330
4897
330
4898
330
4899
330
489A
330
489B
330
489C
330
489D
330
489E
330
489F
330
48A0
330
48A1
330
48A2
330
48A3
330
48A4
330
48A5
330
48A6
330
48A7
330
48A8
330
48A9
330
48AA
330
48AB
330
48AC
330
48AD
330
48AE
330
48AF
330
48B0
330
48B1
330
48B2
330
48B3
330
48B4
330
48B5
330
48B6
330
48B7
330
48B8
330
48B9
330
48BA
330
48BB
330
48BC
330
48BD
330
48BE
330
48BF
330
48C0
330
48C1
330
48C2
330
48C3
330
48C4
330
48C5
330
48C6
330
48C7
330
48C8
330
48C9
330
48CA
330
48CB
330
48CC
330
48CD
330
48CE
330
48CF
330
48D0
330
48D1
330
48D2
330
48D3
330
48D4
330
48D5
330
48D6
330
48D7
330
48D8
330
48D9
330
48DA
330
48DB
330
4778
330
4779
330
477A
330
477B
330
477C
330
477D
330
477E
330
477F
330
4782
330
4783
330
4784
330
4785
330
4786
330
4787
330
4788
330
4789
330
478A
330
478B
330
478C
330
478D
330
478E
330
478F
330
4790
330
4791
330
4792
330
4793
330
4794
330
4795
330
4796
330
4797
330
4798
330
4799
330
479A
330
479B
330
479C
330
479D
330
479E
330
479F
330
47A0
330
47A1
330
47A2
330
47A3
330
47A4
330
47A5
330
47A6
330
47A7
330
47A8
330
47A9
330
47AA
330
47AB
330
47AC
330
47AD
330
47AE
330
47AF
330
47B0
330
47B1
330
47B2
330
47B3
330
47B4
330
47B5
330
47B6
330
47B7
330
47B8
330
47B9
330
47BB
330
47BC
330
47BD
330
47BE
330
47BF
330
47C0
330
47C1
330
47C2
330
47C3
330
47C4
330
47C5
330
47C6
330
47C7
330
47C8
330
47C9
330
47CA
330
47CB
330
47CC
330
47CD
330
47CE
330
47CF
330
47D0
330
47D1
330
47D2
330
47D3
330
47D4
330
47D5
330
47D6
330
47D7
330
47D8
330
47D9
330
47DA
330
47DB
330
47DC
330
47DD
330
47DE
330
47DF
330
47E0
330
47E1
330
47E2
330
47E3
330
47E4
330
47E5
330
47E6
330
47E7
330
47E8
330
47E9
330
47EA
330
47EB
330
47EC
330
47ED
330
47EE
330
47EF
330
47F0
330
47F1
330
47F2
330
47F3
330
47F4
330
47F5
330
47F6
330
47F7
330
47F8
330
47F9
330
47FA
330
47FB
330
47FC
330
47FD
330
47FE
330
47FF
330
4800
330
4801
330
4802
330
4803
330
4804
330
4805
330
4806
330
4807
330
4808
330
4809
330
480A
330
480B
330
480C
330
480D
330
480E
330
480F
330
4810
330
4811
330
4812
330
4813
330
4814
330
4815
330
4816
330
4817
330
4818
330
4819
330
481A
330
481B
330
481C
330
481D
330
481E
330
481F
330
4820
330
4821
330
4822
330
4823
330
4824
330
4825
330
4826
330
4827
330
4828
330
4829
330
482A
330
482B
330
482C
330
482D
330
482E
330
482F
330
4830
330
4831
330
4832
330
4833
330
4834
330
4835
330
4836
330
4837
330
4838
330
4839
330
483A
330
483B
330
483C
330
483D
330
483E
330
483F
330
4840
330
4841
330
4842
330
4843
330
4844
330
4845
330
4846
330
4847
330
4848
330
4849
330
484A
330
484B
330
484C
330
484D
330
484E
330
484F
330
4850
330
4851
330
4852
330
4853
330
4854
330
4855
330
4856
330
4857
330
4858
330
4859
330
485A
330
485B
330
485C
330
485D
330
485E
330
485F
330
4860
330
4861
330
4862
330
4863
330
4864
330
4865
330
4866
330
4867
330
4868
330
4869
330
486A
  0
IDBUFFER
  5
5003
330
0
100
AcDbIdBuffer
330
4777
  0
IDBUFFER
  5
5004
330
0
100
AcDbIdBuffer
330
4780
330
4781
330
47BA
330
4895
  0
IDBUFFER
  5
5005
330
0
100
AcDbIdBuffer
330
385C
330
38E8
330
48F8
330
49AE
330
4A36
330
4AC1
330
4B52
330
4E51
330
4EED
  0
IDBUFFER
  5
5006
330
0
100
AcDbIdBuffer
  0
IDBUFFER
  5
5007
330
0
100
AcDbIdBuffer
330
1142
  0
ENDSEC
  0
EOF
