  0
SECTION
  2
HEADER
  9
$ACADVER
  1
AC1014
  9
$ACADMAINTVER
 70
     9
  9
$DWGCODEPAGE
  3
ANSI_932
  9
$INSBASE
 10
0.0
 20
0.0
 30
0.0
  9
$EXTMIN
 10
-244.5828317084072
 20
-71.50002748325174
 30
-0.00000001
  9
$EXTMAX
 10
18.88510994774704
 20
44.29999909260554
 30
0.00000001
  9
$LIMMIN
 10
-271.2593840646983
 20
-104.6365406417445
  9
$LIMMAX
 10
101.6904198000419
 20
69.02195320569592
  9
$ORTHOMODE
 70
     0
  9
$REGENMODE
 70
     1
  9
$FILLMODE
 70
     1
  9
$QTEXTMODE
 70
     0
  9
$MIRRTEXT
 70
     0
  9
$DRAGMODE
 70
     2
  9
$LTSCALE
 40
1.0
  9
$OSMODE
 70
    55
  9
$ATTMODE
 70
     1
  9
$TEXTSIZE
 40
2.5
  9
$TRACEWID
 40
1.0
  9
$TEXTSTYLE
  7
STANDARD
  9
$CLAYER
  8
AM_11
  9
$CELTYPE
  6
BYLAYER
  9
$CECOLOR
 62
   256
  9
$CELTSCALE
 40
1.0
  9
$DELOBJ
 70
     1
  9
$DISPSILH
 70
     0
  9
$DIMSCALE
 40
1.0
  9
$DIMASZ
 40
2.5
  9
$DIMEXO
 40
1.0
  9
$DIMDLI
 40
12.0
  9
$DIMRND
 40
0.0
  9
$DIMDLE
 40
0.0
  9
$DIMEXE
 40
1.0
  9
$DIMTP
 40
0.1
  9
$DIMTM
 40
0.1
  9
$DIMTXT
 40
3.2
  9
$DIMCEN
 40
0.0
  9
$DIMTSZ
 40
0.0
  9
$DIMTOL
 70
     0
  9
$DIMLIM
 70
     0
  9
$DIMTIH
 70
     0
  9
$DIMTOH
 70
     0
  9
$DIMSE1
 70
     0
  9
$DIMSE2
 70
     0
  9
$DIMTAD
 70
     3
  9
$DIMZIN
 70
     8
  9
$DIMBLK
  1
OPEN30
  9
$DIMASO
 70
     1
  9
$DIMSHO
 70
     1
  9
$DIMPOST
  1

  9
$DIMAPOST
  1
"
  9
$DIMALT
 70
     0
  9
$DIMALTD
 70
     2
  9
$DIMALTF
 40
0.0393701
  9
$DIMLFAC
 40
1.0
  9
$DIMTOFL
 70
     1
  9
$DIMTVP
 40
0.0
  9
$DIMTIX
 70
     0
  9
$DIMSOXD
 70
     0
  9
$DIMSAH
 70
     0
  9
$DIMBLK1
  1

  9
$DIMBLK2
  1

  9
$DIMSTYLE
  2
AM_JIS
  9
$DIMCLRD
 70
   256
  9
$DIMCLRE
 70
   256
  9
$DIMCLRT
 70
     2
  9
$DIMTFAC
 40
0.71
  9
$DIMGAP
 40
1.5
  9
$DIMJUST
 70
     0
  9
$DIMSD1
 70
     0
  9
$DIMSD2
 70
     0
  9
$DIMTOLJ
 70
     0
  9
$DIMTZIN
 70
     0
  9
$DIMALTZ
 70
     0
  9
$DIMALTTZ
 70
     0
  9
$DIMFIT
 70
     3
  9
$DIMUPT
 70
     0
  9
$DIMUNIT
 70
     2
  9
$DIMDEC
 70
     3
  9
$DIMTDEC
 70
     3
  9
$DIMALTU
 70
     2
  9
$DIMALTTD
 70
     2
  9
$DIMTXSTY
  7
ASAMI
  9
$DIMAUNIT
 70
     0
  9
$LUNITS
 70
     2
  9
$LUPREC
 70
     0
  9
$SKETCHINC
 40
1.0
  9
$FILLETRAD
 40
2.5
  9
$AUNITS
 70
     0
  9
$AUPREC
 70
     0
  9
$MENU
  1
.
  9
$ELEVATION
 40
0.0
  9
$PELEVATION
 40
0.0
  9
$THICKNESS
 40
0.0
  9
$LIMCHECK
 70
     0
  9
$BLIPMODE
 70
     0
  9
$CHAMFERA
 40
2.5
  9
$CHAMFERB
 40
2.5
  9
$CHAMFERC
 40
20.0
  9
$CHAMFERD
 40
0.0
  9
$SKPOLY
 70
     0
  9
$TDCREATE
 40
2452839.420061482
  9
$TDUPDATE
 40
2453152.393447534
  9
$TDINDWG
 40
0.1538622917
  9
$TDUSRTIMER
 40
0.1538622917
  9
$USRTIMER
 70
     1
  9
$ANGBASE
 50
0.0
  9
$ANGDIR
 70
     0
  9
$PDMODE
 70
     0
  9
$PDSIZE
 40
0.0
  9
$PLINEWID
 40
0.0
  9
$COORDS
 70
     1
  9
$SPLFRAME
 70
     0
  9
$SPLINETYPE
 70
     6
  9
$SPLINESEGS
 70
     8
  9
$ATTDIA
 70
     1
  9
$ATTREQ
 70
     1
  9
$HANDLING
 70
 12289
  9
$HANDSEED
  5
47A9
  9
$SURFTAB1
 70
     6
  9
$SURFTAB2
 70
     6
  9
$SURFTYPE
 70
     6
  9
$SURFU
 70
     6
  9
$SURFV
 70
     6
  9
$UCSNAME
  2

  9
$UCSORG
 10
0.0
 20
0.0
 30
0.0
  9
$UCSXDIR
 10
1.0
 20
0.0
 30
0.0
  9
$UCSYDIR
 10
0.0
 20
1.0
 30
0.0
  9
$PUCSNAME
  2

  9
$PUCSORG
 10
0.0
 20
0.0
 30
0.0
  9
$PUCSXDIR
 10
1.0
 20
0.0
 30
0.0
  9
$PUCSYDIR
 10
0.0
 20
1.0
 30
0.0
  9
$USERI1
 70
     0
  9
$USERI2
 70
     0
  9
$USERI3
 70
     0
  9
$USERI4
 70
     0
  9
$USERI5
 70
     0
  9
$USERR1
 40
0.0
  9
$USERR2
 40
0.0
  9
$USERR3
 40
0.0
  9
$USERR4
 40
0.0
  9
$USERR5
 40
0.0
  9
$WORLDVIEW
 70
     1
  9
$SHADEDGE
 70
     3
  9
$SHADEDIF
 70
    70
  9
$TILEMODE
 70
     1
  9
$MAXACTVP
 70
    64
  9
$PINSBASE
 10
0.0
 20
0.0
 30
0.0
  9
$PLIMCHECK
 70
     0
  9
$PEXTMIN
 10
1.000000000000000E+20
 20
1.000000000000000E+20
 30
1.000000000000000E+20
  9
$PEXTMAX
 10
-1.000000000000000E+20
 20
-1.000000000000000E+20
 30
-1.000000000000000E+20
  9
$PLIMMIN
 10
0.0
 20
0.0
  9
$PLIMMAX
 10
841.0
 20
594.0
  9
$UNITMODE
 70
     0
  9
$VISRETAIN
 70
     1
  9
$PLINEGEN
 70
     0
  9
$PSLTSCALE
 70
     0
  9
$TREEDEPTH
 70
  3020
  9
$PICKSTYLE
 70
     0
  9
$CMLSTYLE
  2
STANDARD
  9
$CMLJUST
 70
     0
  9
$CMLSCALE
 40
20.0
  9
$PROXYGRAPHICS
 70
     1
  9
$MEASUREMENT
 70
     1
  0
ENDSEC
  0
SECTION
  2
CLASSES
  0
CLASS
  1
ACDBDICTIONARYWDFLT
  2
AcDbDictionaryWithDefault
  3
AutoCAD 2000
 90
        0
280
     0
281
     0
  0
CLASS
  1
ACDBPLACEHOLDER
  2
AcDbPlaceHolder
  3
AutoCAD 2000
 90
        0
280
     0
281
     0
  0
CLASS
  1
LAYOUT
  2
AcDbLayout
  3
AutoCAD 2000
 90
        0
280
     0
281
     0
  0
CLASS
  1
AMGSETTINGSOBJ
  2
AmgSettingsObj
  3
"AcadM|Product Description: AutoCAD Mechanical 2000|Company: Autodesk"
 90
        0
280
     0
281
     0
  0
CLASS
  1
ACME_DOCUMENT
  2
AcMeDbDoc
  3
AcMeServices
 90
        0
280
     0
281
     0
  0
CLASS
  1
ACMESCOPE
  2
AcMeScope
  3
AcMeServices
 90
        0
280
     0
281
     0
  0
CLASS
  1
ACMECOMMANDHISTORY
  2
AcMeCommandHistory
  3
AcMeServices
 90
        0
280
     0
281
     0
  0
CLASS
  1
DICTIONARYVAR
  2
AcDbDictionaryVar
  3
AutoCAD 2000
 90
        0
280
     0
281
     0
  0
CLASS
  1
ACIMSYSVARMAN
  2
AcImSysVarManager
  3
AcMeServices
 90
        0
280
     0
281
     0
  0
CLASS
  1
ACIMREALSYSVAR
  2
AcImRealSysVar
  3
AcMeServices
 90
        0
280
     0
281
     0
  0
CLASS
  1
ACIMINTSYSVAR
  2
AcImIntSysVar
  3
AcMeServices
 90
        0
280
     0
281
     0
  0
CLASS
  1
ACMEDRAWINGMAN
  2
AcMeDrawingMan
  3
AcMeServices
 90
        0
280
     0
281
     0
  0
CLASS
  1
ACMEVIEW
  2
AcMeView
  3
AcMeServices
 90
        0
280
     0
281
     0
  0
CLASS
  1
ACDBENTITYCACHE
  2
AcMeEntityCache
  3
AcMeServices
 90
        0
280
     0
281
     0
  0
CLASS
  1
GSMANAGER
  2
AcMeGSManager
  3
AcMeServices
 90
        0
280
     0
281
     0
  0
CLASS
  1
AmdtInternalReactor
  2
AmdtInternalReactor
  3
AcMeServices
 90
        0
280
     0
281
     0
  0
CLASS
  1
ACMESTATEMGR
  2
AcMeStateMgr
  3
AcMeServices
 90
        0
280
     0
281
     0
  0
CLASS
  1
ACME_DATABASE
  2
AcMeDbDatabase
  3
AcMeServices
 90
        0
280
     0
281
     0
  0
CLASS
  1
ACRFINSADJUSTERMGR
  2
AcRfInsAdjusterMgr
  3
AcMeServices
 90
        0
280
     0
281
     0
  0
CLASS
  1
ACMDATADICTIONARY
  2
AcmDataDictionary
  3
"AcmSymBB|Product Description: AutoCAD Mechanical 2000|Company: Autodesk"
 90
        0
280
     0
281
     0
  0
CLASS
  1
ACMDATAENTRYBLOCK
  2
AcmDataEntryBlock
  3
"AcmSymBB|Product Description: AutoCAD Mechanical 2000|Company: Autodesk"
 90
        0
280
     0
281
     0
  0
CLASS
  1
AMGOBJPROPCFG
  2
AmgObjPropCfg
  3
"AmgLay|Product Description: AutoCAD Mechanical 2000|Company: Autodesk"
 90
        1
280
     0
281
     0
  0
CLASS
  1
ACAMGFILTERDAT
  2
AcAmgFilterDat
  3
"AcadM|Product Description: AutoCAD Mechanical 2000|Company: Autodesk"
 90
        0
280
     0
281
     0
  0
CLASS
  1
LAYER_INDEX
  2
AcDbLayerIndex
  3
AutoCAD 2000
 90
        0
280
     0
281
     0
  0
CLASS
  1
IDBUFFER
  2
AcDbIdBuffer
  3
AutoCAD 2000
 90
        0
280
     0
281
     0
  0
CLASS
  1
ACIMSTRSYSVAR
  2
AcImStrSysVar
  3
AcMeServices
 90
        0
280
     0
281
     0
  0
CLASS
  1
ACMSTANDARDJIS
  2
AcmStandardJIS
  3
"AcmSymBB|Product Description: AutoCAD Mechanical 2000|Company: Autodesk"
 90
        0
280
     0
281
     0
  0
CLASS
  1
ACMSURFSTANDARDJIS
  2
AcmSurfTextStdJIS
  3
"AcmSymBB|Product Description: AutoCAD Mechanical 2000|Company: Autodesk"
 90
        0
280
     0
281
     0
  0
CLASS
  1
ACMFCFSTANDARDJIS
  2
AcmFCFStdJIS
  3
"AcmSymBB|Product Description: AutoCAD Mechanical 2000|Company: Autodesk"
 90
        0
280
     0
281
     0
  0
CLASS
  1
ACMWELDSTANDARDJIS
  2
AcmWeldingStdJIS
  3
"AcmSymBB|Product Description: AutoCAD Mechanical 2000|Company: Autodesk"
 90
        0
280
     0
281
     0
  0
CLASS
  1
ACMIDSTANDARDJIS
  2
AcmIdStdJIS
  3
"AcmSymBB|Product Description: AutoCAD Mechanical 2000|Company: Autodesk"
 90
        0
280
     0
281
     0
  0
CLASS
  1
ACMDATUMSTANDARDJIS
  2
AcmDatumStdJIS
  3
"AcmSymBB|Product Description: AutoCAD Mechanical 2000|Company: Autodesk"
 90
        0
280
     0
281
     0
  0
CLASS
  1
ACMBOMSTANDARDJIS
  2
AcmBOMStdJIS
  3
"AcmSymBB|Product Description: AutoCAD Mechanical 2000|Company: Autodesk"
 90
        0
280
     0
281
     0
  0
CLASS
  1
ACMSTANDARDANSI
  2
AcmStandardANSI
  3
"AcmSymBB|Product Description: AutoCAD Mechanical 2000|Company: Autodesk"
 90
        0
280
     0
281
     0
  0
CLASS
  1
ACMSURFSTANDARDANSI
  2
AcmSurfTextStdANSI
  3
"AcmSymBB|Product Description: AutoCAD Mechanical 2000|Company: Autodesk"
 90
        0
280
     0
281
     0
  0
CLASS
  1
ACMFCFSTANDARDANSI
  2
AcmFCFStdANSI
  3
"AcmSymBB|Product Description: AutoCAD Mechanical 2000|Company: Autodesk"
 90
        0
280
     0
281
     0
  0
CLASS
  1
ACMWELDSTANDARDANSI
  2
AcmWeldingStdANSI
  3
"AcmSymBB|Product Description: AutoCAD Mechanical 2000|Company: Autodesk"
 90
        0
280
     0
281
     0
  0
CLASS
  1
ACMIDSTANDARDANSI
  2
AcmIdStdANSI
  3
"AcmSymBB|Product Description: AutoCAD Mechanical 2000|Company: Autodesk"
 90
        0
280
     0
281
     0
  0
CLASS
  1
ACMDATUMSTANDARDANSI
  2
AcmDatumStdANSI
  3
"AcmSymBB|Product Description: AutoCAD Mechanical 2000|Company: Autodesk"
 90
        0
280
     0
281
     0
  0
CLASS
  1
ACMBOMSTANDARDANSI
  2
AcmBOMStdANSI
  3
"AcmSymBB|Product Description: AutoCAD Mechanical 2000|Company: Autodesk"
 90
        0
280
     0
281
     0
  0
CLASS
  1
ACMSTANDARDBSI
  2
AcmStandardBSI
  3
"AcmSymBB|Product Description: AutoCAD Mechanical 2000|Company: Autodesk"
 90
        0
280
     0
281
     0
  0
CLASS
  1
ACMSURFSTANDARDBSI
  2
AcmSurfTextStdBSI
  3
"AcmSymBB|Product Description: AutoCAD Mechanical 2000|Company: Autodesk"
 90
        0
280
     0
281
     0
  0
CLASS
  1
ACMFCFSTANDARDBSI
  2
AcmFCFStdBSI
  3
"AcmSymBB|Product Description: AutoCAD Mechanical 2000|Company: Autodesk"
 90
        0
280
     0
281
     0
  0
CLASS
  1
ACMWELDSTANDARDBSI
  2
AcmWeldingStdBSI
  3
"AcmSymBB|Product Description: AutoCAD Mechanical 2000|Company: Autodesk"
 90
        0
280
     0
281
     0
  0
CLASS
  1
ACMIDSTANDARDBSI
  2
AcmIdStdBSI
  3
"AcmSymBB|Product Description: AutoCAD Mechanical 2000|Company: Autodesk"
 90
        0
280
     0
281
     0
  0
CLASS
  1
ACMDATUMSTANDARDBSI
  2
AcmDatumStdBSI
  3
"AcmSymBB|Product Description: AutoCAD Mechanical 2000|Company: Autodesk"
 90
        0
280
     0
281
     0
  0
CLASS
  1
ACMBOMSTANDARDBSI
  2
AcmBOMStdBSI
  3
"AcmSymBB|Product Description: AutoCAD Mechanical 2000|Company: Autodesk"
 90
        0
280
     0
281
     0
  0
CLASS
  1
LONG_TRANSACTION
  2
AcDbLongTransaction
  3
AutoCAD 2000
 90
        0
280
     0
281
     0
  0
CLASS
  1
LWPOLYLINE
  2
AcDbPolyline
  3
AutoCAD 2000
 90
        0
280
     0
281
     1
  0
CLASS
  1
HATCH
  2
AcDbHatch
  3
AutoCAD 2000
 90
        0
280
     0
281
     1
  0
CLASS
  1
XRECORD
  2
AcDbXrecord
  3
AutoCAD 2000
 90
        0
280
     0
281
     0
  0
ENDSEC
  0
SECTION
  2
TABLES
  0
TABLE
  2
VPORT
  5
8
330
0
100
AcDbSymbolTable
 70
     3
  0
VPORT
  5
477E
330
8
100
AcDbSymbolTableRecord
100
AcDbViewportTableRecord
  2
*ACTIVE
 70
     0
 10
0.0
 20
0.0
 11
1.0
 21
1.0
 12
-108.0981151322176
 22
-14.53942092634625
 13
0.0
 23
0.0
 14
2.5
 24
2.5
 15
10.0
 25
10.0
 16
0.0
 26
0.0
 36
1.0
 17
0.0
 27
0.0
 37
0.0
 40
213.2147596661932
 41
1.56570841889117
 42
50.0
 43
0.0
 44
0.0
 50
0.0
 51
0.0
 71
     0
 72
   100
 73
     1
 74
     3
 75
     0
 76
     0
 77
     0
 78
     0
  0
ENDTAB
  0
TABLE
  2
LTYPE
  5
5
330
0
100
AcDbSymbolTable
 70
    10
  0
LTYPE
  5
14
330
5
100
AcDbSymbolTableRecord
100
AcDbLinetypeTableRecord
  2
BYBLOCK
 70
     0
  3

 72
    65
 73
     0
 40
0.0
  0
LTYPE
  5
15
330
5
100
AcDbSymbolTableRecord
100
AcDbLinetypeTableRecord
  2
BYLAYER
 70
     0
  3

 72
    65
 73
     0
 40
0.0
  0
LTYPE
  5
16
330
5
100
AcDbSymbolTableRecord
100
AcDbLinetypeTableRecord
  2
CONTINUOUS
 70
     0
  3
Solid line
 72
    65
 73
     0
 40
0.0
  0
LTYPE
  5
4B
330
5
100
AcDbSymbolTableRecord
100
AcDbLinetypeTableRecord
  2
AM_ISO02W050
 70
     0
  3
__ __ __ __ __ __ __ __ __ __ __ __ __ __ __
 72
    65
 73
     2
 40
7.5
 49
6.0
 74
     0
 49
-1.5
 74
     0
  0
LTYPE
  5
4C
330
5
100
AcDbSymbolTableRecord
100
AcDbLinetypeTableRecord
  2
AM_ISO08W050
 70
     0
  3
____ . ____ . ____ . ____ . ____ . ____ . ____
 72
    65
 73
     4
 40
18.0
 49
12.0
 74
     0
 49
-1.5
 74
     0
 49
3.0
 74
     0
 49
-1.5
 74
     0
  0
LTYPE
  5
4D
330
5
100
AcDbSymbolTableRecord
100
AcDbLinetypeTableRecord
  2
AM_ISO09W050
 70
     0
  3
_____ . . _____ . . _____ . . ____ .. ____
 72
    65
 73
     6
 40
22.5
 49
12.0
 74
     0
 49
-1.5
 74
     0
 49
3.0
 74
     0
 49
-1.5
 74
     0
 49
3.0
 74
     0
 49
-1.5
 74
     0
  0
LTYPE
  5
4E
330
5
100
AcDbSymbolTableRecord
100
AcDbLinetypeTableRecord
  2
AMCONSTR
 70
     0
  3
_______________________
 72
    65
 73
     2
 40
9999.0
 49
9999.0
 74
     0
 49
0.0
 74
     0
  0
LTYPE
  5
4F
330
5
100
AcDbSymbolTableRecord
100
AcDbLinetypeTableRecord
  2
AM_ISO02W050X2
 70
     0
  3
 _ _ _ _ _ _ _ _ _ _ _ _
 72
    65
 73
     2
 40
3.75
 49
3.0
 74
     0
 49
-0.75
 74
     0
  0
LTYPE
  5
50
330
5
100
AcDbSymbolTableRecord
100
AcDbLinetypeTableRecord
  2
AM_ISO08W050X2
 70
     0
  3
__ . __ . __ . __ . __ . __
 72
    65
 73
     4
 40
9.0
 49
6.0
 74
     0
 49
-0.75
 74
     0
 49
1.5
 74
     0
 49
-0.75
 74
     0
  0
LTYPE
  5
53
330
5
100
AcDbSymbolTableRecord
100
AcDbLinetypeTableRecord
  2
AMZIGZAG
 70
     0
  3
/\/-/\/-/\/-/\/-/\/-/\/
 72
    65
 73
     2
 40
11.00009999999999
 49
0.0001
 74
     4
 75
   135
340
52
 46
0.04
 50
0.0
 44
0.0
 45
0.0
 49
-11.0
 74
     0
  0
LTYPE
  5
166
330
5
100
AcDbSymbolTableRecord
100
AcDbLinetypeTableRecord
  2
ACJISTGL
 70
     0
  3
_ _ _ _ _
 72
    65
 73
     2
 40
3.0
 49
2.0
 74
     0
 49
-1.0
 74
     0
  0
LTYPE
  5
26A
330
5
100
AcDbSymbolTableRecord
100
AcDbLinetypeTableRecord
  2
ACJISTGB
 70
     0
  3
__ . . __ . .
 72
    65
 73
     6
 40
9.0
 49
4.0
 74
     0
 49
-1.0
 74
     0
 49
1.0
 74
     0
 49
-1.0
 74
     0
 49
1.0
 74
     0
 49
-1.0
 74
     0
  0
ENDTAB
  0
TABLE
  2
LAYER
  5
2
330
0
100
AcDbSymbolTable
 70
     7
  0
LAYER
  5
10
330
2
100
AcDbSymbolTableRecord
100
AcDbLayerTableRecord
  2
0
 70
     0
 62
     7
  6
CONTINUOUS
  0
LAYER
  5
3F9
330
2
100
AcDbSymbolTableRecord
100
AcDbLayerTableRecord
  2
AM_0
 70
     0
 62
     7
  6
CONTINUOUS
  0
LAYER
  5
CD5
330
2
100
AcDbSymbolTableRecord
100
AcDbLayerTableRecord
  2
AM_7
 70
     0
 62
     4
  6
AM_ISO08W050
  0
LAYER
  5
CDE
330
2
100
AcDbSymbolTableRecord
100
AcDbLayerTableRecord
  2
AM_11
 70
     0
 62
     3
  6
AM_ISO09W050
  0
LAYER
  5
CFB
330
2
100
AcDbSymbolTableRecord
100
AcDbLayerTableRecord
  2
AM_5
 70
     0
 62
     3
  6
CONTINUOUS
  0
LAYER
  5
CFD
330
2
100
AcDbSymbolTableRecord
100
AcDbLayerTableRecord
  2
DEFPOINTS
 70
     0
 62
     7
  6
CONTINUOUS
  0
LAYER
  5
113C
330
2
100
AcDbSymbolTableRecord
100
AcDbLayerTableRecord
  2
AM_6
 70
     0
 62
     2
  6
CONTINUOUS
  0
ENDTAB
  0
TABLE
  2
STYLE
  5
3
330
0
100
AcDbSymbolTable
 70
     5
  0
STYLE
  5
11
330
3
100
AcDbSymbolTableRecord
100
AcDbTextStyleTableRecord
  2
STANDARD
 70
     0
 40
0.0
 41
1.0
 50
0.0
 71
     0
 42
2.5
  3
simplex.shx
  4
EXTFONT.SHX
  0
STYLE
  5
52
330
3
100
AcDbSymbolTableRecord
100
AcDbTextStyleTableRecord
  2

 70
     1
 40
0.0
 41
1.0
 50
0.0
 71
     0
 42
2.5
  3
ltypeshp.shx
  4

  0
STYLE
  5
6B
330
3
100
AcDbSymbolTableRecord
100
AcDbTextStyleTableRecord
  2
ASAMI
 70
     0
 40
0.0
 41
1.0
 50
0.0
 71
     0
 42
2.5
  3
simplex.shx
  4
EXTFONT.SHX
  0
STYLE
  5
262
330
3
100
AcDbSymbolTableRecord
100
AcDbTextStyleTableRecord
  2
ACJISTS
 70
     0
 40
1.0
 41
1.0
 50
0.0
 71
     0
 42
2.5
  3
simplex.shx
  4
bigfont.shx
  0
STYLE
  5
269
330
3
100
AcDbSymbolTableRecord
100
AcDbTextStyleTableRecord
  2
ACJISGDT
 70
     0
 40
0.0
 41
1.0
 50
0.0
 71
     0
 42
2.5
  3
amgdtans.shx
  4

  0
ENDTAB
  0
TABLE
  2
VIEW
  5
6
330
0
100
AcDbSymbolTable
 70
     0
  0
ENDTAB
  0
TABLE
  2
UCS
  5
7
330
0
100
AcDbSymbolTable
 70
     0
  0
ENDTAB
  0
TABLE
  2
APPID
  5
9
330
0
100
AcDbSymbolTable
 70
    12
  0
APPID
  5
12
330
9
100
AcDbSymbolTableRecord
100
AcDbRegAppTableRecord
  2
ACAD
 70
     0
  0
APPID
  5
30
330
9
100
AcDbSymbolTableRecord
100
AcDbRegAppTableRecord
  2
MCAD_NO_VIS
 70
     0
  0
APPID
  5
31
330
9
100
AcDbSymbolTableRecord
100
AcDbRegAppTableRecord
  2
ACAD_TEMP_GRAPHIC
 70
     0
  0
APPID
  5
2C2
330
9
100
AcDbSymbolTableRecord
100
AcDbRegAppTableRecord
  2
GENIUS_GENDTOL_13
 70
     0
  0
APPID
  5
339
330
9
100
AcDbSymbolTableRecord
100
AcDbRegAppTableRecord
  2
GENIUS_GENODEF_13
 70
     0
  0
APPID
  5
33A
330
9
100
AcDbSymbolTableRecord
100
AcDbRegAppTableRecord
  2
GENIUS_GENOBJ-N-RSBK_13
 70
     0
  0
APPID
  5
33B
330
9
100
AcDbSymbolTableRecord
100
AcDbRegAppTableRecord
  2
GENIUS_GENOBJ-N-LIB_13
 70
     0
  0
APPID
  5
33C
330
9
100
AcDbSymbolTableRecord
100
AcDbRegAppTableRecord
  2
GENIUS_GENSCALE_13
 70
     0
  0
APPID
  5
378
330
9
100
AcDbSymbolTableRecord
100
AcDbRegAppTableRecord
  2
GENIUS_GENDIMSH_14
 70
     0
  0
APPID
  5
13A0
330
9
100
AcDbSymbolTableRecord
100
AcDbRegAppTableRecord
  2
GENIUS_GENOBJ-N-CEN_13
 70
     0
  0
APPID
  5
13D7
330
9
100
AcDbSymbolTableRecord
100
AcDbRegAppTableRecord
  2
GENIUS_GENREC_14
 70
     0
  0
APPID
  5
13D8
330
9
100
AcDbSymbolTableRecord
100
AcDbRegAppTableRecord
  2
GENIUS_GENOBJ-N-REC_13
 70
     0
  0
ENDTAB
  0
TABLE
  2
DIMSTYLE
  5
A
330
0
100
AcDbSymbolTable
 70
     9
  0
DIMSTYLE
105
58
330
A
100
AcDbSymbolTableRecord
100
AcDbDimStyleTableRecord
  2
AM_JIS
 70
     0
  3

  4
"
  5
OPEN30
  6

  7

 40
1.0
 41
2.5
 42
1.0
 43
12.0
 44
1.0
 45
0.0
 46
0.0
 47
0.1
 48
0.1
140
3.2
141
0.0
142
0.0
143
0.0393701
144
1.0
145
0.0
146
0.71
147
1.5
 71
     0
 72
     0
 73
     0
 74
     0
 75
     0
 76
     0
 77
     3
 78
     8
170
     0
171
     2
172
     1
173
     0
174
     0
175
     0
176
   256
177
   256
178
     2
270
     2
271
     3
272
     3
273
     2
274
     2
340
6B
275
     0
280
     0
281
     0
282
     0
283
     0
284
     0
285
     0
286
     0
287
     3
288
     0
  0
DIMSTYLE
105
5F
330
A
100
AcDbSymbolTableRecord
100
AcDbDimStyleTableRecord
  2
AM_JIS$3
 70
     0
  3

  4
"
  5
OPEN30
  6

  7

 40
1.0
 41
2.5
 42
1.0
 43
10.0
 44
1.0
 45
0.0
 46
0.0
 47
0.1
 48
0.1
140
3.2
141
0.0
142
0.0
143
0.0393701
144
1.0
145
0.0
146
0.71
147
1.5
 71
     0
 72
     0
 73
     0
 74
     1
 75
     0
 76
     0
 77
     3
 78
     8
170
     0
171
     2
172
     0
173
     0
174
     0
175
     0
176
   256
177
   256
178
     2
270
     2
271
     2
272
     3
273
     2
274
     2
340
6B
275
     0
280
     0
281
     0
282
     0
283
     0
284
     0
285
     0
286
     0
287
     0
288
     1
  0
DIMSTYLE
105
60
330
A
100
AcDbSymbolTableRecord
100
AcDbDimStyleTableRecord
  2
AM_JIS$4
 70
     0
  3

  4
"
  5
OPEN30
  6

  7

 40
1.0
 41
2.5
 42
1.0
 43
10.0
 44
1.0
 45
0.0
 46
0.0
 47
0.1
 48
0.1
140
3.2
141
0.0
142
0.0
143
0.0393701
144
1.0
145
0.0
146
0.71
147
1.5
 71
     0
 72
     0
 73
     0
 74
     1
 75
     0
 76
     0
 77
     3
 78
     8
170
     0
171
     2
172
     0
173
     0
174
     0
175
     0
176
   256
177
   256
178
     2
270
     2
271
     2
272
     3
273
     2
274
     2
340
6B
275
     0
280
     0
281
     0
282
     0
283
     0
284
     0
285
     0
286
     0
287
     0
288
     1
  0
DIMSTYLE
105
61
330
A
100
AcDbSymbolTableRecord
100
AcDbDimStyleTableRecord
  2
AM_JIS$6
 70
     0
  3

  4
"
  5
OPEN30
  6

  7

 40
1.0
 41
2.5
 42
1.0
 43
10.0
 44
1.0
 45
0.0
 46
0.0
 47
0.1
 48
0.1
140
3.2
141
0.0
142
0.0
143
0.0393701
144
1.0
145
0.0
146
0.71
147
1.5
 71
     0
 72
     0
 73
     0
 74
     0
 75
     0
 76
     0
 77
     0
 78
     8
170
     0
171
     2
172
     1
173
     0
174
     0
175
     0
176
   256
177
   256
178
     2
270
     2
271
     2
272
     2
273
     2
274
     2
340
6B
275
     0
280
     0
281
     0
282
     0
283
     0
284
     0
285
     0
286
     0
287
     3
288
     0
  0
DIMSTYLE
105
62
330
A
100
AcDbSymbolTableRecord
100
AcDbDimStyleTableRecord
  2
AM_JIS$7
 70
     0
  3

  4
"
  5
OPEN30
  6

  7

 40
1.0
 41
2.5
 42
1.0
 43
10.0
 44
1.0
 45
0.0
 46
0.0
 47
0.1
 48
0.1
140
3.2
141
0.0
142
0.0
143
0.0393701
144
1.0
145
0.0
146
0.71
147
1.5
 71
     0
 72
     0
 73
     0
 74
     0
 75
     0
 76
     0
 77
     3
 78
     8
170
     0
171
     2
172
     1
173
     0
174
     0
175
     0
176
   256
177
   256
178
     2
270
     2
271
     2
272
     3
273
     2
274
     2
340
6B
275
     0
280
     0
281
     0
282
     0
283
     0
284
     0
285
     0
286
     0
287
     3
288
     0
  0
DIMSTYLE
105
63
330
A
100
AcDbSymbolTableRecord
100
AcDbDimStyleTableRecord
  2
AM_JIS$SF
 70
     0
  3

  4
"
  5
OPEN30
  6

  7

 40
1.0
 41
2.5
 42
1.0
 43
10.0
 44
1.0
 45
0.0
 46
0.0
 47
0.1
 48
0.1
140
3.2
141
0.0
142
0.0
143
0.0393701
144
1.0
145
0.0
146
0.71
147
1.5
 71
     0
 72
     0
 73
     0
 74
     0
 75
     1
 76
     1
 77
     3
 78
     8
170
     0
171
     2
172
     1
173
     0
174
     0
175
     0
176
   256
177
   256
178
     2
270
     2
271
     2
272
     2
273
     2
274
     2
340
6B
275
     0
280
     0
281
     0
282
     0
283
     0
284
     0
285
     0
286
     0
287
     3
288
     0
  0
DIMSTYLE
105
68
330
A
100
AcDbSymbolTableRecord
100
AcDbDimStyleTableRecord
  2
AM_JIS$SH
 70
     0
  3

  4
"
  5

  6
GENAXEH
  7
OPEN30
 40
1.0
 41
2.5
 42
1.0
 43
10.0
 44
1.0
 45
0.0
 46
0.0
 47
0.1
 48
0.1
140
3.2
141
0.0
142
0.0
143
0.0393701
144
2.0
145
0.0
146
0.71
147
1.5
 71
     0
 72
     0
 73
     0
 74
     0
 75
     1
 76
     1
 77
     3
 78
     8
170
     0
171
     2
172
     1
173
     1
174
     0
175
     0
176
   256
177
   256
178
     2
270
     2
271
     2
272
     2
273
     2
274
     2
340
6B
275
     0
280
     0
281
     0
282
     0
283
     0
284
     0
285
     0
286
     0
287
     3
288
     0
  0
DIMSTYLE
105
B34
330
A
100
AcDbSymbolTableRecord
100
AcDbDimStyleTableRecord
  2
AM_JIS$2
 70
     0
  3

  4
"
  5
OPEN30
  6

  7

 40
1.0
 41
2.5
 42
1.0
 43
12.0
 44
1.0
 45
0.0
 46
0.0
 47
0.1
 48
0.1
140
3.2
141
0.0
142
0.0
143
0.0393701
144
1.0
145
0.0
146
0.71
147
1.5
 71
     0
 72
     0
 73
     0
 74
     0
 75
     0
 76
     0
 77
     3
 78
     8
170
     0
171
     2
172
     1
173
     0
174
     0
175
     0
176
   256
177
   256
178
     2
270
     2
271
     3
272
     3
273
     2
274
     2
340
6B
275
     0
280
     0
281
     0
282
     0
283
     0
284
     0
285
     0
286
     0
287
     3
288
     0
  0
DIMSTYLE
105
BA5
102
{ACAD_REACTORS
330
38E8
330
3983
330
3A0B
330
3AF5
330
3B7D
330
385C
102
}
330
A
100
AcDbSymbolTableRecord
100
AcDbDimStyleTableRecord
  2
AM_JIS$0
 70
     0
  3

  4
"
  5
OPEN30
  6

  7

 40
1.0
 41
2.5
 42
0.0
 43
10.0
 44
1.0
 45
0.0
 46
0.0
 47
0.1
 48
0.1000000001
140
3.799999999999999
141
0.0
142
0.0
143
0.0393701
144
1.0
145
0.0
146
0.71
147
1.5
 71
     0
 72
     0
 73
     0
 74
     0
 75
     0
 76
     0
 77
     3
 78
     1
170
     0
171
     2
172
     1
173
     0
174
     0
175
     0
176
     3
177
     3
178
     2
270
     2
271
     2
272
     2
273
     2
274
     2
340
11
275
     1
280
     0
281
     0
282
     0
283
     0
284
     8
285
     0
286
     0
287
     0
288
     0
  0
ENDTAB
  0
TABLE
  2
BLOCK_RECORD
  5
1
330
0
100
AcDbSymbolTable
 70
    11
  0
BLOCK_RECORD
  5
1F
102
{ACAD_XDICTIONARY
360
74
102
}
330
1
100
AcDbSymbolTableRecord
100
AcDbBlockTableRecord
  2
*MODEL_SPACE
  0
BLOCK_RECORD
  5
101
102
{ACAD_XDICTIONARY
360
47A7
102
}
330
1
100
AcDbSymbolTableRecord
100
AcDbBlockTableRecord
  2
*PAPER_SPACE
  0
BLOCK_RECORD
  5
59
330
1
100
AcDbSymbolTableRecord
100
AcDbBlockTableRecord
  2
_OPEN30
  0
BLOCK_RECORD
  5
64
330
1
100
AcDbSymbolTableRecord
100
AcDbBlockTableRecord
  2
GENAXEH
  0
BLOCK_RECORD
  5
385D
330
1
100
AcDbSymbolTableRecord
100
AcDbBlockTableRecord
  2
*D5
  0
BLOCK_RECORD
  5
38E9
330
1
100
AcDbSymbolTableRecord
100
AcDbBlockTableRecord
  2
*D6
  0
BLOCK_RECORD
  5
3984
330
1
100
AcDbSymbolTableRecord
100
AcDbBlockTableRecord
  2
*D7
  0
BLOCK_RECORD
  5
3A0C
330
1
100
AcDbSymbolTableRecord
100
AcDbBlockTableRecord
  2
*D8
  0
BLOCK_RECORD
  5
3AF6
330
1
100
AcDbSymbolTableRecord
100
AcDbBlockTableRecord
  2
*D9
  0
BLOCK_RECORD
  5
3B7E
330
1
100
AcDbSymbolTableRecord
100
AcDbBlockTableRecord
  2
*D10
  0
ENDTAB
  0
ENDSEC
  0
SECTION
  2
BLOCKS
  0
BLOCK
  5
20
330
1F
100
AcDbEntity
  8
0
100
AcDbBlockBegin
  2
*MODEL_SPACE
 70
     0
 10
0.0
 20
0.0
 30
0.0
  3
*MODEL_SPACE
  1

  0
ENDBLK
  5
21
330
1F
100
AcDbEntity
  8
0
100
AcDbBlockEnd
  0
BLOCK
  5
103
330
101
100
AcDbEntity
 67
     1
  8
0
100
AcDbBlockBegin
  2
*PAPER_SPACE
 70
     0
 10
0.0
 20
0.0
 30
0.0
  3
*PAPER_SPACE
  1

  0
ENDBLK
  5
104
330
101
100
AcDbEntity
 67
     1
  8
0
100
AcDbBlockEnd
  0
BLOCK
  5
5D
330
59
100
AcDbEntity
  8
0
100
AcDbBlockBegin
  2
_OPEN30
 70
     0
 10
0.0
 20
0.0
 30
0.0
  3
_OPEN30
  1

  0
LINE
  5
5A
330
59
100
AcDbEntity
  8
0
 62
     0
100
AcDbLine
 10
-1.0
 20
0.26794919
 30
0.0
 11
0.0
 21
0.0
 31
0.0
  0
LINE
  5
5B
330
59
100
AcDbEntity
  8
0
 62
     0
100
AcDbLine
 10
0.0
 20
0.0
 30
0.0
 11
-1.0
 21
-0.26794919
 31
0.0
  0
LINE
  5
5C
330
59
100
AcDbEntity
  8
0
 62
     0
100
AcDbLine
 10
0.0
 20
0.0
 30
0.0
 11
-1.0
 21
0.0
 31
0.0
  0
ENDBLK
  5
5E
330
59
100
AcDbEntity
  8
0
100
AcDbBlockEnd
  0
BLOCK
  5
66
330
64
100
AcDbEntity
  8
0
100
AcDbBlockBegin
  2
GENAXEH
 70
     0
 10
0.0
 20
0.0
 30
0.0
  3
GENAXEH
  1

  0
LINE
  5
65
330
64
100
AcDbEntity
  8
0
100
AcDbLine
 10
-1.0
 20
0.0
 30
0.0
 11
1.0
 21
0.0
 31
0.0
  0
ENDBLK
  5
67
330
64
100
AcDbEntity
  8
0
100
AcDbBlockEnd
  0
BLOCK
  5
3867
330
385D
100
AcDbEntity
  8
0
100
AcDbBlockBegin
  2
*D5
 70
     1
 10
0.0
 20
0.0
 30
0.0
  3
*D5
  1

  0
LINE
  5
4709
330
385D
100
AcDbEntity
  8
AM_5
 62
     3
100
AcDbLine
 10
-0.0000094522871755
 20
24.99999809267703
 30
0.0
 11
18.88510994774704
 21
24.99999809267702
 31
0.0
  0
LINE
  5
470A
330
385D
100
AcDbEntity
  8
AM_5
 62
     3
100
AcDbLine
 10
0.0000472614358958
 20
-25.0000019073051
 30
0.0
 11
18.88510994774703
 21
-25.0000019073051
 31
0.0
  0
LINE
  5
470B
330
385D
100
AcDbEntity
  8
AM_5
 62
     3
100
AcDbLine
 10
17.88510994774704
 20
22.49999809267702
 30
0.0
 11
17.88510994774703
 21
-22.5000019073051
 31
0.0
  0
INSERT
  5
470C
330
385D
100
AcDbEntity
  8
AM_5
 62
     3
100
AcDbBlockReference
  2
_OPEN30
 10
17.88510994774704
 20
24.99999809267702
 30
0.0
 41
2.5
 42
2.5
 43
2.5
 50
90.0
  0
INSERT
  5
470D
330
385D
100
AcDbEntity
  8
AM_5
 62
     3
100
AcDbBlockReference
  2
_OPEN30
 10
17.88510994774703
 20
-25.0000019073051
 30
0.0
 41
2.5
 42
2.5
 43
2.5
 50
270.0
  0
MTEXT
  5
470E
330
385D
100
AcDbEntity
  8
AM_5
 62
     2
100
AcDbMText
 10
14.48510994774704
 20
-0.0000019073140336
 30
0.0
 40
3.799999999999999
 41
0.0
 71
     5
 72
     1
  1
%%c50
 11
0.0000000000000001
 21
1.0
 31
0.0
1001
ACAD
1000
MTEXTBEGIN
1070
    73
1070
     1
1070
    44
1040
1.0
1070
    74
1070
     0
1000
MTEXTEND
  0
POINT
  5
470F
330
385D
100
AcDbEntity
  8
DEFPOINTS
 62
     0
100
AcDbPoint
 10
-0.0000094522871755
 20
24.99999809267703
 30
0.0
  0
POINT
  5
4710
330
385D
100
AcDbEntity
  8
DEFPOINTS
 62
     0
100
AcDbPoint
 10
0.0000472614358958
 20
-25.0000019073051
 30
0.0
  0
POINT
  5
4711
330
385D
100
AcDbEntity
  8
DEFPOINTS
 62
     0
100
AcDbPoint
 10
17.88510994774703
 20
-25.0000019073051
 30
0.0
  0
ENDBLK
  5
3868
330
385D
100
AcDbEntity
  8
0
100
AcDbBlockEnd
  0
BLOCK
  5
38F3
330
38E9
100
AcDbEntity
  8
0
100
AcDbBlockBegin
  2
*D6
 70
     1
 10
0.0
 20
0.0
 30
0.0
  3
*D6
  1

  0
LINE
  5
4712
330
38E9
100
AcDbEntity
  8
AM_5
 62
     3
100
AcDbLine
 10
0.0000000000000031
 20
12.49999809265016
 30
0.0
 11
0.0000000000000047
 21
39.99999909260553
 31
0.0
  0
LINE
  5
4713
330
38E9
100
AcDbEntity
  8
AM_5
 62
     3
100
AcDbLine
 10
-12.99999999999999
 20
12.51002622227675
 30
0.0
 11
-12.99999999999999
 21
39.99999909260553
 31
0.0
  0
LINE
  5
4714
330
38E9
100
AcDbEntity
  8
AM_5
 62
     3
100
AcDbLine
 10
-2.499999999999995
 20
38.99999909260553
 30
0.0
 11
-10.49999999999999
 21
38.99999909260553
 31
0.0
  0
INSERT
  5
4715
330
38E9
100
AcDbEntity
  8
AM_5
 62
     3
100
AcDbBlockReference
  2
_OPEN30
 10
0.0000000000000047
 20
38.99999909260553
 30
0.0
 41
2.5
 42
2.5
 43
2.5
  0
INSERT
  5
4716
330
38E9
100
AcDbEntity
  8
AM_5
 62
     3
100
AcDbBlockReference
  2
_OPEN30
 10
-12.99999999999999
 20
38.99999909260553
 30
0.0
 41
2.5
 42
2.5
 43
2.5
 50
180.0
  0
MTEXT
  5
4717
330
38E9
100
AcDbEntity
  8
AM_5
 62
     2
100
AcDbMText
 10
-6.499999999999994
 20
42.39999909260553
 30
0.0
 40
3.799999999999999
 41
0.0
 71
     5
 72
     1
  1
13
1001
ACAD
1000
MTEXTBEGIN
1070
    73
1070
     1
1070
    44
1040
1.0
1070
    74
1070
     0
1000
MTEXTEND
  0
POINT
  5
4718
330
38E9
100
AcDbEntity
  8
DEFPOINTS
 62
     0
100
AcDbPoint
 10
0.0000000000000031
 20
12.49999809265016
 30
0.0
  0
POINT
  5
4719
330
38E9
100
AcDbEntity
  8
DEFPOINTS
 62
     0
100
AcDbPoint
 10
-12.99999999999999
 20
12.51002622227675
 30
0.0
  0
POINT
  5
471A
330
38E9
100
AcDbEntity
  8
DEFPOINTS
 62
     0
100
AcDbPoint
 10
-12.99999999999999
 20
38.99999909260553
 30
0.0
  0
ENDBLK
  5
38F4
330
38E9
100
AcDbEntity
  8
0
100
AcDbBlockEnd
  0
BLOCK
  5
398E
330
3984
100
AcDbEntity
  8
0
100
AcDbBlockBegin
  2
*D7
 70
     1
 10
0.0
 20
0.0
 30
0.0
  3
*D7
  1

  0
LINE
  5
46EE
330
3984
100
AcDbEntity
  8
AM_5
 62
     3
100
AcDbLine
 10
0.0
 20
-12.50000190734983
 30
0.0
 11
-0.0000000000000017
 21
-40.00002748325182
 31
0.0
  0
LINE
  5
46EF
330
3984
100
AcDbEntity
  8
AM_5
 62
     3
100
AcDbLine
 10
-40.00446796417299
 20
-15.5000934600838
 30
0.0
 11
-40.00446796417299
 21
-40.00002748325182
 31
0.0
  0
LINE
  5
46F0
330
3984
100
AcDbEntity
  8
AM_5
 62
     3
100
AcDbLine
 10
-2.500000000000001
 20
-39.00002748325182
 30
0.0
 11
-37.50446796417299
 21
-39.00002748325182
 31
0.0
  0
INSERT
  5
46F1
330
3984
100
AcDbEntity
  8
AM_5
 62
     3
100
AcDbBlockReference
  2
_OPEN30
 10
-0.0000000000000016
 20
-39.00002748325182
 30
0.0
 41
2.5
 42
2.5
 43
2.5
  0
INSERT
  5
46F2
330
3984
100
AcDbEntity
  8
AM_5
 62
     3
100
AcDbBlockReference
  2
_OPEN30
 10
-40.00446796417299
 20
-39.00002748325182
 30
0.0
 41
2.5
 42
2.5
 43
2.5
 50
180.0
  0
MTEXT
  5
46F3
330
3984
100
AcDbEntity
  8
AM_5
 62
     2
100
AcDbMText
 10
-20.00223398208649
 20
-35.60002748325182
 30
0.0
 40
3.799999999999999
 41
0.0
 71
     5
 72
     1
  1
40
1001
ACAD
1000
MTEXTBEGIN
1070
    73
1070
     1
1070
    44
1040
1.0
1070
    74
1070
     0
1000
MTEXTEND
  0
POINT
  5
46F4
330
3984
100
AcDbEntity
  8
DEFPOINTS
 62
     0
100
AcDbPoint
 10
0.0
 20
-12.50000190734983
 30
0.0
  0
POINT
  5
46F5
330
3984
100
AcDbEntity
  8
DEFPOINTS
 62
     0
100
AcDbPoint
 10
-40.00446796417299
 20
-15.5000934600838
 30
0.0
  0
POINT
  5
46F6
330
3984
100
AcDbEntity
  8
DEFPOINTS
 62
     0
100
AcDbPoint
 10
-40.00446796417299
 20
-39.00002748325182
 30
0.0
  0
ENDBLK
  5
398F
330
3984
100
AcDbEntity
  8
0
100
AcDbBlockEnd
  0
BLOCK
  5
3A16
330
3A0C
100
AcDbEntity
  8
0
100
AcDbBlockBegin
  2
*D8
 70
     1
 10
0.0
 20
0.0
 30
0.0
  3
*D8
  1

  0
LINE
  5
4724
330
3A0C
100
AcDbEntity
  8
AM_5
 62
     3
100
AcDbLine
 10
-40.00446796417299
 20
-15.5000934600838
 30
0.0
 11
-40.00446796417299
 21
-40.00002748325214
 31
0.0
  0
LINE
  5
4725
330
3A0C
100
AcDbEntity
  8
AM_5
 62
     3
100
AcDbLine
 10
-219.9800538256323
 20
-13.66105041243968
 30
0.0
 11
-219.9800538256323
 21
-40.00002748325214
 31
0.0
  0
LINE
  5
4726
330
3A0C
100
AcDbEntity
  8
AM_5
 62
     3
100
AcDbLine
 10
-42.50446796417299
 20
-39.00002748325213
 30
0.0
 11
-217.4800538256323
 21
-39.00002748325213
 31
0.0
  0
INSERT
  5
4727
330
3A0C
100
AcDbEntity
  8
AM_5
 62
     3
100
AcDbBlockReference
  2
_OPEN30
 10
-40.00446796417299
 20
-39.00002748325213
 30
0.0
 41
2.5
 42
2.5
 43
2.5
  0
INSERT
  5
4728
330
3A0C
100
AcDbEntity
  8
AM_5
 62
     3
100
AcDbBlockReference
  2
_OPEN30
 10
-219.9800538256323
 20
-39.00002748325213
 30
0.0
 41
2.5
 42
2.5
 43
2.5
 50
180.0
  0
MTEXT
  5
4729
330
3A0C
100
AcDbEntity
  8
AM_5
 62
     2
100
AcDbMText
 10
-129.9922608949026
 20
-35.60002748325214
 30
0.0
 40
3.799999999999999
 41
0.0
 71
     5
 72
     1
  1
180
1001
ACAD
1000
MTEXTBEGIN
1070
    73
1070
     1
1070
    44
1040
1.0
1070
    74
1070
     0
1000
MTEXTEND
  0
POINT
  5
472A
330
3A0C
100
AcDbEntity
  8
DEFPOINTS
 62
     0
100
AcDbPoint
 10
-40.00446796417299
 20
-15.5000934600838
 30
0.0
  0
POINT
  5
472B
330
3A0C
100
AcDbEntity
  8
DEFPOINTS
 62
     0
100
AcDbPoint
 10
-219.9800538256323
 20
-13.66105041243968
 30
0.0
  0
POINT
  5
472C
330
3A0C
100
AcDbEntity
  8
DEFPOINTS
 62
     0
100
AcDbPoint
 10
-219.9800538256323
 20
-39.00002748325213
 30
0.0
  0
ENDBLK
  5
3A17
330
3A0C
100
AcDbEntity
  8
0
100
AcDbBlockEnd
  0
BLOCK
  5
3B00
330
3AF6
100
AcDbEntity
  8
0
100
AcDbBlockBegin
  2
*D9
 70
     1
 10
0.0
 20
0.0
 30
0.0
  3
*D9
  1

  0
LINE
  5
471B
330
3AF6
100
AcDbEntity
  8
AM_5
 62
     3
100
AcDbLine
 10
-219.9800538256323
 20
-13.66105041243968
 30
0.0
 11
-219.9800538256323
 21
-50.00002748325174
 31
0.0
  0
LINE
  5
471C
330
3AF6
100
AcDbEntity
  8
AM_5
 62
     3
100
AcDbLine
 10
0.0
 20
-12.50000190734983
 30
0.0
 11
-0.0000000000000023
 21
-50.00002748325174
 31
0.0
  0
LINE
  5
471D
330
3AF6
100
AcDbEntity
  8
AM_5
 62
     3
100
AcDbLine
 10
-217.4800538256323
 20
-49.00002748325174
 30
0.0
 11
-2.500000000000002
 21
-49.00002748325174
 31
0.0
  0
INSERT
  5
471E
330
3AF6
100
AcDbEntity
  8
AM_5
 62
     3
100
AcDbBlockReference
  2
_OPEN30
 10
-219.9800538256323
 20
-49.00002748325174
 30
0.0
 41
2.5
 42
2.5
 43
2.5
 50
180.0
  0
INSERT
  5
471F
330
3AF6
100
AcDbEntity
  8
AM_5
 62
     3
100
AcDbBlockReference
  2
_OPEN30
 10
-0.0000000000000022
 20
-49.00002748325174
 30
0.0
 41
2.5
 42
2.5
 43
2.5
  0
MTEXT
  5
4720
330
3AF6
100
AcDbEntity
  8
AM_5
 62
     2
100
AcDbMText
 10
-109.9900269128161
 20
-45.60002748325174
 30
0.0
 40
3.799999999999999
 41
0.0
 71
     5
 72
     1
  1
220
1001
ACAD
1000
MTEXTBEGIN
1070
    73
1070
     1
1070
    44
1040
1.0
1070
    74
1070
     0
1000
MTEXTEND
  0
POINT
  5
4721
330
3AF6
100
AcDbEntity
  8
DEFPOINTS
 62
     0
100
AcDbPoint
 10
-219.9800538256323
 20
-13.66105041243968
 30
0.0
  0
POINT
  5
4722
330
3AF6
100
AcDbEntity
  8
DEFPOINTS
 62
     0
100
AcDbPoint
 10
0.0
 20
-12.50000190734983
 30
0.0
  0
POINT
  5
4723
330
3AF6
100
AcDbEntity
  8
DEFPOINTS
 62
     0
100
AcDbPoint
 10
-0.0000000000000022
 20
-49.00002748325174
 30
0.0
  0
ENDBLK
  5
3B01
330
3AF6
100
AcDbEntity
  8
0
100
AcDbBlockEnd
  0
BLOCK
  5
3B88
330
3B7E
100
AcDbEntity
  8
0
100
AcDbBlockBegin
  2
*D10
 70
     1
 10
0.0
 20
0.0
 30
0.0
  3
*D10
  1

  0
LINE
  5
4700
330
3B7E
100
AcDbEntity
  8
AM_5
 62
     3
100
AcDbLine
 10
-216.9800399508725
 20
-21.00041400626524
 30
0.0
 11
-240.2828317084072
 21
-21.00041400626523
 31
0.0
  0
LINE
  5
4701
330
3B7E
100
AcDbEntity
  8
AM_5
 62
     3
100
AcDbLine
 10
-216.9801193500856
 20
20.99958647049591
 30
0.0
 11
-240.2828317084072
 21
20.99958647049591
 31
0.0
  0
LINE
  5
4702
330
3B7E
100
AcDbEntity
  8
AM_5
 62
     3
100
AcDbLine
 10
-239.2828317084072
 20
-18.50041400626523
 30
0.0
 11
-239.2828317084072
 21
18.49958647049591
 31
0.0
  0
INSERT
  5
4703
330
3B7E
100
AcDbEntity
  8
AM_5
 62
     3
100
AcDbBlockReference
  2
_OPEN30
 10
-239.2828317084072
 20
-21.00041400626523
 30
0.0
 41
2.5
 42
2.5
 43
2.5
 50
270.0
  0
INSERT
  5
4704
330
3B7E
100
AcDbEntity
  8
AM_5
 62
     3
100
AcDbBlockReference
  2
_OPEN30
 10
-239.2828317084072
 20
20.99958647049591
 30
0.0
 41
2.5
 42
2.5
 43
2.5
 50
90.0
  0
MTEXT
  5
4705
330
3B7E
100
AcDbEntity
  8
AM_5
 62
     2
100
AcDbMText
 10
-242.6828317084072
 20
-0.0000295639053268
 30
0.0
 40
3.799999999999999
 41
0.0
 71
     5
 72
     1
  1
%%c42
 11
0.0000000000000001
 21
1.0
 31
0.0
1001
ACAD
1000
MTEXTBEGIN
1070
    73
1070
     1
1070
    44
1040
1.0
1070
    74
1070
     0
1000
MTEXTEND
  0
POINT
  5
4706
330
3B7E
100
AcDbEntity
  8
DEFPOINTS
 62
     0
100
AcDbPoint
 10
-216.9800399508725
 20
-21.00041400626524
 30
0.0
  0
POINT
  5
4707
330
3B7E
100
AcDbEntity
  8
DEFPOINTS
 62
     0
100
AcDbPoint
 10
-216.9801193500856
 20
20.99958647049591
 30
0.0
  0
POINT
  5
4708
330
3B7E
100
AcDbEntity
  8
DEFPOINTS
 62
     0
100
AcDbPoint
 10
-239.2828317084072
 20
20.99958647049591
 30
0.0
  0
ENDBLK
  5
3B89
330
3B7E
100
AcDbEntity
  8
0
100
AcDbBlockEnd
  0
ENDSEC
  0
SECTION
  2
ENTITIES
  0
TEXT
  5
1142
330
1F
100
AcDbEntity
  8
AM_6
100
AcDbText
 10
-136.6566935794828
 20
-71.50002748325174
 30
0.0
 40
5.0
  1
WEM3050EL-C
 72
     4
 11
-109.9900269128161
 21
-69.00002748325174
 31
0.0
100
AcDbText
  0
DIMENSION
  5
385C
330
1F
100
AcDbEntity
  8
AM_5
100
AcDbDimension
  2
*D5
 10
17.88510994774703
 20
-25.0000019073051
 30
0.0
 11
14.48510994774704
 21
-0.0000019073140336
 31
0.0
 70
    32
  1
%%c<>
  3
AM_JIS$0
100
AcDbAlignedDimension
 13
-0.0000094522871755
 23
24.99999809267703
 33
0.0
 14
0.0000472614358958
 24
-25.0000019073051
 34
0.0
 50
90.00000000000003
100
AcDbRotatedDimension
1001
ACAD
1000
DSTYLE
1002
{
1070
   271
1070
     0
1002
}
1001
GENIUS_GENDTOL_13
1000

1000
h7
1000

1040
0.0
  0
DIMENSION
  5
38E8
330
1F
100
AcDbEntity
  8
AM_5
100
AcDbDimension
  2
*D6
 10
-12.99999999999999
 20
38.99999909260553
 30
0.0
 11
-6.499999999999994
 21
42.39999909260553
 31
0.0
 70
    32
  1
<>
  3
AM_JIS$0
100
AcDbAlignedDimension
 13
0.0000000000000031
 23
12.49999809265016
 33
0.0
 14
-12.99999999999999
 24
12.51002622227675
 34
0.0
 50
180.0
100
AcDbRotatedDimension
1001
ACAD
1000
DSTYLE
1002
{
1070
   271
1070
     0
1002
}
1001
GENIUS_GENDTOL_13
1000

1000
h7
1000

1040
0.0
  0
DIMENSION
  5
3983
330
1F
100
AcDbEntity
  8
AM_5
100
AcDbDimension
  2
*D7
 10
-40.00446796417299
 20
-39.00002748325182
 30
0.0
 11
-20.00223398208649
 21
-35.60002748325182
 31
0.0
 70
    32
  1
<>
  3
AM_JIS$0
100
AcDbAlignedDimension
 13
0.0
 23
-12.50000190734983
 33
0.0
 14
-40.00446796417299
 24
-15.5000934600838
 34
0.0
 50
0.0000000000001132
100
AcDbRotatedDimension
1001
ACAD
1000
DSTYLE
1002
{
1070
   271
1070
     0
1002
}
1001
GENIUS_GENDTOL_13
1000

1000
h7
1000

1040
0.0
  0
DIMENSION
  5
3A0B
330
1F
100
AcDbEntity
  8
AM_5
100
AcDbDimension
  2
*D8
 10
-219.9800538256323
 20
-39.00002748325213
 30
0.0
 11
-129.9922608949026
 21
-35.60002748325214
 31
0.0
 70
    32
  1
<>
  3
AM_JIS$0
100
AcDbAlignedDimension
 13
-40.00446796417299
 23
-15.5000934600838
 33
0.0
 14
-219.9800538256323
 24
-13.66105041243968
 34
0.0
 50
0.0000000000001132
100
AcDbRotatedDimension
1001
ACAD
1000
DSTYLE
1002
{
1070
   271
1070
     0
1002
}
1001
GENIUS_GENDTOL_13
1000

1000
h7
1000

1040
0.0
  0
DIMENSION
  5
3AF5
330
1F
100
AcDbEntity
  8
AM_5
100
AcDbDimension
  2
*D9
 10
-0.0000000000000022
 20
-49.00002748325174
 30
0.0
 11
-109.9900269128161
 21
-45.60002748325174
 31
0.0
 70
    32
  1
<>
  3
AM_JIS$0
100
AcDbAlignedDimension
 13
-219.9800538256323
 23
-13.66105041243968
 33
0.0
 14
0.0
 24
-12.50000190734983
 34
0.0
 50
0.0000000000001132
100
AcDbRotatedDimension
1001
ACAD
1000
DSTYLE
1002
{
1070
   271
1070
     0
1002
}
1001
GENIUS_GENDTOL_13
1000

1000
h7
1000

1040
0.0
  0
DIMENSION
  5
3B7D
330
1F
100
AcDbEntity
  8
AM_5
100
AcDbDimension
  2
*D10
 10
-239.2828317084072
 20
20.99958647049591
 30
0.0
 11
-239.2828317084072
 21
-0.0000295639053272
 31
0.0
 70
   160
  1
%%c<>
  3
AM_JIS$0
100
AcDbAlignedDimension
 13
-216.9800399508725
 23
-21.00041400626524
 33
0.0
 14
-216.9801193500856
 24
20.99958647049591
 34
0.0
 50
270.0
100
AcDbRotatedDimension
1001
ACAD
1000
DSTYLE
1002
{
1070
   271
1070
     0
1002
}
1001
GENIUS_GENDTOL_13
1000

1000
h7
1000

1040
0.0
  0
LINE
  5
4533
330
1F
100
AcDbEntity
  8
AM_7
  6
AM_ISO08W050X2
100
AcDbLine
 10
3.885108947747064
 20
0.0000054372833295
 30
0.0
 11
-225.2828307084072
 21
-0.000427794952242
 31
0.0
  0
LINE
  5
4534
330
1F
100
AcDbEntity
  8
AM_0
100
AcDbLine
 10
-39.98011172101781
 20
20.99992203515087
 30
0.0
 11
-216.9801193500874
 21
20.99958742417031
 31
0.0
  0
LINE
  5
4535
330
1F
100
AcDbEntity
  8
AM_0
100
AcDbLine
 10
-39.9800323218028
 20
-21.00007939528468
 30
0.0
 11
-216.9800399508725
 21
-21.00041400626524
 31
0.0
  0
ELLIPSE
  5
4536
330
1F
100
AcDbEntity
  8
AM_0
100
AcDbEllipse
 10
-14.86907958987152
 20
-0.0000014064818437
 30
0.0
 11
254.3165949506118
 21
-17.47124937864025
 31
0.0
210
0.0
220
0.0
230
1.0
 40
0.0389304792132
 41
4.645981005459288
 42
4.663449554019408
  0
ELLIPSE
  5
4537
330
1F
100
AcDbEntity
  8
AM_0
100
AcDbEllipse
 10
3.688926696716325
 20
0.0000336766391345
 30
0.0
 11
-39.79341757447675
 21
-18.49162203190019
 31
0.0
210
0.0
220
0.0
230
1.0
 40
0.1919771815486
 41
5.835259939398337
 42
6.674327010275642
  0
SPLINE
  5
4538
330
1F
100
AcDbEntity
  8
AM_0
100
AcDbSpline
210
0.0
220
0.0
230
1.0
 70
     8
 71
     3
 72
    11
 73
     7
 74
     5
 42
0.0000000001
 43
0.0000000001
 44
0.0000000001
 40
0.0
 40
0.0
 40
0.0
 40
0.0
 40
2.353519500634508
 40
4.706248903324532
 40
7.058216191549503
 40
9.41136993164951
 40
9.41136993164951
 40
9.41136993164951
 40
9.41136993164951
 10
-1.541098042787623
 20
7.275080628501977
 30
0.0
 10
-1.524654694912005
 20
8.059415566223528
 30
0.0
 10
-1.491773519342503
 20
9.627822133280224
 30
0.0
 10
-1.432319515932676
 20
11.9798160135105
 30
0.0
 10
-1.365537962696136
 20
14.33148957333047
 30
0.0
 10
-1.315256045995959
 20
15.89905815571425
 30
0.0
 10
-1.290108748056092
 20
16.68304008737837
 30
0.0
 11
-1.541098042787623
 21
7.275080628501977
 31
0.0
 11
-1.490077100345368
 21
9.628047033553102
 31
0.0
 11
-1.431091068165984
 21
11.98003689116088
 31
0.0
 11
-1.364109428672453
 21
14.33105020138502
 31
0.0
 11
-1.290108748056092
 21
16.68304008737837
 31
0.0
  0
SPLINE
  5
4539
330
1F
100
AcDbEntity
  8
AM_0
100
AcDbSpline
210
0.0
220
0.0
230
1.0
 70
     8
 71
     3
 72
    11
 73
     7
 74
     5
 42
0.0000000001
 43
0.0000000001
 44
0.0000000001
 40
0.0
 40
0.0
 40
0.0
 40
0.0
 40
1.450645515612865
 40
2.902586524716378
 40
4.354231893325314
 40
5.807483923857027
 40
5.807483923857027
 40
5.807483923857027
 40
5.807483923857027
 10
-1.527048595091851
 20
-14.87793638904472
 30
0.0
 10
-1.505299788818842
 20
-15.36099674484044
 30
0.0
 10
-1.461782753583645
 20
-16.32754885165546
 30
0.0
 10
-1.385854025611472
 20
-17.7769866817817
 30
0.0
 10
-1.299011658193211
 20
-19.22668534316102
 30
0.0
 10
-1.233043904327381
 20
-20.19273799322109
 30
0.0
 10
-1.200041784430309
 20
-20.67603147398763
 30
0.0
 11
-1.527048595091851
 21
-14.87793638904472
 31
0.0
 11
-1.460029254074389
 21
-16.3270329420381
 31
0.0
 11
-1.384037743472542
 21
-17.77698397025698
 31
0.0
 11
-1.297029388897489
 21
-19.22601945030497
 31
0.0
 11
-1.200041784430309
 21
-20.67603147398763
 31
0.0
  0
ELLIPSE
  5
453A
330
1F
100
AcDbEntity
  8
AM_0
100
AcDbEllipse
 10
-7.66804363494807
 20
-20.92402954131426
 30
0.0
 11
2.006973338799874
 21
-0.0112265362423537
 31
0.0
210
0.0
220
0.0
230
1.0
 40
0.4997529694744
 41
0.0472263654560151
 42
3.183579144351047
  0
ELLIPSE
  5
453B
330
1F
100
AcDbEntity
  8
AM_0
100
AcDbEllipse
 10
-7.667036554870075
 20
-20.92402953941042
 30
0.0
 11
2.005966242366078
 21
-0.0112266420772273
 31
0.0
210
0.0
220
0.0
230
1.0
 40
0.5000038627183
 41
0.0419210638797028
 42
0.0472225331927486
  0
SPLINE
  5
453C
330
1F
100
AcDbEntity
  8
AM_0
100
AcDbSpline
210
0.0
220
0.0
230
1.0
 70
     8
 71
     3
 72
    11
 73
     7
 74
     5
 42
0.0000000001
 43
0.0000000001
 44
0.0000000001
 40
0.0
 40
0.0
 40
0.0
 40
0.0
 40
0.1140674254010886
 40
0.2257244096241525
 40
0.3342234603249054
 40
0.4402023095728098
 40
0.4402023095728098
 40
0.4402023095728098
 40
0.4402023095728098
 10
-18.98003188707204
 20
-21.23002016442811
 30
0.0
 10
-19.01807263632272
 20
-21.22933522406087
 30
0.0
 10
-19.09335026826782
 20
-21.22797981729616
 30
0.0
 10
-19.20409365948406
 20
-21.21488533291709
 30
0.0
 10
-19.31156947805506
 20
-21.19789075016488
 30
0.0
 10
-19.38081408140141
 20
-21.17993393401177
 30
0.0
 10
-19.41502955712655
 20
-21.17106102583559
 30
0.0
 11
-18.98003188707204
 21
-21.23002016442811
 31
0.0
 11
-19.09403030765781
 21
-21.22605309478126
 31
0.0
 11
-19.20503802081833
 21
-21.21402937885561
 31
0.0
 11
-19.31203268376253
 21
-21.19602421003043
 31
0.0
 11
-19.41502955712655
 21
-21.17106102583559
 31
0.0
  0
SPLINE
  5
453D
330
1F
100
AcDbEntity
  8
AM_0
100
AcDbSpline
210
0.0
220
0.0
230
1.0
 70
     8
 71
     3
 72
    11
 73
     7
 74
     5
 42
0.0000000001
 43
0.0000000001
 44
0.0000000001
 40
0.0
 40
0.0
 40
0.0
 40
0.0
 40
0.1881719237203045
 40
0.4079362956242308
 40
0.6769742592680832
 40
0.9995798444593791
 40
0.9995798444593791
 40
0.9995798444593791
 40
0.9995798444593791
 10
-19.98003337299011
 20
-20.44401131269995
 30
0.0
 10
-19.99057194227902
 20
-20.3808710157324
 30
0.0
 10
-20.01341841603506
 20
-20.24398970878544
 30
0.0
 10
-20.1791531972106
 20
-20.07513492010708
 30
0.0
 10
-20.41841033938891
 20
-19.9435807674721
 30
0.0
 10
-20.61424754448084
 20
-19.90957598940473
 30
0.0
 10
-20.72103173282413
 20
-19.89103419789983
 30
0.0
 11
-19.98003337299011
 21
-20.44401131269995
 31
0.0
 11
-20.02803786734181
 21
-20.26206560266909
 31
0.0
 11
-20.17203537357002
 21
-20.09605024988994
 31
0.0
 11
-20.40703623153546
 21
-19.96506924883582
 31
0.0
 11
-20.72103173282413
 21
-19.89103419789983
 31
0.0
  0
SPLINE
  5
453E
330
1F
100
AcDbEntity
  8
AM_0
100
AcDbSpline
210
0.0
220
0.0
230
1.0
 70
     8
 71
     3
 72
    11
 73
     7
 74
     5
 42
0.0000000001
 43
0.0000000001
 44
0.0000000001
 40
0.0
 40
0.0
 40
0.0
 40
0.0
 40
0.1588723339705481
 40
0.3392925507228458
 40
0.558778091907226
 40
0.8226549766362701
 40
0.8226549766362701
 40
0.8226549766362701
 40
0.8226549766362701
 10
-19.98003299291401
 20
-20.64506111738659
 30
0.0
 10
-19.97258405580483
 20
-20.69833437963742
 30
0.0
 10
-19.95667588092765
 20
-20.81210636612917
 30
0.0
 10
-19.83540479007398
 20
-20.96303458063688
 30
0.0
 10
-19.65173561204886
 20
-21.08966393752967
 30
0.0
 10
-19.49861891796425
 20
-21.14231680724019
 30
0.0
 10
-19.41502955712655
 20
-21.17106102583559
 30
0.0
 11
-19.98003299291401
 21
-20.64506111738659
 31
0.0
 11
-19.94502903784416
 21
-20.80002931293238
 31
0.0
 11
-19.83902595422795
 21
-20.94602520628833
 31
0.0
 11
-19.66002485962141
 21
-21.0730390280506
 31
0.0
 11
-19.41502955712655
 21
-21.17106102583559
 31
0.0
  0
SPLINE
  5
453F
330
1F
100
AcDbEntity
  8
AM_0
100
AcDbSpline
210
0.0
220
0.0
230
1.0
 70
     8
 71
     3
 72
    11
 73
     7
 74
     5
 42
0.0000000001
 43
0.0000000001
 44
0.0000000001
 40
0.0
 40
0.0
 40
0.0
 40
0.0
 40
1.402406936806021
 40
2.710023348332154
 40
3.925168909879151
 40
5.048470970018436
 40
5.048470970018436
 40
5.048470970018436
 40
5.048470970018436
 10
-20.72103173282413
 20
-19.89103419789983
 30
0.0
 10
-21.18683039703737
 20
-19.85109426784736
 30
0.0
 10
-22.08694378246796
 20
-19.77391400002905
 30
0.0
 10
-23.3939818243218
 20
-19.71004975158839
 30
0.0
 10
-24.60952527265854
 20
-19.68585325774956
 30
0.0
 10
-25.38873603200551
 20
-19.71029600692085
 30
0.0
 10
-25.76303949860442
 20
-19.72203738194459
 30
0.0
 11
-20.72103173282413
 21
-19.89103419789983
 31
0.0
 11
-22.11904219649741
 21
-19.7800749267159
 31
0.0
 11
-23.42504207523841
 21
-19.71507495424696
 31
0.0
 11
-24.64003844912717
 21
-19.69603428239586
 31
0.0
 11
-25.76303949860442
 21
-19.72203738194459
 31
0.0
  0
ELLIPSE
  5
4540
330
1F
100
AcDbEntity
  8
AM_0
100
AcDbEllipse
 10
46.38888782266569
 20
18.94908233278601
 30
0.0
 11
-79.53715234091241
 21
-36.47759288807025
 31
0.0
210
0.0
220
0.0
230
1.0
 40
0.1625197093222
 41
0.2930597681060743
 42
0.3648773073030957
  0
ELLIPSE
  5
4541
330
1F
100
AcDbEntity
  8
AM_0
100
AcDbEllipse
 10
-19.05807495119203
 20
-0.000009325599273
 30
0.0
 11
-3.384994855105326
 21
-24.23172711985198
 31
0.0
210
0.0
220
0.0
230
0.9999999999999998
 40
0.2743688259885
 41
3.103039624592053
 42
3.172198852657396
  0
SPLINE
  5
4542
330
1F
100
AcDbEntity
  8
AM_0
100
AcDbSpline
210
0.0
220
0.0
230
1.0
 70
     8
 71
     3
 72
    11
 73
     7
 74
     5
 42
0.0000000001
 43
0.0000000001
 44
0.0000000001
 40
0.0
 40
0.0
 40
0.0
 40
0.0
 40
0.2566291213001968
 40
0.6838289348162068
 40
1.134872625880488
 40
1.612869452052485
 40
1.612869452052485
 40
1.612869452052485
 40
1.612869452052485
 10
-34.03810845952882
 20
19.984979654972
 30
0.0
 10
-33.95280956253993
 20
19.978347300638
 30
0.0
 10
-33.72551714313958
 20
19.96067434218121
 30
0.0
 10
-33.34712699724995
 20
19.95364144171609
 30
0.0
 10
-32.89514168396998
 20
19.94644989517918
 30
0.0
 10
-32.58544806936697
 20
19.94747036167142
 30
0.0
 10
-32.42610887788978
 20
19.94799539770103
 30
0.0
 11
-34.03810845952882
 21
19.984979654972
 31
0.0
 11
-33.78211172138888
 21
19.9669747678292
 31
0.0
 11
-33.35510974368778
 21
19.95397508677695
 31
0.0
 11
-32.90410570406092
 21
19.94799449406838
 31
0.0
 11
-32.42610887788978
 21
19.94799539770103
 31
0.0
  0
ELLIPSE
  5
4543
330
1F
100
AcDbEntity
  8
AM_0
100
AcDbEllipse
 10
-8.112100386031757
 20
17.03806869460018
 30
0.0
 11
-0.3556959809414011
 21
-9.164123934845488
 31
0.0
210
0.0
220
0.0
230
0.9999999999999998
 40
0.1902727687449
 41
1.390577927026174
 42
1.431013063507439
  0
ELLIPSE
  5
4544
330
1F
100
AcDbEntity
  8
AM_0
100
AcDbEllipse
 10
-14.86906432733613
 20
-0.0019831416829943
 30
0.0
 11
-308.3760070795239
 21
-0.0005829717156079
 31
0.0
210
0.0
220
0.0
230
1.0
 40
0.0786445006935
 41
4.715663393891848
 42
4.725694824003539
  0
SPLINE
  5
4545
330
1F
100
AcDbEntity
  8
AM_0
100
AcDbSpline
210
0.0
220
0.0
230
1.0
 70
     8
 71
     3
 72
    11
 73
     7
 74
     5
 42
0.0000000001
 43
0.0000000001
 44
0.0000000001
 40
0.0
 40
0.0
 40
0.0
 40
0.0
 40
0.3904641419249747
 40
0.7812580371945871
 40
1.172030769471038
 40
1.561722894577437
 40
1.561722894577437
 40
1.561722894577437
 40
1.561722894577437
 10
-19.9801159652371
 20
23.24501623505787
 30
0.0
 10
-19.96512557800956
 20
23.37614404164747
 30
0.0
 10
-19.93513214392768
 20
23.63851039440085
 30
0.0
 10
-19.70376349081731
 20
23.96972186630592
 30
0.0
 10
-19.37279791586349
 20
24.20059440006723
 30
0.0
 10
-19.11089033528251
 20
24.23156728516407
 30
0.0
 10
-18.98011785950401
 20
24.24703228566972
 30
0.0
 11
-19.9801159652371
 21
23.24501623505787
 31
0.0
 11
-19.90411266095412
 21
23.62801198420827
 31
0.0
 11
-19.68711803611824
 21
23.95302460145925
 31
0.0
 11
-19.36212149806825
 21
24.17000519632046
 31
0.0
 11
-18.98011785950401
 21
24.24703228566972
 31
0.0
  0
SPLINE
  5
4546
330
1F
100
AcDbEntity
  8
AM_0
100
AcDbSpline
210
0.0
220
0.0
230
1.0
 70
     8
 71
     3
 72
    11
 73
     7
 74
     5
 42
0.0000000001
 43
0.0000000001
 44
0.0000000001
 40
0.0
 40
0.0
 40
0.0
 40
0.0
 40
0.3263528405356996
 40
0.652912684852871
 40
0.9790815917422985
 40
1.303979446627431
 40
1.303979446627431
 40
1.303979446627431
 40
1.303979446627431
 10
-19.98011532439188
 20
22.90602673882737
 30
0.0
 10
-19.99042492701642
 20
22.7966408812648
 30
0.0
 10
-20.01105067158879
 20
22.577799783302
 30
0.0
 10
-20.17441146126903
 20
22.28646295068763
 30
0.0
 10
-20.41315457462232
 20
22.0535686728432
 30
0.0
 10
-20.6185924214867
 20
21.97717007931672
 30
0.0
 10
-20.72111081080906
 20
21.93904535753652
 30
0.0
 11
-19.98011532439188
 21
22.90602673882737
 31
0.0
 11
-20.03310849003787
 21
22.58400515427048
 31
0.0
 11
-20.18711490366216
 21
22.29604099593989
 31
0.0
 11
-20.42512107384427
 21
22.07301808506146
 31
0.0
 11
-20.72111081080906
 21
21.93904535753652
 31
0.0
  0
ELLIPSE
  5
4547
330
1F
100
AcDbEntity
  8
AM_0
100
AcDbEllipse
 10
-14.87007141306796
 20
0.0010075790691597
 30
0.0
 11
-254.3170166011026
 21
-0.0004807754950857
 31
0.0
210
0.0
220
0.0
230
1.0
 40
0.0786384121961
 41
4.763933892407875
 42
4.78147457369195
  0
SPLINE
  5
4548
330
1F
100
AcDbEntity
  8
AM_0
100
AcDbSpline
210
0.0
220
0.0
230
1.0
 70
     8
 71
     3
 72
    11
 73
     7
 74
     5
 42
0.0000000001
 43
0.0000000001
 44
0.0000000001
 40
0.0
 40
0.0
 40
0.0
 40
0.0
 40
0.0609741210940029
 40
0.234112141202709
 40
0.4942777164954918
 40
0.8004831207022814
 40
0.8004831207022814
 40
0.8004831207022814
 40
0.8004831207022814
 10
-1.672086622660831
 20
11.04906719728638
 30
0.0
 10
-1.672186606517834
 20
11.06939364346851
 30
0.0
 10
-1.672570497821697
 20
11.14743770139606
 30
0.0
 10
-1.664048715262765
 20
11.31204864724046
 30
0.0
 10
-1.657247257077859
 20
11.55844122173037
 30
0.0
 10
-1.649349797262611
 20
11.74707254011783
 30
0.0
 10
-1.645080078363752
 20
11.84905504131154
 30
0.0
 11
-1.672086622660831
 21
11.04906719728638
 31
0.0
 11
-1.672086737929812
 21
11.11004131838027
 31
0.0
 11
-1.666105619732495
 21
11.28307599765663
 31
0.0
 11
-1.657103425722917
 21
11.54308578030036
 31
0.0
 11
-1.645080078363752
 21
11.84905504131154
 31
0.0
  0
ELLIPSE
  5
4549
330
1F
100
AcDbEntity
  8
AM_0
100
AcDbEllipse
 10
-8.112115644820763
 20
17.03806869457133
 30
0.0
 11
-0.3557415416283892
 21
-9.165100418674619
 31
0.0
210
0.0
220
0.0
230
1.0
 40
0.1902541538424001
 41
4.863800544970369
 42
4.892646037729439
  0
ELLIPSE
  5
454A
330
1F
100
AcDbEntity
  8
AM_0
100
AcDbEllipse
 10
-14.53812853199361
 20
26.56704037788992
 30
0.0
 11
-15.06631289222887
 21
-7.389730538259143
 31
0.0
210
0.0
220
0.0
230
1.0
 40
0.8604366454665999
 41
0.4864232078908889
 42
0.5387220046623572
  0
SPLINE
  5
454B
330
1F
100
AcDbEntity
  8
AM_0
100
AcDbSpline
210
0.0
220
0.0
230
1.0
 70
    24
 71
     3
 72
     8
 73
     4
 74
     2
 42
0.0000000001
 43
0.0000000001
 44
0.0000000001
 40
0.0
 40
0.0
 40
0.0
 40
0.0
 40
0.0813986034269314
 40
0.0813986034269314
 40
0.0813986034269314
 40
0.0813986034269314
 10
-34.03810845952882
 20
19.984979654972
 30
0.0
 10
-34.06477574600862
 20
19.98998448737114
 30
0.0
 10
-34.09144303248842
 20
19.99498931977027
 30
0.0
 10
-34.11811031896823
 20
19.99999415216942
 30
0.0
 11
-34.03810845952882
 21
19.984979654972
 31
0.0
 11
-34.11811031896823
 21
19.99999415216942
 31
0.0
  0
ELLIPSE
  5
454C
330
1F
100
AcDbEntity
  8
AM_0
100
AcDbEllipse
 10
3.688926696716325
 20
0.0000336766391345
 30
0.0
 11
39.75170513844376
 21
-17.87575276826137
 31
0.0
210
0.0
220
0.0
230
1.0
 40
0.2256690596695
 41
2.883179112962429
 42
3.899463531125005
  0
ELLIPSE
  5
454D
330
1F
100
AcDbEntity
  8
AM_0
100
AcDbEllipse
 10
-17.17712103621376
 20
26.6700019359994
 30
0.0
 11
9.496914189861461
 21
-11.78714372686271
 31
0.0
210
0.0
220
0.0
230
0.9999999999999998
 40
0.9789272777755
 41
5.104635983171752
 42
5.575639941434516
  0
SPLINE
  5
454E
330
1F
100
AcDbEntity
  8
AM_0
100
AcDbSpline
210
0.0
220
0.0
230
1.0
 70
     8
 71
     3
 72
    11
 73
     7
 74
     5
 42
0.0000000001
 43
0.0000000001
 44
0.0000000001
 40
0.0
 40
0.0
 40
0.0
 40
0.0
 40
2.468375310538505
 40
4.938797428656119
 40
7.408942206606359
 40
9.881567656350185
 40
9.881567656350185
 40
9.881567656350185
 40
9.881567656350185
 10
-1.618101023150247
 20
11.04705313918786
 30
0.0
 10
-1.607103660913574
 20
10.22431182167651
 30
0.0
 10
-1.585099817290366
 20
8.578146959296775
 30
0.0
 10
-1.497828597201809
 20
6.109890868466048
 30
0.0
 10
-1.376055973743759
 20
3.641678268949617
 30
0.0
 10
-1.258760343926962
 20
1.998222528022293
 30
0.0
 10
-1.200083094921186
 20
1.176082249727322
 30
0.0
 11
-1.618101023150247
 21
11.04705313918786
 31
0.0
 11
-1.576073652390142
 21
8.579035640509406
 31
0.0
 11
-1.49208460986196
 21
6.110041658657705
 31
0.0
 11
-1.367079946141535
 21
3.64306191450029
 31
0.0
 11
-1.200083094921186
 21
1.176082249727322
 31
0.0
  0
ELLIPSE
  5
454F
330
1F
100
AcDbEntity
  8
AM_0
100
AcDbEllipse
 10
-17.17704628643969
 20
-20.94205288877307
 30
0.0
 11
14.87626684948257
 21
-1.968964717363234
 31
0.0
210
0.0
220
0.0
230
0.9999999999999998
 40
0.7270464097882
 41
1.986950744083975
 42
2.156130260691898
  0
ELLIPSE
  5
4550
330
1F
100
AcDbEntity
  8
AM_0
100
AcDbEllipse
 10
3.688926696716325
 20
0.0000336766391345
 30
0.0
 11
-39.79341757447675
 21
-18.49162203190019
 31
0.0
210
0.0
220
0.0
230
1.0
 40
0.1919771815486
 41
0.3911417030960559
 42
0.5683629637076616
  0
ELLIPSE
  5
4551
330
1F
100
AcDbEntity
  8
AM_0
100
AcDbEllipse
 10
-14.53807851148362
 20
8.179045850135223
 30
0.0
 11
-14.84081959153534
 21
-18.74032470403323
 31
0.0
210
0.0
220
0.0
230
1.0
 40
0.3656131454023999
 41
0.4527215910241674
 42
0.50625161579033
  0
ELLIPSE
  5
4552
330
1F
100
AcDbEntity
  8
AM_0
100
AcDbEllipse
 10
-2.326057434189624
 20
0.0000528231456587
 30
0.0
 11
-31.17533093432642
 21
-13.95953264188812
 31
0.0
210
0.0
220
0.0
230
1.0
 40
0.4593062810590001
 41
5.99566168560146
 42
6.241837181665253
  0
SPLINE
  5
4553
330
1F
100
AcDbEntity
  8
AM_0
100
AcDbSpline
210
0.0
220
0.0
230
1.0
 70
     8
 71
     3
 72
    11
 73
     7
 74
     5
 42
0.0000000001
 43
0.0000000001
 44
0.0000000001
 40
0.0
 40
0.0
 40
0.0
 40
0.0
 40
0.2258561402831245
 40
0.4645092017345328
 40
0.7095771826799404
 40
0.9575640440307068
 40
0.9575640440307068
 40
0.9575640440307068
 40
0.9575640440307068
 10
-34.0380530427233
 20
-9.328986619236914
 30
0.0
 10
-34.01100404535613
 20
-9.257002074689344
 30
0.0
 10
-33.9553734649389
 20
-9.108954369264553
 30
0.0
 10
-33.7550454638324
 20
-8.966478098809751
 30
0.0
 10
-33.53723654721796
 20
-8.858332664253477
 30
0.0
 10
-33.37809193581454
 20
-8.814886962981171
 30
0.0
 10
-33.29804856275074
 20
-8.793035513256983
 30
0.0
 11
-34.0380530427233
 21
-9.328986619236914
 31
0.0
 11
-33.93905440305388
 21
-9.125983502395833
 31
0.0
 11
-33.75504895305727
 21
-8.974005615479095
 31
0.0
 11
-33.53504793646961
 21
-8.866034008169339
 31
0.0
 11
-33.29804856275074
 21
-8.793035513256983
 31
0.0
  0
SPLINE
  5
4554
330
1F
100
AcDbEntity
  8
AM_0
100
AcDbSpline
210
0.0
220
0.0
230
1.0
 70
     8
 71
     3
 72
    11
 73
     7
 74
     5
 42
0.0000000001
 43
0.0000000001
 44
0.0000000001
 40
0.0
 40
0.0
 40
0.0
 40
0.0
 40
0.2200439920600458
 40
0.4386065850277972
 40
0.6577466391824344
 40
0.8778931059213462
 40
0.8778931059213462
 40
0.8778931059213462
 40
0.8778931059213462
 10
-33.29804856275074
 20
-8.793035513256983
 30
0.0
 10
-33.22624205870777
 20
-8.777933354896669
 30
0.0
 10
-33.08311247254537
 20
-8.747830710225695
 30
0.0
 10
-32.86508372587455
 20
-8.722069028042705
 30
0.0
 10
-32.64566412347262
 20
-8.713716541930562
 30
0.0
 10
-32.49936954414723
 20
-8.721219561178051
 30
0.0
 10
-32.42605467285086
 20
-8.724979665571529
 30
0.0
 11
-33.29804856275074
 21
-8.793035513256983
 31
0.0
 11
-33.08206048307095
 21
-8.750981882284634
 31
0.0
 11
-32.86505003417807
 21
-8.724980495473575
 31
0.0
 11
-32.64605590866882
 21
-8.716984476005489
 31
0.0
 11
-32.42605467285086
 21
-8.724979665571529
 31
0.0
  0
SPLINE
  5
4555
330
1F
100
AcDbEntity
  8
AM_0
100
AcDbSpline
210
0.0
220
0.0
230
1.0
 70
     8
 71
     3
 72
     9
 73
     5
 74
     3
 42
0.0000000001
 43
0.0000000001
 44
0.0000000001
 40
0.0
 40
0.0
 40
0.0
 40
0.0
 40
2.222011208217302
 40
4.438022698742191
 40
4.438022698742191
 40
4.438022698742191
 40
4.438022698742191
 10
-18.98003188707204
 20
-21.23002016442811
 30
0.0
 10
-18.23936542478083
 20
-21.23244367722583
 30
0.0
 10
-16.76003239545617
 20
-21.23728415902321
 30
0.0
 10
-15.28069638036339
 20
-21.24110461652246
 30
0.0
 10
-14.5420283224641
 20
-21.2430122628533
 30
0.0
 11
-18.98003188707204
 21
-21.23002016442811
 31
0.0
 11
-16.75803175173681
 21
-21.23703500680044
 31
0.0
 11
-14.5420283224641
 21
-21.2430122628533
 31
0.0
  0
ELLIPSE
  5
4556
330
1F
100
AcDbEntity
  8
AM_0
100
AcDbEllipse
 10
-7.975070009831299
 20
-2.516984757321667
 30
0.0
 11
1.742828648774929
 21
-0.1583219024639032
 31
0.0
210
0.0
220
0.0
230
1.0
 40
0.4959984961961001
 41
3.1415924773336
 42
6.283185307179586
  0
ELLIPSE
  5
4557
330
1F
100
AcDbEntity
  8
AM_0
100
AcDbEllipse
 10
-7.975070009831299
 20
-2.516984757321667
 30
0.0
 11
1.742828648774929
 21
-0.1583219024639032
 31
0.0
210
0.0
220
0.0
230
1.0
 40
0.4959984961961001
 41
0.0
 42
3.141592829845985
  0
SPLINE
  5
4558
330
1F
100
AcDbEntity
  8
AM_0
100
AcDbSpline
210
0.0
220
0.0
230
1.0
 70
     8
 71
     3
 72
    11
 73
     7
 74
     5
 42
0.0000000001
 43
0.0000000001
 44
0.0000000001
 40
0.0
 40
0.0
 40
0.0
 40
0.0
 40
1.49232075536899
 40
2.947673725831519
 40
4.383045045578678
 40
5.817357691285407
 40
5.817357691285407
 40
5.817357691285407
 40
5.817357691285407
 10
-20.72107296000749
 20
1.917012143003202
 30
0.0
 10
-21.1936834838187
 20
2.07392658427421
 30
0.0
 10
-22.12719701874593
 20
2.3838683806836
 30
0.0
 10
-23.44084314479757
 20
3.031800367618858
 30
0.0
 10
-24.6677322551105
 20
3.79683365588372
 30
0.0
 10
-25.39805770584535
 20
4.416369809278673
 30
0.0
 10
-25.76308571662311
 20
4.726023607391713
 30
0.0
 11
-20.72107296000749
 21
1.917012143003202
 31
0.0
 11
-22.12607269018453
 21
2.420000209568913
 31
0.0
 11
-23.43507962990766
 21
3.056045098229148
 31
0.0
 11
-24.6470866988671
 21
3.825024740576745
 31
0.0
 11
-25.76308571662311
 21
4.726023607391713
 31
0.0
  0
ELLIPSE
  5
4559
330
1F
100
AcDbEntity
  8
AM_0
100
AcDbEllipse
 10
46.38897300181257
 20
-18.03686909076405
 30
0.0
 11
79.49100991051532
 21
-35.07897190747891
 31
0.0
210
0.0
220
0.0
230
1.0
 40
0.1911680784472
 41
3.59724119065168
 42
3.667103304984647
  0
SPLINE
  5
455A
330
1F
100
AcDbEntity
  8
AM_0
100
AcDbSpline
210
0.0
220
0.0
230
1.0
 70
     8
 71
     3
 72
    11
 73
     7
 74
     5
 42
0.0000000001
 43
0.0000000001
 44
0.0000000001
 40
0.0
 40
0.0
 40
0.0
 40
0.0
 40
0.1723508647999475
 40
0.3901388041887772
 40
0.6599159985899314
 40
0.9684200373498363
 40
0.9684200373498363
 40
0.9684200373498363
 40
0.9684200373498363
 10
-19.98005114333616
 20
-11.04398689865375
 30
0.0
 10
-19.99279193875302
 20
-10.98661968253057
 30
0.0
 10
-20.02163240145748
 20
-10.85676145916792
 30
0.0
 10
-20.19844563212581
 20
-10.70731464638383
 30
0.0
 10
-20.43249494095472
 20
-10.58354484489533
 30
0.0
 10
-20.62066412959886
 20
-10.53689359398436
 30
0.0
 10
-20.72104946347796
 20
-10.51200587760358
 30
0.0
 11
-19.98005114333616
 21
-11.04398689865375
 31
0.0
 11
-20.03304522778784
 21
-10.87998553399352
 31
0.0
 11
-20.18705247691032
 21
-10.72599412591839
 31
0.0
 11
-20.42505930882176
 21
-10.59898041570395
 31
0.0
 11
-20.72104946347796
 21
-10.51200587760358
 31
0.0
  0
SPLINE
  5
455B
330
1F
100
AcDbEntity
  8
AM_0
100
AcDbSpline
210
0.0
220
0.0
230
1.0
 70
     8
 71
     3
 72
    11
 73
     7
 74
     5
 42
0.0000000001
 43
0.0000000001
 44
0.0000000001
 40
0.0
 40
0.0
 40
0.0
 40
0.0
 40
0.1942683688308427
 40
0.4241550789654948
 40
0.7084722003876118
 40
1.045694091339826
 40
1.045694091339826
 40
1.045694091339826
 40
1.045694091339826
 10
-19.98007441486618
 20
1.266012567266249
 30
0.0
 10
-19.99122554974177
 20
1.330942661376615
 30
0.0
 10
-20.0155723362113
 20
1.472707526961088
 30
0.0
 10
-20.17999788460826
 20
1.655338473443595
 30
0.0
 10
-20.41662823973744
 20
1.814227643900277
 30
0.0
 10
-20.61399159706949
 20
1.880860081495684
 30
0.0
 10
-20.72107296000749
 20
1.917012143003202
 30
0.0
 11
-19.98007441486618
 21
1.266012567266249
 31
0.0
 11
-20.02907074192994
 21
1.454000755891114
 31
0.0
 11
-20.17207645329217
 21
1.633993161326223
 31
0.0
 11
-20.40707736618056
 21
1.794026896755287
 31
0.0
 11
-20.72107296000749
 21
1.917012143003202
 31
0.0
  0
ELLIPSE
  5
455C
330
1F
100
AcDbEntity
  8
AM_0
100
AcDbEllipse
 10
-7.668069578765575
 20
0.8710163113366355
 30
0.0
 11
-2.006957968215691
 21
-0.0120277199436384
 31
0.0
210
0.0
220
0.0
230
0.9999999999999998
 40
0.4967763799303001
 41
6.234655215038495
 42
6.319685775304816
  0
ELLIPSE
  5
455D
330
1F
100
AcDbEntity
  8
AM_0
100
AcDbEllipse
 10
-7.975054751042308
 20
-2.516984757292821
 30
0.0
 11
1.991806369129941
 21
-0.1809045643441622
 31
0.0
210
0.0
220
0.0
230
1.0
 40
0.4959899580718001
 41
0.084244788109218
 42
2.759226821284732
  0
ELLIPSE
  5
455E
330
1F
100
AcDbEntity
  8
AM_0
100
AcDbEllipse
 10
-7.668069578765575
 20
0.8710163113366355
 30
0.0
 11
-2.006957968215691
 21
-0.0120277199436384
 31
0.0
210
0.0
220
0.0
230
0.9999999999999998
 40
0.4967763799303001
 41
3.178127005558157
 42
6.234655215038495
  0
SPLINE
  5
455F
330
1F
100
AcDbEntity
  8
AM_0
100
AcDbSpline
210
0.0
220
0.0
230
1.0
 70
     8
 71
     3
 72
    11
 73
     7
 74
     5
 42
0.0000000001
 43
0.0000000001
 44
0.0000000001
 40
0.0
 40
0.0
 40
0.0
 40
0.0
 40
0.2102622736342427
 40
0.4902919600439305
 40
0.8403266524985911
 40
1.227648730831079
 40
1.227648730831079
 40
1.227648730831079
 40
1.227648730831079
 10
-19.98005082579838
 20
-11.21195564865345
 30
0.0
 10
-19.96084566792708
 20
-11.28133379267294
 30
0.0
 10
-19.91606286246739
 20
-11.44311053762861
 30
0.0
 10
-19.6679375277609
 20
-11.60771842840453
 30
0.0
 10
-19.35480171230313
 20
-11.7334105290125
 30
0.0
 10
-19.1091085580967
 20
-11.76328025555924
 30
0.0
 10
-18.98004975387942
 20
-11.778970359758
 30
0.0
 11
-19.98005082579838
 21
-11.21195564865345
 31
0.0
 11
-19.90404642686394
 21
-11.40800042684572
 31
0.0
 11
-19.68705085299166
 21
-11.58500196975014
 31
0.0
 11
-19.36205365898155
 21
-11.71500623817001
 31
0.0
 11
-18.98004975387942
 21
-11.778970359758
 31
0.0
  0
SPLINE
  5
4560
330
1F
100
AcDbEntity
  8
AM_0
100
AcDbSpline
210
0.0
220
0.0
230
1.0
 70
     8
 71
     3
 72
    11
 73
     7
 74
     5
 42
0.0000000001
 43
0.0000000001
 44
0.0000000001
 40
0.0
 40
0.0
 40
0.0
 40
0.0
 40
0.1150443735256013
 40
0.2264872525688637
 40
0.3340083603148168
 40
0.4397614385811299
 40
0.4397614385811299
 40
0.4397614385811299
 40
0.4397614385811299
 10
-18.9800729025251
 20
0.4660266647561124
 30
0.0
 10
-19.01842671167995
 20
0.466534872525345
 30
0.0
 10
-19.09393365386953
 20
0.467535378485439
 30
0.0
 10
-19.20496660617383
 20
0.4773894171347474
 30
0.0
 10
-19.31176903853434
 20
0.4956804944590078
 30
0.0
 10
-19.38082755313368
 20
0.5126193175378794
 30
0.0
 10
-19.41507056507962
 20
0.5210185181926464
 30
0.0
 11
-18.9800729025251
 21
0.4660266647561124
 31
0.0
 11
-19.09507840134272
 21
0.4690171699991187
 31
0.0
 11
-19.20607085190656
 21
0.4790267257976331
 31
0.0
 11
-19.31207369356175
 21
0.4970318964978037
 31
0.0
 11
-19.41507056507962
 21
0.5210185181926464
 31
0.0
  0
SPLINE
  5
4561
330
1F
100
AcDbEntity
  8
AM_0
100
AcDbSpline
210
0.0
220
0.0
230
1.0
 70
     8
 71
     3
 72
    11
 73
     7
 74
     5
 42
0.0000000001
 43
0.0000000001
 44
0.0000000001
 40
0.0
 40
0.0
 40
0.0
 40
0.0
 40
0.1617909055102388
 40
0.3477037309553206
 40
0.5699086970923016
 40
0.8341499014636836
 40
0.8341499014636836
 40
0.8341499014636836
 40
0.8341499014636836
 10
-19.98007403109778
 20
1.063009637578611
 30
0.0
 10
-19.97258403861911
 20
1.008777497924348
 30
0.0
 10
-19.95648734689562
 20
0.8922275766787205
 30
0.0
 10
-19.8352192804011
 20
0.7370585383467974
 30
0.0
 10
-19.65351556047519
 20
0.6022055660521423
 30
0.0
 10
-19.49900296472834
 20
0.5495962777549234
 30
0.0
 10
-19.41507056507962
 20
0.5210185181926464
 30
0.0
 11
-19.98007403109778
 21
1.063009637578611
 31
0.0
 11
-19.9450700703741
 21
0.9050507193768268
 31
0.0
 11
-19.83807515404585
 21
0.75301234742789
 31
0.0
 11
-19.66006586942062
 21
0.6200170784776292
 31
0.0
 11
-19.41507056507962
 21
0.5210185181926464
 31
0.0
  0
SPLINE
  5
4562
330
1F
100
AcDbEntity
  8
AM_0
100
AcDbSpline
210
0.0
220
0.0
230
1.0
 70
     8
 71
     3
 72
    12
 73
     8
 74
     6
 42
0.0000000001
 43
0.0000000001
 44
0.0000000001
 40
0.0
 40
0.0
 40
0.0
 40
0.0
 40
0.0341822521064251
 40
0.0873080200368096
 40
0.1633861143515169
 40
0.4925128990855233
 40
0.6332206730263827
 40
0.6332206730263827
 40
0.6332206730263827
 40
0.6332206730263827
 10
-34.11811031896823
 20
19.99999415216942
 30
0.0
 10
-34.13151028709867
 20
19.99752308536415
 30
0.0
 10
-34.165736372682
 20
19.99121150737114
 30
0.0
 10
-34.12964781623502
 20
19.92310866424012
 30
0.0
 10
-34.03661588070951
 20
19.82292123308472
 30
0.0
 10
-33.89234723854549
 20
19.69400647264561
 30
0.0
 10
-33.77135045479349
 20
19.59627919939353
 30
0.0
 10
-33.73511389496323
 20
19.56701147776958
 30
0.0
 11
-34.11811031896823
 21
19.99999415216942
 31
0.0
 11
-34.15010797690146
 21
19.98797016589799
 31
0.0
 11
-34.13510849090654
 21
19.93700583878498
 31
0.0
 11
-34.08710422893995
 21
19.87798493344119
 31
0.0
 11
-33.84410759346645
 21
19.65600052953429
 31
0.0
 11
-33.73511389496323
 21
19.56701147776958
 31
0.0
  0
ELLIPSE
  5
4563
330
1F
100
AcDbEntity
  8
AM_0
100
AcDbEllipse
 10
-14.86805725665835
 20
0.0029893181068404
 30
0.0
 11
308.4001193715072
 21
-21.18672356001099
 31
0.0
210
0.0
220
0.0
230
1.0
 40
0.0389323615175
 41
4.701731714455532
 42
4.711720074893535
  0
ELLIPSE
  5
4564
330
1F
100
AcDbEntity
  8
AM_0
100
AcDbEllipse
 10
-19.05807495119203
 20
-0.000009325599273
 30
0.0
 11
-4.578307271374903
 21
-24.22416099122631
 31
0.0
210
0.0
220
0.0
230
1.0
 40
0.2430938810828
 41
1.099396192006661
 42
1.19016261754468
  0
ELLIPSE
  5
4565
330
1F
100
AcDbEntity
  8
AM_0
100
AcDbEllipse
 10
-18.55607604982592
 20
-0.0000083765917172
 30
0.0
 11
-0.1162708148005149
 21
-24.24972698025535
 31
0.0
210
0.0
220
0.0
230
0.9999999999999998
 40
0.1499380072514
 41
1.144657635883678
 42
1.202937414388518
  0
ELLIPSE
  5
4566
330
1F
100
AcDbEntity
  8
AM_0
100
AcDbEllipse
 10
33.10694825507189
 20
0.3160682940633022
 30
0.0
 11
314.0023762033697
 21
-21.25607688404002
 31
0.0
210
0.0
220
0.0
230
1.0
 40
0.0395906297023
 41
4.560807428094035
 42
4.562629138019803
  0
ELLIPSE
  5
4567
330
1F
100
AcDbEntity
  8
AM_0
100
AcDbEllipse
 10
-11.46205893402978
 20
-0.0460154734673905
 30
0.0
 11
-1.178255848383913
 21
-24.12826881314665
 31
0.0
210
0.0
220
0.0
230
1.0
 40
0.0732292414448
 41
1.429013185343278
 42
1.602507093133992
  0
ELLIPSE
  5
4568
330
1F
100
AcDbEntity
  8
AM_0
100
AcDbEllipse
 10
-158.5771042806336
 20
12.96374001930746
 30
0.0
 11
380.3156436982311
 21
-26.12714394876611
 31
0.0
210
0.0
220
0.0
230
0.9999999999999998
 40
0.0337214094865
 41
5.101757170556354
 42
5.139292627151459
  0
ELLIPSE
  5
4569
330
1F
100
AcDbEntity
  8
AM_0
100
AcDbEllipse
 10
-7.447059544388964
 20
-0.0460078832819396
 30
0.0
 11
-1.170610293572533
 21
-23.97146886385878
 31
0.0
210
0.0
220
0.0
230
1.0
 40
0.0732491110973
 41
1.417636516079353
 42
1.607665597493254
  0
ELLIPSE
  5
456A
330
1F
100
AcDbEntity
  8
AM_0
100
AcDbEllipse
 10
-65.08308271458282
 20
11.37089918764788
 30
0.0
 11
333.5957135488331
 21
-22.91755117887672
 31
0.0
210
0.0
220
0.0
230
0.9999999999999998
 40
0.0337220176199
 41
4.880625508653196
 42
4.892622955470063
  0
SPLINE
  5
456B
330
1F
100
AcDbEntity
  8
AM_0
100
AcDbSpline
210
0.0
220
0.0
230
1.0
 70
     8
 71
     3
 72
    11
 73
     7
 74
     5
 42
0.0000000001
 43
0.0000000001
 44
0.0000000001
 40
0.0
 40
0.0
 40
0.0
 40
0.0
 40
2.371962340289196
 40
4.728762797161765
 40
7.104663132109513
 40
9.433656686858292
 40
9.433656686858292
 40
9.433656686858292
 40
9.433656686858292
 10
-9.27909309899007
 20
17.31602059001283
 30
0.0
 10
-10.02566094972346
 20
17.69570111060936
 30
0.0
 10
-11.514024495021
 20
18.45263518587169
 30
0.0
 10
-11.80531696886067
 20
21.15412037823052
 30
0.0
 10
-10.20292474200734
 20
23.28674647291688
 30
0.0
 10
-8.558263453516643
 20
23.29632708993851
 30
0.0
 10
-7.744131268935803
 20
23.30106964010372
 30
0.0
 11
-9.27909309899007
 21
17.31602059001283
 31
0.0
 11
-11.19309721236235
 21
18.71701794823452
 31
0.0
 11
-11.49009870258741
 21
21.05502960524542
 31
0.0
 11
-10.04512546132587
 21
22.9410186650342
 31
0.0
 11
-7.744131268935803
 21
23.30106964010372
 31
0.0
  0
SPLINE
  5
456C
330
1F
100
AcDbEntity
  8
AM_0
100
AcDbSpline
210
0.0
220
0.0
230
1.0
 70
     8
 71
     3
 72
    11
 73
     7
 74
     5
 42
0.0000000001
 43
0.0000000001
 44
0.0000000001
 40
0.0
 40
0.0
 40
0.0
 40
0.0
 40
0.956576248708798
 40
1.916791803857465
 40
2.877648040513198
 40
3.83625597835879
 40
3.83625597835879
 40
3.83625597835879
 40
3.83625597835879
 10
-12.57512804991823
 20
24.95602876903159
 30
0.0
 10
-12.89511993545143
 20
24.95093858325817
 30
0.0
 10
-13.53632111969456
 20
24.94073884603514
 30
0.0
 10
-14.46891707198946
 20
24.68597023133671
 30
0.0
 10
-15.3506011713536
 20
24.2869734838435
 30
0.0
 10
-15.84980869064366
 20
23.88287253677725
 30
0.0
 10
-16.09912008544893
 20
23.68105872816617
 30
0.0
 11
-12.57512804991823
 21
24.95602876903159
 31
0.0
 11
-13.53012214761521
 21
24.90103428787461
 31
0.0
 11
-14.46011437154937
 21
24.66201885788846
 31
0.0
 11
-15.32911689241004
 21
24.25204407054415
 31
0.0
 11
-16.09912008544893
 21
23.68105872816617
 31
0.0
  0
ELLIPSE
  5
456D
330
1F
100
AcDbEntity
  8
AM_0
100
AcDbEllipse
 10
-18.49713989031314
 20
32.76899035777663
 30
0.0
 11
39.77066332761092
 21
-2.173264932053968
 31
0.0
210
0.0
220
0.0
230
1.0
 40
0.1902340919789
 41
4.872127394499626
 42
4.991503368864446
  0
SPLINE
  5
456E
330
1F
100
AcDbEntity
  8
AM_0
100
AcDbSpline
210
0.0
220
0.0
230
1.0
 70
     8
 71
     3
 72
    11
 73
     7
 74
     5
 42
0.0000000001
 43
0.0000000001
 44
0.0000000001
 40
0.0
 40
0.0
 40
0.0
 40
0.0
 40
2.342441633493746
 40
4.706298874361696
 40
7.061130025492618
 40
9.437101737693884
 40
9.437101737693884
 40
9.437101737693884
 40
9.437101737693884
 10
-7.744131268935803
 20
23.30106964010372
 30
0.0
 10
-7.017104247728952
 20
22.9173946654288
 30
0.0
 10
-5.556403412065859
 20
22.1465369946914
 30
0.0
 10
-5.200272470114319
 20
19.48194901010937
 30
0.0
 10
-6.785415722324763
 20
17.30507124152053
 30
0.0
 10
-8.445394654872993
 20
17.31235995015317
 30
0.0
 10
-9.27909309899007
 20
17.31602059001283
 30
0.0
 11
-7.744131268935803
 21
23.30106964010372
 31
0.0
 11
-5.866107382018153
 21
21.90104853794434
 31
0.0
 11
-5.524122979790123
 21
19.56205992663462
 31
0.0
 11
-6.93009475043942
 21
17.67301965960116
 31
0.0
 11
-9.27909309899007
 21
17.31602059001283
 31
0.0
  0
SPLINE
  5
456F
330
1F
100
AcDbEntity
  8
AM_0
100
AcDbSpline
210
0.0
220
0.0
230
1.0
 70
     8
 71
     3
 72
    11
 73
     7
 74
     5
 42
0.0000000001
 43
0.0000000001
 44
0.0000000001
 40
0.0
 40
0.0
 40
0.0
 40
0.0
 40
1.239023780217768
 40
2.482072722229817
 40
3.727236414532239
 40
4.972560576381082
 40
4.972560576381082
 40
4.972560576381082
 40
4.972560576381082
 10
-9.302103179011785
 20
17.22404056604488
 30
0.0
 10
-9.715111586532209
 20
17.22511757420965
 30
0.0
 10
-10.54247012373304
 20
17.22727508936801
 30
0.0
 10
-11.78481415867777
 20
17.24119042557271
 30
0.0
 10
-13.02918943485446
 20
17.26029202515243
 30
0.0
 10
-13.85911935679858
 20
17.28010369659678
 30
0.0
 10
-14.2741110551984
 20
17.29001017058144
 30
0.0
 11
-9.302103179011785
 21
17.22404056604488
 31
0.0
 11
-10.54111686034608
 21
17.22904310655426
 31
0.0
 11
-11.78409784195174
 21
17.24204124503285
 31
0.0
 11
-13.02910062637759
 21
17.26205842265811
 31
0.0
 11
-14.2741110551984
 21
17.29001017058144
 31
0.0
  0
SPLINE
  5
4570
330
1F
100
AcDbEntity
  8
AM_0
100
AcDbSpline
210
0.0
220
0.0
230
1.0
 70
     8
 71
     3
 72
    11
 73
     7
 74
     5
 42
0.0000000001
 43
0.0000000001
 44
0.0000000001
 40
0.0
 40
0.0
 40
0.0
 40
0.0
 40
1.204016748629887
 40
2.418064947358012
 40
3.640228694862738
 40
4.868521816516677
 40
4.868521816516677
 40
4.868521816516677
 40
4.868521816516677
 10
-7.721121188914088
 20
23.39304966407217
 30
0.0
 10
-7.319781141646577
 20
23.39228670933496
 30
0.0
 10
-6.513757220988561
 20
23.39075444318621
 30
0.0
 10
-5.30040571186228
 20
23.37789957081904
 30
0.0
 10
-4.0790298543929
 20
23.35971841032285
 30
0.0
 10
-3.262430541292642
 20
23.34062015910721
 30
0.0
 10
-2.853109597083266
 20
23.33104714809076
 30
0.0
 11
-7.721121188914088
 21
23.39304966407217
 31
0.0
 11
-6.517111171534862
 21
23.38902361988935
 31
0.0
 11
-5.303121891109708
 21
23.37706302425939
 31
0.0
 11
-4.081106474252964
 21
23.35802236567749
 31
0.0
 11
-2.853109597083266
 21
23.33104714809076
 31
0.0
  0
ELLIPSE
  5
4571
330
1F
100
AcDbEntity
  8
AM_0
100
AcDbEllipse
 10
-13.85712299885464
 20
23.51101878283483
 30
0.0
 11
40.62269298157953
 21
-0.9584775220419034
 31
0.0
210
0.0
220
0.0
230
1.0
 40
0.1902102585074
 41
4.652130362496913
 42
4.83155048456256
  0
SPLINE
  5
4572
330
1F
100
AcDbEntity
  8
AM_0
100
AcDbSpline
210
0.0
220
0.0
230
1.0
 70
     8
 71
     3
 72
    11
 73
     7
 74
     5
 42
0.0000000001
 43
0.0000000001
 44
0.0000000001
 40
0.0
 40
0.0
 40
0.0
 40
0.0
 40
1.828891601568538
 40
3.652373222732046
 40
5.469539251403595
 40
7.281584275207639
 40
7.281584275207639
 40
7.281584275207639
 40
7.281584275207639
 10
-16.49110358361117
 20
15.85604601851217
 30
0.0
 10
-15.88179872480685
 20
15.83603354057855
 30
0.0
 10
-14.66499137063188
 20
15.79606778292371
 30
0.0
 10
-12.84225726792887
 20
15.75433848007725
 30
0.0
 10
-11.02483782414221
 20
15.72923688297974
 30
0.0
 10
-9.8151082241307
 20
15.72377640293959
 30
0.0
 10
-9.211096919702967
 20
15.72105001542966
 30
0.0
 11
-16.49110358361117
 21
15.85604601851217
 31
0.0
 11
-14.66310054615843
 21
15.799042638336
 31
0.0
 11
-12.84010241990225
 21
15.75705389713629
 31
0.0
 11
-11.02310865921891
 21
15.73203291802361
 31
0.0
 11
-9.211096919702967
 21
15.72105001542966
 31
0.0
  0
ELLIPSE
  5
4573
330
1F
100
AcDbEntity
  8
AM_0
100
AcDbEllipse
 10
-4.657081637211952
 20
8.089039581619077
 30
0.0
 11
39.81892996454532
 21
-0.9395605231314435
 31
0.0
210
0.0
220
0.0
230
1.0
 40
0.190233384595
 41
1.570642308909468
 42
1.690079549018877
  0
SPLINE
  5
4574
330
1F
100
AcDbEntity
  8
AM_0
100
AcDbSpline
210
0.0
220
0.0
230
1.0
 70
     8
 71
     3
 72
    11
 73
     7
 74
     5
 42
0.0000000001
 43
0.0000000001
 44
0.0000000001
 40
0.0
 40
0.0
 40
0.0
 40
0.0
 40
0.9575740481610598
 40
1.91778960330974
 40
2.878192513680465
 40
3.836980159091746
 40
3.836980159091746
 40
3.836980159091746
 40
3.836980159091746
 10
-4.469092411757602
 20
15.66106142139323
 30
0.0
 10
-4.148787166013465
 20
15.66617028139416
 30
0.0
 10
-3.507293099467545
 20
15.67640209439427
 30
0.0
 10
-2.574177725635827
 20
15.93054740456499
 30
0.0
 10
-1.693860212918586
 20
16.33199366440715
 30
0.0
 10
-1.193880420561353
 20
16.7347985362846
 30
0.0
 10
-0.9441009255429005
 20
16.93603146414788
 30
0.0
 11
-4.469092411757602
 21
15.66106142139323
 31
0.0
 11
-3.513098863376631
 21
15.71605590443944
 31
0.0
 11
-2.583106639442457
 21
15.95507133442558
 31
0.0
 11
-1.715095941832322
 21
16.3660837175516
 31
0.0
 11
-0.9441009255429005
 21
16.93603146414788
 31
0.0
  0
SPLINE
  5
4575
330
1F
100
AcDbEntity
  8
AM_0
100
AcDbSpline
210
0.0
220
0.0
230
1.0
 70
     8
 71
     3
 72
    11
 73
     7
 74
     5
 42
0.0000000001
 43
0.0000000001
 44
0.0000000001
 40
0.0
 40
0.0
 40
0.0
 40
0.0
 40
1.816904059511064
 40
3.615352604087739
 40
5.396503745734096
 40
7.159522364860348
 40
7.159522364860348
 40
7.159522364860348
 40
7.159522364860348
 10
-0.776116467894151
 20
24.77007695346674
 30
0.0
 10
-1.38141853970771
 20
24.79031651556054
 30
0.0
 10
-2.585874223614188
 20
24.83059005292118
 30
0.0
 10
-4.384332077259037
 20
24.86874696441076
 30
0.0
 10
-6.165030858792098
 20
24.89579538586131
 30
0.0
 10
-7.346429169032009
 20
24.89864886450331
 30
0.0
 10
-7.934106215603055
 20
24.90006830440453
 30
0.0
 11
-0.776116467894151
 21
24.77007695346674
 31
0.0
 11
-2.592126097144903
 21
24.82708035631544
 31
0.0
 11
-4.390130323108449
 21
24.86705498460875
 31
0.0
 11
-6.171105712209859
 21
24.89207603181313
 31
0.0
 11
-7.934106215603055
 21
24.90006830440453
 31
0.0
  0
ELLIPSE
  5
4576
330
1F
100
AcDbEntity
  8
AM_0
100
AcDbEllipse
 10
2.842886505713969
 20
16.86908305688031
 30
0.0
 11
40.57345831658155
 21
-2.21714330671899
 31
0.0
210
0.0
220
0.0
230
1.0
 40
0.1902098013539
 41
1.670508949326469
 42
1.850111493678352
  0
SPLINE
  5
4577
330
1F
100
AcDbEntity
  8
AM_0
100
AcDbSpline
210
0.0
220
0.0
230
1.0
 70
     8
 71
     3
 72
     9
 73
     5
 74
     3
 42
0.0000000001
 43
0.0000000001
 44
0.0000000001
 40
0.0
 40
0.0
 40
0.0
 40
0.0
 40
2.222038153402106
 40
4.438085649824254
 40
4.438085649824254
 40
4.438085649824254
 40
4.438085649824254
 10
-18.9800729025251
 20
0.4660266647561124
 30
0.0
 10
-18.23940568865186
 20
0.4702769180532407
 30
0.0
 10
-16.76006811375322
 20
0.4787659658840456
 30
0.0
 10
-15.280736698736
 20
0.4882679931160818
 30
0.0
 10
-14.54206941349391
 20
0.4930125936758575
 30
0.0
 11
-18.9800729025251
 21
0.4660266647561124
 31
0.0
 11
-16.75807280503594
 21
0.4790313536337436
 31
0.0
 11
-14.54206941349391
 21
0.4930125936758575
 31
0.0
  0
SPLINE
  5
4578
330
1F
100
AcDbEntity
  8
AM_0
100
AcDbSpline
210
0.0
220
0.0
230
1.0
 70
     8
 71
     3
 72
     9
 73
     5
 74
     3
 42
0.0000000001
 43
0.0000000001
 44
0.0000000001
 40
0.0
 40
0.0
 40
0.0
 40
0.0
 40
0.0179988590680557
 40
2.638116077536129
 40
2.638116077536129
 40
2.638116077536129
 40
2.638116077536129
 10
-14.2741110551984
 20
17.29001017058144
 30
0.0
 10
-14.27911071646353
 20
17.28669372067867
 30
0.0
 10
-15.01191754138077
 20
16.80059736447276
 30
0.0
 10
-15.75303930820559
 20
16.32719505299151
 30
0.0
 10
-16.48910468409032
 20
15.857022584791
 30
0.0
 11
-14.2741110551984
 21
17.29001017058144
 31
0.0
 11
-14.28911042603873
 21
17.28006141175705
 31
0.0
 11
-16.48910468409032
 21
15.857022584791
 31
0.0
  0
ELLIPSE
  5
4579
330
1F
100
AcDbEntity
  8
AM_0
100
AcDbEllipse
 10
-7.845063264946661
 20
-3.501969863114211
 30
0.0
 11
1.742828648774943
 21
-0.1583219024629049
 31
0.0
210
0.0
220
0.0
230
1.0
 40
0.4959984961961001
 41
0.7086578202611391
 42
2.655059591996198
  0
ELLIPSE
  5
457A
330
1F
100
AcDbEntity
  8
AM_0
100
AcDbEllipse
 10
-0.808055065082196
 20
-14.55493698294248
 30
0.0
 11
0.7967225644293558
 21
-0.0723861504200359
 31
0.0
210
0.0
220
0.0
230
1.0
 40
0.4962648569399001
 41
4.796681422774666
 42
5.584072466701162
  0
ELLIPSE
  5
457B
330
1F
100
AcDbEntity
  8
AM_0
100
AcDbEllipse
 10
-0.808055065082196
 20
-14.55493698294248
 30
0.0
 11
0.7967225644293558
 21
-0.0723861504200359
 31
0.0
210
0.0
220
0.0
230
1.0
 40
0.4962648569399001
 41
5.584072466701162
 42
6.369481165277038
  0
SPLINE
  5
457C
330
1F
100
AcDbEntity
  8
AM_0
100
AcDbSpline
210
0.0
220
0.0
230
1.0
 70
     8
 71
     3
 72
    11
 73
     7
 74
     5
 42
0.0000000001
 43
0.0000000001
 44
0.0000000001
 40
0.0
 40
0.0
 40
0.0
 40
0.0
 40
1.823219808197646
 40
3.636776450096165
 40
5.445224796251584
 40
7.250626100037893
 40
7.250626100037893
 40
7.250626100037893
 40
7.250626100037893
 10
-0.7760413694001281
 20
-14.95496133648567
 30
0.0
 10
-1.381934255273302
 20
-14.90637802868468
 30
0.0
 10
-2.590508761055271
 20
-14.80946890731381
 30
0.0
 10
-4.390125464268823
 20
-14.5676585050747
 30
0.0
 10
-6.17334618904563
 20
-14.25820156215318
 30
0.0
 10
-7.347467355550524
 20
-13.98798132287419
 30
0.0
 10
-7.934032954605044
 20
-13.85298512226811
 30
0.0
 11
-0.7760413694001281
 21
-14.95496133648567
 31
0.0
 11
-2.592051197111987
 21
-14.79297746488666
 31
0.0
 11
-4.390055795536263
 21
-14.5559813522194
 31
0.0
 11
-6.171031730982642
 21
-14.24195884017103
 31
0.0
 11
-7.934032954605044
 21
-13.85298512226811
 31
0.0
  0
SPLINE
  5
457D
330
1F
100
AcDbEntity
  8
AM_0
100
AcDbSpline
210
0.0
220
0.0
230
1.0
 70
     8
 71
     3
 72
    11
 73
     7
 74
     5
 42
0.0000000001
 43
0.0000000001
 44
0.0000000001
 40
0.0
 40
0.0
 40
0.0
 40
0.0
 40
0.9594193419780026
 40
1.907242796588533
 40
2.815172301076289
 40
3.65529228967068
 40
3.65529228967068
 40
3.65529228967068
 40
3.65529228967068
 10
-12.57505629191696
 20
-13.00198071232967
 30
0.0
 10
-12.89429482766775
 20
-12.97808163783541
 30
0.0
 10
-13.52891346736381
 20
-12.93057234166014
 30
0.0
 10
-14.44976482340442
 20
-12.74179121110636
 30
0.0
 10
-15.31616416643408
 20
-12.49331462112906
 30
0.0
 10
-15.84492681975362
 20
-12.24655679360935
 30
0.0
 10
-16.09905239001576
 20
-12.12796393679274
 30
0.0
 11
-12.57505629191696
 21
-13.00198071232967
 31
0.0
 11
-13.53005066757487
 21
-12.90994150208072
 31
0.0
 11
-14.46004368927653
 21
-12.72695986175562
 31
0.0
 11
-15.32904748236521
 21
-12.46396101628883
 31
0.0
 11
-16.09905239001576
 21
-12.12796393679274
 31
0.0
  0
ELLIPSE
  5
457E
330
1F
100
AcDbEntity
  8
AM_0
100
AcDbEllipse
 10
-0.8080647800995739
 20
-9.415959932170663
 30
0.0
 11
-0.7966917473498072
 21
-0.0726943755129705
 31
0.0
210
0.0
220
0.0
230
1.0
 40
0.5012640633191001
 41
2.968254622470065
 42
3.138351861688173
  0
SPLINE
  5
457F
330
1F
100
AcDbEntity
  8
AM_0
100
AcDbSpline
210
0.0
220
0.0
230
1.0
 70
     8
 71
     3
 72
     9
 73
     5
 74
     3
 42
0.0000000001
 43
0.0000000001
 44
0.0000000001
 40
0.0
 40
0.0
 40
0.0
 40
0.0
 40
0.5955860875022587
 40
2.524552299238597
 40
2.524552299238597
 40
2.524552299238597
 40
2.524552299238597
 10
-2.853109597083266
 20
23.33104714809076
 30
0.0
 10
-2.690143284731599
 20
23.44442989255515
 30
0.0
 10
-1.99936660747371
 20
23.92503324148824
 30
0.0
 10
-1.30708833421215
 20
24.40347238160184
 30
0.0
 10
-0.7781306260896164
 20
24.76903935200276
 30
0.0
 11
-2.853109597083266
 21
23.33104714809076
 31
0.0
 11
-2.364127085593434
 21
23.6710749279608
 31
0.0
 11
-0.7781306260896164
 21
24.76903935200276
 31
0.0
  0
LINE
  5
4636
330
1F
100
AcDbEntity
  8
AM_11
100
AcDbLine
 10
-0.0000472614358943
 20
24.99999809260556
 30
0.0
 11
0.0000472614358958
 21
-25.0000019073051
 31
0.0
  0
LINE
  5
4637
330
1F
100
AcDbEntity
  8
AM_11
100
AcDbLine
 10
-12.99995273854087
 20
-25.00002648325176
 30
0.0
 11
-13.00004726141266
 21
24.99997351665889
 31
0.0
  0
LINE
  5
4638
330
1F
100
AcDbEntity
  8
AM_0
100
AcDbLine
 10
-38.98017086583545
 20
19.99998543748811
 30
0.0
 11
-38.98003421226201
 21
-20.00007750482903
 31
0.0
  0
LINE
  5
4639
330
1F
100
AcDbEntity
  8
AM_0
100
AcDbLine
 10
-39.9800323218028
 20
-21.00007939528468
 30
0.0
 11
-39.98011172101781
 21
20.99992203515087
 31
0.0
  0
LINE
  5
463A
330
1F
100
AcDbEntity
  8
AM_0
100
AcDbLine
 10
-27.98005493369824
 20
-9.038997139504825
 30
0.0
 11
-27.98008494471364
 21
6.836004767815809
 31
0.0
  0
LINE
  5
463B
330
1F
100
AcDbEntity
  8
AM_11
100
AcDbLine
 10
-13.00004726141266
 20
24.99997351665889
 30
0.0
 11
-0.0000472614358943
 21
24.99999809260556
 31
0.0
  0
CIRCLE
  5
463C
330
1F
100
AcDbEntity
  8
AM_0
100
AcDbCircle
 10
-8.447098019133308
 20
20.30607295556355
 30
0.0
 40
3.0079998970032
  0
ARC
  5
463D
330
1F
100
AcDbEntity
  8
AM_0
100
AcDbCircle
 10
-8.511123901731501
 20
20.30802595952535
 30
0.0
 40
2.6500415802002
100
AcDbArc
 50
87.75097915858443
 51
267.7509773373472
  0
ARC
  5
463E
330
1F
100
AcDbEntity
  8
AM_0
100
AcDbCircle
 10
-8.511123901731501
 20
20.30802595952535
 30
0.0
 40
2.6500415802002
100
AcDbArc
 50
267.7509773373472
 51
87.7509823463051
  0
ARC
  5
463F
330
1F
100
AcDbEntity
  8
AM_0
100
AcDbCircle
 10
-8.425125360921812
 20
20.30503539944572
 30
0.0
 40
2.6500415802002
100
AcDbArc
 50
267.7509773373472
 51
87.7509823463051
  0
CIRCLE
  5
4640
330
1F
100
AcDbEntity
  8
AM_0
100
AcDbCircle
 10
-8.551101932883105
 20
20.31004004410489
 30
0.0
 40
2.1429998874664
  0
LINE
  5
4641
330
1F
100
AcDbEntity
  8
AM_0
100
AcDbLine
 10
-6.462103255024873
 20
15.32709712054847
 30
0.0
 11
-9.892111444703575
 21
15.46203936673322
 31
0.0
  0
LINE
  5
4642
330
1F
100
AcDbEntity
  8
AM_0
100
AcDbLine
 10
-17.45109475293316
 20
11.66914787952424
 30
0.0
 11
-1.618093393972587
 21
11.04716758012028
 31
0.0
  0
LINE
  5
4643
330
1F
100
AcDbEntity
  8
AM_0
100
AcDbLine
 10
-7.72109830079138
 20
23.39308208904224
 30
0.0
 11
-11.23110812502536
 21
23.42408131289312
 31
0.0
  0
LINE
  5
4644
330
1F
100
AcDbEntity
  8
AM_0
100
AcDbLine
 10
-12.5751204206323
 20
24.95608646634222
 30
0.0
 11
-7.934113845107129
 21
24.90012600168621
 31
0.0
  0
LINE
  5
4645
330
1F
100
AcDbEntity
  8
AM_0
100
AcDbLine
 10
-5.706102441438456
 20
17.18903321160415
 30
0.0
 11
-2.853101967660321
 21
23.33103236615329
 31
0.0
  0
LINE
  5
4646
330
1F
100
AcDbEntity
  8
AM_0
100
AcDbLine
 10
-5.706117700258096
 20
17.1890494240383
 30
0.0
 11
-2.182125664723793
 21
18.46401755755513
 31
0.0
  0
LINE
  5
4647
330
1F
100
AcDbEntity
  8
AM_0
100
AcDbLine
 10
-2.182102776584065
 20
18.464040445782
 30
0.0
 11
-0.9450927505999249
 21
16.93802464159388
 31
0.0
  0
LINE
  5
4648
330
1F
100
AcDbEntity
  8
AM_0
100
AcDbLine
 10
-0.9450698625323125
 20
16.93808567679415
 30
0.0
 11
-0.0660902813893456
 21
22.54106747534824
 31
0.0
  0
LINE
  5
4649
330
1F
100
AcDbEntity
  8
AM_0
100
AcDbLine
 10
-0.9450698625323125
 20
16.93808567679415
 30
0.0
 11
-0.0660902813893456
 21
22.54106747534824
 31
0.0
  0
LINE
  5
464A
330
1F
100
AcDbEntity
  8
AM_0
100
AcDbLine
 10
-2.853140114738787
 20
23.33108815602867
 30
0.0
 11
-0.7761393561683009
 21
24.77012463713927
 31
0.0
  0
LINE
  5
464B
330
1F
100
AcDbEntity
  8
AM_0
100
AcDbLine
 10
-0.0110621033852575
 20
23.94006750880727
 30
0.0
 11
-2.08806286011727
 21
22.50005851831257
 31
0.0
  0
LINE
  5
464C
330
1F
100
AcDbEntity
  8
AM_0
100
AcDbLine
 10
-2.088101007139847
 20
22.50008474428415
 30
0.0
 11
-0.0661131696418467
 21
22.54110371492898
 31
0.0
  0
LINE
  5
464D
330
1F
100
AcDbEntity
  8
AM_0
100
AcDbLine
 10
-0.0661055401756328
 20
22.5410660448079
 30
0.0
 11
-0.0111155091540212
 21
23.94007108498501
 31
0.0
  0
ARC
  5
464E
330
1F
100
AcDbEntity
  8
AM_0
100
AcDbCircle
 10
-0.808127896850369
 20
23.97106566248027
 30
0.0
 40
0.7989023923874
100
AcDbArc
 50
42.81895536405951
 51
87.70949941975175
  0
ARC
  5
464F
330
1F
100
AcDbEntity
  8
AM_0
100
AcDbCircle
 10
-0.808127896850369
 20
23.97106566248027
 30
0.0
 40
0.7976026535034001
100
AcDbArc
 50
357.7726656924453
 51
42.81895172159042
  0
LINE
  5
4650
330
1F
100
AcDbEntity
  8
AM_0
100
AcDbLine
 10
-0.7761469855879831
 20
24.77013822698385
 30
0.0
 11
-0.7781458849958093
 21
24.76910134080451
 31
0.0
  0
LINE
  5
4651
330
1F
100
AcDbEntity
  8
AM_0
100
AcDbLine
 10
-0.7761622460198638
 20
24.7710072626758
 30
0.0
 11
-0.2221609056448393
 21
24.51398902860399
 31
0.0
  0
LINE
  5
4652
330
1F
100
AcDbEntity
  8
AM_0
100
AcDbLine
 10
-0.2221380174988015
 20
24.51400857897077
 30
0.0
 11
-0.0111460266932563
 21
23.94005058092952
 31
0.0
  0
LINE
  5
4653
330
1F
100
AcDbEntity
  8
AM_0
100
AcDbLine
 10
-2.853140114617093
 20
23.33102378301237
 30
0.0
 11
-7.721121188869466
 21
23.39302606063287
 31
0.0
  0
LINE
  5
4654
330
1F
100
AcDbEntity
  8
AM_0
100
AcDbLine
 10
-2.088116265779213
 20
22.50000558928701
 30
0.0
 11
-2.182102776488513
 21
18.4639899010432
 31
0.0
  0
LINE
  5
4655
330
1F
100
AcDbEntity
  8
AM_0
100
AcDbLine
 10
-2.088123895190332
 20
22.50001464917859
 30
0.0
 11
-2.853132485210824
 21
23.3310178225623
 31
0.0
  0
LINE
  5
4656
330
1F
100
AcDbEntity
  8
AM_0
100
AcDbLine
 10
-7.744085492596745
 20
23.30108442214216
 30
0.0
 11
-7.721083041919906
 21
23.39303845847108
 31
0.0
  0
LINE
  5
4657
330
1F
100
AcDbEntity
  8
AM_0
100
AcDbLine
 10
-8.32111883110598
 20
22.95298147696017
 30
0.0
 11
-8.40712500131157
 21
22.95597251386268
 31
0.0
  0
LINE
  5
4658
330
1F
100
AcDbEntity
  8
AM_0
100
AcDbLine
 10
-1.479095330605428
 20
16.07504755786519
 30
0.0
 11
-2.23708336148385
 21
16.10403687046513
 31
0.0
  0
LINE
  5
4659
330
1F
100
AcDbEntity
  8
AM_0
100
AcDbLine
 10
-3.513114131538799
 20
15.72101405718159
 30
0.0
 11
-1.496108061823232
 21
15.64203742438357
 31
0.0
  0
LINE
  5
465A
330
1F
100
AcDbEntity
  8
AM_0
100
AcDbLine
 10
-1.496092803072101
 20
15.64205745157342
 30
0.0
 11
-1.645072448907454
 21
11.84902261639896
 31
0.0
  0
LINE
  5
465B
330
1F
100
AcDbEntity
  8
AM_0
100
AcDbLine
 10
-4.470114754500796
 20
15.66311181924054
 30
0.0
 11
-0.945100380104901
 21
16.93808281571346
 31
0.0
  0
LINE
  5
465C
330
1F
100
AcDbEntity
  8
AM_0
100
AcDbLine
 10
-1.479080071958865
 20
16.07512289816503
 30
0.0
 11
-1.472114432793946
 21
16.07408722102527
 31
0.0
  0
LINE
  5
465D
330
1F
100
AcDbEntity
  8
AM_0
100
AcDbLine
 10
-1.490111724434401
 20
15.83601860637473
 30
0.0
 11
-1.479110589349362
 21
16.07502371597834
 31
0.0
  0
LINE
  5
465E
330
1F
100
AcDbEntity
  8
AM_0
100
AcDbLine
 10
-1.496130950000027
 20
15.6420336096433
 30
0.0
 11
-1.490119353739257
 21
15.83597092264431
 31
0.0
  0
LINE
  5
465F
330
1F
100
AcDbEntity
  8
AM_0
100
AcDbLine
 10
-1.472122061979812
 20
16.07397659478985
 30
0.0
 11
-1.453125803519702
 21
16.56799613906435
 31
0.0
  0
LINE
  5
4660
330
1F
100
AcDbEntity
  8
AM_0
100
AcDbLine
 10
-0.9441161842832283
 20
16.93600571491303
 30
0.0
 11
-0.9451156387983539
 21
16.93803227094561
 31
0.0
  0
LINE
  5
4661
330
1F
100
AcDbEntity
  8
AM_0
100
AcDbLine
 10
-0.9451156387983539
 20
16.93803227094561
 30
0.0
 11
-0.9441161842832283
 21
16.93600571491303
 31
0.0
  0
LINE
  5
4662
330
1F
100
AcDbEntity
  8
AM_0
100
AcDbLine
 10
-5.706155847299602
 20
17.18908566359019
 30
0.0
 11
-4.470168160239362
 21
15.66309942137358
 31
0.0
  0
LINE
  5
4663
330
1F
100
AcDbEntity
  8
AM_0
100
AcDbLine
 10
-4.46910004110293
 20
15.66103567217181
 30
0.0
 11
-9.21110454904929
 21
15.72102426620823
 31
0.0
  0
LINE
  5
4664
330
1F
100
AcDbEntity
  8
AM_0
100
AcDbLine
 10
-4.469100041104733
 20
15.66103662584681
 30
0.0
 11
-4.470084236715468
 21
15.66300214675223
 31
0.0
  0
LINE
  5
4665
330
1F
100
AcDbEntity
  8
AM_0
100
AcDbLine
 10
-9.30209554954467
 20
17.22400241908631
 30
0.0
 11
-9.279077840191055
 21
17.31601582167007
 31
0.0
  0
LINE
  5
4666
330
1F
100
AcDbEntity
  8
AM_0
100
AcDbLine
 10
-9.302103178779214
 20
17.22391754205788
 30
0.0
 11
-5.706110070678408
 21
17.18895119559872
 31
0.0
  0
LINE
  5
4667
330
1F
100
AcDbEntity
  8
AM_0
100
AcDbLine
 10
-8.615115172521159
 20
17.65995495070425
 30
0.0
 11
-8.529109002317477
 21
17.65696439063894
 31
0.0
  0
LINE
  5
4668
330
1F
100
AcDbEntity
  8
AM_0
100
AcDbLine
 10
-20.72111844023201
 20
21.939060139474
 30
0.0
 11
-27.98011740335013
 21
19.96999076402341
 31
0.0
  0
LINE
  5
4669
330
1F
100
AcDbEntity
  8
AM_0
100
AcDbLine
 10
-24.88206071720428
 20
13.9730192915035
 30
0.0
 11
-33.7350910067639
 21
19.56700337158115
 31
0.0
  0
ARC
  5
466A
330
1F
100
AcDbEntity
  8
AM_0
100
AcDbCircle
 10
-15.79710576300561
 20
17.1380297523628
 30
0.0
 40
1.9964631795883
100
AcDbArc
 50
132.625147835742
 51
267.7369686193635
  0
ARC
  5
466B
330
1F
100
AcDbEntity
  8
AM_0
100
AcDbCircle
 10
-15.5131091582444
 20
17.12600636346427
 30
0.0
 40
1.9949799776077
100
AcDbArc
 50
146.2622488910776
 51
264.0015996339871
  0
LINE
  5
466C
330
1F
100
AcDbEntity
  8
AM_0
100
AcDbLine
 10
-11.23111575424684
 20
23.42398952172569
 30
0.0
 11
-14.27411105508481
 21
17.28995008909954
 31
0.0
  0
LINE
  5
466D
330
1F
100
AcDbEntity
  8
AM_0
100
AcDbLine
 10
-15.039134903888
 20
18.1209499245943
 30
0.0
 11
-14.27411868447341
 21
17.28994722806212
 31
0.0
  0
LINE
  5
466E
330
1F
100
AcDbEntity
  8
AM_0
100
AcDbLine
 10
-17.25615794808772
 20
16.68603782019694
 30
0.0
 11
-15.03915779225309
 21
18.12104624565693
 31
0.0
  0
LINE
  5
466F
330
1F
100
AcDbEntity
  8
AM_0
100
AcDbLine
 10
-17.20213685010618
 20
18.08500852626593
 30
0.0
 11
-17.25613505976669
 21
16.68596534099121
 31
0.0
  0
LINE
  5
4670
330
1F
100
AcDbEntity
  8
AM_0
100
AcDbLine
 10
-15.94613571387122
 20
23.81201304455275
 30
0.0
 11
-15.89014441535675
 21
24.24997615928329
 31
0.0
  0
LINE
  5
4671
330
1F
100
AcDbEntity
  8
AM_0
100
AcDbLine
 10
-11.23114627188568
 20
23.4240217081762
 30
0.0
 11
-12.57315966230757
 21
24.95400722162055
 31
0.0
  0
LINE
  5
4672
330
1F
100
AcDbEntity
  8
AM_0
100
AcDbLine
 10
-12.57313677420877
 20
24.95405228277531
 30
0.0
 11
-16.09812063103297
 21
23.67908462422059
 31
0.0
  0
LINE
  5
4673
330
1F
100
AcDbEntity
  8
AM_0
100
AcDbLine
 10
-12.57511279110579
 20
24.95601637129434
 30
0.0
 11
-12.57309099770564
 21
24.95398028045095
 31
0.0
  0
LINE
  5
4674
330
1F
100
AcDbEntity
  8
AM_0
100
AcDbLine
 10
-12.57511279110579
 20
24.95601637129434
 30
0.0
 11
-12.57309099770564
 21
24.95398028045095
 31
0.0
  0
LINE
  5
4675
330
1F
100
AcDbEntity
  8
AM_0
100
AcDbLine
 10
-11.23111575419365
 20
23.42396138833339
 30
0.0
 11
-14.75610724029558
 21
22.14893221777085
 31
0.0
  0
LINE
  5
4676
330
1F
100
AcDbEntity
  8
AM_0
100
AcDbLine
 10
-16.09812826021478
 20
23.67897185221827
 30
0.0
 11
-17.20212159123606
 21
18.08496561095057
 31
0.0
  0
LINE
  5
4677
330
1F
100
AcDbEntity
  8
AM_0
100
AcDbLine
 10
-14.75613775796102
 20
22.14897847091756
 30
0.0
 11
-16.09812063085539
 21
23.67899068730049
 31
0.0
  0
LINE
  5
4678
330
1F
100
AcDbEntity
  8
AM_0
100
AcDbLine
 10
-15.03908149817828
 20
18.12097758125036
 30
0.0
 11
-14.75608435226402
 21
22.14901232645672
 31
0.0
  0
LINE
  5
4679
330
1F
100
AcDbEntity
  8
AM_0
100
AcDbLine
 10
-16.0990971972113
 20
23.68103035639854
 30
0.0
 11
-16.0980824839208
 21
23.6790104761146
 31
0.0
  0
LINE
  5
467A
330
1F
100
AcDbEntity
  8
AM_0
100
AcDbLine
 10
-15.03911964516391
 20
18.12098425689845
 30
0.0
 11
-17.20210633256965
 21
18.08503046083292
 31
0.0
  0
LINE
  5
467B
330
1F
100
AcDbEntity
  8
AM_0
100
AcDbLine
 10
-19.9801159652371
 20
23.24501623505787
 30
0.0
 11
-19.98011532439188
 21
22.90602673882737
 31
0.0
  0
LINE
  5
467C
330
1F
100
AcDbEntity
  8
AM_0
100
AcDbLine
 10
-9.891028193447741
 20
15.52697982135618
 30
0.0
 11
-9.803015870666939
 21
15.72403866541408
 31
0.0
  0
ARC
  5
467D
330
1F
100
AcDbEntity
  8
AM_0
100
AcDbCircle
 10
-15.79710576300561
 20
17.1380297523628
 30
0.0
 40
2.0005605220795
100
AcDbArc
 50
267.7369686193635
 51
297.6678479397885
  0
ARC
  5
467E
330
1F
100
AcDbEntity
  8
AM_0
100
AcDbCircle
 10
-16.46009923473294
 20
16.655057307594
 30
0.0
 40
0.7966034412384
100
AcDbArc
 50
177.7698671361185
 51
222.8677415840657
  0
ARC
  5
467F
330
1F
100
AcDbEntity
  8
AM_0
100
AcDbCircle
 10
-16.46009923473294
 20
16.655057307594
 30
0.0
 40
0.7981691360474001
100
AcDbArc
 50
222.8677415840657
 51
267.7782297921354
  0
LINE
  5
4680
330
1F
100
AcDbEntity
  8
AM_0
100
AcDbLine
 10
-14.86912390128075
 20
15.36803581727785
 30
0.0
 11
-14.07511834573984
 21
15.7870436659683
 31
0.0
  0
LINE
  5
4681
330
1F
100
AcDbEntity
  8
AM_0
100
AcDbLine
 10
-16.49110358361477
 20
15.85604792586017
 30
0.0
 11
-16.48910468409573
 21
15.857025445814
 31
0.0
  0
LINE
  5
4682
330
1F
100
AcDbEntity
  8
AM_0
100
AcDbLine
 10
-17.04512781017936
 20
16.11201115767641
 30
0.0
 11
-17.2561198009849
 21
16.68596915571805
 31
0.0
  0
LINE
  5
4683
330
1F
100
AcDbEntity
  8
AM_0
100
AcDbLine
 10
-16.49107306598449
 20
15.85602026936286
 30
0.0
 11
-17.04508203379974
 21
16.11200448204295
 31
0.0
  0
LINE
  5
4684
330
1F
100
AcDbEntity
  8
AM_0
100
AcDbLine
 10
-34.11811031896823
 20
19.99999415216942
 30
0.0
 11
-38.98017086583454
 21
19.9999849606509
 31
0.0
  0
LINE
  5
4685
330
1F
100
AcDbEntity
  8
AM_0
100
AcDbLine
 10
-38.98017086583274
 20
19.99998400697661
 30
0.0
 11
-39.980111721016
 21
20.99992108147647
 31
0.0
  0
LINE
  5
4686
330
1F
100
AcDbEntity
  8
AM_11
100
AcDbLine
 10
0.0000472614358958
 20
-25.0000019073051
 30
0.0
 11
-12.99995273854087
 21
-25.00002648325176
 31
0.0
  0
LINE
  5
4687
330
1F
100
AcDbEntity
  8
AM_0
100
AcDbLine
 10
-14.54202832247852
 20
-21.2430046334583
 30
0.0
 11
-9.659032902211158
 21
-21.14503397658212
 31
0.0
  0
LINE
  5
4688
330
1F
100
AcDbEntity
  8
AM_0
100
AcDbLine
 10
-14.54206941337492
 20
0.4929496511708577
 30
0.0
 11
-9.659066445058536
 21
0.6339500932173791
 31
0.0
  0
LINE
  5
4689
330
1F
100
AcDbEntity
  8
AM_0
100
AcDbLine
 10
-12.5740644707217
 20
-13.00193111939067
 30
0.0
 11
-7.934048213480588
 21
-13.85293934592996
 31
0.0
  0
LINE
  5
468A
330
1F
100
AcDbEntity
  8
AM_0
100
AcDbLine
 10
-1.20005258094534
 20
-14.96497190368583
 30
0.0
 11
-1.200041784430309
 21
-20.67603147398763
 31
0.0
  0
LINE
  5
468B
330
1F
100
AcDbEntity
  8
AM_0
100
AcDbLine
 10
-1.680043422633509
 20
-9.477973299359282
 30
0.0
 11
-1.680062977633139
 21
0.8660837837522301
 31
0.0
  0
LINE
  5
468C
330
1F
100
AcDbEntity
  8
AM_0
100
AcDbLine
 10
-1.200063379306521
 20
-9.252935770883039
 30
0.0
 11
-1.200083094921186
 21
1.176082249727322
 31
0.0
  0
LINE
  5
468D
330
1F
100
AcDbEntity
  8
AM_0
100
AcDbLine
 10
-1.200067836049248
 20
1.176038380738168
 30
0.0
 11
-1.680062977550206
 21
0.8660399147332315
 31
0.0
  0
LINE
  5
468E
330
1F
100
AcDbEntity
  8
AM_0
100
AcDbLine
 10
-9.674073821580297
 20
0.823046515652912
 30
0.0
 11
-9.659074074554498
 21
0.634003498964959
 31
0.0
  0
LINE
  5
468F
330
1F
100
AcDbEntity
  8
AM_0
100
AcDbLine
 10
-5.663064788523253
 20
0.9199855558139352
 30
0.0
 11
-5.649072159511664
 21
0.7510097521881058
 31
0.0
  0
LINE
  5
4690
330
1F
100
AcDbEntity
  8
AM_0
100
AcDbLine
 10
-5.649095047537016
 20
0.7509258288058351
 30
0.0
 11
-1.680070606840639
 21
0.8659846016088087
 31
0.0
  0
LINE
  5
4691
330
1F
100
AcDbEntity
  8
AM_0
100
AcDbLine
 10
-5.983088322038745
 20
-2.612962589466243
 30
0.0
 11
-5.890083777641626
 21
-3.789958644726216
 31
0.0
  0
LINE
  5
4692
330
1F
100
AcDbEntity
  8
AM_0
100
AcDbLine
 10
-1.200071008701521
 20
-9.252935770897462
 30
0.0
 11
-1.68006631081029
 21
-9.477977114099553
 31
0.0
  0
LINE
  5
4693
330
1F
100
AcDbEntity
  8
AM_0
100
AcDbLine
 10
-0.0660595495529891
 20
-13.89392865274036
 30
0.0
 11
-1.200074770657299
 21
-7.262964610013021
 31
0.0
  0
LINE
  5
4694
330
1F
100
AcDbEntity
  8
AM_0
100
AcDbLine
 10
-0.5000853454545055
 20
-11.35496234067512
 30
0.0
 11
-0.0170796783266159
 21
-9.412971528887991
 31
0.0
  0
LINE
  5
4695
330
1F
100
AcDbEntity
  8
AM_0
100
AcDbLine
 10
-0.0660542117857222
 20
-8.645980959849891
 30
0.0
 11
-0.0110602126966071
 21
-9.345973989432328
 31
0.0
  0
LINE
  5
4696
330
1F
100
AcDbEntity
  8
AM_0
100
AcDbLine
 10
-0.0660160649064747
 20
-8.645931368713778
 30
0.0
 11
-0.7240258121417874
 21
-10.04395431065369
 31
0.0
  0
LINE
  5
4697
330
1F
100
AcDbEntity
  8
AM_0
100
AcDbLine
 10
-0.9450853829625632
 20
-7.13795268387421
 30
0.0
 11
-0.0660847294142141
 21
-8.645954257026589
 31
0.0
  0
LINE
  5
4698
330
1F
100
AcDbEntity
  8
AM_0
100
AcDbLine
 10
-0.9440325359286026
 20
-7.132974501951843
 30
0.0
 11
-0.0660465824628372
 21
-8.64594281286247
 31
0.0
  0
LINE
  5
4699
330
1F
100
AcDbEntity
  8
AM_0
100
AcDbLine
 10
-0.9450243476911847
 20
-7.138013718914828
 30
0.0
 11
-0.9440249103701324
 21
-7.130945082992424
 31
0.0
  0
LINE
  5
469A
330
1F
100
AcDbEntity
  8
AM_0
100
AcDbLine
 10
-1.192094839815353
 20
-7.042997706498904
 30
0.0
 11
-0.9440783161177122
 21
-7.130952712488386
 31
0.0
  0
LINE
  5
469B
330
1F
100
AcDbEntity
  8
AM_0
100
AcDbLine
 10
-1.042037755015824
 20
-8.18195921481641
 30
0.0
 11
-0.9450396066388297
 21
-7.137929795603674
 31
0.0
  0
LINE
  5
469C
330
1F
100
AcDbEntity
  8
AM_0
100
AcDbLine
 10
-0.0660671790263213
 20
-13.89388669108478
 30
0.0
 11
-0.011073179830014
 21
-14.59393694112621
 31
0.0
  0
LINE
  5
469D
330
1F
100
AcDbEntity
  8
AM_0
100
AcDbLine
 10
-1.199980749382473
 20
-20.67597425341324
 30
0.0
 11
-1.67997589665265
 21
-20.98292096160619
 31
0.0
  0
LINE
  5
469E
330
1F
100
AcDbEntity
  8
AM_0
100
AcDbLine
 10
-5.672026362249605
 20
-20.82703708995039
 30
0.0
 11
-5.649038548519
 21
-21.06402129942233
 31
0.0
  0
LINE
  5
469F
330
1F
100
AcDbEntity
  8
AM_0
100
AcDbLine
 10
-5.64904617802839
 20
-21.06396026428075
 30
0.0
 11
-5.663038809008725
 21
-20.89394304830193
 31
0.0
  0
LINE
  5
46A0
330
1F
100
AcDbEntity
  8
AM_0
100
AcDbLine
 10
-5.649053807250314
 20
-21.06405181703018
 30
0.0
 11
-1.680029302284846
 21
-20.98298962625814
 31
0.0
  0
LINE
  5
46A1
330
1F
100
AcDbEntity
  8
AM_0
100
AcDbLine
 10
-9.659040531597938
 20
-21.14503779129355
 30
0.0
 11
-9.674040280474502
 21
-20.95501630475759
 31
0.0
  0
LINE
  5
46A2
330
1F
100
AcDbEntity
  8
AM_0
100
AcDbLine
 10
-24.88205921126885
 20
-11.03801853507634
 30
0.0
 11
-33.73506689153128
 21
-13.36799132600271
 31
0.0
  0
LINE
  5
46A3
330
1F
100
AcDbEntity
  8
AM_0
100
AcDbLine
 10
-20.72107235162589
 20
-10.51202495113386
 30
0.0
 11
-27.98007400714919
 21
-9.039016213026878
 31
0.0
  0
LINE
  5
46A4
330
1F
100
AcDbEntity
  8
AM_0
100
AcDbLine
 10
-14.54205186814377
 20
-8.787995173031561
 30
0.0
 11
-14.54206941349391
 21
0.4930125936758575
 31
0.0
  0
LINE
  5
46A5
330
1F
100
AcDbEntity
  8
AM_0
100
AcDbLine
 10
-19.98005082579838
 20
-11.21195564865345
 30
0.0
 11
-19.98007403109778
 21
1.063009637578611
 31
0.0
  0
LINE
  5
46A6
330
1F
100
AcDbEntity
  8
AM_0
100
AcDbLine
 10
-19.98007441486618
 20
1.266012567266249
 30
0.0
 11
-19.98007403109778
 21
1.063009637578611
 31
0.0
  0
LINE
  5
46A7
330
1F
100
AcDbEntity
  8
AM_0
100
AcDbLine
 10
-12.57505629191696
 20
-13.00198071232967
 30
0.0
 11
-12.57404921183896
 21
-13.00198071042583
 31
0.0
  0
LINE
  5
46A8
330
1F
100
AcDbEntity
  8
AM_0
100
AcDbLine
 10
-12.57505629191696
 20
-13.00198071232967
 30
0.0
 11
-12.57404921183896
 21
-13.00198071042583
 31
0.0
  0
LINE
  5
46A9
330
1F
100
AcDbEntity
  8
AM_0
100
AcDbLine
 10
-16.09905239368643
 20
-12.12602225588474
 30
0.0
 11
-16.20606257818588
 21
-11.96902096282166
 31
0.0
  0
LINE
  5
46AA
330
1F
100
AcDbEntity
  8
AM_0
100
AcDbLine
 10
-16.0970382448958
 20
-12.12001028918707
 30
0.0
 11
-16.20103480721874
 21
-11.96900569452787
 31
0.0
  0
LINE
  5
46AB
330
1F
100
AcDbEntity
  8
AM_0
100
AcDbLine
 10
-16.097099280059
 20
-12.12000647460445
 30
0.0
 11
-16.09909816631786
 21
-12.12799826915527
 31
0.0
  0
LINE
  5
46AC
330
1F
100
AcDbEntity
  8
AM_0
100
AcDbLine
 10
-16.06107354567043
 20
-11.97898849268108
 30
0.0
 11
-16.09708402133492
 21
-12.1199721423006
 31
0.0
  0
LINE
  5
46AD
330
1F
100
AcDbEntity
  8
AM_0
100
AcDbLine
 10
-19.98003337299011
 20
-20.44401131269995
 30
0.0
 11
-19.98003299291401
 21
-20.64506111738659
 31
0.0
  0
LINE
  5
46AE
330
1F
100
AcDbEntity
  8
AM_0
100
AcDbLine
 10
-38.98003421226201
 20
-20.00007750482903
 30
0.0
 11
-31.73403201500997
 21
-20.00006380657029
 31
0.0
  0
LINE
  5
46AF
330
1F
100
AcDbEntity
  8
AM_0
100
AcDbLine
 10
-38.98003802696723
 20
-20.00007369013924
 30
0.0
 11
-39.98003613650801
 21
-21.00007558059489
 31
0.0
  0
LINE
  5
46B0
330
1F
100
AcDbEntity
  8
AM_0
100
AcDbLine
 10
-219.9800443727277
 20
-18.66137701406772
 30
0.0
 11
-219.9801149283919
 21
18.66062921145077
 31
0.0
  0
LINE
  5
46B1
330
1F
100
AcDbEntity
  8
AM_0
100
AcDbLine
 10
-216.9800399508725
 20
-21.00041400626524
 30
0.0
 11
-216.9801193500874
 21
20.99958742417031
 31
0.0
  0
LINE
  5
46B2
330
1F
100
AcDbEntity
  8
AM_0
100
AcDbLine
 10
-216.9801193500856
 20
20.99958647049591
 30
0.0
 11
-218.4980934342299
 21
20.59260642416358
 31
0.0
  0
ARC
  5
46B3
330
1F
100
AcDbEntity
  8
AM_0
100
AcDbCircle
 10
-217.9801149283954
 20
18.66063299236565
 30
0.0
 40
2.000236988067599
100
AcDbArc
 50
105.0090230401281
 51
180.0001083152324
  0
LINE
  5
46B4
330
1F
100
AcDbEntity
  8
AM_0
100
AcDbLine
 10
-218.4980155737655
 20
-20.59343826875581
 30
0.0
 11
-216.9800246920825
 21
-21.00041400623639
 31
0.0
  0
ARC
  5
46B5
330
1F
100
AcDbEntity
  8
AM_0
100
AcDbCircle
 10
-217.9800138551613
 20
-18.66137323309516
 30
0.0
 40
2.0
100
AcDbArc
 50
180.0001083152324
 51
254.9911935903366
  0
VIEWPORT
  5
110
330
101
100
AcDbEntity
 67
     1
  8
0
100
AcDbViewport
 10
420.5
 20
297.0
 30
0.0
 40
948.9782706766916
 41
628.452
 68
     1
 69
     1
1001
ACAD
1000
MVIEW
1002
{
1070
    16
1010
0.0
1020
0.0
1030
0.0
1010
0.0
1020
0.0
1030
1.0
1040
0.0
1040
628.452
1040
420.5
1040
297.0
1040
50.0
1040
0.0
1040
0.0
1070
     0
1070
   100
1070
     1
1070
     1
1070
     0
1070
     0
1070
     0
1070
     0
1040
0.0
1040
0.0
1040
0.0
1040
10.0
1040
10.0
1040
10.0
1040
10.0
1070
     0
1002
{
1002
}
1002
}
  0
ENDSEC
  0
SECTION
  2
OBJECTS
  0
DICTIONARY
  5
C
330
0
100
AcDbDictionary
  3
ACAD_GROUP
350
D
  3
ACAD_LAYOUT
350
1A
  3
ACAD_MLINESTYLE
350
17
  3
ACAD_PLOTSETTINGS
350
19
  3
ACAD_PLOTSTYLENAME
350
E
  3
ACDBVARIABLEDICTIONARY
350
34
  3
ACMDICTIONARY
350
43
  3
AMG
350
2B
  3
AMGSNAPSETTINGS
350
6E
  3
DWGPROPS
350
4773
  3
ACDBHEADERROUNDTRIPXREC
350
477F
  0
DICTIONARY
  5
74
330
1F
100
AcDbDictionary
280
     1
  3
ACAD_INDEX
360
4775
  3
ACAD_LAYOUTSELFREF
360
47A2
  0
DICTIONARY
  5
47A7
330
101
100
AcDbDictionary
280
     1
  3
ACAD_LAYOUTSELFREF
360
47A8
  0
DICTIONARY
  5
D
102
{ACAD_REACTORS
330
C
102
}
330
C
100
AcDbDictionary
  0
DICTIONARY
  5
1A
102
{ACAD_REACTORS
330
C
102
}
330
C
100
AcDbDictionary
  0
DICTIONARY
  5
17
102
{ACAD_REACTORS
330
C
102
}
330
C
100
AcDbDictionary
  3
STANDARD
350
18
  0
DICTIONARY
  5
19
102
{ACAD_REACTORS
330
C
102
}
330
C
100
AcDbDictionary
  0
ACDBDICTIONARYWDFLT
  5
E
102
{ACAD_REACTORS
330
C
102
}
330
C
100
AcDbDictionary
281
     1
  3
Normal
350
F
100
AcDbDictionaryWithDefault
340
F
  0
DICTIONARY
  5
34
102
{ACAD_REACTORS
330
C
102
}
330
C
100
AcDbDictionary
  3
INDEXCTL
350
35
  3
SORTENTS
350
B5E
  0
DICTIONARY
  5
43
102
{ACAD_REACTORS
330
C
102
}
330
C
100
AcDbDictionary
  3
ACMSTDDICTIONARY
350
260
  0
DICTIONARY
  5
2B
102
{ACAD_REACTORS
330
C
102
}
330
C
100
AcDbDictionary
  3
ACMGSETTINGS
350
2C
  0
DICTIONARY
  5
6E
102
{ACAD_REACTORS
330
C
102
}
330
C
100
AcDbDictionary
  0
XRECORD
  5
4773
102
{ACAD_REACTORS
330
C
102
}
330
C
100
AcDbXrecord
  1
DWGPROPS COOKIE
  2

  3

  4

  6

  7

  8

  9

300
AmdtFileType=82
301
=
302
=
303
=
304
=
305
=
306
=
307
=
308
=
309
=
 40
0.1537780208333333
 41
2452839.420061482
 42
2453075.629943935
  1

 90
        1
  0
DICTIONARY
  5
477F
102
{ACAD_REACTORS
330
C
102
}
330
C
100
AcDbDictionary
  3
TSTACKALIGN
350
4780
  3
TSTACKSIZE
350
4781
  3
HYPERLINKBASE
350
4782
  3
STYLESHEET
350
4783
  3
LAYOUTDICT
350
4784
  3
PLOTSETDICT
350
4785
  3
PLOTSTYLNAMDICT
350
4786
  3
LWETCUNION
350
4787
  3
INSUNITS
350
4788
  3
CEPSNTYPE
350
4789
  3
FINGERPRINTGUID
350
478A
  3
VERSIONGUID
350
478B
  3
PSVPSCALE
350
478C
  3
DIMSTYLEDATA
350
478D
  3
PUCSORTHOREF
350
478E
  3
PUCSORTHOVIEW
350
478F
  3
PUCSBASE
350
4790
  3
PUCSORGTOP
350
4791
  3
PUCSORGBOTTOM
350
4792
  3
PUCSORGLEFT
350
4793
  3
PUCSORGRIGHT
350
4794
  3
PUCSORGFRONT
350
4795
  3
PUCSORGBACK
350
4796
  3
UCSORTHOREF
350
4797
  3
UCSORTHOVIEW
350
4798
  3
UCSBASE
350
4799
  3
UCSORGTOP
350
479A
  3
UCSORGBOTTOM
350
479B
  3
UCSORGLEFT
350
479C
  3
UCSORGRIGHT
350
479D
  3
UCSORGFRONT
350
479E
  3
UCSORGBACK
350
479F
  0
DICTIONARY
  5
4775
102
{ACAD_REACTORS
330
74
102
}
330
74
100
AcDbDictionary
  3
*A1
350
4776
  0
XRECORD
  5
47A2
102
{ACAD_REACTORS
330
74
102
}
330
74
100
AcDbXrecord
340
1F
  0
XRECORD
  5
47A8
102
{ACAD_REACTORS
330
47A7
102
}
330
47A7
100
AcDbXrecord
340
101
  0
MLINESTYLE
  5
18
102
{ACAD_REACTORS
330
17
102
}
330
17
100
AcDbMlineStyle
  2
STANDARD
 70
     0
  3

 62
   256
 51
90.0
 52
90.0
 71
     2
 49
0.5
 62
   256
  6
BYLAYER
 49
-0.5
 62
   256
  6
BYLAYER
  0
ACDBPLACEHOLDER
  5
F
102
{ACAD_REACTORS
330
E
102
}
330
E
100
AcDbPlaceHolder
280
     0
  0
DICTIONARYVAR
  5
35
102
{ACAD_REACTORS
330
34
102
}
330
34
100
DictionaryVariables
280
     0
  1
1
  0
DICTIONARYVAR
  5
B5E
102
{ACAD_REACTORS
330
34
102
}
330
34
100
DictionaryVariables
280
     0
  1
96
  0
DICTIONARY
  5
260
102
{ACAD_REACTORS
330
43
102
}
330
43
100
AcDbDictionary
  0
DICTIONARY
  5
2C
102
{ACAD_REACTORS
330
2B
102
}
330
2B
100
AcDbDictionary
  3
DWGSETTINGS
350
2D
  0
XRECORD
  5
4780
102
{ACAD_REACTORS
330
477F
102
}
330
477F
100
AcDbXrecord
 90
        1
  0
XRECORD
  5
4781
102
{ACAD_REACTORS
330
477F
102
}
330
477F
100
AcDbXrecord
 90
       70
  0
XRECORD
  5
4782
102
{ACAD_REACTORS
330
477F
102
}
330
477F
100
AcDbXrecord
  1

  0
XRECORD
  5
4783
102
{ACAD_REACTORS
330
477F
102
}
330
477F
100
AcDbXrecord
  1
ASAMI.ctb
  0
XRECORD
  5
4784
102
{ACAD_REACTORS
330
477F
102
}
330
477F
100
AcDbXrecord
340
1A
  0
XRECORD
  5
4785
102
{ACAD_REACTORS
330
477F
102
}
330
477F
100
AcDbXrecord
340
19
  0
XRECORD
  5
4786
102
{ACAD_REACTORS
330
477F
102
}
330
477F
100
AcDbXrecord
340
E
  0
XRECORD
  5
4787
102
{ACAD_REACTORS
330
477F
102
}
330
477F
100
AcDbXrecord
 90
    10781
  0
XRECORD
  5
4788
102
{ACAD_REACTORS
330
477F
102
}
330
477F
100
AcDbXrecord
 90
        4
  0
XRECORD
  5
4789
102
{ACAD_REACTORS
330
477F
102
}
330
477F
100
AcDbXrecord
 90
        0
  0
XRECORD
  5
478A
102
{ACAD_REACTORS
330
477F
102
}
330
477F
100
AcDbXrecord
  1
{AFB28963-8C59-40AE-9337-C84526B81ACE}
  0
XRECORD
  5
478B
102
{ACAD_REACTORS
330
477F
102
}
330
477F
100
AcDbXrecord
  1
{59C10B33-A79C-4BFE-8803-36C76D931184}
  0
XRECORD
  5
478C
102
{ACAD_REACTORS
330
477F
102
}
330
477F
100
AcDbXrecord
 40
0.0
  0
XRECORD
  5
478D
102
{ACAD_REACTORS
330
477F
102
}
330
477F
100
AcDbXrecord
1000
DSTYLE
1002
{
1070
    79
 70
     2
1070
   341
340
59
1070
   342
340
59
1070
   371
 70
    -1
1070
   372
 70
    -1
1002
}
  0
XRECORD
  5
478E
102
{ACAD_REACTORS
330
477F
102
}
330
477F
100
AcDbXrecord
340
0
  0
XRECORD
  5
478F
102
{ACAD_REACTORS
330
477F
102
}
330
477F
100
AcDbXrecord
 70
     0
  0
XRECORD
  5
4790
102
{ACAD_REACTORS
330
477F
102
}
330
477F
100
AcDbXrecord
340
0
  0
XRECORD
  5
4791
102
{ACAD_REACTORS
330
477F
102
}
330
477F
100
AcDbXrecord
 10
0.0
 20
0.0
 30
0.0
  0
XRECORD
  5
4792
102
{ACAD_REACTORS
330
477F
102
}
330
477F
100
AcDbXrecord
 10
0.0
 20
0.0
 30
0.0
  0
XRECORD
  5
4793
102
{ACAD_REACTORS
330
477F
102
}
330
477F
100
AcDbXrecord
 10
0.0
 20
0.0
 30
0.0
  0
XRECORD
  5
4794
102
{ACAD_REACTORS
330
477F
102
}
330
477F
100
AcDbXrecord
 10
0.0
 20
0.0
 30
0.0
  0
XRECORD
  5
4795
102
{ACAD_REACTORS
330
477F
102
}
330
477F
100
AcDbXrecord
 10
0.0
 20
0.0
 30
0.0
  0
XRECORD
  5
4796
102
{ACAD_REACTORS
330
477F
102
}
330
477F
100
AcDbXrecord
 10
0.0
 20
0.0
 30
0.0
  0
XRECORD
  5
4797
102
{ACAD_REACTORS
330
477F
102
}
330
477F
100
AcDbXrecord
340
0
  0
XRECORD
  5
4798
102
{ACAD_REACTORS
330
477F
102
}
330
477F
100
AcDbXrecord
 70
     0
  0
XRECORD
  5
4799
102
{ACAD_REACTORS
330
477F
102
}
330
477F
100
AcDbXrecord
340
0
  0
XRECORD
  5
479A
102
{ACAD_REACTORS
330
477F
102
}
330
477F
100
AcDbXrecord
 10
0.0
 20
0.0
 30
0.0
  0
XRECORD
  5
479B
102
{ACAD_REACTORS
330
477F
102
}
330
477F
100
AcDbXrecord
 10
0.0
 20
0.0
 30
0.0
  0
XRECORD
  5
479C
102
{ACAD_REACTORS
330
477F
102
}
330
477F
100
AcDbXrecord
 10
0.0
 20
0.0
 30
0.0
  0
XRECORD
  5
479D
102
{ACAD_REACTORS
330
477F
102
}
330
477F
100
AcDbXrecord
 10
0.0
 20
0.0
 30
0.0
  0
XRECORD
  5
479E
102
{ACAD_REACTORS
330
477F
102
}
330
477F
100
AcDbXrecord
 10
0.0
 20
0.0
 30
0.0
  0
XRECORD
  5
479F
102
{ACAD_REACTORS
330
477F
102
}
330
477F
100
AcDbXrecord
 10
0.0
 20
0.0
 30
0.0
  0
LAYER_INDEX
  5
4776
102
{ACAD_REACTORS
330
4775
102
}
330
4775
100
AcDbIndex
 40
2453152.393447534
100
AcDbLayerIndex
  8
0
360
4777
 90
        0
  8
AM_0
360
4778
 90
      200
  8
AM_7
360
4779
 90
        1
  8
AM_11
360
477A
 90
        4
  8
AM_5
360
477B
 90
        6
  8
Defpoints
360
477C
 90
        0
  8
AM_6
360
477D
 90
        1
  0
XRECORD
  5
2D
102
{ACAD_REACTORS
330
2C
102
}
330
2C
100
AcDbXrecord
  1
VERSION
140
15.0
  1
PRODUCT
  2
AutoCAD Mechanical 2000
  0
IDBUFFER
  5
4777
330
0
100
AcDbIdBuffer
  0
IDBUFFER
  5
4778
330
0
100
AcDbIdBuffer
330
465D
330
465E
330
465F
330
4660
330
4661
330
4662
330
4663
330
4664
330
4665
330
4666
330
4667
330
4668
330
4669
330
466A
330
466B
330
466C
330
466D
330
466E
330
466F
330
4670
330
4671
330
4672
330
4673
330
4674
330
4675
330
4676
330
4677
330
4678
330
4679
330
467A
330
467B
330
467C
330
467D
330
467E
330
467F
330
4680
330
4681
330
4682
330
4683
330
4684
330
4685
330
4687
330
4688
330
4689
330
468A
330
468B
330
468C
330
468D
330
468E
330
468F
330
4690
330
4691
330
4692
330
4693
330
4694
330
4695
330
4696
330
4697
330
4698
330
4699
330
469A
330
469B
330
469C
330
469D
330
469E
330
469F
330
46A0
330
46A1
330
46A2
330
46A3
330
46A4
330
46A5
330
46A6
330
46A7
330
46A8
330
46A9
330
46AA
330
46AB
330
46AC
330
46AD
330
46AE
330
46AF
330
46B0
330
46B1
330
46B2
330
46B3
330
46B4
330
46B5
330
4534
330
4535
330
4536
330
4537
330
4538
330
4539
330
453A
330
453B
330
453C
330
453D
330
453E
330
453F
330
4540
330
4541
330
4542
330
4543
330
4544
330
4545
330
4546
330
4547
330
4548
330
4549
330
454A
330
454B
330
454C
330
454D
330
454E
330
454F
330
4550
330
4551
330
4552
330
4553
330
4554
330
4555
330
4556
330
4557
330
4558
330
4559
330
455A
330
455B
330
455C
330
455D
330
455E
330
455F
330
4560
330
4561
330
4562
330
4563
330
4564
330
4565
330
4566
330
4567
330
4568
330
4569
330
456A
330
456B
330
456C
330
456D
330
456E
330
456F
330
4570
330
4571
330
4572
330
4573
330
4574
330
4575
330
4576
330
4577
330
4578
330
4579
330
457A
330
457B
330
457C
330
457D
330
457E
330
457F
330
4638
330
4639
330
463A
330
463C
330
463D
330
463E
330
463F
330
4640
330
4641
330
4642
330
4643
330
4644
330
4645
330
4646
330
4647
330
4648
330
4649
330
464A
330
464B
330
464C
330
464D
330
464E
330
464F
330
4650
330
4651
330
4652
330
4653
330
4654
330
4655
330
4656
330
4657
330
4658
330
4659
330
465A
330
465B
330
465C
  0
IDBUFFER
  5
4779
330
0
100
AcDbIdBuffer
330
4533
  0
IDBUFFER
  5
477A
330
0
100
AcDbIdBuffer
330
4636
330
4637
330
463B
330
4686
  0
IDBUFFER
  5
477B
330
0
100
AcDbIdBuffer
330
385C
330
38E8
330
3983
330
3A0B
330
3AF5
330
3B7D
  0
IDBUFFER
  5
477C
330
0
100
AcDbIdBuffer
  0
IDBUFFER
  5
477D
330
0
100
AcDbIdBuffer
330
1142
  0
ENDSEC
  0
EOF
