  0
SECTION
  2
HEADER
  9
$ACADVER
  1
AC1015
  9
$ACADMAINTVER
 70
    20
  9
$DWGCODEPAGE
  3
ANSI_932
  9
$INSBASE
 10
0.0
 20
0.0
 30
0.0
  9
$EXTMIN
 10
-254.5364090830269
 20
-64.00000100000017
 30
0.0
  9
$EXTMAX
 10
22.92174026514298
 20
36.20000100000015
 30
0.0
  9
$LIMMIN
 10
-287.5189246771071
 20
-107.5977529657703
  9
$LIMMAX
 10
89.54130843830546
 20
42.21974891922275
  9
$ORTHOMODE
 70
     0
  9
$REGENMODE
 70
     1
  9
$FILLMODE
 70
     1
  9
$QTEXTMODE
 70
     0
  9
$MIRRTEXT
 70
     0
  9
$LTSCALE
 40
1.0
  9
$ATTMODE
 70
     1
  9
$TEXTSIZE
 40
2.5
  9
$TRACEWID
 40
1.0
  9
$TEXTSTYLE
  7
STANDARD
  9
$CLAYER
  8
AM_0
  9
$CELTYPE
  6
BYLAYER
  9
$CECOLOR
 62
   256
  9
$CELTSCALE
 40
1.0
  9
$DISPSILH
 70
     0
  9
$DIMSCALE
 40
0.5
  9
$DIMASZ
 40
2.5
  9
$DIMEXO
 40
1.0
  9
$DIMDLI
 40
12.0
  9
$DIMRND
 40
0.0
  9
$DIMDLE
 40
0.0
  9
$DIMEXE
 40
1.0
  9
$DIMTP
 40
0.1
  9
$DIMTM
 40
0.1
  9
$DIMTXT
 40
3.2
  9
$DIMCEN
 40
0.0
  9
$DIMTSZ
 40
0.0
  9
$DIMTOL
 70
     0
  9
$DIMLIM
 70
     0
  9
$DIMTIH
 70
     0
  9
$DIMTOH
 70
     0
  9
$DIMSE1
 70
     0
  9
$DIMSE2
 70
     0
  9
$DIMTAD
 70
     3
  9
$DIMZIN
 70
     8
  9
$DIMBLK
  1
Open30
  9
$DIMASO
 70
     1
  9
$DIMSHO
 70
     1
  9
$DIMPOST
  1

  9
$DIMAPOST
  1
"
  9
$DIMALT
 70
     0
  9
$DIMALTD
 70
     2
  9
$DIMALTF
 40
0.0393701
  9
$DIMLFAC
 40
1.0
  9
$DIMTOFL
 70
     1
  9
$DIMTVP
 40
0.0
  9
$DIMTIX
 70
     0
  9
$DIMSOXD
 70
     0
  9
$DIMSAH
 70
     0
  9
$DIMBLK1
  1

  9
$DIMBLK2
  1

  9
$DIMSTYLE
  2
AM_JIS
  9
$DIMCLRD
 70
   256
  9
$DIMCLRE
 70
   256
  9
$DIMCLRT
 70
     2
  9
$DIMTFAC
 40
0.71
  9
$DIMGAP
 40
1.5
  9
$DIMJUST
 70
     0
  9
$DIMSD1
 70
     0
  9
$DIMSD2
 70
     0
  9
$DIMTOLJ
 70
     0
  9
$DIMTZIN
 70
     0
  9
$DIMALTZ
 70
     0
  9
$DIMALTTZ
 70
     0
  9
$DIMUPT
 70
     0
  9
$DIMDEC
 70
     3
  9
$DIMTDEC
 70
     3
  9
$DIMALTU
 70
     2
  9
$DIMALTTD
 70
     2
  9
$DIMTXSTY
  7
ASAMI
  9
$DIMAUNIT
 70
     0
  9
$DIMADEC
 70
     0
  9
$DIMALTRND
 40
0.0
  9
$DIMAZIN
 70
     2
  9
$DIMDSEP
 70
    46
  9
$DIMATFIT
 70
     3
  9
$DIMFRAC
 70
     0
  9
$DIMLDRBLK
  1
Open30
  9
$DIMLUNIT
 70
     2
  9
$DIMLWD
 70
    -1
  9
$DIMLWE
 70
    -1
  9
$DIMTMOVE
 70
     0
  9
$LUNITS
 70
     2
  9
$LUPREC
 70
     2
  9
$SKETCHINC
 40
1.0
  9
$FILLETRAD
 40
0.4
  9
$AUNITS
 70
     0
  9
$AUPREC
 70
     0
  9
$MENU
  1
.
  9
$ELEVATION
 40
0.0
  9
$PELEVATION
 40
0.0
  9
$THICKNESS
 40
0.0
  9
$LIMCHECK
 70
     1
  9
$CHAMFERA
 40
1.0
  9
$CHAMFERB
 40
1.0
  9
$CHAMFERC
 40
20.0
  9
$CHAMFERD
 40
0.0
  9
$SKPOLY
 70
     0
  9
$TDCREATE
 40
2452802.716478762
  9
$TDUCREATE
 40
2452802.341478762
  9
$TDUPDATE
 40
2453691.656176389
  9
$TDUUPDATE
 40
2453691.281176389
  9
$TDINDWG
 40
1.0209854977
  9
$TDUSRTIMER
 40
1.0209853241
  9
$USRTIMER
 70
     1
  9
$ANGBASE
 50
0.0
  9
$ANGDIR
 70
     0
  9
$PDMODE
 70
     0
  9
$PDSIZE
 40
0.0
  9
$PLINEWID
 40
0.0
  9
$SPLFRAME
 70
     0
  9
$SPLINETYPE
 70
     6
  9
$SPLINESEGS
 70
     8
  9
$HANDSEED
  5
D45D
  9
$SURFTAB1
 70
     6
  9
$SURFTAB2
 70
     6
  9
$SURFTYPE
 70
     6
  9
$SURFU
 70
     6
  9
$SURFV
 70
     6
  9
$UCSBASE
  2

  9
$UCSNAME
  2

  9
$UCSORG
 10
-0.0000000000002682
 20
0.000000000000161
 30
0.0
  9
$UCSXDIR
 10
1.0
 20
0.000000000000002
 30
0.0
  9
$UCSYDIR
 10
-0.000000000000002
 20
1.0
 30
0.0
  9
$UCSORTHOREF
  2

  9
$UCSORTHOVIEW
 70
     0
  9
$UCSORGTOP
 10
0.0
 20
0.0
 30
0.0
  9
$UCSORGBOTTOM
 10
0.0
 20
0.0
 30
0.0
  9
$UCSORGLEFT
 10
0.0
 20
0.0
 30
0.0
  9
$UCSORGRIGHT
 10
0.0
 20
0.0
 30
0.0
  9
$UCSORGFRONT
 10
0.0
 20
0.0
 30
0.0
  9
$UCSORGBACK
 10
0.0
 20
0.0
 30
0.0
  9
$PUCSBASE
  2

  9
$PUCSNAME
  2

  9
$PUCSORG
 10
0.0
 20
0.0
 30
0.0
  9
$PUCSXDIR
 10
1.0
 20
0.0
 30
0.0
  9
$PUCSYDIR
 10
0.0
 20
1.0
 30
0.0
  9
$PUCSORTHOREF
  2

  9
$PUCSORTHOVIEW
 70
     0
  9
$PUCSORGTOP
 10
0.0
 20
0.0
 30
0.0
  9
$PUCSORGBOTTOM
 10
0.0
 20
0.0
 30
0.0
  9
$PUCSORGLEFT
 10
0.0
 20
0.0
 30
0.0
  9
$PUCSORGRIGHT
 10
0.0
 20
0.0
 30
0.0
  9
$PUCSORGFRONT
 10
0.0
 20
0.0
 30
0.0
  9
$PUCSORGBACK
 10
0.0
 20
0.0
 30
0.0
  9
$USERI1
 70
     0
  9
$USERI2
 70
     0
  9
$USERI3
 70
     0
  9
$USERI4
 70
     0
  9
$USERI5
 70
     0
  9
$USERR1
 40
0.0
  9
$USERR2
 40
0.0
  9
$USERR3
 40
0.0
  9
$USERR4
 40
0.0
  9
$USERR5
 40
0.0
  9
$WORLDVIEW
 70
     1
  9
$SHADEDGE
 70
     3
  9
$SHADEDIF
 70
    70
  9
$TILEMODE
 70
     1
  9
$MAXACTVP
 70
    64
  9
$PINSBASE
 10
0.0
 20
0.0
 30
0.0
  9
$PLIMCHECK
 70
     0
  9
$PEXTMIN
 10
1.000000000000000E+20
 20
1.000000000000000E+20
 30
1.000000000000000E+20
  9
$PEXTMAX
 10
-1.000000000000000E+20
 20
-1.000000000000000E+20
 30
-1.000000000000000E+20
  9
$PLIMMIN
 10
0.0
 20
0.0
  9
$PLIMMAX
 10
841.0
 20
594.0
  9
$UNITMODE
 70
     0
  9
$VISRETAIN
 70
     1
  9
$PLINEGEN
 70
     0
  9
$PSLTSCALE
 70
     0
  9
$TREEDEPTH
 70
  3020
  9
$CMLSTYLE
  2
STANDARD
  9
$CMLJUST
 70
     0
  9
$CMLSCALE
 40
20.0
  9
$PROXYGRAPHICS
 70
     1
  9
$MEASUREMENT
 70
     1
  9
$CELWEIGHT
370
    -1
  9
$ENDCAPS
280
     0
  9
$JOINSTYLE
280
     0
  9
$LWDISPLAY
290
     0
  9
$INSUNITS
 70
     4
  9
$HYPERLINKBASE
  1

  9
$STYLESHEET
  1
ASAMI.ctb
  9
$XEDIT
290
     1
  9
$CEPSNTYPE
380
     0
  9
$PSTYLEMODE
290
     1
  9
$FINGERPRINTGUID
  2
{AFB28963-8C59-40AE-9337-C84526B81ACE}
  9
$VERSIONGUID
  2
{3F01A358-5E47-42BF-A6E6-3DF2415D0988}
  9
$EXTNAMES
290
     1
  9
$PSVPSCALE
 40
0.0
  9
$OLESTARTUP
290
     0
  0
ENDSEC
  0
SECTION
  2
CLASSES
  0
CLASS
  1
ACDBDICTIONARYWDFLT
  2
AcDbDictionaryWithDefault
  3
ObjectDBX Classes
 90
        0
280
     0
281
     0
  0
CLASS
  1
ACDBPLACEHOLDER
  2
AcDbPlaceHolder
  3
ObjectDBX Classes
 90
        0
280
     0
281
     0
  0
CLASS
  1
LAYOUT
  2
AcDbLayout
  3
ObjectDBX Classes
 90
        0
280
     0
281
     0
  0
CLASS
  1
AMGSETTINGSOBJ
  2
AmgSettingsObj
  3
"AcadM|Product Description: AutoCAD Mechanical 2000|Company: Autodesk"
 90
        0
280
     0
281
     0
  0
CLASS
  1
ACME_DOCUMENT
  2
AcMeDbDoc
  3
AcMeServices
 90
        0
280
     0
281
     0
  0
CLASS
  1
ACMESCOPE
  2
AcMeScope
  3
AcMeServices
 90
        0
280
     0
281
     0
  0
CLASS
  1
ACMECOMMANDHISTORY
  2
AcMeCommandHistory
  3
AcMeServices
 90
        0
280
     0
281
     0
  0
CLASS
  1
DICTIONARYVAR
  2
AcDbDictionaryVar
  3
ObjectDBX Classes
 90
        0
280
     0
281
     0
  0
CLASS
  1
ACIMSYSVARMAN
  2
AcImSysVarManager
  3
AcMeServices
 90
        0
280
     0
281
     0
  0
CLASS
  1
ACIMREALSYSVAR
  2
AcImRealSysVar
  3
AcMeServices
 90
        0
280
     0
281
     0
  0
CLASS
  1
ACIMINTSYSVAR
  2
AcImIntSysVar
  3
AcMeServices
 90
        0
280
     0
281
     0
  0
CLASS
  1
ACMEDRAWINGMAN
  2
AcMeDrawingMan
  3
AcMeServices
 90
        0
280
     0
281
     0
  0
CLASS
  1
ACMEVIEW
  2
AcMeView
  3
AcMeServices
 90
        0
280
     0
281
     0
  0
CLASS
  1
ACDBENTITYCACHE
  2
AcMeEntityCache
  3
AcMeServices
 90
        0
280
     0
281
     0
  0
CLASS
  1
GSMANAGER
  2
AcMeGSManager
  3
AcMeServices
 90
        0
280
     0
281
     0
  0
CLASS
  1
AMDTINTERNALREACTOR
  2
AmdtInternalReactor
  3
AcMeServices
 90
        0
280
     0
281
     0
  0
CLASS
  1
ACMESTATEMGR
  2
AcMeStateMgr
  3
AcMeServices
 90
        0
280
     0
281
     0
  0
CLASS
  1
ACME_DATABASE
  2
AcMeDbDatabase
  3
AcMeServices
 90
        0
280
     0
281
     0
  0
CLASS
  1
ACRFINSADJUSTERMGR
  2
AcRfInsAdjusterMgr
  3
AcMeServices
 90
        0
280
     0
281
     0
  0
CLASS
  1
ACMDATADICTIONARY
  2
AcmDataDictionary
  3
"AcmSymBB|Product Description: AutoCAD Mechanical 2004 DX|Company: Autodesk"
 90
        0
280
     0
281
     0
  0
CLASS
  1
ACMDATAENTRYBLOCK
  2
AcmDataEntryBlock
  3
"AcmSymBB|Product Description: AutoCAD Mechanical 2004 DX|Company: Autodesk"
 90
    32768
280
     0
281
     0
  0
CLASS
  1
AMGOBJPROPCFG
  2
AmgObjPropCfg
  3
"AmgLay|Product Description: AutoCAD Mechanical 2000|Company: Autodesk"
 90
        1
280
     0
281
     0
  0
CLASS
  1
ACAMGFILTERDAT
  2
AcAmgFilterDat
  3
"AcadM|Product Description: AutoCAD Mechanical 2000|Company: Autodesk"
 90
    32768
280
     0
281
     0
  0
CLASS
  1
LAYER_INDEX
  2
AcDbLayerIndex
  3
ObjectDBX Classes
 90
        0
280
     0
281
     0
  0
CLASS
  1
IDBUFFER
  2
AcDbIdBuffer
  3
ObjectDBX Classes
 90
        0
280
     0
281
     0
  0
CLASS
  1
ACIMSTRSYSVAR
  2
AcImStrSysVar
  3
AcMeServices
 90
        0
280
     0
281
     0
  0
CLASS
  1
ACMSTANDARDJIS
  2
AcmStandardJIS
  3
"Amdt_StdImp|Product Description: AutoCAD Mechanical 2004 DX|Company: Autodesk"
 90
        0
280
     0
281
     0
  0
CLASS
  1
ACMSURFSTANDARDJIS
  2
AcmSurfTextStdJIS
  3
"Amdt_StdImp|Product Description: AutoCAD Mechanical 2004 DX|Company: Autodesk"
 90
        0
280
     0
281
     0
  0
CLASS
  1
ACMFCFSTANDARDJIS
  2
AcmFCFStdJIS
  3
"Amdt_StdImp|Product Description: AutoCAD Mechanical 2004 DX|Company: Autodesk"
 90
    32768
280
     0
281
     0
  0
CLASS
  1
ACMWELDSTANDARDJIS
  2
AcmWeldingStdJIS
  3
"Amdt_StdImp|Product Description: AutoCAD Mechanical 2004 DX|Company: Autodesk"
 90
        0
280
     0
281
     0
  0
CLASS
  1
ACMIDSTANDARDJIS
  2
AcmIdStdJIS
  3
"Amdt_StdImp|Product Description: AutoCAD Mechanical 2004 DX|Company: Autodesk"
 90
        0
280
     0
281
     0
  0
CLASS
  1
ACMDATUMSTANDARDJIS
  2
AcmDatumStdJIS
  3
"Amdt_StdImp|Product Description: AutoCAD Mechanical 2004 DX|Company: Autodesk"
 90
        0
280
     0
281
     0
  0
CLASS
  1
ACMBOMSTANDARDJIS
  2
AcmBOMStdJIS
  3
"Amdt_StdImp|Product Description: AutoCAD Mechanical 2004 DX|Company: Autodesk"
 90
        0
280
     0
281
     0
  0
CLASS
  1
ACMSTANDARDANSI
  2
AcmStandardANSI
  3
"Amdt_StdImp|Product Description: AutoCAD Mechanical 2004 DX|Company: Autodesk"
 90
    32768
280
     0
281
     0
  0
CLASS
  1
ACMSURFSTANDARDANSI
  2
AcmSurfTextStdANSI
  3
"Amdt_StdImp|Product Description: AutoCAD Mechanical 2004 DX|Company: Autodesk"
 90
    32768
280
     0
281
     0
  0
CLASS
  1
ACMFCFSTANDARDANSI
  2
AcmFCFStdANSI
  3
"Amdt_StdImp|Product Description: AutoCAD Mechanical 2004 DX|Company: Autodesk"
 90
    32768
280
     0
281
     0
  0
CLASS
  1
ACMWELDSTANDARDANSI
  2
AcmWeldingStdANSI
  3
"Amdt_StdImp|Product Description: AutoCAD Mechanical 2004 DX|Company: Autodesk"
 90
    32768
280
     0
281
     0
  0
CLASS
  1
ACMIDSTANDARDANSI
  2
AcmIdStdANSI
  3
"Amdt_StdImp|Product Description: AutoCAD Mechanical 2004 DX|Company: Autodesk"
 90
    32768
280
     0
281
     0
  0
CLASS
  1
ACMDATUMSTANDARDANSI
  2
AcmDatumStdANSI
  3
"Amdt_StdImp|Product Description: AutoCAD Mechanical 2004 DX|Company: Autodesk"
 90
    32768
280
     0
281
     0
  0
CLASS
  1
ACMBOMSTANDARDANSI
  2
AcmBOMStdANSI
  3
"Amdt_StdImp|Product Description: AutoCAD Mechanical 2004 DX|Company: Autodesk"
 90
    32768
280
     0
281
     0
  0
CLASS
  1
ACMSTANDARDBSI
  2
AcmStandardBSI
  3
"Amdt_StdImp|Product Description: AutoCAD Mechanical 2004 DX|Company: Autodesk"
 90
    32768
280
     0
281
     0
  0
CLASS
  1
ACMSURFSTANDARDBSI
  2
AcmSurfTextStdBSI
  3
"Amdt_StdImp|Product Description: AutoCAD Mechanical 2004 DX|Company: Autodesk"
 90
    32768
280
     0
281
     0
  0
CLASS
  1
ACMFCFSTANDARDBSI
  2
AcmFCFStdBSI
  3
"Amdt_StdImp|Product Description: AutoCAD Mechanical 2004 DX|Company: Autodesk"
 90
    32768
280
     0
281
     0
  0
CLASS
  1
ACMWELDSTANDARDBSI
  2
AcmWeldingStdBSI
  3
"Amdt_StdImp|Product Description: AutoCAD Mechanical 2004 DX|Company: Autodesk"
 90
    32768
280
     0
281
     0
  0
CLASS
  1
ACMIDSTANDARDBSI
  2
AcmIdStdBSI
  3
"Amdt_StdImp|Product Description: AutoCAD Mechanical 2004 DX|Company: Autodesk"
 90
    32768
280
     0
281
     0
  0
CLASS
  1
ACMDATUMSTANDARDBSI
  2
AcmDatumStdBSI
  3
"Amdt_StdImp|Product Description: AutoCAD Mechanical 2004 DX|Company: Autodesk"
 90
    32768
280
     0
281
     0
  0
CLASS
  1
ACMBOMSTANDARDBSI
  2
AcmBOMStdBSI
  3
"Amdt_StdImp|Product Description: AutoCAD Mechanical 2004 DX|Company: Autodesk"
 90
    32768
280
     0
281
     0
  0
CLASS
  1
STDPART2D
  2
AmgStdPart
  3
"AmgStdPart|Product Description: AutoCAD Mechanical 2000|Company: Autodesk"
 90
    33791
280
     0
281
     1
  0
CLASS
  1
PLOTSETTINGS
  2
AcDbPlotSettings
  3
ObjectDBX Classes
 90
        0
280
     0
281
     0
  0
CLASS
  1
TABLESTYLE
  2
AcDbTableStyle
  3
ObjectDBX Classes
 90
     2047
280
     0
281
     0
  0
CLASS
  1
ACGREFMASTER
  2
AcGrefMaster
  3
AcAttribServices
 90
        0
280
     0
281
     0
  0
CLASS
  1
AM_DRAWING_MGR
  2
AcDmDwgMgr
  3
AcMechDwgViewMgmt
 90
        0
280
     0
281
     0
  0
CLASS
  1
AM_DWG_DOCUMENT
  2
AcDmDwgDocument
  3
AcMechDwgViewMgmt
 90
        0
280
     0
281
     0
  0
CLASS
  1
AM_DWG_SHEET
  2
AcDmSheet
  3
AcMechDwgViewMgmt
 90
        0
280
     0
281
     0
  0
CLASS
  1
AM_VIEWDIMPARMAP
  2
AcDmViewDimParMap
  3
AcMechDwgViewMgmt
 90
        0
280
     0
281
     0
  0
CLASS
  1
AM_DWGMGR_NAME
  2
AcDmDwgMgrName
  3
AcMechDwgViewMgmt
 90
        0
280
     0
281
     0
  0
CLASS
  1
ACGREFACADMASTER
  2
AcGrefacadMaster
  3
AcGrefServices
 90
        0
280
     0
281
     0
  0
CLASS
  1
AMDTMENUSTATEMGR
  2
AmdtMenuStateMgr
  3
McadcomServices
 90
        0
280
     0
281
     0
  0
CLASS
  1
AMDTMCOMMENUSTATE
  2
AmdtMcomMenuState
  3
McadcomServices
 90
        0
280
     0
281
     0
  0
CLASS
  1
AMIMASTER
  2
AmiMaster
  3
AmiServices
 90
        0
280
     0
281
     0
  0
CLASS
  1
MAPIAMMOUDLE
  2
MApiAmModule
  3
MApiAmServices
 90
        0
280
     0
281
     0
  0
CLASS
  1
AMDTADMENUSTATE
  2
AmdtAdMenuState
  3
DesignerServices
 90
        0
280
     0
281
     0
  0
CLASS
  1
ADAPPL
  2
AcAdAppl
  3
DesignerServices
 90
        0
280
     0
281
     0
  0
CLASS
  1
DEPMGR
  2
AcAdDepMgr
  3
DesignerServices
 90
        0
280
     0
281
     0
  0
CLASS
  1
PARAMMGR
  2
AcAdParamMgr
  3
DesignerServices
 90
        0
280
     0
281
     0
  0
CLASS
  1
PARAMSCOPE
  2
AcAdParamScope
  3
DesignerServices
 90
        0
280
     0
281
     0
  0
CLASS
  1
NAMEDAPPL
  2
AcAdNamedAppl
  3
DesignerServices
 90
        0
280
     0
281
     0
  0
CLASS
  1
AMDTDMMENUSTATE
  2
AmdtDmMenuState
  3
AcMechDwgViewMgmt
 90
        0
280
     0
281
     0
  0
CLASS
  1
AMDTAMMENUSTATE
  2
AmdtAmMenuState
  3
DesignerAssemblies
 90
        0
280
     0
281
     0
  0
CLASS
  1
ACAMPROJECT
  2
AcAmProject
  3
DesignerAssemblies
 90
        0
280
     0
281
     0
  0
CLASS
  1
ACAMGRCOMPDEF
  2
AcAmGrCompDef
  3
DesignerAssemblies
 90
        0
280
     0
281
     0
  0
CLASS
  1
ACCMCONTEXT
  2
AcCmContext
  3
DesignerAssemblies
 90
        0
280
     0
281
     0
  0
CLASS
  1
ACAMCOMPDEF
  2
AcAmCompDef
  3
DesignerAssemblies
 90
        0
280
     0
281
     0
  0
CLASS
  1
ACAMCOMPDEFMGR
  2
AcAmCompDefMgr
  3
DesignerAssemblies
 90
        0
280
     0
281
     0
  0
CLASS
  1
AMCONTEXTMGR
  2
AcAmContextMgr
  3
DesignerAssemblies
 90
        0
280
     0
281
     0
  0
CLASS
  1
ACAMCONTEXTMODELER
  2
AcAmContextModeler
  3
DesignerAssemblies
 90
        0
280
     0
281
     0
  0
CLASS
  1
CATALOGSTATE
  2
AcAmCatalogState
  3
DesignerAssemblies
 90
        0
280
     0
281
     0
  0
CLASS
  1
ACAMGRCOMPDEFSET
  2
AcAmGrCompDefSet
  3
DesignerAssemblies
 90
        0
280
     0
281
     0
  0
CLASS
  1
AMDTBROWSERDBTAB
  2
AmdtBrowserDbTab
  3
McadcomServices
 90
        0
280
     0
281
     0
  0
CLASS
  1
CBROWSERAPPOBJECT
  2
CBrowserAppObject
  3
McadcomServices
 90
        0
280
     0
281
     0
  0
CLASS
  1
DM_PLACEHOLDER
  2
AcDmSelsetPlaceholder
  3
AcMechDwgViewMgmt
 90
        0
280
     0
281
     0
  0
CLASS
  1
ACMSTANDARDISO
  2
AcmStandardISO
  3
"Amdt_StdImp|Product Description: AutoCAD Mechanical 2004 DX|Company: Autodesk"
 90
        0
280
     0
281
     0
  0
CLASS
  1
AMDTEDGESTANDARDISO
  2
AmdtEdgeStdISO
  3
"Amdt_StdImp|Product Description: AutoCAD Mechanical 2004 DX|Company: Autodesk"
 90
        0
280
     0
281
     0
  0
CLASS
  1
ACMSURFSTANDARDISO
  2
AcmSurfTextStdISO
  3
"Amdt_StdImp|Product Description: AutoCAD Mechanical 2004 DX|Company: Autodesk"
 90
        0
280
     0
281
     0
  0
CLASS
  1
ACMFCFSTANDARDISO
  2
AcmFCFStdISO
  3
"Amdt_StdImp|Product Description: AutoCAD Mechanical 2004 DX|Company: Autodesk"
 90
        0
280
     0
281
     0
  0
CLASS
  1
ACMWELDSTANDARDISO
  2
AcmWeldingStdISO
  3
"Amdt_StdImp|Product Description: AutoCAD Mechanical 2004 DX|Company: Autodesk"
 90
        0
280
     0
281
     0
  0
CLASS
  1
ACMIDSTANDARDISO
  2
AcmIdStdISO
  3
"Amdt_StdImp|Product Description: AutoCAD Mechanical 2004 DX|Company: Autodesk"
 90
        0
280
     0
281
     0
  0
CLASS
  1
ACMDATUMSTANDARDISO
  2
AcmDatumStdISO
  3
"Amdt_StdImp|Product Description: AutoCAD Mechanical 2004 DX|Company: Autodesk"
 90
        0
280
     0
281
     0
  0
CLASS
  1
ACMBOMSTANDARDISO
  2
AcmBOMStdISO
  3
"Amdt_StdImp|Product Description: AutoCAD Mechanical 2004 DX|Company: Autodesk"
 90
        0
280
     0
281
     0
  0
CLASS
  1
ACMDETAILSTANDARDISO
  2
AmdtDetailSymStdISO
  3
"Amdt_StdImp|Product Description: AutoCAD Mechanical 2004 DX|Company: Autodesk"
 90
        0
280
     0
281
     0
  0
CLASS
  1
ACMSECTIONSTANDARDISO
  2
AmdtSectionSymStdISO
  3
"Amdt_StdImp|Product Description: AutoCAD Mechanical 2004 DX|Company: Autodesk"
 90
        0
280
     0
281
     0
  0
CLASS
  1
ACMCENTERLINESTANDARDISO
  2
AmdtCenterLineStdISO
  3
"Amdt_StdImp|Product Description: AutoCAD Mechanical 2004 DX|Company: Autodesk"
 90
        0
280
     0
281
     0
  0
CLASS
  1
ACMNOTESTANDARDISO
  2
AmdtNoteStdISO
  3
"Amdt_StdImp|Product Description: AutoCAD Mechanical 2004 DX|Company: Autodesk"
 90
        0
280
     0
281
     0
  0
CLASS
  1
AMDTNOTETEMPLATEDB
  2
AmdtNoteTemplateDB
  3
AMDT_STDIMP_MODULE_NAME
 90
        0
280
     0
281
     0
  0
CLASS
  1
ACAMGLAYSTD
  2
AcAmgLayStd
  3
"AcAmgLayStd|Product Description: AutoCAD Mechanical 2000|Company: Autodesk"
 90
        0
280
     0
281
     0
  0
CLASS
  1
ACAMGDIMSTD
  2
AcAmgDimStd
  3
"AcAmgDimStd|Product Description: AutoCAD Mechanical 2000|Company: Autodesk"
 90
        0
280
     0
281
     0
  0
CLASS
  1
ACAMGHOLECHARTSTDISO
  2
AcAmgHoleChartStdISO
  3
ACMSYMBB_MODULE_NAME
 90
        0
280
     0
281
     0
  0
CLASS
  1
ACAMGTITLESTD
  2
AcAmgTitleStd
  3
"TITLEAPP"
 90
        0
280
     0
281
     0
  0
CLASS
  1
ACMTHREADLINESTANDARDISO
  2
AmdtThreadLineStdISO
  3
"Amdt_StdImp|Product Description: AutoCAD Mechanical 2004 DX|Company: Autodesk"
 90
        0
280
     0
281
     0
  0
CLASS
  1
ACMFCFSTANDARDJIS98
  2
AcmFCFStdJIS98
  3
"Amdt_StdImp|Product Description: AutoCAD Mechanical 2004 DX|Company: Autodesk"
 90
        0
280
     0
281
     0
  0
CLASS
  1
ACMDETAILSTANDARDJIS
  2
AmdtDetailSymStdJIS
  3
"Amdt_StdImp|Product Description: AutoCAD Mechanical 2004 DX|Company: Autodesk"
 90
        0
280
     0
281
     0
  0
CLASS
  1
ACMSECTIONSTANDARDJIS
  2
AmdtSectionSymStdJIS
  3
"Amdt_StdImp|Product Description: AutoCAD Mechanical 2004 DX|Company: Autodesk"
 90
        0
280
     0
281
     0
  0
CLASS
  1
ACMCENTERLINESTANDARDJIS
  2
AmdtCenterLineStdJIS
  3
"Amdt_StdImp|Product Description: AutoCAD Mechanical 2004 DX|Company: Autodesk"
 90
        0
280
     0
281
     0
  0
CLASS
  1
ACMTHREADLINESTANDARDJIS
  2
AmdtThreadLineStdJIS
  3
"Amdt_StdImp|Product Description: AutoCAD Mechanical 2004 DX|Company: Autodesk"
 90
        0
280
     0
281
     0
  0
CLASS
  1
ACMNOTESTANDARDJIS
  2
AmdtNoteStdJIS
  3
"Amdt_StdImp|Product Description: AutoCAD Mechanical 2004 DX|Company: Autodesk"
 90
        0
280
     0
281
     0
  0
CLASS
  1
ACAMGHOLECHARTSTDJIS
  2
AcAmgHoleChartStdJIS
  3
ACMSYMBB_MODULE_NAME
 90
        0
280
     0
281
     0
  0
ENDSEC
  0
SECTION
  2
TABLES
  0
TABLE
  2
VPORT
  5
8
330
0
100
AcDbSymbolTable
 70
     3
  0
VPORT
  5
D452
330
8
100
AcDbSymbolTableRecord
100
AcDbViewportTableRecord
  2
*Active
 70
     0
 10
0.0
 20
0.0
 11
1.0
 21
1.0
 12
-86.07906543259835
 22
-5.586992611361878
 13
0.0
 23
0.0
 14
2.5
 24
2.5
 15
10.0
 25
10.0
 16
0.0
 26
0.0
 36
1.0
 17
0.0
 27
0.0
 37
0.0
 40
243.5231407623755
 41
1.732758620689655
 42
50.0
 43
0.0
 44
0.0
 50
0.0
 51
0.0
 71
     0
 72
   100
 73
     1
 74
     3
 75
     0
 76
     0
 77
     0
 78
     0
281
     0
 65
     1
110
-0.0000000000002682
120
0.000000000000161
130
0.0
111
1.0
121
0.000000000000002
131
0.0
112
-0.000000000000002
122
1.0
132
0.0
 79
     0
146
0.0
  0
ENDTAB
  0
TABLE
  2
LTYPE
  5
5
330
0
100
AcDbSymbolTable
 70
    17
  0
LTYPE
  5
14
330
5
100
AcDbSymbolTableRecord
100
AcDbLinetypeTableRecord
  2
BYBLOCK
 70
     0
  3

 72
    65
 73
     0
 40
0.0
  0
LTYPE
  5
15
330
5
100
AcDbSymbolTableRecord
100
AcDbLinetypeTableRecord
  2
BYLAYER
 70
     0
  3

 72
    65
 73
     0
 40
0.0
  0
LTYPE
  5
16
330
5
100
AcDbSymbolTableRecord
100
AcDbLinetypeTableRecord
  2
CONTINUOUS
 70
     0
  3
Solid line
 72
    65
 73
     0
 40
0.0
  0
LTYPE
  5
4B
330
5
100
AcDbSymbolTableRecord
100
AcDbLinetypeTableRecord
  2
AM_ISO02W050
 70
     0
  3
__ __ __ __ __ __ __ __ __ __ __ __ __ __ __
 72
    65
 73
     2
 40
7.5
 49
6.0
 74
     0
 49
-1.5
 74
     0
  0
LTYPE
  5
4C
330
5
100
AcDbSymbolTableRecord
100
AcDbLinetypeTableRecord
  2
AM_ISO08W050
 70
     0
  3
____ . ____ . ____ . ____ . ____ . ____ . ____
 72
    65
 73
     4
 40
18.0
 49
12.0
 74
     0
 49
-1.5
 74
     0
 49
3.0
 74
     0
 49
-1.5
 74
     0
  0
LTYPE
  5
4D
330
5
100
AcDbSymbolTableRecord
100
AcDbLinetypeTableRecord
  2
AM_ISO09W050
 70
     0
  3
_____ . . _____ . . _____ . . ____ .. ____
 72
    65
 73
     6
 40
22.5
 49
12.0
 74
     0
 49
-1.5
 74
     0
 49
3.0
 74
     0
 49
-1.5
 74
     0
 49
3.0
 74
     0
 49
-1.5
 74
     0
  0
LTYPE
  5
4E
330
5
100
AcDbSymbolTableRecord
100
AcDbLinetypeTableRecord
  2
Amconstr
 70
     0
  3
_______________________
 72
    65
 73
     2
 40
9999.0
 49
9999.0
 74
     0
 49
0.0
 74
     0
  0
LTYPE
  5
4F
330
5
100
AcDbSymbolTableRecord
100
AcDbLinetypeTableRecord
  2
AM_ISO02W050x2
 70
     0
  3
 _ _ _ _ _ _ _ _ _ _ _ _
 72
    65
 73
     2
 40
3.75
 49
3.0
 74
     0
 49
-0.75
 74
     0
  0
LTYPE
  5
50
330
5
100
AcDbSymbolTableRecord
100
AcDbLinetypeTableRecord
  2
AM_ISO08W050x2
 70
     0
  3
__ . __ . __ . __ . __ . __
 72
    65
 73
     4
 40
9.0
 49
6.0
 74
     0
 49
-0.75
 74
     0
 49
1.5
 74
     0
 49
-0.75
 74
     0
  0
LTYPE
  5
53
330
5
100
AcDbSymbolTableRecord
100
AcDbLinetypeTableRecord
  2
Amzigzag
 70
     0
  3
/\/-/\/-/\/-/\/-/\/-/\/
 72
    65
 73
     2
 40
11.0001
 49
0.0001
 74
     4
 75
   135
340
52
 46
0.04
 50
0.0
 44
0.0
 45
0.0
 49
-11.0
 74
     0
  0
LTYPE
  5
166
330
5
100
AcDbSymbolTableRecord
100
AcDbLinetypeTableRecord
  2
ACJISTGL
 70
     0
  3
_ _ _ _ _
 72
    65
 73
     2
 40
3.0
 49
2.0
 74
     0
 49
-1.0
 74
     0
  0
LTYPE
  5
26A
330
5
100
AcDbSymbolTableRecord
100
AcDbLinetypeTableRecord
  2
ACJISTGB
 70
     0
  3
__ . . __ . .
 72
    65
 73
     6
 40
9.0
 49
4.0
 74
     0
 49
-1.0
 74
     0
 49
1.0
 74
     0
 49
-1.0
 74
     0
 49
1.0
 74
     0
 49
-1.0
 74
     0
  0
LTYPE
  5
D3C8
330
5
100
AcDbSymbolTableRecord
100
AcDbLinetypeTableRecord
  2
HIDDEN
 70
     0
  3
Hidden __ __ __ __ __ __ __ __ __ __ __ __ __ _
 72
    65
 73
     2
 40
9.524999999999998
 49
6.349999999999999
 74
     0
 49
-3.174999999999999
 74
     0
  0
LTYPE
  5
D3C9
330
5
100
AcDbSymbolTableRecord
100
AcDbLinetypeTableRecord
  2
PHANTOM2
 70
     0
  3
Phantom (.5x) ___ _ _ ___ _ _ ___ _ _ ___ _ _
 72
    65
 73
     6
 40
31.75
 49
15.875
 74
     0
 49
-3.174999999999999
 74
     0
 49
3.174999999999999
 74
     0
 49
-3.174999999999999
 74
     0
 49
3.174999999999999
 74
     0
 49
-3.174999999999999
 74
     0
  0
LTYPE
  5
D3CA
330
5
100
AcDbSymbolTableRecord
100
AcDbLinetypeTableRecord
  2
CENTER
 70
     0
  3
__ . __
 72
    65
 73
     4
 40
7.0
 49
4.0
 74
     0
 49
-1.0
 74
     0
 49
1.0
 74
     0
 49
-1.0
 74
     0
  0
LTYPE
  5
D3FB
330
5
100
AcDbSymbolTableRecord
100
AcDbLinetypeTableRecord
  2
ACISOWELD
 70
     0
  3
_ _ _ _ _
 72
    65
 73
     2
 40
2.0
 49
2.0
 74
     0
 49
-1.0
 74
     0
  0
LTYPE
  5
D3FE
330
5
100
AcDbSymbolTableRecord
100
AcDbLinetypeTableRecord
  2
ACISOTGB
 70
     0
  3
__ . . __ . .
 72
    65
 73
     6
 40
9.0
 49
4.0
 74
     0
 49
-1.0
 74
     0
 49
1.0
 74
     0
 49
-1.0
 74
     0
 49
1.0
 74
     0
 49
-1.0
 74
     0
  0
LTYPE
  5
D3FF
330
5
100
AcDbSymbolTableRecord
100
AcDbLinetypeTableRecord
  2
ACISOTGL
 70
     0
  3
_ _ _ _ _
 72
    65
 73
     2
 40
3.0
 49
2.0
 74
     0
 49
-1.0
 74
     0
  0
LTYPE
  5
D428
330
5
100
AcDbSymbolTableRecord
100
AcDbLinetypeTableRecord
  2
ACJISWELD
 70
     0
  3
_ _ _ _ _
 72
    65
 73
     2
 40
2.0
 49
2.0
 74
     0
 49
-1.0
 74
     0
  0
ENDTAB
  0
TABLE
  2
LAYER
  5
2
330
0
100
AcDbSymbolTable
 70
     8
  0
LAYER
  5
10
330
2
100
AcDbSymbolTableRecord
100
AcDbLayerTableRecord
  2
0
 70
     0
 62
     7
  6
CONTINUOUS
370
    -3
390
F
  0
LAYER
  5
3F9
330
2
100
AcDbSymbolTableRecord
100
AcDbLayerTableRecord
  2
AM_0
 70
     0
 62
     7
  6
CONTINUOUS
370
    -3
390
F
  0
LAYER
  5
BA4
330
2
100
AcDbSymbolTableRecord
100
AcDbLayerTableRecord
  2
AM_5
 70
     0
 62
     3
  6
CONTINUOUS
370
    -3
390
F
  0
LAYER
  5
BA6
330
2
100
AcDbSymbolTableRecord
100
AcDbLayerTableRecord
  2
AM_7
 70
     0
 62
     4
  6
AM_ISO08W050
370
    -3
390
F
  0
LAYER
  5
E64
330
2
100
AcDbSymbolTableRecord
100
AcDbLayerTableRecord
  2
AM_6
 70
     0
 62
     2
  6
CONTINUOUS
370
    -3
390
F
  0
LAYER
  5
F4D
330
2
100
AcDbSymbolTableRecord
100
AcDbLayerTableRecord
  2
DEFPOINTS
 70
     0
 62
     7
  6
CONTINUOUS
290
     0
370
    -3
390
F
  0
LAYER
  5
2382
330
2
100
AcDbSymbolTableRecord
100
AcDbLayerTableRecord
  2
AM_3
 70
     0
 62
     6
  6
ACJISTGL
370
    -3
390
F
  0
LAYER
  5
4E80
330
2
100
AcDbSymbolTableRecord
100
AcDbLayerTableRecord
  2
AM_11
 70
     0
 62
     3
  6
AM_ISO09W050
370
    -3
390
F
  0
ENDTAB
  0
TABLE
  2
STYLE
  5
3
330
0
100
AcDbSymbolTable
 70
     7
  0
STYLE
  5
11
330
3
100
AcDbSymbolTableRecord
100
AcDbTextStyleTableRecord
  2
STANDARD
 70
     0
 40
0.0
 41
1.0
 50
0.0
 71
     0
 42
2.5
  3
simplex.shx
  4
EXTFONT.SHX
  0
STYLE
  5
52
330
3
100
AcDbSymbolTableRecord
100
AcDbTextStyleTableRecord
  2

 70
     1
 40
0.0
 41
1.0
 50
0.0
 71
     0
 42
2.5
  3
ltypeshp.shx
  4

  0
STYLE
  5
6B
330
3
100
AcDbSymbolTableRecord
100
AcDbTextStyleTableRecord
  2
ASAMI
 70
     0
 40
0.0
 41
1.0
 50
0.0
 71
     0
 42
2.5
  3
simplex.shx
  4
EXTFONT.SHX
  0
STYLE
  5
262
330
3
100
AcDbSymbolTableRecord
100
AcDbTextStyleTableRecord
  2
ACJISTS
 70
     0
 40
1.0
 41
1.0
 50
0.0
 71
     0
 42
1.0
  3
isocp.shx
  4
extfont.shx
  0
STYLE
  5
269
330
3
100
AcDbSymbolTableRecord
100
AcDbTextStyleTableRecord
  2
ACJISGDT
 70
     0
 40
0.0
 41
1.0
 50
0.0
 71
     0
 42
1.0
  3
amgdt.shx
  4

  0
STYLE
  5
D3F5
330
3
100
AcDbSymbolTableRecord
100
AcDbTextStyleTableRecord
  2
ACISOTS
 70
     0
 40
3.5
 41
1.0
 50
5.0
 71
     0
 42
3.799999999999999
  3
isocp.shx
  4
extfont.shx
  0
STYLE
  5
D3F9
330
3
100
AcDbSymbolTableRecord
100
AcDbTextStyleTableRecord
  2
ACISOGDT
 70
     0
 40
0.0
 41
1.0
 50
0.0
 71
     0
 42
2.5
  3
amgdt.shx
  4
extfont.shx
  0
ENDTAB
  0
TABLE
  2
VIEW
  5
6
330
0
100
AcDbSymbolTable
 70
     0
  0
ENDTAB
  0
TABLE
  2
UCS
  5
7
330
0
100
AcDbSymbolTable
 70
     0
  0
ENDTAB
  0
TABLE
  2
APPID
  5
9
330
0
100
AcDbSymbolTable
 70
    36
  0
APPID
  5
12
330
9
100
AcDbSymbolTableRecord
100
AcDbRegAppTableRecord
  2
ACAD
 70
     0
  0
APPID
  5
30
330
9
100
AcDbSymbolTableRecord
100
AcDbRegAppTableRecord
  2
MCAD_NO_VIS
 70
     0
  0
APPID
  5
31
330
9
100
AcDbSymbolTableRecord
100
AcDbRegAppTableRecord
  2
ACAD_TEMP_GRAPHIC
 70
     0
  0
APPID
  5
2C2
330
9
100
AcDbSymbolTableRecord
100
AcDbRegAppTableRecord
  2
GENIUS_GENDTOL_13
 70
     0
  0
APPID
  5
339
330
9
100
AcDbSymbolTableRecord
100
AcDbRegAppTableRecord
  2
GENIUS_GENODEF_13
 70
     0
  0
APPID
  5
33A
330
9
100
AcDbSymbolTableRecord
100
AcDbRegAppTableRecord
  2
GENIUS_GENOBJ-N-RSBK_13
 70
     0
  0
APPID
  5
33B
330
9
100
AcDbSymbolTableRecord
100
AcDbRegAppTableRecord
  2
GENIUS_GENOBJ-N-LIB_13
 70
     0
  0
APPID
  5
33C
330
9
100
AcDbSymbolTableRecord
100
AcDbRegAppTableRecord
  2
GENIUS_GENSCALE_13
 70
     0
  0
APPID
  5
378
330
9
100
AcDbSymbolTableRecord
100
AcDbRegAppTableRecord
  2
GENIUS_GENDIMSH_14
 70
     0
  0
APPID
  5
BB0
330
9
100
AcDbSymbolTableRecord
100
AcDbRegAppTableRecord
  2
GENIUS_GENOBJ-N-CEN_13
 70
     0
  0
APPID
  5
BB1
330
9
100
AcDbSymbolTableRecord
100
AcDbRegAppTableRecord
  2
GENIUS_GENFIL_13
 70
     0
  0
APPID
  5
BB2
330
9
100
AcDbSymbolTableRecord
100
AcDbRegAppTableRecord
  2
GENIUS_GENOBJ-N-CHA_13
 70
     0
  0
APPID
  5
1FAF
330
9
100
AcDbSymbolTableRecord
100
AcDbRegAppTableRecord
  2
GENIUS_GENOBJ-N-CRS_13
 70
     0
  0
APPID
  5
1FB0
330
9
100
AcDbSymbolTableRecord
100
AcDbRegAppTableRecord
  2
GENIUS_GENOENT_13
 70
     0
  0
APPID
  5
1FB1
330
9
100
AcDbSymbolTableRecord
100
AcDbRegAppTableRecord
  2
GENIUS_GENOREF_13
 70
     0
  0
APPID
  5
1FB2
330
9
100
AcDbSymbolTableRecord
100
AcDbRegAppTableRecord
  2
GENIUS_GENOLIS_13
 70
     0
  0
APPID
  5
1FB7
330
9
100
AcDbSymbolTableRecord
100
AcDbRegAppTableRecord
  2
GENIUS_GENOBJ-N-FIL_13
 70
     0
  0
APPID
  5
22A8
330
9
100
AcDbSymbolTableRecord
100
AcDbRegAppTableRecord
  2
GEVID1056506048
 70
     0
  0
APPID
  5
22A9
330
9
100
AcDbSymbolTableRecord
100
AcDbRegAppTableRecord
  2
GEVDC
 70
     0
  0
APPID
  5
22AC
330
9
100
AcDbSymbolTableRecord
100
AcDbRegAppTableRecord
  2
GENIUS_GENBH_13
 70
     0
  0
APPID
  5
22B8
330
9
100
AcDbSymbolTableRecord
100
AcDbRegAppTableRecord
  2
GENIUS_GENOBJ-NBEHI-BHF_13
 70
     0
  0
APPID
  5
22BA
330
9
100
AcDbSymbolTableRecord
100
AcDbRegAppTableRecord
  2
GENIUS_GENOBJ-NBEHI-BHB_13
 70
     0
  0
APPID
  5
35C9
330
9
100
AcDbSymbolTableRecord
100
AcDbRegAppTableRecord
  2
GENIUS_GENREC_14
 70
     0
  0
APPID
  5
35CA
330
9
100
AcDbSymbolTableRecord
100
AcDbRegAppTableRecord
  2
GENIUS_GENOBJ-N-REC_13
 70
     0
  0
APPID
  5
D38E
330
9
100
AcDbSymbolTableRecord
100
AcDbRegAppTableRecord
  2
ACATTRIBSERVICES
 70
     0
  0
APPID
  5
D38F
330
9
100
AcDbSymbolTableRecord
100
AcDbRegAppTableRecord
  2
AD_DRAW
 70
     0
  0
APPID
  5
D390
330
9
100
AcDbSymbolTableRecord
100
AcDbRegAppTableRecord
  2
DESIGNERASSEMBLIES
 70
     0
  0
APPID
  5
D391
330
9
100
AcDbSymbolTableRecord
100
AcDbRegAppTableRecord
  2
ACADM_DIM_EDIT
 70
     0
  0
APPID
  5
D392
330
9
100
AcDbSymbolTableRecord
100
AcDbRegAppTableRecord
  2
AMDT_DM_ADJ
 70
     0
  0
APPID
  5
D393
330
9
100
AcDbSymbolTableRecord
100
AcDbRegAppTableRecord
  2
ACAD_DSTYLE_DIMTEXT_FILL
 70
     0
  0
APPID
  5
D394
330
9
100
AcDbSymbolTableRecord
100
AcDbRegAppTableRecord
  2
ACAD_PSEXT
 70
     0
  0
APPID
  5
D395
330
9
100
AcDbSymbolTableRecord
100
AcDbRegAppTableRecord
  2
ACAD_DIMASSOC_DIMLFAC
 70
     0
  0
APPID
  5
D396
330
9
100
AcDbSymbolTableRecord
100
AcDbRegAppTableRecord
  2
ACAD_DIMASSOC_CALC_DIMLFAC
 70
     0
  0
APPID
  5
D397
330
9
100
AcDbSymbolTableRecord
100
AcDbRegAppTableRecord
  2
ACAD_DIMASSOC_OVERRIDDEN_DIMLFAC
 70
     0
  0
APPID
  5
D44C
330
9
100
AcDbSymbolTableRecord
100
AcDbRegAppTableRecord
  2
GENIUS_GENSCREG_15
 70
     0
  0
APPID
  5
D44D
330
9
100
AcDbSymbolTableRecord
100
AcDbRegAppTableRecord
  2
GENIUS_GENOBJ-N-SDF_13
 70
     0
  0
ENDTAB
  0
TABLE
  2
DIMSTYLE
  5
A
330
0
100
AcDbSymbolTable
 70
    16
100
AcDbDimStyleTable
 71
     0
  0
DIMSTYLE
105
58
330
A
100
AcDbSymbolTableRecord
100
AcDbDimStyleTableRecord
  2
AM_JIS
 70
     0
  4
"
 41
2.699999999999999
 42
0.0
 43
7.0
 44
0.5
 47
0.1
 48
0.1000000001
 73
     0
 74
     0
 77
     3
 78
     8
 79
     2
140
3.5
141
0.0
143
0.0393701
146
0.71
147
1.0
172
     1
176
     3
177
     3
178
     2
179
     1
271
     2
272
     2
275
     1
283
     0
284
     8
340
11
341
59
342
59
371
    -1
372
    -1
  0
DIMSTYLE
105
5F
330
A
100
AcDbSymbolTableRecord
100
AcDbDimStyleTableRecord
  2
AM_JIS$3
 70
     0
  4
"
 41
2.699999999999999
 42
1.0
 43
10.0
 44
1.0
 47
0.1
 48
0.1000000001
 73
     0
 77
     3
 78
     8
 79
     2
140
3.799999999999999
141
0.0
143
0.0393701
146
0.71
147
1.5
176
   256
177
   256
178
     2
271
     2
272
     2
275
     1
283
     0
284
     8
288
     1
289
     0
340
11
341
59
342
59
371
    -1
372
    -1
  0
DIMSTYLE
105
60
330
A
100
AcDbSymbolTableRecord
100
AcDbDimStyleTableRecord
  2
AM_JIS$4
 70
     0
  4
"
 41
2.699999999999999
 42
1.0
 43
10.0
 44
1.0
 47
0.1
 48
0.1000000001
 73
     0
 77
     3
 78
     8
 79
     2
140
3.799999999999999
141
0.0
143
0.0393701
146
0.71
147
1.5
176
   256
177
   256
178
     2
271
     2
272
     2
275
     1
283
     0
284
     8
288
     1
289
     0
340
11
341
59
342
59
371
    -1
372
    -1
  0
DIMSTYLE
105
61
330
A
100
AcDbSymbolTableRecord
100
AcDbDimStyleTableRecord
  2
AM_JIS$6
 70
     0
  4
"
 41
2.699999999999999
 42
1.0
 43
10.0
 44
1.0
 47
0.1
 48
0.1000000001
 73
     0
 74
     0
 78
     8
 79
     2
140
3.799999999999999
141
0.0
143
0.0393701
146
0.71
147
1.5
172
     1
176
   256
177
   256
178
     2
271
     2
272
     2
275
     1
283
     0
284
     8
340
11
341
59
342
59
371
    -1
372
    -1
  0
DIMSTYLE
105
62
330
A
100
AcDbSymbolTableRecord
100
AcDbDimStyleTableRecord
  2
AM_JIS$7
 70
     0
  4
"
 41
2.699999999999999
 42
1.0
 43
10.0
 44
1.0
 47
0.1
 48
0.1000000001
 73
     0
 74
     0
 77
     3
 78
     8
 79
     2
140
3.5
141
0.0
143
0.0393701
146
0.71
147
1.5
172
     1
176
     3
177
   256
178
     2
271
     2
272
     2
275
     1
283
     0
284
     8
340
11
341
59
342
59
371
    -1
372
    -1
  0
DIMSTYLE
105
63
330
A
100
AcDbSymbolTableRecord
100
AcDbDimStyleTableRecord
  2
AM_JIS$SF
 70
     0
  4
"
 41
2.5
 42
1.0
 43
10.0
 44
1.0
 47
0.1
 48
0.1
 73
     0
 74
     0
 75
     1
 76
     1
 77
     3
 78
     8
 79
     2
140
3.5
141
0.0
143
0.0393701
146
0.71
147
1.5
172
     1
176
   256
177
   256
178
     2
271
     2
272
     3
274
     4
283
     0
284
     8
340
11
341
59
342
59
343
59
344
59
371
    -1
372
    -1
  0
DIMSTYLE
105
68
330
A
100
AcDbSymbolTableRecord
100
AcDbDimStyleTableRecord
  2
AM_JIS$SH
 70
     0
  4
"
 41
2.5
 42
1.0
 43
10.0
 44
1.0
 47
0.1
 48
0.1
 73
     0
 74
     0
 75
     1
 76
     1
 77
     3
 78
     8
 79
     2
140
3.5
141
0.0
143
0.0393701
144
2.0
146
0.71
147
1.5
172
     1
173
     1
176
   256
177
   256
178
     2
271
     2
272
     3
274
     4
283
     0
284
     8
340
11
341
59
342
59
343
64
344
59
371
    -1
372
    -1
  0
DIMSTYLE
105
B34
330
A
100
AcDbSymbolTableRecord
100
AcDbDimStyleTableRecord
  2
AM_JIS$2
 70
     0
  4
"
 41
2.699999999999999
 42
0.0
 43
7.0
 44
0.5
 47
0.1
 48
0.1000000001
 73
     0
 74
     0
 77
     3
 78
     8
 79
     2
140
3.5
141
0.0
143
0.0393701
146
0.71
147
1.0
172
     1
176
     3
177
     3
178
     2
179
     1
271
     2
272
     2
275
     1
283
     0
284
     8
340
11
341
59
342
59
371
    -1
372
    -1
  0
DIMSTYLE
105
3B48
102
{ACAD_REACTORS
330
CA70
330
CB45
330
CBF5
330
CC8A
330
CD28
330
CDBD
102
}
330
A
100
AcDbSymbolTableRecord
100
AcDbDimStyleTableRecord
  2
AM_JIS$0
 70
     0
  4
"
 41
2.699999999999999
 42
0.0
 43
7.0
 44
0.5
 47
0.1
 48
0.1000000001
 73
     0
 74
     0
 77
     3
 78
     8
 79
     2
140
3.5
141
0.0
143
0.0393701
146
0.71
147
1.0
172
     1
176
     3
177
     3
178
     2
179
     1
271
     2
272
     2
275
     1
283
     0
284
     8
340
11
341
59
342
59
371
    -1
372
    -1
  0
DIMSTYLE
105
D414
330
A
100
AcDbSymbolTableRecord
100
AcDbDimStyleTableRecord
  2
AM_ISO
 70
     0
  4
"
 41
2.5
 42
1.0
 43
10.0
 44
1.0
 47
0.1
 48
0.1
 73
     0
 74
     0
 77
     1
 78
     8
 79
     2
140
3.5
141
0.0
143
0.0393701
146
0.71
147
1.5
172
     1
176
   256
177
   256
178
     2
271
     2
272
     3
274
     4
283
     0
284
     8
340
11
371
    -1
372
    -1
  0
DIMSTYLE
105
D415
330
A
100
AcDbSymbolTableRecord
100
AcDbDimStyleTableRecord
  2
AM_ISO$3
 70
     0
  4
"
 41
2.5
 42
1.0
 43
10.0
 44
1.0
 47
0.1
 48
0.1
 73
     0
 77
     1
 78
     8
 79
     2
140
3.5
141
0.0
143
0.0393701
146
0.71
147
1.5
176
   256
177
   256
178
     2
271
     2
272
     3
274
     4
283
     0
284
     8
288
     1
289
     0
340
11
371
    -1
372
    -1
  0
DIMSTYLE
105
D416
330
A
100
AcDbSymbolTableRecord
100
AcDbDimStyleTableRecord
  2
AM_ISO$4
 70
     0
  4
"
 41
2.5
 42
1.0
 43
10.0
 44
1.0
 47
0.1
 48
0.1
 73
     0
 77
     1
 78
     8
 79
     2
140
3.5
141
0.0
143
0.0393701
146
0.71
147
1.5
176
   256
177
   256
178
     2
271
     2
272
     3
274
     4
283
     0
284
     8
288
     1
289
     0
340
11
371
    -1
372
    -1
  0
DIMSTYLE
105
D417
330
A
100
AcDbSymbolTableRecord
100
AcDbDimStyleTableRecord
  2
AM_ISO$6
 70
     0
  4
"
 41
2.5
 42
1.0
 43
10.0
 44
1.0
 47
0.1
 48
0.1
 73
     0
 74
     0
 78
     8
 79
     2
140
3.5
141
0.0
143
0.0393701
146
0.71
147
1.5
172
     1
176
   256
177
   256
178
     2
271
     2
272
     3
274
     4
283
     0
284
     8
340
11
371
    -1
372
    -1
  0
DIMSTYLE
105
D418
330
A
100
AcDbSymbolTableRecord
100
AcDbDimStyleTableRecord
  2
AM_ISO$7
 70
     0
  4
"
 41
2.5
 42
1.0
 43
10.0
 44
1.0
 47
0.1
 48
0.1
 73
     0
 74
     0
 77
     1
 78
     8
 79
     2
140
5.0
141
0.0
143
0.0393701
146
0.71
147
1.5
172
     1
176
   256
177
   256
178
     2
271
     2
272
     3
274
     4
283
     0
284
     8
340
11
371
    -1
372
    -1
  0
DIMSTYLE
105
D419
330
A
100
AcDbSymbolTableRecord
100
AcDbDimStyleTableRecord
  2
AM_ISO$SF
 70
     0
  4
"
 41
2.5
 42
1.0
 43
10.0
 44
1.0
 47
0.1
 48
0.1
 73
     0
 74
     0
 75
     1
 76
     1
 77
     1
 78
     8
 79
     2
140
3.5
141
0.0
143
0.0393701
146
0.71
147
1.5
172
     1
176
   256
177
   256
178
     2
271
     2
272
     3
274
     4
283
     0
284
     8
340
11
371
    -1
372
    -1
  0
DIMSTYLE
105
D41A
330
A
100
AcDbSymbolTableRecord
100
AcDbDimStyleTableRecord
  2
AM_ISO$SH
 70
     0
  4
"
 41
2.5
 42
1.0
 43
10.0
 44
1.0
 47
0.1
 48
0.1
 73
     0
 74
     0
 75
     1
 76
     1
 77
     1
 78
     8
 79
     2
140
3.5
141
0.0
143
0.0393701
144
2.0
146
0.71
147
1.5
172
     1
173
     1
176
   256
177
   256
178
     2
271
     2
272
     3
274
     4
283
     0
284
     8
340
11
343
64
371
    -1
372
    -1
  0
ENDTAB
  0
TABLE
  2
BLOCK_RECORD
  5
1
330
0
100
AcDbSymbolTable
 70
     9
  0
BLOCK_RECORD
  5
1F
102
{ACAD_XDICTIONARY
360
74
102
}
330
1
100
AcDbSymbolTableRecord
100
AcDbBlockTableRecord
  2
*MODEL_SPACE
340
D389
  0
BLOCK_RECORD
  5
101
102
{ACAD_XDICTIONARY
360
D347
102
}
330
1
100
AcDbSymbolTableRecord
100
AcDbBlockTableRecord
  2
*PAPER_SPACE
340
D38A
  0
BLOCK_RECORD
  5
59
330
1
100
AcDbSymbolTableRecord
100
AcDbBlockTableRecord
  2
_Open30
340
0
  0
BLOCK_RECORD
  5
64
330
1
100
AcDbSymbolTableRecord
100
AcDbBlockTableRecord
  2
GENAXEH
340
0
  0
BLOCK_RECORD
  5
CA71
330
1
100
AcDbSymbolTableRecord
100
AcDbBlockTableRecord
  2
*D2
340
0
  0
BLOCK_RECORD
  5
CB46
330
1
100
AcDbSymbolTableRecord
100
AcDbBlockTableRecord
  2
*D3
340
0
  0
BLOCK_RECORD
  5
CBF6
330
1
100
AcDbSymbolTableRecord
100
AcDbBlockTableRecord
  2
*D4
340
0
  0
BLOCK_RECORD
  5
CC8B
330
1
100
AcDbSymbolTableRecord
100
AcDbBlockTableRecord
  2
*D5
340
0
  0
BLOCK_RECORD
  5
CD29
330
1
100
AcDbSymbolTableRecord
100
AcDbBlockTableRecord
  2
*D6
340
0
  0
BLOCK_RECORD
  5
CDBE
330
1
100
AcDbSymbolTableRecord
100
AcDbBlockTableRecord
  2
*D7
340
0
  0
ENDTAB
  0
ENDSEC
  0
SECTION
  2
BLOCKS
  0
BLOCK
  5
20
330
1F
100
AcDbEntity
  8
0
100
AcDbBlockBegin
  2
*MODEL_SPACE
 70
     0
 10
0.0
 20
0.0
 30
0.0
  3
*MODEL_SPACE
  1

  0
ENDBLK
  5
21
330
1F
100
AcDbEntity
  8
0
100
AcDbBlockEnd
  0
BLOCK
  5
103
330
101
100
AcDbEntity
 67
     1
  8
0
100
AcDbBlockBegin
  2
*PAPER_SPACE
 70
     0
 10
0.0
 20
0.0
 30
0.0
  3
*PAPER_SPACE
  1

  0
ENDBLK
  5
104
330
101
100
AcDbEntity
 67
     1
  8
0
100
AcDbBlockEnd
  0
BLOCK
  5
D43C
330
59
100
AcDbEntity
  8
0
100
AcDbBlockBegin
  2
_Open30
 70
     0
 10
0.0
 20
0.0
 30
0.0
  3
_Open30
  1

  0
LINE
  5
D43D
330
59
100
AcDbEntity
  8
0
  6
ByBlock
 62
     0
370
    -2
100
AcDbLine
 10
-1.0
 20
0.26794919
 30
0.0
 11
0.0
 21
0.0
 31
0.0
  0
LINE
  5
D43E
330
59
100
AcDbEntity
  8
0
  6
ByBlock
 62
     0
370
    -2
100
AcDbLine
 10
0.0
 20
0.0
 30
0.0
 11
-1.0
 21
-0.26794919
 31
0.0
  0
LINE
  5
D43F
330
59
100
AcDbEntity
  8
0
  6
ByBlock
 62
     0
370
    -2
100
AcDbLine
 10
0.0
 20
0.0
 30
0.0
 11
-1.0
 21
0.0
 31
0.0
  0
ENDBLK
  5
D440
330
59
100
AcDbEntity
  8
0
100
AcDbBlockEnd
  0
BLOCK
  5
D41C
330
64
100
AcDbEntity
  8
0
100
AcDbBlockBegin
  2
GENAXEH
 70
     0
 10
0.0
 20
0.0
 30
0.0
  3
GENAXEH
  1

  0
LINE
  5
D41D
330
64
100
AcDbEntity
  8
0
100
AcDbLine
 10
-1.0
 20
0.0
 30
0.0
 11
1.0
 21
0.0
 31
0.0
  0
ENDBLK
  5
D41E
330
64
100
AcDbEntity
  8
0
100
AcDbBlockEnd
  0
BLOCK
  5
CA7B
330
CA71
100
AcDbEntity
  8
0
100
AcDbBlockBegin
  2
*D2
 70
     1
 10
0.0
 20
0.0
 30
0.0
  3
*D2
  1

  0
LINE
  5
D349
330
CA71
100
AcDbEntity
  8
AM_5
100
AcDbLine
 10
-39.00000000000031
 20
18.5
 30
0.0
 11
-39.00000000000031
 21
32.50000100000016
 31
0.0
  0
LINE
  5
D34A
330
CA71
100
AcDbEntity
  8
AM_5
100
AcDbLine
 10
-0.0000000000003085
 20
18.50000000000016
 30
0.0
 11
-0.0000000000003111
 21
32.50000100000018
 31
0.0
  0
LINE
  5
D34B
330
CA71
100
AcDbEntity
  8
AM_5
100
AcDbLine
 10
-36.50000000000031
 20
31.50000100000015
 30
0.0
 11
-2.500000000000309
 21
31.50000100000016
 31
0.0
  0
INSERT
  5
D34C
330
CA71
100
AcDbEntity
  8
AM_5
100
AcDbBlockReference
  2
_Open30
 10
-39.00000000000031
 20
31.50000100000015
 30
0.0
 41
2.5
 42
2.5
 43
2.5
 50
180.0
  0
INSERT
  5
D34D
330
CA71
100
AcDbEntity
  8
AM_5
100
AcDbBlockReference
  2
_Open30
 10
-0.0000000000003109
 20
31.50000100000016
 30
0.0
 41
2.5
 42
2.5
 43
2.5
  0
MTEXT
  5
D34E
330
CA71
100
AcDbEntity
  8
AM_5
 62
     2
100
AcDbMText
 10
-19.50000000000031
 20
34.60000100000015
 30
0.0
 40
3.2
 41
0.0
 71
     5
 72
     1
  1
39
  7
ASAMI
 73
     1
 44
1.0
1001
ACAD
1000
MTEXTBEGIN
1070
    73
1070
     1
1070
    44
1040
1.0
1070
    74
1070
     0
1000
MTEXTEND
  0
POINT
  5
D34F
330
CA71
100
AcDbEntity
  8
DEFPOINTS
 62
     0
100
AcDbPoint
 10
-39.00000000000027
 20
17.50000000000008
 30
0.0
  0
POINT
  5
D350
330
CA71
100
AcDbEntity
  8
DEFPOINTS
 62
     0
100
AcDbPoint
 10
-0.0000000000002729
 20
17.50000000000016
 30
0.0
  0
POINT
  5
D351
330
CA71
100
AcDbEntity
  8
DEFPOINTS
 62
     0
100
AcDbPoint
 10
-0.0000000000002472
 20
31.50000100000016
 30
0.0
  0
ENDBLK
  5
CA7C
330
CA71
100
AcDbEntity
  8
0
100
AcDbBlockEnd
  0
BLOCK
  5
CB50
330
CB46
100
AcDbEntity
  8
0
100
AcDbBlockBegin
  2
*D3
 70
     1
 10
0.0
 20
0.0
 30
0.0
  3
*D3
  1

  0
LINE
  5
D352
330
CB46
100
AcDbEntity
  8
AM_5
100
AcDbLine
 10
0.9999999999996909
 20
17.50000000000017
 30
0.0
 11
22.92174026514291
 21
17.50000000000021
 31
0.0
  0
LINE
  5
D353
330
CB46
100
AcDbEntity
  8
AM_5
100
AcDbLine
 10
0.9999999999998332
 20
-17.49999999999983
 30
0.0
 11
22.92174026514298
 21
-17.49999999999979
 31
0.0
  0
LINE
  5
D354
330
CB46
100
AcDbEntity
  8
AM_5
100
AcDbLine
 10
21.92174026514292
 20
15.00000000000021
 30
0.0
 11
21.92174026514297
 21
-14.99999999999979
 31
0.0
  0
INSERT
  5
D355
330
CB46
100
AcDbEntity
  8
AM_5
100
AcDbBlockReference
  2
_Open30
 10
21.92174026514291
 20
17.50000000000021
 30
0.0
 41
2.5
 42
2.5
 43
2.5
 50
90.0000000000001
  0
INSERT
  5
D356
330
CB46
100
AcDbEntity
  8
AM_5
100
AcDbBlockReference
  2
_Open30
 10
21.92174026514298
 20
-17.49999999999979
 30
0.0
 41
2.5
 42
2.5
 43
2.5
 50
270.0000000000001
  0
MTEXT
  5
D357
330
CB46
100
AcDbEntity
  8
AM_5
 62
     2
100
AcDbMText
 10
18.82174026514294
 20
0.0000000000002023
 30
0.0
 40
3.2
 41
0.0
 71
     5
 72
     1
  1
%%c35
  7
ASAMI
 11
-0.000000000000002
 21
1.0
 31
0.0
 73
     1
 44
1.0
1001
ACAD
1000
MTEXTBEGIN
1070
    73
1070
     1
1070
    44
1040
1.0
1070
    74
1070
     0
1000
MTEXTEND
  0
POINT
  5
D358
330
CB46
100
AcDbEntity
  8
DEFPOINTS
 62
     0
100
AcDbPoint
 10
-0.00000000000027
 20
17.50000000000016
 30
0.0
  0
POINT
  5
D359
330
CB46
100
AcDbEntity
  8
DEFPOINTS
 62
     0
100
AcDbPoint
 10
-0.0000000000002056
 20
-17.49999999999983
 30
0.0
  0
POINT
  5
D35A
330
CB46
100
AcDbEntity
  8
DEFPOINTS
 62
     0
100
AcDbPoint
 10
21.92174026514294
 20
-17.49999999999984
 30
0.0
  0
ENDBLK
  5
CB51
330
CB46
100
AcDbEntity
  8
0
100
AcDbBlockEnd
  0
BLOCK
  5
CC00
330
CBF6
100
AcDbEntity
  8
0
100
AcDbBlockBegin
  2
*D4
 70
     1
 10
0.0
 20
0.0
 30
0.0
  3
*D4
  1

  0
LINE
  5
D35B
330
CBF6
100
AcDbEntity
  8
AM_5
100
AcDbLine
 10
-0.0000000000001683
 20
-18.49999999999983
 30
0.0
 11
-0.0000000000001408
 21
-32.50000099999993
 31
0.0
  0
LINE
  5
D35C
330
CBF6
100
AcDbEntity
  8
AM_5
100
AcDbLine
 10
-50.0000009536744
 20
-16.69999885559103
 30
0.0
 11
-50.0000009536744
 21
-32.50000100000002
 31
0.0
  0
LINE
  5
D35D
330
CBF6
100
AcDbEntity
  8
AM_5
100
AcDbLine
 10
-2.500000000000142
 20
-31.50000099999993
 30
0.0
 11
-47.50000095367439
 21
-31.50000100000001
 31
0.0
  0
INSERT
  5
D35E
330
CBF6
100
AcDbEntity
  8
AM_5
100
AcDbBlockReference
  2
_Open30
 10
-0.0000000000001428
 20
-31.50000099999993
 30
0.0
 41
2.5
 42
2.5
 43
2.5
 50
0.0000000000001018
  0
INSERT
  5
D35F
330
CBF6
100
AcDbEntity
  8
AM_5
100
AcDbBlockReference
  2
_Open30
 10
-50.0000009536744
 20
-31.50000100000001
 30
0.0
 41
2.5
 42
2.5
 43
2.5
 50
180.0000000000001
  0
MTEXT
  5
D360
330
CBF6
100
AcDbEntity
  8
AM_5
 62
     2
100
AcDbMText
 10
-25.00000047683727
 20
-28.40000099999997
 30
0.0
 40
3.2
 41
0.0
 71
     5
 72
     1
  1
50
  7
ASAMI
 73
     1
 44
1.0
1001
ACAD
1000
MTEXTBEGIN
1070
    73
1070
     1
1070
    44
1040
1.0
1070
    74
1070
     0
1000
MTEXTEND
  0
POINT
  5
D361
330
CBF6
100
AcDbEntity
  8
DEFPOINTS
 62
     0
100
AcDbPoint
 10
-0.0000000000002056
 20
-17.49999999999983
 30
0.0
  0
POINT
  5
D362
330
CBF6
100
AcDbEntity
  8
DEFPOINTS
 62
     0
100
AcDbPoint
 10
-50.00000095367445
 20
-15.69999885559093
 30
0.0
  0
POINT
  5
D363
330
CBF6
100
AcDbEntity
  8
DEFPOINTS
 62
     0
100
AcDbPoint
 10
-50.00000095367445
 20
-31.50000099999993
 30
0.0
  0
ENDBLK
  5
CC01
330
CBF6
100
AcDbEntity
  8
0
100
AcDbBlockEnd
  0
BLOCK
  5
CC95
330
CC8B
100
AcDbEntity
  8
0
100
AcDbBlockBegin
  2
*D5
 70
     1
 10
0.0
 20
0.0
 30
0.0
  3
*D5
  1

  0
LINE
  5
D364
330
CC8B
100
AcDbEntity
  8
AM_5
100
AcDbLine
 10
-50.0000009536744
 20
-16.69999885559103
 30
0.0
 11
-50.0000009536744
 21
-32.50000100000002
 31
0.0
  0
LINE
  5
D365
330
CC8B
100
AcDbEntity
  8
AM_5
100
AcDbLine
 10
-230.0000004768374
 20
-14.66149694124423
 30
0.0
 11
-230.0000004768373
 21
-32.50000100000038
 31
0.0
  0
LINE
  5
D366
330
CC8B
100
AcDbEntity
  8
AM_5
100
AcDbLine
 10
-52.5000009536744
 20
-31.50000100000002
 30
0.0
 11
-227.5000004768374
 21
-31.50000100000037
 31
0.0
  0
INSERT
  5
D367
330
CC8B
100
AcDbEntity
  8
AM_5
100
AcDbBlockReference
  2
_Open30
 10
-50.0000009536744
 20
-31.50000100000001
 30
0.0
 41
2.5
 42
2.5
 43
2.5
 50
0.0000000000001018
  0
INSERT
  5
D368
330
CC8B
100
AcDbEntity
  8
AM_5
100
AcDbBlockReference
  2
_Open30
 10
-230.0000004768373
 20
-31.50000100000038
 30
0.0
 41
2.5
 42
2.5
 43
2.5
 50
180.0000000000001
  0
MTEXT
  5
D369
330
CC8B
100
AcDbEntity
  8
AM_5
 62
     2
100
AcDbMText
 10
-140.0000007152558
 20
-28.4000010000002
 30
0.0
 40
3.2
 41
0.0
 71
     5
 72
     1
  1
180
  7
ASAMI
 73
     1
 44
1.0
1001
ACAD
1000
MTEXTBEGIN
1070
    73
1070
     1
1070
    44
1040
1.0
1070
    74
1070
     0
1000
MTEXTEND
  0
POINT
  5
D36A
330
CC8B
100
AcDbEntity
  8
DEFPOINTS
 62
     0
100
AcDbPoint
 10
-50.00000095367445
 20
-15.69999885559093
 30
0.0
  0
POINT
  5
D36B
330
CC8B
100
AcDbEntity
  8
DEFPOINTS
 62
     0
100
AcDbPoint
 10
-230.0000004768374
 20
-13.66149694124376
 30
0.0
  0
POINT
  5
D36C
330
CC8B
100
AcDbEntity
  8
DEFPOINTS
 62
     0
100
AcDbPoint
 10
-230.0000004768374
 20
-31.50000099999993
 30
0.0
  0
ENDBLK
  5
CC96
330
CC8B
100
AcDbEntity
  8
0
100
AcDbBlockEnd
  0
BLOCK
  5
CD33
330
CD29
100
AcDbEntity
  8
0
100
AcDbBlockBegin
  2
*D6
 70
     1
 10
0.0
 20
0.0
 30
0.0
  3
*D6
  1

  0
LINE
  5
D36D
330
CD29
100
AcDbEntity
  8
AM_5
100
AcDbLine
 10
-0.0000000000001683
 20
-18.49999999999983
 30
0.0
 11
-0.0000000000001212
 21
-42.50000099999993
 31
0.0
  0
LINE
  5
D36E
330
CD29
100
AcDbEntity
  8
AM_5
100
AcDbLine
 10
-230.0000004768374
 20
-14.66149694124423
 30
0.0
 11
-230.0000004768373
 21
-42.50000100000038
 31
0.0
  0
LINE
  5
D36F
330
CD29
100
AcDbEntity
  8
AM_5
100
AcDbLine
 10
-2.500000000000123
 20
-41.50000099999992
 30
0.0
 11
-227.5000004768373
 21
-41.50000100000037
 31
0.0
  0
INSERT
  5
D370
330
CD29
100
AcDbEntity
  8
AM_5
100
AcDbBlockReference
  2
_Open30
 10
-0.0000000000001232
 20
-41.5000009999999
 30
0.0
 41
2.5
 42
2.5
 43
2.5
 50
0.0000000000001018
  0
INSERT
  5
D371
330
CD29
100
AcDbEntity
  8
AM_5
100
AcDbBlockReference
  2
_Open30
 10
-230.0000004768373
 20
-41.50000100000037
 30
0.0
 41
2.5
 42
2.5
 43
2.5
 50
180.0000000000001
  0
MTEXT
  5
D372
330
CD29
100
AcDbEntity
  8
AM_5
 62
     2
100
AcDbMText
 10
-115.0000002384187
 20
-38.40000100000015
 30
0.0
 40
3.2
 41
0.0
 71
     5
 72
     1
  1
230
  7
ASAMI
 73
     1
 44
1.0
1001
ACAD
1000
MTEXTBEGIN
1070
    73
1070
     1
1070
    44
1040
1.0
1070
    74
1070
     0
1000
MTEXTEND
  0
POINT
  5
D373
330
CD29
100
AcDbEntity
  8
DEFPOINTS
 62
     0
100
AcDbPoint
 10
-0.0000000000002056
 20
-17.49999999999983
 30
0.0
  0
POINT
  5
D374
330
CD29
100
AcDbEntity
  8
DEFPOINTS
 62
     0
100
AcDbPoint
 10
-230.0000004768374
 20
-13.66149694124376
 30
0.0
  0
POINT
  5
D375
330
CD29
100
AcDbEntity
  8
DEFPOINTS
 62
     0
100
AcDbPoint
 10
-230.0000004768374
 20
-41.5000009999999
 30
0.0
  0
ENDBLK
  5
CD34
330
CD29
100
AcDbEntity
  8
0
100
AcDbBlockEnd
  0
BLOCK
  5
CDC8
330
CDBE
100
AcDbEntity
  8
0
100
AcDbBlockBegin
  2
*D7
 70
     1
 10
0.0
 20
0.0
 30
0.0
  3
*D7
  1

  0
LINE
  5
D376
330
CDBE
100
AcDbEntity
  8
AM_5
100
AcDbLine
 10
-227.9999847412103
 20
16.00000381469613
 30
0.0
 11
-250.8364090830269
 21
16.00000381469609
 31
0.0
  0
LINE
  5
D377
330
CDBE
100
AcDbEntity
  8
AM_5
100
AcDbLine
 10
-228.0000000000002
 20
-15.99999809265184
 30
0.0
 11
-250.8364090830268
 21
-15.99999809265188
 31
0.0
  0
LINE
  5
D378
330
CDBE
100
AcDbEntity
  8
AM_5
100
AcDbLine
 10
-249.8364090830269
 20
13.50000381469609
 30
0.0
 11
-249.8364090830269
 21
-13.49999809265188
 31
0.0
  0
INSERT
  5
D379
330
CDBE
100
AcDbEntity
  8
AM_5
100
AcDbBlockReference
  2
_Open30
 10
-249.8364090830269
 20
16.00000381469609
 30
0.0
 41
2.5
 42
2.5
 43
2.5
 50
90.0000000000001
  0
INSERT
  5
D37A
330
CDBE
100
AcDbEntity
  8
AM_5
100
AcDbBlockReference
  2
_Open30
 10
-249.8364090830269
 20
-15.99999809265188
 30
0.0
 41
2.5
 42
2.5
 43
2.5
 50
270.0000000000001
  0
MTEXT
  5
D37B
330
CDBE
100
AcDbEntity
  8
AM_5
 62
     2
100
AcDbMText
 10
-252.9364090830269
 20
0.0000028610221064
 30
0.0
 40
3.2
 41
0.0
 71
     5
 72
     1
  1
%%c32
  7
ASAMI
 11
-0.000000000000002
 21
1.0
 31
0.0
 73
     1
 44
1.0
1001
ACAD
1000
MTEXTBEGIN
1070
    73
1070
     1
1070
    44
1040
1.0
1070
    74
1070
     0
1000
MTEXTEND
  0
POINT
  5
D37C
330
CDBE
100
AcDbEntity
  8
DEFPOINTS
 62
     0
100
AcDbPoint
 10
-226.9999847412103
 20
16.00000381469664
 30
0.0
  0
POINT
  5
D37D
330
CDBE
100
AcDbEntity
  8
DEFPOINTS
 62
     0
100
AcDbPoint
 10
-227.0000000000002
 20
-15.99999809265133
 30
0.0
  0
POINT
  5
D37E
330
CDBE
100
AcDbEntity
  8
DEFPOINTS
 62
     0
100
AcDbPoint
 10
-249.8364090830269
 20
-15.99999809265133
 30
0.0
  0
ENDBLK
  5
CDC9
330
CDBE
100
AcDbEntity
  8
0
100
AcDbBlockEnd
  0
ENDSEC
  0
SECTION
  2
ENTITIES
  0
TEXT
  5
388D
330
1F
100
AcDbEntity
  8
AM_6
100
AcDbText
 10
-139.0476192860377
 20
-64.00000100000008
 30
0.0
 40
5.0
  1
WMM3035ELH
 50
359.9999999999998
 51
359.9999999999998
 72
     4
 11
-115.0000002384187
 21
-61.50000100000015
 31
0.0
100
AcDbText
  0
SPLINE
  5
C731
330
1F
100
AcDbEntity
  8
AM_0
100
AcDbSpline
210
0.0
220
0.0
230
1.0
 70
     8
 71
     3
 72
    11
 73
     7
 74
     5
 42
0.0000000001
 43
0.0000000001
 44
0.0000000001
 40
0.0
 40
0.0
 40
0.0
 40
0.0
 40
0.9314968781529827
 40
1.891966989542958
 40
2.87197491079956
 40
3.862551296516921
 40
3.862551296516921
 40
3.862551296516921
 40
3.862551296516921
 10
-39.88306522369411
 20
9.087146759033055
 30
0.0
 10
-39.63326005135286
 20
8.901619405246016
 30
0.0
 10
-39.12587977883509
 20
8.524794063954118
 30
0.0
 10
-38.25656563172476
 20
8.112227641851955
 30
0.0
 10
-37.31910380832398
 20
7.817083847069648
 30
0.0
 10
-36.66343366038604
 20
7.755608947801143
 30
0.0
 10
-36.33384037017839
 20
7.724706649780086
 30
0.0
 11
-39.88306522369411
 21
9.087146759033055
 31
0.0
 11
-39.11782169342062
 21
8.556026458740062
 31
0.0
 11
-38.25432682037382
 21
8.135456085205051
 31
0.0
 11
-37.31620121002219
 21
7.852020263672081
 31
0.0
 11
-36.33384037017839
 21
7.724706649780086
 31
0.0
  0
SPLINE
  5
C732
330
1F
100
AcDbEntity
  8
AM_0
100
AcDbSpline
210
0.0
220
0.0
230
1.0
 70
     8
 71
     3
 72
    11
 73
     7
 74
     5
 42
0.0000000001
 43
0.0000000001
 44
0.0000000001
 40
0.0
 40
0.0
 40
0.0
 40
0.0
 40
0.9598743803942273
 40
1.921559188009304
 40
2.882405637194086
 40
3.839915103481152
 40
3.839915103481152
 40
3.839915103481152
 40
3.839915103481152
 10
-38.55918979644802
 20
17.01519203186006
 30
0.0
 10
-38.88002092525422
 20
17.00496285665097
 30
0.0
 10
-39.5222883051834
 20
16.98448521289854
 30
0.0
 10
-40.455261216765
 20
16.7265369469192
 30
0.0
 10
-41.33464603147865
 20
16.32373884977109
 30
0.0
 10
-41.83815453731331
 20
15.92618549697578
 30
0.0
 10
-42.08947086334251
 20
15.72775459289507
 30
0.0
 11
-38.55918979644802
 21
17.01519203186006
 31
0.0
 11
-39.51661777496362
 21
16.94670486450203
 31
0.0
 11
-40.44670963287384
 21
16.70223236084003
 31
0.0
 11
-41.31503391265893
 21
16.29084587097107
 31
0.0
 11
-42.08947086334251
 21
15.72775459289507
 31
0.0
  0
ELLIPSE
  5
C733
330
1F
100
AcDbEntity
  8
AM_0
100
AcDbEllipse
 10
-35.56597995758079
 20
13.31111335754407
 30
0.0
 11
5.797035692504493
 21
2.317326925687013
 31
0.0
210
0.0
220
0.0
230
1.0
 40
0.8237599098789999
 41
3.599881820846164
 42
4.209798828071076
  0
ELLIPSE
  5
C734
330
1F
100
AcDbEntity
  8
AM_0
100
AcDbEllipse
 10
59.89352798461872
 20
0.0000000000002998
 30
0.0
 11
335.5375765152208
 21
11.11116616609383
 31
0.0
210
0.0
220
0.0
230
1.0
 40
0.0351346999597
 41
4.387176930314724
 42
4.442244711708938
  0
LINE
  5
C736
330
1F
100
AcDbEntity
  8
AM_3
100
AcDbLine
 10
-5.769195556641279
 20
1.871051788330121
 30
0.0
 11
-49.87550354003929
 21
-2.543785095214952
 31
0.0
  0
LINE
  5
C737
330
1F
100
AcDbEntity
  8
AM_3
100
AcDbLine
 10
-6.018188476563307
 20
4.358621597290138
 30
0.0
 11
-50.12449741363528
 21
-0.0562171936039671
 31
0.0
  0
LINE
  5
C739
330
1F
100
AcDbEntity
  8
AM_7
100
AcDbLine
 10
2.895149230956724
 20
0.0000000000001705
 30
0.0
 11
-235.8364080830269
 21
-0.0000000000003979
 31
0.0
  0
SPLINE
  5
C74C
330
1F
100
AcDbEntity
  8
AM_0
100
AcDbSpline
210
0.0
220
0.0
230
1.0
 70
     8
 71
     3
 72
    11
 73
     7
 74
     5
 42
0.0000000001
 43
0.0000000001
 44
0.0000000001
 40
0.0
 40
0.0
 40
0.0
 40
0.0
 40
1.82175786080257
 40
3.63843227599415
 40
5.446498597464128
 40
7.242447906208592
 40
7.242447906208592
 40
7.242447906208592
 40
7.242447906208592
 10
-0.2011032104502611
 20
-0.4407806396488503
 30
0.0
 10
-0.2366425503896451
 20
-1.046996660328316
 30
0.0
 10
-0.307622061050857
 20
-2.257737112351508
 30
0.0
 10
-0.4338891938853743
 20
-4.068869320396871
 30
0.0
 10
-0.5728947755740009
 20
-5.870441516337252
 30
0.0
 10
-0.6788435695730727
 20
-7.067107777489728
 30
0.0
 10
-0.7316398620612991
 20
-7.663429260253866
 30
0.0
 11
-0.2011032104502611
 21
-0.4407806396488503
 31
0.0
 11
-0.311073303223292
 21
-2.259216308593849
 31
0.0
 11
-0.4363288879402793
 21
-4.07156753540086
 31
0.0
 11
-0.5766105651862792
 21
-5.874183654784859
 31
0.0
 11
-0.7316398620612991
 21
-7.663429260253866
 31
0.0
  0
SPLINE
  5
C74E
330
1F
100
AcDbEntity
  8
AM_0
100
AcDbSpline
210
0.0
220
0.0
230
1.0
 70
     8
 71
     3
 72
    11
 73
     7
 74
     5
 42
0.0000000001
 43
0.0000000001
 44
0.0000000001
 40
0.0
 40
0.0
 40
0.0
 40
0.0
 40
0.1145315079408699
 40
0.2290705456710198
 40
0.343601956476527
 40
0.4581333672830463
 40
0.4581333672830463
 40
0.4581333672830463
 40
0.4581333672830463
 10
-28.81813907623323
 20
-13.87620544433589
 30
0.0
 10
-28.85630384158193
 20
-13.87717855445367
 30
0.0
 10
-28.93263588139359
 20
-13.87912483866563
 30
0.0
 10
-29.04713282030458
 20
-13.88203771014278
 30
0.0
 10
-29.16162967464455
 20
-13.88495263056835
 30
0.0
 10
-29.23795922524823
 20
-13.88689552610738
 30
0.0
 10
-29.27612400055023
 20
-13.8878669738769
 30
0.0
 11
-28.81813907623323
 21
-13.87620544433589
 31
0.0
 11
-28.93263339996424
 21
-13.87912368774392
 31
0.0
 11
-29.04713535308923
 21
-13.88203811645491
 31
0.0
 11
-29.16162967681922
 21
-13.88495254516591
 31
0.0
 11
-29.27612400055023
 21
-13.8878669738769
 31
0.0
  0
SPLINE
  5
C74F
330
1F
100
AcDbEntity
  8
AM_0
100
AcDbSpline
210
0.0
220
0.0
230
1.0
 70
     8
 71
     3
 72
    11
 73
     7
 74
     5
 42
0.0000000001
 43
0.0000000001
 44
0.0000000001
 40
0.0
 40
0.0
 40
0.0
 40
0.0
 40
0.1563095972369516
 40
0.3126479236777617
 40
0.4690613279200669
 40
0.6255498055475033
 40
0.6255498055475033
 40
0.6255498055475033
 40
0.6255498055475033
 10
-16.51526832580632
 20
8.290353775024122
 30
0.0
 10
-16.56729365788224
 20
8.295656037089504
 30
0.0
 10
-16.67135388412367
 20
8.30626153575907
 30
0.0
 10
-16.81922232356493
 20
8.360940036255655
 30
0.0
 10
-16.95602665041079
 20
8.43940366017143
 30
0.0
 10
-17.03097144645036
 20
8.512491145117701
 30
0.0
 10
-17.06845283508329
 20
8.549043655395099
 30
0.0
 11
-16.51526832580632
 21
8.290353775024122
 31
0.0
 11
-16.66996955871629
 21
8.312719345093103
 31
0.0
 11
-16.81734657287632
 21
8.36488914489711
 31
0.0
 11
-16.9519367218023
 21
8.444580078125103
 31
0.0
 11
-17.06845283508329
 21
8.549043655395099
 31
0.0
  0
SPLINE
  5
C750
330
1F
100
AcDbEntity
  8
AM_0
100
AcDbSpline
210
0.0
220
0.0
230
1.0
 70
     8
 71
     3
 72
    11
 73
     7
 74
     5
 42
0.0000000001
 43
0.0000000001
 44
0.0000000001
 40
0.0
 40
0.0
 40
0.0
 40
0.0
 40
0.9587812497832803
 40
1.91778041567197
 40
2.877176752792976
 40
3.837086638847009
 40
3.837086638847009
 40
3.837086638847009
 40
3.837086638847009
 10
-4.493869781495279
 20
8.043607711792153
 30
0.0
 10
-4.173181388503166
 20
8.047405608945172
 30
0.0
 10
-3.531731715021751
 20
8.055002266454321
 30
0.0
 10
-2.59717654566477
 20
8.302808465436649
 30
0.0
 10
-1.716557037597242
 20
8.702779563872303
 30
0.0
 10
-1.21462038021298
 20
9.10305451704486
 30
0.0
 10
-0.9635848999033187
 20
9.303245544433147
 30
0.0
 11
-4.493869781495279
 21
8.043607711792153
 31
0.0
 11
-3.536434173584271
 21
8.094387054443158
 31
0.0
 11
-2.606349945069272
 21
8.328102111816152
 31
0.0
 11
-1.738021850586284
 21
8.736082077026145
 31
0.0
 11
-0.9635848999033187
 21
9.303245544433147
 31
0.0
  0
SPLINE
  5
C754
330
1F
100
AcDbEntity
  8
AM_0
100
AcDbSpline
210
0.0
220
0.0
230
1.0
 70
     8
 71
     3
 72
    11
 73
     7
 74
     5
 42
0.0000000001
 43
0.0000000001
 44
0.0000000001
 40
0.0
 40
0.0
 40
0.0
 40
0.0
 40
0.7832633864328722
 40
1.56735945203525
 40
2.350859030589138
 40
3.132394922780574
 40
3.132394922780574
 40
3.132394922780574
 40
3.132394922780574
 10
-30.48985385894801
 20
7.89254379272408
 30
0.0
 10
-30.22938801456401
 20
7.917397384938745
 30
0.0
 10
-29.70817942726257
 20
7.967130990963778
 30
0.0
 10
-28.95333915557336
 20
8.19156988158927
 30
0.0
 10
-28.23447643350198
 20
8.511767036842563
 30
0.0
 10
-27.80702017727658
 20
8.81277677622182
 30
0.0
 10
-27.59356021881133
 20
8.963092803955074
 30
0.0
 11
-30.48985385894801
 21
7.89254379272408
 31
0.0
 11
-29.7129373550423
 21
7.992053985595092
 31
0.0
 11
-28.95906162262031
 21
8.207641601562091
 31
0.0
 11
-28.24677371978831
 21
8.534011840820078
 31
0.0
 11
-27.59356021881133
 21
8.963092803955074
 31
0.0
  0
SPLINE
  5
C755
330
1F
100
AcDbEntity
  8
AM_0
100
AcDbSpline
210
0.0
220
0.0
230
1.0
 70
     8
 71
     3
 72
    11
 73
     7
 74
     5
 42
0.0000000001
 43
0.0000000001
 44
0.0000000001
 40
0.0
 40
0.0
 40
0.0
 40
0.0
 40
0.8767736061831701
 40
1.755239002980787
 40
2.633400462027693
 40
3.509286554642948
 40
3.509286554642948
 40
3.509286554642948
 40
3.509286554642948
 10
-30.49386692047141
 20
8.175552368164099
 30
0.0
 10
-30.20092704357261
 20
8.183518889652145
 30
0.0
 10
-29.61448204359192
 20
8.199467304539737
 30
0.0
 10
-28.75750847460921
 20
8.413402778588658
 30
0.0
 10
-27.94096164171871
 20
8.749459236373519
 30
0.0
 10
-27.45983929986304
 20
9.084469050110639
 30
0.0
 10
-27.21959018707329
 20
9.251756668091074
 30
0.0
 11
-30.49386692047141
 21
8.175552368164099
 31
0.0
 11
-29.61885166168329
 21
8.231052398681088
 31
0.0
 11
-28.76410770416331
 21
8.433818817138092
 31
0.0
 11
-27.95603275299129
 21
8.777595520019099
 31
0.0
 11
-27.21959018707329
 21
9.251756668091074
 31
0.0
  0
SPLINE
  5
C756
330
1F
100
AcDbEntity
  8
AM_0
100
AcDbSpline
210
0.0
220
0.0
230
1.0
 70
     8
 71
     3
 72
    11
 73
     7
 74
     5
 42
0.0000000001
 43
0.0000000001
 44
0.0000000001
 40
0.0
 40
0.0
 40
0.0
 40
0.0
 40
0.0705108906744323
 40
0.1410294124166205
 40
0.2115403030910509
 40
0.2820511937654849
 40
0.2820511937654849
 40
0.2820511937654849
 40
0.2820511937654849
 10
-15.99298286438031
 20
16.19734382629411
 30
0.0
 10
-16.0164864859886
 20
16.19736395641209
 30
0.0
 10
-16.06349627289348
 20
16.19740421882663
 30
0.0
 10
-16.13400967800531
 20
16.19746848052059
 30
0.0
 10
-16.20452308669747
 20
16.19752866942693
 30
0.0
 10
-16.25153032943671
 20
16.19756947265372
 30
0.0
 10
-16.27503395080633
 20
16.19758987426711
 30
0.0
 11
-15.99298286438031
 21
16.19734382629411
 31
0.0
 11
-16.06349372863833
 21
16.19740486145013
 31
0.0
 11
-16.13401222229031
 21
16.19746780395512
 31
0.0
 11
-16.20452308654831
 21
16.19752883911111
 31
0.0
 11
-16.27503395080633
 21
16.19758987426711
 31
0.0
  0
SPLINE
  5
C757
330
1F
100
AcDbEntity
  8
AM_0
100
AcDbSpline
210
0.0
220
0.0
230
1.0
 70
     8
 71
     3
 72
    11
 73
     7
 74
     5
 42
0.0000000001
 43
0.0000000001
 44
0.0000000001
 40
0.0
 40
0.0
 40
0.0
 40
0.0
 40
0.9587774404391923
 40
1.917780306008774
 40
2.877173190533585
 40
3.837083076589059
 40
3.837083076589059
 40
3.837083076589059
 40
3.837083076589059
 10
-12.55919075012231
 20
17.3735809326171
 30
0.0
 10
-12.87987780900559
 20
17.36978276267352
 30
0.0
 10
-13.52132732583664
 20
17.36218552977103
 30
0.0
 10
-14.4558820651304
 20
17.11438182090008
 30
0.0
 10
-15.33650037295364
 20
16.71440786827023
 30
0.0
 10
-15.83843626693095
 20
16.31413396326063
 30
0.0
 10
-16.08947181701732
 20
16.11394309997512
 30
0.0
 11
-12.55919075012231
 21
17.3735809326171
 31
0.0
 11
-13.51662254333531
 21
17.32280158996611
 31
0.0
 11
-14.44671058654832
 21
17.0890865325931
 31
0.0
 11
-15.3150348663333
 21
16.68110656738312
 31
0.0
 11
-16.08947181701732
 21
16.11394309997512
 31
0.0
  0
SPLINE
  5
C758
330
1F
100
AcDbEntity
  8
AM_0
100
AcDbSpline
210
0.0
220
0.0
230
1.0
 70
     8
 71
     3
 72
    11
 73
     7
 74
     5
 42
0.0000000001
 43
0.0000000001
 44
0.0000000001
 40
0.0
 40
0.0
 40
0.0
 40
0.0
 40
2.371826915307022
 40
4.728099266148694
 40
7.10397166786755
 40
9.433480562656932
 40
9.433480562656932
 40
9.433480562656932
 40
9.433480562656932
 10
-9.296529769898324
 20
9.719263076782137
 30
0.0
 10
-10.04160226486088
 20
10.10192383762433
 30
0.0
 10
-11.52686103055122
 20
10.8647358501053
 30
0.0
 10
-11.80615610944996
 20
13.56703222832221
 30
0.0
 10
-10.19588314992474
 20
15.69371386822574
 30
0.0
 10
-8.55082759039069
 20
15.69594279677635
 30
0.0
 10
-7.736404418946317
 20
15.69704627990712
 30
0.0
 11
-9.296529769898324
 21
9.719263076782137
 31
0.0
 11
-11.20476341247634
 21
11.12788200378413
 31
0.0
 11
-11.49172019958529
 21
13.46661567688012
 31
0.0
 11
-10.03945732116731
 21
15.34696197509714
 31
0.0
 11
-7.736404418946317
 21
15.69704627990712
 31
0.0
  0
SPLINE
  5
C759
330
1F
100
AcDbEntity
  8
AM_0
100
AcDbSpline
210
0.0
220
0.0
230
1.0
 70
     8
 71
     3
 72
    11
 73
     7
 74
     5
 42
0.0000000001
 43
0.0000000001
 44
0.0000000001
 40
0.0
 40
0.0
 40
0.0
 40
0.0
 40
1.170968263227965
 40
2.335502410965029
 40
3.492597629654842
 40
4.641274941432133
 40
4.641274941432133
 40
4.641274941432133
 40
4.641274941432133
 10
-12.55916023254433
 20
17.37355804443312
 30
0.0
 10
-12.16897395640309
 20
17.36318907944524
 30
0.0
 10
-11.39074535937756
 20
17.34250812378753
 30
0.0
 10
-10.22674837631663
 20
17.32035171050191
 30
0.0
 10
-9.070082612469708
 20
17.30423116028302
 30
0.0
 10
-8.301503728077259
 20
17.29949422183724
 30
0.0
 10
-7.91861724853634
 20
17.29713439941415
 30
0.0
 11
-12.55916023254433
 21
17.37355804443312
 31
0.0
 11
-11.38856697082634
 21
17.34392547607411
 31
0.0
 11
-10.22425270080633
 21
17.32129669189412
 31
0.0
 11
-9.067262649537344
 21
17.30569648742715
 31
0.0
 11
-7.91861724853634
 21
17.29713439941415
 31
0.0
  0
SPLINE
  5
C75A
330
1F
100
AcDbEntity
  8
AM_0
100
AcDbSpline
210
0.0
220
0.0
230
1.0
 70
     8
 71
     3
 72
    11
 73
     7
 74
     5
 42
0.0000000001
 43
0.0000000001
 44
0.0000000001
 40
0.0
 40
0.0
 40
0.0
 40
0.0
 40
1.425501677485561
 40
2.851003354970357
 40
4.276506541625399
 40
5.702008219109999
 40
5.702008219109999
 40
5.702008219109999
 40
5.702008219109999
 10
-16.08817481994733
 20
16.11238861084012
 30
0.0
 10
-16.18216663562086
 20
15.64661030403799
 30
0.0
 10
-16.37015026696788
 20
14.71505369043398
 30
0.0
 10
-16.6521218862518
 20
13.31771748440339
 30
0.0
 10
-16.93410921453168
 20
11.92038444840798
 30
0.0
 10
-17.12209085085527
 20
10.98882691901639
 30
0.0
 10
-17.21608161926333
 20
10.52304840087911
 30
0.0
 11
-16.08817481994733
 21
16.11238861084012
 31
0.0
 11
-16.3701496124273
 21
14.71505355834912
 31
0.0
 11
-16.6521244049083
 21
13.31771850585911
 31
0.0
 11
-16.93410682678332
 21
11.92038345336912
 31
0.0
 11
-17.21608161926333
 21
10.52304840087911
 31
0.0
  0
SPLINE
  5
C75B
330
1F
100
AcDbEntity
  8
AM_0
100
AcDbSpline
210
0.0
220
0.0
230
1.0
 70
     8
 71
     3
 72
    11
 73
     7
 74
     5
 42
0.0000000001
 43
0.0000000001
 44
0.0000000001
 40
0.0
 40
0.0
 40
0.0
 40
0.0
 40
0.1565894042192014
 40
0.3132693090360329
 40
0.4700123368720427
 40
0.6267896714861744
 40
0.6267896714861744
 40
0.6267896714861744
 40
0.6267896714861744
 10
-17.06845283508329
 20
8.549043655395099
 30
0.0
 10
-17.10149209017875
 20
8.589698091022983
 30
0.0
 10
-17.16758969535472
 20
8.671030458445294
 30
0.0
 10
-17.23356424770198
 20
8.814556245092003
 30
0.0
 10
-17.27495518508427
 20
8.967059681829358
 30
0.0
 10
-17.27641653711977
 20
9.071936143057858
 30
0.0
 10
-17.2771472930913
 20
9.124380111694126
 30
0.0
 11
-17.06845283508329
 21
8.549043655395099
 31
0.0
 11
-17.16204261779831
 21
8.674587249756102
 31
0.0
 11
-17.22945594787632
 21
8.816022872925106
 31
0.0
 11
-17.2684192657473
 21
8.967845916748121
 31
0.0
 11
-17.2771472930913
 21
9.124380111694126
 31
0.0
  0
SPLINE
  5
C75C
330
1F
100
AcDbEntity
  8
AM_0
100
AcDbSpline
210
0.0
220
0.0
230
1.0
 70
     8
 71
     3
 72
    11
 73
     7
 74
     5
 42
0.0000000001
 43
0.0000000001
 44
0.0000000001
 40
0.0
 40
0.0
 40
0.0
 40
0.0
 40
2.341612893097089
 40
4.705906169912744
 40
7.059688642756406
 40
9.436472562723018
 40
9.436472562723018
 40
9.436472562723018
 40
9.436472562723018
 10
-7.736404418946317
 20
15.69704627990712
 30
0.0
 10
-7.011253971444282
 20
15.31060164686084
 30
0.0
 10
-5.553929417469285
 20
14.53396935706471
 30
0.0
 10
-5.207826102598296
 20
11.86813549603096
 30
0.0
 10
-6.802938538672504
 20
9.698718945661092
 30
0.0
 10
-8.462642697990133
 20
9.712392870819385
 30
0.0
 10
-9.296529769898324
 20
9.719263076782137
 30
0.0
 11
-7.736404418946317
 21
15.69704627990712
 31
0.0
 11
-5.864658355713291
 21
14.29002189636212
 31
0.0
 11
-5.531764984131334
 21
11.94928169250512
 31
0.0
 11
-6.945358276368307
 21
10.06724929809511
 31
0.0
 11
-9.296529769898324
 21
9.719263076782137
 31
0.0
  0
SPLINE
  5
C75D
330
1F
100
AcDbEntity
  8
AM_0
100
AcDbSpline
210
0.0
220
0.0
230
1.0
 70
     8
 71
     3
 72
    11
 73
     7
 74
     5
 42
0.0000000001
 43
0.0000000001
 44
0.0000000001
 40
0.0
 40
0.0
 40
0.0
 40
0.0
 40
1.810228883404811
 40
3.609105361789117
 40
5.393138790084718
 40
7.158880792064428
 40
7.158880792064428
 40
7.158880792064428
 40
7.158880792064428
 10
-0.7618865966803306
 20
17.13661384582514
 30
0.0
 10
-1.364878443518899
 20
17.15918021923891
 30
0.0
 10
-2.567080622199714
 20
17.20417144660822
 30
0.0
 10
-4.36420407072724
 20
17.25132877371715
 30
0.0
 10
-6.146808579153307
 20
17.28463612994401
 30
0.0
 10
-7.330046704487882
 20
17.29298264567865
 30
0.0
 10
-7.91861724853634
 20
17.29713439941415
 30
0.0
 11
-0.7618865966803306
 21
17.13661384582514
 31
0.0
 11
-2.570972442627339
 21
17.20093345642115
 31
0.0
 11
-4.369201660157347
 21
17.24918556213414
 31
0.0
 11
-6.152946472168327
 21
17.28127479553212
 31
0.0
 11
-7.91861724853634
 21
17.29713439941415
 31
0.0
  0
SPLINE
  5
C75E
330
1F
100
AcDbEntity
  8
AM_0
100
AcDbSpline
210
0.0
220
0.0
230
1.0
 70
     8
 71
     3
 72
    11
 73
     7
 74
     5
 42
0.0000000001
 43
0.0000000001
 44
0.0000000001
 40
0.0
 40
0.0
 40
0.0
 40
0.0
 40
0.1563020463501034
 40
0.3126482013498521
 40
0.4690573513586236
 40
0.6255486693039805
 40
0.6255486693039805
 40
0.6255486693039805
 40
0.6255486693039805
 10
-0.7618789672863393
 20
17.13661956787112
 30
0.0
 10
-0.7098562864044549
 20
17.13131689276817
 30
0.0
 10
-0.6057962437695249
 20
17.12071004614015
 30
0.0
 10
-0.4579283306065256
 20
17.06603365899895
 30
0.0
 10
-0.3211231082361964
 20
16.98756761192176
 30
0.0
 10
-0.2461772350349122
 20
16.91448205975066
 30
0.0
 10
-0.2086944580083405
 20
16.87792968750015
 30
0.0
 11
-0.7618789672863393
 21
17.13661956787112
 31
0.0
 11
-0.6071853637703447
 21
17.11425399780313
 31
0.0
 11
-0.4598007202153159
 21
17.06208229064913
 31
0.0
 11
-0.3252143859873398
 21
16.98239326477015
 31
0.0
 11
-0.2086944580083405
 21
16.87792968750015
 31
0.0
  0
SPLINE
  5
C75F
330
1F
100
AcDbEntity
  8
AM_0
100
AcDbSpline
210
0.0
220
0.0
230
1.0
 70
    24
 71
     3
 72
    11
 73
     7
 74
     5
 42
0.0000000001
 43
0.0000000001
 44
0.0000000001
 40
0.0
 40
0.0
 40
0.0
 40
0.0
 40
0.0000232821572136
 40
0.0000465643146908
 40
0.0000698464713361
 40
0.0000931286285649
 40
0.0000931286285649
 40
0.0000931286285649
 40
0.0000931286285649
 10
-0.7619552612313391
 20
17.13656616210912
 30
0.0
 10
-0.7619489034027543
 20
17.13657061258957
 30
0.0
 10
-0.7619361877455125
 20
17.1365795135505
 30
0.0
 10
-0.7619171142584462
 20
17.13659286498979
 30
0.0
 10
-0.7618980407721136
 20
17.13660621643013
 30
0.0
 10
-0.7618853251149839
 20
17.13661511739076
 30
0.0
 10
-0.7618789672863393
 20
17.13661956787112
 30
0.0
 11
-0.7619552612313391
 21
17.13656616210912
 31
0.0
 11
-0.7619361877453521
 21
17.13657951355012
 31
0.0
 11
-0.7619171142583419
 21
17.13659286499012
 31
0.0
 11
-0.7618980407723547
 21
17.13660621643013
 31
0.0
 11
-0.7618789672863393
 21
17.13661956787112
 31
0.0
  0
SPLINE
  5
C760
330
1F
100
AcDbEntity
  8
AM_0
100
AcDbSpline
210
0.0
220
0.0
230
1.0
 70
     8
 71
     3
 72
    11
 73
     7
 74
     5
 42
0.0000000001
 43
0.0000000001
 44
0.0000000001
 40
0.0
 40
0.0
 40
0.0
 40
0.0
 40
0.1565894042192034
 40
0.3132693895480504
 40
0.4700133656882869
 40
0.6267887959124697
 40
0.6267887959124697
 40
0.6267887959124697
 40
0.6267887959124697
 10
-0.2086944580083405
 20
16.87792968750015
 30
0.0
 10
-0.1756546603164683
 20
16.83727548666941
 30
0.0
 10
-0.1095559526463452
 20
16.75594356807431
 30
0.0
 10
-0.0435894104376332
 20
16.61241393671857
 30
0.0
 10
-0.0021907283852369
 20
16.45991316470134
 30
0.0
 10
-0.0007302916351229
 20
16.3550367163056
 30
0.0
 10
-0.0000000000003263
 20
16.30259323120116
 30
0.0
 11
-0.2086944580083405
 21
16.87792968750015
 31
0.0
 11
-0.1151046752933257
 21
16.75238609313915
 31
0.0
 11
-0.0476951599123519
 21
16.61094856262214
 31
0.0
 11
-0.0087280273443329
 21
16.45912551879915
 31
0.0
 11
-0.0000000000003263
 21
16.30259323120116
 31
0.0
  0
SPLINE
  5
C761
330
1F
100
AcDbEntity
  8
AM_0
100
AcDbSpline
210
0.0
220
0.0
230
1.0
 70
     8
 71
     3
 72
    11
 73
     7
 74
     5
 42
0.0000000001
 43
0.0000000001
 44
0.0000000001
 40
0.0
 40
0.0
 40
0.0
 40
0.0
 40
1.417902059707157
 40
2.835801628537732
 40
4.253703688245054
 40
5.671603864978098
 40
5.671603864978098
 40
5.671603864978098
 40
5.671603864978098
 10
-0.9648857116703284
 20
9.304800033569145
 30
0.0
 10
-0.8895666725460948
 20
9.771394031725034
 30
0.0
 10
-0.7389287266131352
 20
10.70458120835532
 30
0.0
 10
-0.512978666977881
 20
12.1043635010499
 30
0.0
 10
-0.2870215122056342
 20
13.50414401265787
 30
0.0
 10
-0.1363842532796716
 20
14.43733150544238
 30
0.0
 10
-0.0610656738283026
 20
14.90392494201613
 30
0.0
 11
-0.9648857116703284
 21
9.304800033569145
 31
0.0
 11
-0.7389297485363086
 21
10.70458221435513
 31
0.0
 11
-0.5129776000983322
 21
12.10436248779314
 31
0.0
 11
-0.2870216369632889
 21
13.50414466857913
 31
0.0
 11
-0.0610656738283026
 21
14.90392494201613
 31
0.0
  0
SPLINE
  5
C762
330
1F
100
AcDbEntity
  8
AM_0
100
AcDbSpline
210
0.0
220
0.0
230
1.0
 70
     8
 71
     3
 72
    11
 73
     7
 74
     5
 42
0.0000000001
 43
0.0000000001
 44
0.0000000001
 40
0.0
 40
0.0
 40
0.0
 40
0.0
 40
0.0184969336522386
 40
0.0382212471328835
 40
0.0591400135912877
 40
0.0812652584714353
 40
0.0812652584714353
 40
0.0812652584714353
 40
0.0812652584714353
 10
-25.4714822769173
 20
15.70700645446808
 30
0.0
 10
-25.47707626573718
 20
15.70441193836266
 30
0.0
 10
-25.48863543728217
 20
15.69905074482
 30
0.0
 10
-25.50689171324861
 20
15.6915973652371
 30
0.0
 10
-25.52647532883343
 20
15.68422296561354
 30
0.0
 10
-25.54007583269124
 20
15.6796487864588
 30
0.0
 10
-25.54706668853831
 20
15.67729759216309
 30
0.0
 11
-25.4714822769173
 21
15.70700645446808
 31
0.0
 11
-25.48832035064732
 21
15.69935035705506
 31
0.0
 11
-25.50655460357733
 21
15.69182968139609
 31
0.0
 11
-25.52613925933933
 21
15.68447875976509
 31
0.0
 11
-25.54706668853831
 21
15.67729759216309
 31
0.0
  0
SPLINE
  5
C763
330
1F
100
AcDbEntity
  8
AM_0
100
AcDbSpline
210
0.0
220
0.0
230
1.0
 70
     8
 71
     3
 72
    11
 73
     7
 74
     5
 42
0.0000000001
 43
0.0000000001
 44
0.0000000001
 40
0.0
 40
0.0
 40
0.0
 40
0.0
 40
0.0983256988639497
 40
0.195768759270361
 40
0.292305947630896
 40
0.3878270013450053
 40
0.3878270013450053
 40
0.3878270013450053
 40
0.3878270013450053
 10
-26.48365116119432
 20
11.04054641723607
 30
0.0
 10
-26.4892054255108
 20
11.00824523827779
 30
0.0
 10
-26.50026409528339
 20
10.94393283774881
 30
0.0
 10
-26.51686515977508
 20
10.84792217675316
 30
0.0
 10
-26.53334445560572
 20
10.75283922161543
 30
0.0
 10
-26.5443379673406
 20
10.68977077821299
 30
0.0
 10
-26.54980564117532
 20
10.65840339660607
 30
0.0
 11
-26.48365116119432
 21
11.04054641723607
 31
0.0
 11
-26.50032901764032
 21
10.94364547729506
 31
0.0
 11
-26.51692295074532
 21
10.84762573242207
 31
0.0
 11
-26.53341770172231
 21
10.75250816345206
 31
0.0
 11
-26.54980564117532
 21
10.65840339660607
 31
0.0
  0
SPLINE
  5
C764
330
1F
100
AcDbEntity
  8
AM_0
100
AcDbSpline
210
0.0
220
0.0
230
1.0
 70
     8
 71
     3
 72
    11
 73
     7
 74
     5
 42
0.0000000001
 43
0.0000000001
 44
0.0000000001
 40
0.0
 40
0.0
 40
0.0
 40
0.0
 40
0.0037806291422862
 40
0.0102524842522103
 40
0.0198854538724188
 40
0.0327920017713977
 40
0.0327920017713977
 40
0.0327920017713977
 40
0.0327920017713977
 10
-25.36855411529633
 20
16.1735115051271
 30
0.0
 10
-25.36921891075964
 20
16.17241469722351
 30
0.0
 10
-25.37102173371898
 20
16.16944032302918
 30
0.0
 10
-25.37741227958637
 20
16.16672191631199
 30
0.0
 10
-25.38631826253426
 20
16.16331206390261
 30
0.0
 10
-25.39362746038215
 20
16.16143268754347
 30
0.0
 10
-25.39781284332331
 20
16.16035652160607
 30
0.0
 11
-25.36855411529633
 21
16.1735115051271
 31
0.0
 11
-25.37075138092133
 21
16.17043495178209
 31
0.0
 11
-25.37635898590132
 21
16.16720390319807
 31
0.0
 11
-25.38538455963233
 21
16.16383743286107
 31
0.0
 11
-25.39781284332331
 21
16.16035652160607
 31
0.0
  0
SPLINE
  5
C765
330
1F
100
AcDbEntity
  8
AM_0
100
AcDbSpline
210
0.0
220
0.0
230
1.0
 70
     8
 71
     3
 72
    11
 73
     7
 74
     5
 42
0.0000000001
 43
0.0000000001
 44
0.0000000001
 40
0.0
 40
0.0
 40
0.0
 40
0.0
 40
1.170836850339668
 40
2.335820738947154
 40
3.494121054328118
 40
4.644932440318653
 40
4.644932440318653
 40
4.644932440318653
 40
4.644932440318653
 10
-38.55915927886992
 20
17.01514434814404
 30
0.0
 10
-38.16893339377477
 20
17.02197538890179
 30
0.0
 10
-37.39043234555885
 20
17.03560332234606
 30
0.0
 10
-36.22638614041761
 20
17.07616488834047
 30
0.0
 10
-35.06955962687777
 20
17.13003756500419
 30
0.0
 10
-34.30143494774785
 20
17.17953446589999
 30
0.0
 10
-33.91861820220972
 20
17.20420265197705
 30
0.0
 11
-38.55915927886992
 21
17.01514434814404
 31
0.0
 11
-37.38856601715112
 21
17.03902626037606
 31
0.0
 11
-36.22425174713161
 21
17.07851982116708
 31
0.0
 11
-35.06726169586203
 21
17.13359832763608
 31
0.0
 11
-33.91861820220972
 21
17.20420265197705
 31
0.0
  0
SPLINE
  5
C766
330
1F
100
AcDbEntity
  8
AM_0
100
AcDbSpline
210
0.0
220
0.0
230
1.0
 70
     8
 71
     3
 72
    11
 73
     7
 74
     5
 42
0.0000000001
 43
0.0000000001
 44
0.0000000001
 40
0.0
 40
0.0
 40
0.0
 40
0.0
 40
1.375407426495048
 40
2.752018423181414
 40
4.125436883921937
 40
5.499813950550942
 40
5.499813950550942
 40
5.499813950550942
 40
5.499813950550942
 10
-31.4377679824831
 20
12.54036331176707
 30
0.0
 10
-31.51260001602406
 20
12.08012270610878
 30
0.0
 10
-31.66232956596088
 20
11.15923875458365
 30
0.0
 10
-32.60271208052385
 20
10.07268948416726
 30
0.0
 10
-33.91058837567118
 20
9.470768309250523
 30
0.0
 10
-34.83443869365308
 20
9.597948019354971
 30
0.0
 10
-35.29652500152611
 20
9.661560058594078
 30
0.0
 11
-31.4377679824831
 21
12.54036331176707
 31
0.0
 11
-31.78155612945581
 21
11.20861434936506
 31
0.0
 11
-32.66487979888943
 21
10.15277481079107
 31
0.0
 11
-33.92340183258081
 21
9.602865219116063
 31
0.0
 11
-35.29652500152611
 21
9.661560058594078
 31
0.0
  0
SPLINE
  5
C767
330
1F
100
AcDbEntity
  8
AM_0
100
AcDbSpline
210
0.0
220
0.0
230
1.0
 70
     8
 71
     3
 72
    11
 73
     7
 74
     5
 42
0.0000000001
 43
0.0000000001
 44
0.0000000001
 40
0.0
 40
0.0
 40
0.0
 40
0.0
 40
1.722812897966577
 40
3.444063769555393
 40
5.277907519779635
 40
7.089574620967784
 40
7.089574620967784
 40
7.089574620967784
 40
7.089574620967784
 10
-37.10352420806911
 20
10.88954925537107
 30
0.0
 10
-37.35337027504169
 20
11.43305849563611
 30
0.0
 10
-37.85283588053009
 20
12.51958419150523
 30
0.0
 10
-37.10668244602695
 20
14.290628893066
 30
0.0
 10
-35.59608404014618
 20
15.43253130129791
 30
0.0
 10
-34.35377916728118
 20
15.45227938028564
 30
0.0
 10
-33.73640537261993
 20
15.46209335327105
 30
0.0
 11
-37.10352420806911
 21
10.88954925537107
 31
0.0
 11
-37.6062479019167
 21
12.53738212585407
 31
0.0
 11
-37.0058450698855
 21
14.15052223205507
 31
0.0
 11
-35.5351343154909
 21
15.24596405029307
 31
0.0
 11
-33.73640537261993
 21
15.46209335327105
 31
0.0
  0
SPLINE
  5
C768
330
1F
100
AcDbEntity
  8
AM_0
100
AcDbSpline
210
0.0
220
0.0
230
1.0
 70
     8
 71
     3
 72
    11
 73
     7
 74
     5
 42
0.0000000001
 43
0.0000000001
 44
0.0000000001
 40
0.0
 40
0.0
 40
0.0
 40
0.0
 40
0.9892703086718677
 40
1.989191404276152
 40
3.010134971572921
 40
4.047013584250718
 40
4.047013584250718
 40
4.047013584250718
 40
4.047013584250718
 10
-33.73640537261993
 20
15.46209335327105
 30
0.0
 10
-33.41413622223464
 20
15.37463755568394
 30
0.0
 10
-32.76612827315304
 20
15.19878438462503
 30
0.0
 10
-32.00111535952229
 20
14.50106942372176
 30
0.0
 10
-31.50189805928427
 20
13.5810161292678
 30
0.0
 10
-31.45925474631579
 20
12.88903373969707
 30
0.0
 10
-31.4377679824831
 20
12.54036331176707
 30
0.0
 11
-33.73640537261993
 21
15.46209335327105
 31
0.0
 11
-32.80483341217061
 21
15.12918281555206
 31
0.0
 11
-32.0514230728152
 21
14.47175216674807
 31
0.0
 11
-31.57669925689719
 21
13.56789207458507
 31
0.0
 11
-31.4377679824831
 21
12.54036331176707
 31
0.0
  0
SPLINE
  5
C769
330
1F
100
AcDbEntity
  8
AM_0
100
AcDbSpline
210
0.0
220
0.0
230
1.0
 70
     8
 71
     3
 72
    11
 73
     7
 74
     5
 42
0.0000000001
 43
0.0000000001
 44
0.0000000001
 40
0.0
 40
0.0
 40
0.0
 40
0.0
 40
1.809098601607672
 40
3.607581068053382
 40
5.392562621188412
 40
7.161196372844463
 40
7.161196372844463
 40
7.161196372844463
 40
7.161196372844463
 10
-26.76188755035433
 20
17.39768981933608
 30
0.0
 10
-27.36492664474269
 20
17.40217815395904
 30
0.0
 10
-28.56746608525645
 20
17.41112848480255
 30
0.0
 10
-30.36484132969522
 20
17.37827824952096
 30
0.0
 10
-32.14790723105527
 20
17.31469060757714
 30
0.0
 10
-33.33019418168821
 20
17.24091884570516
 30
0.0
 10
-33.91861820220972
 20
17.20420265197705
 30
0.0
 11
-26.76188755035433
 21
17.39768981933608
 31
0.0
 11
-28.57097721099932
 21
17.40337753295908
 31
0.0
 11
-30.36920261383081
 21
17.37297058105407
 31
0.0
 11
-32.15294742584253
 21
17.30653572082505
 31
0.0
 11
-33.91861820220972
 21
17.20420265197705
 31
0.0
  0
SPLINE
  5
C76A
330
1F
100
AcDbEntity
  8
AM_0
100
AcDbSpline
210
0.0
220
0.0
230
1.0
 70
     8
 71
     3
 72
    11
 73
     7
 74
     5
 42
0.0000000001
 43
0.0000000001
 44
0.0000000001
 40
0.0
 40
0.0
 40
0.0
 40
0.0
 40
0.5620895259071529
 40
1.123215802179816
 40
1.679242212074813
 40
2.226141964714841
 40
2.226141964714841
 40
2.226141964714841
 40
2.226141964714841
 10
-35.29652500152611
 20
9.661560058594078
 30
0.0
 10
-35.4756483597286
 20
9.718184528623012
 30
0.0
 10
-35.83358811344993
 20
9.83133643164755
 30
0.0
 10
-36.32207162221215
 20
10.11142394883232
 30
0.0
 10
-36.76055547687389
 20
10.45751175944391
 30
0.0
 10
-36.98983371955838
 20
10.74633341818457
 30
0.0
 10
-37.10352420806911
 20
10.88954925537107
 30
0.0
 11
-35.29652500152611
 21
9.661560058594078
 31
0.0
 11
-35.82608127594021
 21
9.850013732910083
 31
0.0
 11
-36.31583499908471
 21
10.12388229370106
 31
0.0
 11
-36.74736881256134
 21
10.47451591491705
 31
0.0
 11
-37.10352420806911
 21
10.88954925537107
 31
0.0
  0
SPLINE
  5
C76B
330
1F
100
AcDbEntity
  8
AM_0
100
AcDbSpline
210
0.0
220
0.0
230
1.0
 70
     8
 71
     3
 72
    11
 73
     7
 74
     5
 42
0.0000000001
 43
0.0000000001
 44
0.0000000001
 40
0.0
 40
0.0
 40
0.0
 40
0.0
 40
0.0231576576547422
 40
0.0463172971496296
 40
0.0694767967613487
 40
0.0926364362562118
 40
0.0926364362562118
 40
0.0926364362562118
 40
0.0926364362562118
 10
-33.73640537261993
 20
15.46209335327105
 30
0.0
 10
-33.73440224612489
 20
15.46954813915199
 30
0.0
 10
-33.73039582170657
 20
15.48445834889697
 30
0.0
 10
-33.72437060951478
 20
15.50681976753079
 30
0.0
 10
-33.71836454571753
 20
15.52918702095216
 30
0.0
 10
-33.71434969412631
 20
15.54409559964218
 30
0.0
 10
-33.7123422622683
 20
15.55154991149905
 30
0.0
 11
-33.73640537261993
 21
15.46209335327105
 31
0.0
 11
-33.73039340972921
 21
15.48445701599107
 31
0.0
 11
-33.72437381744411
 21
15.50682067871108
 31
0.0
 11
-33.71836185455339
 21
15.52918624877906
 31
0.0
 11
-33.7123422622683
 21
15.55154991149905
 31
0.0
  0
SPLINE
  5
C76C
330
1F
100
AcDbEntity
  8
AM_0
100
AcDbSpline
210
0.0
220
0.0
230
1.0
 70
     8
 71
     3
 72
    11
 73
     7
 74
     5
 42
0.0000000001
 43
0.0000000001
 44
0.0000000001
 40
0.0
 40
0.0
 40
0.0
 40
0.0
 40
0.1557881338986723
 40
0.310591455524894
 40
0.4642622841139663
 40
0.616795794466435
 40
0.616795794466435
 40
0.616795794466435
 40
0.616795794466435
 10
-26.76187992096031
 20
17.39770317077608
 30
0.0
 10
-26.70992451691265
 20
17.39366753941595
 30
0.0
 10
-26.60634214409827
 20
17.38562178787676
 30
0.0
 10
-26.45847735194163
 20
17.33600067055084
 30
0.0
 10
-26.32164844635541
 20
17.26323366429113
 30
0.0
 10
-26.2462530775921
 20
17.19387002128691
 30
0.0
 10
-26.20869541168331
 20
17.15931701660108
 30
0.0
 11
-26.76187992096031
 21
17.39770317077608
 31
0.0
 11
-26.60718631744432
 21
17.37926864624009
 31
0.0
 11
-26.45980167389031
 21
17.33192062377907
 31
0.0
 11
-26.32521152496434
 21
17.25775718688908
 31
0.0
 11
-26.20869541168331
 21
17.15931701660108
 31
0.0
  0
SPLINE
  5
C76D
330
1F
100
AcDbEntity
  8
AM_0
100
AcDbSpline
210
0.0
220
0.0
230
1.0
 70
     8
 71
     3
 72
    11
 73
     7
 74
     5
 42
0.0000000001
 43
0.0000000001
 44
0.0000000001
 40
0.0
 40
0.0
 40
0.0
 40
0.0
 40
0.0000275081726393
 40
0.0000490873589914
 40
0.0000765955324791
 40
0.0000968709262357
 40
0.0000968709262357
 40
0.0000968709262357
 40
0.0000968709262357
 10
-26.76195621490531
 20
17.39764404296909
 30
0.0
 10
-26.76194815086012
 20
17.39764859776266
 30
0.0
 10
-26.76193376085733
 20
17.39765672563032
 30
0.0
 10
-26.7619177858604
 20
17.39767733055303
 30
0.0
 10
-26.76189634025468
 20
17.39768739801114
 30
0.0
 10
-26.76188481241991
 20
17.39769847192357
 30
0.0
 10
-26.76187992096031
 20
17.39770317077608
 30
0.0
 11
-26.76195621490531
 21
17.39764404296909
 31
0.0
 11
-26.76193332672232
 21
17.39765930175807
 31
0.0
 11
-26.76191806793331
 21
17.39767456054707
 31
0.0
 11
-26.76189517974932
 21
17.39768981933608
 31
0.0
 11
-26.76187992096031
 21
17.39770317077608
 31
0.0
  0
SPLINE
  5
C76E
330
1F
100
AcDbEntity
  8
AM_0
100
AcDbSpline
210
0.0
220
0.0
230
1.0
 70
     8
 71
     3
 72
    11
 73
     7
 74
     5
 42
0.0000000001
 43
0.0000000001
 44
0.0000000001
 40
0.0
 40
0.0
 40
0.0
 40
0.0
 40
0.1515897537518516
 40
0.3025933211419958
 40
0.4534357316384403
 40
0.6045706843848942
 40
0.6045706843848942
 40
0.6045706843848942
 40
0.6045706843848942
 10
-26.20869541168331
 20
17.15931701660108
 30
0.0
 10
-26.17568012092256
 20
17.12080522306574
 30
0.0
 10
-26.10977720708766
 20
17.04393055825119
 30
0.0
 10
-26.04359920320467
 20
16.9065584866408
 30
0.0
 10
-26.00217247116312
 20
16.75995552704176
 30
0.0
 10
-26.00072526016915
 20
16.65891194921728
 30
0.0
 10
-26.00000095367533
 20
16.60834121704107
 30
0.0
 11
-26.20869541168331
 21
17.15931701660108
 31
0.0
 11
-26.11510562896832
 21
17.04006767272906
 31
0.0
 11
-26.04769229889031
 21
16.90494728088407
 31
0.0
 11
-26.0087289810183
 21
16.75922393798808
 31
0.0
 11
-26.00000095367533
 21
16.60834121704107
 31
0.0
  0
SPLINE
  5
C76F
330
1F
100
AcDbEntity
  8
AM_0
100
AcDbSpline
210
0.0
220
0.0
230
1.0
 70
     8
 71
     3
 72
    11
 73
     7
 74
     5
 42
0.0000000001
 43
0.0000000001
 44
0.0000000001
 40
0.0
 40
0.0
 40
0.0
 40
0.0
 40
1.465736150633372
 40
2.931476070365062
 40
4.397215281683547
 40
5.86295331686647
 40
5.86295331686647
 40
5.86295331686647
 40
5.86295331686647
 10
-26.96488285064731
 20
9.464464187622072
 30
0.0
 10
-26.88956518737207
 20
9.947202638736417
 30
0.0
 10
-26.73892966714437
 20
10.91268078231314
 30
0.0
 10
-26.51298137471315
 20
12.36089917269518
 30
0.0
 10
-26.28701627822289
 20
13.80911557703418
 30
0.0
 10
-26.13638315759803
 20
14.77459449179311
 30
0.0
 10
-26.0610666275033
 20
15.25733375549308
 30
0.0
 11
-26.96488285064731
 21
9.464464187622072
 31
0.0
 11
-26.73893070221031
 21
10.91267967224107
 31
0.0
 11
-26.51297855377234
 21
12.36089897155707
 31
0.0
 11
-26.28701877594031
 21
13.80911636352508
 31
0.0
 11
-26.0610666275033
 21
15.25733375549308
 31
0.0
  0
SPLINE
  5
C770
330
1F
100
AcDbEntity
  8
AM_0
100
AcDbSpline
210
0.0
220
0.0
230
1.0
 70
     8
 71
     3
 72
    11
 73
     7
 74
     5
 42
0.0000000001
 43
0.0000000001
 44
0.0000000001
 40
0.0
 40
0.0
 40
0.0
 40
0.0
 40
0.083042140831827
 40
0.1660542553611829
 40
0.2490141266231633
 40
0.3319544524018261
 40
0.3319544524018261
 40
0.3319544524018261
 40
0.3319544524018261
 10
-27.21959018707329
 20
9.251756668091074
 30
0.0
 10
-27.19776356546819
 20
9.268781791777334
 30
0.0
 10
-27.15411821430816
 20
9.302825883220966
 30
0.0
 10
-27.08970069826187
 20
9.355179699510509
 30
0.0
 10
-27.02607091752895
 20
9.408435892373159
 30
0.0
 10
-26.98441257223926
 20
9.444806597211762
 30
0.0
 10
-26.96358585357732
 20
9.462989807129075
 30
0.0
 11
-27.21959018707329
 21
9.251756668091074
 31
0.0
 11
-27.1542825698863
 21
9.303049087524069
 31
0.0
 11
-27.08981418609731
 21
9.355344772339064
 31
0.0
 11
-27.02625370025733
 21
9.408658981323071
 31
0.0
 11
-26.96358585357732
 21
9.462989807129075
 31
0.0
  0
SPLINE
  5
C77F
330
1F
100
AcDbEntity
  8
AM_0
100
AcDbSpline
210
0.0
220
0.0
230
1.0
 70
     8
 71
     3
 72
    11
 73
     7
 74
     5
 42
0.0000000001
 43
0.0000000001
 44
0.0000000001
 40
0.0
 40
0.0
 40
0.0
 40
0.0
 40
0.0000202753937349
 40
0.0000458651604886
 40
0.0000723628946918
 40
0.0000926382891085
 40
0.0000926382891085
 40
0.0000926382891085
 40
0.0000926382891085
 10
-16.51519203186132
 20
8.290405273437123
 30
0.0
 10
-16.51519688968944
 20
8.290400476665594
 30
0.0
 10
-16.51520787862853
 20
8.290389625843216
 30
0.0
 10
-16.51523074900689
 20
8.290380893485398
 30
0.0
 10
-16.51525198924699
 20
8.290369138398652
 30
0.0
 10
-16.51526338565001
 20
8.290358420890491
 30
0.0
 10
-16.51526832580632
 20
8.290353775024122
 30
0.0
 11
-16.51519203186132
 21
8.290405273437123
 31
0.0
 11
-16.51520729065029
 21
8.29039192199712
 31
0.0
 11
-16.51523017883329
 21
8.290380477905124
 31
0.0
 11
-16.51525306701731
 21
8.29036712646512
 31
0.0
 11
-16.51526832580632
 21
8.290353775024122
 31
0.0
  0
SPLINE
  5
C780
330
1F
100
AcDbEntity
  8
AM_0
100
AcDbSpline
210
0.0
220
0.0
230
1.0
 70
     8
 71
     3
 72
    11
 73
     7
 74
     5
 42
0.0000000001
 43
0.0000000001
 44
0.0000000001
 40
0.0
 40
0.0
 40
0.0
 40
0.0
 40
1.188289207072357
 40
2.375566429893265
 40
3.560809348554608
 40
4.743001742646879
 40
4.743001742646879
 40
4.743001742646879
 40
4.743001742646879
 10
-4.493877410889299
 20
8.043628692627144
 30
0.0
 10
-4.889832840580673
 20
8.054240662330713
 30
0.0
 10
-5.681406491936335
 20
8.075455564252566
 30
0.0
 10
-6.868125708355587
 20
8.098592059204799
 30
0.0
 10
-8.052911771892674
 20
8.115908323514153
 30
0.0
 10
-8.842038544010897
 20
8.121633663781631
 30
0.0
 10
-9.236093521119302
 20
8.12449264526313
 30
0.0
 11
-4.493877410889299
 21
8.043628692627144
 31
0.0
 11
-5.681777954102303
 21
8.074018478393144
 31
0.0
 11
-6.868820190430315
 21
8.097639083862116
 31
0.0
 11
-8.053943634034286
 21
8.114467620849158
 31
0.0
 11
-9.236093521119302
 21
8.12449264526313
 31
0.0
  0
SPLINE
  5
C781
330
1F
100
AcDbEntity
  8
AM_0
100
AcDbSpline
210
0.0
220
0.0
230
1.0
 70
     8
 71
     3
 72
    11
 73
     7
 74
     5
 42
0.0000000001
 43
0.0000000001
 44
0.0000000001
 40
0.0
 40
0.0
 40
0.0
 40
0.0
 40
1.82145014370471
 40
3.644111459098107
 40
5.464453271480369
 40
7.278946142048883
 40
7.278946142048883
 40
7.278946142048883
 40
7.278946142048883
 10
-16.5128192901623
 20
8.290262222290115
 30
0.0
 10
-15.90608988248899
 20
8.267553447600311
 30
0.0
 10
-14.6922276229505
 20
8.222120798040727
 30
0.0
 10
-12.87135080462243
 20
8.173979468444828
 30
0.0
 10
-11.05248931485657
 20
8.139179108192351
 30
0.0
 10
-9.84090891999148
 20
8.129382878418915
 30
0.0
 10
-9.236093521119302
 20
8.12449264526313
 30
0.0
 11
-16.5128192901623
 21
8.290262222290115
 31
0.0
 11
-14.6925220489513
 21
8.225465774536134
 31
0.0
 11
-12.87052726745631
 21
8.176177978515093
 31
0.0
 11
-11.05049705505428
 21
8.142498016357125
 31
0.0
 11
-9.236093521119302
 21
8.12449264526313
 31
0.0
  0
SPLINE
  5
C782
330
1F
100
AcDbEntity
  8
AM_0
100
AcDbSpline
210
0.0
220
0.0
230
1.0
 70
     8
 71
     3
 72
    11
 73
     7
 74
     5
 42
0.0000000001
 43
0.0000000001
 44
0.0000000001
 40
0.0
 40
0.0
 40
0.0
 40
0.0
 40
0.3531513754057647
 40
0.697788319981594
 40
1.033419768616
 40
1.358195938155743
 40
1.358195938155743
 40
1.358195938155743
 40
1.358195938155743
 10
-28.9222040176403
 20
8.195146560669103
 30
0.0
 10
-29.0267226285376
 20
8.140824541851067
 30
0.0
 10
-29.23323992107548
 20
8.03349020057746
 30
0.0
 10
-29.5542042552161
 20
7.907119038347254
 30
0.0
 10
-29.87381544005254
 20
7.805196143758433
 30
0.0
 10
-30.08941008973817
 20
7.760070668107267
 30
0.0
 10
-30.19543552398701
 20
7.737878799438089
 30
0.0
 11
-28.9222040176403
 21
8.195146560669103
 31
0.0
 11
-29.23837375640932
 21
8.037817001343103
 31
0.0
 11
-29.55829715728831
 21
7.909662246704089
 31
0.0
 11
-29.87870883941729
 21
7.809738159179104
 31
0.0
 11
-30.19543552398701
 21
7.737878799438089
 31
0.0
  0
SPLINE
  5
C783
330
1F
100
AcDbEntity
  8
AM_0
100
AcDbSpline
210
0.0
220
0.0
230
1.0
 70
     8
 71
     3
 72
    11
 73
     7
 74
     5
 42
0.0000000001
 43
0.0000000001
 44
0.0000000001
 40
0.0
 40
0.0
 40
0.0
 40
0.0
 40
0.0530279391558568
 40
0.1060378431221943
 40
0.1590678094133333
 40
0.2121259504308594
 40
0.2121259504308594
 40
0.2121259504308594
 40
0.2121259504308594
 10
-28.7118310928353
 20
8.221904754638092
 30
0.0
 10
-28.7292752530619
 20
8.219046927339904
 30
0.0
 10
-28.76415764062879
 20
8.213332244711471
 30
0.0
 10
-28.81669889761618
 20
8.206166566661991
 30
0.0
 10
-28.8693708565899
 20
8.199948478382681
 30
0.0
 10
-28.90458984615403
 20
8.19674748327885
 30
0.0
 10
-28.9222040176403
 20
8.195146560669103
 30
0.0
 11
-28.7118310928353
 21
8.221904754638092
 31
0.0
 11
-28.76419925689731
 21
8.213565826416092
 31
0.0
 11
-28.8167123794563
 21
8.206325531006077
 31
0.0
 11
-28.86938571930031
 21
8.200185775757111
 31
0.0
 11
-28.9222040176403
 21
8.195146560669103
 31
0.0
  0
SPLINE
  5
C784
330
1F
100
AcDbEntity
  8
AM_0
100
AcDbSpline
210
0.0
220
0.0
230
1.0
 70
     8
 71
     3
 72
    11
 73
     7
 74
     5
 42
0.0000000001
 43
0.0000000001
 44
0.0000000001
 40
0.0
 40
0.0
 40
0.0
 40
0.0
 40
0.026871300495654
 40
0.0537459594873937
 40
0.0806117812619287
 40
0.1074792967281094
 40
0.1074792967281094
 40
0.1074792967281094
 40
0.1074792967281094
 10
-15.3953647613533
 20
7.640495300293135
 30
0.0
 10
-15.40432187287072
 20
7.640533561391857
 30
0.0
 10
-15.42223721540568
 20
7.640610088371347
 30
0.0
 10
-15.44910420100397
 20
7.64108903849424
 30
0.0
 10
-15.47596434762121
 20
7.641816014477107
 30
0.0
 10
-15.49386094419649
 20
7.642541518280416
 30
0.0
 10
-15.50280952453729
 20
7.642904281616122
 30
0.0
 11
-15.3953647613533
 21
7.640495300293135
 31
0.0
 11
-15.4222354888923
 21
7.640670776367127
 31
0.0
 11
-15.44910621643131
 21
7.641130447387125
 31
0.0
 11
-15.47596168518131
 21
7.641876220703121
 31
0.0
 11
-15.50280952453729
 21
7.642904281616122
 31
0.0
  0
SPLINE
  5
C785
330
1F
100
AcDbEntity
  8
AM_0
100
AcDbSpline
210
0.0
220
0.0
230
1.0
 70
     8
 71
     3
 72
    11
 73
     7
 74
     5
 42
0.0000000001
 43
0.0000000001
 44
0.0000000001
 40
0.0
 40
0.0
 40
0.0
 40
0.0
 40
1.188377772786709
 40
2.375974172709732
 40
3.561725883126429
 40
4.744592374160359
 40
4.744592374160359
 40
4.744592374160359
 40
4.744592374160359
 10
-30.49388217926051
 20
8.175542831421077
 30
0.0
 10
-30.88985294129053
 20
8.186634886134159
 30
0.0
 10
-31.68153410975038
 20
8.208811702399211
 30
0.0
 10
-32.86821780342084
 20
8.245252937914131
 30
0.0
 10
-34.05299784408128
 20
8.283771451733864
 30
0.0
 10
-34.84204804095457
 20
8.311570307571823
 30
0.0
 10
-35.23609256744412
 20
8.325452804565077
 30
0.0
 11
-30.49388217926051
 21
8.175542831421077
 31
0.0
 11
-31.68177890777611
 21
8.209352493286081
 31
0.0
 11
-32.8688211441042
 21
8.245628356933053
 31
0.0
 11
-34.05394077301051
 21
8.284339904785065
 31
0.0
 11
-35.23609256744412
 21
8.325452804565077
 31
0.0
  0
SPLINE
  5
C786
330
1F
100
AcDbEntity
  8
AM_0
100
AcDbSpline
210
0.0
220
0.0
230
1.0
 70
     8
 71
     3
 72
    11
 73
     7
 74
     5
 42
0.0000000001
 43
0.0000000001
 44
0.0000000001
 40
0.0
 40
0.0
 40
0.0
 40
0.0
 40
0.8715757523225928
 40
1.742261484573119
 40
2.611669801448913
 40
3.4793981893833
 40
3.4793981893833
 40
3.4793981893833
 40
3.4793981893833
 10
-38.71361637115502
 20
8.439493179321061
 30
0.0
 10
-38.42322343344572
 20
8.430723934709055
 30
0.0
 10
-37.84273409627136
 20
8.413194400304744
 30
0.0
 10
-36.97262649757261
 20
8.38522459549584
 30
0.0
 10
-36.10383754928113
 20
8.35617185891431
 30
0.0
 10
-35.52515435276453
 20
8.335685885573216
 30
0.0
 10
-35.23609256744412
 20
8.325452804565077
 30
0.0
 11
-38.71361637115502
 21
8.439493179321061
 31
0.0
 11
-37.8424463272097
 21
8.412902832031054
 31
0.0
 11
-36.9722070693972
 21
8.385023117065069
 31
0.0
 11
-36.10328769683861
 21
8.355869293213073
 31
0.0
 11
-35.23609256744412
 21
8.325452804565077
 31
0.0
  0
SPLINE
  5
C78E
330
1F
100
AcDbEntity
  8
AM_0
100
AcDbSpline
210
0.0
220
0.0
230
1.0
 70
     8
 71
     3
 72
    11
 73
     7
 74
     5
 42
0.0000000001
 43
0.0000000001
 44
0.0000000001
 40
0.0
 40
0.0
 40
0.0
 40
0.0
 40
1.173042753282218
 40
2.341551187040165
 40
3.504955837554224
 40
4.662711015927603
 40
4.662711015927603
 40
4.662711015927603
 40
4.662711015927603
 10
-25.55915927887026
 20
-15.4971771240239
 30
0.0
 10
-25.16884128797615
 20
-15.52075047948023
 30
0.0
 10
-24.38971405468142
 20
-15.56780606913957
 30
0.0
 10
-23.22562719437852
 20
-15.66834577195553
 30
0.0
 10
-22.06852848365626
 20
-15.78858523347929
 30
0.0
 10
-21.30129981238471
 20
-15.88883571688798
 30
0.0
 10
-20.91861915588425
 20
-15.93883895873991
 30
0.0
 11
-25.55915927887026
 21
-15.4971771240239
 31
0.0
 11
-24.38856601715125
 21
-15.57294464111392
 31
0.0
 11
-23.22425270080625
 21
-15.67187118530288
 31
0.0
 11
-22.06726264953724
 21
-15.7938728332519
 31
0.0
 11
-20.91861915588425
 21
-15.93883895873991
 31
0.0
  0
SPLINE
  5
C78F
330
1F
100
AcDbEntity
  8
AM_0
100
AcDbSpline
210
0.0
220
0.0
230
1.0
 70
     8
 71
     3
 72
    11
 73
     7
 74
     5
 42
0.0000000001
 43
0.0000000001
 44
0.0000000001
 40
0.0
 40
0.0
 40
0.0
 40
0.0
 40
1.809875641934553
 40
3.611281329170298
 40
5.402226228011847
 40
7.1807636907051
 40
7.1807636907051
 40
7.1807636907051
 40
7.1807636907051
 10
-13.76188850402925
 20
-16.47314453124988
 30
0.0
 10
-14.36507126419503
 20
-16.45923815922799
 30
0.0
 10
-15.56861397696163
 20
-16.43149049498215
 30
0.0
 10
-17.36629891736571
 20
-16.32081081806205
 30
0.0
 10
-19.15012868127055
 20
-16.16451649194542
 30
0.0
 10
-20.33048996697074
 20
-16.01389027875856
 30
0.0
 10
-20.91861915588425
 20
-15.93883895873991
 30
0.0
 11
-13.76188850402925
 21
-16.47314453124988
 31
0.0
 11
-15.57097816467324
 21
-16.41981124877987
 31
0.0
 11
-17.36920356750525
 21
-16.31281661987288
 31
0.0
 11
-19.15294837951725
 21
-16.15238571166988
 31
0.0
 11
-20.91861915588425
 21
-15.93883895873991
 31
0.0
  0
SPLINE
  5
C790
330
1F
100
AcDbEntity
  8
AM_0
100
AcDbSpline
210
0.0
220
0.0
230
1.0
 70
     8
 71
     3
 72
    11
 73
     7
 74
     5
 42
0.0000000001
 43
0.0000000001
 44
0.0000000001
 40
0.0
 40
0.0
 40
0.0
 40
0.0
 40
0.0772449510850655
 40
0.1553442132844025
 40
0.2341606080034603
 40
0.313515345943886
 40
0.313515345943886
 40
0.313515345943886
 40
0.313515345943886
 10
-14.54975318908724
 20
-12.69380187988286
 30
0.0
 10
-14.57414312241477
 20
-12.70211422199415
 30
0.0
 10
-14.62319273603486
 20
-12.71883083877868
 30
0.0
 10
-14.69961626015056
 20
-12.73537565746643
 30
0.0
 10
-14.77778685079081
 20
-12.74599381011923
 30
0.0
 10
-14.83053346586842
 20
-12.74722633574913
 30
0.0
 10
-14.85699653625524
 20
-12.74784469604486
 30
0.0
 11
-14.54975318908724
 21
-12.69380187988286
 31
0.0
 11
-14.62333106994724
 21
-12.71731948852587
 31
0.0
 11
-14.69955635070822
 21
-12.73432540893585
 31
0.0
 11
-14.77771186828723
 21
-12.74451065063487
 31
0.0
 11
-14.85699653625524
 21
-12.74784469604486
 31
0.0
  0
SPLINE
  5
C791
330
1F
100
AcDbEntity
  8
AM_0
100
AcDbSpline
210
0.0
220
0.0
230
1.0
 70
     8
 71
     3
 72
    11
 73
     7
 74
     5
 42
0.0000000001
 43
0.0000000001
 44
0.0000000001
 40
0.0
 40
0.0
 40
0.0
 40
0.0
 40
0.7143425722738729
 40
1.429587686503679
 40
2.14199144867093
 40
2.847990041355958
 40
2.847990041355958
 40
2.847990041355958
 40
2.847990041355958
 10
-24.53768253326523
 20
-12.73258209228489
 30
0.0
 10
-24.77597493963007
 20
-12.72370894712176
 30
0.0
 10
-25.25286082484635
 20
-12.70595144594778
 30
0.0
 10
-25.9555168187102
 20
-12.56662966941341
 30
0.0
 10
-26.6369671449366
 20
-12.35468594293584
 30
0.0
 10
-27.06059659249933
 20
-12.14315590761665
 30
0.0
 10
-27.27145481109723
 20
-12.03786849975591
 30
0.0
 11
-24.53768253326523
 21
-12.73258209228489
 31
0.0
 11
-25.25058078765925
 21
-12.6871795654299
 31
0.0
 11
-25.95334720611622
 21
-12.5541572570799
 31
0.0
 11
-26.63160037994423
 21
-12.3362312316899
 31
0.0
 11
-27.27145481109723
 21
-12.03786849975591
 31
0.0
  0
SPLINE
  5
C792
330
1F
100
AcDbEntity
  8
AM_0
100
AcDbSpline
210
0.0
220
0.0
230
1.0
 70
     8
 71
     3
 72
    11
 73
     7
 74
     5
 42
0.0000000001
 43
0.0000000001
 44
0.0000000001
 40
0.0
 40
0.0
 40
0.0
 40
0.0
 40
0.9608928668362469
 40
1.921094442480838
 40
2.871656356414042
 40
3.804837971256472
 40
3.804837971256472
 40
3.804837971256472
 40
3.804837971256472
 10
-25.55918979644824
 20
-15.49724960327189
 30
0.0
 10
-25.87993103216702
 20
-15.48135191109764
 30
0.0
 10
-26.52118275406038
 20
-15.44956796396023
 30
0.0
 10
-27.45107325236013
 20
-15.19989841497098
 30
0.0
 10
-28.32787387399005
 20
-14.82350505767096
 30
0.0
 10
-28.83717153973718
 20
-14.45319270959793
 30
0.0
 10
-29.08947086334324
 20
-14.26974487304691
 30
0.0
 11
-25.55918979644824
 21
-15.49724960327189
 31
0.0
 11
-26.51661777496427
 21
-15.41572189331091
 31
0.0
 11
-27.44670963287425
 21
-15.17715072631892
 31
0.0
 11
-28.31503391265926
 21
-14.79039382934591
 31
0.0
 11
-29.08947086334324
 21
-14.26974487304691
 31
0.0
  0
SPLINE
  5
C7A5
330
1F
100
AcDbEntity
  8
AM_0
100
AcDbSpline
210
0.0
220
0.0
230
1.0
 70
     8
 71
     3
 72
    11
 73
     7
 74
     5
 42
0.0000000001
 43
0.0000000001
 44
0.0000000001
 40
0.0
 40
0.0
 40
0.0
 40
0.0
 40
1.183278587092658
 40
2.362815392071834
 40
3.537601826863361
 40
4.706636159425986
 40
4.706636159425986
 40
4.706636159425986
 40
4.706636159425986
 10
-1.103763580323251
 20
-12.35523223876986
 30
0.0
 10
-1.076467949674179
 20
-11.96175041398209
 30
0.0
 10
-1.021963003047536
 20
-11.17603103880655
 30
0.0
 10
-0.9316625282073275
 20
-10.00028456171936
 30
0.0
 10
-0.8359043063470977
 20
-8.829733539433128
 30
0.0
 10
-0.7663377677729664
 20
-8.05156076747361
 30
0.0
 10
-0.7316398620612991
 20
-7.663429260253866
 30
0.0
 11
-1.103763580323251
 21
-12.35523223876986
 31
0.0
 11
-1.020420074463255
 21
-11.17489242553683
 31
0.0
 11
-0.9305648803712664
 21
-9.998783111571857
 31
0.0
 11
-0.8342742919932749
 21
-8.827949523925855
 31
0.0
 11
-0.7316398620612991
 21
-7.663429260253866
 31
0.0
  0
SPLINE
  5
C7A6
330
1F
100
AcDbEntity
  8
AM_0
100
AcDbSpline
210
0.0
220
0.0
230
1.0
 70
     8
 71
     3
 72
    11
 73
     7
 74
     5
 42
0.0000000001
 43
0.0000000001
 44
0.0000000001
 40
0.0
 40
0.0
 40
0.0
 40
0.0
 40
0.2100034453430281
 40
0.419973162632175
 40
0.6299129508187839
 40
0.8398227890343187
 40
0.8398227890343187
 40
0.8398227890343187
 40
0.8398227890343187
 10
-10.51901054382426
 20
-15.32115936279285
 30
0.0
 10
-10.51506606265017
 20
-15.25126942931631
 30
0.0
 10
-10.50717773381384
 20
-15.11150078718594
 30
0.0
 10
-10.49507304104189
 20
-14.90187896098077
 30
0.0
 10
-10.48279219508831
 20
-14.692298641067
 30
0.0
 10
-10.4744312551364
 20
-14.55259872763269
 30
0.0
 10
-10.47025108337425
 20
-14.48275375366185
 30
0.0
 11
-10.51901054382426
 21
-15.32115936279285
 31
0.0
 11
-10.50713157653826
 21
-15.11149215698288
 31
0.0
 11
-10.49504280090423
 21
-14.90187072753886
 31
0.0
 11
-10.48274803161724
 21
-14.69229125976585
 31
0.0
 11
-10.47025108337425
 21
-14.48275375366185
 31
0.0
  0
SPLINE
  5
C7A7
330
1F
100
AcDbEntity
  8
AM_0
100
AcDbSpline
210
0.0
220
0.0
230
1.0
 70
     8
 71
     3
 72
    11
 73
     7
 74
     5
 42
0.0000000001
 43
0.0000000001
 44
0.0000000001
 40
0.0
 40
0.0
 40
0.0
 40
0.0
 40
0.9617174608824397
 40
1.923439695857489
 40
2.885164573498719
 40
3.846882070241525
 40
3.846882070241525
 40
3.846882070241525
 40
3.846882070241525
 10
-1.103744506836269
 20
-12.35525131225585
 30
0.0
 10
-1.138307823035657
 20
-12.67507598328013
 30
0.0
 10
-1.207434627011304
 20
-13.31472691298065
 30
0.0
 10
-1.543768987079011
 20
-14.224002715909
 30
0.0
 10
-2.026342995487535
 20
-15.06484854734114
 30
0.0
 10
-2.473119236803155
 20
-15.52779912731489
 30
0.0
 10
-2.696506500245251
 20
-15.75927352905284
 30
0.0
 11
-1.103744506836269
 21
-12.35525131225585
 31
0.0
 11
-1.246208190918238
 21
-13.30635833740284
 31
0.0
 11
-1.568141937256239
 21
-14.21259689331082
 31
0.0
 11
-2.05760955810627
 21
-15.04044723510784
 31
0.0
 11
-2.696506500245251
 21
-15.75927352905284
 31
0.0
  0
SPLINE
  5
C7A8
330
1F
100
AcDbEntity
  8
AM_0
100
AcDbSpline
210
0.0
220
0.0
230
1.0
 70
     8
 71
     3
 72
    11
 73
     7
 74
     5
 42
0.0000000001
 43
0.0000000001
 44
0.0000000001
 40
0.0
 40
0.0
 40
0.0
 40
0.0
 40
0.0452283411506334
 40
0.0904555368816773
 40
0.1356845762105856
 40
0.1809188672899036
 40
0.1809188672899036
 40
0.1809188672899036
 40
0.1809188672899036
 10
-3.329414367676243
 20
-14.85712814331083
 30
0.0
 10
-3.340128316671823
 20
-14.86773491979608
 30
0.0
 10
-3.361555943329418
 20
-14.8889482041472
 30
0.0
 10
-3.39404575460993
 20
-14.92041347424591
 30
0.0
 10
-3.426751824526358
 20
-14.95165676842472
 30
0.0
 10
-3.448783995301035
 20
-14.97224527813694
 30
0.0
 10
-3.459800720215247
 20
-14.98254013061483
 30
0.0
 11
-3.329414367676243
 21
-14.85712814331083
 31
0.0
 11
-3.36161422729527
 21
-14.88888931274385
 31
0.0
 11
-3.394081115723259
 21
-14.92037582397483
 31
0.0
 11
-3.426807403565256
 21
-14.95159530639685
 31
0.0
 11
-3.459800720215247
 21
-14.98254013061483
 31
0.0
  0
SPLINE
  5
C7A9
330
1F
100
AcDbEntity
  8
AM_0
100
AcDbSpline
210
0.0
220
0.0
230
1.0
 70
     8
 71
     3
 72
    11
 73
     7
 74
     5
 42
0.0000000001
 43
0.0000000001
 44
0.0000000001
 40
0.0
 40
0.0
 40
0.0
 40
0.0
 40
0.3061839583406802
 40
0.6123756378931932
 40
0.9185650131144313
 40
1.224747102034495
 40
1.224747102034495
 40
1.224747102034495
 40
1.224747102034495
 10
-1.867038726807259
 20
-11.57851791381883
 30
0.0
 10
-1.874168364745318
 20
-11.68036602949505
 30
0.0
 10
-1.888427820413496
 20
-11.88406482920828
 30
0.0
 10
-1.933782175831947
 20
-12.18712742666804
 30
0.0
 10
-1.995010856408962
 20
-12.4873849322067
 30
0.0
 10
-2.051404701031846
 20
-12.68363907853271
 30
0.0
 10
-2.07960128784224
 20
-12.78176498413085
 30
0.0
 11
-1.867038726807259
 21
-11.57851791381883
 31
0.0
 11
-1.892421722412272
 21
-11.88364791870082
 31
0.0
 11
-1.93642807006926
 21
-12.18666076660183
 31
0.0
 11
-1.998905181885238
 21
-12.48640823364285
 31
0.0
 11
-2.07960128784224
 21
-12.78176498413085
 31
0.0
  0
SPLINE
  5
C7AA
330
1F
100
AcDbEntity
  8
AM_0
100
AcDbSpline
210
0.0
220
0.0
230
1.0
 70
     8
 71
     3
 72
    11
 73
     7
 74
     5
 42
0.0000000001
 43
0.0000000001
 44
0.0000000001
 40
0.0
 40
0.0
 40
0.0
 40
0.0
 40
0.1242349440441084
 40
0.2484751636118463
 40
0.3727098482664182
 40
0.4969411951282414
 40
0.4969411951282414
 40
0.4969411951282414
 40
0.4969411951282414
 10
-1.483489990235298
 20
-1.398754119872839
 30
0.0
 10
-1.462702831510307
 20
-1.434679457340404
 30
0.0
 10
-1.421127631352583
 20
-1.506531657812234
 30
0.0
 10
-1.381212234315499
 20
-1.624864716209142
 30
0.0
 10
-1.357355862470229
 20
-1.747453647792651
 30
0.0
 10
-1.358012768459134
 20
-1.830463131418769
 30
0.0
 10
-1.358341217041282
 20
-1.871967315673819
 30
0.0
 11
-1.483489990235298
 21
-1.398754119872839
 31
0.0
 11
-1.424869537354296
 21
-1.508289337157825
 31
0.0
 11
-1.383888244629289
 21
-1.625576019286816
 31
0.0
 11
-1.361495971680296
 21
-1.747776031493848
 31
0.0
 11
-1.358341217041282
 21
-1.871967315673819
 31
0.0
  0
SPLINE
  5
C7AB
330
1F
100
AcDbEntity
  8
AM_0
100
AcDbSpline
210
0.0
220
0.0
230
1.0
 70
     8
 71
     3
 72
    11
 73
     7
 74
     5
 42
0.0000000001
 43
0.0000000001
 44
0.0000000001
 40
0.0
 40
0.0
 40
0.0
 40
0.0
 40
0.124289023465889
 40
0.2485862708571173
 40
0.3728816008627436
 40
0.4971692888929362
 40
0.4971692888929362
 40
0.4971692888929362
 40
0.4971692888929362
 10
-8.604738235474266
 20
-14.73074722290084
 30
0.0
 10
-8.646070122227909
 20
-14.7267364399768
 30
0.0
 10
-8.728736630573246
 20
-14.71871460874423
 30
0.0
 10
-8.848188492776044
 20
-14.68207998273878
 30
0.0
 10
-8.961799424744222
 20
-14.6300852329414
 30
0.0
 10
-9.028902040064384
 20
-14.58114454765046
 30
0.0
 10
-9.062452316285266
 20
-14.55667495727583
 30
0.0
 11
-8.604738235474266
 21
-14.73074722290084
 31
0.0
 11
-8.727975845337264
 21
-14.71461486816385
 31
0.0
 11
-8.847215652466255
 21
-14.67951965332084
 31
0.0
 11
-8.959642410279236
 21
-14.62651443481484
 31
0.0
 11
-9.062452316285266
 21
-14.55667495727583
 31
0.0
  0
SPLINE
  5
C7AC
330
1F
100
AcDbEntity
  8
AM_0
100
AcDbSpline
210
0.0
220
0.0
230
1.0
 70
     8
 71
     3
 72
    11
 73
     7
 74
     5
 42
0.0000000001
 43
0.0000000001
 44
0.0000000001
 40
0.0
 40
0.0
 40
0.0
 40
0.0
 40
0.0550561727790711
 40
0.1157041345875407
 40
0.1836936376273703
 40
0.2598484172620581
 40
0.2598484172620581
 40
0.2598484172620581
 40
0.2598484172620581
 10
-12.38736534118724
 20
-14.28370285034186
 30
0.0
 10
-12.39260985016097
 20
-14.26601224106537
 30
0.0
 10
-12.40363152750453
 20
-14.22883427294041
 30
0.0
 10
-12.43882484600767
 20
-14.17773970727974
 30
0.0
 10
-12.48655517360473
 20
-14.12854382434039
 30
0.0
 10
-12.52614919769572
 20
-14.1011152825576
 30
0.0
 10
-12.54706764221223
 20
-14.08662414550788
 30
0.0
 11
-12.38736534118724
 21
-14.28370285034186
 31
0.0
 11
-12.40562248230023
 21
-14.23176193237289
 31
0.0
 11
-12.43860435485923
 21
-14.18086624145486
 31
0.0
 11
-12.48598670959521
 21
-14.13210678100587
 31
0.0
 11
-12.54706764221223
 21
-14.08662414550788
 31
0.0
  0
SPLINE
  5
C7AD
330
1F
100
AcDbEntity
  8
AM_0
100
AcDbSpline
210
0.0
220
0.0
230
1.0
 70
     8
 71
     3
 72
    11
 73
     7
 74
     5
 42
0.0000000001
 43
0.0000000001
 44
0.0000000001
 40
0.0
 40
0.0
 40
0.0
 40
0.0
 40
0.008979029204541
 40
0.0179928133675123
 40
0.0270579572449703
 40
0.0361945330837193
 40
0.0361945330837193
 40
0.0361945330837193
 40
0.0361945330837193
 10
-12.38337516784725
 20
-14.31962585449186
 30
0.0
 10
-12.38346157749093
 20
-14.31663344932544
 30
0.0
 10
-12.38363473124245
 20
-14.31063705634653
 30
0.0
 10
-12.38444900196881
 20
-14.30165003906422
 30
0.0
 10
-12.3856354616997
 20
-14.29265182261199
 30
0.0
 10
-12.38678720802975
 20
-14.28669363532553
 30
0.0
 10
-12.38736534118724
 20
-14.28370285034186
 30
0.0
 11
-12.38337516784725
 21
-14.31962585449186
 31
0.0
 11
-12.38372611999524
 21
-14.31065368652387
 31
0.0
 11
-12.38450813293523
 21
-14.30167388915988
 31
0.0
 11
-12.38572120666524
 21
-14.29269027709988
 31
0.0
 11
-12.38736534118724
 21
-14.28370285034186
 31
0.0
  0
SPLINE
  5
C7AE
330
1F
100
AcDbEntity
  8
AM_0
100
AcDbSpline
210
0.0
220
0.0
230
1.0
 70
     8
 71
     3
 72
    11
 73
     7
 74
     5
 42
0.0000000001
 43
0.0000000001
 44
0.0000000001
 40
0.0
 40
0.0
 40
0.0
 40
0.0
 40
1.478208452684658
 40
3.061065217353473
 40
4.643933462518643
 40
6.122160323022946
 40
6.122160323022946
 40
6.122160323022946
 40
6.122160323022946
 10
-3.55088043212926
 20
-7.64948272705084
 30
0.0
 10
-3.667673814358762
 20
-7.14575015693384
 30
0.0
 10
-3.909528851319553
 20
-6.10262376536655
 30
0.0
 10
-5.550866679669153
 20
-5.415478310815692
 30
0.0
 10
-7.192225984640512
 20
-6.102605096100339
 30
0.0
 10
-7.434084875024487
 20
-7.145743163956651
 30
0.0
 10
-7.55088043212926
 20
-7.649482727050859
 30
0.0
 11
-3.55088043212926
 21
-7.64948272705084
 31
0.0
 11
-4.097156524659273
 21
-6.27591705322286
 31
0.0
 11
-5.550865173340235
 21
-5.649684906005872
 31
0.0
 11
-7.004592895508256
 21
-6.275901794433869
 31
0.0
 11
-7.55088043212926
 21
-7.649482727050859
 31
0.0
  0
SPLINE
  5
C7AF
330
1F
100
AcDbEntity
  8
AM_0
100
AcDbSpline
210
0.0
220
0.0
230
1.0
 70
     8
 71
     3
 72
    11
 73
     7
 74
     5
 42
0.0000000001
 43
0.0000000001
 44
0.0000000001
 40
0.0
 40
0.0
 40
0.0
 40
0.0
 40
0.1296026553392477
 40
0.2596416246302172
 40
0.3901191275659304
 40
0.5210193643452308
 40
0.5210193643452308
 40
0.5210193643452308
 40
0.5210193643452308
 10
-22.83839607238828
 20
-5.735904693603893
 30
0.0
 10
-22.83650291183497
 20
-5.692741840559481
 30
0.0
 10
-22.83271021730675
 20
-5.606270824523648
 30
0.0
 10
-22.82215409986209
 20
-5.476636570667476
 30
0.0
 10
-22.80826479292318
 20
-5.346878981387932
 30
0.0
 10
-22.79557310334784
 20
-5.26067453011653
 30
0.0
 10
-22.78921699524028
 20
-5.217502593993893
 30
0.0
 11
-22.83839607238828
 21
-5.735904693603893
 31
0.0
 11
-22.83191108703726
 21
-5.606464385986904
 31
0.0
 11
-22.82161903381426
 21
-5.476833343505897
 31
0.0
 11
-22.80742835998629
 21
-5.347129821777892
 31
0.0
 11
-22.78921699524028
 21
-5.217502593993893
 31
0.0
  0
SPLINE
  5
C7B0
330
1F
100
AcDbEntity
  8
AM_0
100
AcDbSpline
210
0.0
220
0.0
230
1.0
 70
     8
 71
     3
 72
    11
 73
     7
 74
     5
 42
0.0000000001
 43
0.0000000001
 44
0.0000000001
 40
0.0
 40
0.0
 40
0.0
 40
0.0
 40
1.71888455542301
 40
3.440586446089358
 40
5.147204961994659
 40
6.851458178963875
 40
6.851458178963875
 40
6.851458178963875
 40
6.851458178963875
 10
-22.78921699524028
 20
-5.217502593993893
 30
0.0
 10
-22.64359836513297
 20
-4.652556106053469
 30
0.0
 10
-22.35212242891339
 20
-3.521737155449042
 30
0.0
 10
-20.57602327261859
 20
-2.476693005518125
 30
0.0
 10
-18.91411499828107
 20
-3.727490968088918
 30
0.0
 10
-18.84684566940773
 20
-4.894802848005943
 30
0.0
 10
-18.81323432922427
 20
-5.478054046630878
 30
0.0
 11
-22.78921699524028
 21
-5.217502593993893
 31
0.0
 11
-22.12879371643129
 21
-3.630554199218896
 31
0.0
 11
-20.58920478820827
 21
-2.859889984130914
 31
0.0
 11
-19.17299842834526
 21
-3.812206268310907
 31
0.0
 11
-18.81323432922427
 21
-5.478054046630878
 31
0.0
  0
ELLIPSE
  5
C7B2
330
1F
100
AcDbEntity
  8
AM_0
100
AcDbEllipse
 10
-32.55629062652607
 20
-0.0000038146969229
 30
0.0
 11
2.88471913718384
 21
-16.19760409847198
 31
0.0
210
0.0
220
0.0
230
1.0
 40
0.0965491924493
 41
0.4689624201457633
 42
0.5232344170107927
  0
ELLIPSE
  5
C7B3
330
1F
100
AcDbEntity
  8
AM_0
100
AcDbEllipse
 10
-31.06172275543237
 20
0.000000000000094
 30
0.0
 11
0.4346387751014605
 21
16.19944294079398
 31
0.0
210
0.0
220
0.0
230
1.0
 40
0.3084613705137
 41
3.692107946367799
 42
3.800429229681859
  0
ELLIPSE
  5
C7B4
330
1F
100
AcDbEntity
  8
AM_0
100
AcDbEllipse
 10
-30.62854099273698
 20
0.0000000000000961
 30
0.0
 11
1.232414980194739
 21
-16.19916081490899
 31
0.0
210
0.0
220
0.0
230
1.0
 40
0.133688027652
 41
0.6404090935071629
 42
0.7280333072449245
  0
ELLIPSE
  5
C7B5
330
1F
100
AcDbEntity
  8
AM_0
100
AcDbEllipse
 10
14.89922714233372
 20
0.0000000000001992
 30
0.0
 11
206.0371009938259
 21
-8.185781756909495
 31
0.0
210
0.0
220
0.0
230
1.0
 40
0.0678504273504
 41
4.504011875031816
 42
4.582241373750163
  0
ELLIPSE
  5
C7B6
330
1F
100
AcDbEntity
  8
AM_0
100
AcDbEllipse
 10
-15.54753303527927
 20
0.0000000000001395
 30
0.0
 11
2.015816004466039
 21
-16.19681955686799
 31
0.0
210
0.0
220
0.0
230
0.9999999999999998
 40
0.1591335387638999
 41
0.4967278553918161
 42
0.6401117606357536
  0
ELLIPSE
  5
C7B7
330
1F
100
AcDbEntity
  8
AM_0
100
AcDbEllipse
 10
72.3085823058997
 20
0.0000000000003304
 30
0.0
 11
206.0370705003101
 21
-8.185780545412493
 31
0.0
210
0.0
220
0.0
230
1.0
 40
0.0678504327673
 41
4.234336479959068
 42
4.256097827222431
  0
ELLIPSE
  5
C7B8
330
1F
100
AcDbEntity
  8
AM_0
100
AcDbEllipse
 10
-24.19370365142926
 20
-0.0000038146969115
 30
0.0
 11
0.0257570163869607
 21
16.199999360391
 31
0.0
210
0.0
220
0.0
230
1.0
 40
0.0900527578461
 41
4.149606048087256
 42
4.350401818062802
  0
ELLIPSE
  5
C7B9
330
1F
100
AcDbEntity
  8
AM_0
100
AcDbEllipse
 10
-20.17751502990827
 20
-0.0000038146968924
 30
0.0
 11
0.0257570163869607
 21
16.199999360391
 31
0.0
210
0.0
220
0.0
230
1.0
 40
0.0900527578461
 41
4.12789063288794
 42
4.367395202750016
  0
ELLIPSE
  5
C7BA
330
1F
100
AcDbEntity
  8
AM_0
100
AcDbEllipse
 10
-0.8173637390142616
 20
0.0000000000001528
 30
0.0
 11
0.8584815422729574
 21
16.19974783810299
 31
0.0
210
0.0
220
0.0
230
1.0
 40
0.1049569113245
 41
1.552805870368342
 42
2.745824668040794
  0
ELLIPSE
  5
C7BF
330
1F
100
AcDbEntity
  8
AM_0
100
AcDbEllipse
 10
72.89357376097971
 20
-0.0000038146966766
 30
0.0
 11
335.53778380296
 21
-3.717810380435168
 31
0.0
210
0.0
220
0.0
230
1.0
 40
0.0469919916435
 41
1.840307648860527
 42
1.868530769141148
  0
ELLIPSE
  5
C7C7
330
1F
100
AcDbEntity
  8
AM_0
100
AcDbEllipse
 10
-28.06819248199529
 20
4.890853881836102
 30
0.0
 11
3.327552715682963
 21
14.684230729554
 31
0.0
210
0.0
220
0.0
230
1.0
 40
0.0073476791609
 41
5.282288083683615
 42
5.540642896526936
  0
ELLIPSE
  5
C7C8
330
1F
100
AcDbEntity
  8
AM_0
100
AcDbEllipse
 10
-15.3469944000253
 20
10.13848495483412
 30
0.0
 11
2.122322007211994
 21
1.381814297721001
 31
0.0
210
0.0
220
0.0
230
1.0
 40
0.980526751522
 41
4.124999331355327
 42
4.709835988734103
  0
ELLIPSE
  5
C7C9
330
1F
100
AcDbEntity
  8
AM_0
100
AcDbEllipse
 10
-15.27667427063031
 20
10.13541412353512
 30
0.0
 11
2.122322007211995
 21
1.381814297721005
 31
0.0
210
0.0
220
0.0
230
1.0
 40
0.980526751522
 41
4.71096500911934
 42
4.808506717370266
  0
ELLIPSE
  5
C7CA
330
1F
100
AcDbEntity
  8
AM_0
100
AcDbEllipse
 10
-15.3469944000253
 20
10.13848495483412
 30
0.0
 11
2.122322007211994
 21
1.381814297721001
 31
0.0
210
0.0
220
0.0
230
1.0
 40
0.980526751522
 41
1.80248311067346
 42
4.039640167121933
  0
ELLIPSE
  5
C7CB
330
1F
100
AcDbEntity
  8
AM_0
100
AcDbEllipse
 10
-29.18624210357733
 20
10.62049293518008
 30
0.0
 11
2.459640395828
 21
-0.5556354137199952
 31
0.0
210
0.0
220
0.0
230
1.0
 40
0.9639821958927999
 41
5.116369031665059
 42
6.432152185491036
  0
ELLIPSE
  5
C7CC
330
1F
100
AcDbEntity
  8
AM_0
100
AcDbEllipse
 10
-28.82337284088233
 20
9.410579681396077
 30
0.0
 11
2.517616350110999
 21
0.0428122867150043
 31
0.0
210
0.0
220
0.0
230
1.0
 40
0.8976745485232001
 41
3.713924212093857
 42
3.733014261085826
  0
ELLIPSE
  5
C7CD
330
1F
100
AcDbEntity
  8
AM_0
100
AcDbEllipse
 10
-28.89365482330431
 20
9.645036697387089
 30
0.0
 11
2.517646842692
 21
0.0428980659780072
 31
0.0
210
0.0
220
0.0
230
1.0
 40
0.897672059401
 41
3.868927874550979
 42
4.124158672454663
  0
ELLIPSE
  5
C7CE
330
1F
100
AcDbEntity
  8
AM_0
100
AcDbEllipse
 10
-32.72757053375271
 20
8.50724029541007
 30
0.0
 11
6.025070129724403
 21
-0.340233647906984
 31
0.0
210
0.0
220
0.0
230
1.0
 40
0.1111683562193
 41
4.81547925045257
 42
5.055028233624587
  0
ELLIPSE
  5
C7CF
330
1F
100
AcDbEntity
  8
AM_0
100
AcDbEllipse
 10
14.23412322997972
 20
0.000000000000196
 30
0.0
 11
27.79314983414403
 21
-14.38680541050994
 31
0.0
210
0.0
220
0.0
230
1.0
 40
0.2679492434079
 41
3.820571001430354
 42
4.211150097760501
  0
ELLIPSE
  5
C7D0
330
1F
100
AcDbEntity
  8
AM_0
100
AcDbEllipse
 10
2.005260467528735
 20
-0.0568923950198198
 30
0.0
 11
206.4372586397009
 21
4.271475583503507
 31
0.0
210
0.0
220
0.0
230
1.0
 40
0.0759838295509
 41
1.703895719719209
 42
1.705866158627888
  0
ELLIPSE
  5
C7D1
330
1F
100
AcDbEntity
  8
AM_0
100
AcDbEllipse
 10
-15.27667427063031
 20
10.13541412353512
 30
0.0
 11
2.122322007211995
 21
1.381814297721005
 31
0.0
210
0.0
220
0.0
230
1.0
 40
0.980526751522
 41
1.713127413648865
 42
1.857620349908657
  0
ELLIPSE
  5
C7D2
330
1F
100
AcDbEntity
  8
AM_0
100
AcDbEllipse
 10
-17.42886543274032
 20
10.2293663024901
 30
0.0
 11
0.4931716613669944
 21
2.480848249008002
 31
0.0
210
0.0
220
0.0
230
1.0
 40
0.0235230660222
 41
0.8684733163750008
 42
0.9157932379560222
  0
ELLIPSE
  5
C7D3
330
1F
100
AcDbEntity
  8
AM_0
100
AcDbEllipse
 10
-31.93678379058861
 20
13.27625656127907
 30
0.0
 11
5.871696428693303
 21
-1.235645726906986
 31
0.0
210
0.0
220
0.0
230
1.0
 40
0.9722474138454
 41
5.985942921018928
 42
6.323823110048434
  0
ELLIPSE
  5
C7D4
330
1F
100
AcDbEntity
  8
AM_0
100
AcDbEllipse
 10
-26.94735050201531
 20
11.41271972656206
 30
0.0
 11
0.7884445027370012
 21
-0.1354999789469973
 31
0.0
210
0.0
220
0.0
230
1.0
 40
0.4741727000613001
 41
5.419959357491624
 42
5.632215438801758
  0
ELLIPSE
  5
C7D5
330
1F
100
AcDbEntity
  8
AM_0
100
AcDbEllipse
 10
-28.58430576324531
 20
8.613677978515104
 30
0.0
 11
2.394600038966999
 21
0.7182569439720074
 31
0.0
210
0.0
220
0.0
230
1.0
 40
0.9620622707247999
 41
0.4304370108296269
 42
0.505962627730404
  0
ELLIPSE
  5
C7D6
330
1F
100
AcDbEntity
  8
AM_0
100
AcDbEllipse
 10
-28.58038425445631
 20
8.600612640381077
 30
0.0
 11
2.394599981726997
 21
0.7182538153930043
 31
0.0
210
0.0
220
0.0
230
1.0
 40
0.9620621608852999
 41
0.4328864225722702
 42
0.5087300604069194
  0
ELLIPSE
  5
C7DC
330
1F
100
AcDbEntity
  8
AM_0
100
AcDbEllipse
 10
-35.28949832916281
 20
8.436962127685079
 30
0.0
 11
1.748405516534099
 21
-0.0806787842189955
 31
0.0
210
0.0
220
0.0
230
1.0
 40
0.2633320437983
 41
4.102136972770127
 42
5.508241058501271
  0
ELLIPSE
  5
C7DD
330
1F
100
AcDbEntity
  8
AM_0
100
AcDbEllipse
 10
-4.267162322998283
 20
3.277645111084148
 30
0.0
 11
1.809074454081001
 21
-1.209190246241997
 31
0.0
210
0.0
220
0.0
230
1.0
 40
0.3452703839844
 41
5.88548298690109
 42
9.027073762708734
  0
ELLIPSE
  5
C7DE
330
1F
100
AcDbEntity
  8
AM_0
100
AcDbEllipse
 10
-4.267162322998283
 20
3.277645111084148
 30
0.0
 11
1.809074454081001
 21
-1.209190246241997
 31
0.0
210
0.0
220
0.0
230
1.0
 40
0.3452703839844
 41
2.743888455529149
 42
3.192561169887746
  0
ELLIPSE
  5
C7DF
330
1F
100
AcDbEntity
  8
AM_0
100
AcDbEllipse
 10
-4.267162322998283
 20
3.277645111084148
 30
0.0
 11
1.809074454081001
 21
-1.209190246241997
 31
0.0
210
0.0
220
0.0
230
1.0
 40
0.3452703839844
 41
3.192561353592036
 42
5.88548223778303
  0
ELLIPSE
  5
C7E0
330
1F
100
AcDbEntity
  8
AM_0
100
AcDbEllipse
 10
-35.2967309951784
 20
8.178155899048066
 30
0.0
 11
1.7493209343067
 21
-0.0488794744019955
 31
0.0
210
0.0
220
0.0
230
1.0
 40
0.0702514655048
 41
3.235940843583418
 42
4.097291888683448
  0
ELLIPSE
  5
C7E1
330
1F
100
AcDbEntity
  8
AM_0
100
AcDbEllipse
 10
-35.2967309951784
 20
8.178155899048066
 30
0.0
 11
1.7493209343067
 21
-0.0488794744019955
 31
0.0
210
0.0
220
0.0
230
1.0
 40
0.0702514655048
 41
5.497780872908974
 42
5.785680945631777
  0
ELLIPSE
  5
C7E2
330
1F
100
AcDbEntity
  8
AM_0
100
AcDbEllipse
 10
-9.310661315918313
 20
8.038879394531136
 30
0.0
 11
1.749295250965001
 21
-0.0496642948519963
 31
0.0
210
0.0
220
0.0
230
1.0
 40
0.1902212967040999
 41
2.977364742024219
 42
3.059636766583053
  0
ELLIPSE
  5
C7E6
330
1F
100
AcDbEntity
  8
AM_3
100
AcDbEllipse
 10
-5.893692016602309
 20
3.114835739136126
 30
0.0
 11
0.1493949615910034
 21
-1.492542319655998
 31
0.0
210
0.0
220
0.0
230
1.0
 40
0.2888302282237
 41
0.0
 42
6.283185307179584
  0
ELLIPSE
  5
C7E7
330
1F
100
AcDbEntity
  8
AM_3
100
AcDbEllipse
 10
-5.893692016602309
 20
3.114837646484132
 30
0.0
 11
0.124496514976005
 21
-1.243784915402002
 31
0.0
210
0.0
220
0.0
230
0.9999999999999998
 40
0.2888292752429
 41
0.0
 42
6.283185307179584
  0
ELLIPSE
  5
C805
330
1F
100
AcDbEntity
  8
AM_0
100
AcDbEllipse
 10
-18.86826515197823
 20
-14.21516799926787
 30
0.0
 11
0.4975888188640172
 21
-7.279611742555998
 31
0.0
210
0.0
220
0.0
230
1.0
 40
0.8222735805437999
 41
1.675829327647558
 42
1.714363385548204
  0
ELLIPSE
  5
C806
330
1F
100
AcDbEntity
  8
AM_0
100
AcDbEllipse
 10
-15.06819534301828
 20
-5.342937469482876
 30
0.0
 11
3.325177871667031
 21
-12.12310649028998
 31
0.0
210
0.0
220
0.0
230
1.0
 40
0.0136609182986
 41
0.7607683571903305
 42
0.9075454129381553
  0
ELLIPSE
  5
C807
330
1F
100
AcDbEntity
  8
AM_0
100
AcDbEllipse
 10
-13.79677581787126
 20
-15.78100585937488
 30
0.0
 11
0.7903995318400027
 21
-0.1235580690429978
 31
0.0
210
0.0
220
0.0
230
1.0
 40
0.8616469742549
 41
4.890047358199462
 42
5.675174996166219
  0
ELLIPSE
  5
C808
330
1F
100
AcDbEntity
  8
AM_0
100
AcDbEllipse
 10
-13.79677581787126
 20
-15.78100585937488
 30
0.0
 11
0.7903995318400027
 21
-0.1235580690429978
 31
0.0
210
0.0
220
0.0
230
1.0
 40
0.8616469742549
 41
5.675174996166219
 42
6.46069415498882
  0
ELLIPSE
  5
C80D
330
1F
100
AcDbEntity
  8
AM_0
100
AcDbEllipse
 10
-21.05968666076726
 20
-7.103034973144901
 30
0.0
 11
1.729003850933001
 21
-0.2702827712119984
 31
0.0
210
0.0
220
0.0
230
1.0
 40
0.8616431339853999
 41
3.141592552129218
 42
6.283185307179585
  0
ELLIPSE
  5
C80E
330
1F
100
AcDbEntity
  8
AM_0
100
AcDbEllipse
 10
-21.05968666076726
 20
-7.103034973144901
 30
0.0
 11
1.729003850933001
 21
-0.2702827712119984
 31
0.0
210
0.0
220
0.0
230
1.0
 40
0.8616431339853999
 41
1.704604709092061
 42
3.141592755050365
  0
ELLIPSE
  5
C80F
330
1F
100
AcDbEntity
  8
AM_0
100
AcDbEllipse
 10
-21.05968666076726
 20
-7.103034973144901
 30
0.0
 11
1.729003850933001
 21
-0.2702827712119984
 31
0.0
210
0.0
220
0.0
230
1.0
 40
0.8616431339853999
 41
0.0
 42
1.704604709092061
  0
ELLIPSE
  5
C810
330
1F
100
AcDbEntity
  8
AM_0
100
AcDbEllipse
 10
-21.05968666076726
 20
-7.103034973144901
 30
0.0
 11
1.976005572512001
 21
-0.3088952614240008
 31
0.0
210
0.0
220
0.0
230
1.0
 40
0.8616424292759001
 41
0.1775091126946373
 42
2.830190205367841
  0
LINE
  5
C8CD
330
1F
100
AcDbEntity
  8
AM_0
100
AcDbLine
 10
-29.08817291259823
 20
-14.26845169067389
 30
0.0
 11
-29.19198608398523
 21
-13.8857231140139
 31
0.0
  0
LINE
  5
C8CE
330
1F
100
AcDbEntity
  8
AM_0
100
AcDbLine
 10
-2.192188262940256
 20
-14.91660690307582
 30
0.0
 11
-1.426342010498265
 21
-0.3033752441408445
 31
0.0
  0
LINE
  5
C8CF
330
1F
100
AcDbEntity
  8
AM_0
100
AcDbLine
 10
-13.35466003418024
 20
-12.75210189819389
 30
0.0
 11
-13.06106758117724
 21
-14.57098388671887
 31
0.0
  0
LINE
  5
C8D0
330
1F
100
AcDbEntity
  8
AM_0
100
AcDbLine
 10
-13.06106758117724
 20
-14.57098388671887
 30
0.0
 11
-13.39602279663124
 21
-12.75008010864288
 31
0.0
  0
LINE
  5
C8D1
330
1F
100
AcDbEntity
  8
AM_0
100
AcDbLine
 10
-13.00000000000025
 20
-15.78226470947289
 30
0.0
 11
-13.89860534668024
 21
-12.72542572021489
 31
0.0
  0
LINE
  5
C8D2
330
1F
100
AcDbEntity
  8
AM_0
100
AcDbLine
 10
-29.08757400512722
 20
-14.26459884643589
 30
0.0
 11
-29.19049453735424
 21
-13.88569259643589
 31
0.0
  0
LINE
  5
C8D3
330
1F
100
AcDbEntity
  8
AM_0
100
AcDbLine
 10
-13.76190567016624
 20
-16.47308731079089
 30
0.0
 11
-14.85699844360424
 21
-12.74785232543984
 31
0.0
  0
LINE
  5
C8D4
330
1F
100
AcDbEntity
  8
AM_0
100
AcDbLine
 10
-25.55916023254425
 20
-15.49718093872089
 30
0.0
 11
-24.53768348693923
 21
-12.73258590698289
 31
0.0
  0
LINE
  5
C8D5
330
1F
100
AcDbEntity
  8
AM_0
100
AcDbLine
 10
-28.94525814056423
 20
-13.87944793701189
 30
0.0
 11
-29.08756923675623
 21
-14.26459503173891
 31
0.0
  0
LINE
  5
C8D6
330
1F
100
AcDbEntity
  8
AM_0
100
AcDbLine
 10
-12.76206588745226
 20
-14.36266326904287
 30
0.0
 11
-12.96761322021523
 21
-13.04490661621089
 31
0.0
  0
CIRCLE
  5
C8D8
330
1F
100
AcDbEntity
  8
AM_0
100
AcDbCircle
 10
-5.55088043212926
 20
-7.64948272705085
 30
0.0
 40
1.75
  0
LINE
  5
C8D9
330
1F
100
AcDbEntity
  8
AM_0
100
AcDbLine
 10
-1.245117187500285
 20
7.786552429199169
 30
0.0
 11
-7.752895355225291
 21
7.923025131225106
 31
0.0
  0
LINE
  5
C8DA
330
1F
100
AcDbEntity
  8
AM_0
100
AcDbLine
 10
-1.245121002198286
 20
7.022682189941186
 30
0.0
 11
-15.3953666687023
 21
7.640495300293135
 31
0.0
  0
LINE
  5
C8DB
330
1F
100
AcDbEntity
  8
AM_0
100
AcDbLine
 10
-30.73904800415061
 20
7.762071609497079
 30
0.0
 11
-1.245117187500278
 21
6.474338531494177
 31
0.0
  0
LINE
  5
C8DC
330
1F
100
AcDbEntity
  8
AM_0
100
AcDbLine
 10
-9.815958023072305
 20
6.519369125366148
 30
0.0
 11
-1.245113372803297
 21
6.379014968872163
 31
0.0
  0
LINE
  5
C8DD
330
1F
100
AcDbEntity
  8
AM_0
100
AcDbLine
 10
-7.550880432129249
 20
-10.13887405395487
 30
0.0
 11
-3.550880432129248
 21
-10.13887405395485
 31
0.0
  0
LINE
  5
C8DE
330
1F
100
AcDbEntity
  8
AM_0
100
AcDbLine
 10
-0.9642791748053214
 20
9.304773330688144
 30
0.0
 11
-0.0610656738283026
 21
14.90392494201613
 31
0.0
  0
LINE
  5
C8DF
330
1F
100
AcDbEntity
  8
AM_0
100
AcDbLine
 10
-0.7619552612313391
 20
17.13656616210912
 30
0.0
 11
-0.7640151977543219
 21
17.13520050048814
 31
0.0
  0
LINE
  5
C8E0
330
1F
100
AcDbEntity
  8
AM_0
100
AcDbLine
 10
-0.0610656738283026
 20
14.90392494201613
 30
0.0
 11
-0.0000000000003263
 21
16.30259513855013
 31
0.0
  0
LINE
  5
C8E1
330
1F
100
AcDbEntity
  8
AM_0
100
AcDbLine
 10
-0.9635848999033187
 20
9.303245544433147
 30
0.0
 11
-0.9648857116703284
 21
9.304798126220143
 31
0.0
  0
LINE
  5
C8E2
330
1F
100
AcDbEntity
  8
AM_0
100
AcDbLine
 10
-1.358341217041282
 20
-1.871967315673819
 30
0.0
 11
-1.867038726807259
 21
-11.57852172851584
 31
0.0
  0
LINE
  5
C8E3
330
1F
100
AcDbEntity
  8
AM_0
100
AcDbLine
 10
-1.245117187500276
 20
5.969717025757184
 30
0.0
 11
-1.245117187500276
 21
-0.2405281066898424
 31
0.0
  0
LINE
  5
C8E4
330
1F
100
AcDbEntity
  8
AM_0
100
AcDbLine
 10
-1.245117187500276
 20
5.969718933105163
 30
0.0
 11
-2.501884460450265
 21
0.3822059631351662
 31
0.0
  0
LINE
  5
C8E5
330
1F
100
AcDbEntity
  8
AM_0
100
AcDbLine
 10
-1.245117187500286
 20
8.084135055542169
 30
0.0
 11
-3.356098175049285
 21
8.125665664673162
 31
0.0
  0
LINE
  5
C8E6
330
1F
100
AcDbEntity
  8
AM_0
100
AcDbLine
 10
-1.565597534180319
 20
8.843658447265177
 30
0.0
 11
-1.5828857421883
 21
8.44778442382816
 31
0.0
  0
LINE
  5
C8E7
330
1F
100
AcDbEntity
  8
AM_0
100
AcDbLine
 10
-1.245117187500281
 20
7.022682189941186
 30
0.0
 11
-1.245117187500278
 21
6.474340438843177
 31
0.0
  0
LINE
  5
C8E8
330
1F
100
AcDbEntity
  8
AM_0
100
AcDbLine
 10
-1.245117187500286
 20
8.084135055542169
 30
0.0
 11
-1.245117187500287
 21
8.353170394897185
 31
0.0
  0
LINE
  5
C8E9
330
1F
100
AcDbEntity
  8
AM_0
100
AcDbLine
 10
-1.245117187500287
 20
8.353166580200173
 30
0.0
 11
-1.319004058838292
 21
8.436260223388167
 31
0.0
  0
LINE
  5
C8EA
330
1F
100
AcDbEntity
  8
AM_0
100
AcDbLine
 10
-1.319004058838292
 20
8.436262130737167
 30
0.0
 11
-2.239490509034287
 21
8.476451873779158
 31
0.0
  0
LINE
  5
C8EB
330
1F
100
AcDbEntity
  8
AM_0
100
AcDbLine
 10
-1.245117187500285
 20
7.786552429199169
 30
0.0
 11
-1.245117187500286
 21
8.084135055542169
 31
0.0
  0
LINE
  5
C8EC
330
1F
100
AcDbEntity
  8
AM_0
100
AcDbLine
 10
-1.245117187500281
 20
7.022682189941186
 30
0.0
 11
-1.245117187500285
 21
7.786552429199169
 31
0.0
  0
LINE
  5
C8ED
330
1F
100
AcDbEntity
  8
AM_0
100
AcDbLine
 10
-1.245117187500278
 20
6.474340438843177
 30
0.0
 11
-1.245117187500278
 21
6.379014968872163
 31
0.0
  0
LINE
  5
C8EE
330
1F
100
AcDbEntity
  8
AM_0
100
AcDbLine
 10
-1.245117187500276
 20
5.969717025757184
 30
0.0
 11
-1.245117187500278
 21
6.379014968872163
 31
0.0
  0
LINE
  5
C8EF
330
1F
100
AcDbEntity
  8
AM_0
100
AcDbLine
 10
-5.774147033692329
 20
4.634298324585118
 30
0.0
 11
-6.043087005616329
 21
4.607378005981145
 31
0.0
  0
LINE
  5
C8F0
330
1F
100
AcDbEntity
  8
AM_0
100
AcDbLine
 10
-4.493869781495279
 20
8.043609619140134
 30
0.0
 11
-4.495170593262288
 21
8.045164108276132
 31
0.0
  0
ARC
  5
C8F1
330
1F
100
AcDbEntity
  8
AM_0
100
AcDbCircle
 10
-1.000000000000275
 20
-0.398906707763861
 30
0.0
 40
0.8000003099441999
100
AcDbArc
 50
357.0000493217044
 51
42.00002666828011
  0
ARC
  5
C8F2
330
1F
100
AcDbEntity
  8
AM_0
100
AcDbCircle
 10
-1.000000000000275
 20
-0.398906707763861
 30
0.0
 40
0.8000004291533999
100
AcDbArc
 50
42.00001665036998
 51
86.99998716675636
  0
LINE
  5
C8F3
330
1F
100
AcDbEntity
  8
AM_0
100
AcDbLine
 10
-0.2011032104502611
 20
-0.4407806396488503
 30
0.0
 11
-1.358341217041282
 21
-1.871967315673819
 31
0.0
  0
LINE
  5
C8F4
330
1F
100
AcDbEntity
  8
AM_0
100
AcDbLine
 10
-1.245117187500279
 20
0.4150390625001793
 30
0.0
 11
-0.958129882813262
 21
0.3999977111811391
 31
0.0
  0
LINE
  5
C8F5
330
1F
100
AcDbEntity
  8
AM_0
100
AcDbLine
 10
-0.958129882813262
 20
0.3999977111811391
 30
0.0
 11
-1.245117187500277
 21
0.0450782775881835
 31
0.0
  0
LINE
  5
C8F6
330
1F
100
AcDbEntity
  8
AM_0
100
AcDbLine
 10
-1.426338195801283
 20
-0.3033752441408445
 30
0.0
 11
-1.278720855713279
 21
-0.298221588134814
 31
0.0
  0
LINE
  5
C8F7
330
1F
100
AcDbEntity
  8
AM_0
100
AcDbLine
 10
-1.278720855713279
 20
-0.298221588134814
 30
0.0
 11
-1.245117187500276
 21
-0.2405319213868238
 31
0.0
  0
LINE
  5
C8F8
330
1F
100
AcDbEntity
  8
AM_3
100
AcDbLine
 10
-2.760536193848282
 20
1.920955657959155
 30
0.0
 11
-5.744297027588289
 21
1.622295379638146
 31
0.0
  0
LINE
  5
C8F9
330
1F
100
AcDbEntity
  8
AM_0
100
AcDbLine
 10
-3.550880432129248
 20
-10.13887405395485
 30
0.0
 11
-3.55088043212926
 21
-7.64948272705084
 31
0.0
  0
LINE
  5
C8FA
330
1F
100
AcDbEntity
  8
AM_0
100
AcDbLine
 10
-1.103763580323251
 20
-12.35523223876986
 30
0.0
 11
-1.867038726807259
 21
-11.57852172851584
 31
0.0
  0
LINE
  5
C8FB
330
1F
100
AcDbEntity
  8
AM_0
100
AcDbLine
 10
-27.59356212616031
 20
8.963090896606072
 30
0.0
 11
-27.21959877014231
 21
9.25175094604506
 31
0.0
  0
LINE
  5
C8FC
330
1F
100
AcDbEntity
  8
AM_0
100
AcDbLine
 10
-16.27509498596232
 20
16.19999885559111
 30
0.0
 11
-25.36441135406533
 21
16.19999885559107
 31
0.0
  0
LINE
  5
C8FD
330
1F
100
AcDbEntity
  8
AM_0
100
AcDbLine
 10
-7.918682098389314
 20
17.29563903808613
 30
0.0
 11
-7.91861724853634
 21
17.29713535308815
 31
0.0
  0
LINE
  5
C8FE
330
1F
100
AcDbEntity
  8
AM_0
100
AcDbLine
 10
-12.55919075012231
 20
17.37358188629112
 30
0.0
 11
-12.55788421630934
 21
17.3720235824581
 31
0.0
  0
LINE
  5
C8FF
330
1F
100
AcDbEntity
  8
AM_0
100
AcDbLine
 10
-16.27625656128033
 20
16.18834114074712
 30
0.0
 11
-17.15372085571333
 21
11.84586906433109
 31
0.0
  0
LINE
  5
C900
330
1F
100
AcDbEntity
  8
AM_0
100
AcDbLine
 10
-16.08946990966832
 20
16.11394309997512
 30
0.0
 11
-16.08817291259831
 21
16.11238861084012
 31
0.0
  0
LINE
  5
C901
330
1F
100
AcDbEntity
  8
AM_0
100
AcDbLine
 10
-17.21608161926333
 20
10.52304649353011
 30
0.0
 11
-17.2771472930913
 21
9.124380111694126
 31
0.0
  0
LINE
  5
C902
330
1F
100
AcDbEntity
  8
AM_0
100
AcDbLine
 10
-26.02114772796732
 20
12.27342224121108
 30
0.0
 11
-25.37065029144331
 21
16.16455078125008
 31
0.0
  0
LINE
  5
C903
330
1F
100
AcDbEntity
  8
AM_0
100
AcDbLine
 10
-26.9641017913823
 20
9.463577270508066
 30
0.0
 11
-26.06106376648032
 21
15.25733184814407
 31
0.0
  0
LINE
  5
C904
330
1F
100
AcDbEntity
  8
AM_0
100
AcDbLine
 10
-26.76195621490531
 20
17.39764308929405
 30
0.0
 11
-26.76401710510332
 21
17.39627170562707
 31
0.0
  0
LINE
  5
C905
330
1F
100
AcDbEntity
  8
AM_0
100
AcDbLine
 10
-26.0610675811773
 20
15.25733375549308
 30
0.0
 11
-26.00000190734933
 21
16.60834121704107
 31
0.0
  0
LINE
  5
C906
330
1F
100
AcDbEntity
  8
AM_0
100
AcDbLine
 10
-26.18413639068631
 20
12.78334045410108
 30
0.0
 11
-26.48365116119432
 21
11.04054641723607
 31
0.0
  0
LINE
  5
C907
330
1F
100
AcDbEntity
  8
AM_0
100
AcDbLine
 10
-26.96358489990331
 20
9.462984085083093
 30
0.0
 11
-26.96488189697332
 21
9.464460372925058
 31
0.0
  0
LINE
  5
C908
330
1F
100
AcDbEntity
  8
AM_0
100
AcDbLine
 10
-33.91869020462064
 20
17.20275783538806
 30
0.0
 11
-33.91862154006982
 21
17.20420169830305
 31
0.0
  0
LINE
  5
C909
330
1F
100
AcDbEntity
  8
AM_0
100
AcDbLine
 10
-38.55918908119223
 20
17.01519107818606
 30
0.0
 11
-38.55788469314602
 21
17.01371669769306
 31
0.0
  0
LINE
  5
C90A
330
1F
100
AcDbEntity
  8
AM_0
100
AcDbLine
 10
-15.60996818542531
 20
7.649866104126144
 30
0.0
 11
-28.71183490753231
 21
8.221904754638092
 31
0.0
  0
LINE
  5
C90B
330
1F
100
AcDbEntity
  8
AM_0
100
AcDbLine
 10
-14.85699653625524
 20
-12.74784851074187
 30
0.0
 11
-24.53767967224222
 21
-12.73258209228489
 31
0.0
  0
LINE
  5
C90C
330
1F
100
AcDbEntity
  8
AM_0
100
AcDbLine
 10
-7.779445648194267
 20
7.497768402099129
 30
0.0
 11
-11.30307197570828
 21
7.567092895508142
 31
0.0
  0
LINE
  5
C90D
330
1F
100
AcDbEntity
  8
AM_0
100
AcDbLine
 10
-9.236028671265277
 20
8.125989913940143
 30
0.0
 11
-9.236093521119302
 21
8.12449455261213
 31
0.0
  0
LINE
  5
C90E
330
1F
100
AcDbEntity
  8
AM_0
100
AcDbLine
 10
-7.670726776123276
 20
8.109653472900138
 30
0.0
 11
-7.682472229004305
 21
7.921548843384107
 31
0.0
  0
LINE
  5
C90F
330
1F
100
AcDbEntity
  8
AM_0
100
AcDbLine
 10
-7.752895355225291
 20
7.923023223877128
 30
0.0
 11
-7.779445648194267
 21
7.497766494751123
 31
0.0
  0
LINE
  5
C910
330
1F
100
AcDbEntity
  8
AM_0
100
AcDbLine
 10
-11.27623558044529
 20
7.996910095215116
 30
0.0
 11
-11.21823310852129
 21
7.796537399292122
 31
0.0
  0
LINE
  5
C911
330
1F
100
AcDbEntity
  8
AM_0
100
AcDbLine
 10
-11.21823310852129
 20
7.796537399292122
 30
0.0
 11
-11.19649314880428
 21
8.144752502441139
 31
0.0
  0
LINE
  5
C912
330
1F
100
AcDbEntity
  8
AM_0
100
AcDbLine
 10
-11.0536041259773
 20
8.114978790283135
 30
0.0
 11
-11.0528182983403
 21
8.14262580871612
 31
0.0
  0
LINE
  5
C913
330
1F
100
AcDbEntity
  8
AM_0
100
AcDbLine
 10
-11.0536041259773
 20
8.114978790283135
 30
0.0
 11
-11.30307006836028
 21
7.567090988159139
 31
0.0
  0
LINE
  5
C914
330
1F
100
AcDbEntity
  8
AM_0
100
AcDbLine
 10
-11.30307006836028
 20
7.567090988159139
 30
0.0
 11
-11.27623367309626
 21
7.996910095215116
 31
0.0
  0
LINE
  5
C915
330
1F
100
AcDbEntity
  8
AM_0
100
AcDbLine
 10
-11.27623558044529
 20
7.996912002563125
 30
0.0
 11
-13.99749183654831
 21
8.053977966308112
 31
0.0
  0
LINE
  5
C916
330
1F
100
AcDbEntity
  8
AM_0
100
AcDbLine
 10
-16.51519203186132
 20
8.290405273437123
 30
0.0
 11
-16.51312255859432
 21
8.291772842407105
 31
0.0
  0
LINE
  5
C917
330
1F
100
AcDbEntity
  8
AM_0
100
AcDbLine
 10
-16.51525688171429
 20
8.290359497070106
 30
0.0
 11
-16.5128173828133
 21
8.290262222290115
 31
0.0
  0
LINE
  5
C918
330
1F
100
AcDbEntity
  8
AM_0
100
AcDbLine
 10
-15.50280952453729
 20
7.642904281616122
 30
0.0
 11
-15.60997390747129
 21
7.649866104126144
 31
0.0
  0
LINE
  5
C919
330
1F
100
AcDbEntity
  8
AM_0
100
AcDbLine
 10
-7.55088043212926
 20
-7.649482727050859
 30
0.0
 11
-7.550880432129249
 21
-10.13887405395487
 31
0.0
  0
LINE
  5
C91A
330
1F
100
AcDbEntity
  8
AM_0
100
AcDbLine
 10
-12.96760940551824
 20
-13.04490661621089
 30
0.0
 11
-12.98967361450222
 21
-12.76995086669889
 31
0.0
  0
LINE
  5
C91B
330
1F
100
AcDbEntity
  8
AM_0
100
AcDbLine
 10
-19.06773948669525
 20
-7.10617828369188
 30
0.0
 11
-18.97515678405824
 21
-8.942577362060907
 31
0.0
  0
LINE
  5
C91C
330
1F
100
AcDbEntity
  8
AM_0
100
AcDbLine
 10
-33.66443490982081
 20
8.234134674072063
 30
0.0
 11
-30.9185152053835
 21
8.149991989136063
 31
0.0
  0
LINE
  5
C91D
330
1F
100
AcDbEntity
  8
AM_0
100
AcDbLine
 10
-30.74858283996599
 20
8.110326766968068
 30
0.0
 11
-33.75289106369042
 21
8.205911636352052
 31
0.0
  0
LINE
  5
C91E
330
1F
100
AcDbEntity
  8
AM_0
100
AcDbLine
 10
-30.49388027191179
 20
8.175542831421077
 30
0.0
 11
-30.49517059326192
 21
8.177024841308091
 31
0.0
  0
LINE
  5
C91F
330
1F
100
AcDbEntity
  8
AM_0
100
AcDbLine
 10
-30.49386692047141
 20
8.175548553467091
 30
0.0
 11
-30.49517250061061
 21
8.177022933960085
 31
0.0
  0
LINE
  5
C920
330
1F
100
AcDbEntity
  8
AM_0
100
AcDbLine
 10
-30.4938812255862
 20
8.175542831421077
 30
0.0
 11
-30.6714859008791
 21
8.038450241089075
 31
0.0
  0
LINE
  5
C921
330
1F
100
AcDbEntity
  8
AM_0
100
AcDbLine
 10
-32.14517784118668
 20
7.805990219116071
 30
0.0
 11
-36.68564629554771
 21
8.010034561157064
 31
0.0
  0
LINE
  5
C922
330
1F
100
AcDbEntity
  8
AM_0
100
AcDbLine
 10
-35.4962172508242
 20
7.987716674804078
 30
0.0
 11
-34.80878877639791
 21
7.972740173340061
 31
0.0
  0
LINE
  5
C923
330
1F
100
AcDbEntity
  8
AM_0
100
AcDbLine
 10
-33.66443920135522
 20
8.234132766723059
 30
0.0
 11
-33.66658306121852
 21
8.203165054321059
 31
0.0
  0
LINE
  5
C924
330
1F
100
AcDbEntity
  8
AM_0
100
AcDbLine
 10
-33.752895832062
 20
8.205911636352052
 30
0.0
 11
-33.7754559516909
 21
7.87925148010205
 31
0.0
  0
LINE
  5
C925
330
1F
100
AcDbEntity
  8
AM_0
100
AcDbLine
 10
-35.2360310554507
 20
8.32689666748006
 30
0.0
 11
-35.23609209060693
 21
8.325452804565077
 31
0.0
  0
LINE
  5
C926
330
1F
100
AcDbEntity
  8
AM_0
100
AcDbLine
 10
-38.57230889797231
 20
8.38452720642104
 30
0.0
 11
-37.18806338310262
 21
8.342109680176072
 31
0.0
  0
LINE
  5
C927
330
1F
100
AcDbEntity
  8
AM_0
100
AcDbLine
 10
-37.20794796943689
 20
8.054161071777066
 30
0.0
 11
-37.18806576728841
 21
8.34210777282707
 31
0.0
  0
LINE
  5
C928
330
1F
100
AcDbEntity
  8
AM_0
100
AcDbLine
 10
-37.27622961998012
 20
8.31801223754906
 30
0.0
 11
-37.23973059654261
 21
8.058210372925067
 31
0.0
  0
LINE
  5
C929
330
1F
100
AcDbEntity
  8
AM_0
100
AcDbLine
 10
-37.0447077751162
 20
8.035873413086088
 30
0.0
 11
-37.03967237472561
 21
8.216123580932084
 31
0.0
  0
LINE
  5
C92A
330
1F
100
AcDbEntity
  8
AM_0
100
AcDbLine
 10
-37.18806481361412
 20
8.34210777282707
 30
0.0
 11
-37.03967618942281
 21
8.216125488281058
 31
0.0
  0
LINE
  5
C92B
330
1F
100
AcDbEntity
  8
AM_0
100
AcDbLine
 10
-37.29367232322721
 20
8.065446853637048
 30
0.0
 11
-37.27623152732873
 21
8.318014144897068
 31
0.0
  0
LINE
  5
C92C
330
1F
100
AcDbEntity
  8
AM_0
100
AcDbLine
 10
-37.27623462677023
 20
8.318014144897068
 30
0.0
 11
-38.49617552757293
 21
8.35682678222605
 31
0.0
  0
LINE
  5
C92D
330
1F
100
AcDbEntity
  8
AM_0
100
AcDbLine
 10
-36.68565058708211
 20
8.010036468506068
 30
0.0
 11
-36.33384084701561
 21
7.724704742431055
 31
0.0
  0
LINE
  5
C92E
330
1F
100
AcDbEntity
  8
AM_0
100
AcDbLine
 10
-28.24532890319924
 20
-11.9850769042969
 30
0.0
 11
-28.27334308624323
 21
-12.06090927123989
 31
0.0
  0
LINE
  5
C92F
330
1F
100
AcDbEntity
  8
AM_0
100
AcDbLine
 10
-2.264965057373252
 20
-14.91279602050783
 30
0.0
 11
-12.38257980346726
 21
-14.38255691528287
 31
0.0
  0
LINE
  5
C930
330
1F
100
AcDbEntity
  8
AM_0
100
AcDbLine
 10
-2.697929382325244
 20
-15.75782775878882
 30
0.0
 11
-8.363897323609251
 21
-16.23521423339885
 31
0.0
  0
LINE
  5
C931
330
1F
100
AcDbEntity
  8
AM_0
100
AcDbLine
 10
-8.36390113830623
 20
-16.23521041870085
 30
0.0
 11
-3.664081573487243
 21
-14.98967361450184
 31
0.0
  0
LINE
  5
C932
330
1F
100
AcDbEntity
  8
AM_0
100
AcDbLine
 10
-3.664077758789239
 20
-14.98967361450184
 30
0.0
 11
-8.604736328125262
 21
-14.73074722290084
 31
0.0
  0
LINE
  5
C933
330
1F
100
AcDbEntity
  8
AM_0
100
AcDbLine
 10
-3.459800720215247
 20
-14.98254776000985
 30
0.0
 11
-2.697929382325244
 21
-15.75783157348683
 31
0.0
  0
LINE
  5
C934
330
1F
100
AcDbEntity
  8
AM_0
100
AcDbLine
 10
-2.697933197022253
 20
-15.75783157348683
 30
0.0
 11
-2.696506500245251
 21
-15.75928115844684
 31
0.0
  0
LINE
  5
C935
330
1F
100
AcDbEntity
  8
AM_0
100
AcDbLine
 10
-2.264965057373252
 20
-14.91279602050783
 30
0.0
 11
-2.192184448243245
 21
-14.91661071777382
 31
0.0
  0
LINE
  5
C936
330
1F
100
AcDbEntity
  8
AM_0
100
AcDbLine
 10
-3.664081573487243
 20
-14.98967361450184
 30
0.0
 11
-3.459804534912257
 21
-14.98254013061483
 31
0.0
  0
ARC
  5
C937
330
1F
100
AcDbEntity
  8
AM_0
100
AcDbCircle
 10
-9.72011375427326
 20
-15.36303710937486
 30
0.0
 40
0.7999993562698001
100
AcDbArc
 50
176.9999809200546
 51
221.9999670178094
  0
ARC
  5
C938
330
1F
100
AcDbEntity
  8
AM_0
100
AcDbCircle
 10
-9.72011375427326
 20
-15.36303710937486
 30
0.0
 40
0.7999997735023002
100
AcDbArc
 50
221.9999670178094
 51
266.9999853455229
  0
LINE
  5
C939
330
1F
100
AcDbEntity
  8
AM_0
100
AcDbLine
 10
-8.363903045655263
 20
-16.23521423339885
 30
0.0
 11
-9.761985778809247
 21
-16.16194152832085
 31
0.0
  0
LINE
  5
C93A
330
1F
100
AcDbEntity
  8
AM_0
100
AcDbLine
 10
-9.761981964112239
 20
-16.16194152832085
 30
0.0
 11
-8.604736328125262
 21
-14.73074722290084
 31
0.0
  0
LINE
  5
C93B
330
1F
100
AcDbEntity
  8
AM_0
100
AcDbLine
 10
-10.51900863647523
 20
-15.32116317748986
 30
0.0
 11
-9.866680145264249
 21
-14.51440811157187
 31
0.0
  0
LINE
  5
C93C
330
1F
100
AcDbEntity
  8
AM_0
100
AcDbLine
 10
-13.06106948852625
 20
-14.57098388671887
 30
0.0
 11
-13.00000381469825
 21
-15.78226089477588
 31
0.0
  0
LINE
  5
C93D
330
1F
100
AcDbEntity
  8
AM_0
100
AcDbLine
 10
-12.56929588317925
 20
-14.37276840209988
 30
0.0
 11
-12.76206207275425
 21
-14.36266326904287
 31
0.0
  0
LINE
  5
C93E
330
1F
100
AcDbEntity
  8
AM_0
100
AcDbLine
 10
-12.38257789611925
 20
-14.38255691528287
 30
0.0
 11
-12.56929969787626
 21
-14.37277221679689
 31
0.0
  0
LINE
  5
C93F
330
1F
100
AcDbEntity
  8
AM_0
100
AcDbLine
 10
-12.39781761169522
 20
-14.25034713745087
 30
0.0
 11
-12.38337516784725
 21
-14.31962585449186
 31
0.0
  0
LINE
  5
C940
330
1F
100
AcDbEntity
  8
AM_0
100
AcDbLine
 10
-29.08757305145324
 20
-14.26459503173891
 30
0.0
 11
-29.08947372436624
 21
-14.26974868774392
 31
0.0
  0
SPLINE
  5
C941
330
1F
100
AcDbEntity
  8
AM_0
100
AcDbSpline
210
0.0
220
0.0
230
1.0
 70
     8
 71
     3
 72
    11
 73
     7
 74
     5
 42
0.0000000001
 43
0.0000000001
 44
0.0000000001
 40
0.0
 40
0.0
 40
0.0
 40
0.0
 40
0.0383260120752343
 40
0.0766520241505818
 40
0.1149780102647489
 40
0.1533040223400038
 40
0.1533040223400038
 40
0.1533040223400038
 40
0.1533040223400038
 10
-42.1228342056277
 20
15.57128906250006
 30
0.0
 10
-42.13560835597708
 20
15.57146321025242
 30
0.0
 10
-42.16115665667589
 20
15.57181150575714
 30
0.0
 10
-42.19947908516472
 20
15.57233497050354
 30
0.0
 10
-42.23780156927943
 20
15.57285434882812
 30
0.0
 10
-42.26334985390853
 20
15.57320318907202
 30
0.0
 10
-42.27612400054952
 20
15.57337760925304
 30
0.0
 11
-42.1228342056277
 21
15.57128906250006
 31
0.0
 11
-42.1611566543581
 21
15.57181167602506
 31
0.0
 11
-42.19947910308861
 21
15.57233428955104
 31
0.0
 11
-42.23780155181911
 21
15.57285499572707
 31
0.0
 11
-42.27612400054952
 21
15.57337760925304
 31
0.0
  0
SPLINE
  5
C942
330
1F
100
AcDbEntity
  8
AM_0
100
AcDbSpline
210
0.0
220
0.0
230
1.0
 70
     8
 71
     3
 72
    11
 73
     7
 74
     5
 42
0.0000000001
 43
0.0000000001
 44
0.0000000001
 40
0.0
 40
0.0
 40
0.0
 40
0.0
 40
0.2236598096925172
 40
0.4502101832346073
 40
0.6795222311531318
 40
0.91147016036302
 40
0.91147016036302
 40
0.91147016036302
 40
0.91147016036302
 10
-40.5471506118777
 20
9.710386276245051
 30
0.0
 10
-40.49602927454434
 20
9.656108337115954
 30
0.0
 10
-40.39312591126378
 20
9.546850974541511
 30
0.0
 10
-40.23047116725936
 20
9.389127290571424
 30
0.0
 10
-40.06099285277645
 20
9.234620239810666
 30
0.0
 10
-39.94259995308413
 20
9.136491505633577
 30
0.0
 10
-39.88306522369411
 20
9.087146759033055
 30
0.0
 11
-40.5471506118777
 21
9.710386276245051
 31
0.0
 11
-40.39258670806911
 21
9.548727035522027
 31
0.0
 11
-40.23034000396751
 21
9.390609741211042
 31
0.0
 11
-40.06047153659191
 21
9.236568450928041
 31
0.0
 11
-39.88306522369411
 21
9.087146759033055
 31
0.0
  0
SPLINE
  5
C943
330
1F
100
AcDbEntity
  8
AM_0
100
AcDbSpline
210
0.0
220
0.0
230
1.0
 70
     8
 71
     3
 72
    11
 73
     7
 74
     5
 42
0.0000000001
 43
0.0000000001
 44
0.0000000001
 40
0.0
 40
0.0
 40
0.0
 40
0.0
 40
1.181345489107163
 40
2.528464671826352
 40
4.001344248655773
 40
5.548462661441069
 40
5.548462661441069
 40
5.548462661441069
 40
5.548462661441069
 10
-45.5551614761355
 20
12.70644569397003
 30
0.0
 10
-45.30935422325032
 20
12.39688111401313
 30
0.0
 10
-44.78324652594273
 20
11.73431194073822
 30
0.0
 10
-43.69527113152781
 20
10.93992991931456
 30
0.0
 10
-42.36958055374844
 20
10.30344878941769
 30
0.0
 10
-41.37211056123091
 20
10.13618740574263
 30
0.0
 10
-40.8611154556277
 20
10.05050086975105
 30
0.0
 11
-45.5551614761355
 21
12.70644569397003
 31
0.0
 11
-44.78250980377221
 21
11.81280899047802
 31
0.0
 11
-43.70909214019802
 21
10.99886512756305
 31
0.0
 11
-42.37291812896752
 21
10.37917709350606
 31
0.0
 11
-40.8611154556277
 21
10.05050086975105
 31
0.0
  0
SPLINE
  5
C944
330
1F
100
AcDbEntity
  8
AM_0
100
AcDbSpline
210
0.0
220
0.0
230
1.0
 70
     8
 71
     3
 72
    11
 73
     7
 74
     5
 42
0.0000000001
 43
0.0000000001
 44
0.0000000001
 40
0.0
 40
0.0
 40
0.0
 40
0.0
 40
1.281519393442736
 40
2.563038786885442
 40
3.844559844704864
 40
5.126079238147575
 40
5.126079238147575
 40
5.126079238147575
 40
5.126079238147575
 10
-42.08817386627221
 20
15.72628021240206
 30
0.0
 10
-42.18136205046724
 20
15.30939552055028
 30
0.0
 10
-42.36773841885733
 20
14.47562613684672
 30
0.0
 10
-42.64729919980998
 20
13.22497064970685
 30
0.0
 10
-42.92687555141642
 20
11.97431864318704
 30
0.0
 10
-43.11324996474858
 20
11.14054825397091
 30
0.0
 10
-43.20643711090112
 20
10.72366333007804
 30
0.0
 11
-42.08817386627221
 21
15.72628021240206
 31
0.0
 11
-42.3677377700808
 21
14.47562599182103
 31
0.0
 11
-42.64730167388941
 21
13.22497177124004
 31
0.0
 11
-42.92687320709252
 21
11.97431755065904
 31
0.0
 11
-43.20643711090112
 21
10.72366333007804
 31
0.0
  0
SPLINE
  5
C945
330
1F
100
AcDbEntity
  8
AM_0
100
AcDbSpline
210
0.0
220
0.0
230
1.0
 70
     8
 71
     3
 72
    11
 73
     7
 74
     5
 42
0.0000000001
 43
0.0000000001
 44
0.0000000001
 40
0.0
 40
0.0
 40
0.0
 40
0.0
 40
0.0231936417112905
 40
0.0421391258958838
 40
0.0613486535569298
 40
0.0846779211465811
 40
0.0846779211465811
 40
0.0846779211465811
 40
0.0846779211465811
 10
-46.91504001617445
 20
-15.67761611938497
 30
0.0
 10
-46.92029054632014
 20
-15.68342857242984
 30
0.0
 10
-46.92982991722113
 20
-15.69398886708606
 30
0.0
 10
-46.93445679065979
 20
-15.71506264793656
 30
0.0
 10
-46.92695752646126
 20
-15.73517061143252
 30
0.0
 10
-46.91668405450041
 20
-15.74510985014308
 30
0.0
 10
-46.91104984283464
 20
-15.75056076049796
 30
0.0
 11
-46.91504001617445
 21
-15.67761611938497
 31
0.0
 11
-46.92886447906514
 21
-15.69623947143598
 31
0.0
 11
-46.93257999420185
 21
-15.71481704711898
 31
0.0
 11
-46.92642307281514
 21
-15.73301315307597
 31
0.0
 11
-46.91104984283464
 21
-15.75056076049796
 31
0.0
  0
SPLINE
  5
C946
330
1F
100
AcDbEntity
  8
AM_0
100
AcDbSpline
210
0.0
220
0.0
230
1.0
 70
     8
 71
     3
 72
    11
 73
     7
 74
     5
 42
0.0000000001
 43
0.0000000001
 44
0.0000000001
 40
0.0
 40
0.0
 40
0.0
 40
0.0
 40
0.0613080272962662
 40
0.1104699003820927
 40
0.1585686320536438
 40
0.2149123337481971
 40
0.2149123337481971
 40
0.2149123337481971
 40
0.2149123337481971
 10
-47.70618534088154
 20
-14.88809585571299
 30
0.0
 10
-47.72144907578921
 20
-14.90208234793622
 30
0.0
 10
-47.74895254228567
 20
-14.92728437238121
 30
0.0
 10
-47.76578364870478
 20
-14.98062552854823
 30
0.0
 10
-47.75028028635648
 20
-15.03222953379021
 30
0.0
 10
-47.72600843535601
 20
-15.05762883082513
 30
0.0
 10
-47.71291446685806
 20
-15.07133102416996
 30
0.0
 11
-47.70618534088154
 21
-14.88809585571299
 31
0.0
 11
-47.74711704254165
 21
-14.93373870849596
 31
0.0
 11
-47.76075077056904
 21
-14.98097229003899
 31
0.0
 11
-47.74820041656513
 21
-15.02740478515597
 31
0.0
 11
-47.71291446685806
 21
-15.07133102416996
 31
0.0
  0
SPLINE
  5
C947
330
1F
100
AcDbEntity
  8
AM_0
100
AcDbSpline
210
0.0
220
0.0
230
1.0
 70
     8
 71
     3
 72
    11
 73
     7
 74
     5
 42
0.0000000001
 43
0.0000000001
 44
0.0000000001
 40
0.0
 40
0.0
 40
0.0
 40
0.0
 40
0.0095074868629115
 40
0.0184107361275832
 40
0.0267310770881205
 40
0.034475404861659
 40
0.034475404861659
 40
0.034475404861659
 40
0.034475404861659
 10
-46.88751316070574
 20
-15.65697860717796
 30
0.0
 10
-46.89020705766397
 20
-15.65864931629568
 30
0.0
 10
-46.89542364399932
 20
-15.66188455449855
 30
0.0
 10
-46.90269521793156
 20
-15.66704090385502
 30
0.0
 10
-46.90925015277001
 20
-15.67218316556193
 30
0.0
 10
-46.91315675326778
 20
-15.67584894809026
 30
0.0
 10
-46.91504001617445
 20
-15.67761611938497
 30
0.0
 11
-46.88751316070574
 21
-15.65697860717796
 31
0.0
 11
-46.89553928375263
 21
-15.66207504272496
 31
0.0
 11
-46.90281009674083
 21
-15.66721343994194
 31
0.0
 11
-46.90931797027604
 21
-15.67239761352596
 31
0.0
 11
-46.91504001617445
 21
-15.67761611938497
 31
0.0
  0
SPLINE
  5
C948
330
1F
100
AcDbEntity
  8
AM_0
100
AcDbSpline
210
0.0
220
0.0
230
1.0
 70
     8
 71
     3
 72
    11
 73
     7
 74
     5
 42
0.0000000001
 43
0.0000000001
 44
0.0000000001
 40
0.0
 40
0.0
 40
0.0
 40
0.0
 40
0.2246699316345082
 40
0.4405299987938764
 40
0.6351961717011696
 40
0.7888666214016271
 40
0.7888666214016271
 40
0.7888666214016271
 40
0.7888666214016271
 10
-46.94459629058854
 20
-14.72122573852597
 30
0.0
 10
-47.01952379425663
 20
-14.7241592246463
 30
0.0
 10
-47.1664407085958
 20
-14.72991116763063
 30
0.0
 10
-47.37558498893908
 20
-14.76119215020318
 30
0.0
 10
-47.56123033366566
 20
-14.80277049469773
 30
0.0
 10
-47.66181285616181
 20
-14.86197672847086
 30
0.0
 10
-47.70618534088154
 20
-14.88809585571299
 30
0.0
 11
-46.94459629058854
 21
-14.72122573852597
 31
0.0
 11
-47.16889286041275
 21
-14.73417282104495
 31
0.0
 11
-47.38253879547136
 21
-14.76501083373996
 31
0.0
 11
-47.57033634185805
 21
-14.81626510620098
 31
0.0
 11
-47.70618534088154
 21
-14.88809585571299
 31
0.0
  0
ELLIPSE
  5
C949
330
1F
100
AcDbEntity
  8
AM_0
100
AcDbEllipse
 10
-32.73200368881247
 20
0.000000000000086
 30
0.0
 11
14.20090532279115
 21
15.73119630439303
 31
0.0
210
0.0
220
0.0
230
1.0
 40
0.2724503109444
 41
3.146642438138858
 42
3.382897179961942
  0
ELLIPSE
  5
C94A
330
1F
100
AcDbEntity
  8
AM_0
100
AcDbEllipse
 10
-33.91098928451557
 20
0.0000000000000804
 30
0.0
 11
13.76428269156026
 21
15.10610906142703
 31
0.0
210
0.0
220
0.0
230
1.0
 40
0.4251551037111999
 41
3.135697432551168
 42
3.251580243033131
  0
ELLIPSE
  5
C94B
330
1F
100
AcDbEntity
  8
AM_0
100
AcDbEllipse
 10
46.89356613159071
 20
-0.0000038146967435
 30
0.0
 11
335.5376681764489
 21
-7.678678511804172
 31
0.0
210
0.0
220
0.0
230
0.9999999999999998
 40
0.0425125828838
 41
1.840759146393583
 42
1.859031847856023
  0
ELLIPSE
  5
C94C
330
1F
100
AcDbEntity
  8
AM_0
100
AcDbEllipse
 10
-32.73200368881247
 20
0.000000000000086
 30
0.0
 11
14.20090532279115
 21
15.73119630439303
 31
0.0
210
0.0
220
0.0
230
1.0
 40
0.2724503109444
 41
3.382897179961942
 42
3.453969207480828
  0
ELLIPSE
  5
C94D
330
1F
100
AcDbEntity
  8
AM_0
100
AcDbEllipse
 10
-41.2766733169558
 20
10.07403945922807
 30
0.0
 11
2.5176468426921
 21
0.0428980659780072
 31
0.0
210
0.0
220
0.0
230
1.0
 40
0.8976720594009998
 41
2.299488759165978
 42
2.410610812099462
  0
ELLIPSE
  5
C94E
330
1F
100
AcDbEntity
  8
AM_0
100
AcDbEllipse
 10
-43.42885684967063
 20
17.24923229217504
 30
0.0
 11
0.1287158764063801
 21
8.125762067685801
 31
0.0
210
0.0
220
0.0
230
1.0
 40
0.0590267240764
 41
3.936884641499794
 42
3.991357049608506
  0
ELLIPSE
  5
C94F
330
1F
100
AcDbEntity
  8
AM_0
100
AcDbEllipse
 10
-41.34699344635031
 20
10.30847740173307
 30
0.0
 11
2.5176468426921
 21
0.0428980659780072
 31
0.0
210
0.0
220
0.0
230
1.0
 40
0.8976720594009998
 41
2.355940516632681
 42
2.80454633846802
  0
ELLIPSE
  5
C950
330
1F
100
AcDbEntity
  8
AM_0
100
AcDbEllipse
 10
-40.80687046051046
 20
0.0000000000000476
 30
0.0
 11
8.194198256469638
 21
-16.16782835287998
 31
0.0
210
0.0
220
0.0
230
1.0
 40
0.1245258927485
 41
2.409136992547466
 42
3.078577695292627
  0
ELLIPSE
  5
C951
330
1F
100
AcDbEntity
  8
AM_0
100
AcDbEllipse
 10
-45.55629062652607
 20
-0.0000038146969564
 30
0.0
 11
3.185257085805358
 21
16.19926059269999
 31
0.0
210
0.0
220
0.0
230
1.0
 40
0.048660823421
 41
6.013840185669164
 42
6.069582457819302
  0
ELLIPSE
  5
C952
330
1F
100
AcDbEntity
  8
AM_0
100
AcDbEllipse
 10
-46.78609561920183
 20
-18.73365783691398
 30
0.0
 11
2.237083374356592
 21
2.843601384574006
 31
0.0
210
0.0
220
0.0
230
1.0
 40
0.0760366043311
 41
0.4388725132595967
 42
0.5027880941541622
  0
LINE
  5
C954
330
1F
100
AcDbEntity
  8
AM_3
100
AcDbLine
 10
-227.0000000000004
 20
2.999998092650584
 30
0.0
 11
-50.00000095367449
 21
2.999998092651029
 31
0.0
  0
LINE
  5
C955
330
1F
100
AcDbEntity
  8
AM_3
100
AcDbLine
 10
-227.0000000000002
 20
-3.000000000000383
 30
0.0
 11
-50.00000095367449
 21
-2.999999999999966
 31
0.0
  0
LINE
  5
C956
330
1F
100
AcDbEntity
  8
AM_0
100
AcDbLine
 10
-227.0000000000003
 20
15.99999809265057
 30
0.0
 11
-53.00000095367433
 21
15.99999809265101
 31
0.0
  0
LINE
  5
C957
330
1F
100
AcDbEntity
  8
AM_0
100
AcDbLine
 10
-227.0000000000002
 20
-16.00000000000038
 30
0.0
 11
-53.00000095367424
 21
-15.99999999999997
 31
0.0
  0
LINE
  5
C95A
330
1F
100
AcDbEntity
  8
AM_0
100
AcDbLine
 10
-53.00000095367424
 20
-15.99999999999997
 30
0.0
 11
-53.00000095367433
 21
15.99999809265101
 31
0.0
  0
LINE
  5
C95B
330
1F
100
AcDbEntity
  8
AM_0
100
AcDbLine
 10
-50.00000095367446
 20
-15.70000076293996
 30
0.0
 11
-50.00000095367453
 21
15.69999885559102
 31
0.0
  0
LINE
  5
C95C
330
1F
100
AcDbEntity
  8
AM_0
100
AcDbLine
 10
-49.50000095367446
 20
-16.20000076293995
 30
0.0
 11
-49.50000095367453
 21
16.19999885559102
 31
0.0
  0
LINE
  5
C95F
330
1F
100
AcDbEntity
  8
AM_0
100
AcDbLine
 10
-50.00000095367447
 20
-15.29998779296897
 30
0.0
 11
-50.00000095367452
 21
15.29998588562002
 31
0.0
  0
LINE
  5
C963
330
1F
100
AcDbEntity
  8
AM_0
100
AcDbLine
 10
-42.2761211395266
 20
15.57337570190404
 30
0.0
 11
-43.17677855491663
 21
11.55093383789006
 31
0.0
  0
LINE
  5
C964
330
1F
100
AcDbEntity
  8
AM_0
100
AcDbLine
 10
-42.27625083923361
 20
15.79576492309505
 30
0.0
 11
-43.15371537208582
 21
11.87691879272404
 31
0.0
  0
LINE
  5
C965
330
1F
100
AcDbEntity
  8
AM_0
100
AcDbLine
 10
-42.08832311630272
 20
15.72563552856406
 30
0.0
 11
-42.08947539329552
 21
15.72775268554705
 31
0.0
  0
LINE
  5
C966
330
1F
100
AcDbEntity
  8
AM_0
100
AcDbLine
 10
-42.08947062492391
 20
15.72775650024406
 30
0.0
 11
-42.08817529678372
 21
15.72628593444805
 31
0.0
  0
LINE
  5
C967
330
1F
100
AcDbEntity
  8
AM_0
100
AcDbLine
 10
-50.00000095367452
 20
15.49999809265103
 30
0.0
 11
-53.00000095367432
 21
15.49999809265101
 31
0.0
  0
LINE
  5
C968
330
1F
100
AcDbEntity
  8
AM_0
100
AcDbLine
 10
-48.85797977447531
 20
16.19999885559106
 30
0.0
 11
-49.50000095367453
 21
16.19999885559102
 31
0.0
  0
LINE
  5
C969
330
1F
100
AcDbEntity
  8
AM_0
100
AcDbLine
 10
-49.50000000000021
 20
16.19999504089304
 30
0.0
 11
-50.00000000000022
 21
15.69999504089303
 31
0.0
  0
LINE
  5
C96A
330
1F
100
AcDbEntity
  8
AM_0
100
AcDbLine
 10
-50.00000095367449
 20
2.999998092651029
 30
0.0
 11
-50.00000095367449
 21
-2.999999999999966
 31
0.0
  0
LINE
  5
C96B
330
1F
100
AcDbEntity
  8
AM_0
100
AcDbLine
 10
-50.00000095367449
 20
-2.552547454833951
 30
0.0
 11
-50.00000095367448
 21
-0.0473937988279791
 31
0.0
  0
LINE
  5
C96C
330
1F
100
AcDbEntity
  8
AM_0
100
AcDbLine
 10
-50.00000095367449
 20
3.000026702881033
 30
0.0
 11
-50.00000095367449
 21
-2.999969482421955
 31
0.0
  0
LINE
  5
C96D
330
1F
100
AcDbEntity
  8
AM_0
100
AcDbLine
 10
-50.00000095367448
 20
0.4420204162600254
 30
0.0
 11
-50.00000095367449
 21
2.95797729492202
 31
0.0
  0
LINE
  5
C96E
330
1F
100
AcDbEntity
  8
AM_0
100
AcDbLine
 10
-50.00000095367448
 20
0.443183898926041
 30
0.0
 11
-50.00000095367449
 21
2.956871032715046
 31
0.0
  0
LINE
  5
C970
330
1F
100
AcDbEntity
  8
AM_0
100
AcDbLine
 10
-49.50000095367446
 20
-16.20000076293995
 30
0.0
 11
-45.49833774566664
 21
-16.20000076293996
 31
0.0
  0
LINE
  5
C971
330
1F
100
AcDbEntity
  8
AM_0
100
AcDbLine
 10
-43.27939009666465
 20
-14.64248275756895
 30
0.0
 11
-44.85054063797013
 21
-16.08510208129897
 31
0.0
  0
LINE
  5
C972
330
1F
100
AcDbEntity
  8
AM_0
100
AcDbLine
 10
-46.91105222702043
 20
-15.75056457519597
 30
0.0
 11
-45.83921146392833
 21
-14.69765090942397
 31
0.0
  0
LINE
  5
C973
330
1F
100
AcDbEntity
  8
AM_0
100
AcDbLine
 10
-47.71291494369524
 20
-15.07133102416996
 30
0.0
 11
-47.32309055328387
 21
-14.75443649291996
 31
0.0
  0
LINE
  5
C974
330
1F
100
AcDbEntity
  8
AM_0
100
AcDbLine
 10
-53.00000095367425
 20
-15.49999999999997
 30
0.0
 11
-50.00000095367447
 21
-15.49999999999996
 31
0.0
  0
LINE
  5
C975
330
1F
100
AcDbEntity
  8
AM_0
100
AcDbLine
 10
-49.99999904632585
 20
-15.69999694824195
 30
0.0
 11
-49.49999904632585
 21
-16.19999694824194
 31
0.0
  0
ARC
  5
C976
330
1F
100
AcDbEntity
  8
AM_0
100
AcDbCircle
 10
-228.0000000000002
 20
-13.66149902343837
 30
0.0
 40
2.0
100
AcDbArc
 50
180.000005008957
 51
254.9999781814039
  0
LINE
  5
C977
330
1F
100
AcDbEntity
  8
AM_0
100
AcDbLine
 10
-227.0000000000002
 20
-16.00000000000038
 30
0.0
 11
-227.0000000000003
 21
15.99999809265057
 31
0.0
  0
LINE
  5
C978
330
1F
100
AcDbEntity
  8
AM_0
100
AcDbLine
 10
-230.0000000000002
 20
-13.66149902343838
 30
0.0
 11
-230.0000000000002
 21
13.66149711608861
 31
0.0
  0
ARC
  5
C979
330
1F
100
AcDbEntity
  8
AM_0
100
AcDbCircle
 10
-228.0000000000002
 20
13.66149711608862
 30
0.0
 40
2.000000476837199
100
AcDbArc
 50
105.0000218185963
 51
180.000005008957
  0
LINE
  5
C97A
330
1F
100
AcDbEntity
  8
AM_0
100
AcDbLine
 10
-227.0000000000003
 20
15.99999809265057
 30
0.0
 11
-228.5176391601604
 21
15.5933513641356
 31
0.0
  0
LINE
  5
C97C
330
1F
100
AcDbEntity
  8
AM_3
100
AcDbLine
 10
-226.9999923706103
 20
2.999996185302605
 30
0.0
 11
-230.0000000000003
 21
4.732048034667598
 31
0.0
  0
LINE
  5
C97D
330
1F
100
AcDbEntity
  8
AM_3
100
AcDbLine
 10
-226.9999923706102
 20
-3.000003814697393
 30
0.0
 11
-230.0000000000003
 21
-4.732055664063381
 31
0.0
  0
LINE
  5
C97E
330
1F
100
AcDbEntity
  8
AM_0
100
AcDbLine
 10
-228.5176315307602
 20
-15.59335708618237
 30
0.0
 11
-226.9999847412103
 21
-16.00000381469739
 31
0.0
  0
DIMENSION
  5
CA70
330
1F
100
AcDbEntity
  8
AM_5
100
AcDbDimension
  2
*D2
 10
-0.0000000000002472
 20
31.50000100000016
 30
0.0
 11
-19.50000000000024
 21
34.60000100000019
 31
0.0
 70
    32
  1
<>
 71
     5
 42
-1.0
 51
359.9999999999998
  3
AM_JIS$0
100
AcDbAlignedDimension
 13
-39.00000000000027
 23
17.50000000000008
 33
0.0
 14
-0.0000000000002729
 24
17.50000000000016
 34
0.0
 50
180.0
100
AcDbRotatedDimension
1001
GENIUS_GENDTOL_13
1000

1000
h7
1000

1040
0.0
1001
ACAD
1000
DSTYLE
1002
{
1070
   287
1070
     3
1070
   147
1040
3.0
1070
    44
1040
2.0
1070
    41
1040
5.0
1070
    40
1040
0.5
1070
    42
1040
2.0
1070
    43
1040
12.0
1070
    48
1040
0.1
1070
    78
1070
     8
1070
   140
1040
6.4
1070
   176
1070
   256
1070
   177
1070
   256
1070
   271
1070
     1
1070
   272
1070
     3
1070
   275
1070
     0
1070
   284
1070
     0
1070
   289
1070
     3
1070
   340
1005
6B
1070
   371
1070
    -1
1070
   372
1070
    -1
1002
}
  0
DIMENSION
  5
CB45
330
1F
100
AcDbEntity
  8
AM_5
100
AcDbDimension
  2
*D3
 10
21.92174026514294
 20
-17.49999999999984
 30
0.0
 11
18.82174026514294
 21
0.0000000000001642
 31
0.0
 70
    32
  1
%%c<>
 71
     5
 42
-1.0
 51
359.9999999999998
  3
AM_JIS$0
100
AcDbAlignedDimension
 13
-0.00000000000027
 23
17.50000000000016
 33
0.0
 14
-0.0000000000002056
 24
-17.49999999999983
 34
0.0
 50
90.0
100
AcDbRotatedDimension
1001
GENIUS_GENDTOL_13
1000

1000
h7
1000

1040
0.0
1001
ACAD
1000
DSTYLE
1002
{
1070
   287
1070
     3
1070
   147
1040
3.0
1070
    44
1040
2.0
1070
    41
1040
5.0
1070
    40
1040
0.5
1070
    42
1040
2.0
1070
    43
1040
12.0
1070
    48
1040
0.1
1070
    78
1070
     8
1070
   140
1040
6.4
1070
   176
1070
   256
1070
   177
1070
   256
1070
   271
1070
     0
1070
   272
1070
     3
1070
   275
1070
     0
1070
   284
1070
     0
1070
   289
1070
     3
1070
   340
1005
6B
1070
   371
1070
    -1
1070
   372
1070
    -1
1002
}
  0
DIMENSION
  5
CBF5
330
1F
100
AcDbEntity
  8
AM_5
100
AcDbDimension
  2
*D4
 10
-50.00000095367445
 20
-31.50000099999993
 30
0.0
 11
-25.00000047683732
 21
-28.40000099999993
 31
0.0
 70
    32
  1
<>
 71
     5
 42
-1.0
 51
359.9999999999998
  3
AM_JIS$0
100
AcDbAlignedDimension
 13
-0.0000000000002056
 23
-17.49999999999983
 33
0.0
 14
-50.00000095367445
 24
-15.69999885559093
 34
0.0
100
AcDbRotatedDimension
1001
GENIUS_GENDTOL_13
1000

1000
h7
1000

1040
0.0
1001
ACAD
1000
DSTYLE
1002
{
1070
   287
1070
     3
1070
   147
1040
3.0
1070
    44
1040
2.0
1070
    41
1040
5.0
1070
    40
1040
0.5
1070
    42
1040
2.0
1070
    43
1040
12.0
1070
    48
1040
0.1
1070
    78
1070
     8
1070
   140
1040
6.4
1070
   176
1070
   256
1070
   177
1070
   256
1070
   271
1070
     1
1070
   272
1070
     3
1070
   275
1070
     0
1070
   284
1070
     0
1070
   289
1070
     3
1070
   340
1005
6B
1070
   371
1070
    -1
1070
   372
1070
    -1
1002
}
  0
DIMENSION
  5
CC8A
330
1F
100
AcDbEntity
  8
AM_5
100
AcDbDimension
  2
*D5
 10
-230.0000004768374
 20
-31.50000099999993
 30
0.0
 11
-140.0000007152559
 21
-28.40000099999993
 31
0.0
 70
    32
  1
<>
 71
     5
 42
-1.0
 51
359.9999999999998
  3
AM_JIS$0
100
AcDbAlignedDimension
 13
-50.00000095367445
 23
-15.69999885559093
 33
0.0
 14
-230.0000004768374
 24
-13.66149694124376
 34
0.0
100
AcDbRotatedDimension
1001
GENIUS_GENDTOL_13
1000

1000
h7
1000

1040
0.0
1001
ACAD
1000
DSTYLE
1002
{
1070
   287
1070
     3
1070
   147
1040
3.0
1070
    44
1040
2.0
1070
    41
1040
5.0
1070
    40
1040
0.5
1070
    42
1040
2.0
1070
    43
1040
12.0
1070
    48
1040
0.1
1070
    78
1070
     8
1070
   140
1040
6.4
1070
   176
1070
   256
1070
   177
1070
   256
1070
   271
1070
     1
1070
   272
1070
     3
1070
   275
1070
     0
1070
   284
1070
     0
1070
   289
1070
     3
1070
   340
1005
6B
1070
   371
1070
    -1
1070
   372
1070
    -1
1002
}
  0
DIMENSION
  5
CD28
330
1F
100
AcDbEntity
  8
AM_5
100
AcDbDimension
  2
*D6
 10
-230.0000004768374
 20
-41.5000009999999
 30
0.0
 11
-115.0000002384188
 21
-38.40000099999993
 31
0.0
 70
    32
  1
<>
 71
     5
 42
-1.0
 51
359.9999999999998
  3
AM_JIS$0
100
AcDbAlignedDimension
 13
-0.0000000000002056
 23
-17.49999999999983
 33
0.0
 14
-230.0000004768374
 24
-13.66149694124376
 34
0.0
100
AcDbRotatedDimension
1001
GENIUS_GENDTOL_13
1000

1000
h7
1000

1040
0.0
1001
ACAD
1000
DSTYLE
1002
{
1070
   287
1070
     3
1070
   147
1040
3.0
1070
    44
1040
2.0
1070
    41
1040
5.0
1070
    40
1040
0.5
1070
    42
1040
2.0
1070
    43
1040
12.0
1070
    48
1040
0.1
1070
    78
1070
     8
1070
   140
1040
6.4
1070
   176
1070
   256
1070
   177
1070
   256
1070
   271
1070
     1
1070
   272
1070
     3
1070
   275
1070
     0
1070
   284
1070
     0
1070
   289
1070
     3
1070
   340
1005
6B
1070
   371
1070
    -1
1070
   372
1070
    -1
1002
}
  0
DIMENSION
  5
CDBD
330
1F
100
AcDbEntity
  8
AM_5
100
AcDbDimension
  2
*D7
 10
-249.8364090830269
 20
-15.99999809265133
 30
0.0
 11
-252.9364090830269
 21
0.0000028610226176
 31
0.0
 70
    32
  1
%%c<>
 71
     5
 42
-1.0
 51
359.9999999999998
  3
AM_JIS$0
100
AcDbAlignedDimension
 13
-226.9999847412103
 23
16.00000381469664
 33
0.0
 14
-227.0000000000002
 24
-15.99999809265133
 34
0.0
 50
270.0
100
AcDbRotatedDimension
1001
GENIUS_GENDTOL_13
1000

1000
h7
1000

1040
0.0
1001
ACAD
1000
DSTYLE
1002
{
1070
   287
1070
     3
1070
   147
1040
3.0
1070
    44
1040
2.0
1070
    41
1040
5.0
1070
    40
1040
0.5
1070
    42
1040
2.0
1070
    43
1040
12.0
1070
    48
1040
0.1
1070
    78
1070
     8
1070
   140
1040
6.4
1070
   176
1070
   256
1070
   177
1070
   256
1070
   271
1070
     1
1070
   272
1070
     3
1070
   275
1070
     0
1070
   284
1070
     0
1070
   289
1070
     3
1070
   340
1005
6B
1070
   371
1070
    -1
1070
   372
1070
    -1
1002
}
  0
LINE
  5
D073
330
1F
100
AcDbEntity
  8
AM_11
100
AcDbLine
 10
-0.0000000000001896
 20
-17.49999999999983
 30
0.0
 11
-0.0000000000002892
 21
17.50000000000015
 31
0.0
  0
LINE
  5
D083
330
1F
100
AcDbEntity
  8
AM_11
100
AcDbLine
 10
-39.00000000000019
 20
-17.49999999999994
 30
0.0
 11
-39.0000000000003
 21
17.50000000000006
 31
0.0
  0
LINE
  5
D099
330
1F
100
AcDbEntity
  8
AM_11
100
AcDbLine
 10
-0.0000000000002889
 20
17.50000000000015
 30
0.0
 11
-39.0000000000003
 21
17.50000000000005
 31
0.0
  0
LINE
  5
D09D
330
1F
100
AcDbEntity
  8
AM_11
100
AcDbLine
 10
-39.00000000000019
 20
-17.49999999999994
 30
0.0
 11
-0.0000000000001867
 21
-17.49999999999983
 31
0.0
  0
VIEWPORT
  5
110
102
{ACAD_XDICTIONARY
360
D455
102
}
330
101
100
AcDbEntity
 67
     1
  8
0
100
AcDbViewport
 10
420.5
 20
297.0
 30
0.0
 40
948.9782706766916
 41
628.452
 68
     1
 69
     1
 12
420.5
 22
297.0
 13
0.0
 23
0.0
 14
10.0
 24
10.0
 15
10.0
 25
10.0
 16
0.0
 26
0.0
 36
1.0
 17
0.0
 27
0.0
 37
0.0
 42
50.0
 43
0.0
 44
0.0
 45
628.452
 50
0.0
 51
0.0
 72
   100
 90
    32800
  1

281
     0
 71
     1
 74
     0
110
-0.0000000000002682
120
0.000000000000161
130
0.0
111
1.0
121
0.000000000000002
131
0.0
112
-0.000000000000002
122
1.0
132
0.0
 79
     0
146
0.0
1001
GENIUS_GENSCREG_15
1000
PF
1040
1.0
1000
DF
1040
1.0
1000
MIN
1011
-53.98913533834582
1021
-17.226
1031
0.0
1000
MAX
1011
894.9891353383458
1021
611.226
1031
0.0
1000
FLAGS
1070
     4
1001
GENIUS_GENOBJ-N-SDF_13
1002
{
1000
OWNER
1000
GEN
1002
}
1001
GENIUS_GENODEF_13
1002
{
1000
HIER
1070
     0
1002
}
1002
{
1000
MANEDIT
1070
     0
1002
}
1002
{
1000
NOSEL
1070
     0
1002
}
1002
{
1000
BEHIND
1070
     0
1002
}
1002
{
1000
OTHER
1070
     0
1002
}
1002
{
1000
REACTOR
1002
}
  0
ENDSEC
  0
SECTION
  2
OBJECTS
  0
DICTIONARY
  5
C
330
0
100
AcDbDictionary
281
     1
  3
ACAD_COLOR
350
D386
  3
ACAD_GROUP
350
D
  3
ACAD_LAYOUT
350
1A
  3
ACAD_MATERIAL
350
D385
  3
ACAD_MLINESTYLE
350
17
  3
ACAD_PLOTSETTINGS
350
19
  3
ACAD_PLOTSTYLENAME
350
E
  3
ACAD_TABLESTYLE
350
D387
  3
ACDBHEADERROUNDTRIPXREC
350
D454
  3
ACDBVARIABLEDICTIONARY
350
34
  3
ACMDICTIONARY
350
43
  3
AMG
350
2B
  3
AMGSNAPSETTINGS
350
6E
  3
DWGPROPS
350
D453
  0
DICTIONARY
  5
74
330
1F
100
AcDbDictionary
280
     1
281
     1
  3
ACAD_INDEX
360
D314
  3
ACAD_LAYOUTSELFREF
360
D342
  0
DICTIONARY
  5
D347
330
101
100
AcDbDictionary
280
     1
281
     1
  3
ACAD_LAYOUTSELFREF
360
D348
  0
DICTIONARY
  5
D455
330
110
100
AcDbDictionary
280
     1
281
     1
  3
ACAD_XREC_ROUNDTRIP
360
D456
  0
DICTIONARY
  5
D386
102
{ACAD_REACTORS
330
C
102
}
330
C
100
AcDbDictionary
281
     1
  0
DICTIONARY
  5
D
102
{ACAD_REACTORS
330
C
102
}
330
C
100
AcDbDictionary
281
     1
  0
DICTIONARY
  5
1A
102
{ACAD_REACTORS
330
C
102
}
330
C
100
AcDbDictionary
281
     1
  3
Model
350
D389
  3
レイアウト1
350
D38A
  0
DICTIONARY
  5
D385
102
{ACAD_REACTORS
330
C
102
}
330
C
100
AcDbDictionary
281
     1
  0
DICTIONARY
  5
17
102
{ACAD_REACTORS
330
C
102
}
330
C
100
AcDbDictionary
281
     1
  3
STANDARD
350
18
  0
DICTIONARY
  5
19
102
{ACAD_REACTORS
330
C
102
}
330
C
100
AcDbDictionary
281
     1
  3
ASAMI
350
399D
  0
ACDBDICTIONARYWDFLT
  5
E
102
{ACAD_REACTORS
330
C
102
}
330
C
100
AcDbDictionary
281
     1
  3
Normal
350
F
100
AcDbDictionaryWithDefault
340
F
  0
DICTIONARY
  5
D387
102
{ACAD_REACTORS
330
C
102
}
330
C
100
AcDbDictionary
281
     1
  3
Standard
350
D388
  0
DICTIONARY
  5
D454
102
{ACAD_REACTORS
330
C
102
}
330
C
100
AcDbDictionary
281
     1
  0
DICTIONARY
  5
34
102
{ACAD_REACTORS
330
C
102
}
330
C
100
AcDbDictionary
281
     1
  3
CTABLESTYLE
350
D44F
  3
DIMASSOC
350
D450
  3
INDEXCTL
350
35
  3
PROJECTNAME
350
D451
  3
SORTENTS
350
B5E
  0
DICTIONARY
  5
43
102
{ACAD_REACTORS
330
C
102
}
330
C
100
AcDbDictionary
281
     1
  3
ACMSTDDICTIONARY
350
260
  0
DICTIONARY
  5
2B
102
{ACAD_REACTORS
330
C
102
}
330
C
100
AcDbDictionary
281
     1
  0
DICTIONARY
  5
6E
102
{ACAD_REACTORS
330
C
102
}
330
C
100
AcDbDictionary
281
     1
  0
XRECORD
  5
D453
102
{ACAD_REACTORS
330
C
102
}
330
C
100
AcDbXrecord
280
     1
  1
DWGPROPS COOKIE
  2

  3

  4

  6

  7

  8
那須
  9

300
AmdtFileType=82
301
=
302
=
303
=
304
=
305
=
306
=
307
=
308
=
309
=
 40
1.020984224537037
 41
2452802.716478762
 42
2453691.656176389
  1

 90
        1
  0
DICTIONARY
  5
D314
102
{ACAD_REACTORS
330
74
102
}
330
74
100
AcDbDictionary
281
     1
  3
*A1
350
D315
  0
XRECORD
  5
D342
102
{ACAD_REACTORS
330
74
102
}
330
74
100
AcDbXrecord
280
     1
340
1F
  0
XRECORD
  5
D348
102
{ACAD_REACTORS
330
D347
102
}
330
D347
100
AcDbXrecord
280
     1
340
101
  0
XRECORD
  5
D456
102
{ACAD_REACTORS
330
D455
102
}
330
D455
100
AcDbXrecord
280
     1
102
SHADEPLOT
 70
     0
  0
LAYOUT
  5
D389
102
{ACAD_XDICTIONARY
360
D459
102
}
102
{ACAD_REACTORS
330
1A
102
}
330
1A
100
AcDbPlotSettings
  1

  2
SII LP-2150 (D-SCAN C2)
  4

  6

 40
0.0
 41
0.0
 42
0.0
 43
0.0
 44
0.0
 45
0.0
 46
0.0
 47
0.0
 48
0.0
 49
0.0
140
0.0
141
0.0
142
1.0
143
1.0
 70
  1712
 72
     0
 73
     0
 74
     0
  7
sei_cad.ctb
 75
     0
147
1.0
148
0.0
149
0.0
100
AcDbLayout
  1
Model
 70
     1
 71
     0
 10
0.0
 20
0.0
 11
12.0
 21
9.0
 12
0.0
 22
0.0
 32
0.0
 14
0.0
 24
0.0
 34
0.0
 15
0.0
 25
0.0
 35
0.0
146
0.0
 13
0.0
 23
0.0
 33
0.0
 16
1.0
 26
0.0
 36
0.0
 17
0.0
 27
1.0
 37
0.0
 76
     0
330
1F
  0
LAYOUT
  5
D38A
102
{ACAD_XDICTIONARY
360
D45B
102
}
102
{ACAD_REACTORS
330
1A
102
}
330
1A
100
AcDbPlotSettings
  1

  2
SII LP-2150 (D-SCAN C2)
  4

  6

 40
0.0
 41
0.0
 42
0.0
 43
0.0
 44
0.0
 45
0.0
 46
0.0
 47
0.0
 48
0.0
 49
0.0
140
0.0
141
0.0
142
1.0
143
1.0
 70
   688
 72
     0
 73
     0
 74
     5
  7
sei_cad.ctb
 75
    16
147
1.0
148
0.0
149
0.0
100
AcDbLayout
  1
レイアウト1
 70
     0
 71
     1
 10
0.0
 20
0.0
 11
841.0
 21
594.0
 12
0.0
 22
0.0
 32
0.0
 14
1.000000000000000E+20
 24
1.000000000000000E+20
 34
1.000000000000000E+20
 15
-1.000000000000000E+20
 25
-1.000000000000000E+20
 35
-1.000000000000000E+20
146
0.0
 13
0.0
 23
0.0
 33
0.0
 16
1.0
 26
0.0
 36
0.0
 17
0.0
 27
1.0
 37
0.0
 76
     0
330
101
331
110
  0
MLINESTYLE
  5
18
102
{ACAD_REACTORS
330
17
102
}
330
17
100
AcDbMlineStyle
  2
STANDARD
 70
     0
  3

 62
   256
 51
90.0
 52
90.0
 71
     2
 49
0.5
 62
   256
  6
BYLAYER
 49
-0.5
 62
   256
  6
BYLAYER
  0
PLOTSETTINGS
  5
399D
102
{ACAD_XDICTIONARY
360
D457
102
}
102
{ACAD_REACTORS
330
19
102
}
330
19
100
AcDbPlotSettings
  1
asami
  2
RICOH imagio MF1540
  4
A4
  6

 40
5.831416606903076
 41
7.651742935180664
 42
4.90008544921875
 43
5.789077758789062
 44
296.9683227539062
 45
209.9733276367186
 46
0.0
 47
0.0
 48
-156.6707931774246
 49
-74.57609991074048
140
58.59973180214831
141
60.61068161925597
142
1.0
143
1.095343097833084
 70
  1712
 72
     1
 73
     1
 74
     4
  7
asami.ctb
 75
     0
147
0.9129559514076438
148
156.6707931774246
149
74.57609991074048
  0
ACDBPLACEHOLDER
  5
F
102
{ACAD_REACTORS
330
E
102
}
330
E
  0
TABLESTYLE
  5
D388
102
{ACAD_REACTORS
330
D387
102
}
330
D387
100
AcDbTableStyle
  3
Standard
 70
     0
 71
     0
 40
1.5
 41
1.5
280
     0
281
     0
  7
STANDARD
140
4.5
170
     2
 62
     0
 63
     7
283
     0
274
    -2
284
     1
 64
     0
275
    -2
285
     1
 65
     0
276
    -2
286
     1
 66
     0
277
    -2
287
     1
 67
     0
278
    -2
288
     1
 68
     0
279
    -2
289
     1
 69
     0
  7
STANDARD
140
6.0
170
     5
 62
     0
 63
     7
283
     0
274
    -2
284
     1
 64
     0
275
    -2
285
     1
 65
     0
276
    -2
286
     1
 66
     0
277
    -2
287
     1
 67
     0
278
    -2
288
     1
 68
     0
279
    -2
289
     1
 69
     0
  7
STANDARD
140
4.5
170
     5
 62
     0
 63
     7
283
     0
274
    -2
284
     1
 64
     0
275
    -2
285
     1
 65
     0
276
    -2
286
     1
 66
     0
277
    -2
287
     1
 67
     0
278
    -2
288
     1
 68
     0
279
    -2
289
     1
 69
     0
  0
DICTIONARYVAR
  5
D44F
102
{ACAD_REACTORS
330
34
102
}
330
34
100
DictionaryVariables
280
     0
  1
STANDARD
  0
DICTIONARYVAR
  5
D450
102
{ACAD_REACTORS
330
34
102
}
330
34
100
DictionaryVariables
280
     0
  1
1
  0
DICTIONARYVAR
  5
35
102
{ACAD_REACTORS
330
34
102
}
330
34
100
DictionaryVariables
280
     0
  1
1
  0
DICTIONARYVAR
  5
D451
102
{ACAD_REACTORS
330
34
102
}
330
34
100
DictionaryVariables
280
     0
  1

  0
DICTIONARYVAR
  5
B5E
102
{ACAD_REACTORS
330
34
102
}
330
34
100
DictionaryVariables
280
     0
  1
96
  0
DICTIONARY
  5
260
102
{ACAD_REACTORS
330
43
102
}
330
43
100
AcDbDictionary
281
     1
  0
LAYER_INDEX
  5
D315
102
{ACAD_REACTORS
330
D314
102
}
330
D314
100
AcDbIndex
 40
2453691.656176389
100
AcDbLayerIndex
  8
0
360
D316
 90
        0
  8
AM_0
360
D317
 90
      265
  8
AM_5
360
D318
 90
        6
  8
AM_7
360
D319
 90
        1
  8
AM_6
360
D31A
 90
        1
  8
DEFPOINTS
360
D31B
 90
        0
  8
AM_3
360
D31C
 90
        9
  8
AM_11
360
D31D
 90
        4
  0
DICTIONARY
  5
D459
330
D389
100
AcDbDictionary
280
     1
281
     1
  3
ACAD_XREC_ROUNDTRIP
360
D45A
  0
DICTIONARY
  5
D45B
330
D38A
100
AcDbDictionary
280
     1
281
     1
  3
ACAD_XREC_ROUNDTRIP
360
D45C
  0
DICTIONARY
  5
D457
330
399D
100
AcDbDictionary
280
     1
281
     1
  3
ACAD_XREC_ROUNDTRIP
360
D458
  0
IDBUFFER
  5
D316
330
0
100
AcDbIdBuffer
  0
IDBUFFER
  5
D317
330
0
100
AcDbIdBuffer
330
C731
330
C732
330
C733
330
C734
330
C74C
330
C74E
330
C74F
330
C750
330
C754
330
C755
330
C756
330
C757
330
C758
330
C759
330
C75A
330
C75B
330
C75C
330
C75D
330
C75E
330
C75F
330
C760
330
C761
330
C762
330
C763
330
C764
330
C765
330
C766
330
C767
330
C768
330
C769
330
C76A
330
C76B
330
C76C
330
C76D
330
C76E
330
C76F
330
C770
330
C77F
330
C780
330
C781
330
C782
330
C783
330
C784
330
C785
330
C786
330
C78E
330
C78F
330
C790
330
C791
330
C792
330
C7A5
330
C7A6
330
C7A7
330
C7A8
330
C7A9
330
C7AA
330
C7AB
330
C7AC
330
C7AD
330
C7AE
330
C7AF
330
C7B0
330
C7B2
330
C7B3
330
C7B4
330
C7B5
330
C7B6
330
C7B7
330
C7B8
330
C7B9
330
C7BA
330
C7BF
330
C7C7
330
C7C8
330
C7C9
330
C7CA
330
C7CB
330
C7CC
330
C7CD
330
C7CE
330
C7CF
330
C7D0
330
C7D1
330
C7D2
330
C7D3
330
C7D4
330
C7D5
330
C7D6
330
C7DC
330
C7DD
330
C7DE
330
C7DF
330
C7E0
330
C7E1
330
C7E2
330
C805
330
C806
330
C807
330
C808
330
C80D
330
C80E
330
C80F
330
C810
330
C8CD
330
C8CE
330
C8CF
330
C8D0
330
C8D1
330
C8D2
330
C8D3
330
C8D4
330
C8D5
330
C8D6
330
C8D8
330
C8D9
330
C8DA
330
C8DB
330
C8DC
330
C8DD
330
C8DE
330
C8DF
330
C8E0
330
C8E1
330
C8E2
330
C8E3
330
C8E4
330
C8E5
330
C8E6
330
C8E7
330
C8E8
330
C8E9
330
C8EA
330
C8EB
330
C8EC
330
C8ED
330
C8EE
330
C8EF
330
C8F0
330
C8F1
330
C8F2
330
C8F3
330
C8F4
330
C8F5
330
C8F6
330
C8F7
330
C8F9
330
C8FA
330
C8FB
330
C8FC
330
C8FD
330
C8FE
330
C8FF
330
C900
330
C901
330
C902
330
C903
330
C904
330
C905
330
C906
330
C907
330
C908
330
C909
330
C90A
330
C90B
330
C90C
330
C90D
330
C90E
330
C90F
330
C910
330
C911
330
C912
330
C913
330
C914
330
C915
330
C916
330
C917
330
C918
330
C919
330
C91A
330
C91B
330
C91C
330
C91D
330
C91E
330
C91F
330
C920
330
C921
330
C922
330
C923
330
C924
330
C925
330
C926
330
C927
330
C928
330
C929
330
C92A
330
C92B
330
C92C
330
C92D
330
C92E
330
C92F
330
C930
330
C931
330
C932
330
C933
330
C934
330
C935
330
C936
330
C937
330
C938
330
C939
330
C93A
330
C93B
330
C93C
330
C93D
330
C93E
330
C93F
330
C940
330
C941
330
C942
330
C943
330
C944
330
C945
330
C946
330
C947
330
C948
330
C949
330
C94A
330
C94B
330
C94C
330
C94D
330
C94E
330
C94F
330
C950
330
C951
330
C952
330
C956
330
C957
330
C95A
330
C95B
330
C95C
330
C95F
330
C963
330
C964
330
C965
330
C966
330
C967
330
C968
330
C969
330
C96A
330
C96B
330
C96C
330
C96D
330
C96E
330
C970
330
C971
330
C972
330
C973
330
C974
330
C975
330
C976
330
C977
330
C978
330
C979
330
C97A
330
C97E
  0
IDBUFFER
  5
D318
330
0
100
AcDbIdBuffer
330
CA70
330
CB45
330
CBF5
330
CC8A
330
CD28
330
CDBD
  0
IDBUFFER
  5
D319
330
0
100
AcDbIdBuffer
330
C739
  0
IDBUFFER
  5
D31A
330
0
100
AcDbIdBuffer
330
388D
  0
IDBUFFER
  5
D31B
330
0
100
AcDbIdBuffer
  0
IDBUFFER
  5
D31C
330
0
100
AcDbIdBuffer
330
C736
330
C737
330
C7E6
330
C7E7
330
C8F8
330
C954
330
C955
330
C97C
330
C97D
  0
IDBUFFER
  5
D31D
330
0
100
AcDbIdBuffer
330
D073
330
D083
330
D099
330
D09D
  0
XRECORD
  5
D45A
102
{ACAD_REACTORS
330
D459
102
}
330
D459
100
AcDbXrecord
280
     1
102
SHADEPLOT
 70
     0
102
SHADEPLOTRESLEVEL
 70
     2
102
SHADEPLOTCUSTOMDPI
 70
   300
  0
XRECORD
  5
D45C
102
{ACAD_REACTORS
330
D45B
102
}
330
D45B
100
AcDbXrecord
280
     1
102
SHADEPLOT
 70
     0
102
SHADEPLOTRESLEVEL
 70
     2
102
SHADEPLOTCUSTOMDPI
 70
   300
  0
XRECORD
  5
D458
102
{ACAD_REACTORS
330
D457
102
}
330
D457
100
AcDbXrecord
280
     1
102
SHADEPLOT
 70
     0
102
SHADEPLOTRESLEVEL
 70
     2
102
SHADEPLOTCUSTOMDPI
 70
   300
  0
ENDSEC
  0
EOF
