  0
SECTION
  2
HEADER
  9
$ACADVER
  1
AC1014
  9
$ACADMAINTVER
 70
     9
  9
$DWGCODEPAGE
  3
ANSI_932
  9
$INSBASE
 10
0.0
 20
0.0
 30
0.0
  9
$EXTMIN
 10
-139.3499847412102
 20
-33.24999999999997
 30
-0.00000001
  9
$EXTMAX
 10
12.6061031234565
 20
19.35000000000015
 30
0.00000001
  9
$LIMMIN
 10
-148.1419648975706
 20
-48.97084329586573
  9
$LIMMAX
 10
52.12610003204975
 20
22.72915820668043
  9
$ORTHOMODE
 70
     0
  9
$REGENMODE
 70
     1
  9
$FILLMODE
 70
     1
  9
$QTEXTMODE
 70
     0
  9
$MIRRTEXT
 70
     0
  9
$DRAGMODE
 70
     2
  9
$LTSCALE
 40
1.0
  9
$OSMODE
 70
    55
  9
$ATTMODE
 70
     1
  9
$TEXTSIZE
 40
2.5
  9
$TRACEWID
 40
1.0
  9
$TEXTSTYLE
  7
STANDARD
  9
$CLAYER
  8
AM_0
  9
$CELTYPE
  6
BYLAYER
  9
$CECOLOR
 62
   256
  9
$CELTSCALE
 40
1.0
  9
$DELOBJ
 70
     1
  9
$DISPSILH
 70
     0
  9
$DIMSCALE
 40
0.5
  9
$DIMASZ
 40
2.5
  9
$DIMEXO
 40
1.0
  9
$DIMDLI
 40
12.0
  9
$DIMRND
 40
0.0
  9
$DIMDLE
 40
0.0
  9
$DIMEXE
 40
1.0
  9
$DIMTP
 40
0.1
  9
$DIMTM
 40
0.1
  9
$DIMTXT
 40
3.2
  9
$DIMCEN
 40
0.0
  9
$DIMTSZ
 40
0.0
  9
$DIMTOL
 70
     0
  9
$DIMLIM
 70
     0
  9
$DIMTIH
 70
     0
  9
$DIMTOH
 70
     0
  9
$DIMSE1
 70
     0
  9
$DIMSE2
 70
     0
  9
$DIMTAD
 70
     3
  9
$DIMZIN
 70
     8
  9
$DIMBLK
  1
OPEN30
  9
$DIMASO
 70
     1
  9
$DIMSHO
 70
     1
  9
$DIMPOST
  1

  9
$DIMAPOST
  1
"
  9
$DIMALT
 70
     0
  9
$DIMALTD
 70
     2
  9
$DIMALTF
 40
0.0393701
  9
$DIMLFAC
 40
1.0
  9
$DIMTOFL
 70
     1
  9
$DIMTVP
 40
0.0
  9
$DIMTIX
 70
     0
  9
$DIMSOXD
 70
     0
  9
$DIMSAH
 70
     0
  9
$DIMBLK1
  1

  9
$DIMBLK2
  1

  9
$DIMSTYLE
  2
AM_JIS
  9
$DIMCLRD
 70
   256
  9
$DIMCLRE
 70
   256
  9
$DIMCLRT
 70
     2
  9
$DIMTFAC
 40
0.71
  9
$DIMGAP
 40
1.5
  9
$DIMJUST
 70
     0
  9
$DIMSD1
 70
     0
  9
$DIMSD2
 70
     0
  9
$DIMTOLJ
 70
     0
  9
$DIMTZIN
 70
     0
  9
$DIMALTZ
 70
     0
  9
$DIMALTTZ
 70
     0
  9
$DIMFIT
 70
     3
  9
$DIMUPT
 70
     0
  9
$DIMUNIT
 70
     2
  9
$DIMDEC
 70
     3
  9
$DIMTDEC
 70
     3
  9
$DIMALTU
 70
     2
  9
$DIMALTTD
 70
     2
  9
$DIMTXSTY
  7
ASAMI
  9
$DIMAUNIT
 70
     0
  9
$LUNITS
 70
     2
  9
$LUPREC
 70
     2
  9
$SKETCHINC
 40
1.0
  9
$FILLETRAD
 40
0.4
  9
$AUNITS
 70
     0
  9
$AUPREC
 70
     0
  9
$MENU
  1
.
  9
$ELEVATION
 40
0.0
  9
$PELEVATION
 40
0.0
  9
$THICKNESS
 40
0.0
  9
$LIMCHECK
 70
     1
  9
$BLIPMODE
 70
     0
  9
$CHAMFERA
 40
1.0
  9
$CHAMFERB
 40
1.0
  9
$CHAMFERC
 40
20.0
  9
$CHAMFERD
 40
0.0
  9
$SKPOLY
 70
     0
  9
$TDCREATE
 40
2452802.716478761
  9
$TDUPDATE
 40
2453152.384336874
  9
$TDINDWG
 40
0.9482250810
  9
$TDUSRTIMER
 40
0.9482250810
  9
$USRTIMER
 70
     1
  9
$ANGBASE
 50
0.0
  9
$ANGDIR
 70
     0
  9
$PDMODE
 70
     0
  9
$PDSIZE
 40
0.0
  9
$PLINEWID
 40
0.0
  9
$COORDS
 70
     1
  9
$SPLFRAME
 70
     0
  9
$SPLINETYPE
 70
     6
  9
$SPLINESEGS
 70
     8
  9
$ATTDIA
 70
     1
  9
$ATTREQ
 70
     1
  9
$HANDLING
 70
 12289
  9
$HANDSEED
  5
C026
  9
$SURFTAB1
 70
     6
  9
$SURFTAB2
 70
     6
  9
$SURFTYPE
 70
     6
  9
$SURFU
 70
     6
  9
$SURFV
 70
     6
  9
$UCSNAME
  2

  9
$UCSORG
 10
-0.0000000000002682
 20
0.000000000000161
 30
0.0
  9
$UCSXDIR
 10
1.0
 20
0.000000000000002
 30
0.0
  9
$UCSYDIR
 10
-0.000000000000002
 20
1.0
 30
0.0
  9
$PUCSNAME
  2

  9
$PUCSORG
 10
0.0
 20
0.0
 30
0.0
  9
$PUCSXDIR
 10
1.0
 20
0.0
 30
0.0
  9
$PUCSYDIR
 10
0.0
 20
1.0
 30
0.0
  9
$USERI1
 70
     0
  9
$USERI2
 70
     0
  9
$USERI3
 70
     0
  9
$USERI4
 70
     0
  9
$USERI5
 70
     0
  9
$USERR1
 40
0.0
  9
$USERR2
 40
0.0
  9
$USERR3
 40
0.0
  9
$USERR4
 40
0.0
  9
$USERR5
 40
0.0
  9
$WORLDVIEW
 70
     1
  9
$SHADEDGE
 70
     3
  9
$SHADEDIF
 70
    70
  9
$TILEMODE
 70
     1
  9
$MAXACTVP
 70
    64
  9
$PINSBASE
 10
0.0
 20
0.0
 30
0.0
  9
$PLIMCHECK
 70
     0
  9
$PEXTMIN
 10
1.000000000000000E+20
 20
1.000000000000000E+20
 30
1.000000000000000E+20
  9
$PEXTMAX
 10
-1.000000000000000E+20
 20
-1.000000000000000E+20
 30
-1.000000000000000E+20
  9
$PLIMMIN
 10
0.0
 20
0.0
  9
$PLIMMAX
 10
841.0
 20
594.0
  9
$UNITMODE
 70
     0
  9
$VISRETAIN
 70
     1
  9
$PLINEGEN
 70
     0
  9
$PSLTSCALE
 70
     0
  9
$TREEDEPTH
 70
  3020
  9
$PICKSTYLE
 70
     0
  9
$CMLSTYLE
  2
STANDARD
  9
$CMLJUST
 70
     0
  9
$CMLSCALE
 40
20.0
  9
$PROXYGRAPHICS
 70
     1
  9
$MEASUREMENT
 70
     1
  0
ENDSEC
  0
SECTION
  2
CLASSES
  0
CLASS
  1
ACDBDICTIONARYWDFLT
  2
AcDbDictionaryWithDefault
  3
AutoCAD 2000
 90
        0
280
     0
281
     0
  0
CLASS
  1
ACDBPLACEHOLDER
  2
AcDbPlaceHolder
  3
AutoCAD 2000
 90
        0
280
     0
281
     0
  0
CLASS
  1
LAYOUT
  2
AcDbLayout
  3
AutoCAD 2000
 90
        0
280
     0
281
     0
  0
CLASS
  1
AMGSETTINGSOBJ
  2
AmgSettingsObj
  3
"AcadM|Product Description: AutoCAD Mechanical 2000|Company: Autodesk"
 90
        0
280
     0
281
     0
  0
CLASS
  1
ACME_DOCUMENT
  2
AcMeDbDoc
  3
AcMeServices
 90
        0
280
     0
281
     0
  0
CLASS
  1
ACMESCOPE
  2
AcMeScope
  3
AcMeServices
 90
        0
280
     0
281
     0
  0
CLASS
  1
ACMECOMMANDHISTORY
  2
AcMeCommandHistory
  3
AcMeServices
 90
        0
280
     0
281
     0
  0
CLASS
  1
DICTIONARYVAR
  2
AcDbDictionaryVar
  3
AutoCAD 2000
 90
        0
280
     0
281
     0
  0
CLASS
  1
ACIMSYSVARMAN
  2
AcImSysVarManager
  3
AcMeServices
 90
        0
280
     0
281
     0
  0
CLASS
  1
ACIMREALSYSVAR
  2
AcImRealSysVar
  3
AcMeServices
 90
        0
280
     0
281
     0
  0
CLASS
  1
ACIMINTSYSVAR
  2
AcImIntSysVar
  3
AcMeServices
 90
        0
280
     0
281
     0
  0
CLASS
  1
ACMEDRAWINGMAN
  2
AcMeDrawingMan
  3
AcMeServices
 90
        0
280
     0
281
     0
  0
CLASS
  1
ACMEVIEW
  2
AcMeView
  3
AcMeServices
 90
        0
280
     0
281
     0
  0
CLASS
  1
ACDBENTITYCACHE
  2
AcMeEntityCache
  3
AcMeServices
 90
        0
280
     0
281
     0
  0
CLASS
  1
GSMANAGER
  2
AcMeGSManager
  3
AcMeServices
 90
        0
280
     0
281
     0
  0
CLASS
  1
AmdtInternalReactor
  2
AmdtInternalReactor
  3
AcMeServices
 90
        0
280
     0
281
     0
  0
CLASS
  1
ACMESTATEMGR
  2
AcMeStateMgr
  3
AcMeServices
 90
        0
280
     0
281
     0
  0
CLASS
  1
ACME_DATABASE
  2
AcMeDbDatabase
  3
AcMeServices
 90
        0
280
     0
281
     0
  0
CLASS
  1
ACRFINSADJUSTERMGR
  2
AcRfInsAdjusterMgr
  3
AcMeServices
 90
        0
280
     0
281
     0
  0
CLASS
  1
ACMDATADICTIONARY
  2
AcmDataDictionary
  3
"AcmSymBB|Product Description: AutoCAD Mechanical 2000|Company: Autodesk"
 90
        0
280
     0
281
     0
  0
CLASS
  1
ACMDATAENTRYBLOCK
  2
AcmDataEntryBlock
  3
"AcmSymBB|Product Description: AutoCAD Mechanical 2000|Company: Autodesk"
 90
        0
280
     0
281
     0
  0
CLASS
  1
AMGOBJPROPCFG
  2
AmgObjPropCfg
  3
"AmgLay|Product Description: AutoCAD Mechanical 2000|Company: Autodesk"
 90
        1
280
     0
281
     0
  0
CLASS
  1
ACAMGFILTERDAT
  2
AcAmgFilterDat
  3
"AcadM|Product Description: AutoCAD Mechanical 2000|Company: Autodesk"
 90
        0
280
     0
281
     0
  0
CLASS
  1
LAYER_INDEX
  2
AcDbLayerIndex
  3
AutoCAD 2000
 90
        0
280
     0
281
     0
  0
CLASS
  1
IDBUFFER
  2
AcDbIdBuffer
  3
AutoCAD 2000
 90
        0
280
     0
281
     0
  0
CLASS
  1
ACIMSTRSYSVAR
  2
AcImStrSysVar
  3
AcMeServices
 90
        0
280
     0
281
     0
  0
CLASS
  1
ACMSTANDARDJIS
  2
AcmStandardJIS
  3
"AcmSymBB|Product Description: AutoCAD Mechanical 2000|Company: Autodesk"
 90
        0
280
     0
281
     0
  0
CLASS
  1
ACMSURFSTANDARDJIS
  2
AcmSurfTextStdJIS
  3
"AcmSymBB|Product Description: AutoCAD Mechanical 2000|Company: Autodesk"
 90
        0
280
     0
281
     0
  0
CLASS
  1
ACMFCFSTANDARDJIS
  2
AcmFCFStdJIS
  3
"AcmSymBB|Product Description: AutoCAD Mechanical 2000|Company: Autodesk"
 90
        0
280
     0
281
     0
  0
CLASS
  1
ACMWELDSTANDARDJIS
  2
AcmWeldingStdJIS
  3
"AcmSymBB|Product Description: AutoCAD Mechanical 2000|Company: Autodesk"
 90
        0
280
     0
281
     0
  0
CLASS
  1
ACMIDSTANDARDJIS
  2
AcmIdStdJIS
  3
"AcmSymBB|Product Description: AutoCAD Mechanical 2000|Company: Autodesk"
 90
        0
280
     0
281
     0
  0
CLASS
  1
ACMDATUMSTANDARDJIS
  2
AcmDatumStdJIS
  3
"AcmSymBB|Product Description: AutoCAD Mechanical 2000|Company: Autodesk"
 90
        0
280
     0
281
     0
  0
CLASS
  1
ACMBOMSTANDARDJIS
  2
AcmBOMStdJIS
  3
"AcmSymBB|Product Description: AutoCAD Mechanical 2000|Company: Autodesk"
 90
        0
280
     0
281
     0
  0
CLASS
  1
ACMSTANDARDANSI
  2
AcmStandardANSI
  3
"AcmSymBB|Product Description: AutoCAD Mechanical 2000|Company: Autodesk"
 90
        0
280
     0
281
     0
  0
CLASS
  1
ACMSURFSTANDARDANSI
  2
AcmSurfTextStdANSI
  3
"AcmSymBB|Product Description: AutoCAD Mechanical 2000|Company: Autodesk"
 90
        0
280
     0
281
     0
  0
CLASS
  1
ACMFCFSTANDARDANSI
  2
AcmFCFStdANSI
  3
"AcmSymBB|Product Description: AutoCAD Mechanical 2000|Company: Autodesk"
 90
        0
280
     0
281
     0
  0
CLASS
  1
ACMWELDSTANDARDANSI
  2
AcmWeldingStdANSI
  3
"AcmSymBB|Product Description: AutoCAD Mechanical 2000|Company: Autodesk"
 90
        0
280
     0
281
     0
  0
CLASS
  1
ACMIDSTANDARDANSI
  2
AcmIdStdANSI
  3
"AcmSymBB|Product Description: AutoCAD Mechanical 2000|Company: Autodesk"
 90
        0
280
     0
281
     0
  0
CLASS
  1
ACMDATUMSTANDARDANSI
  2
AcmDatumStdANSI
  3
"AcmSymBB|Product Description: AutoCAD Mechanical 2000|Company: Autodesk"
 90
        0
280
     0
281
     0
  0
CLASS
  1
ACMBOMSTANDARDANSI
  2
AcmBOMStdANSI
  3
"AcmSymBB|Product Description: AutoCAD Mechanical 2000|Company: Autodesk"
 90
        0
280
     0
281
     0
  0
CLASS
  1
ACMSTANDARDBSI
  2
AcmStandardBSI
  3
"AcmSymBB|Product Description: AutoCAD Mechanical 2000|Company: Autodesk"
 90
        0
280
     0
281
     0
  0
CLASS
  1
ACMSURFSTANDARDBSI
  2
AcmSurfTextStdBSI
  3
"AcmSymBB|Product Description: AutoCAD Mechanical 2000|Company: Autodesk"
 90
        0
280
     0
281
     0
  0
CLASS
  1
ACMFCFSTANDARDBSI
  2
AcmFCFStdBSI
  3
"AcmSymBB|Product Description: AutoCAD Mechanical 2000|Company: Autodesk"
 90
        0
280
     0
281
     0
  0
CLASS
  1
ACMWELDSTANDARDBSI
  2
AcmWeldingStdBSI
  3
"AcmSymBB|Product Description: AutoCAD Mechanical 2000|Company: Autodesk"
 90
        0
280
     0
281
     0
  0
CLASS
  1
ACMIDSTANDARDBSI
  2
AcmIdStdBSI
  3
"AcmSymBB|Product Description: AutoCAD Mechanical 2000|Company: Autodesk"
 90
        0
280
     0
281
     0
  0
CLASS
  1
ACMDATUMSTANDARDBSI
  2
AcmDatumStdBSI
  3
"AcmSymBB|Product Description: AutoCAD Mechanical 2000|Company: Autodesk"
 90
        0
280
     0
281
     0
  0
CLASS
  1
ACMBOMSTANDARDBSI
  2
AcmBOMStdBSI
  3
"AcmSymBB|Product Description: AutoCAD Mechanical 2000|Company: Autodesk"
 90
        0
280
     0
281
     0
  0
CLASS
  1
STDPART2D
  2
AmgStdPart
  3
"AmgStdPart|Product Description: AutoCAD Mechanical 2000|Company: Autodesk"
 90
     1023
280
     0
281
     1
  0
CLASS
  1
PLOTSETTINGS
  2
AcDbPlotSettings
  3
AutoCAD 2000
 90
        0
280
     0
281
     0
  0
CLASS
  1
LONG_TRANSACTION
  2
AcDbLongTransaction
  3
AutoCAD 2000
 90
        0
280
     0
281
     0
  0
CLASS
  1
LWPOLYLINE
  2
AcDbPolyline
  3
AutoCAD 2000
 90
        0
280
     0
281
     1
  0
CLASS
  1
HATCH
  2
AcDbHatch
  3
AutoCAD 2000
 90
        0
280
     0
281
     1
  0
CLASS
  1
XRECORD
  2
AcDbXrecord
  3
AutoCAD 2000
 90
        0
280
     0
281
     0
  0
ENDSEC
  0
SECTION
  2
TABLES
  0
TABLE
  2
VPORT
  5
8
330
0
100
AcDbSymbolTable
 70
     3
  0
VPORT
  5
BFBC
330
8
100
AcDbSymbolTableRecord
100
AcDbViewportTableRecord
  2
*ACTIVE
 70
     0
 10
0.0
 20
0.0
 11
1.0
 21
1.0
 12
-62.38007574160228
 22
-2.378671681900108
 13
0.0
 23
0.0
 14
2.5
 24
2.5
 15
10.0
 25
10.0
 16
0.0
 26
0.0
 36
1.0
 17
0.0
 27
0.0
 37
0.0
 40
103.1294909050323
 41
1.56570841889117
 42
50.0
 43
0.0
 44
0.0
 50
0.0
 51
0.0
 71
     0
 72
   100
 73
     1
 74
     3
 75
     0
 76
     0
 77
     0
 78
     0
  0
ENDTAB
  0
TABLE
  2
LTYPE
  5
5
330
0
100
AcDbSymbolTable
 70
    10
  0
LTYPE
  5
14
330
5
100
AcDbSymbolTableRecord
100
AcDbLinetypeTableRecord
  2
BYBLOCK
 70
     0
  3

 72
    65
 73
     0
 40
0.0
  0
LTYPE
  5
15
330
5
100
AcDbSymbolTableRecord
100
AcDbLinetypeTableRecord
  2
BYLAYER
 70
     0
  3

 72
    65
 73
     0
 40
0.0
  0
LTYPE
  5
16
330
5
100
AcDbSymbolTableRecord
100
AcDbLinetypeTableRecord
  2
CONTINUOUS
 70
     0
  3
Solid line
 72
    65
 73
     0
 40
0.0
  0
LTYPE
  5
4B
330
5
100
AcDbSymbolTableRecord
100
AcDbLinetypeTableRecord
  2
AM_ISO02W050
 70
     0
  3
__ __ __ __ __ __ __ __ __ __ __ __ __ __ __
 72
    65
 73
     2
 40
7.5
 49
6.0
 74
     0
 49
-1.5
 74
     0
  0
LTYPE
  5
4C
330
5
100
AcDbSymbolTableRecord
100
AcDbLinetypeTableRecord
  2
AM_ISO08W050
 70
     0
  3
____ . ____ . ____ . ____ . ____ . ____ . ____
 72
    65
 73
     4
 40
18.0
 49
12.0
 74
     0
 49
-1.5
 74
     0
 49
3.0
 74
     0
 49
-1.5
 74
     0
  0
LTYPE
  5
4D
330
5
100
AcDbSymbolTableRecord
100
AcDbLinetypeTableRecord
  2
AM_ISO09W050
 70
     0
  3
_____ . . _____ . . _____ . . ____ .. ____
 72
    65
 73
     6
 40
22.5
 49
12.0
 74
     0
 49
-1.5
 74
     0
 49
3.0
 74
     0
 49
-1.5
 74
     0
 49
3.0
 74
     0
 49
-1.5
 74
     0
  0
LTYPE
  5
4E
330
5
100
AcDbSymbolTableRecord
100
AcDbLinetypeTableRecord
  2
AMCONSTR
 70
     0
  3
_______________________
 72
    65
 73
     2
 40
9999.0
 49
9999.0
 74
     0
 49
0.0
 74
     0
  0
LTYPE
  5
4F
330
5
100
AcDbSymbolTableRecord
100
AcDbLinetypeTableRecord
  2
AM_ISO02W050X2
 70
     0
  3
 _ _ _ _ _ _ _ _ _ _ _ _
 72
    65
 73
     2
 40
3.75
 49
3.0
 74
     0
 49
-0.75
 74
     0
  0
LTYPE
  5
50
330
5
100
AcDbSymbolTableRecord
100
AcDbLinetypeTableRecord
  2
AM_ISO08W050X2
 70
     0
  3
__ . __ . __ . __ . __ . __
 72
    65
 73
     4
 40
9.0
 49
6.0
 74
     0
 49
-0.75
 74
     0
 49
1.5
 74
     0
 49
-0.75
 74
     0
  0
LTYPE
  5
53
330
5
100
AcDbSymbolTableRecord
100
AcDbLinetypeTableRecord
  2
AMZIGZAG
 70
     0
  3
/\/-/\/-/\/-/\/-/\/-/\/
 72
    65
 73
     2
 40
11.00009999999999
 49
0.0001
 74
     4
 75
   135
340
52
 46
0.04
 50
0.0
 44
0.0
 45
0.0
 49
-11.0
 74
     0
  0
LTYPE
  5
166
330
5
100
AcDbSymbolTableRecord
100
AcDbLinetypeTableRecord
  2
ACJISTGL
 70
     0
  3
_ _ _ _ _
 72
    65
 73
     2
 40
3.0
 49
2.0
 74
     0
 49
-1.0
 74
     0
  0
LTYPE
  5
26A
330
5
100
AcDbSymbolTableRecord
100
AcDbLinetypeTableRecord
  2
ACJISTGB
 70
     0
  3
__ . . __ . .
 72
    65
 73
     6
 40
9.0
 49
4.0
 74
     0
 49
-1.0
 74
     0
 49
1.0
 74
     0
 49
-1.0
 74
     0
 49
1.0
 74
     0
 49
-1.0
 74
     0
  0
ENDTAB
  0
TABLE
  2
LAYER
  5
2
330
0
100
AcDbSymbolTable
 70
     7
  0
LAYER
  5
10
330
2
100
AcDbSymbolTableRecord
100
AcDbLayerTableRecord
  2
0
 70
     0
 62
     7
  6
CONTINUOUS
  0
LAYER
  5
3F9
330
2
100
AcDbSymbolTableRecord
100
AcDbLayerTableRecord
  2
AM_0
 70
     0
 62
     7
  6
CONTINUOUS
  0
LAYER
  5
BA4
330
2
100
AcDbSymbolTableRecord
100
AcDbLayerTableRecord
  2
AM_5
 70
     0
 62
     3
  6
CONTINUOUS
  0
LAYER
  5
BA6
330
2
100
AcDbSymbolTableRecord
100
AcDbLayerTableRecord
  2
AM_7
 70
     0
 62
     4
  6
AM_ISO08W050
  0
LAYER
  5
E64
330
2
100
AcDbSymbolTableRecord
100
AcDbLayerTableRecord
  2
AM_6
 70
     0
 62
     2
  6
CONTINUOUS
  0
LAYER
  5
F4D
330
2
100
AcDbSymbolTableRecord
100
AcDbLayerTableRecord
  2
DEFPOINTS
 70
     0
 62
     7
  6
CONTINUOUS
  0
LAYER
  5
4E80
330
2
100
AcDbSymbolTableRecord
100
AcDbLayerTableRecord
  2
AM_11
 70
     0
 62
     3
  6
AM_ISO09W050
  0
ENDTAB
  0
TABLE
  2
STYLE
  5
3
330
0
100
AcDbSymbolTable
 70
     5
  0
STYLE
  5
11
330
3
100
AcDbSymbolTableRecord
100
AcDbTextStyleTableRecord
  2
STANDARD
 70
     0
 40
0.0
 41
1.0
 50
0.0
 71
     0
 42
2.5
  3
simplex.shx
  4
EXTFONT.SHX
  0
STYLE
  5
52
330
3
100
AcDbSymbolTableRecord
100
AcDbTextStyleTableRecord
  2

 70
     1
 40
0.0
 41
1.0
 50
0.0
 71
     0
 42
2.5
  3
ltypeshp.shx
  4

  0
STYLE
  5
6B
330
3
100
AcDbSymbolTableRecord
100
AcDbTextStyleTableRecord
  2
ASAMI
 70
     0
 40
0.0
 41
1.0
 50
0.0
 71
     0
 42
2.5
  3
simplex.shx
  4
EXTFONT.SHX
  0
STYLE
  5
262
330
3
100
AcDbSymbolTableRecord
100
AcDbTextStyleTableRecord
  2
ACJISTS
 70
     0
 40
1.0
 41
1.0
 50
0.0
 71
     0
 42
2.5
  3
simplex.shx
  4
bigfont.shx
  0
STYLE
  5
269
330
3
100
AcDbSymbolTableRecord
100
AcDbTextStyleTableRecord
  2
ACJISGDT
 70
     0
 40
0.0
 41
1.0
 50
0.0
 71
     0
 42
2.5
  3
amgdtans.shx
  4

  0
ENDTAB
  0
TABLE
  2
VIEW
  5
6
330
0
100
AcDbSymbolTable
 70
     0
  0
ENDTAB
  0
TABLE
  2
UCS
  5
7
330
0
100
AcDbSymbolTable
 70
     0
  0
ENDTAB
  0
TABLE
  2
APPID
  5
9
330
0
100
AcDbSymbolTable
 70
    24
  0
APPID
  5
12
330
9
100
AcDbSymbolTableRecord
100
AcDbRegAppTableRecord
  2
ACAD
 70
     0
  0
APPID
  5
30
330
9
100
AcDbSymbolTableRecord
100
AcDbRegAppTableRecord
  2
MCAD_NO_VIS
 70
     0
  0
APPID
  5
31
330
9
100
AcDbSymbolTableRecord
100
AcDbRegAppTableRecord
  2
ACAD_TEMP_GRAPHIC
 70
     0
  0
APPID
  5
2C2
330
9
100
AcDbSymbolTableRecord
100
AcDbRegAppTableRecord
  2
GENIUS_GENDTOL_13
 70
     0
  0
APPID
  5
339
330
9
100
AcDbSymbolTableRecord
100
AcDbRegAppTableRecord
  2
GENIUS_GENODEF_13
 70
     0
  0
APPID
  5
33A
330
9
100
AcDbSymbolTableRecord
100
AcDbRegAppTableRecord
  2
GENIUS_GENOBJ-N-RSBK_13
 70
     0
  0
APPID
  5
33B
330
9
100
AcDbSymbolTableRecord
100
AcDbRegAppTableRecord
  2
GENIUS_GENOBJ-N-LIB_13
 70
     0
  0
APPID
  5
33C
330
9
100
AcDbSymbolTableRecord
100
AcDbRegAppTableRecord
  2
GENIUS_GENSCALE_13
 70
     0
  0
APPID
  5
378
330
9
100
AcDbSymbolTableRecord
100
AcDbRegAppTableRecord
  2
GENIUS_GENDIMSH_14
 70
     0
  0
APPID
  5
BB0
330
9
100
AcDbSymbolTableRecord
100
AcDbRegAppTableRecord
  2
GENIUS_GENOBJ-N-CEN_13
 70
     0
  0
APPID
  5
BB1
330
9
100
AcDbSymbolTableRecord
100
AcDbRegAppTableRecord
  2
GENIUS_GENFIL_13
 70
     0
  0
APPID
  5
BB2
330
9
100
AcDbSymbolTableRecord
100
AcDbRegAppTableRecord
  2
GENIUS_GENOBJ-N-CHA_13
 70
     0
  0
APPID
  5
1FAF
330
9
100
AcDbSymbolTableRecord
100
AcDbRegAppTableRecord
  2
GENIUS_GENOBJ-N-CRS_13
 70
     0
  0
APPID
  5
1FB0
330
9
100
AcDbSymbolTableRecord
100
AcDbRegAppTableRecord
  2
GENIUS_GENOENT_13
 70
     0
  0
APPID
  5
1FB1
330
9
100
AcDbSymbolTableRecord
100
AcDbRegAppTableRecord
  2
GENIUS_GENOREF_13
 70
     0
  0
APPID
  5
1FB2
330
9
100
AcDbSymbolTableRecord
100
AcDbRegAppTableRecord
  2
GENIUS_GENOLIS_13
 70
     0
  0
APPID
  5
1FB7
330
9
100
AcDbSymbolTableRecord
100
AcDbRegAppTableRecord
  2
GENIUS_GENOBJ-N-FIL_13
 70
     0
  0
APPID
  5
22A8
330
9
100
AcDbSymbolTableRecord
100
AcDbRegAppTableRecord
  2
GEVID1056506048
 70
     0
  0
APPID
  5
22A9
330
9
100
AcDbSymbolTableRecord
100
AcDbRegAppTableRecord
  2
GEVDC
 70
     0
  0
APPID
  5
22AC
330
9
100
AcDbSymbolTableRecord
100
AcDbRegAppTableRecord
  2
GENIUS_GENBH_13
 70
     0
  0
APPID
  5
22B8
330
9
100
AcDbSymbolTableRecord
100
AcDbRegAppTableRecord
  2
GENIUS_GENOBJ-NBEHI-BHF_13
 70
     0
  0
APPID
  5
22BA
330
9
100
AcDbSymbolTableRecord
100
AcDbRegAppTableRecord
  2
GENIUS_GENOBJ-NBEHI-BHB_13
 70
     0
  0
APPID
  5
35C9
330
9
100
AcDbSymbolTableRecord
100
AcDbRegAppTableRecord
  2
GENIUS_GENREC_14
 70
     0
  0
APPID
  5
35CA
330
9
100
AcDbSymbolTableRecord
100
AcDbRegAppTableRecord
  2
GENIUS_GENOBJ-N-REC_13
 70
     0
  0
ENDTAB
  0
TABLE
  2
DIMSTYLE
  5
A
330
0
100
AcDbSymbolTable
 70
     9
  0
DIMSTYLE
105
58
330
A
100
AcDbSymbolTableRecord
100
AcDbDimStyleTableRecord
  2
AM_JIS
 70
     0
  3

  4
"
  5
OPEN30
  6

  7

 40
0.5
 41
2.5
 42
1.0
 43
12.0
 44
1.0
 45
0.0
 46
0.0
 47
0.1
 48
0.1
140
3.2
141
0.0
142
0.0
143
0.0393701
144
1.0
145
0.0
146
0.71
147
1.5
 71
     0
 72
     0
 73
     0
 74
     0
 75
     0
 76
     0
 77
     3
 78
     8
170
     0
171
     2
172
     1
173
     0
174
     0
175
     0
176
   256
177
   256
178
     2
270
     2
271
     3
272
     3
273
     2
274
     2
340
6B
275
     0
280
     0
281
     0
282
     0
283
     0
284
     0
285
     0
286
     0
287
     3
288
     0
  0
DIMSTYLE
105
5F
330
A
100
AcDbSymbolTableRecord
100
AcDbDimStyleTableRecord
  2
AM_JIS$3
 70
     0
  3

  4
"
  5
OPEN30
  6

  7

 40
0.5
 41
2.5
 42
1.0
 43
10.0
 44
1.0
 45
0.0
 46
0.0
 47
0.1
 48
0.1
140
3.2
141
0.0
142
0.0
143
0.0393701
144
1.0
145
0.0
146
0.71
147
1.5
 71
     0
 72
     0
 73
     0
 74
     1
 75
     0
 76
     0
 77
     3
 78
     8
170
     0
171
     2
172
     0
173
     0
174
     0
175
     0
176
   256
177
   256
178
     2
270
     2
271
     2
272
     3
273
     2
274
     2
340
6B
275
     0
280
     0
281
     0
282
     0
283
     0
284
     0
285
     0
286
     0
287
     0
288
     1
  0
DIMSTYLE
105
60
330
A
100
AcDbSymbolTableRecord
100
AcDbDimStyleTableRecord
  2
AM_JIS$4
 70
     0
  3

  4
"
  5
OPEN30
  6

  7

 40
0.5
 41
2.5
 42
1.0
 43
10.0
 44
1.0
 45
0.0
 46
0.0
 47
0.1
 48
0.1
140
3.2
141
0.0
142
0.0
143
0.0393701
144
1.0
145
0.0
146
0.71
147
1.5
 71
     0
 72
     0
 73
     0
 74
     1
 75
     0
 76
     0
 77
     3
 78
     8
170
     0
171
     2
172
     0
173
     0
174
     0
175
     0
176
   256
177
   256
178
     2
270
     2
271
     2
272
     3
273
     2
274
     2
340
6B
275
     0
280
     0
281
     0
282
     0
283
     0
284
     0
285
     0
286
     0
287
     0
288
     1
  0
DIMSTYLE
105
61
330
A
100
AcDbSymbolTableRecord
100
AcDbDimStyleTableRecord
  2
AM_JIS$6
 70
     0
  3

  4
"
  5
OPEN30
  6

  7

 40
0.5
 41
2.5
 42
1.0
 43
10.0
 44
1.0
 45
0.0
 46
0.0
 47
0.1
 48
0.1
140
3.2
141
0.0
142
0.0
143
0.0393701
144
1.0
145
0.0
146
0.71
147
1.5
 71
     0
 72
     0
 73
     0
 74
     0
 75
     0
 76
     0
 77
     0
 78
     8
170
     0
171
     2
172
     1
173
     0
174
     0
175
     0
176
   256
177
   256
178
     2
270
     2
271
     2
272
     2
273
     2
274
     2
340
6B
275
     0
280
     0
281
     0
282
     0
283
     0
284
     0
285
     0
286
     0
287
     3
288
     0
  0
DIMSTYLE
105
62
330
A
100
AcDbSymbolTableRecord
100
AcDbDimStyleTableRecord
  2
AM_JIS$7
 70
     0
  3

  4
"
  5
OPEN30
  6

  7

 40
0.5
 41
2.5
 42
1.0
 43
10.0
 44
1.0
 45
0.0
 46
0.0
 47
0.1
 48
0.1
140
3.2
141
0.0
142
0.0
143
0.0393701
144
1.0
145
0.0
146
0.71
147
1.5
 71
     0
 72
     0
 73
     0
 74
     0
 75
     0
 76
     0
 77
     3
 78
     8
170
     0
171
     2
172
     1
173
     0
174
     0
175
     0
176
   256
177
   256
178
     2
270
     2
271
     2
272
     3
273
     2
274
     2
340
6B
275
     0
280
     0
281
     0
282
     0
283
     0
284
     0
285
     0
286
     0
287
     3
288
     0
  0
DIMSTYLE
105
63
330
A
100
AcDbSymbolTableRecord
100
AcDbDimStyleTableRecord
  2
AM_JIS$SF
 70
     0
  3

  4
"
  5
OPEN30
  6

  7

 40
0.5
 41
2.5
 42
1.0
 43
10.0
 44
1.0
 45
0.0
 46
0.0
 47
0.1
 48
0.1
140
3.2
141
0.0
142
0.0
143
0.0393701
144
1.0
145
0.0
146
0.71
147
1.5
 71
     0
 72
     0
 73
     0
 74
     0
 75
     1
 76
     1
 77
     3
 78
     8
170
     0
171
     2
172
     1
173
     0
174
     0
175
     0
176
   256
177
   256
178
     2
270
     2
271
     2
272
     2
273
     2
274
     2
340
6B
275
     0
280
     0
281
     0
282
     0
283
     0
284
     0
285
     0
286
     0
287
     3
288
     0
  0
DIMSTYLE
105
68
330
A
100
AcDbSymbolTableRecord
100
AcDbDimStyleTableRecord
  2
AM_JIS$SH
 70
     0
  3

  4
"
  5

  6
GENAXEH
  7
OPEN30
 40
0.5
 41
2.5
 42
1.0
 43
10.0
 44
1.0
 45
0.0
 46
0.0
 47
0.1
 48
0.1
140
3.2
141
0.0
142
0.0
143
0.0393701
144
2.0
145
0.0
146
0.71
147
1.5
 71
     0
 72
     0
 73
     0
 74
     0
 75
     1
 76
     1
 77
     3
 78
     8
170
     0
171
     2
172
     1
173
     1
174
     0
175
     0
176
   256
177
   256
178
     2
270
     2
271
     2
272
     2
273
     2
274
     2
340
6B
275
     0
280
     0
281
     0
282
     0
283
     0
284
     0
285
     0
286
     0
287
     3
288
     0
  0
DIMSTYLE
105
B34
330
A
100
AcDbSymbolTableRecord
100
AcDbDimStyleTableRecord
  2
AM_JIS$2
 70
     0
  3

  4
"
  5
OPEN30
  6

  7

 40
0.5
 41
2.5
 42
1.0
 43
12.0
 44
1.0
 45
0.0
 46
0.0
 47
0.1
 48
0.1
140
3.2
141
0.0
142
0.0
143
0.0393701
144
1.0
145
0.0
146
0.71
147
1.5
 71
     0
 72
     0
 73
     0
 74
     0
 75
     0
 76
     0
 77
     3
 78
     8
170
     0
171
     2
172
     1
173
     0
174
     0
175
     0
176
   256
177
   256
178
     2
270
     2
271
     3
272
     3
273
     2
274
     2
340
6B
275
     0
280
     0
281
     0
282
     0
283
     0
284
     0
285
     0
286
     0
287
     3
288
     0
  0
DIMSTYLE
105
3B48
102
{ACAD_REACTORS
330
BC69
330
BBDD
330
BAC5
330
BA39
330
B95A
330
BB51
330
BD65
102
}
330
A
100
AcDbSymbolTableRecord
100
AcDbDimStyleTableRecord
  2
AM_JIS$0
 70
     0
  3

  4
"
  5
OPEN30
  6

  7

 40
1.0
 41
2.5
 42
0.0
 43
10.0
 44
1.0
 45
0.0
 46
0.0
 47
0.1
 48
0.1000000001
140
3.799999999999999
141
0.0
142
0.0
143
0.0393701
144
1.0
145
0.0
146
0.71
147
1.5
 71
     0
 72
     0
 73
     0
 74
     0
 75
     0
 76
     0
 77
     3
 78
     1
170
     0
171
     2
172
     1
173
     0
174
     0
175
     0
176
     3
177
     3
178
     2
270
     2
271
     2
272
     2
273
     2
274
     2
340
11
275
     1
280
     0
281
     0
282
     0
283
     0
284
     8
285
     0
286
     0
287
     0
288
     0
  0
ENDTAB
  0
TABLE
  2
BLOCK_RECORD
  5
1
330
0
100
AcDbSymbolTable
 70
    12
  0
BLOCK_RECORD
  5
1F
102
{ACAD_XDICTIONARY
360
74
102
}
330
1
100
AcDbSymbolTableRecord
100
AcDbBlockTableRecord
  2
*MODEL_SPACE
  0
BLOCK_RECORD
  5
101
102
{ACAD_XDICTIONARY
360
BFE5
102
}
330
1
100
AcDbSymbolTableRecord
100
AcDbBlockTableRecord
  2
*PAPER_SPACE
  0
BLOCK_RECORD
  5
59
330
1
100
AcDbSymbolTableRecord
100
AcDbBlockTableRecord
  2
_OPEN30
  0
BLOCK_RECORD
  5
64
330
1
100
AcDbSymbolTableRecord
100
AcDbBlockTableRecord
  2
GENAXEH
  0
BLOCK_RECORD
  5
B95B
330
1
100
AcDbSymbolTableRecord
100
AcDbBlockTableRecord
  2
*D5
  0
BLOCK_RECORD
  5
BA3A
330
1
100
AcDbSymbolTableRecord
100
AcDbBlockTableRecord
  2
*D6
  0
BLOCK_RECORD
  5
BAC6
330
1
100
AcDbSymbolTableRecord
100
AcDbBlockTableRecord
  2
*D7
  0
BLOCK_RECORD
  5
BB52
330
1
100
AcDbSymbolTableRecord
100
AcDbBlockTableRecord
  2
*D8
  0
BLOCK_RECORD
  5
BBDE
330
1
100
AcDbSymbolTableRecord
100
AcDbBlockTableRecord
  2
*D9
  0
BLOCK_RECORD
  5
BC6A
330
1
100
AcDbSymbolTableRecord
100
AcDbBlockTableRecord
  2
*D10
  0
BLOCK_RECORD
  5
BD66
330
1
100
AcDbSymbolTableRecord
100
AcDbBlockTableRecord
  2
*D11
  0
ENDTAB
  0
ENDSEC
  0
SECTION
  2
BLOCKS
  0
BLOCK
  5
20
330
1F
100
AcDbEntity
  8
0
100
AcDbBlockBegin
  2
*MODEL_SPACE
 70
     0
 10
0.0
 20
0.0
 30
0.0
  3
*MODEL_SPACE
  1

  0
ENDBLK
  5
21
330
1F
100
AcDbEntity
  8
0
100
AcDbBlockEnd
  0
BLOCK
  5
103
330
101
100
AcDbEntity
 67
     1
  8
0
100
AcDbBlockBegin
  2
*PAPER_SPACE
 70
     0
 10
0.0
 20
0.0
 30
0.0
  3
*PAPER_SPACE
  1

  0
ENDBLK
  5
104
330
101
100
AcDbEntity
 67
     1
  8
0
100
AcDbBlockEnd
  0
BLOCK
  5
5D
330
59
100
AcDbEntity
  8
0
100
AcDbBlockBegin
  2
_OPEN30
 70
     0
 10
0.0
 20
0.0
 30
0.0
  3
_OPEN30
  1

  0
LINE
  5
5A
330
59
100
AcDbEntity
  8
0
 62
     0
100
AcDbLine
 10
-1.0
 20
0.26794919
 30
0.0
 11
0.0
 21
0.0
 31
0.0
  0
LINE
  5
5B
330
59
100
AcDbEntity
  8
0
 62
     0
100
AcDbLine
 10
0.0
 20
0.0
 30
0.0
 11
-1.0
 21
-0.26794919
 31
0.0
  0
LINE
  5
5C
330
59
100
AcDbEntity
  8
0
 62
     0
100
AcDbLine
 10
0.0
 20
0.0
 30
0.0
 11
-1.0
 21
0.0
 31
0.0
  0
ENDBLK
  5
5E
330
59
100
AcDbEntity
  8
0
100
AcDbBlockEnd
  0
BLOCK
  5
66
330
64
100
AcDbEntity
  8
0
100
AcDbBlockBegin
  2
GENAXEH
 70
     0
 10
0.0
 20
0.0
 30
0.0
  3
GENAXEH
  1

  0
LINE
  5
65
330
64
100
AcDbEntity
  8
0
100
AcDbLine
 10
-1.0
 20
0.0
 30
0.0
 11
1.0
 21
0.0
 31
0.0
  0
ENDBLK
  5
67
330
64
100
AcDbEntity
  8
0
100
AcDbBlockEnd
  0
BLOCK
  5
B967
330
B95B
100
AcDbEntity
  8
0
100
AcDbBlockBegin
  2
*D5
 70
     1
 10
0.0
 20
0.0
 30
0.0
  3
*D5
  1

  0
LINE
  5
BFE7
330
B95B
100
AcDbEntity
  8
AM_5
100
AcDbLine
 10
-4.000000000000276
 20
10.50000000000014
 30
0.0
 11
-4.000000000000277
 21
17.50000000000015
 31
0.0
  0
LINE
  5
BFE8
330
B95B
100
AcDbEntity
  8
AM_5
100
AcDbLine
 10
-0.0000000000002903
 20
10.50000000000015
 30
0.0
 11
-0.0000000000002916
 21
17.50000000000015
 31
0.0
  0
LINE
  5
BFE9
330
B95B
100
AcDbEntity
  8
AM_5
100
AcDbLine
 10
-5.250000000000277
 20
17.00000000000015
 30
0.0
 11
-6.500000000000277
 21
17.00000000000015
 31
0.0
  0
LINE
  5
BFEA
330
B95B
100
AcDbEntity
  8
AM_5
100
AcDbLine
 10
1.249999999999708
 20
17.00000000000015
 30
0.0
 11
2.499999999999708
 21
17.00000000000015
 31
0.0
  0
LINE
  5
BFEB
330
B95B
100
AcDbEntity
  8
AM_5
100
AcDbLine
 10
-4.000000000000277
 20
17.00000000000015
 30
0.0
 11
-0.0000000000002915
 21
17.00000000000015
 31
0.0
  0
INSERT
  5
BFEC
330
B95B
100
AcDbEntity
  8
AM_5
100
AcDbBlockReference
  2
_OPEN30
 10
-4.000000000000277
 20
17.00000000000015
 30
0.0
 41
1.25
 42
1.25
 43
1.25
  0
INSERT
  5
BFED
330
B95B
100
AcDbEntity
  8
AM_5
100
AcDbBlockReference
  2
_OPEN30
 10
-0.0000000000002915
 20
17.00000000000015
 30
0.0
 41
1.25
 42
1.25
 43
1.25
 50
180.0
  0
MTEXT
  5
BFEE
330
B95B
100
AcDbEntity
  8
AM_5
 62
     2
100
AcDbMText
 10
-2.000000000000285
 20
18.55000000000015
 30
0.0
 40
1.6
 41
0.0
 71
     5
 72
     1
  1
4
  7
ASAMI
  0
POINT
  5
BFEF
330
B95B
100
AcDbEntity
  8
DEFPOINTS
 62
     0
100
AcDbPoint
 10
-4.000000000000255
 20
10.00000000000015
 30
0.0
  0
POINT
  5
BFF0
330
B95B
100
AcDbEntity
  8
DEFPOINTS
 62
     0
100
AcDbPoint
 10
-0.00000000000027
 20
10.00000000000015
 30
0.0
  0
POINT
  5
BFF1
330
B95B
100
AcDbEntity
  8
DEFPOINTS
 62
     0
100
AcDbPoint
 10
-0.0000000000002571
 20
17.00000000000015
 30
0.0
  0
ENDBLK
  5
B968
330
B95B
100
AcDbEntity
  8
0
100
AcDbBlockEnd
  0
BLOCK
  5
BA44
330
BA3A
100
AcDbEntity
  8
0
100
AcDbBlockBegin
  2
*D6
 70
     1
 10
0.0
 20
0.0
 30
0.0
  3
*D6
  1

  0
LINE
  5
BFF2
330
BA3A
100
AcDbEntity
  8
AM_5
100
AcDbLine
 10
0.4999999999996936
 20
10.00000000000014
 30
0.0
 11
12.60610312345646
 21
10.00000000000016
 31
0.0
  0
LINE
  5
BFF3
330
BA3A
100
AcDbEntity
  8
AM_5
100
AcDbLine
 10
0.4999999999997949
 20
-9.999999999999856
 30
0.0
 11
12.6061031234565
 21
-9.999999999999833
 31
0.0
  0
LINE
  5
BFF4
330
BA3A
100
AcDbEntity
  8
AM_5
100
AcDbLine
 10
12.10610312345646
 20
8.750000000000166
 30
0.0
 11
12.10610312345649
 21
-8.749999999999833
 31
0.0
  0
INSERT
  5
BFF5
330
BA3A
100
AcDbEntity
  8
AM_5
100
AcDbBlockReference
  2
_OPEN30
 10
12.10610312345646
 20
10.00000000000016
 30
0.0
 41
1.25
 42
1.25
 43
1.25
 50
90.0000000000001
  0
INSERT
  5
BFF6
330
BA3A
100
AcDbEntity
  8
AM_5
100
AcDbBlockReference
  2
_OPEN30
 10
12.10610312345649
 20
-9.999999999999833
 30
0.0
 41
1.25
 42
1.25
 43
1.25
 50
270.0000000000001
  0
MTEXT
  5
BFF7
330
BA3A
100
AcDbEntity
  8
AM_5
 62
     2
100
AcDbMText
 10
10.55610312345647
 20
0.0000000000001629
 30
0.0
 40
1.6
 41
0.0
 71
     5
 72
     1
  1
%%c20
  7
ASAMI
 11
-0.000000000000002
 21
1.0
 31
0.0
  0
POINT
  5
BFF8
330
BA3A
100
AcDbEntity
  8
DEFPOINTS
 62
     0
100
AcDbPoint
 10
-0.0000000000002842
 20
10.00000000000014
 30
0.0
  0
POINT
  5
BFF9
330
BA3A
100
AcDbEntity
  8
DEFPOINTS
 62
     0
100
AcDbPoint
 10
-0.0000000000002274
 20
-9.999999999999857
 30
0.0
  0
POINT
  5
BFFA
330
BA3A
100
AcDbEntity
  8
DEFPOINTS
 62
     0
100
AcDbPoint
 10
12.10610312345647
 20
-9.999999999999861
 30
0.0
  0
ENDBLK
  5
BA45
330
BA3A
100
AcDbEntity
  8
0
100
AcDbBlockEnd
  0
BLOCK
  5
BAD0
330
BAC6
100
AcDbEntity
  8
0
100
AcDbBlockBegin
  2
*D7
 70
     1
 10
0.0
 20
0.0
 30
0.0
  3
*D7
  1

  0
LINE
  5
BFFB
330
BAC6
100
AcDbEntity
  8
AM_5
100
AcDbLine
 10
-26.99959136564014
 20
7.750000000000004
 30
0.0
 11
-26.99959136564011
 21
-7.749992370600987
 31
0.0
  0
INSERT
  5
BFFC
330
BAC6
100
AcDbEntity
  8
AM_5
100
AcDbBlockReference
  2
_OPEN30
 10
-26.99959136564014
 20
9.000000000000005
 30
0.0
 41
1.25
 42
1.25
 43
1.25
 50
90.0000000000001
  0
INSERT
  5
BFFD
330
BAC6
100
AcDbEntity
  8
AM_5
100
AcDbBlockReference
  2
_OPEN30
 10
-26.99959136564011
 20
-8.999992370600987
 30
0.0
 41
1.25
 42
1.25
 43
1.25
 50
270.0000000000001
  0
MTEXT
  5
BFFE
330
BAC6
100
AcDbEntity
  8
AM_5
 62
     2
100
AcDbMText
 10
-28.54959136564013
 20
3.208196451435852
 30
0.0
 40
1.6
 41
0.0
 71
     5
 72
     1
  1
%%c18
  7
ASAMI
 11
-0.000000000000002
 21
1.0
 31
0.0
  0
POINT
  5
BFFF
330
BAC6
100
AcDbEntity
  8
DEFPOINTS
 62
     0
100
AcDbPoint
 10
-46.9999847412103
 20
9.000000000000071
 30
0.0
  0
POINT
  5
C000
330
BAC6
100
AcDbEntity
  8
DEFPOINTS
 62
     0
100
AcDbPoint
 10
-46.99998474121024
 20
-8.999992370600921
 30
0.0
  0
POINT
  5
C001
330
BAC6
100
AcDbEntity
  8
DEFPOINTS
 62
     0
100
AcDbPoint
 10
-26.99959136564013
 20
-8.999992370600928
 30
0.0
  0
ENDBLK
  5
BAD1
330
BAC6
100
AcDbEntity
  8
0
100
AcDbBlockEnd
  0
BLOCK
  5
BB5C
330
BB52
100
AcDbEntity
  8
0
100
AcDbBlockBegin
  2
*D8
 70
     1
 10
0.0
 20
0.0
 30
0.0
  3
*D8
  1

  0
LINE
  5
C002
330
BB52
100
AcDbEntity
  8
AM_5
100
AcDbLine
 10
-127.4999847412102
 20
9.999999999999632
 30
0.0
 11
-137.4999847412102
 21
9.99999999999961
 31
0.0
  0
LINE
  5
C003
330
BB52
100
AcDbEntity
  8
AM_5
100
AcDbLine
 10
-127.4999847412102
 20
-9.999999999995365
 30
0.0
 11
-137.4999847412102
 21
-9.999999999995386
 31
0.0
  0
LINE
  5
C004
330
BB52
100
AcDbEntity
  8
AM_5
100
AcDbLine
 10
-136.9999847412102
 20
8.749999999999612
 30
0.0
 11
-136.9999847412102
 21
-8.749999999995385
 31
0.0
  0
INSERT
  5
C005
330
BB52
100
AcDbEntity
  8
AM_5
100
AcDbBlockReference
  2
_OPEN30
 10
-136.9999847412102
 20
9.999999999999612
 30
0.0
 41
1.25
 42
1.25
 43
1.25
 50
90.0000000000001
  0
INSERT
  5
C006
330
BB52
100
AcDbEntity
  8
AM_5
100
AcDbBlockReference
  2
_OPEN30
 10
-136.9999847412102
 20
-9.999999999995385
 30
0.0
 41
1.25
 42
1.25
 43
1.25
 50
270.0000000000001
  0
MTEXT
  5
C007
330
BB52
100
AcDbEntity
  8
AM_5
 62
     2
100
AcDbMText
 10
-138.5499847412102
 20
0.000000000002116
 30
0.0
 40
1.6
 41
0.0
 71
     5
 72
     1
  1
%%c20
  7
ASAMI
 11
-0.000000000000002
 21
1.0
 31
0.0
  0
POINT
  5
C008
330
BB52
100
AcDbEntity
  8
DEFPOINTS
 62
     0
100
AcDbPoint
 10
-126.9999847412102
 20
9.999999999999914
 30
0.0
  0
POINT
  5
C009
330
BB52
100
AcDbEntity
  8
DEFPOINTS
 62
     0
100
AcDbPoint
 10
-126.9999847412102
 20
-9.999999999995083
 30
0.0
  0
POINT
  5
C00A
330
BB52
100
AcDbEntity
  8
DEFPOINTS
 62
     0
100
AcDbPoint
 10
-136.9999847412102
 20
-9.999999999995081
 30
0.0
  0
ENDBLK
  5
BB5D
330
BB52
100
AcDbEntity
  8
0
100
AcDbBlockEnd
  0
BLOCK
  5
BBE8
330
BBDE
100
AcDbEntity
  8
0
100
AcDbBlockBegin
  2
*D9
 70
     1
 10
0.0
 20
0.0
 30
0.0
  3
*D9
  1

  0
LINE
  5
C00B
330
BBDE
100
AcDbEntity
  8
AM_5
100
AcDbLine
 10
-0.0000000000002204
 20
-10.49999999999985
 30
0.0
 11
-0.0000000000002067
 21
-17.49999999999985
 31
0.0
  0
LINE
  5
C00C
330
BBDE
100
AcDbEntity
  8
AM_5
100
AcDbLine
 10
-49.99998513099873
 20
-10.49999266294242
 30
0.0
 11
-49.99998513099871
 21
-17.49999999999995
 31
0.0
  0
LINE
  5
C00D
330
BBDE
100
AcDbEntity
  8
AM_5
100
AcDbLine
 10
-1.250000000000207
 20
-16.99999999999986
 30
0.0
 11
-48.74998513099871
 21
-16.99999999999995
 31
0.0
  0
INSERT
  5
C00E
330
BBDE
100
AcDbEntity
  8
AM_5
100
AcDbBlockReference
  2
_OPEN30
 10
-0.0000000000002077
 20
-16.99999999999985
 30
0.0
 41
1.25
 42
1.25
 43
1.25
 50
0.0000000000001018
  0
INSERT
  5
C00F
330
BBDE
100
AcDbEntity
  8
AM_5
100
AcDbBlockReference
  2
_OPEN30
 10
-49.99998513099871
 20
-16.99999999999995
 30
0.0
 41
1.25
 42
1.25
 43
1.25
 50
180.0000000000001
  0
MTEXT
  5
C010
330
BBDE
100
AcDbEntity
  8
AM_5
 62
     2
100
AcDbMText
 10
-24.99999256549946
 20
-15.4499999999999
 30
0.0
 40
1.6
 41
0.0
 71
     5
 72
     1
  1
50
  7
ASAMI
  0
POINT
  5
C011
330
BBDE
100
AcDbEntity
  8
DEFPOINTS
 62
     0
100
AcDbPoint
 10
-0.0000000000002416
 20
-9.999999999999857
 30
0.0
  0
POINT
  5
C012
330
BBDE
100
AcDbEntity
  8
DEFPOINTS
 62
     0
100
AcDbPoint
 10
-49.99998513099875
 20
-9.999992662942318
 30
0.0
  0
POINT
  5
C013
330
BBDE
100
AcDbEntity
  8
DEFPOINTS
 62
     0
100
AcDbPoint
 10
-49.99998513099875
 20
-16.99999999999985
 30
0.0
  0
ENDBLK
  5
BBE9
330
BBDE
100
AcDbEntity
  8
0
100
AcDbBlockEnd
  0
BLOCK
  5
BC74
330
BC6A
100
AcDbEntity
  8
0
100
AcDbBlockBegin
  2
*D10
 70
     1
 10
0.0
 20
0.0
 30
0.0
  3
*D10
  1

  0
LINE
  5
C014
330
BC6A
100
AcDbEntity
  8
AM_5
100
AcDbLine
 10
-49.99998513099873
 20
-10.49999266294242
 30
0.0
 11
-49.99998513099871
 21
-17.49999999999995
 31
0.0
  0
LINE
  5
C015
330
BC6A
100
AcDbEntity
  8
AM_5
100
AcDbLine
 10
-129.9999847412102
 20
-8.928817900015125
 30
0.0
 11
-129.9999847412102
 21
-17.50000000000012
 31
0.0
  0
LINE
  5
C016
330
BC6A
100
AcDbEntity
  8
AM_5
100
AcDbLine
 10
-51.24998513099871
 20
-16.99999999999996
 30
0.0
 11
-128.7499847412102
 21
-17.00000000000011
 31
0.0
  0
INSERT
  5
C017
330
BC6A
100
AcDbEntity
  8
AM_5
100
AcDbBlockReference
  2
_OPEN30
 10
-49.99998513099871
 20
-16.99999999999995
 30
0.0
 41
1.25
 42
1.25
 43
1.25
 50
0.0000000000001018
  0
INSERT
  5
C018
330
BC6A
100
AcDbEntity
  8
AM_5
100
AcDbBlockReference
  2
_OPEN30
 10
-129.9999847412102
 20
-17.00000000000012
 30
0.0
 41
1.25
 42
1.25
 43
1.25
 50
180.0000000000001
  0
MTEXT
  5
C019
330
BC6A
100
AcDbEntity
  8
AM_5
 62
     2
100
AcDbMText
 10
-89.99998493610448
 20
-15.45000000000003
 30
0.0
 40
1.6
 41
0.0
 71
     5
 72
     1
  1
80
  7
ASAMI
  0
POINT
  5
C01A
330
BC6A
100
AcDbEntity
  8
DEFPOINTS
 62
     0
100
AcDbPoint
 10
-49.99998513099875
 20
-9.999992662942318
 30
0.0
  0
POINT
  5
C01B
330
BC6A
100
AcDbEntity
  8
DEFPOINTS
 62
     0
100
AcDbPoint
 10
-129.9999847412102
 20
-8.428817900014863
 30
0.0
  0
POINT
  5
C01C
330
BC6A
100
AcDbEntity
  8
DEFPOINTS
 62
     0
100
AcDbPoint
 10
-129.9999847412102
 20
-16.99999999999985
 30
0.0
  0
ENDBLK
  5
BC75
330
BC6A
100
AcDbEntity
  8
0
100
AcDbBlockEnd
  0
BLOCK
  5
BD70
330
BD66
100
AcDbEntity
  8
0
100
AcDbBlockBegin
  2
*D11
 70
     1
 10
0.0
 20
0.0
 30
0.0
  3
*D11
  1

  0
LINE
  5
C01D
330
BD66
100
AcDbEntity
  8
AM_5
100
AcDbLine
 10
-129.9999847412102
 20
-8.928817900015125
 30
0.0
 11
-129.9999847412101
 21
-22.50000000000011
 31
0.0
  0
LINE
  5
C01E
330
BD66
100
AcDbEntity
  8
AM_5
100
AcDbLine
 10
-0.0000000000002204
 20
-10.49999999999985
 30
0.0
 11
-0.0000000000001969
 21
-22.49999999999985
 31
0.0
  0
LINE
  5
C01F
330
BD66
100
AcDbEntity
  8
AM_5
100
AcDbLine
 10
-128.7499847412101
 20
-22.00000000000011
 30
0.0
 11
-1.250000000000197
 21
-21.99999999999986
 31
0.0
  0
INSERT
  5
C020
330
BD66
100
AcDbEntity
  8
AM_5
100
AcDbBlockReference
  2
_OPEN30
 10
-129.9999847412101
 20
-22.00000000000012
 30
0.0
 41
1.25
 42
1.25
 43
1.25
 50
180.0000000000001
  0
INSERT
  5
C021
330
BD66
100
AcDbEntity
  8
AM_5
100
AcDbBlockReference
  2
_OPEN30
 10
-0.0000000000001979
 20
-21.99999999999985
 30
0.0
 41
1.25
 42
1.25
 43
1.25
 50
0.0000000000001018
  0
MTEXT
  5
C022
330
BD66
100
AcDbEntity
  8
AM_5
 62
     2
100
AcDbMText
 10
-64.99999237060521
 20
-20.44999999999999
 30
0.0
 40
1.6
 41
0.0
 71
     5
 72
     1
  1
130
  7
ASAMI
  0
POINT
  5
C023
330
BD66
100
AcDbEntity
  8
DEFPOINTS
 62
     0
100
AcDbPoint
 10
-129.9999847412102
 20
-8.428817900014863
 30
0.0
  0
POINT
  5
C024
330
BD66
100
AcDbEntity
  8
DEFPOINTS
 62
     0
100
AcDbPoint
 10
-0.0000000000002416
 20
-9.999999999999857
 30
0.0
  0
POINT
  5
C025
330
BD66
100
AcDbEntity
  8
DEFPOINTS
 62
     0
100
AcDbPoint
 10
-0.0000000000002423
 20
-21.99999999999985
 30
0.0
  0
ENDBLK
  5
BD71
330
BD66
100
AcDbEntity
  8
0
100
AcDbBlockEnd
  0
ENDSEC
  0
SECTION
  2
ENTITIES
  0
TEXT
  5
388D
330
1F
100
AcDbEntity
  8
AM_6
100
AcDbText
 10
-76.84523046584327
 20
-33.24999999999996
 30
0.0
 40
2.5
  1
WRC08020ES
 50
359.9999999999998
 51
359.9999999999998
 72
     4
 11
-64.99999237060517
 21
-31.99999999999999
 31
0.0
100
AcDbText
  0
SPLINE
  5
B70C
330
1F
100
AcDbEntity
  8
AM_0
100
AcDbSpline
210
0.0
220
0.0
230
1.0
 70
     8
 71
     3
 72
    11
 73
     7
 74
     5
 42
0.0000000001
 43
0.0000000001
 44
0.0000000001
 40
0.0
 40
0.0
 40
0.0
 40
0.0
 40
0.2096883468083572
 40
0.4183355857334824
 40
0.6247379784713894
 40
0.8280143226212071
 40
0.8280143226212071
 40
0.8280143226212071
 40
0.8280143226212071
 10
-4.60009765625027
 20
-4.191688537592838
 30
0.0
 10
-4.670062670227627
 20
-4.194534584901057
 30
0.0
 10
-4.809645320139112
 20
-4.20021254882147
 30
0.0
 10
-5.013772007541596
 20
-4.245736744704618
 30
0.0
 10
-5.208730540652732
 20
-4.315321565233222
 30
0.0
 10
-5.327324779914861
 20
-4.383519582077268
 30
0.0
 10
-5.386169433600272
 20
-4.417358398432838
 30
0.0
 11
-4.60009765625027
 21
-4.191688537592838
 31
0.0
 11
-4.80926513672027
 21
-4.206459045405836
 31
0.0
 11
-5.013305664070273
 21
-4.250061035151844
 31
0.0
 11
-5.20703125000027
 21
-4.321281433100836
 31
0.0
 11
-5.386169433600272
 21
-4.417358398432838
 31
0.0
  0
SPLINE
  5
B70D
330
1F
100
AcDbEntity
  8
AM_0
100
AcDbSpline
210
0.0
220
0.0
230
1.0
 70
     8
 71
     3
 72
    11
 73
     7
 74
     5
 42
0.0000000001
 43
0.0000000001
 44
0.0000000001
 40
0.0
 40
0.0
 40
0.0
 40
0.0
 40
4.339356710189092
 40
8.551580255779084
 40
11.95692597464114
 40
13.61162899439298
 40
13.61162899439298
 40
13.61162899439298
 40
13.61162899439298
 10
-9.56250000000027
 20
1.141700744630142
 30
0.0
 10
-11.01913166278629
 20
1.328309644807956
 30
0.0
 10
-13.88971903306974
 20
1.696060233867895
 30
0.0
 10
-17.18375062847622
 20
4.249036478598289
 30
0.0
 10
-18.85672502184245
 20
6.877334463618542
 30
0.0
 10
-19.52268538823939
 20
8.427787971828267
 30
0.0
 10
-19.7404632568403
 20
8.934806823730127
 30
0.0
 11
-9.56250000000027
 21
1.141700744630142
 31
0.0
 11
-13.79986572266027
 21
2.076980590820141
 31
0.0
 11
-17.18461608887027
 21
4.58422851563013
 31
0.0
 11
-19.06071472168029
 21
7.426170349120127
 31
0.0
 11
-19.7404632568403
 21
8.934806823730127
 31
0.0
  0
SPLINE
  5
B70E
330
1F
100
AcDbEntity
  8
AM_0
100
AcDbSpline
210
0.0
220
0.0
230
1.0
 70
     8
 71
     3
 72
    11
 73
     7
 74
     5
 42
0.0000000001
 43
0.0000000001
 44
0.0000000001
 40
0.0
 40
0.0
 40
0.0
 40
0.0
 40
0.1853249376938941
 40
0.3414730431134037
 40
0.4450947036136242
 40
0.4833687868782091
 40
0.4833687868782091
 40
0.4833687868782091
 40
0.4833687868782091
 10
-19.2653656005903
 20
8.982826232910127
 30
0.0
 10
-19.32740604689754
 20
8.982847770898855
 30
0.0
 10
-19.44171953465731
 20
8.98288745601973
 30
0.0
 10
-19.58709945040891
 20
8.969958647981428
 30
0.0
 10
-19.69193346135013
 20
8.972604336791766
 30
0.0
 10
-19.73125950171235
 20
8.945233730717616
 30
0.0
 10
-19.74186706543029
 20
8.937850952150128
 30
0.0
 11
-19.2653656005903
 21
8.982826232910127
 31
0.0
 11
-19.45066833496029
 21
8.979957580570129
 31
0.0
 11
-19.60661315918029
 21
8.971992492680129
 31
0.0
 11
-19.7092742920003
 21
8.957916259770129
 31
0.0
 11
-19.74186706543029
 21
8.937850952150128
 31
0.0
  0
SPLINE
  5
B70F
330
1F
100
AcDbEntity
  8
AM_0
100
AcDbSpline
210
0.0
220
0.0
230
1.0
 70
     8
 71
     3
 72
    11
 73
     7
 74
     5
 42
0.0000000001
 43
0.0000000001
 44
0.0000000001
 40
0.0
 40
0.0
 40
0.0
 40
0.0
 40
0.3408268960136924
 40
0.6647813138334414
 40
0.973176697027325
 40
1.268862915068384
 40
1.268862915068384
 40
1.268862915068384
 40
1.268862915068384
 10
-5.562561035160271
 20
-4.557983398432838
 30
0.0
 10
-5.642528936880389
 20
-4.639534343649962
 30
0.0
 10
-5.798505966251534
 20
-4.798599092177382
 30
0.0
 10
-5.948460877956216
 20
-5.090595890487439
 30
0.0
 10
-6.035192632827545
 20
-5.390615005889278
 30
0.0
 10
-6.038241517066746
 20
-5.592748242069352
 30
0.0
 10
-6.03973388672027
 20
-5.691688537592838
 30
0.0
 11
-5.562561035160271
 21
-4.557983398432838
 31
0.0
 11
-5.788391113280269
 21
-4.813255310053847
 31
0.0
 11
-5.940795898440271
 21
-5.099121093744841
 31
0.0
 11
-6.02246093750027
 21
-5.396507263178847
 31
0.0
 11
-6.03973388672027
 21
-5.691688537592838
 31
0.0
  0
SPLINE
  5
B710
330
1F
100
AcDbEntity
  8
AM_0
100
AcDbSpline
210
0.0
220
0.0
230
1.0
 70
     8
 71
     3
 72
    11
 73
     7
 74
     5
 42
0.0000000001
 43
0.0000000001
 44
0.0000000001
 40
0.0
 40
0.0
 40
0.0
 40
0.0
 40
0.0563978224952936
 40
0.1128375653132744
 40
0.1692874384410922
 40
0.2258308779289595
 40
0.2258308779289595
 40
0.2258308779289595
 40
0.2258308779289595
 10
-5.386169433600272
 20
-4.417358398432838
 30
0.0
 10
-5.401667552455791
 20
-4.428004195751844
 30
0.0
 10
-5.432675309869447
 20
-4.449303703377257
 30
0.0
 10
-5.477449412362535
 20
-4.483682747815162
 30
0.0
 10
-5.520983977322282
 20
-4.519694965558217
 30
0.0
 10
-5.548694367167777
 20
-4.545213543752545
 30
0.0
 10
-5.562561035160271
 20
-4.557983398432838
 30
0.0
 11
-5.386169433600272
 21
-4.417358398432838
 31
0.0
 11
-5.432373046880272
 21
-4.449699401850836
 31
0.0
 11
-5.47723388672027
 21
-4.483947753901844
 31
0.0
 11
-5.520629882820273
 21
-4.520050048823847
 31
0.0
 11
-5.562561035160271
 21
-4.557983398432838
 31
0.0
  0
SPLINE
  5
B711
330
1F
100
AcDbEntity
  8
AM_0
100
AcDbSpline
210
0.0
220
0.0
230
1.0
 70
     8
 71
     3
 72
    11
 73
     7
 74
     5
 42
0.0000000001
 43
0.0000000001
 44
0.0000000001
 40
0.0
 40
0.0
 40
0.0
 40
0.0
 40
0.530147425607018
 40
1.104166948203438
 40
1.721927169136051
 40
2.367099270230266
 40
2.367099270230266
 40
2.367099270230266
 40
2.367099270230266
 10
-3.047485351570273
 20
-5.691688537592838
 30
0.0
 10
-3.072921847108343
 20
-5.514881502001547
 30
0.0
 10
-3.125899823223387
 20
-5.14663584903775
 30
0.0
 10
-3.452844777921463
 20
-4.655786302654504
 30
0.0
 10
-3.95883737292102
 20
-4.272586682405824
 30
0.0
 10
-4.383273440903038
 20
-4.219041980848448
 30
0.0
 10
-4.60009765625027
 20
-4.191688537592838
 30
0.0
 11
-3.047485351570273
 21
-5.691688537592838
 31
0.0
 11
-3.159912109380272
 21
-5.173599243159841
 31
0.0
 11
-3.468200683600272
 21
-4.689392089838847
 31
0.0
 11
-3.969604492190271
 21
-4.328529357905836
 31
0.0
 11
-4.60009765625027
 21
-4.191688537592838
 31
0.0
  0
SPLINE
  5
B712
330
1F
100
AcDbEntity
  8
AM_0
100
AcDbSpline
210
0.0
220
0.0
230
1.0
 70
     8
 71
     3
 72
    11
 73
     7
 74
     5
 42
0.0000000001
 43
0.0000000001
 44
0.0000000001
 40
0.0
 40
0.0
 40
0.0
 40
0.0
 40
0.4541454925217817
 40
0.9083180044538503
 40
1.362446778220344
 40
1.816632329680509
 40
1.816632329680509
 40
1.816632329680509
 40
1.816632329680509
 10
-1.423217773440271
 20
-7.290016174311844
 30
0.0
 10
-1.529623260431496
 20
-7.397693408886707
 30
0.0
 10
-1.742440565014067
 20
-7.613054284299241
 30
0.0
 10
-2.063108774501053
 20
-7.934650473638981
 30
0.0
 10
-2.384466482728901
 20
-8.255575926174371
 30
0.0
 10
-2.599464491049608
 20
-8.468757886658186
 30
0.0
 10
-2.706970214850244
 20
-8.575355529780836
 30
0.0
 11
-1.423217773440271
 21
-7.290016174311844
 31
0.0
 11
-1.74267578125027
 21
-7.612808227534841
 31
0.0
 11
-2.063232421880243
 21
-7.934547424311844
 31
0.0
 11
-2.384643554690242
 21
-8.255371093744841
 31
0.0
 11
-2.706970214850244
 21
-8.575355529780836
 31
0.0
  0
ELLIPSE
  5
B713
330
1F
100
AcDbEntity
  8
AM_0
100
AcDbEllipse
 10
-4.937072753910271
 20
5.653953552250158
 30
0.0
 11
-2.986633257009997
 21
-0.6394804758100099
 31
0.0
210
0.0
220
0.0
230
1.0
 40
0.9821554915954999
 41
6.076071919869493
 42
6.461199866525734
  0
ELLIPSE
  5
B714
330
1F
100
AcDbEntity
  8
AM_0
100
AcDbEllipse
 10
-3.05194091797027
 20
5.653961181640156
 30
0.0
 11
-2.986633319920004
 21
0.6394767657099946
 31
0.0
210
0.0
220
0.0
230
1.0
 40
0.9821569705434999
 41
2.963527539795539
 42
3.348729035290029
  0
ELLIPSE
  5
B715
330
1F
100
AcDbEntity
  8
AM_0
100
AcDbEllipse
 10
-3.05194091797027
 20
6.029441833500158
 30
0.0
 11
-2.986633257009997
 21
-0.6394804758100099
 31
0.0
210
0.0
220
0.0
230
1.0
 40
0.9821554915954999
 41
2.93447868859276
 42
3.31960777165544
  0
ELLIPSE
  5
B716
330
1F
100
AcDbEntity
  8
AM_0
100
AcDbEllipse
 10
-3.195434570320273
 20
6.376342773440157
 30
0.0
 11
-2.481811719109995
 21
-1.782340906680009
 31
0.0
210
0.0
220
0.0
230
1.0
 40
0.9814022284647
 41
2.915143655614733
 42
3.300526259956899
  0
ELLIPSE
  5
B717
330
1F
100
AcDbEntity
  8
AM_0
100
AcDbEllipse
 10
-3.460632324220298
 20
6.641860961910154
 30
0.0
 11
-1.616333111300003
 21
-2.594898289710005
 31
0.0
210
0.0
220
0.0
230
0.9999999999999998
 40
0.9803621330997
 41
2.916930017401538
 42
3.302640539746428
  0
ELLIPSE
  5
B718
330
1F
100
AcDbEntity
  8
AM_0
100
AcDbEllipse
 10
-3.807006835940299
 20
6.785552978520158
 30
0.0
 11
-0.5582274152299871
 21
-3.006816964600006
 31
0.0
210
0.0
220
0.0
230
1.0
 40
0.9796682873617999
 41
2.936246986477236
 42
3.321499780552235
  0
ELLIPSE
  5
B719
330
1F
100
AcDbEntity
  8
AM_0
100
AcDbEllipse
 10
-4.182006835940299
 20
6.785552978520158
 30
0.0
 11
-0.5582274152299992
 21
3.00681696459
 31
0.0
210
0.0
220
0.0
230
0.9999999999999998
 40
0.9796678195986999
 41
6.103272853303089
 42
6.488553981694857
  0
ELLIPSE
  5
B71A
330
1F
100
AcDbEntity
  8
AM_0
100
AcDbEllipse
 10
-4.528442382820301
 20
6.641860961910154
 30
0.0
 11
-1.616333111300013
 21
2.594898289720003
 31
0.0
210
0.0
220
0.0
230
1.0
 40
0.9803621330997
 41
6.12241676781853
 42
6.507648800314396
  0
ELLIPSE
  5
B71B
330
1F
100
AcDbEntity
  8
AM_0
100
AcDbEllipse
 10
-4.793579101570273
 20
6.376342773440157
 30
0.0
 11
-2.481811719110001
 21
1.782340906669995
 31
0.0
210
0.0
220
0.0
230
1.0
 40
0.9814022284647
 41
6.124195010289769
 42
6.509635000282099
  0
ELLIPSE
  5
B71C
330
1F
100
AcDbEntity
  8
AM_0
100
AcDbEllipse
 10
-4.937072753910271
 20
6.029449462890156
 30
0.0
 11
-2.986633319920004
 21
0.6394767657099946
 31
0.0
210
0.0
220
0.0
230
1.0
 40
0.9821569705434999
 41
6.105119664976924
 42
6.49032126672007
  0
ELLIPSE
  5
B71D
330
1F
100
AcDbEntity
  8
AM_0
100
AcDbEllipse
 10
-4.793579101570273
 20
5.307052612300154
 30
0.0
 11
-2.481811719109995
 21
-1.782340906670005
 31
0.0
210
0.0
220
0.0
230
1.0
 40
0.9814022284647
 41
6.05673591718379
 42
6.442118521158916
  0
ELLIPSE
  5
B71E
330
1F
100
AcDbEntity
  8
AM_0
100
AcDbEllipse
 10
-4.528442382820273
 20
5.041534423830157
 30
0.0
 11
-1.616333111300003
 21
-2.594898289719995
 31
0.0
210
0.0
220
0.0
230
1.0
 40
0.9803608073075999
 41
6.058521893858646
 42
6.444234016783918
  0
ELLIPSE
  5
B71F
330
1F
100
AcDbEntity
  8
AM_0
100
AcDbEllipse
 10
-4.182006835940271
 20
4.897842407230157
 30
0.0
 11
-0.5582274152299871
 21
-3.006816964600006
 31
0.0
210
0.0
220
0.0
230
1.0
 40
0.9796678195987
 41
6.077840351578664
 42
6.463092261979688
  0
ELLIPSE
  5
B720
330
1F
100
AcDbEntity
  8
AM_0
100
AcDbEllipse
 10
-3.807006835940271
 20
4.897842407230157
 30
0.0
 11
-0.5582274152299992
 21
3.00681696459
 31
0.0
210
0.0
220
0.0
230
0.9999999999999998
 40
0.9796678195986999
 41
2.961679544485392
 42
3.346961675337186
  0
ELLIPSE
  5
B721
330
1F
100
AcDbEntity
  8
AM_0
100
AcDbEllipse
 10
-3.46063232422027
 20
5.041534423830157
 30
0.0
 11
-1.616333111300013
 21
2.594898289720003
 31
0.0
210
0.0
220
0.0
230
1.0
 40
0.9803608073075999
 41
2.980824369238462
 42
3.366055998223014
  0
ELLIPSE
  5
B722
330
1F
100
AcDbEntity
  8
AM_0
100
AcDbEllipse
 10
-3.195434570320273
 20
5.307052612300154
 30
0.0
 11
-2.481811719110001
 21
1.78234090668
 31
0.0
210
0.0
220
0.0
230
1.0
 40
0.9814022284647
 41
2.982602673239918
 42
3.36804158690737
  0
ELLIPSE
  5
B723
330
1F
100
AcDbEntity
  8
AM_0
100
AcDbEllipse
 10
-6.723876953130272
 20
3.341697692870155
 30
0.0
 11
-0.0000000655599906
 21
1.499999999999999
 31
0.0
210
0.0
220
0.0
230
0.9999999999999998
 40
0.8548177083332999
 41
0.8549617807162292
 42
1.102754004673817
  0
ELLIPSE
  5
B724
330
1F
100
AcDbEntity
  8
AM_0
100
AcDbEllipse
 10
-6.723876953130272
 20
3.341697692870155
 30
0.0
 11
-1.173828201170012
 21
1.102912778620007
 31
0.0
210
0.0
220
0.0
230
1.0
 40
0.8660838090255998
 41
2.86561991238023
 42
3.083336384506503
  0
ELLIPSE
  5
B725
330
1F
100
AcDbEntity
  8
AM_0
100
AcDbEllipse
 10
-8.661056518560272
 20
0.0000000000001421
 30
0.0
 11
-171.73022460936
 21
0.000066874219657
 31
0.0
210
0.0
220
0.0
230
1.0
 40
0.0524077365593
 41
4.720811544062513
 42
4.774184455818379
  0
ELLIPSE
  5
B726
330
1F
100
AcDbEntity
  8
AM_0
100
AcDbEllipse
 10
-54.70982360840027
 20
-0.0000228881799416
 30
0.0
 11
-171.73046874999
 21
0.0000668743096544
 31
0.0
210
0.0
220
0.0
230
1.0
 40
0.0524078397601
 41
4.42990521649212
 42
4.44635262986846
  0
ELLIPSE
  5
B727
330
1F
100
AcDbEntity
  8
AM_0
100
AcDbEllipse
 10
5.497863769529729
 20
0.0000000000001705
 30
0.0
 11
-15.61651702021999
 21
-8.997683796902025
 31
0.0
210
0.0
220
0.0
230
1.0
 40
0.0130691954943
 41
6.041500991847784
 42
6.307387342097342
  0
ELLIPSE
  5
B728
330
1F
100
AcDbEntity
  8
AM_0
100
AcDbEllipse
 10
-54.70973205567027
 20
0.0000076293900548
 30
0.0
 11
-171.73027038573
 21
0.0000668742396659
 31
0.0
210
0.0
220
0.0
230
1.0
 40
0.0524077670162
 41
1.836056743814283
 42
1.861045506420781
  0
ELLIPSE
  5
B729
330
1F
100
AcDbEntity
  8
AM_0
100
AcDbEllipse
 10
-5.674377441410271
 20
0.0000000000001563
 30
0.0
 11
-0.0000003934000184
 21
8.999996185300005
 31
0.0
210
0.0
220
0.0
230
0.9999999999999998
 40
0.0524088763804
 41
2.255642432542293
 42
2.446306777547762
  0
ELLIPSE
  5
B72A
330
1F
100
AcDbEntity
  8
AM_0
100
AcDbEllipse
 10
-2.670288085940271
 20
0.0000000000001563
 30
0.0
 11
-0.0000004011100327
 21
9.176387786870007
 31
0.0
210
0.0
220
0.0
230
1.0
 40
0.0524058057771
 41
2.240112196727868
 42
2.441395904116421
  0
ELLIPSE
  5
B72B
330
1F
100
AcDbEntity
  8
AM_0
100
AcDbEllipse
 10
-115.8528900146502
 20
-0.0000152587900715
 30
0.0
 11
-175.0956573486199
 21
0.0000681847696549
 31
0.0
210
0.0
220
0.0
230
1.0
 40
0.0524077458706
 41
2.253504419891621
 42
2.271465469546896
  0
ELLIPSE
  5
B72C
330
1F
100
AcDbEntity
  8
AM_0
100
AcDbEllipse
 10
-54.71009826660027
 20
0.0000686645500565
 30
0.0
 11
-175.09660339355
 21
0.0000681851396629
 31
0.0
210
0.0
220
0.0
230
1.0
 40
0.0524079420096
 41
1.856360251315051
 42
1.871195248238938
  0
ELLIPSE
  5
B72D
330
1F
100
AcDbEntity
  8
AM_0
100
AcDbEllipse
 10
-4.528442382820273
 20
-6.641845703119841
 30
0.0
 11
-1.616333111300003
 21
-2.594898289718004
 31
0.0
210
0.0
220
0.0
230
1.0
 40
0.9803608073075999
 41
6.058521893858646
 42
6.444234016783918
  0
ELLIPSE
  5
B72E
330
1F
100
AcDbEntity
  8
AM_0
100
AcDbEllipse
 10
-4.182006835940271
 20
-6.785537719721844
 30
0.0
 11
-0.5582274152299873
 21
-3.006816964595004
 31
0.0
210
0.0
220
0.0
230
1.0
 40
0.9796678195986999
 41
6.077840351578664
 42
6.463092261979688
  0
ELLIPSE
  5
B72F
330
1F
100
AcDbEntity
  8
AM_0
100
AcDbEllipse
 10
-3.807006835940271
 20
-6.785537719721844
 30
0.0
 11
-0.5582274152299992
 21
3.006816964595002
 31
0.0
210
0.0
220
0.0
230
1.0
 40
0.9796678195986999
 41
2.961679544485392
 42
3.346961675337186
  0
ELLIPSE
  5
B730
330
1F
100
AcDbEntity
  8
AM_0
100
AcDbEllipse
 10
-3.46063232422027
 20
-6.641845703119841
 30
0.0
 11
-1.616333111300013
 21
2.594898289716991
 31
0.0
210
0.0
220
0.0
230
1.0
 40
0.9803608073075999
 41
2.980824369238462
 42
3.366055998223014
  0
ELLIPSE
  5
B731
330
1F
100
AcDbEntity
  8
AM_0
100
AcDbEllipse
 10
-3.195434570320273
 20
-5.307044982905836
 30
0.0
 11
-2.481811719109995
 21
-1.782340906677012
 31
0.0
210
0.0
220
0.0
230
1.0
 40
0.9814022284647
 41
2.915143655614733
 42
3.300526259956899
  0
ELLIPSE
  5
B732
330
1F
100
AcDbEntity
  8
AM_0
100
AcDbEllipse
 10
-3.195434570320273
 20
-6.376335144037838
 30
0.0
 11
-2.481811719110002
 21
1.782340906676988
 31
0.0
210
0.0
220
0.0
230
1.0
 40
0.9814022284647
 41
2.982602673239918
 42
3.36804158690737
  0
ELLIPSE
  5
B733
330
1F
100
AcDbEntity
  8
AM_0
100
AcDbEllipse
 10
-3.05194091797027
 20
-5.653945922846844
 30
0.0
 11
-2.986633257009997
 21
-0.6394804758020089
 31
0.0
210
0.0
220
0.0
230
1.0
 40
0.9821579114332999
 41
2.934479184411373
 42
3.319607342269559
  0
ELLIPSE
  5
B734
330
1F
100
AcDbEntity
  8
AM_0
100
AcDbEllipse
 10
-3.05194091797027
 20
-6.029434204096844
 30
0.0
 11
-2.986633257009999
 21
0.6394804758019971
 31
0.0
210
0.0
220
0.0
230
1.0
 40
0.9821579114332999
 41
2.963527706795742
 42
3.348728600097798
  0
ELLIPSE
  5
B735
330
1F
100
AcDbEntity
  8
AM_0
100
AcDbEllipse
 10
-3.44970703125027
 20
-3.556884765619841
 30
0.0
 11
-2.835693438679999
 21
-5.401859091965
 31
0.0
210
0.0
220
0.0
230
1.0
 40
0.4745204191876001
 41
6.136080284864624
 42
6.521703153869658
  0
ELLIPSE
  5
B736
330
1F
100
AcDbEntity
  8
AM_0
100
AcDbEllipse
 10
-5.510803222660243
 20
-9.435974121088847
 30
0.0
 11
-0.1806640712599977
 21
0.2803115626469999
 31
0.0
210
0.0
220
0.0
230
0.9999999999999998
 40
0.7587759669533
 41
5.085986748606424
 42
5.821451407270858
  0
ELLIPSE
  5
B737
330
1F
100
AcDbEntity
  8
AM_0
100
AcDbEllipse
 10
-4.438903808600272
 20
-3.146575927729841
 30
0.0
 11
-0.2845456937500175
 21
6.557758189210004
 31
0.0
210
0.0
220
0.0
230
1.0
 40
0.4564030323221
 41
2.736397812989737
 42
3.121823616873657
  0
ELLIPSE
  5
B738
330
1F
100
AcDbEntity
  8
AM_0
100
AcDbEllipse
 10
-5.509643554690271
 20
-3.146575927729841
 30
0.0
 11
-2.041686726790017
 21
6.501819848310002
 31
0.0
210
0.0
220
0.0
230
1.0
 40
0.4234185882212
 41
3.009410277738989
 42
3.394912740362813
  0
ELLIPSE
  5
B739
330
1F
100
AcDbEntity
  8
AM_0
100
AcDbEllipse
 10
-2.537231445320244
 20
-9.435974121088847
 30
0.0
 11
-0.305419896930005
 21
0.210159325282006
 31
0.0
210
0.0
220
0.0
230
1.0
 40
0.7551313406980001
 41
5.460877373943333
 42
6.196519396994299
  0
ELLIPSE
  5
B73A
330
1F
100
AcDbEntity
  8
AM_0
100
AcDbEllipse
 10
-6.498840332030269
 20
-3.556884765619841
 30
0.0
 11
-5.058044702610016
 21
5.155234714769993
 31
0.0
210
0.0
220
0.0
230
1.0
 40
0.415384650428
 41
2.760493632600325
 42
3.146026762929211
  0
ELLIPSE
  5
B73B
330
1F
100
AcDbEntity
  8
AM_0
100
AcDbEllipse
 10
-7.255981445320273
 20
-4.315032958979841
 30
0.0
 11
-6.249267333060014
 21
3.920539888049989
 31
0.0
210
0.0
220
0.0
230
1.0
 40
0.3981049802287999
 41
3.050971257046804
 42
3.43639192300781
  0
ELLIPSE
  5
B73C
330
1F
100
AcDbEntity
  8
AM_0
100
AcDbEllipse
 10
-7.255981445320273
 20
-7.368347167963847
 30
0.0
 11
-6.249267333059997
 21
-3.920539888057005
 31
0.0
210
0.0
220
0.0
230
1.0
 40
0.3981049802288
 41
2.846832179985188
 42
3.232357820989509
  0
ELLIPSE
  5
B73D
330
1F
100
AcDbEntity
  8
AM_0
100
AcDbEllipse
 10
-7.66571044922027
 20
-5.305603027338847
 30
0.0
 11
-7.485534504360005
 21
0.8537257513399929
 31
0.0
210
0.0
220
0.0
230
1.0
 40
0.3963150228882
 41
2.801129142124291
 42
3.18691564622281
  0
ELLIPSE
  5
B73E
330
1F
100
AcDbEntity
  8
AM_0
100
AcDbEllipse
 10
-7.66571044922027
 20
-6.377777099604841
 30
0.0
 11
-7.485534571029998
 21
-0.8537293747540108
 31
0.0
210
0.0
220
0.0
230
1.0
 40
0.3963155041319
 41
3.096655713095727
 42
3.481886665578278
  0
ELLIPSE
  5
B73F
330
1F
100
AcDbEntity
  8
AM_0
100
AcDbEllipse
 10
-0.4346923828202734
 20
-7.330490112299827
 30
0.0
 11
-0.3869018617199915
 21
0.0790023692049992
 31
0.0
210
0.0
220
0.0
230
1.0
 40
0.7536634482636
 41
5.76803567614196
 42
6.508487172501401
  0
ELLIPSE
  5
B740
330
1F
100
AcDbEntity
  8
AM_0
100
AcDbEllipse
 10
-3.068054199220242
 20
-8.483726501459841
 30
0.0
 11
-0.1213989357300142
 21
0.2986526341179994
 31
0.0
210
0.0
220
0.0
230
0.9999999999999998
 40
0.9294612916936999
 41
2.778047934334588
 42
3.267617839614558
  0
ELLIPSE
  5
B741
330
1F
100
AcDbEntity
  8
AM_0
100
AcDbEllipse
 10
-1.524353027350272
 20
-6.934432983393847
 30
0.0
 11
-0.2966919057199961
 21
0.1311340161480098
 31
0.0
210
0.0
220
0.0
230
1.0
 40
0.9285625692161998
 41
2.797780870450966
 42
2.808378213988016
  0
ELLIPSE
  5
B742
330
1F
100
AcDbEntity
  8
AM_0
100
AcDbEllipse
 10
-0.4346923828202734
 20
-4.352890014643847
 30
0.0
 11
-0.386901838270006
 21
-0.0790062080519939
 31
0.0
210
0.0
220
0.0
230
0.9999999999999998
 40
0.75365251697
 41
6.062902665748983
 42
6.795718351041985
  0
LINE
  5
B743
330
1F
100
AcDbEntity
  8
AM_7
100
AcDbLine
 10
-136.3931732177802
 20
-0.0000000000000995
 30
0.0
 11
5.494110107419729
 21
0.0000000000001705
 31
0.0
  0
LINE
  5
B744
330
1F
100
AcDbEntity
  8
AM_0
100
AcDbLine
 10
-49.9999847412103
 20
10.00000000000007
 30
0.0
 11
-126.9999847412103
 21
9.999999999999914
 31
0.0
  0
LINE
  5
B745
330
1F
100
AcDbEntity
  8
AM_0
100
AcDbLine
 10
-126.9999847412102
 20
-9.999992370601077
 30
0.0
 11
-49.99998474121024
 21
-9.999992370600921
 31
0.0
  0
LINE
  5
B747
330
1F
100
AcDbEntity
  8
AM_0
100
AcDbLine
 10
-129.9999847412102
 20
-8.428817749019103
 30
0.0
 11
-129.9999847412102
 21
-0.0000000000000995
 31
0.0
  0
LINE
  5
B748
330
1F
100
AcDbEntity
  8
AM_0
100
AcDbLine
 10
-126.9999847412102
 20
-9.999992370601077
 30
0.0
 11
-126.9999847412102
 21
-0.0000000000000853
 31
0.0
  0
ARC
  5
B74A
330
1F
100
AcDbEntity
  8
AM_0
100
AcDbCircle
 10
-128.9999847412102
 20
-8.428817749019088
 30
0.0
 40
1.0
100
AcDbArc
 50
180.0000086514213
 51
255.0000073233939
  0
LINE
  5
B74B
330
1F
100
AcDbEntity
  8
AM_0
100
AcDbLine
 10
-129.2588043212902
 20
-9.394744873042085
 30
0.0
 11
-126.9999847412102
 21
-9.999999999995083
 31
0.0
  0
LINE
  5
B74C
330
1F
100
AcDbEntity
  8
AM_0
100
AcDbLine
 10
-129.9999847412102
 20
-0.0000000000000995
 30
0.0
 11
-129.9999847412103
 21
8.428833007809899
 31
0.0
  0
LINE
  5
B74D
330
1F
100
AcDbEntity
  8
AM_0
100
AcDbLine
 10
-126.9999847412102
 20
-0.0000000000000853
 30
0.0
 11
-126.9999847412103
 21
9.999999999999914
 31
0.0
  0
ARC
  5
B74E
330
1F
100
AcDbEntity
  8
AM_0
100
AcDbCircle
 10
-128.9999847412103
 20
8.428833007809913
 30
0.0
 40
1.000000119209299
100
AcDbArc
 50
104.9999926766062
 51
180.0000050089577
  0
LINE
  5
B74F
330
1F
100
AcDbEntity
  8
AM_0
100
AcDbLine
 10
-126.9999847412103
 20
9.999999999999914
 30
0.0
 11
-129.2588043212903
 21
9.394744873049916
 31
0.0
  0
LINE
  5
B750
330
1F
100
AcDbEntity
  8
AM_0
100
AcDbLine
 10
-10.1119384765703
 20
9.000000000000142
 30
0.0
 11
-46.9999847412103
 21
9.000000000000071
 31
0.0
  0
LINE
  5
B751
330
1F
100
AcDbEntity
  8
AM_0
100
AcDbLine
 10
-46.99998474121024
 20
-8.999992370600921
 30
0.0
 11
-10.11193847657024
 21
-8.99999237060085
 31
0.0
  0
LINE
  5
B753
330
1F
100
AcDbEntity
  8
AM_0
100
AcDbLine
 10
-49.99998474121024
 20
-9.999992370600921
 30
0.0
 11
-49.9999847412103
 21
10.00000000000007
 31
0.0
  0
ARC
  5
B754
330
1F
100
AcDbEntity
  8
AM_0
100
AcDbCircle
 10
-46.99998474121024
 20
-13.99999237060092
 30
0.0
 40
5.0
100
AcDbArc
 50
90.00000250447845
 51
126.8699032291531
  0
ARC
  5
B755
330
1F
100
AcDbEntity
  8
AM_0
100
AcDbCircle
 10
-46.9999847412103
 20
14.00000000000007
 30
0.0
 40
5.0
100
AcDbArc
 50
233.1300967708468
 51
269.9999974955215
  0
LINE
  5
B756
330
1F
100
AcDbEntity
  8
AM_0
100
AcDbLine
 10
-5.562561035160271
 20
-4.557983398432838
 30
0.0
 11
-5.562561035160271
 21
1.141700744630156
 31
0.0
  0
LINE
  5
B757
330
1F
100
AcDbEntity
  8
AM_0
100
AcDbLine
 10
-5.386169433600272
 20
-4.417358398432838
 30
0.0
 11
-5.386169433600272
 21
1.141700744630156
 31
0.0
  0
LINE
  5
B758
330
1F
100
AcDbEntity
  8
AM_0
100
AcDbLine
 10
-2.899169921880243
 20
-8.765457153315836
 30
0.0
 11
-2.899169921880272
 21
1.141700744630156
 31
0.0
  0
LINE
  5
B759
330
1F
100
AcDbEntity
  8
AM_0
100
AcDbLine
 10
-1.203735351570273
 20
-7.066909790034841
 30
0.0
 11
-1.203735351570273
 21
1.141700744630171
 31
0.0
  0
ARC
  5
B75C
330
1F
100
AcDbEntity
  8
AM_0
100
AcDbCircle
 10
-4.47821044922027
 20
-5.691688537592838
 30
0.0
 40
1.25
100
AcDbArc
 50
270.0000043257106
 51
0.0000006832462478
  0
ARC
  5
B75D
330
1F
100
AcDbEntity
  8
AM_0
100
AcDbCircle
 10
-4.47821044922027
 20
-5.691688537592838
 30
0.0
 40
1.248286962509199
100
AcDbArc
 50
359.9999974955215
 51
90.00000250447845
  0
LINE
  5
B75E
330
1F
100
AcDbEntity
  8
AM_0
100
AcDbLine
 10
-3.052612304690242
 20
-8.802978515619841
 30
0.0
 11
-5.269287109380243
 21
-8.802978515619841
 31
0.0
  0
ARC
  5
B75F
330
1F
100
AcDbEntity
  8
AM_0
100
AcDbCircle
 10
-4.47821044922027
 20
-5.691688537592838
 30
0.0
 40
1.25
100
AcDbArc
 50
90.00000250447845
 51
270.0000006832462
  0
LINE
  5
B760
330
1F
100
AcDbEntity
  8
AM_0
100
AcDbLine
 10
-10.10742187500024
 20
-8.999694824213861
 30
0.0
 11
-9.560363769530241
 21
-8.683395385737853
 31
0.0
  0
LINE
  5
B761
330
1F
100
AcDbEntity
  8
AM_0
100
AcDbLine
 10
-5.468200683600244
 20
-8.720535278315836
 30
0.0
 11
-5.562561035160243
 21
-8.623542785639841
 31
0.0
  0
LINE
  5
B762
330
1F
100
AcDbEntity
  8
AM_0
100
AcDbLine
 10
-5.386184692390244
 20
-8.804756164545835
 30
0.0
 11
-5.468185424810243
 21
-8.720535278315836
 31
0.0
  0
LINE
  5
B763
330
1F
100
AcDbEntity
  8
AM_0
100
AcDbLine
 10
-5.562545776370271
 20
-6.898605346674841
 30
0.0
 11
-5.386169433600272
 21
-7.119667053217838
 31
0.0
  0
LINE
  5
B764
330
1F
100
AcDbEntity
  8
AM_0
100
AcDbLine
 10
-5.562561035160243
 20
-8.623558044428847
 30
0.0
 11
-5.562561035160271
 21
-6.898590087885835
 31
0.0
  0
LINE
  5
B765
330
1F
100
AcDbEntity
  8
AM_0
100
AcDbLine
 10
-5.386169433600244
 20
-8.804779052729841
 30
0.0
 11
-5.386169433600272
 21
-7.119667053217838
 31
0.0
  0
LINE
  5
B766
330
1F
100
AcDbEntity
  8
AM_0
100
AcDbLine
 10
-6.670898437500241
 20
-8.818511962885835
 30
0.0
 11
-6.845764160160243
 21
-8.643356323237838
 31
0.0
  0
LINE
  5
B767
330
1F
100
AcDbEntity
  8
AM_0
100
AcDbLine
 10
-3.784912109380243
 20
-9.841690063471844
 30
0.0
 11
-4.204101562500241
 21
-9.841690063471844
 31
0.0
  0
LINE
  5
B768
330
1F
100
AcDbEntity
  8
AM_0
100
AcDbLine
 10
-6.670913696290242
 20
-8.818511962885835
 30
0.0
 11
-6.630554199220242
 21
-8.703155517573847
 31
0.0
  0
LINE
  5
B769
330
1F
100
AcDbEntity
  8
AM_0
100
AcDbLine
 10
-4.213668823250245
 20
-9.705619812006844
 30
0.0
 11
-4.204086303710241
 21
-9.841690063471844
 31
0.0
  0
LINE
  5
B76A
330
1F
100
AcDbEntity
  8
AM_0
100
AcDbLine
 10
-3.784896850590243
 20
-9.841682434076844
 30
0.0
 11
-3.848556518560243
 21
-9.705604553217838
 31
0.0
  0
LINE
  5
B76B
330
1F
100
AcDbEntity
  8
AM_0
100
AcDbLine
 10
-5.600296020510242
 20
-9.123710632319841
 30
0.0
 11
-5.716812133790242
 21
-9.456878662104841
 31
0.0
  0
LINE
  5
B76C
330
1F
100
AcDbEntity
  8
AM_0
100
AcDbLine
 10
-5.329544067390244
 20
-9.617523193354841
 30
0.0
 11
-5.716812133790242
 21
-9.456901550287838
 31
0.0
  0
LINE
  5
B76D
330
1F
100
AcDbEntity
  8
AM_0
100
AcDbLine
 10
-5.329498291020243
 20
-9.617530822748847
 30
0.0
 11
-5.357208251960244
 21
-9.224525451655836
 31
0.0
  0
LINE
  5
B76E
330
1F
100
AcDbEntity
  8
AM_0
100
AcDbLine
 10
-6.692565917970242
 20
-8.641029357905836
 30
0.0
 11
-6.630554199220242
 21
-8.703178405756844
 31
0.0
  0
LINE
  5
B76F
330
1F
100
AcDbEntity
  8
AM_0
100
AcDbLine
 10
-5.600265502930241
 20
-9.123718261713847
 30
0.0
 11
-5.577194213870242
 21
-9.123962402338847
 31
0.0
  0
LINE
  5
B770
330
1F
100
AcDbEntity
  8
AM_0
100
AcDbLine
 10
-5.577209472660243
 20
-9.123954772944841
 30
0.0
 11
-5.468322753910243
 21
-8.720405578608847
 31
0.0
  0
LINE
  5
B771
330
1F
100
AcDbEntity
  8
AM_0
100
AcDbLine
 10
-5.269302368170244
 20
-8.802970886225836
 30
0.0
 11
-5.378189086920244
 21
-9.206520080561844
 31
0.0
  0
LINE
  5
B772
330
1F
100
AcDbEntity
  8
AM_0
100
AcDbLine
 10
-5.378189086920244
 20
-9.206527709955835
 30
0.0
 11
-5.357238769530241
 21
-9.224533081049841
 31
0.0
  0
LINE
  5
B773
330
1F
100
AcDbEntity
  8
AM_0
100
AcDbLine
 10
-4.213684082030241
 20
-9.705619812006844
 30
0.0
 11
-3.848571777350244
 21
-9.705619812006844
 31
0.0
  0
LINE
  5
B774
330
1F
100
AcDbEntity
  8
AM_0
100
AcDbLine
 10
-5.468338012700243
 20
-8.720390319819841
 30
0.0
 11
-5.565002441410243
 21
-8.623588562006844
 31
0.0
  0
LINE
  5
B775
330
1F
100
AcDbEntity
  8
AM_0
100
AcDbLine
 10
-2.854293823250245
 20
-8.721115112299841
 30
0.0
 11
-2.899154663090243
 21
-8.765457153315836
 31
0.0
  0
LINE
  5
B776
330
1F
100
AcDbEntity
  8
AM_0
100
AcDbLine
 10
-2.841964721680241
 20
-8.708938598627838
 30
0.0
 11
-2.854293823250245
 21
-8.721122741694841
 31
0.0
  0
LINE
  5
B777
330
1F
100
AcDbEntity
  8
AM_0
100
AcDbLine
 10
-2.706970214850244
 20
-8.575325012201844
 30
0.0
 11
-2.841995239260242
 21
-8.708908081049841
 31
0.0
  0
LINE
  5
B778
330
1F
100
AcDbEntity
  8
AM_0
100
AcDbLine
 10
-1.311828613280269
 20
-7.176918029780836
 30
0.0
 11
-1.423233032230271
 21
-7.290023803705835
 31
0.0
  0
LINE
  5
B779
330
1F
100
AcDbEntity
  8
AM_0
100
AcDbLine
 10
-1.285446167000273
 20
-7.150138854975836
 30
0.0
 11
-1.311828613280269
 21
-7.176933288569841
 31
0.0
  0
LINE
  5
B77A
330
1F
100
AcDbEntity
  8
AM_0
100
AcDbLine
 10
-1.284057617190271
 20
-7.148689270014841
 30
0.0
 11
-1.285461425780269
 21
-7.150131225580835
 31
0.0
  0
LINE
  5
B77B
330
1F
100
AcDbEntity
  8
AM_0
100
AcDbLine
 10
-1.203750610350269
 20
-7.066902160639841
 30
0.0
 11
-1.284057617190271
 21
-7.148689270014841
 31
0.0
  0
LINE
  5
B77C
330
1F
100
AcDbEntity
  8
AM_0
100
AcDbLine
 10
-1.021789550780241
 20
-8.521705627436844
 30
0.0
 11
-1.318176269530241
 21
-8.818527221674841
 31
0.0
  0
LINE
  5
B77D
330
1F
100
AcDbEntity
  8
AM_0
100
AcDbLine
 10
-1.431762695320244
 20
-8.703170776362838
 30
0.0
 11
-1.318176269530241
 21
-8.818527221674841
 31
0.0
  0
LINE
  5
B77E
330
1F
100
AcDbEntity
  8
AM_0
100
AcDbLine
 10
-1.021804809570241
 20
-8.521713256830835
 30
0.0
 11
-1.173583984380243
 21
-8.444641113276844
 31
0.0
  0
LINE
  5
B77F
330
1F
100
AcDbEntity
  8
AM_0
100
AcDbLine
 10
-2.843414306640241
 20
-9.224548339838847
 30
0.0
 11
-2.659576416020243
 21
-9.617553710932838
 31
0.0
  0
LINE
  5
B780
330
1F
100
AcDbEntity
  8
AM_0
100
AcDbLine
 10
-2.272277832030241
 20
-9.456909179682838
 30
0.0
 11
-2.659530639650242
 21
-9.617538452143847
 31
0.0
  0
LINE
  5
B781
330
1F
100
AcDbEntity
  8
AM_0
100
AcDbLine
 10
-2.272293090820241
 20
-9.456886291498847
 30
0.0
 11
-2.600418090820241
 21
-9.123710632319841
 31
0.0
  0
LINE
  5
B782
330
1F
100
AcDbEntity
  8
AM_0
100
AcDbLine
 10
-0.8228149414102716
 20
-7.343688964838847
 30
0.0
 11
-0.3842620849602696
 21
-7.566314697260821
 31
0.0
  0
LINE
  5
B783
330
1F
100
AcDbEntity
  8
AM_0
100
AcDbLine
 10
-0.2238616943402718
 20
-7.17852783202683
 30
0.0
 11
-0.3842620849602696
 21
-7.566314697260821
 31
0.0
  0
LINE
  5
B784
330
1F
100
AcDbEntity
  8
AM_0
100
AcDbLine
 10
-0.2238922119202726
 20
-7.17852020263183
 30
0.0
 11
-0.7221221923902732
 21
-7.100349426264827
 31
0.0
  0
LINE
  5
B785
330
1F
100
AcDbEntity
  8
AM_0
100
AcDbLine
 10
-2.843383789070244
 20
-9.224525451655836
 30
0.0
 11
-2.827713012700243
 21
-9.206535339350836
 31
0.0
  0
LINE
  5
B786
330
1F
100
AcDbEntity
  8
AM_0
100
AcDbLine
 10
-2.827697753910243
 20
-9.206550598139841
 30
0.0
 11
-3.052627563480243
 21
-8.802986145014841
 31
0.0
  0
LINE
  5
B787
330
1F
100
AcDbEntity
  8
AM_0
100
AcDbLine
 10
-2.853561401370242
 20
-8.720413208002838
 30
0.0
 11
-2.628585815430241
 21
-9.123977661127838
 31
0.0
  0
LINE
  5
B788
330
1F
100
AcDbEntity
  8
AM_0
100
AcDbLine
 10
-2.628585815430241
 20
-9.123962402338847
 30
0.0
 11
-2.600387573250245
 21
-9.123718261713847
 31
0.0
  0
LINE
  5
B789
330
1F
100
AcDbEntity
  8
AM_0
100
AcDbLine
 10
-1.43177795410024
 20
-8.703163146967838
 30
0.0
 11
-1.173599243170244
 21
-8.444618225092838
 31
0.0
  0
LINE
  5
B78A
330
1F
100
AcDbEntity
  8
AM_0
100
AcDbLine
 10
-0.8227996826202712
 20
-7.343704223627824
 30
0.0
 11
-0.8251190185602723
 21
-7.318016052241844
 31
0.0
  0
LINE
  5
B78B
330
1F
100
AcDbEntity
  8
AM_0
100
AcDbLine
 10
-0.74267578125027
 20
-7.118705749506844
 30
0.0
 11
-0.7221069336002728
 21
-7.100364685053833
 31
0.0
  0
LINE
  5
B78C
330
1F
100
AcDbEntity
  8
AM_0
100
AcDbLine
 10
-0.8251342773502727
 20
-7.318016052241844
 30
0.0
 11
-1.286193847660271
 21
-7.150863647455835
 31
0.0
  0
LINE
  5
B78D
330
1F
100
AcDbEntity
  8
AM_0
100
AcDbLine
 10
-1.203735351570273
 20
-6.951530456537838
 30
0.0
 11
-0.7426910400402705
 21
-7.118690490717838
 31
0.0
  0
LINE
  5
B78E
330
1F
100
AcDbEntity
  8
AM_0
100
AcDbLine
 10
-1.203735351570273
 20
-2.979476928705835
 30
0.0
 11
-1.021804809570269
 21
-3.161666870112824
 31
0.0
  0
LINE
  5
B78F
330
1F
100
AcDbEntity
  8
AM_0
100
AcDbLine
 10
-0.00000000000027
 20
-5.63181304931183
 30
0.0
 11
-0.00000000000027
 21
-6.05156707763183
 31
0.0
  0
LINE
  5
B790
330
1F
100
AcDbEntity
  8
AM_0
100
AcDbLine
 10
-1.173583984380272
 20
-3.238723754877838
 30
0.0
 11
-1.021804809570269
 21
-3.161659240717838
 31
0.0
  0
LINE
  5
B791
330
1F
100
AcDbEntity
  8
AM_0
100
AcDbLine
 10
-0.0000152587902704
 20
-5.63181304931183
 30
0.0
 11
-0.1724700927802729
 21
-5.658882141108833
 31
0.0
  0
LINE
  5
B792
330
1F
100
AcDbEntity
  8
AM_0
100
AcDbLine
 10
-0.1724853515702733
 20
-6.024497985834827
 30
0.0
 11
0.0000305175797308
 21
-6.05156707763183
 31
0.0
  0
LINE
  5
B793
330
1F
100
AcDbEntity
  8
AM_0
100
AcDbLine
 10
-0.7221069336002728
 20
-4.583038330073847
 30
0.0
 11
-0.2238769531302722
 21
-4.504867553705821
 31
0.0
  0
LINE
  5
B794
330
1F
100
AcDbEntity
  8
AM_0
100
AcDbLine
 10
-0.3842926025402704
 20
-4.117065429682824
 30
0.0
 11
-0.2238922119202726
 21
-4.504867553705821
 31
0.0
  0
LINE
  5
B795
330
1F
100
AcDbEntity
  8
AM_0
100
AcDbLine
 10
-0.38427734375027
 20
-4.117073059076844
 30
0.0
 11
-0.8227996826202712
 21
-4.339683532709827
 31
0.0
  0
LINE
  5
B796
330
1F
100
AcDbEntity
  8
AM_0
100
AcDbLine
 10
-0.8251190185602723
 20
-4.365364074701844
 30
0.0
 11
-0.8227996826202712
 21
-4.339668273920821
 31
0.0
  0
LINE
  5
B797
330
1F
100
AcDbEntity
  8
AM_0
100
AcDbLine
 10
-1.173568725590271
 20
-3.238754272455835
 30
0.0
 11
-1.203735351570273
 21
-3.208572387690836
 31
0.0
  0
LINE
  5
B798
330
1F
100
AcDbEntity
  8
AM_0
100
AcDbLine
 10
-0.1724853515702733
 20
-6.024497985834827
 30
0.0
 11
-0.1724853515702733
 21
-5.658882141108833
 31
0.0
  0
LINE
  5
B799
330
1F
100
AcDbEntity
  8
AM_0
100
AcDbLine
 10
-0.7220916748102724
 20
-4.583015441889827
 30
0.0
 11
-0.7426605224602696
 21
-4.564674377436844
 31
0.0
  0
LINE
  5
B79A
330
1F
100
AcDbEntity
  8
AM_0
100
AcDbLine
 10
-0.7426910400402705
 20
-4.564704895014827
 30
0.0
 11
-1.203735351570273
 21
-4.731864929194841
 31
0.0
  0
LINE
  5
B79B
330
1F
100
AcDbEntity
  8
AM_0
100
AcDbLine
 10
-1.203735351570273
 20
-4.502616882319841
 30
0.0
 11
-0.8251342773502727
 21
-4.365364074701844
 31
0.0
  0
CIRCLE
  5
B79C
330
1F
100
AcDbEntity
  8
AM_0
100
AcDbCircle
 10
-3.994506835940271
 20
5.841697692870155
 30
0.0
 40
2.077563047409099
  0
LINE
  5
B79E
330
1F
100
AcDbEntity
  8
AM_0
100
AcDbLine
 10
-2.50000000000027
 20
1.641700744630156
 30
0.0
 11
-10.02661132813027
 21
1.641700744630142
 31
0.0
  0
LINE
  5
B79F
330
1F
100
AcDbEntity
  8
AM_0
100
AcDbLine
 10
-5.386169433600272
 20
1.141700744630156
 30
0.0
 11
-2.899169921880272
 21
1.141700744630156
 31
0.0
  0
ARC
  5
B7A1
330
1F
100
AcDbEntity
  8
AM_0
100
AcDbCircle
 10
-10.0266113281303
 20
11.14170074463014
 30
0.0
 40
9.487653732299799
100
AcDbArc
 50
193.1525897474128
 51
270.0000043257106
  0
LINE
  5
B7A2
330
1F
100
AcDbEntity
  8
AM_0
100
AcDbLine
 10
-19.74189758301029
 20
8.937850952150128
 30
0.0
 11
-19.7404937744203
 21
8.934799194340129
 31
0.0
  0
ARC
  5
B7A3
330
1F
100
AcDbEntity
  8
AM_0
100
AcDbCircle
 10
-6.531372070320273
 20
3.341697692870155
 30
0.0
 40
1.4983630180359
100
AcDbArc
 50
153.1325133426047
 51
270.0000006832462
  0
LINE
  5
B7A4
330
1F
100
AcDbEntity
  8
AM_0
100
AcDbLine
 10
-9.56250000000027
 20
1.141700744630142
 30
0.0
 11
-5.562561035160271
 21
1.141700744630156
 31
0.0
  0
LINE
  5
B7A5
330
1F
100
AcDbEntity
  8
AM_0
100
AcDbLine
 10
-7.765182495120271
 20
4.504867553710155
 30
0.0
 11
-7.604721069340271
 21
4.117065429690157
 31
0.0
  0
LINE
  5
B7A6
330
1F
100
AcDbEntity
  8
AM_0
100
AcDbLine
 10
-7.868041992190271
 20
4.018852233890143
 30
0.0
 11
-7.868041992190271
 21
4.795661926270142
 31
0.0
  0
ARC
  5
B7A7
330
1F
100
AcDbEntity
  8
AM_0
100
AcDbCircle
 10
-4.125610351570273
 20
5.841697692870155
 30
0.0
 40
1.4999986886978
100
AcDbArc
 50
268.3123192233128
 51
270.0000043257106
  0
ARC
  5
B7A8
330
1F
100
AcDbEntity
  8
AM_0
100
AcDbCircle
 10
-4.125610351570273
 20
5.841697692870155
 30
0.0
 40
1.5
100
AcDbArc
 50
270.0000043257106
 51
271.6765972008969
  0
ARC
  5
B7A9
330
1F
100
AcDbEntity
  8
AM_0
100
AcDbCircle
 10
-6.531372070320273
 20
3.341697692870155
 30
0.0
 40
1.5
100
AcDbArc
 50
270.0000043257106
 51
296.804180138453
  0
LINE
  5
B7AA
330
1F
100
AcDbEntity
  8
AM_0
100
AcDbLine
 10
-5.562561035160271
 20
1.141700744630156
 30
0.0
 11
-5.386169433600272
 21
1.141700744630156
 31
0.0
  0
LINE
  5
B7AB
330
1F
100
AcDbEntity
  8
AM_0
100
AcDbLine
 10
-6.96728515625027
 20
3.161682128910157
 30
0.0
 11
-6.67089843750027
 21
2.864868164060155
 31
0.0
  0
LINE
  5
B7AC
330
1F
100
AcDbEntity
  8
AM_0
100
AcDbLine
 10
-5.716781616210269
 20
2.226501464840154
 30
0.0
 11
-5.329528808600272
 21
2.065872192380155
 31
0.0
  0
LINE
  5
B7AD
330
1F
100
AcDbEntity
  8
AM_0
100
AcDbLine
 10
-4.20410156250027
 20
1.841697692870155
 30
0.0
 11
-3.784912109380272
 21
1.841697692870155
 31
0.0
  0
LINE
  5
B7AE
330
1F
100
AcDbEntity
  8
AM_0
100
AcDbLine
 10
-5.16473388672027
 20
2.003242492680158
 30
0.0
 11
-5.85516357422027
 21
2.003242492680158
 31
0.0
  0
LINE
  5
B7AF
330
1F
100
AcDbEntity
  8
AM_0
100
AcDbLine
 10
-7.604751586920301
 20
7.566337585450142
 30
0.0
 11
-7.7652130127003
 21
7.178520202640143
 31
0.0
  0
LINE
  5
B7B0
330
1F
100
AcDbEntity
  8
AM_0
100
AcDbLine
 10
-7.989013671880272
 20
6.051574707030155
 30
0.0
 11
-7.989013671880272
 21
5.631820678710155
 31
0.0
  0
LINE
  5
B7B1
330
1F
100
AcDbEntity
  8
AM_0
100
AcDbLine
 10
-7.617446899420301
 20
7.535758972170143
 30
0.0
 11
-7.868041992190299
 21
7.705001831050154
 31
0.0
  0
LINE
  5
B7B2
330
1F
100
AcDbEntity
  8
AM_0
100
AcDbLine
 10
-7.868041992190299
 20
6.887741088870157
 30
0.0
 11
-7.868041992190299
 21
7.704978942870141
 31
0.0
  0
LINE
  5
B7B3
330
1F
100
AcDbEntity
  8
AM_0
100
AcDbLine
 10
-10.10742187500029
 20
8.999671936040144
 30
0.0
 11
-7.868057250980299
 21
7.704971313480157
 31
0.0
  0
ARC
  5
B7B4
330
1F
100
AcDbEntity
  8
AM_0
100
AcDbCircle
 10
-4.125610351570273
 20
5.841705322270158
 30
0.0
 40
1.499994754791299
100
AcDbArc
 50
88.31743321377185
 51
90.00000250447845
  0
ARC
  5
B7B5
330
1F
100
AcDbEntity
  8
AM_0
100
AcDbCircle
 10
-4.125610351570273
 20
5.841697692870155
 30
0.0
 40
1.500000953674299
100
AcDbArc
 50
90.00000250447845
 51
91.66685552990365
  0
LINE
  5
B7B6
330
1F
100
AcDbEntity
  8
AM_0
100
AcDbLine
 10
-3.7849121093803
 20
9.841697692870155
 30
0.0
 11
-4.204101562500298
 21
9.841697692870155
 31
0.0
  0
LINE
  5
B7B7
330
1F
100
AcDbEntity
  8
AM_0
100
AcDbLine
 10
-5.329544067390301
 20
9.617515563960154
 30
0.0
 11
-5.716796875000298
 21
9.456886291500154
 31
0.0
  0
LINE
  5
B7B8
330
1F
100
AcDbEntity
  8
AM_0
100
AcDbLine
 10
-6.670883178710298
 20
8.818527221680156
 30
0.0
 11
-6.967269897460298
 21
8.521713256840158
 31
0.0
  0
LINE
  5
B7B9
330
1F
100
AcDbEntity
  8
AM_0
100
AcDbLine
 10
-2.899169921880272
 20
1.141700744630156
 30
0.0
 11
-1.203735351570273
 21
1.141700744630171
 31
0.0
  0
LINE
  5
B7BA
330
1F
100
AcDbEntity
  8
AM_0
100
AcDbLine
 10
-2.50000000000027
 20
1.641700744630156
 30
0.0
 11
-2.50000000000027
 21
1.141700744630156
 31
0.0
  0
LINE
  5
B7BB
330
1F
100
AcDbEntity
  8
AM_0
100
AcDbLine
 10
-1.203735351570273
 20
2.979476928710155
 30
0.0
 11
-1.203735351570273
 21
1.141700744630171
 31
0.0
  0
LINE
  5
B7BC
330
1F
100
AcDbEntity
  8
AM_0
100
AcDbLine
 10
-0.3842620849602696
 20
4.117065429690157
 30
0.0
 11
-0.2238616943402718
 21
4.504852294920155
 31
0.0
  0
LINE
  5
B7BD
330
1F
100
AcDbEntity
  8
AM_0
100
AcDbLine
 10
-2.659561157230271
 20
2.065841674800154
 30
0.0
 11
-2.272247314460273
 21
2.226493835450156
 31
0.0
  0
LINE
  5
B7BE
330
1F
100
AcDbEntity
  8
AM_0
100
AcDbLine
 10
-1.318191528320269
 20
2.864868164060155
 30
0.0
 11
-1.021804809570269
 21
3.16168975830017
 31
0.0
  0
LINE
  5
B7BF
330
1F
100
AcDbEntity
  8
AM_0
100
AcDbLine
 10
-2.50000000000027
 20
2.003242492680158
 30
0.0
 11
-2.50000000000027
 21
2.132026672360154
 31
0.0
  0
LINE
  5
B7C0
330
1F
100
AcDbEntity
  8
AM_0
100
AcDbLine
 10
-2.50000000000027
 20
1.641700744630156
 30
0.0
 11
-2.50000000000027
 21
2.003242492680158
 31
0.0
  0
LINE
  5
B7C1
330
1F
100
AcDbEntity
  8
AM_0
100
AcDbLine
 10
-2.50000000000027
 20
2.003242492680158
 30
0.0
 11
-2.824279785160271
 21
2.003242492680158
 31
0.0
  0
LINE
  5
B7C2
330
1F
100
AcDbEntity
  8
AM_0
100
AcDbLine
 10
-0.00000000000027
 20
5.631820678710155
 30
0.0
 11
-0.00000000000027
 21
6.051574707030155
 31
0.0
  0
LINE
  5
B7C3
330
1F
100
AcDbEntity
  8
AM_0
100
AcDbLine
 10
-0.2238922119203011
 20
7.178527832030155
 30
0.0
 11
-0.3842926025402988
 21
7.56632232666017
 31
0.0
  0
LINE
  5
B7C4
330
1F
100
AcDbEntity
  8
AM_0
100
AcDbLine
 10
-1.021804809570298
 20
8.52172088623017
 30
0.0
 11
-1.318176269530297
 21
8.818519592290172
 31
0.0
  0
LINE
  5
B7C5
330
1F
100
AcDbEntity
  8
AM_0
100
AcDbLine
 10
-2.272262573250301
 20
9.456886291500154
 30
0.0
 11
-2.659530639650299
 21
9.617515563960154
 31
0.0
  0
LINE
  5
B93D
330
1F
100
AcDbEntity
  8
AM_11
100
AcDbLine
 10
-0.0000000000002842
 20
10.00000000000015
 30
0.0
 11
-0.0000000000002416
 21
-9.999999999999843
 31
0.0
  0
LINE
  5
B945
330
1F
100
AcDbEntity
  8
AM_11
100
AcDbLine
 10
-4.00000000000027
 20
10.00000000000014
 30
0.0
 11
-4.000000000000241
 21
-9.999999999999857
 31
0.0
  0
LINE
  5
B94E
330
1F
100
AcDbEntity
  8
AM_11
100
AcDbLine
 10
-4.00000000000027
 20
10.00000000000015
 30
0.0
 11
-0.0000000000002842
 21
10.00000000000015
 31
0.0
  0
LINE
  5
B952
330
1F
100
AcDbEntity
  8
AM_11
100
AcDbLine
 10
-4.000000000000227
 20
-9.999999999999843
 30
0.0
 11
-0.0000000000002416
 21
-9.999999999999843
 31
0.0
  0
DIMENSION
  5
B95A
330
1F
100
AcDbEntity
  8
AM_5
100
AcDbDimension
  2
*D5
 10
-0.0000000000002571
 20
17.00000000000015
 30
0.0
 11
-2.000000000000247
 21
18.55000000000016
 31
0.0
 70
    32
  1
<>
 51
359.9999999999998
  3
AM_JIS$0
100
AcDbAlignedDimension
 13
-4.000000000000255
 23
10.00000000000015
 33
0.0
 14
-0.00000000000027
 24
10.00000000000015
 34
0.0
 50
180.0
100
AcDbRotatedDimension
1001
GENIUS_GENDTOL_13
1000

1000
h7
1000

1040
0.0
1001
ACAD
1000
DSTYLE
1002
{
1070
   287
1070
     3
1070
    40
1040
0.5
1070
    42
1040
1.0
1070
    43
1040
12.0
1070
    48
1040
0.1
1070
    78
1070
     8
1070
   140
1040
3.2
1070
   176
1070
   256
1070
   177
1070
   256
1070
   271
1070
     0
1070
   272
1070
     3
1070
   275
1070
     0
1070
   284
1070
     0
1070
   289
1070
     3
1070
   340
1005
6B
1070
   371
1070
    -1
1070
   372
1070
    -1
1002
}
  0
DIMENSION
  5
BA39
330
1F
100
AcDbEntity
  8
AM_5
100
AcDbDimension
  2
*D6
 10
12.10610312345647
 20
-9.999999999999861
 30
0.0
 11
10.55610312345647
 21
0.0000000000001416
 31
0.0
 70
    32
  1
%%c<>
 51
359.9999999999998
  3
AM_JIS$0
100
AcDbAlignedDimension
 13
-0.0000000000002842
 23
10.00000000000014
 33
0.0
 14
-0.0000000000002274
 24
-9.999999999999857
 34
0.0
 50
90.0
100
AcDbRotatedDimension
1001
GENIUS_GENDTOL_13
1000

1000
h7
1000

1040
0.0
1001
ACAD
1000
DSTYLE
1002
{
1070
   287
1070
     3
1070
    40
1040
0.5
1070
    42
1040
1.0
1070
    43
1040
12.0
1070
    48
1040
0.1
1070
    78
1070
     8
1070
   140
1040
3.2
1070
   176
1070
   256
1070
   177
1070
   256
1070
   271
1070
     0
1070
   272
1070
     3
1070
   275
1070
     0
1070
   284
1070
     0
1070
   289
1070
     3
1070
   340
1005
6B
1070
   371
1070
    -1
1070
   372
1070
    -1
1002
}
  0
DIMENSION
  5
BAC5
330
1F
100
AcDbEntity
  8
AM_5
100
AcDbDimension
  2
*D7
 10
-26.99959136564013
 20
-8.999992370600928
 30
0.0
 11
-26.99959136564013
 21
3.20819645143591
 31
0.0
 70
   160
  1
%%c<>
 51
359.9999999999998
  3
AM_JIS$0
100
AcDbAlignedDimension
 13
-46.9999847412103
 23
9.000000000000071
 33
0.0
 14
-46.99998474121024
 24
-8.999992370600921
 34
0.0
 50
90.0
100
AcDbRotatedDimension
1001
GENIUS_GENDTOL_13
1000

1000
h7
1000

1040
0.0
1001
ACAD
1000
DSTYLE
1002
{
1070
   287
1070
     3
1070
    76
1070
     1
1070
    75
1070
     1
1070
    40
1040
0.5
1070
    42
1040
1.0
1070
    43
1040
12.0
1070
    48
1040
0.1
1070
    78
1070
     8
1070
   140
1040
3.2
1070
   176
1070
   256
1070
   177
1070
   256
1070
   271
1070
     0
1070
   272
1070
     3
1070
   275
1070
     0
1070
   284
1070
     0
1070
   289
1070
     3
1070
   340
1005
6B
1070
   371
1070
    -1
1070
   372
1070
    -1
1002
}
  0
DIMENSION
  5
BB51
330
1F
100
AcDbEntity
  8
AM_5
100
AcDbDimension
  2
*D8
 10
-136.9999847412102
 20
-9.999999999995081
 30
0.0
 11
-138.5499847412102
 21
0.000000000002396
 31
0.0
 70
    32
  1
%%c<>
 51
359.9999999999998
  3
AM_JIS$0
100
AcDbAlignedDimension
 13
-126.9999847412102
 23
9.999999999999914
 33
0.0
 14
-126.9999847412102
 24
-9.999999999995083
 34
0.0
 50
270.0
100
AcDbRotatedDimension
1001
GENIUS_GENDTOL_13
1000

1000
h7
1000

1040
0.0
1001
ACAD
1000
DSTYLE
1002
{
1070
   287
1070
     3
1070
    40
1040
0.5
1070
    42
1040
1.0
1070
    43
1040
12.0
1070
    48
1040
0.1
1070
    78
1070
     8
1070
   140
1040
3.2
1070
   176
1070
   256
1070
   177
1070
   256
1070
   271
1070
     0
1070
   272
1070
     3
1070
   275
1070
     0
1070
   284
1070
     0
1070
   289
1070
     3
1070
   340
1005
6B
1070
   371
1070
    -1
1070
   372
1070
    -1
1002
}
  0
DIMENSION
  5
BBDD
330
1F
100
AcDbEntity
  8
AM_5
100
AcDbDimension
  2
*D9
 10
-49.99998513099875
 20
-16.99999999999985
 30
0.0
 11
-24.9999925654995
 21
-15.44999999999985
 31
0.0
 70
    32
  1
<>
 51
359.9999999999998
  3
AM_JIS$0
100
AcDbAlignedDimension
 13
-0.0000000000002416
 23
-9.999999999999857
 33
0.0
 14
-49.99998513099875
 24
-9.999992662942318
 34
0.0
100
AcDbRotatedDimension
1001
GENIUS_GENDTOL_13
1000

1000
h7
1000

1040
0.0
1001
ACAD
1000
DSTYLE
1002
{
1070
   287
1070
     3
1070
    40
1040
0.5
1070
    42
1040
1.0
1070
    43
1040
12.0
1070
    48
1040
0.1
1070
    78
1070
     8
1070
   140
1040
3.2
1070
   176
1070
   256
1070
   177
1070
   256
1070
   271
1070
     0
1070
   272
1070
     3
1070
   275
1070
     0
1070
   284
1070
     0
1070
   289
1070
     3
1070
   340
1005
6B
1070
   371
1070
    -1
1070
   372
1070
    -1
1002
}
  0
DIMENSION
  5
BC69
330
1F
100
AcDbEntity
  8
AM_5
100
AcDbDimension
  2
*D10
 10
-129.9999847412102
 20
-16.99999999999985
 30
0.0
 11
-89.99998493610451
 21
-15.44999999999985
 31
0.0
 70
    32
  1
<>
 51
359.9999999999998
  3
AM_JIS$0
100
AcDbAlignedDimension
 13
-49.99998513099875
 23
-9.999992662942318
 33
0.0
 14
-129.9999847412102
 24
-8.428817900014863
 34
0.0
100
AcDbRotatedDimension
1001
GENIUS_GENDTOL_13
1000

1000
h7
1000

1040
0.0
1001
ACAD
1000
DSTYLE
1002
{
1070
   287
1070
     3
1070
    40
1040
0.5
1070
    42
1040
1.0
1070
    43
1040
12.0
1070
    48
1040
0.1
1070
    78
1070
     8
1070
   140
1040
3.2
1070
   176
1070
   256
1070
   177
1070
   256
1070
   271
1070
     0
1070
   272
1070
     3
1070
   275
1070
     0
1070
   284
1070
     0
1070
   289
1070
     3
1070
   340
1005
6B
1070
   371
1070
    -1
1070
   372
1070
    -1
1002
}
  0
DIMENSION
  5
BD65
330
1F
100
AcDbEntity
  8
AM_5
100
AcDbDimension
  2
*D11
 10
-0.0000000000002423
 20
-21.99999999999985
 30
0.0
 11
-64.99999237060525
 21
-20.44999999999985
 31
0.0
 70
    32
  1
<>
 51
359.9999999999998
  3
AM_JIS$0
100
AcDbAlignedDimension
 13
-129.9999847412102
 23
-8.428817900014863
 33
0.0
 14
-0.0000000000002416
 24
-9.999999999999857
 34
0.0
100
AcDbRotatedDimension
1001
GENIUS_GENDTOL_13
1000

1000
h7
1000

1040
0.0
1001
ACAD
1000
DSTYLE
1002
{
1070
   287
1070
     3
1070
    40
1040
0.5
1070
    42
1040
1.0
1070
    43
1040
12.0
1070
    48
1040
0.1
1070
    78
1070
     8
1070
   140
1040
3.2
1070
   176
1070
   256
1070
   177
1070
   256
1070
   271
1070
     0
1070
   272
1070
     3
1070
   275
1070
     0
1070
   284
1070
     0
1070
   289
1070
     3
1070
   340
1005
6B
1070
   371
1070
    -1
1070
   372
1070
    -1
1002
}
  0
LINE
  5
BE64
330
1F
100
AcDbEntity
  8
AM_0
100
AcDbLine
 10
-5.976537496820474
 20
-6.91083248000752
 30
0.0
 11
-5.562545776370271
 21
-6.898605346674841
 31
0.0
  0
VIEWPORT
  5
110
330
101
100
AcDbEntity
 67
     1
  8
0
100
AcDbViewport
 10
420.5
 20
297.0
 30
0.0
 40
948.9782706766916
 41
628.452
 68
     1
 69
     1
1001
ACAD
1000
MVIEW
1002
{
1070
    16
1010
0.0
1020
0.0
1030
0.0
1010
0.0
1020
0.0
1030
1.0
1040
0.0
1040
628.452
1040
420.5
1040
297.0
1040
50.0
1040
0.0
1040
0.0
1070
     0
1070
   100
1070
     1
1070
     1
1070
     0
1070
     0
1070
     0
1070
     0
1040
0.0
1040
0.0
1040
0.0
1040
10.0
1040
10.0
1040
10.0
1040
10.0
1070
     0
1002
{
1002
}
1002
}
  0
ENDSEC
  0
SECTION
  2
OBJECTS
  0
DICTIONARY
  5
C
330
0
100
AcDbDictionary
  3
ACAD_GROUP
350
D
  3
ACAD_LAYOUT
350
1A
  3
ACAD_MLINESTYLE
350
17
  3
ACAD_PLOTSETTINGS
350
19
  3
ACAD_PLOTSTYLENAME
350
E
  3
ACDBVARIABLEDICTIONARY
350
34
  3
ACMDICTIONARY
350
43
  3
AMG
350
2B
  3
AMGSNAPSETTINGS
350
6E
  3
DWGPROPS
350
BFB1
  3
ACDBHEADERROUNDTRIPXREC
350
BFBD
  0
DICTIONARY
  5
74
330
1F
100
AcDbDictionary
280
     1
  3
ACAD_INDEX
360
BFB3
  3
ACAD_LAYOUTSELFREF
360
BFE0
  0
DICTIONARY
  5
BFE5
330
101
100
AcDbDictionary
280
     1
  3
ACAD_LAYOUTSELFREF
360
BFE6
  0
DICTIONARY
  5
D
102
{ACAD_REACTORS
330
C
102
}
330
C
100
AcDbDictionary
  0
DICTIONARY
  5
1A
102
{ACAD_REACTORS
330
C
102
}
330
C
100
AcDbDictionary
  0
DICTIONARY
  5
17
102
{ACAD_REACTORS
330
C
102
}
330
C
100
AcDbDictionary
  3
STANDARD
350
18
  0
DICTIONARY
  5
19
102
{ACAD_REACTORS
330
C
102
}
330
C
100
AcDbDictionary
  3
ASAMI
350
399D
  0
ACDBDICTIONARYWDFLT
  5
E
102
{ACAD_REACTORS
330
C
102
}
330
C
100
AcDbDictionary
281
     1
  3
Normal
350
F
100
AcDbDictionaryWithDefault
340
F
  0
DICTIONARY
  5
34
102
{ACAD_REACTORS
330
C
102
}
330
C
100
AcDbDictionary
  3
INDEXCTL
350
35
  3
SORTENTS
350
B5E
  0
DICTIONARY
  5
43
102
{ACAD_REACTORS
330
C
102
}
330
C
100
AcDbDictionary
  3
ACMSTDDICTIONARY
350
260
  0
DICTIONARY
  5
2B
102
{ACAD_REACTORS
330
C
102
}
330
C
100
AcDbDictionary
  3
ACMGSETTINGS
350
2C
  0
DICTIONARY
  5
6E
102
{ACAD_REACTORS
330
C
102
}
330
C
100
AcDbDictionary
  0
XRECORD
  5
BFB1
102
{ACAD_REACTORS
330
C
102
}
330
C
100
AcDbXrecord
  1
DWGPROPS COOKIE
  2

  3

  4

  6

  7

  8

  9

300
AmdtFileType=82
301
=
302
=
303
=
304
=
305
=
306
=
307
=
308
=
309
=
 40
0.9481489467592593
 41
2452802.716478761
 42
2453075.6861753
  1

 90
        1
  0
DICTIONARY
  5
BFBD
102
{ACAD_REACTORS
330
C
102
}
330
C
100
AcDbDictionary
  3
TSTACKALIGN
350
BFBE
  3
TSTACKSIZE
350
BFBF
  3
HYPERLINKBASE
350
BFC0
  3
STYLESHEET
350
BFC1
  3
LAYOUTDICT
350
BFC2
  3
PLOTSETDICT
350
BFC3
  3
PLOTSTYLNAMDICT
350
BFC4
  3
LWETCUNION
350
BFC5
  3
INSUNITS
350
BFC6
  3
CEPSNTYPE
350
BFC7
  3
FINGERPRINTGUID
350
BFC8
  3
VERSIONGUID
350
BFC9
  3
PSVPSCALE
350
BFCA
  3
DIMSTYLEDATA
350
BFCB
  3
PUCSORTHOREF
350
BFCC
  3
PUCSORTHOVIEW
350
BFCD
  3
PUCSBASE
350
BFCE
  3
PUCSORGTOP
350
BFCF
  3
PUCSORGBOTTOM
350
BFD0
  3
PUCSORGLEFT
350
BFD1
  3
PUCSORGRIGHT
350
BFD2
  3
PUCSORGFRONT
350
BFD3
  3
PUCSORGBACK
350
BFD4
  3
UCSORTHOREF
350
BFD5
  3
UCSORTHOVIEW
350
BFD6
  3
UCSBASE
350
BFD7
  3
UCSORGTOP
350
BFD8
  3
UCSORGBOTTOM
350
BFD9
  3
UCSORGLEFT
350
BFDA
  3
UCSORGRIGHT
350
BFDB
  3
UCSORGFRONT
350
BFDC
  3
UCSORGBACK
350
BFDD
  0
DICTIONARY
  5
BFB3
102
{ACAD_REACTORS
330
74
102
}
330
74
100
AcDbDictionary
  3
*A1
350
BFB4
  0
XRECORD
  5
BFE0
102
{ACAD_REACTORS
330
74
102
}
330
74
100
AcDbXrecord
340
1F
  0
XRECORD
  5
BFE6
102
{ACAD_REACTORS
330
BFE5
102
}
330
BFE5
100
AcDbXrecord
340
101
  0
MLINESTYLE
  5
18
102
{ACAD_REACTORS
330
17
102
}
330
17
100
AcDbMlineStyle
  2
STANDARD
 70
     0
  3

 62
   256
 51
90.0
 52
90.0
 71
     2
 49
0.5
 62
   256
  6
BYLAYER
 49
-0.5
 62
   256
  6
BYLAYER
  0
PLOTSETTINGS
  5
399D
102
{ACAD_REACTORS
330
19
102
}
330
19
100
AcDbPlotSettings
  1
asami
  2
RICOH imagio MF1540
  4
A4
  6

 40
5.831416606903076
 41
7.651742935180664
 42
4.90008544921875
 43
5.789077758789062
 44
296.9683227539062
 45
209.9733276367187
 46
0.0
 47
0.0
 48
-156.6707931774246
 49
-74.57609991074048
140
58.59973180214831
141
60.61068161925596
142
1.0
143
1.095343097833084
 70
  1712
 72
     1
 73
     1
 74
     4
  7
asami.ctb
 75
     0
147
0.9129559514076438
148
156.6707931774246
149
74.57609991074048
  0
ACDBPLACEHOLDER
  5
F
102
{ACAD_REACTORS
330
E
102
}
330
E
100
AcDbPlaceHolder
280
     0
  0
DICTIONARYVAR
  5
35
102
{ACAD_REACTORS
330
34
102
}
330
34
100
DictionaryVariables
280
     0
  1
1
  0
DICTIONARYVAR
  5
B5E
102
{ACAD_REACTORS
330
34
102
}
330
34
100
DictionaryVariables
280
     0
  1
96
  0
DICTIONARY
  5
260
102
{ACAD_REACTORS
330
43
102
}
330
43
100
AcDbDictionary
  0
DICTIONARY
  5
2C
102
{ACAD_REACTORS
330
2B
102
}
330
2B
100
AcDbDictionary
  3
DWGSETTINGS
350
2D
  0
XRECORD
  5
BFBE
102
{ACAD_REACTORS
330
BFBD
102
}
330
BFBD
100
AcDbXrecord
 90
        1
  0
XRECORD
  5
BFBF
102
{ACAD_REACTORS
330
BFBD
102
}
330
BFBD
100
AcDbXrecord
 90
       70
  0
XRECORD
  5
BFC0
102
{ACAD_REACTORS
330
BFBD
102
}
330
BFBD
100
AcDbXrecord
  1

  0
XRECORD
  5
BFC1
102
{ACAD_REACTORS
330
BFBD
102
}
330
BFBD
100
AcDbXrecord
  1
ASAMI.ctb
  0
XRECORD
  5
BFC2
102
{ACAD_REACTORS
330
BFBD
102
}
330
BFBD
100
AcDbXrecord
340
1A
  0
XRECORD
  5
BFC3
102
{ACAD_REACTORS
330
BFBD
102
}
330
BFBD
100
AcDbXrecord
340
19
  0
XRECORD
  5
BFC4
102
{ACAD_REACTORS
330
BFBD
102
}
330
BFBD
100
AcDbXrecord
340
E
  0
XRECORD
  5
BFC5
102
{ACAD_REACTORS
330
BFBD
102
}
330
BFBD
100
AcDbXrecord
 90
    10781
  0
XRECORD
  5
BFC6
102
{ACAD_REACTORS
330
BFBD
102
}
330
BFBD
100
AcDbXrecord
 90
        4
  0
XRECORD
  5
BFC7
102
{ACAD_REACTORS
330
BFBD
102
}
330
BFBD
100
AcDbXrecord
 90
        0
  0
XRECORD
  5
BFC8
102
{ACAD_REACTORS
330
BFBD
102
}
330
BFBD
100
AcDbXrecord
  1
{AFB28963-8C59-40AE-9337-C84526B81ACE}
  0
XRECORD
  5
BFC9
102
{ACAD_REACTORS
330
BFBD
102
}
330
BFBD
100
AcDbXrecord
  1
{0ED8CDEB-9EEE-45EB-966C-A21C9A5CE2E9}
  0
XRECORD
  5
BFCA
102
{ACAD_REACTORS
330
BFBD
102
}
330
BFBD
100
AcDbXrecord
 40
0.0
  0
XRECORD
  5
BFCB
102
{ACAD_REACTORS
330
BFBD
102
}
330
BFBD
100
AcDbXrecord
1000
DSTYLE
1002
{
1070
    79
 70
     2
1070
   341
340
59
1070
   342
340
59
1070
   371
 70
    -1
1070
   372
 70
    -1
1002
}
  0
XRECORD
  5
BFCC
102
{ACAD_REACTORS
330
BFBD
102
}
330
BFBD
100
AcDbXrecord
340
0
  0
XRECORD
  5
BFCD
102
{ACAD_REACTORS
330
BFBD
102
}
330
BFBD
100
AcDbXrecord
 70
     0
  0
XRECORD
  5
BFCE
102
{ACAD_REACTORS
330
BFBD
102
}
330
BFBD
100
AcDbXrecord
340
0
  0
XRECORD
  5
BFCF
102
{ACAD_REACTORS
330
BFBD
102
}
330
BFBD
100
AcDbXrecord
 10
0.0
 20
0.0
 30
0.0
  0
XRECORD
  5
BFD0
102
{ACAD_REACTORS
330
BFBD
102
}
330
BFBD
100
AcDbXrecord
 10
0.0
 20
0.0
 30
0.0
  0
XRECORD
  5
BFD1
102
{ACAD_REACTORS
330
BFBD
102
}
330
BFBD
100
AcDbXrecord
 10
0.0
 20
0.0
 30
0.0
  0
XRECORD
  5
BFD2
102
{ACAD_REACTORS
330
BFBD
102
}
330
BFBD
100
AcDbXrecord
 10
0.0
 20
0.0
 30
0.0
  0
XRECORD
  5
BFD3
102
{ACAD_REACTORS
330
BFBD
102
}
330
BFBD
100
AcDbXrecord
 10
0.0
 20
0.0
 30
0.0
  0
XRECORD
  5
BFD4
102
{ACAD_REACTORS
330
BFBD
102
}
330
BFBD
100
AcDbXrecord
 10
0.0
 20
0.0
 30
0.0
  0
XRECORD
  5
BFD5
102
{ACAD_REACTORS
330
BFBD
102
}
330
BFBD
100
AcDbXrecord
340
0
  0
XRECORD
  5
BFD6
102
{ACAD_REACTORS
330
BFBD
102
}
330
BFBD
100
AcDbXrecord
 70
     0
  0
XRECORD
  5
BFD7
102
{ACAD_REACTORS
330
BFBD
102
}
330
BFBD
100
AcDbXrecord
340
0
  0
XRECORD
  5
BFD8
102
{ACAD_REACTORS
330
BFBD
102
}
330
BFBD
100
AcDbXrecord
 10
0.0
 20
0.0
 30
0.0
  0
XRECORD
  5
BFD9
102
{ACAD_REACTORS
330
BFBD
102
}
330
BFBD
100
AcDbXrecord
 10
0.0
 20
0.0
 30
0.0
  0
XRECORD
  5
BFDA
102
{ACAD_REACTORS
330
BFBD
102
}
330
BFBD
100
AcDbXrecord
 10
0.0
 20
0.0
 30
0.0
  0
XRECORD
  5
BFDB
102
{ACAD_REACTORS
330
BFBD
102
}
330
BFBD
100
AcDbXrecord
 10
0.0
 20
0.0
 30
0.0
  0
XRECORD
  5
BFDC
102
{ACAD_REACTORS
330
BFBD
102
}
330
BFBD
100
AcDbXrecord
 10
0.0
 20
0.0
 30
0.0
  0
XRECORD
  5
BFDD
102
{ACAD_REACTORS
330
BFBD
102
}
330
BFBD
100
AcDbXrecord
 10
0.0
 20
0.0
 30
0.0
  0
LAYER_INDEX
  5
BFB4
102
{ACAD_REACTORS
330
BFB3
102
}
330
BFB3
100
AcDbIndex
 40
2453152.384336874
100
AcDbLayerIndex
  8
0
360
BFB5
 90
        0
  8
AM_0
360
BFB6
 90
      179
  8
AM_5
360
BFB7
 90
        7
  8
AM_7
360
BFB8
 90
        1
  8
AM_6
360
BFB9
 90
        1
  8
Defpoints
360
BFBA
 90
        0
  8
AM_11
360
BFBB
 90
        4
  0
XRECORD
  5
2D
102
{ACAD_REACTORS
330
2C
102
}
330
2C
100
AcDbXrecord
  1
VERSION
140
15.0
  1
PRODUCT
  2
AutoCAD Mechanical 2000
  0
IDBUFFER
  5
BFB5
330
0
100
AcDbIdBuffer
  0
IDBUFFER
  5
BFB6
330
0
100
AcDbIdBuffer
330
B782
330
B783
330
B784
330
B785
330
B786
330
B787
330
B788
330
B789
330
B78A
330
B78B
330
B78C
330
B78D
330
B78E
330
B78F
330
B790
330
B791
330
B792
330
B793
330
B794
330
B795
330
B796
330
B797
330
B798
330
B799
330
B79A
330
B79B
330
B79C
330
B79E
330
B79F
330
B7A1
330
B7A2
330
B7A3
330
B7A4
330
B7A5
330
B7A6
330
B7A7
330
B7A8
330
B7A9
330
B7AA
330
B7AB
330
B7AC
330
B7AD
330
B7AE
330
B7AF
330
B7B0
330
B7B1
330
B7B2
330
B7B3
330
B7B4
330
B7B5
330
B7B6
330
B7B7
330
B7B8
330
B7B9
330
B7BA
330
B7BB
330
B7BC
330
B7BD
330
B7BE
330
B7BF
330
B7C0
330
B7C1
330
B7C2
330
B7C3
330
B7C4
330
B7C5
330
BE64
330
B70C
330
B70D
330
B70E
330
B70F
330
B710
330
B711
330
B712
330
B713
330
B714
330
B715
330
B716
330
B717
330
B718
330
B719
330
B71A
330
B71B
330
B71C
330
B71D
330
B71E
330
B71F
330
B720
330
B721
330
B722
330
B723
330
B724
330
B725
330
B726
330
B727
330
B728
330
B729
330
B72A
330
B72B
330
B72C
330
B72D
330
B72E
330
B72F
330
B730
330
B731
330
B732
330
B733
330
B734
330
B735
330
B736
330
B737
330
B738
330
B739
330
B73A
330
B73B
330
B73C
330
B73D
330
B73E
330
B73F
330
B740
330
B741
330
B742
330
B744
330
B745
330
B747
330
B748
330
B74A
330
B74B
330
B74C
330
B74D
330
B74E
330
B74F
330
B750
330
B751
330
B753
330
B754
330
B755
330
B756
330
B757
330
B758
330
B759
330
B75C
330
B75D
330
B75E
330
B75F
330
B760
330
B761
330
B762
330
B763
330
B764
330
B765
330
B766
330
B767
330
B768
330
B769
330
B76A
330
B76B
330
B76C
330
B76D
330
B76E
330
B76F
330
B770
330
B771
330
B772
330
B773
330
B774
330
B775
330
B776
330
B777
330
B778
330
B779
330
B77A
330
B77B
330
B77C
330
B77D
330
B77E
330
B77F
330
B780
330
B781
  0
IDBUFFER
  5
BFB7
330
0
100
AcDbIdBuffer
330
B95A
330
BA39
330
BAC5
330
BB51
330
BBDD
330
BC69
330
BD65
  0
IDBUFFER
  5
BFB8
330
0
100
AcDbIdBuffer
330
B743
  0
IDBUFFER
  5
BFB9
330
0
100
AcDbIdBuffer
330
388D
  0
IDBUFFER
  5
BFBA
330
0
100
AcDbIdBuffer
  0
IDBUFFER
  5
BFBB
330
0
100
AcDbIdBuffer
330
B93D
330
B945
330
B94E
330
B952
  0
ENDSEC
  0
EOF
