  0
SECTION
  2
HEADER
  9
$ACADVER
  1
AC1014
  9
$ACADMAINTVER
 70
     9
  9
$DWGCODEPAGE
  3
ANSI_932
  9
$INSBASE
 10
0.0
 20
0.0
 30
0.0
  9
$EXTMIN
 10
-268.2000000000002
 20
-66.50000000000005
 30
-0.00000001
  9
$EXTMAX
 10
14.99999999999975
 20
38.20000000000015
 30
0.00000001
  9
$LIMMIN
 10
-281.0781146901838
 20
-135.6384153731048
  9
$LIMMAX
 10
84.95711800289916
 20
119.4126233748045
  9
$ORTHOMODE
 70
     0
  9
$REGENMODE
 70
     1
  9
$FILLMODE
 70
     1
  9
$QTEXTMODE
 70
     0
  9
$MIRRTEXT
 70
     0
  9
$DRAGMODE
 70
     2
  9
$LTSCALE
 40
1.0
  9
$OSMODE
 70
    55
  9
$ATTMODE
 70
     1
  9
$TEXTSIZE
 40
2.5
  9
$TRACEWID
 40
1.0
  9
$TEXTSTYLE
  7
STANDARD
  9
$CLAYER
  8
AM_0
  9
$CELTYPE
  6
BYLAYER
  9
$CECOLOR
 62
   256
  9
$CELTSCALE
 40
1.0
  9
$DELOBJ
 70
     1
  9
$DISPSILH
 70
     0
  9
$DIMSCALE
 40
0.5
  9
$DIMASZ
 40
2.5
  9
$DIMEXO
 40
1.0
  9
$DIMDLI
 40
12.0
  9
$DIMRND
 40
0.0
  9
$DIMDLE
 40
0.0
  9
$DIMEXE
 40
1.0
  9
$DIMTP
 40
0.1
  9
$DIMTM
 40
0.1
  9
$DIMTXT
 40
3.2
  9
$DIMCEN
 40
0.0
  9
$DIMTSZ
 40
0.0
  9
$DIMTOL
 70
     0
  9
$DIMLIM
 70
     0
  9
$DIMTIH
 70
     0
  9
$DIMTOH
 70
     0
  9
$DIMSE1
 70
     0
  9
$DIMSE2
 70
     0
  9
$DIMTAD
 70
     3
  9
$DIMZIN
 70
     8
  9
$DIMBLK
  1
OPEN30
  9
$DIMASO
 70
     1
  9
$DIMSHO
 70
     1
  9
$DIMPOST
  1

  9
$DIMAPOST
  1
"
  9
$DIMALT
 70
     0
  9
$DIMALTD
 70
     2
  9
$DIMALTF
 40
0.0393701
  9
$DIMLFAC
 40
1.0
  9
$DIMTOFL
 70
     1
  9
$DIMTVP
 40
0.0
  9
$DIMTIX
 70
     0
  9
$DIMSOXD
 70
     0
  9
$DIMSAH
 70
     0
  9
$DIMBLK1
  1

  9
$DIMBLK2
  1

  9
$DIMSTYLE
  2
AM_JIS
  9
$DIMCLRD
 70
   256
  9
$DIMCLRE
 70
   256
  9
$DIMCLRT
 70
     2
  9
$DIMTFAC
 40
0.71
  9
$DIMGAP
 40
1.5
  9
$DIMJUST
 70
     0
  9
$DIMSD1
 70
     0
  9
$DIMSD2
 70
     0
  9
$DIMTOLJ
 70
     0
  9
$DIMTZIN
 70
     0
  9
$DIMALTZ
 70
     0
  9
$DIMALTTZ
 70
     0
  9
$DIMFIT
 70
     3
  9
$DIMUPT
 70
     0
  9
$DIMUNIT
 70
     2
  9
$DIMDEC
 70
     3
  9
$DIMTDEC
 70
     3
  9
$DIMALTU
 70
     2
  9
$DIMALTTD
 70
     2
  9
$DIMTXSTY
  7
ASAMI
  9
$DIMAUNIT
 70
     0
  9
$LUNITS
 70
     2
  9
$LUPREC
 70
     2
  9
$SKETCHINC
 40
1.0
  9
$FILLETRAD
 40
0.4
  9
$AUNITS
 70
     0
  9
$AUPREC
 70
     0
  9
$MENU
  1
.
  9
$ELEVATION
 40
0.0
  9
$PELEVATION
 40
0.0
  9
$THICKNESS
 40
0.0
  9
$LIMCHECK
 70
     1
  9
$BLIPMODE
 70
     0
  9
$CHAMFERA
 40
1.0
  9
$CHAMFERB
 40
1.0
  9
$CHAMFERC
 40
20.0
  9
$CHAMFERD
 40
0.0
  9
$SKPOLY
 70
     0
  9
$TDCREATE
 40
2452802.716478761
  9
$TDUPDATE
 40
2453152.379357176
  9
$TDINDWG
 40
0.9292139468
  9
$TDUSRTIMER
 40
0.9292139468
  9
$USRTIMER
 70
     1
  9
$ANGBASE
 50
0.0
  9
$ANGDIR
 70
     0
  9
$PDMODE
 70
     0
  9
$PDSIZE
 40
0.0
  9
$PLINEWID
 40
0.0
  9
$COORDS
 70
     1
  9
$SPLFRAME
 70
     0
  9
$SPLINETYPE
 70
     6
  9
$SPLINESEGS
 70
     8
  9
$ATTDIA
 70
     1
  9
$ATTREQ
 70
     1
  9
$HANDLING
 70
 12289
  9
$HANDSEED
  5
AEA4
  9
$SURFTAB1
 70
     6
  9
$SURFTAB2
 70
     6
  9
$SURFTYPE
 70
     6
  9
$SURFU
 70
     6
  9
$SURFV
 70
     6
  9
$UCSNAME
  2

  9
$UCSORG
 10
-0.0000000000002682
 20
0.000000000000161
 30
0.0
  9
$UCSXDIR
 10
1.0
 20
0.000000000000002
 30
0.0
  9
$UCSYDIR
 10
-0.000000000000002
 20
1.0
 30
0.0
  9
$PUCSNAME
  2

  9
$PUCSORG
 10
0.0
 20
0.0
 30
0.0
  9
$PUCSXDIR
 10
1.0
 20
0.0
 30
0.0
  9
$PUCSYDIR
 10
0.0
 20
1.0
 30
0.0
  9
$USERI1
 70
     0
  9
$USERI2
 70
     0
  9
$USERI3
 70
     0
  9
$USERI4
 70
     0
  9
$USERI5
 70
     0
  9
$USERR1
 40
0.0
  9
$USERR2
 40
0.0
  9
$USERR3
 40
0.0
  9
$USERR4
 40
0.0
  9
$USERR5
 40
0.0
  9
$WORLDVIEW
 70
     1
  9
$SHADEDGE
 70
     3
  9
$SHADEDIF
 70
    70
  9
$TILEMODE
 70
     1
  9
$MAXACTVP
 70
    64
  9
$PINSBASE
 10
0.0
 20
0.0
 30
0.0
  9
$PLIMCHECK
 70
     0
  9
$PEXTMIN
 10
1.000000000000000E+20
 20
1.000000000000000E+20
 30
1.000000000000000E+20
  9
$PEXTMAX
 10
-1.000000000000000E+20
 20
-1.000000000000000E+20
 30
-1.000000000000000E+20
  9
$PLIMMIN
 10
0.0
 20
0.0
  9
$PLIMMAX
 10
841.0
 20
594.0
  9
$UNITMODE
 70
     0
  9
$VISRETAIN
 70
     1
  9
$PLINEGEN
 70
     0
  9
$PSLTSCALE
 70
     0
  9
$TREEDEPTH
 70
  3020
  9
$PICKSTYLE
 70
     0
  9
$CMLSTYLE
  2
STANDARD
  9
$CMLJUST
 70
     0
  9
$CMLSCALE
 40
20.0
  9
$PROXYGRAPHICS
 70
     1
  9
$MEASUREMENT
 70
     1
  0
ENDSEC
  0
SECTION
  2
CLASSES
  0
CLASS
  1
ACDBDICTIONARYWDFLT
  2
AcDbDictionaryWithDefault
  3
AutoCAD 2000
 90
        0
280
     0
281
     0
  0
CLASS
  1
ACDBPLACEHOLDER
  2
AcDbPlaceHolder
  3
AutoCAD 2000
 90
        0
280
     0
281
     0
  0
CLASS
  1
LAYOUT
  2
AcDbLayout
  3
AutoCAD 2000
 90
        0
280
     0
281
     0
  0
CLASS
  1
AMGSETTINGSOBJ
  2
AmgSettingsObj
  3
"AcadM|Product Description: AutoCAD Mechanical 2000|Company: Autodesk"
 90
        0
280
     0
281
     0
  0
CLASS
  1
ACME_DOCUMENT
  2
AcMeDbDoc
  3
AcMeServices
 90
        0
280
     0
281
     0
  0
CLASS
  1
ACMESCOPE
  2
AcMeScope
  3
AcMeServices
 90
        0
280
     0
281
     0
  0
CLASS
  1
ACMECOMMANDHISTORY
  2
AcMeCommandHistory
  3
AcMeServices
 90
        0
280
     0
281
     0
  0
CLASS
  1
DICTIONARYVAR
  2
AcDbDictionaryVar
  3
AutoCAD 2000
 90
        0
280
     0
281
     0
  0
CLASS
  1
ACIMSYSVARMAN
  2
AcImSysVarManager
  3
AcMeServices
 90
        0
280
     0
281
     0
  0
CLASS
  1
ACIMREALSYSVAR
  2
AcImRealSysVar
  3
AcMeServices
 90
        0
280
     0
281
     0
  0
CLASS
  1
ACIMINTSYSVAR
  2
AcImIntSysVar
  3
AcMeServices
 90
        0
280
     0
281
     0
  0
CLASS
  1
ACMEDRAWINGMAN
  2
AcMeDrawingMan
  3
AcMeServices
 90
        0
280
     0
281
     0
  0
CLASS
  1
ACMEVIEW
  2
AcMeView
  3
AcMeServices
 90
        0
280
     0
281
     0
  0
CLASS
  1
ACDBENTITYCACHE
  2
AcMeEntityCache
  3
AcMeServices
 90
        0
280
     0
281
     0
  0
CLASS
  1
GSMANAGER
  2
AcMeGSManager
  3
AcMeServices
 90
        0
280
     0
281
     0
  0
CLASS
  1
AmdtInternalReactor
  2
AmdtInternalReactor
  3
AcMeServices
 90
        0
280
     0
281
     0
  0
CLASS
  1
ACMESTATEMGR
  2
AcMeStateMgr
  3
AcMeServices
 90
        0
280
     0
281
     0
  0
CLASS
  1
ACME_DATABASE
  2
AcMeDbDatabase
  3
AcMeServices
 90
        0
280
     0
281
     0
  0
CLASS
  1
ACRFINSADJUSTERMGR
  2
AcRfInsAdjusterMgr
  3
AcMeServices
 90
        0
280
     0
281
     0
  0
CLASS
  1
ACMDATADICTIONARY
  2
AcmDataDictionary
  3
"AcmSymBB|Product Description: AutoCAD Mechanical 2000|Company: Autodesk"
 90
        0
280
     0
281
     0
  0
CLASS
  1
ACMDATAENTRYBLOCK
  2
AcmDataEntryBlock
  3
"AcmSymBB|Product Description: AutoCAD Mechanical 2000|Company: Autodesk"
 90
        0
280
     0
281
     0
  0
CLASS
  1
AMGOBJPROPCFG
  2
AmgObjPropCfg
  3
"AmgLay|Product Description: AutoCAD Mechanical 2000|Company: Autodesk"
 90
        1
280
     0
281
     0
  0
CLASS
  1
ACAMGFILTERDAT
  2
AcAmgFilterDat
  3
"AcadM|Product Description: AutoCAD Mechanical 2000|Company: Autodesk"
 90
        0
280
     0
281
     0
  0
CLASS
  1
LAYER_INDEX
  2
AcDbLayerIndex
  3
AutoCAD 2000
 90
        0
280
     0
281
     0
  0
CLASS
  1
IDBUFFER
  2
AcDbIdBuffer
  3
AutoCAD 2000
 90
        0
280
     0
281
     0
  0
CLASS
  1
ACIMSTRSYSVAR
  2
AcImStrSysVar
  3
AcMeServices
 90
        0
280
     0
281
     0
  0
CLASS
  1
ACMSTANDARDJIS
  2
AcmStandardJIS
  3
"AcmSymBB|Product Description: AutoCAD Mechanical 2000|Company: Autodesk"
 90
        0
280
     0
281
     0
  0
CLASS
  1
ACMSURFSTANDARDJIS
  2
AcmSurfTextStdJIS
  3
"AcmSymBB|Product Description: AutoCAD Mechanical 2000|Company: Autodesk"
 90
        0
280
     0
281
     0
  0
CLASS
  1
ACMFCFSTANDARDJIS
  2
AcmFCFStdJIS
  3
"AcmSymBB|Product Description: AutoCAD Mechanical 2000|Company: Autodesk"
 90
        0
280
     0
281
     0
  0
CLASS
  1
ACMWELDSTANDARDJIS
  2
AcmWeldingStdJIS
  3
"AcmSymBB|Product Description: AutoCAD Mechanical 2000|Company: Autodesk"
 90
        0
280
     0
281
     0
  0
CLASS
  1
ACMIDSTANDARDJIS
  2
AcmIdStdJIS
  3
"AcmSymBB|Product Description: AutoCAD Mechanical 2000|Company: Autodesk"
 90
        0
280
     0
281
     0
  0
CLASS
  1
ACMDATUMSTANDARDJIS
  2
AcmDatumStdJIS
  3
"AcmSymBB|Product Description: AutoCAD Mechanical 2000|Company: Autodesk"
 90
        0
280
     0
281
     0
  0
CLASS
  1
ACMBOMSTANDARDJIS
  2
AcmBOMStdJIS
  3
"AcmSymBB|Product Description: AutoCAD Mechanical 2000|Company: Autodesk"
 90
        0
280
     0
281
     0
  0
CLASS
  1
ACMSTANDARDANSI
  2
AcmStandardANSI
  3
"AcmSymBB|Product Description: AutoCAD Mechanical 2000|Company: Autodesk"
 90
        0
280
     0
281
     0
  0
CLASS
  1
ACMSURFSTANDARDANSI
  2
AcmSurfTextStdANSI
  3
"AcmSymBB|Product Description: AutoCAD Mechanical 2000|Company: Autodesk"
 90
        0
280
     0
281
     0
  0
CLASS
  1
ACMFCFSTANDARDANSI
  2
AcmFCFStdANSI
  3
"AcmSymBB|Product Description: AutoCAD Mechanical 2000|Company: Autodesk"
 90
        0
280
     0
281
     0
  0
CLASS
  1
ACMWELDSTANDARDANSI
  2
AcmWeldingStdANSI
  3
"AcmSymBB|Product Description: AutoCAD Mechanical 2000|Company: Autodesk"
 90
        0
280
     0
281
     0
  0
CLASS
  1
ACMIDSTANDARDANSI
  2
AcmIdStdANSI
  3
"AcmSymBB|Product Description: AutoCAD Mechanical 2000|Company: Autodesk"
 90
        0
280
     0
281
     0
  0
CLASS
  1
ACMDATUMSTANDARDANSI
  2
AcmDatumStdANSI
  3
"AcmSymBB|Product Description: AutoCAD Mechanical 2000|Company: Autodesk"
 90
        0
280
     0
281
     0
  0
CLASS
  1
ACMBOMSTANDARDANSI
  2
AcmBOMStdANSI
  3
"AcmSymBB|Product Description: AutoCAD Mechanical 2000|Company: Autodesk"
 90
        0
280
     0
281
     0
  0
CLASS
  1
ACMSTANDARDBSI
  2
AcmStandardBSI
  3
"AcmSymBB|Product Description: AutoCAD Mechanical 2000|Company: Autodesk"
 90
        0
280
     0
281
     0
  0
CLASS
  1
ACMSURFSTANDARDBSI
  2
AcmSurfTextStdBSI
  3
"AcmSymBB|Product Description: AutoCAD Mechanical 2000|Company: Autodesk"
 90
        0
280
     0
281
     0
  0
CLASS
  1
ACMFCFSTANDARDBSI
  2
AcmFCFStdBSI
  3
"AcmSymBB|Product Description: AutoCAD Mechanical 2000|Company: Autodesk"
 90
        0
280
     0
281
     0
  0
CLASS
  1
ACMWELDSTANDARDBSI
  2
AcmWeldingStdBSI
  3
"AcmSymBB|Product Description: AutoCAD Mechanical 2000|Company: Autodesk"
 90
        0
280
     0
281
     0
  0
CLASS
  1
ACMIDSTANDARDBSI
  2
AcmIdStdBSI
  3
"AcmSymBB|Product Description: AutoCAD Mechanical 2000|Company: Autodesk"
 90
        0
280
     0
281
     0
  0
CLASS
  1
ACMDATUMSTANDARDBSI
  2
AcmDatumStdBSI
  3
"AcmSymBB|Product Description: AutoCAD Mechanical 2000|Company: Autodesk"
 90
        0
280
     0
281
     0
  0
CLASS
  1
ACMBOMSTANDARDBSI
  2
AcmBOMStdBSI
  3
"AcmSymBB|Product Description: AutoCAD Mechanical 2000|Company: Autodesk"
 90
        0
280
     0
281
     0
  0
CLASS
  1
STDPART2D
  2
AmgStdPart
  3
"AmgStdPart|Product Description: AutoCAD Mechanical 2000|Company: Autodesk"
 90
     1023
280
     0
281
     1
  0
CLASS
  1
PLOTSETTINGS
  2
AcDbPlotSettings
  3
AutoCAD 2000
 90
        0
280
     0
281
     0
  0
CLASS
  1
LONG_TRANSACTION
  2
AcDbLongTransaction
  3
AutoCAD 2000
 90
        0
280
     0
281
     0
  0
CLASS
  1
LWPOLYLINE
  2
AcDbPolyline
  3
AutoCAD 2000
 90
        0
280
     0
281
     1
  0
CLASS
  1
HATCH
  2
AcDbHatch
  3
AutoCAD 2000
 90
        0
280
     0
281
     1
  0
CLASS
  1
XRECORD
  2
AcDbXrecord
  3
AutoCAD 2000
 90
        0
280
     0
281
     0
  0
ENDSEC
  0
SECTION
  2
TABLES
  0
TABLE
  2
VPORT
  5
8
330
0
100
AcDbSymbolTable
 70
     3
  0
VPORT
  5
AE3A
330
8
100
AcDbSymbolTableRecord
100
AcDbViewportTableRecord
  2
*ACTIVE
 70
     0
 10
0.0
 20
0.0
 11
1.0
 21
1.0
 12
-127.0293229441201
 22
-6.482663022164786
 13
0.0
 23
0.0
 14
2.5
 24
2.5
 15
10.0
 25
10.0
 16
0.0
 26
0.0
 36
1.0
 17
0.0
 27
0.0
 37
0.0
 40
192.1490234623482
 41
1.56570841889117
 42
50.0
 43
0.0
 44
0.0
 50
0.0
 51
0.0
 71
     0
 72
   100
 73
     1
 74
     3
 75
     0
 76
     0
 77
     0
 78
     0
  0
ENDTAB
  0
TABLE
  2
LTYPE
  5
5
330
0
100
AcDbSymbolTable
 70
    10
  0
LTYPE
  5
14
330
5
100
AcDbSymbolTableRecord
100
AcDbLinetypeTableRecord
  2
BYBLOCK
 70
     0
  3

 72
    65
 73
     0
 40
0.0
  0
LTYPE
  5
15
330
5
100
AcDbSymbolTableRecord
100
AcDbLinetypeTableRecord
  2
BYLAYER
 70
     0
  3

 72
    65
 73
     0
 40
0.0
  0
LTYPE
  5
16
330
5
100
AcDbSymbolTableRecord
100
AcDbLinetypeTableRecord
  2
CONTINUOUS
 70
     0
  3
Solid line
 72
    65
 73
     0
 40
0.0
  0
LTYPE
  5
4B
330
5
100
AcDbSymbolTableRecord
100
AcDbLinetypeTableRecord
  2
AM_ISO02W050
 70
     0
  3
__ __ __ __ __ __ __ __ __ __ __ __ __ __ __
 72
    65
 73
     2
 40
7.5
 49
6.0
 74
     0
 49
-1.5
 74
     0
  0
LTYPE
  5
4C
330
5
100
AcDbSymbolTableRecord
100
AcDbLinetypeTableRecord
  2
AM_ISO08W050
 70
     0
  3
____ . ____ . ____ . ____ . ____ . ____ . ____
 72
    65
 73
     4
 40
18.0
 49
12.0
 74
     0
 49
-1.5
 74
     0
 49
3.0
 74
     0
 49
-1.5
 74
     0
  0
LTYPE
  5
4D
330
5
100
AcDbSymbolTableRecord
100
AcDbLinetypeTableRecord
  2
AM_ISO09W050
 70
     0
  3
_____ . . _____ . . _____ . . ____ .. ____
 72
    65
 73
     6
 40
22.5
 49
12.0
 74
     0
 49
-1.5
 74
     0
 49
3.0
 74
     0
 49
-1.5
 74
     0
 49
3.0
 74
     0
 49
-1.5
 74
     0
  0
LTYPE
  5
4E
330
5
100
AcDbSymbolTableRecord
100
AcDbLinetypeTableRecord
  2
AMCONSTR
 70
     0
  3
_______________________
 72
    65
 73
     2
 40
9999.0
 49
9999.0
 74
     0
 49
0.0
 74
     0
  0
LTYPE
  5
4F
330
5
100
AcDbSymbolTableRecord
100
AcDbLinetypeTableRecord
  2
AM_ISO02W050X2
 70
     0
  3
 _ _ _ _ _ _ _ _ _ _ _ _
 72
    65
 73
     2
 40
3.75
 49
3.0
 74
     0
 49
-0.75
 74
     0
  0
LTYPE
  5
50
330
5
100
AcDbSymbolTableRecord
100
AcDbLinetypeTableRecord
  2
AM_ISO08W050X2
 70
     0
  3
__ . __ . __ . __ . __ . __
 72
    65
 73
     4
 40
9.0
 49
6.0
 74
     0
 49
-0.75
 74
     0
 49
1.5
 74
     0
 49
-0.75
 74
     0
  0
LTYPE
  5
53
330
5
100
AcDbSymbolTableRecord
100
AcDbLinetypeTableRecord
  2
AMZIGZAG
 70
     0
  3
/\/-/\/-/\/-/\/-/\/-/\/
 72
    65
 73
     2
 40
11.00009999999999
 49
0.0001
 74
     4
 75
   135
340
52
 46
0.04
 50
0.0
 44
0.0
 45
0.0
 49
-11.0
 74
     0
  0
LTYPE
  5
166
330
5
100
AcDbSymbolTableRecord
100
AcDbLinetypeTableRecord
  2
ACJISTGL
 70
     0
  3
_ _ _ _ _
 72
    65
 73
     2
 40
3.0
 49
2.0
 74
     0
 49
-1.0
 74
     0
  0
LTYPE
  5
26A
330
5
100
AcDbSymbolTableRecord
100
AcDbLinetypeTableRecord
  2
ACJISTGB
 70
     0
  3
__ . . __ . .
 72
    65
 73
     6
 40
9.0
 49
4.0
 74
     0
 49
-1.0
 74
     0
 49
1.0
 74
     0
 49
-1.0
 74
     0
 49
1.0
 74
     0
 49
-1.0
 74
     0
  0
ENDTAB
  0
TABLE
  2
LAYER
  5
2
330
0
100
AcDbSymbolTable
 70
     7
  0
LAYER
  5
10
330
2
100
AcDbSymbolTableRecord
100
AcDbLayerTableRecord
  2
0
 70
     0
 62
     7
  6
CONTINUOUS
  0
LAYER
  5
3F9
330
2
100
AcDbSymbolTableRecord
100
AcDbLayerTableRecord
  2
AM_0
 70
     0
 62
     7
  6
CONTINUOUS
  0
LAYER
  5
BA4
330
2
100
AcDbSymbolTableRecord
100
AcDbLayerTableRecord
  2
AM_5
 70
     0
 62
     3
  6
CONTINUOUS
  0
LAYER
  5
BA6
330
2
100
AcDbSymbolTableRecord
100
AcDbLayerTableRecord
  2
AM_7
 70
     0
 62
     4
  6
AM_ISO08W050
  0
LAYER
  5
E64
330
2
100
AcDbSymbolTableRecord
100
AcDbLayerTableRecord
  2
AM_6
 70
     0
 62
     2
  6
CONTINUOUS
  0
LAYER
  5
F4D
330
2
100
AcDbSymbolTableRecord
100
AcDbLayerTableRecord
  2
DEFPOINTS
 70
     0
 62
     7
  6
CONTINUOUS
  0
LAYER
  5
4E80
330
2
100
AcDbSymbolTableRecord
100
AcDbLayerTableRecord
  2
AM_11
 70
     0
 62
     3
  6
AM_ISO09W050
  0
ENDTAB
  0
TABLE
  2
STYLE
  5
3
330
0
100
AcDbSymbolTable
 70
     5
  0
STYLE
  5
11
330
3
100
AcDbSymbolTableRecord
100
AcDbTextStyleTableRecord
  2
STANDARD
 70
     0
 40
0.0
 41
1.0
 50
0.0
 71
     0
 42
2.5
  3
simplex.shx
  4
EXTFONT.SHX
  0
STYLE
  5
52
330
3
100
AcDbSymbolTableRecord
100
AcDbTextStyleTableRecord
  2

 70
     1
 40
0.0
 41
1.0
 50
0.0
 71
     0
 42
2.5
  3
ltypeshp.shx
  4

  0
STYLE
  5
6B
330
3
100
AcDbSymbolTableRecord
100
AcDbTextStyleTableRecord
  2
ASAMI
 70
     0
 40
0.0
 41
1.0
 50
0.0
 71
     0
 42
2.5
  3
simplex.shx
  4
EXTFONT.SHX
  0
STYLE
  5
262
330
3
100
AcDbSymbolTableRecord
100
AcDbTextStyleTableRecord
  2
ACJISTS
 70
     0
 40
1.0
 41
1.0
 50
0.0
 71
     0
 42
2.5
  3
simplex.shx
  4
bigfont.shx
  0
STYLE
  5
269
330
3
100
AcDbSymbolTableRecord
100
AcDbTextStyleTableRecord
  2
ACJISGDT
 70
     0
 40
0.0
 41
1.0
 50
0.0
 71
     0
 42
2.5
  3
amgdtans.shx
  4

  0
ENDTAB
  0
TABLE
  2
VIEW
  5
6
330
0
100
AcDbSymbolTable
 70
     0
  0
ENDTAB
  0
TABLE
  2
UCS
  5
7
330
0
100
AcDbSymbolTable
 70
     0
  0
ENDTAB
  0
TABLE
  2
APPID
  5
9
330
0
100
AcDbSymbolTable
 70
    24
  0
APPID
  5
12
330
9
100
AcDbSymbolTableRecord
100
AcDbRegAppTableRecord
  2
ACAD
 70
     0
  0
APPID
  5
30
330
9
100
AcDbSymbolTableRecord
100
AcDbRegAppTableRecord
  2
MCAD_NO_VIS
 70
     0
  0
APPID
  5
31
330
9
100
AcDbSymbolTableRecord
100
AcDbRegAppTableRecord
  2
ACAD_TEMP_GRAPHIC
 70
     0
  0
APPID
  5
2C2
330
9
100
AcDbSymbolTableRecord
100
AcDbRegAppTableRecord
  2
GENIUS_GENDTOL_13
 70
     0
  0
APPID
  5
339
330
9
100
AcDbSymbolTableRecord
100
AcDbRegAppTableRecord
  2
GENIUS_GENODEF_13
 70
     0
  0
APPID
  5
33A
330
9
100
AcDbSymbolTableRecord
100
AcDbRegAppTableRecord
  2
GENIUS_GENOBJ-N-RSBK_13
 70
     0
  0
APPID
  5
33B
330
9
100
AcDbSymbolTableRecord
100
AcDbRegAppTableRecord
  2
GENIUS_GENOBJ-N-LIB_13
 70
     0
  0
APPID
  5
33C
330
9
100
AcDbSymbolTableRecord
100
AcDbRegAppTableRecord
  2
GENIUS_GENSCALE_13
 70
     0
  0
APPID
  5
378
330
9
100
AcDbSymbolTableRecord
100
AcDbRegAppTableRecord
  2
GENIUS_GENDIMSH_14
 70
     0
  0
APPID
  5
BB0
330
9
100
AcDbSymbolTableRecord
100
AcDbRegAppTableRecord
  2
GENIUS_GENOBJ-N-CEN_13
 70
     0
  0
APPID
  5
BB1
330
9
100
AcDbSymbolTableRecord
100
AcDbRegAppTableRecord
  2
GENIUS_GENFIL_13
 70
     0
  0
APPID
  5
BB2
330
9
100
AcDbSymbolTableRecord
100
AcDbRegAppTableRecord
  2
GENIUS_GENOBJ-N-CHA_13
 70
     0
  0
APPID
  5
1FAF
330
9
100
AcDbSymbolTableRecord
100
AcDbRegAppTableRecord
  2
GENIUS_GENOBJ-N-CRS_13
 70
     0
  0
APPID
  5
1FB0
330
9
100
AcDbSymbolTableRecord
100
AcDbRegAppTableRecord
  2
GENIUS_GENOENT_13
 70
     0
  0
APPID
  5
1FB1
330
9
100
AcDbSymbolTableRecord
100
AcDbRegAppTableRecord
  2
GENIUS_GENOREF_13
 70
     0
  0
APPID
  5
1FB2
330
9
100
AcDbSymbolTableRecord
100
AcDbRegAppTableRecord
  2
GENIUS_GENOLIS_13
 70
     0
  0
APPID
  5
1FB7
330
9
100
AcDbSymbolTableRecord
100
AcDbRegAppTableRecord
  2
GENIUS_GENOBJ-N-FIL_13
 70
     0
  0
APPID
  5
22A8
330
9
100
AcDbSymbolTableRecord
100
AcDbRegAppTableRecord
  2
GEVID1056506048
 70
     0
  0
APPID
  5
22A9
330
9
100
AcDbSymbolTableRecord
100
AcDbRegAppTableRecord
  2
GEVDC
 70
     0
  0
APPID
  5
22AC
330
9
100
AcDbSymbolTableRecord
100
AcDbRegAppTableRecord
  2
GENIUS_GENBH_13
 70
     0
  0
APPID
  5
22B8
330
9
100
AcDbSymbolTableRecord
100
AcDbRegAppTableRecord
  2
GENIUS_GENOBJ-NBEHI-BHF_13
 70
     0
  0
APPID
  5
22BA
330
9
100
AcDbSymbolTableRecord
100
AcDbRegAppTableRecord
  2
GENIUS_GENOBJ-NBEHI-BHB_13
 70
     0
  0
APPID
  5
35C9
330
9
100
AcDbSymbolTableRecord
100
AcDbRegAppTableRecord
  2
GENIUS_GENREC_14
 70
     0
  0
APPID
  5
35CA
330
9
100
AcDbSymbolTableRecord
100
AcDbRegAppTableRecord
  2
GENIUS_GENOBJ-N-REC_13
 70
     0
  0
ENDTAB
  0
TABLE
  2
DIMSTYLE
  5
A
330
0
100
AcDbSymbolTable
 70
     9
  0
DIMSTYLE
105
58
330
A
100
AcDbSymbolTableRecord
100
AcDbDimStyleTableRecord
  2
AM_JIS
 70
     0
  3

  4
"
  5
OPEN30
  6

  7

 40
1.0
 41
2.5
 42
1.0
 43
12.0
 44
1.0
 45
0.0
 46
0.0
 47
0.1
 48
0.1
140
3.2
141
0.0
142
0.0
143
0.0393701
144
1.0
145
0.0
146
0.71
147
1.5
 71
     0
 72
     0
 73
     0
 74
     0
 75
     0
 76
     0
 77
     3
 78
     8
170
     0
171
     2
172
     1
173
     0
174
     0
175
     0
176
   256
177
   256
178
     2
270
     2
271
     3
272
     3
273
     2
274
     2
340
6B
275
     0
280
     0
281
     0
282
     0
283
     0
284
     0
285
     0
286
     0
287
     3
288
     0
  0
DIMSTYLE
105
5F
330
A
100
AcDbSymbolTableRecord
100
AcDbDimStyleTableRecord
  2
AM_JIS$3
 70
     0
  3

  4
"
  5
OPEN30
  6

  7

 40
1.0
 41
2.5
 42
1.0
 43
10.0
 44
1.0
 45
0.0
 46
0.0
 47
0.1
 48
0.1
140
3.2
141
0.0
142
0.0
143
0.0393701
144
1.0
145
0.0
146
0.71
147
1.5
 71
     0
 72
     0
 73
     0
 74
     1
 75
     0
 76
     0
 77
     3
 78
     8
170
     0
171
     2
172
     0
173
     0
174
     0
175
     0
176
   256
177
   256
178
     2
270
     2
271
     2
272
     3
273
     2
274
     2
340
6B
275
     0
280
     0
281
     0
282
     0
283
     0
284
     0
285
     0
286
     0
287
     0
288
     1
  0
DIMSTYLE
105
60
330
A
100
AcDbSymbolTableRecord
100
AcDbDimStyleTableRecord
  2
AM_JIS$4
 70
     0
  3

  4
"
  5
OPEN30
  6

  7

 40
1.0
 41
2.5
 42
1.0
 43
10.0
 44
1.0
 45
0.0
 46
0.0
 47
0.1
 48
0.1
140
3.2
141
0.0
142
0.0
143
0.0393701
144
1.0
145
0.0
146
0.71
147
1.5
 71
     0
 72
     0
 73
     0
 74
     1
 75
     0
 76
     0
 77
     3
 78
     8
170
     0
171
     2
172
     0
173
     0
174
     0
175
     0
176
   256
177
   256
178
     2
270
     2
271
     2
272
     3
273
     2
274
     2
340
6B
275
     0
280
     0
281
     0
282
     0
283
     0
284
     0
285
     0
286
     0
287
     0
288
     1
  0
DIMSTYLE
105
61
330
A
100
AcDbSymbolTableRecord
100
AcDbDimStyleTableRecord
  2
AM_JIS$6
 70
     0
  3

  4
"
  5
OPEN30
  6

  7

 40
1.0
 41
2.5
 42
1.0
 43
10.0
 44
1.0
 45
0.0
 46
0.0
 47
0.1
 48
0.1
140
3.2
141
0.0
142
0.0
143
0.0393701
144
1.0
145
0.0
146
0.71
147
1.5
 71
     0
 72
     0
 73
     0
 74
     0
 75
     0
 76
     0
 77
     0
 78
     8
170
     0
171
     2
172
     1
173
     0
174
     0
175
     0
176
   256
177
   256
178
     2
270
     2
271
     2
272
     2
273
     2
274
     2
340
6B
275
     0
280
     0
281
     0
282
     0
283
     0
284
     0
285
     0
286
     0
287
     3
288
     0
  0
DIMSTYLE
105
62
330
A
100
AcDbSymbolTableRecord
100
AcDbDimStyleTableRecord
  2
AM_JIS$7
 70
     0
  3

  4
"
  5
OPEN30
  6

  7

 40
1.0
 41
2.5
 42
1.0
 43
10.0
 44
1.0
 45
0.0
 46
0.0
 47
0.1
 48
0.1
140
3.2
141
0.0
142
0.0
143
0.0393701
144
1.0
145
0.0
146
0.71
147
1.5
 71
     0
 72
     0
 73
     0
 74
     0
 75
     0
 76
     0
 77
     3
 78
     8
170
     0
171
     2
172
     1
173
     0
174
     0
175
     0
176
   256
177
   256
178
     2
270
     2
271
     2
272
     3
273
     2
274
     2
340
6B
275
     0
280
     0
281
     0
282
     0
283
     0
284
     0
285
     0
286
     0
287
     3
288
     0
  0
DIMSTYLE
105
63
330
A
100
AcDbSymbolTableRecord
100
AcDbDimStyleTableRecord
  2
AM_JIS$SF
 70
     0
  3

  4
"
  5
OPEN30
  6

  7

 40
1.0
 41
2.5
 42
1.0
 43
10.0
 44
1.0
 45
0.0
 46
0.0
 47
0.1
 48
0.1
140
3.2
141
0.0
142
0.0
143
0.0393701
144
1.0
145
0.0
146
0.71
147
1.5
 71
     0
 72
     0
 73
     0
 74
     0
 75
     1
 76
     1
 77
     3
 78
     8
170
     0
171
     2
172
     1
173
     0
174
     0
175
     0
176
   256
177
   256
178
     2
270
     2
271
     2
272
     2
273
     2
274
     2
340
6B
275
     0
280
     0
281
     0
282
     0
283
     0
284
     0
285
     0
286
     0
287
     3
288
     0
  0
DIMSTYLE
105
68
330
A
100
AcDbSymbolTableRecord
100
AcDbDimStyleTableRecord
  2
AM_JIS$SH
 70
     0
  3

  4
"
  5

  6
GENAXEH
  7
OPEN30
 40
1.0
 41
2.5
 42
1.0
 43
10.0
 44
1.0
 45
0.0
 46
0.0
 47
0.1
 48
0.1
140
3.2
141
0.0
142
0.0
143
0.0393701
144
2.0
145
0.0
146
0.71
147
1.5
 71
     0
 72
     0
 73
     0
 74
     0
 75
     1
 76
     1
 77
     3
 78
     8
170
     0
171
     2
172
     1
173
     1
174
     0
175
     0
176
   256
177
   256
178
     2
270
     2
271
     2
272
     2
273
     2
274
     2
340
6B
275
     0
280
     0
281
     0
282
     0
283
     0
284
     0
285
     0
286
     0
287
     3
288
     0
  0
DIMSTYLE
105
B34
330
A
100
AcDbSymbolTableRecord
100
AcDbDimStyleTableRecord
  2
AM_JIS$2
 70
     0
  3

  4
"
  5
OPEN30
  6

  7

 40
1.0
 41
2.5
 42
1.0
 43
12.0
 44
1.0
 45
0.0
 46
0.0
 47
0.1
 48
0.1
140
3.2
141
0.0
142
0.0
143
0.0393701
144
1.0
145
0.0
146
0.71
147
1.5
 71
     0
 72
     0
 73
     0
 74
     0
 75
     0
 76
     0
 77
     3
 78
     8
170
     0
171
     2
172
     1
173
     0
174
     0
175
     0
176
   256
177
   256
178
     2
270
     2
271
     3
272
     3
273
     2
274
     2
340
6B
275
     0
280
     0
281
     0
282
     0
283
     0
284
     0
285
     0
286
     0
287
     3
288
     0
  0
DIMSTYLE
105
3B48
102
{ACAD_REACTORS
330
A89C
330
A95E
330
A7E3
330
A54A
330
A603
330
A6FB
330
A9F3
102
}
330
A
100
AcDbSymbolTableRecord
100
AcDbDimStyleTableRecord
  2
AM_JIS$0
 70
     0
  3

  4
"
  5
OPEN30
  6

  7

 40
1.0
 41
2.5
 42
0.0
 43
10.0
 44
1.0
 45
0.0
 46
0.0
 47
0.1
 48
0.1000000001
140
3.799999999999999
141
0.0
142
0.0
143
0.0393701
144
1.0
145
0.0
146
0.71
147
1.5
 71
     0
 72
     0
 73
     0
 74
     0
 75
     0
 76
     0
 77
     3
 78
     1
170
     0
171
     2
172
     1
173
     0
174
     0
175
     0
176
     3
177
     3
178
     2
270
     2
271
     2
272
     2
273
     2
274
     2
340
11
275
     1
280
     0
281
     0
282
     0
283
     0
284
     8
285
     0
286
     0
287
     0
288
     0
  0
ENDTAB
  0
TABLE
  2
BLOCK_RECORD
  5
1
330
0
100
AcDbSymbolTable
 70
    12
  0
BLOCK_RECORD
  5
1F
102
{ACAD_XDICTIONARY
360
74
102
}
330
1
100
AcDbSymbolTableRecord
100
AcDbBlockTableRecord
  2
*MODEL_SPACE
  0
BLOCK_RECORD
  5
101
102
{ACAD_XDICTIONARY
360
AE63
102
}
330
1
100
AcDbSymbolTableRecord
100
AcDbBlockTableRecord
  2
*PAPER_SPACE
  0
BLOCK_RECORD
  5
59
330
1
100
AcDbSymbolTableRecord
100
AcDbBlockTableRecord
  2
_OPEN30
  0
BLOCK_RECORD
  5
64
330
1
100
AcDbSymbolTableRecord
100
AcDbBlockTableRecord
  2
GENAXEH
  0
BLOCK_RECORD
  5
A54B
330
1
100
AcDbSymbolTableRecord
100
AcDbBlockTableRecord
  2
*D5
  0
BLOCK_RECORD
  5
A604
330
1
100
AcDbSymbolTableRecord
100
AcDbBlockTableRecord
  2
*D6
  0
BLOCK_RECORD
  5
A6FC
330
1
100
AcDbSymbolTableRecord
100
AcDbBlockTableRecord
  2
*D7
  0
BLOCK_RECORD
  5
A7E4
330
1
100
AcDbSymbolTableRecord
100
AcDbBlockTableRecord
  2
*D8
  0
BLOCK_RECORD
  5
A89D
330
1
100
AcDbSymbolTableRecord
100
AcDbBlockTableRecord
  2
*D9
  0
BLOCK_RECORD
  5
A95F
330
1
100
AcDbSymbolTableRecord
100
AcDbBlockTableRecord
  2
*D10
  0
BLOCK_RECORD
  5
A9F4
330
1
100
AcDbSymbolTableRecord
100
AcDbBlockTableRecord
  2
*D11
  0
ENDTAB
  0
ENDSEC
  0
SECTION
  2
BLOCKS
  0
BLOCK
  5
20
330
1F
100
AcDbEntity
  8
0
100
AcDbBlockBegin
  2
*MODEL_SPACE
 70
     0
 10
0.0
 20
0.0
 30
0.0
  3
*MODEL_SPACE
  1

  0
ENDBLK
  5
21
330
1F
100
AcDbEntity
  8
0
100
AcDbBlockEnd
  0
BLOCK
  5
103
330
101
100
AcDbEntity
 67
     1
  8
0
100
AcDbBlockBegin
  2
*PAPER_SPACE
 70
     0
 10
0.0
 20
0.0
 30
0.0
  3
*PAPER_SPACE
  1

  0
ENDBLK
  5
104
330
101
100
AcDbEntity
 67
     1
  8
0
100
AcDbBlockEnd
  0
BLOCK
  5
5D
330
59
100
AcDbEntity
  8
0
100
AcDbBlockBegin
  2
_OPEN30
 70
     0
 10
0.0
 20
0.0
 30
0.0
  3
_OPEN30
  1

  0
LINE
  5
5A
330
59
100
AcDbEntity
  8
0
 62
     0
100
AcDbLine
 10
-1.0
 20
0.26794919
 30
0.0
 11
0.0
 21
0.0
 31
0.0
  0
LINE
  5
5B
330
59
100
AcDbEntity
  8
0
 62
     0
100
AcDbLine
 10
0.0
 20
0.0
 30
0.0
 11
-1.0
 21
-0.26794919
 31
0.0
  0
LINE
  5
5C
330
59
100
AcDbEntity
  8
0
 62
     0
100
AcDbLine
 10
0.0
 20
0.0
 30
0.0
 11
-1.0
 21
0.0
 31
0.0
  0
ENDBLK
  5
5E
330
59
100
AcDbEntity
  8
0
100
AcDbBlockEnd
  0
BLOCK
  5
66
330
64
100
AcDbEntity
  8
0
100
AcDbBlockBegin
  2
GENAXEH
 70
     0
 10
0.0
 20
0.0
 30
0.0
  3
GENAXEH
  1

  0
LINE
  5
65
330
64
100
AcDbEntity
  8
0
100
AcDbLine
 10
-1.0
 20
0.0
 30
0.0
 11
1.0
 21
0.0
 31
0.0
  0
ENDBLK
  5
67
330
64
100
AcDbEntity
  8
0
100
AcDbBlockEnd
  0
BLOCK
  5
A555
330
A54B
100
AcDbEntity
  8
0
100
AcDbBlockBegin
  2
*D5
 70
     1
 10
0.0
 20
0.0
 30
0.0
  3
*D5
  1

  0
LINE
  5
AE65
330
A54B
100
AcDbEntity
  8
AM_5
100
AcDbLine
 10
0.9999999999996711
 20
20.00000000000016
 30
0.0
 11
14.99999999999967
 21
20.00000000000019
 31
0.0
  0
LINE
  5
AE66
330
A54B
100
AcDbEntity
  8
AM_5
100
AcDbLine
 10
0.9999999999998385
 20
-19.99999999999983
 30
0.0
 11
14.99999999999975
 21
-19.9999999999998
 31
0.0
  0
LINE
  5
AE67
330
A54B
100
AcDbEntity
  8
AM_5
100
AcDbLine
 10
13.99999999999968
 20
17.50000000000019
 30
0.0
 11
13.99999999999975
 21
-17.4999999999998
 31
0.0
  0
INSERT
  5
AE68
330
A54B
100
AcDbEntity
  8
AM_5
100
AcDbBlockReference
  2
_OPEN30
 10
13.99999999999967
 20
20.00000000000019
 30
0.0
 41
2.5
 42
2.5
 43
2.5
 50
90.0000000000001
  0
INSERT
  5
AE69
330
A54B
100
AcDbEntity
  8
AM_5
100
AcDbBlockReference
  2
_OPEN30
 10
13.99999999999975
 20
-19.9999999999998
 30
0.0
 41
2.5
 42
2.5
 43
2.5
 50
270.0000000000001
  0
MTEXT
  5
AE6A
330
A54B
100
AcDbEntity
  8
AM_5
 62
     2
100
AcDbMText
 10
11.39999999999971
 20
0.0000000000001859
 30
0.0
 40
3.2
 41
0.0
 71
     5
 72
     1
  1
%%c40
  7
ASAMI
 11
-0.000000000000002
 21
1.0
 31
0.0
  0
POINT
  5
AE6B
330
A54B
100
AcDbEntity
  8
DEFPOINTS
 62
     0
100
AcDbPoint
 10
-0.0000000000002844
 20
20.00000000000016
 30
0.0
  0
POINT
  5
AE6C
330
A54B
100
AcDbEntity
  8
DEFPOINTS
 62
     0
100
AcDbPoint
 10
-0.0000000000002059
 20
-19.99999999999983
 30
0.0
  0
POINT
  5
AE6D
330
A54B
100
AcDbEntity
  8
DEFPOINTS
 62
     0
100
AcDbPoint
 10
13.99999999999971
 20
-19.99999999999984
 30
0.0
  0
ENDBLK
  5
A556
330
A54B
100
AcDbEntity
  8
0
100
AcDbBlockEnd
  0
BLOCK
  5
A60E
330
A604
100
AcDbEntity
  8
0
100
AcDbBlockBegin
  2
*D6
 70
     1
 10
0.0
 20
0.0
 30
0.0
  3
*D6
  1

  0
LINE
  5
AE6E
330
A604
100
AcDbEntity
  8
AM_5
100
AcDbLine
 10
-0.0000000000003248
 20
21.00000000000016
 30
0.0
 11
-0.0000000000003274
 21
35.00000000000015
 31
0.0
  0
LINE
  5
AE6F
330
A604
100
AcDbEntity
  8
AM_5
100
AcDbLine
 10
-8.000000000000325
 20
21.00000000000012
 30
0.0
 11
-8.000000000000326
 21
35.00000000000015
 31
0.0
  0
LINE
  5
AE70
330
A604
100
AcDbEntity
  8
AM_5
100
AcDbLine
 10
-2.500000000000327
 20
34.00000000000015
 30
0.0
 11
-5.500000000000327
 21
34.00000000000015
 31
0.0
  0
INSERT
  5
AE71
330
A604
100
AcDbEntity
  8
AM_5
100
AcDbBlockReference
  2
_OPEN30
 10
-0.0000000000003272
 20
34.00000000000015
 30
0.0
 41
2.5
 42
2.5
 43
2.5
  0
INSERT
  5
AE72
330
A604
100
AcDbEntity
  8
AM_5
100
AcDbBlockReference
  2
_OPEN30
 10
-8.000000000000328
 20
34.00000000000015
 30
0.0
 41
2.5
 42
2.5
 43
2.5
 50
180.0
  0
MTEXT
  5
AE73
330
A604
100
AcDbEntity
  8
AM_5
 62
     2
100
AcDbMText
 10
-4.000000000000328
 20
36.60000000000015
 30
0.0
 40
3.2
 41
0.0
 71
     5
 72
     1
  1
8
  7
ASAMI
  0
POINT
  5
AE74
330
A604
100
AcDbEntity
  8
DEFPOINTS
 62
     0
100
AcDbPoint
 10
-0.0000000000002842
 20
20.00000000000016
 30
0.0
  0
POINT
  5
AE75
330
A604
100
AcDbEntity
  8
DEFPOINTS
 62
     0
100
AcDbPoint
 10
-8.000000000000284
 20
20.00000000000014
 30
0.0
  0
POINT
  5
AE76
330
A604
100
AcDbEntity
  8
DEFPOINTS
 62
     0
100
AcDbPoint
 10
-8.000000000000259
 20
34.00000000000016
 30
0.0
  0
ENDBLK
  5
A60F
330
A604
100
AcDbEntity
  8
0
100
AcDbBlockEnd
  0
BLOCK
  5
A706
330
A6FC
100
AcDbEntity
  8
0
100
AcDbBlockBegin
  2
*D7
 70
     1
 10
0.0
 20
0.0
 30
0.0
  3
*D7
  1

  0
LINE
  5
AE77
330
A6FC
100
AcDbEntity
  8
AM_5
100
AcDbLine
 10
-48.6618385314933
 20
15.66183471679995
 30
0.0
 11
-37.12023069788456
 21
15.66183471679997
 31
0.0
  0
LINE
  5
AE78
330
A6FC
100
AcDbEntity
  8
AM_5
100
AcDbLine
 10
-48.66183853149319
 20
-15.66184234619005
 30
0.0
 11
-37.1202306978845
 21
-15.66184234619002
 31
0.0
  0
LINE
  5
AE79
330
A6FC
100
AcDbEntity
  8
AM_5
100
AcDbLine
 10
-38.12023069788456
 20
13.16183471679997
 30
0.0
 11
-38.1202306978845
 21
-13.16184234619003
 31
0.0
  0
INSERT
  5
AE7A
330
A6FC
100
AcDbEntity
  8
AM_5
100
AcDbBlockReference
  2
_OPEN30
 10
-38.12023069788456
 20
15.66183471679997
 30
0.0
 41
2.5
 42
2.5
 43
2.5
 50
90.0000000000001
  0
INSERT
  5
AE7B
330
A6FC
100
AcDbEntity
  8
AM_5
100
AcDbBlockReference
  2
_OPEN30
 10
-38.1202306978845
 20
-15.66184234619003
 30
0.0
 41
2.5
 42
2.5
 43
2.5
 50
270.0000000000001
  0
MTEXT
  5
AE7C
330
A6FC
100
AcDbEntity
  8
AM_5
 62
     2
100
AcDbMText
 10
-40.72023069788454
 20
4.748915462725395
 30
0.0
 40
3.2
 41
0.0
 71
     5
 72
     1
  1
%%C31.3
  7
ASAMI
 11
-0.000000000000002
 21
1.0
 31
0.0
  0
POINT
  5
AE7D
330
A6FC
100
AcDbEntity
  8
DEFPOINTS
 62
     0
100
AcDbPoint
 10
-49.66183853149328
 20
15.66183471680005
 30
0.0
  0
POINT
  5
AE7E
330
A6FC
100
AcDbEntity
  8
DEFPOINTS
 62
     0
100
AcDbPoint
 10
-49.66183853149321
 20
-15.66184234618994
 30
0.0
  0
POINT
  5
AE7F
330
A6FC
100
AcDbEntity
  8
DEFPOINTS
 62
     0
100
AcDbPoint
 10
-38.12023069788454
 20
-15.66184234618994
 30
0.0
  0
ENDBLK
  5
A707
330
A6FC
100
AcDbEntity
  8
0
100
AcDbBlockEnd
  0
BLOCK
  5
A7EE
330
A7E4
100
AcDbEntity
  8
0
100
AcDbBlockBegin
  2
*D8
 70
     1
 10
0.0
 20
0.0
 30
0.0
  3
*D8
  1

  0
LINE
  5
AE80
330
A7E4
100
AcDbEntity
  8
AM_5
100
AcDbLine
 10
-0.0000000000001638
 20
-20.92499999999982
 30
0.0
 11
-0.0000000000001362
 21
-34.99999999999984
 31
0.0
  0
LINE
  5
AE81
330
A7E4
100
AcDbEntity
  8
AM_5
100
AcDbLine
 10
-49.99999999999918
 20
-17.00000762939004
 30
0.0
 11
-49.99999999999914
 21
-34.99999999999993
 31
0.0
  0
LINE
  5
AE82
330
A7E4
100
AcDbEntity
  8
AM_5
100
AcDbLine
 10
-2.500000000000138
 20
-33.99999999999984
 30
0.0
 11
-47.49999999999914
 21
-33.99999999999993
 31
0.0
  0
INSERT
  5
AE83
330
A7E4
100
AcDbEntity
  8
AM_5
100
AcDbBlockReference
  2
_OPEN30
 10
-0.0000000000001382
 20
-33.99999999999983
 30
0.0
 41
2.5
 42
2.5
 43
2.5
 50
0.0000000000001018
  0
INSERT
  5
AE84
330
A7E4
100
AcDbEntity
  8
AM_5
100
AcDbBlockReference
  2
_OPEN30
 10
-49.99999999999914
 20
-33.99999999999993
 30
0.0
 41
2.5
 42
2.5
 43
2.5
 50
180.0000000000001
  0
MTEXT
  5
AE85
330
A7E4
100
AcDbEntity
  8
AM_5
 62
     2
100
AcDbMText
 10
-24.99999999999964
 20
-31.39999999999988
 30
0.0
 40
3.2
 41
0.0
 71
     5
 72
     1
  1
50
  7
ASAMI
  0
POINT
  5
AE86
330
A7E4
100
AcDbEntity
  8
DEFPOINTS
 62
     0
100
AcDbPoint
 10
-0.0000000000002061
 20
-19.92499999999982
 30
0.0
  0
POINT
  5
AE87
330
A7E4
100
AcDbEntity
  8
DEFPOINTS
 62
     0
100
AcDbPoint
 10
-49.99999999999921
 20
-16.00000762938994
 30
0.0
  0
POINT
  5
AE88
330
A7E4
100
AcDbEntity
  8
DEFPOINTS
 62
     0
100
AcDbPoint
 10
-49.99999999999921
 20
-33.99999999999983
 30
0.0
  0
ENDBLK
  5
A7EF
330
A7E4
100
AcDbEntity
  8
0
100
AcDbBlockEnd
  0
BLOCK
  5
A8A7
330
A89D
100
AcDbEntity
  8
0
100
AcDbBlockBegin
  2
*D9
 70
     1
 10
0.0
 20
0.0
 30
0.0
  3
*D9
  1

  0
LINE
  5
AE89
330
A89D
100
AcDbEntity
  8
AM_5
100
AcDbLine
 10
-50.00000286102219
 20
-16.99999237061004
 30
0.0
 11
-50.00000286102215
 21
-34.99999999999993
 31
0.0
  0
LINE
  5
AE8A
330
A89D
100
AcDbEntity
  8
AM_5
100
AcDbLine
 10
-250.0000000000002
 20
-16.46410369873084
 30
0.0
 11
-250.0000000000001
 21
-35.00000000000034
 31
0.0
  0
LINE
  5
AE8B
330
A89D
100
AcDbEntity
  8
AM_5
100
AcDbLine
 10
-52.50000286102215
 20
-33.99999999999994
 30
0.0
 11
-247.5000000000001
 21
-34.00000000000033
 31
0.0
  0
INSERT
  5
AE8C
330
A89D
100
AcDbEntity
  8
AM_5
100
AcDbBlockReference
  2
_OPEN30
 10
-50.00000286102215
 20
-33.99999999999993
 30
0.0
 41
2.5
 42
2.5
 43
2.5
 50
0.0000000000001018
  0
INSERT
  5
AE8D
330
A89D
100
AcDbEntity
  8
AM_5
100
AcDbBlockReference
  2
_OPEN30
 10
-250.0000000000001
 20
-34.00000000000034
 30
0.0
 41
2.5
 42
2.5
 43
2.5
 50
180.0000000000001
  0
MTEXT
  5
AE8E
330
A89D
100
AcDbEntity
  8
AM_5
 62
     2
100
AcDbMText
 10
-150.0000014305111
 20
-31.40000000000013
 30
0.0
 40
3.2
 41
0.0
 71
     5
 72
     1
  1
200
  7
ASAMI
  0
POINT
  5
AE8F
330
A89D
100
AcDbEntity
  8
DEFPOINTS
 62
     0
100
AcDbPoint
 10
-50.00000286102222
 20
-15.99999237060994
 30
0.0
  0
POINT
  5
AE90
330
A89D
100
AcDbEntity
  8
DEFPOINTS
 62
     0
100
AcDbPoint
 10
-250.0000000000002
 20
-15.46410369873034
 30
0.0
  0
POINT
  5
AE91
330
A89D
100
AcDbEntity
  8
DEFPOINTS
 62
     0
100
AcDbPoint
 10
-250.0000000000002
 20
-33.99999999999983
 30
0.0
  0
ENDBLK
  5
A8A8
330
A89D
100
AcDbEntity
  8
0
100
AcDbBlockEnd
  0
BLOCK
  5
A969
330
A95F
100
AcDbEntity
  8
0
100
AcDbBlockBegin
  2
*D10
 70
     1
 10
0.0
 20
0.0
 30
0.0
  3
*D10
  1

  0
LINE
  5
AE92
330
A95F
100
AcDbEntity
  8
AM_5
100
AcDbLine
 10
-0.0000000000001635
 20
-20.99999999999983
 30
0.0
 11
-0.0000000000001165
 21
-44.99999999999984
 31
0.0
  0
LINE
  5
AE93
330
A95F
100
AcDbEntity
  8
AM_5
100
AcDbLine
 10
-250.0000000000002
 20
-16.46410369873084
 30
0.0
 11
-250.0000000000001
 21
-45.00000000000034
 31
0.0
  0
LINE
  5
AE94
330
A95F
100
AcDbEntity
  8
AM_5
100
AcDbLine
 10
-2.500000000000118
 20
-43.99999999999984
 30
0.0
 11
-247.5000000000001
 21
-44.00000000000033
 31
0.0
  0
INSERT
  5
AE95
330
A95F
100
AcDbEntity
  8
AM_5
100
AcDbBlockReference
  2
_OPEN30
 10
-0.0000000000001184
 20
-43.99999999999983
 30
0.0
 41
2.5
 42
2.5
 43
2.5
 50
0.0000000000001018
  0
INSERT
  5
AE96
330
A95F
100
AcDbEntity
  8
AM_5
100
AcDbBlockReference
  2
_OPEN30
 10
-250.0000000000001
 20
-44.00000000000034
 30
0.0
 41
2.5
 42
2.5
 43
2.5
 50
180.0000000000001
  0
MTEXT
  5
AE97
330
A95F
100
AcDbEntity
  8
AM_5
 62
     2
100
AcDbMText
 10
-125.0000000000001
 20
-41.40000000000009
 30
0.0
 40
3.2
 41
0.0
 71
     5
 72
     1
  1
250
  7
ASAMI
  0
POINT
  5
AE98
330
A95F
100
AcDbEntity
  8
DEFPOINTS
 62
     0
100
AcDbPoint
 10
-0.0000000000002059
 20
-19.99999999999983
 30
0.0
  0
POINT
  5
AE99
330
A95F
100
AcDbEntity
  8
DEFPOINTS
 62
     0
100
AcDbPoint
 10
-250.0000000000002
 20
-15.46410369873034
 30
0.0
  0
POINT
  5
AE9A
330
A95F
100
AcDbEntity
  8
DEFPOINTS
 62
     0
100
AcDbPoint
 10
-250.0000000000002
 20
-43.99999999999983
 30
0.0
  0
ENDBLK
  5
A96A
330
A95F
100
AcDbEntity
  8
0
100
AcDbBlockEnd
  0
BLOCK
  5
A9FE
330
A9F4
100
AcDbEntity
  8
0
100
AcDbBlockBegin
  2
*D11
 70
     1
 10
0.0
 20
0.0
 30
0.0
  3
*D11
  1

  0
LINE
  5
AE9B
330
A9F4
100
AcDbEntity
  8
AM_5
100
AcDbLine
 10
-249.0000000000003
 20
15.9999999999991
 30
0.0
 11
-265.0000000000003
 21
15.99999999999907
 31
0.0
  0
LINE
  5
AE9C
330
A9F4
100
AcDbEntity
  8
AM_5
100
AcDbLine
 10
-249.0000000000001
 20
-15.99999237061088
 30
0.0
 11
-265.0000000000001
 21
-15.99999237061091
 31
0.0
  0
LINE
  5
AE9D
330
A9F4
100
AcDbEntity
  8
AM_5
100
AcDbLine
 10
-264.0000000000002
 20
13.49999999999907
 30
0.0
 11
-264.0000000000002
 21
-13.49999237061091
 31
0.0
  0
INSERT
  5
AE9E
330
A9F4
100
AcDbEntity
  8
AM_5
100
AcDbBlockReference
  2
_OPEN30
 10
-264.0000000000002
 20
15.99999999999907
 30
0.0
 41
2.5
 42
2.5
 43
2.5
 50
90.0000000000001
  0
INSERT
  5
AE9F
330
A9F4
100
AcDbEntity
  8
AM_5
100
AcDbBlockReference
  2
_OPEN30
 10
-264.0000000000001
 20
-15.99999237061091
 30
0.0
 41
2.5
 42
2.5
 43
2.5
 50
270.0000000000001
  0
MTEXT
  5
AEA0
330
A9F4
100
AcDbEntity
  8
AM_5
 62
     2
100
AcDbMText
 10
-266.6000000000002
 20
0.0000038146940894
 30
0.0
 40
3.2
 41
0.0
 71
     5
 72
     1
  1
%%C32
  7
ASAMI
 11
-0.000000000000002
 21
1.0
 31
0.0
  0
POINT
  5
AEA1
330
A9F4
100
AcDbEntity
  8
DEFPOINTS
 62
     0
100
AcDbPoint
 10
-248.0000000000003
 20
15.99999999999965
 30
0.0
  0
POINT
  5
AEA2
330
A9F4
100
AcDbEntity
  8
DEFPOINTS
 62
     0
100
AcDbPoint
 10
-248.0000000000002
 20
-15.99999237061032
 30
0.0
  0
POINT
  5
AEA3
330
A9F4
100
AcDbEntity
  8
DEFPOINTS
 62
     0
100
AcDbPoint
 10
-264.0000000000002
 20
-15.99999237061032
 30
0.0
  0
ENDBLK
  5
A9FF
330
A9F4
100
AcDbEntity
  8
0
100
AcDbBlockEnd
  0
ENDSEC
  0
SECTION
  2
ENTITIES
  0
TEXT
  5
388D
330
1F
100
AcDbEntity
  8
AM_6
100
AcDbText
 10
-148.452380952381
 20
-66.50000000000004
 30
0.0
 40
5.0
  1
WRC16040EM
 50
359.9999999999998
 51
359.9999999999998
 72
     4
 11
-125.0
 21
-64.00000000000009
 31
0.0
100
AcDbText
  0
SPLINE
  5
A354
330
1F
100
AcDbEntity
  8
AM_0
100
AcDbSpline
210
0.0
220
0.0
230
1.0
 70
     8
 71
     3
 72
    11
 73
     7
 74
     5
 42
0.0000000001
 43
0.0000000001
 44
0.0000000001
 40
0.0
 40
0.0
 40
0.0
 40
0.0
 40
2.497061481585647
 40
8.02468636194073
 40
15.14813161901336
 40
22.54854593135296
 40
22.54854593135296
 40
22.54854593135296
 40
22.54854593135296
 10
-35.29525315761548
 20
15.59562683106008
 30
0.0
 10
-35.06499916632545
 20
14.7955292999728
 30
0.0
 10
-34.32504299091158
 20
12.22429435310175
 30
0.0
 10
-32.19132269384649
 20
7.60220198502962
 30
0.0
 10
-27.02442529637063
 20
2.767308310120111
 30
0.0
 10
-22.14448560092725
 20
2.022138500134572
 30
0.0
 10
-19.65798568725624
 20
1.642448425290126
 30
0.0
 11
-35.29525315761548
 21
15.59562683106008
 31
0.0
 11
-34.56669163703897
 21
13.20721435547008
 31
0.0
 11
-32.13395261764505
 21
8.243705749510098
 31
0.0
 11
-26.82218456268294
 21
3.497276306150098
 31
0.0
 11
-19.65798568725624
 21
1.642448425290126
 31
0.0
  0
ELLIPSE
  5
A355
330
1F
100
AcDbEntity
  8
AM_0
100
AcDbEllipse
 10
-27.04329299926733
 20
0.0000000000001137
 30
0.0
 11
298.8507384871031
 21
0.0047836302105899
 31
0.0
210
0.0
220
0.0
230
1.0
 40
0.052406879749
 41
1.57049054102575
 42
1.595250195971355
  0
LINE
  5
A357
330
1F
100
AcDbEntity
  8
AM_0
100
AcDbLine
 10
-26.95218944549548
 20
15.6618423461901
 30
0.0
 11
-49.66184139251628
 21
15.66184234619007
 31
0.0
  0
LINE
  5
A358
330
1F
100
AcDbEntity
  8
AM_0
100
AcDbLine
 10
-49.66184139251622
 20
-15.66184234618994
 30
0.0
 11
-26.95218944549542
 21
-15.66184234618989
 31
0.0
  0
SPLINE
  5
A35A
330
1F
100
AcDbEntity
  8
AM_0
100
AcDbSpline
210
0.0
220
0.0
230
1.0
 70
     8
 71
     3
 72
    11
 73
     7
 74
     5
 42
0.0000000001
 43
0.0000000001
 44
0.0000000001
 40
0.0
 40
0.0
 40
0.0
 40
0.0
 40
0.366822262766475
 40
0.6740167384979912
 40
0.8776610758298533
 40
0.9526508728265108
 40
0.9526508728265108
 40
0.9526508728265108
 40
0.9526508728265108
 10
-34.35077977180468
 20
15.6570358276401
 30
0.0
 10
-34.47332784452962
 20
15.65749492840584
 30
0.0
 10
-34.69850352406537
 20
15.65833850207129
 30
0.0
 10
-34.98806190400344
 20
15.64241401903523
 30
0.0
 10
-35.18911292362647
 20
15.64997342011586
 30
0.0
 10
-35.27407952038582
 20
15.61087874485772
 30
0.0
 10
-35.29694688320136
 20
15.60035705566008
 30
0.0
 11
-34.35077977180468
 21
15.6570358276401
 31
0.0
 11
-34.71759355068185
 21
15.65454101563008
 31
0.0
 11
-35.02467668056466
 21
15.64627075195008
 31
0.0
 11
-35.22757279872875
 21
15.62882995606008
 31
0.0
 11
-35.29694688320136
 21
15.60035705566008
 31
0.0
  0
LINE
  5
A35B
330
1F
100
AcDbEntity
  8
AM_0
100
AcDbLine
 10
-248.0000000000003
 20
15.99999999999965
 30
0.0
 11
-50.00000286102228
 21
16.00000000000005
 31
0.0
  0
LINE
  5
A35C
330
1F
100
AcDbEntity
  8
AM_7
100
AcDbLine
 10
-254.567248272757
 20
-0.0000000000003695
 30
0.0
 11
3.223876953124758
 21
0.0000000000001705
 31
0.0
  0
LINE
  5
A35D
330
1F
100
AcDbEntity
  8
AM_0
100
AcDbLine
 10
-248.0000000000002
 20
-15.99999237061034
 30
0.0
 11
-50.00000286102222
 21
-15.99999237060994
 31
0.0
  0
LINE
  5
A35F
330
1F
100
AcDbEntity
  8
AM_0
100
AcDbLine
 10
-248.0000000000002
 20
-15.99999237061034
 30
0.0
 11
-248.0000000000003
 21
15.99999999999965
 31
0.0
  0
LINE
  5
A360
330
1F
100
AcDbEntity
  8
AM_0
100
AcDbLine
 10
-250.0000000000002
 20
-15.46410369873034
 30
0.0
 11
-250.0000000000003
 21
15.46410369872964
 31
0.0
  0
LINE
  5
A362
330
1F
100
AcDbEntity
  8
AM_0
100
AcDbLine
 10
-250.0000000000002
 20
-15.46410369873034
 30
0.0
 11
-248.0000000000002
 21
-16.00000762939034
 31
0.0
  0
LINE
  5
A363
330
1F
100
AcDbEntity
  8
AM_0
100
AcDbLine
 10
-248.0000152587903
 20
15.99999999999965
 30
0.0
 11
-250.0000000000003
 21
15.46410369872964
 31
0.0
  0
LINE
  5
A369
330
1F
100
AcDbEntity
  8
AM_0
100
AcDbLine
 10
-49.66184139251622
 20
-15.66184234618994
 30
0.0
 11
-49.66184139251628
 21
15.66184234619007
 31
0.0
  0
LINE
  5
A36A
330
1F
100
AcDbEntity
  8
AM_0
100
AcDbLine
 10
-50.00000286102222
 20
-15.99999237060994
 30
0.0
 11
-50.00000286102228
 21
16.00000000000005
 31
0.0
  0
LINE
  5
A36C
330
1F
100
AcDbEntity
  8
AM_0
100
AcDbLine
 10
-49.99999999999921
 20
-16.00000762938994
 30
0.0
 11
-49.66183853149321
 21
-15.66184234618994
 31
0.0
  0
LINE
  5
A36D
330
1F
100
AcDbEntity
  8
AM_0
100
AcDbLine
 10
-49.66183853149328
 20
15.66183471680005
 30
0.0
 11
-49.99999999999928
 21
16.00000000000005
 31
0.0
  0
LINE
  5
A36E
330
1F
100
AcDbEntity
  8
AM_0
100
AcDbLine
 10
-35.29694879055007
 20
15.60035705566008
 30
0.0
 11
-35.29525494575487
 21
15.59562683106008
 31
0.0
  0
SPLINE
  5
A36F
330
1F
100
AcDbEntity
  8
AM_0
100
AcDbSpline
210
0.0
220
0.0
230
1.0
 70
     8
 71
     3
 72
    11
 73
     7
 74
     5
 42
0.0000000001
 43
0.0000000001
 44
0.0000000001
 40
0.0
 40
0.0
 40
0.0
 40
0.0
 40
0.1956088864575423
 40
0.6380651803131697
 40
1.23470192633974
 40
1.918295817053388
 40
1.918295817053388
 40
1.918295817053388
 40
1.918295817053388
 10
-15.16661453247122
 20
5.074554443360142
 30
0.0
 10
-15.11142530554493
 20
5.109411354839609
 30
0.0
 10
-14.93140115292183
 20
5.223112638616071
 30
0.0
 10
-14.62565714854185
 20
5.50105147750926
 30
0.0
 10
-14.1886924282942
 20
5.872674444560699
 30
0.0
 10
-13.86059141567393
 20
6.145707260654805
 30
0.0
 10
-13.68539810180725
 20
6.291496276860129
 30
0.0
 11
-15.16661453247122
 21
5.074554443360142
 31
0.0
 11
-15.00311660766622
 21
5.181938171390129
 31
0.0
 11
-14.66270065307624
 21
5.464576721190127
 31
0.0
 11
-14.21001815795922
 21
5.853233337400126
 31
0.0
 11
-13.68539810180725
 21
6.291496276860129
 31
0.0
  0
SPLINE
  5
A370
330
1F
100
AcDbEntity
  8
AM_0
100
AcDbSpline
210
0.0
220
0.0
230
1.0
 70
     8
 71
     3
 72
    11
 73
     7
 74
     5
 42
0.0000000001
 43
0.0000000001
 44
0.0000000001
 40
0.0
 40
0.0
 40
0.0
 40
0.0
 40
0.1925183710588555
 40
0.3849725411408504
 40
0.5773808199298538
 40
0.7697467784022369
 40
0.7697467784022369
 40
0.7697467784022369
 40
0.7697467784022369
 10
-11.03020858764618
 20
-17.71045684813985
 30
0.0
 10
-10.9822319935877
 20
-17.75342652446448
 30
0.0
 10
-10.88629480469297
 20
-17.83935154759713
 30
0.0
 10
-10.71391066315726
 20
-17.92858124584499
 30
0.0
 10
-10.52851192523041
 20
-17.98626173228341
 30
0.0
 10
-10.39986740236887
 20
-17.99155012515323
 30
0.0
 10
-10.33555221557618
 20
-17.99419403075985
 30
0.0
 11
-11.03020858764618
 21
-17.71045684813985
 31
0.0
 11
-10.88152694702118
 21
-17.83275604247985
 31
0.0
 11
-10.71171951293918
 21
-17.92333221435986
 31
0.0
 11
-10.52723312377919
 21
-17.97797393798985
 31
0.0
 11
-10.33555221557618
 21
-17.99419403075985
 31
0.0
  0
SPLINE
  5
A371
330
1F
100
AcDbEntity
  8
AM_0
100
AcDbSpline
210
0.0
220
0.0
230
1.0
 70
     8
 71
     3
 72
    11
 73
     7
 74
     5
 42
0.0000000001
 43
0.0000000001
 44
0.0000000001
 40
0.0
 40
0.0
 40
0.0
 40
0.0
 40
0.1678400468382043
 40
0.3346199237441993
 40
0.4994507325382754
 40
0.6616166244340456
 40
0.6616166244340456
 40
0.6616166244340456
 40
0.6616166244340456
 10
-8.8109779357912
 20
-14.26497650145985
 30
0.0
 10
-8.755024683387372
 20
-14.26357870423719
 30
0.0
 10
-8.64347161005763
 20
-14.26079193904694
 30
0.0
 10
-8.477860800661071
 20
-14.24222233868731
 30
0.0
 10
-8.315480561640521
 20
-14.21433931672077
 30
0.0
 10
-8.210009268057516
 20
-14.1866513743612
 30
0.0
 10
-8.157703399658217
 20
-14.17292022704985
 30
0.0
 11
-8.8109779357912
 21
-14.26497650145985
 31
0.0
 11
-8.643268585205206
 21
-14.25835418700985
 31
0.0
 11
-8.477443695068203
 21
-14.24053192138986
 31
0.0
 11
-8.3151283264162
 21
-14.21184539794985
 31
0.0
 11
-8.157703399658217
 21
-14.17292022704985
 31
0.0
  0
SPLINE
  5
A372
330
1F
100
AcDbEntity
  8
AM_0
100
AcDbSpline
210
0.0
220
0.0
230
1.0
 70
     8
 71
     3
 72
    11
 73
     7
 74
     5
 42
0.0000000001
 43
0.0000000001
 44
0.0000000001
 40
0.0
 40
0.0
 40
0.0
 40
0.0
 40
0.1156917341577604
 40
0.2322568686757331
 40
0.3494161586234479
 40
0.4668508773357493
 40
0.4668508773357493
 40
0.4668508773357493
 40
0.4668508773357493
 10
-9.275478363037208
 20
-14.22475433349986
 30
0.0
 10
-9.237428700631156
 20
-14.23107511794313
 30
0.0
 10
-9.161042124624373
 20
-14.2437644048058
 30
0.0
 10
-9.045185832724445
 20
-14.25621955076328
 30
0.0
 10
-8.928340571650316
 20
-14.26406227433845
 30
0.0
 10
-8.850129422751731
 20
-14.26467152065433
 30
0.0
 10
-8.8109779357912
 20
-14.26497650145985
 30
0.0
 11
-9.275478363037208
 21
-14.22475433349986
 31
0.0
 11
-9.16117477417022
 21
-14.24262237548985
 31
0.0
 11
-9.045314788818203
 21
-14.25542449950985
 31
0.0
 11
-8.928394317627223
 21
-14.26290130614985
 31
0.0
 11
-8.8109779357912
 21
-14.26497650145985
 31
0.0
  0
SPLINE
  5
A373
330
1F
100
AcDbEntity
  8
AM_0
100
AcDbSpline
210
0.0
220
0.0
230
1.0
 70
     8
 71
     3
 72
    11
 73
     7
 74
     5
 42
0.0000000001
 43
0.0000000001
 44
0.0000000001
 40
0.0
 40
0.0
 40
0.0
 40
0.0
 40
0.2004831669497168
 40
0.4010480203826531
 40
0.6017695776850484
 40
0.8026523475998519
 40
0.8026523475998519
 40
0.8026523475998519
 40
0.8026523475998519
 10
-10.33555221557621
 20
-14.27352142333985
 30
0.0
 10
-10.40277836830904
 20
-14.27138216120271
 30
0.0
 10
-10.53725806494214
 20
-14.26710276529014
 30
0.0
 10
-10.72720658391489
 20
-14.19339538698166
 30
0.0
 10
-10.89627084948281
 20
-14.08177236289452
 30
0.0
 10
-10.98555072863733
 20
-13.98133685194931
 30
0.0
 10
-11.03020858764621
 20
-13.93109893798985
 30
0.0
 11
-10.33555221557621
 21
-14.27352142333985
 31
0.0
 11
-10.53525924682621
 21
-14.25589752196985
 31
0.0
 11
-10.72365951538121
 21
-14.18711090087986
 31
0.0
 11
-10.89036178588922
 21
-14.07530975341986
 31
0.0
 11
-11.03020858764621
 21
-13.93109893798985
 31
0.0
  0
SPLINE
  5
A374
330
1F
100
AcDbEntity
  8
AM_0
100
AcDbSpline
210
0.0
220
0.0
230
1.0
 70
     8
 71
     3
 72
    11
 73
     7
 74
     5
 42
0.0000000001
 43
0.0000000001
 44
0.0000000001
 40
0.0
 40
0.0
 40
0.0
 40
0.0
 40
0.1198704101598938
 40
0.2397410427181581
 40
0.3596190814697601
 40
0.479489491629654
 40
0.479489491629654
 40
0.479489491629654
 40
0.479489491629654
 10
-15.0356788635252
 20
-14.45659637450987
 30
0.0
 10
-14.99572624229933
 20
-14.45717447988383
 30
0.0
 10
-14.91582092572254
 20
-14.45833069170432
 30
0.0
 10
-14.79596089888229
 20
-14.46009616136645
 30
0.0
 10
-14.67610039206888
 20
-14.46182870256843
 30
0.0
 10
-14.59619267101586
 20
-14.46298934057289
 30
0.0
 10
-14.55624008178721
 20
-14.46356964110987
 30
0.0
 11
-15.0356788635252
 21
-14.45659637450987
 31
0.0
 11
-14.91582107543921
 21
-14.45833587645987
 31
0.0
 11
-14.79596328735421
 21
-14.46009063720987
 31
0.0
 11
-14.6760978698732
 21
-14.46183013915987
 31
0.0
 11
-14.55624008178721
 21
-14.46356964110987
 31
0.0
  0
SPLINE
  5
A375
330
1F
100
AcDbEntity
  8
AM_0
100
AcDbSpline
210
0.0
220
0.0
230
1.0
 70
     8
 71
     3
 72
    11
 73
     7
 74
     5
 42
0.0000000001
 43
0.0000000001
 44
0.0000000001
 40
0.0
 40
0.0
 40
0.0
 40
0.0
 40
0.1954203803928951
 40
0.3908061875032758
 40
0.5861402089583812
 40
0.7814113569876799
 40
0.7814113569876799
 40
0.7814113569876799
 40
0.7814113569876799
 10
-13.8615837097172
 20
-14.77683258056987
 30
0.0
 10
-13.90896276293568
 20
-14.73180753712785
 30
0.0
 10
-14.00371248718961
 20
-14.64176541596133
 30
0.0
 10
-14.17496204476863
 20
-14.54454425378786
 30
0.0
 10
-14.36071387158213
 20
-14.4783539732311
 30
0.0
 10
-14.49107167269603
 20
-14.46849722295583
 30
0.0
 10
-14.55624008178721
 20
-14.46356964110987
 30
0.0
 11
-13.8615837097172
 21
-14.77683258056987
 31
0.0
 11
-14.0085792541502
 21
-14.64806365966987
 31
0.0
 11
-14.17740249633821
 21
-14.54970550536987
 31
0.0
 11
-14.36236953735421
 21
-14.48691558837987
 31
0.0
 11
-14.55624008178721
 21
-14.46356964110987
 31
0.0
  0
SPLINE
  5
A376
330
1F
100
AcDbEntity
  8
AM_0
100
AcDbSpline
210
0.0
220
0.0
230
1.0
 70
     8
 71
     3
 72
    11
 73
     7
 74
     5
 42
0.0000000001
 43
0.0000000001
 44
0.0000000001
 40
0.0
 40
0.0
 40
0.0
 40
0.0
 40
0.221865661194864
 40
0.4438156293633701
 40
0.6658445367800723
 40
0.8878525116310552
 40
0.8878525116310552
 40
0.8878525116310552
 40
0.8878525116310552
 10
-2.718006134033217
 20
-14.79750823974984
 30
0.0
 10
-2.669779644584776
 20
-14.74107681932017
 30
0.0
 10
-2.573308340051775
 20
-14.62819253502406
 30
0.0
 10
-2.47549597506856
 20
-14.4268534207028
 30
0.0
 10
-2.411722925664624
 20
-14.2125271527893
 30
0.0
 10
-2.403911079518296
 20
-14.0642431710131
 30
0.0
 10
-2.400005340576214
 20
-13.99010467528984
 30
0.0
 11
-2.718006134033217
 21
-14.79750823974984
 31
0.0
 11
-2.581142425537208
 21
-14.62288665770984
 31
0.0
 11
-2.481182098389226
 21
-14.42472076415984
 31
0.0
 11
-2.420398712158217
 21
-14.21117401122984
 31
0.0
 11
-2.400005340576214
 21
-13.99010467528984
 31
0.0
  0
SPLINE
  5
A377
330
1F
100
AcDbEntity
  8
AM_0
100
AcDbSpline
210
0.0
220
0.0
230
1.0
 70
     8
 71
     3
 72
    11
 73
     7
 74
     5
 42
0.0000000001
 43
0.0000000001
 44
0.0000000001
 40
0.0
 40
0.0
 40
0.0
 40
0.0
 40
0.3751998210818737
 40
0.7486604481179664
 40
1.118699531768268
 40
1.483814423257454
 40
1.483814423257454
 40
1.483814423257454
 40
1.483814423257454
 10
-8.914318084717208
 20
-8.915489196779873
 30
0.0
 10
-9.03946094876454
 20
-8.920695502898215
 30
0.0
 10
-9.289166592030284
 20
-8.931083981923494
 30
0.0
 10
-9.655704201127143
 20
-9.006376989843184
 30
0.0
 10
-10.00857176807697
 20
-9.12035185505749
 30
0.0
 10
-10.22704652734968
 20
-9.232124043836602
 30
0.0
 10
-10.33555221557621
 20
-9.28763580321987
 30
0.0
 11
-8.914318084717208
 21
-8.915489196779873
 31
0.0
 11
-9.288639068604211
 21
-8.941154479979871
 31
0.0
 11
-9.65507125854522
 21
-9.013267517089872
 31
0.0
 11
-10.00620651245121
 21
-9.130027770999873
 31
0.0
 11
-10.33555221557621
 21
-9.28763580321987
 31
0.0
  0
SPLINE
  5
A378
330
1F
100
AcDbEntity
  8
AM_0
100
AcDbSpline
210
0.0
220
0.0
230
1.0
 70
     8
 71
     3
 72
    11
 73
     7
 74
     5
 42
0.0000000001
 43
0.0000000001
 44
0.0000000001
 40
0.0
 40
0.0
 40
0.0
 40
0.0
 40
0.5273174109875068
 40
1.070475550023847
 40
1.63937880338262
 40
2.24785130036007
 40
2.24785130036007
 40
2.24785130036007
 40
2.24785130036007
 10
-11.03020858764621
 20
-9.849494934079871
 30
0.0
 10
-11.13826567402218
 20
-9.988859938790175
 30
0.0
 10
-11.35762590480931
 20
-10.27177650282313
 30
0.0
 10
-11.58124034478452
 20
-10.77503335562562
 30
0.0
 10
-11.72668482903256
 20
-11.33446078247302
 30
0.0
 10
-11.72919207087414
 20
-11.7283561903352
 30
0.0
 10
-11.73048782348619
 20
-11.93192291259987
 30
0.0
 11
-11.03020858764621
 21
-9.849494934079871
 31
0.0
 11
-11.33658218383821
 21
-10.27867889403987
 31
0.0
 11
-11.56396865844722
 21
-10.77194976806985
 31
0.0
 11
-11.70068740844722
 21
-11.32418060302987
 31
0.0
 11
-11.73048782348619
 21
-11.93192291259987
 31
0.0
  0
SPLINE
  5
A379
330
1F
100
AcDbEntity
  8
AM_0
100
AcDbSpline
210
0.0
220
0.0
230
1.0
 70
     8
 71
     3
 72
    11
 73
     7
 74
     5
 42
0.0000000001
 43
0.0000000001
 44
0.0000000001
 40
0.0
 40
0.0
 40
0.0
 40
0.0
 40
0.8406298413193656
 40
1.681265940920839
 40
2.521901988283826
 40
3.362545560177435
 40
3.362545560177435
 40
3.362545560177435
 40
3.362545560177435
 10
-11.53507614135718
 20
-17.20458221435985
 30
0.0
 10
-11.7298609061712
 20
-17.00314587139781
 30
0.0
 10
-12.11943188592384
 20
-16.60027168582975
 30
0.0
 10
-12.70188996997511
 20
-15.99412828070174
 30
0.0
 10
-13.28294937823522
 20
-15.38663664523412
 30
0.0
 10
-13.66870502374286
 20
-14.98010120860481
 30
0.0
 10
-13.8615837097172
 20
-14.77683258056987
 30
0.0
 11
-11.53507614135718
 21
-17.20458221435985
 31
0.0
 11
-12.11911392211918
 21
-16.59996795653987
 31
0.0
 11
-12.7016563415532
 21
-15.99390411376987
 31
0.0
 11
-13.2825431823732
 21
-15.38625335692987
 31
0.0
 11
-13.8615837097172
 21
-14.77683258056987
 31
0.0
  0
SPLINE
  5
A37A
330
1F
100
AcDbEntity
  8
AM_0
100
AcDbSpline
210
0.0
220
0.0
230
1.0
 70
     8
 71
     3
 72
    11
 73
     7
 74
     5
 42
0.0000000001
 43
0.0000000001
 44
0.0000000001
 40
0.0
 40
0.0
 40
0.0
 40
0.0
 40
0.256687594678514
 40
0.5133687455328353
 40
0.7700458326315751
 40
1.026728395468335
 40
1.026728395468335
 40
1.026728395468335
 40
1.026728395468335
 10
-11.66740798950222
 20
-13.12602996825987
 30
0.0
 10
-11.61465640654937
 20
-13.19339635426066
 30
0.0
 10
-11.50915456490685
 20
-13.32812743511256
 30
0.0
 10
-11.35011443731738
 20
-13.52960231537353
 30
0.0
 10
-11.1905448289123
 20
-13.73065592956243
 30
0.0
 10
-11.08365438144968
 20
-13.86428412673343
 30
0.0
 10
-11.03020858764621
 20
-13.93109893798985
 30
0.0
 11
-11.66740798950222
 21
-13.12602996825987
 31
0.0
 11
-11.50902175903321
 21
-13.32802581786985
 31
0.0
 11
-11.35002517700222
 21
-13.52953338622985
 31
0.0
 11
-11.19041824340821
 21
-13.73055267333985
 31
0.0
 11
-11.03020858764621
 21
-13.93109893798985
 31
0.0
  0
SPLINE
  5
A37B
330
1F
100
AcDbEntity
  8
AM_0
100
AcDbSpline
210
0.0
220
0.0
230
1.0
 70
     8
 71
     3
 72
    11
 73
     7
 74
     5
 42
0.0000000001
 43
0.0000000001
 44
0.0000000001
 40
0.0
 40
0.0
 40
0.0
 40
0.0
 40
0.9886586250958671
 40
1.97732329276088
 40
2.965992968680815
 40
3.954661611963189
 40
3.954661611963189
 40
3.954661611963189
 40
3.954661611963189
 10
-5.484668731689183
 20
-17.62322235106985
 30
0.0
 10
-5.252703421620507
 20
-17.38913388481009
 30
0.0
 10
-4.788771383737549
 20
-16.92095552156846
 30
0.0
 10
-4.095776957064022
 20
-16.21581726127686
 30
0.0
 10
-3.404962329570995
 20
-15.50853628143847
 30
0.0
 10
-2.946991452822827
 20
-15.03451750446281
 30
0.0
 10
-2.718006134033217
 20
-14.79750823974984
 30
0.0
 11
-5.484668731689183
 21
-17.62322235106985
 31
0.0
 11
-4.789257049561186
 21
-16.92047882079984
 31
0.0
 11
-4.096141815186186
 21
-16.21546173095984
 31
0.0
 11
-3.405605316162208
 21
-15.50791168212984
 31
0.0
 11
-2.718006134033217
 21
-14.79750823974984
 31
0.0
  0
SPLINE
  5
A37C
330
1F
100
AcDbEntity
  8
AM_0
100
AcDbSpline
210
0.0
220
0.0
230
1.0
 70
     8
 71
     3
 72
    11
 73
     7
 74
     5
 42
0.0000000001
 43
0.0000000001
 44
0.0000000001
 40
0.0
 40
0.0
 40
0.0
 40
0.0
 40
0.1898624801991169
 40
0.4013952893921749
 40
0.6369380551738003
 40
0.8976287248855232
 40
0.8976287248855232
 40
0.8976287248855232
 40
0.8976287248855232
 10
-11.03020858764621
 20
-9.849494934079871
 30
0.0
 10
-10.98766065036625
 20
-9.802596877662619
 30
0.0
 10
-10.89770848298901
 20
-9.703447962575287
 30
0.0
 10
-10.73957866606948
 20
-9.561326092975033
 30
0.0
 10
-10.55254260432708
 20
-9.416815734448574
 30
0.0
 10
-10.41028542776417
 20
-9.332126396865584
 30
0.0
 10
-10.33555221557621
 20
-9.28763580321987
 30
0.0
 11
-11.03020858764621
 21
-9.849494934079871
 31
0.0
 11
-10.90039443969722
 21
-9.71094512938987
 31
0.0
 11
-10.74393844604522
 21
-9.568580627439871
 31
0.0
 11
-10.55668258667022
 21
-9.425697326659872
 31
0.0
 11
-10.33555221557621
 21
-9.28763580321987
 31
0.0
  0
SPLINE
  5
A37D
330
1F
100
AcDbEntity
  8
AM_0
100
AcDbSpline
210
0.0
220
0.0
230
1.0
 70
     8
 71
     3
 72
    11
 73
     7
 74
     5
 42
0.0000000001
 43
0.0000000001
 44
0.0000000001
 40
0.0
 40
0.0
 40
0.0
 40
0.0
 40
0.783746885258746
 40
1.609918958801517
 40
2.470467859357603
 40
3.3502477740994
 40
3.3502477740994
 40
3.3502477740994
 40
3.3502477740994
 10
-6.166667938232208
 20
-10.55693817138986
 30
0.0
 10
-6.308396262549897
 20
-10.33567709999416
 30
0.0
 10
-6.599524840678649
 20
-9.88117782173921
 30
0.0
 10
-7.250198557911536
 20
-9.357492461984492
 30
0.0
 10
-8.036983977712889
 20
-8.984771582898764
 30
0.0
 10
-8.619726903438772
 20
-8.938752831244332
 30
0.0
 10
-8.914318084717208
 20
-8.915489196779873
 30
0.0
 11
-6.166667938232208
 21
-10.55693817138986
 31
0.0
 11
-6.623348236084197
 21
-9.919990539549843
 31
0.0
 11
-7.258617401123203
 21
-9.391792297359842
 31
0.0
 11
-8.043125152588217
 21
-9.03810882567987
 31
0.0
 11
-8.914318084717208
 21
-8.915489196779873
 31
0.0
  0
SPLINE
  5
A37E
330
1F
100
AcDbEntity
  8
AM_0
100
AcDbSpline
210
0.0
220
0.0
230
1.0
 70
     8
 71
     3
 72
    11
 73
     7
 74
     5
 42
0.0000000001
 43
0.0000000001
 44
0.0000000001
 40
0.0
 40
0.0
 40
0.0
 40
0.0
 40
0.3702761477309497
 40
0.72231192945282
 40
1.06490688871763
 40
1.404838065513782
 40
1.404838065513782
 40
1.404838065513782
 40
1.404838065513782
 10
-6.166667938232208
 20
-10.55693817138986
 30
0.0
 10
-6.111129406346028
 20
-10.66733340847266
 30
0.0
 10
-6.002788255095764
 20
-10.88268564541346
 30
0.0
 10
-5.890256895003446
 20
-11.22033298977169
 30
0.0
 10
-5.812454477412948
 20
-11.55725877233908
 30
0.0
 10
-5.793730303150031
 20
-11.78426907673629
 30
0.0
 10
-5.784404754639226
 20
-11.89733123778985
 30
0.0
 11
-6.166667938232208
 21
-10.55693817138986
 31
0.0
 11
-6.008464813232208
 21
-10.89171600341986
 31
0.0
 11
-5.894695281982208
 21
-11.22486114501985
 31
0.0
 11
-5.820468902588217
 21
-11.55931854247985
 31
0.0
 11
-5.784404754639226
 21
-11.89733123778985
 31
0.0
  0
SPLINE
  5
A37F
330
1F
100
AcDbEntity
  8
AM_0
100
AcDbSpline
210
0.0
220
0.0
230
1.0
 70
     8
 71
     3
 72
    11
 73
     7
 74
     5
 42
0.0000000001
 43
0.0000000001
 44
0.0000000001
 40
0.0
 40
0.0
 40
0.0
 40
0.0
 40
0.5239626522299204
 40
1.029889196118929
 40
1.51691571547117
 40
1.984196316824706
 40
1.984196316824706
 40
1.984196316824706
 40
1.984196316824706
 10
-5.784404754639226
 20
-11.89733123778985
 30
0.0
 10
-5.775564237279871
 20
-12.07176180265167
 30
0.0
 10
-5.758187515336519
 20
-12.41461859494321
 30
0.0
 10
-5.730215754634854
 20
-12.91948424785818
 30
0.0
 10
-5.701661656073232
 20
-13.40539263452805
 30
0.0
 10
-5.68118198269612
 20
-13.72283566163835
 30
0.0
 10
-5.671154022217208
 20
-13.87827301024985
 30
0.0
 11
-5.784404754639226
 21
-11.89733123778985
 31
0.0
 11
-5.757465362549211
 21
-12.42060089110985
 31
0.0
 11
-5.729579925537208
 21
-12.92575836181986
 31
0.0
 11
-5.70080184936522
 21
-13.41193389892985
 31
0.0
 11
-5.671154022217208
 21
-13.87827301024985
 31
0.0
  0
SPLINE
  5
A380
330
1F
100
AcDbEntity
  8
AM_0
100
AcDbSpline
210
0.0
220
0.0
230
1.0
 70
     8
 71
     3
 72
    11
 73
     7
 74
     5
 42
0.0000000001
 43
0.0000000001
 44
0.0000000001
 40
0.0
 40
0.0
 40
0.0
 40
0.0
 40
0.1359572081933182
 40
0.2718760269835529
 40
0.407747339061621
 40
0.5435885681432048
 40
0.5435885681432048
 40
0.5435885681432048
 40
0.5435885681432048
 10
-5.671154022217208
 20
-13.87827301024985
 30
0.0
 10
-5.707287180026495
 20
-13.9057719066927
 30
0.0
 10
-5.779543292946898
 20
-13.96076193488364
 30
0.0
 10
-5.901493041772271
 20
-14.02213971220104
 30
0.0
 10
-6.031101313840848
 20
-14.06593798040238
 30
0.0
 10
-6.12148239898701
 20
-14.07499378047547
 30
0.0
 10
-6.166667938232208
 20
-14.07952117919985
 30
0.0
 11
-5.671154022217208
 21
-13.87827301024985
 31
0.0
 11
-5.781818389893217
 21
-13.95725250243985
 31
0.0
 11
-5.902790069580206
 21
-14.01921844481985
 31
0.0
 11
-6.032108306885206
 21
-14.06090545653985
 31
0.0
 11
-6.166667938232208
 21
-14.07952117919985
 31
0.0
  0
SPLINE
  5
A381
330
1F
100
AcDbEntity
  8
AM_0
100
AcDbSpline
210
0.0
220
0.0
230
1.0
 70
     8
 71
     3
 72
    11
 73
     7
 74
     5
 42
0.0000000001
 43
0.0000000001
 44
0.0000000001
 40
0.0
 40
0.0
 40
0.0
 40
0.0
 40
0.1902910781092
 40
0.3806352464482057
 40
0.5710361205642453
 40
0.7615018396410821
 40
0.7615018396410821
 40
0.7615018396410821
 40
0.7615018396410821
 10
-6.16666793823218
 20
-17.92026519774985
 30
0.0
 10
-6.103187099347072
 20
-17.91542500345616
 30
0.0
 10
-5.976207710750063
 20
-17.90574326447951
 30
0.0
 10
-5.794626455596481
 20
-17.84337298604469
 30
0.0
 10
-5.626127029550628
 20
-17.75165511897177
 30
0.0
 10
-5.531826849378222
 20
-17.66603813264938
 30
0.0
 10
-5.484668731689183
 20
-17.62322235106985
 30
0.0
 11
-6.16666793823218
 21
-17.92026519774985
 31
0.0
 11
-5.977710723877194
 21
-17.89777374267986
 31
0.0
 11
-5.796833038330177
 21
-17.83849334716985
 31
0.0
 11
-5.630657196045191
 21
-17.74555206298986
 31
0.0
 11
-5.484668731689183
 21
-17.62322235106985
 31
0.0
  0
ELLIPSE
  5
A382
330
1F
100
AcDbEntity
  8
AM_0
100
AcDbEllipse
 10
-10.55460739135723
 20
4.566596984860126
 30
0.0
 11
-2.999412432317999
 21
0.0595166111499962
 31
0.0
210
0.0
220
0.0
230
1.0
 40
0.2584632951769
 41
5.755982246931691
 42
6.071561219032819
  0
ELLIPSE
  5
A383
330
1F
100
AcDbEntity
  8
AM_0
100
AcDbEllipse
 10
-15.21160507202124
 20
9.574890136720142
 30
0.0
 11
0.0174484189489922
 21
2.999946635699998
 31
0.0
210
0.0
220
0.0
230
1.0
 40
0.0354391671086
 41
3.141590186748335
 42
3.725590771345951
  0
ELLIPSE
  5
A384
330
1F
100
AcDbEntity
  8
AM_0
100
AcDbEllipse
 10
-15.16296768188523
 20
7.574577331540126
 30
0.0
 11
0.0145415552959975
 21
2.499957946699993
 31
0.0
210
0.0
220
0.0
230
1.0
 40
0.0349004891014
 41
3.141590148673417
 42
4.71238904126608
  0
ELLIPSE
  5
A385
330
1F
100
AcDbEntity
  8
AM_0
100
AcDbEllipse
 10
-15.49983596801824
 20
9.576568603520144
 30
0.0
 11
0.017448418949994
 21
2.999946635699998
 31
0.0
210
0.0
220
0.0
230
1.0
 40
0.2079123288024
 41
3.141592233110607
 42
3.73301896675096
  0
ELLIPSE
  5
A386
330
1F
100
AcDbEntity
  8
AM_0
100
AcDbEllipse
 10
-124.2776069641102
 20
-0.0000534057600987
 30
0.0
 11
-361.7340087447739
 21
0.0056604873592891
 31
0.0
210
0.0
220
0.0
230
0.9999999999999998
 40
0.0524068402892
 41
1.891313102854376
 42
1.903454321843346
  0
ELLIPSE
  5
A387
330
1F
100
AcDbEntity
  8
AM_0
100
AcDbEllipse
 10
-27.04329299926733
 20
0.0000000000001137
 30
0.0
 11
-298.8507690063769
 21
0.0046764776294091
 31
0.0
210
0.0
220
0.0
230
0.9999999999999998
 40
0.0524068999265
 41
1.571104478857445
 42
1.608644619349596
  0
ELLIPSE
  5
A388
330
1F
100
AcDbEntity
  8
AM_0
100
AcDbEllipse
 10
-15.95128250122122
 20
0.0000000000001421
 30
0.0
 11
-0.0954204384760321
 21
15.66182728395
 31
0.0
210
0.0
220
0.0
230
1.0
 40
0.2125527334632
 41
3.177854802860879
 42
3.365442267182617
  0
ELLIPSE
  5
A389
330
1F
100
AcDbEntity
  8
AM_0
100
AcDbEllipse
 10
-15.33018112182624
 20
-0.0000076293898701
 30
0.0
 11
-0.0912251290090313
 21
15.66183893048999
 31
0.0
210
0.0
220
0.0
230
1.0
 40
0.0349201118901
 41
3.36718290508383
 42
3.53778888837991
  0
ELLIPSE
  5
A38A
330
1F
100
AcDbEntity
  8
AM_0
100
AcDbEllipse
 10
-27.04329299926733
 20
0.0000000000001137
 30
0.0
 11
298.850769004683
 21
0.0047836301605819
 31
0.0
210
0.0
220
0.0
230
1.0
 40
0.0524068743974
 41
1.532948135585989
 42
1.570490541056976
  0
ELLIPSE
  5
A38B
330
1F
100
AcDbEntity
  8
AM_0
100
AcDbEllipse
 10
-15.95128250122122
 20
0.0000000000001421
 30
0.0
 11
0.0954358725939681
 21
15.66182718990999
 31
0.0
210
0.0
220
0.0
230
1.0
 40
0.2125527334631999
 41
6.088825169766659
 42
6.246943524901876
  0
ELLIPSE
  5
A38C
330
1F
100
AcDbEntity
  8
AM_0
100
AcDbEllipse
 10
-11.04345321655323
 20
-0.104858398439859
 30
0.0
 11
-0.1090231730500384
 21
18.64002197629
 31
0.0
210
0.0
220
0.0
230
0.9999999999999998
 40
0.0524733102699
 41
2.258014296018976
 42
2.343213101100523
  0
LINE
  5
A3BA
330
1F
100
AcDbEntity
  8
AM_0
100
AcDbLine
 10
-0.0185203552252489
 20
10.27245330811015
 30
0.0
 11
-1.251865386963245
 21
7.339248657230172
 31
0.0
  0
LINE
  5
A3BB
330
1F
100
AcDbEntity
  8
AM_0
100
AcDbLine
 10
-1.199134826660255
 20
16.40235900879017
 30
0.0
 11
-0.00000000000027
 21
13.45500183106017
 31
0.0
  0
LINE
  5
A3BC
330
1F
100
AcDbEntity
  8
AM_0
100
AcDbLine
 10
-1.19913864135718
 20
-16.40236663817984
 30
0.0
 11
-0.0000000000002132
 21
-13.45499420165984
 31
0.0
  0
LINE
  5
A3BD
330
1F
100
AcDbEntity
  8
AM_0
100
AcDbLine
 10
-0.0185165405272159
 20
-10.27245330810984
 30
0.0
 11
-1.251865386963217
 21
-7.339241027829842
 31
0.0
  0
LINE
  5
A3BE
330
1F
100
AcDbEntity
  8
AM_0
100
AcDbLine
 10
-0.2466773986821948
 20
-13.41776275634984
 30
0.0
 11
-2.00174713134821
 21
-14.19219207763984
 31
0.0
  0
LINE
  5
A3BF
330
1F
100
AcDbEntity
  8
AM_0
100
AcDbLine
 10
-2.028701782227201
 20
-9.558601379389841
 30
0.0
 11
-0.2647361755372088
 21
-10.31255340575984
 31
0.0
  0
LINE
  5
A3C1
330
1F
100
AcDbEntity
  8
AM_0
100
AcDbLine
 10
-14.55624008178721
 20
-14.46356964110987
 30
0.0
 11
-14.55624008178723
 21
1.612770080570129
 31
0.0
  0
LINE
  5
A3C2
330
1F
100
AcDbEntity
  8
AM_0
100
AcDbLine
 10
-2.400005340576214
 20
-13.99010467528984
 30
0.0
 11
-2.400005340576242
 21
1.542045593260155
 31
0.0
  0
LINE
  5
A3C3
330
1F
100
AcDbEntity
  8
AM_0
100
AcDbLine
 10
-13.8615837097172
 20
-14.77683258056987
 30
0.0
 11
-13.86158370971723
 21
1.60872650147013
 31
0.0
  0
LINE
  5
A3C4
330
1F
100
AcDbEntity
  8
AM_0
100
AcDbLine
 10
-2.718006134033217
 20
-14.79750823974984
 30
0.0
 11
-2.718006134033245
 21
1.54389953613014
 31
0.0
  0
LINE
  5
A3C5
330
1F
100
AcDbEntity
  8
AM_0
100
AcDbLine
 10
-11.03020858764621
 20
-9.849494934079871
 30
0.0
 11
-11.03020858764624
 21
1.592254638670141
 31
0.0
  0
LINE
  5
A3C6
330
1F
100
AcDbEntity
  8
AM_0
100
AcDbLine
 10
-10.33555221557621
 20
-9.28763580321987
 30
0.0
 11
-10.33555221557624
 21
1.588211059570141
 31
0.0
  0
LINE
  5
A3C7
330
1F
100
AcDbEntity
  8
AM_0
100
AcDbLine
 10
-6.166667938232208
 20
-10.55693817138986
 30
0.0
 11
-6.166667938232237
 21
1.563957214360158
 31
0.0
  0
LINE
  5
A3C8
330
1F
100
AcDbEntity
  8
AM_0
100
AcDbLine
 10
-5.484668731689183
 20
-17.62322235106985
 30
0.0
 11
-5.484668731689239
 21
1.559989929200156
 31
0.0
  0
ARC
  5
A3C9
330
1F
100
AcDbEntity
  8
AM_0
100
AcDbCircle
 10
-8.829181671143217
 20
-11.76503753661985
 30
0.0
 40
2.499999284744299
100
AcDbArc
 50
90.33334988691938
 51
259.7160307367682
  0
ARC
  5
A3CA
330
1F
100
AcDbEntity
  8
AM_0
100
AcDbCircle
 10
-8.489002227783217
 20
-11.76305389403985
 30
0.0
 40
2.499981164932299
100
AcDbArc
 50
94.57200136129102
 51
180.0000050089585
  0
ARC
  5
A3CB
330
1F
100
AcDbEntity
  8
AM_0
100
AcDbCircle
 10
-8.829181671143217
 20
-11.76503753661985
 30
0.0
 40
2.4997627735138
100
AcDbArc
 50
285.5820905396632
 51
90.33334988691938
  0
ARC
  5
A3CC
330
1F
100
AcDbEntity
  8
AM_0
100
AcDbCircle
 10
-8.678516387939211
 20
-11.91416168212985
 30
0.0
 40
2.999992609023999
100
AcDbArc
 50
92.78312017615057
 51
180.3333455612087
  0
ARC
  5
A3CD
330
1F
100
AcDbEntity
  8
AM_0
100
AcDbCircle
 10
-8.076663970947222
 20
-11.91066741942985
 30
0.0
 40
2.897798538207999
100
AcDbArc
 50
138.4100269262625
 51
182.0916001781086
  0
LINE
  5
A3CE
330
1F
100
AcDbEntity
  8
AM_0
100
AcDbLine
 10
-2.00174713134821
 20
-14.19219207763984
 30
0.0
 11
-2.028701782227201
 21
-9.558601379389841
 31
0.0
  0
ARC
  5
A3CF
330
1F
100
AcDbEntity
  8
AM_0
100
AcDbCircle
 10
-8.489002227783217
 20
-11.76305389403985
 30
0.0
 40
2.496573925018299
100
AcDbArc
 50
180.0000086514213
 51
266.2243508846072
  0
LINE
  5
A3D0
330
1F
100
AcDbEntity
  8
AM_0
100
AcDbLine
 10
-9.540716171265174
 20
-19.91931915282985
 30
0.0
 11
-6.362531661987176
 21
-19.90082550048986
 31
0.0
  0
LINE
  5
A3D1
330
1F
100
AcDbEntity
  8
AM_0
100
AcDbLine
 10
-6.454610824585174
 20
-19.70697784423985
 30
0.0
 11
-9.555564880371193
 21
-19.72502899169986
 31
0.0
  0
LINE
  5
A3D2
330
1F
100
AcDbEntity
  8
AM_0
100
AcDbLine
 10
-10.61512947082518
 20
-18.25743865966986
 30
0.0
 11
-5.98788070678718
 21
-18.23050689696985
 31
0.0
  0
LINE
  5
A3D3
330
1F
100
AcDbEntity
  8
AM_0
100
AcDbLine
 10
-11.03020286560116
 20
-17.71047210692985
 30
0.0
 11
-11.53507041931219
 21
-17.20459747313985
 31
0.0
  0
LINE
  5
A3D4
330
1F
100
AcDbEntity
  8
AM_0
100
AcDbLine
 10
-10.33555221557618
 20
-17.99419403075985
 30
0.0
 11
-10.33555221557621
 21
-14.27352142333985
 31
0.0
  0
LINE
  5
A3D5
330
1F
100
AcDbEntity
  8
AM_0
100
AcDbLine
 10
-11.03020858764618
 20
-17.71045684813985
 30
0.0
 11
-11.03020858764621
 21
-13.93109893798985
 31
0.0
  0
LINE
  5
A3D6
330
1F
100
AcDbEntity
  8
AM_0
100
AcDbLine
 10
-14.74446487426819
 20
-16.48116302489987
 30
0.0
 11
-12.48405647277819
 21
-18.71848297118987
 31
0.0
  0
LINE
  5
A3D7
330
1F
100
AcDbEntity
  8
AM_0
100
AcDbLine
 10
-12.42739486694317
 20
-18.55336761474987
 30
0.0
 11
-14.63287925720219
 21
-16.37039947509987
 31
0.0
  0
LINE
  5
A3D8
330
1F
100
AcDbEntity
  8
AM_0
100
AcDbLine
 10
-14.42891883850121
 20
-14.78675079345987
 30
0.0
 11
-11.13789367675816
 21
-18.04416656493985
 31
0.0
  0
LINE
  5
A3D9
330
1F
100
AcDbEntity
  8
AM_0
100
AcDbLine
 10
-11.13789749145517
 20
-18.04416656493985
 30
0.0
 11
-12.42739486694317
 21
-18.55336761474987
 31
0.0
  0
LINE
  5
A3DA
330
1F
100
AcDbEntity
  8
AM_0
100
AcDbLine
 10
-12.42739486694317
 20
-18.55336761474987
 30
0.0
 11
-12.48406028747616
 21
-18.71849822997987
 31
0.0
  0
LINE
  5
A3DB
330
1F
100
AcDbEntity
  8
AM_0
100
AcDbLine
 10
-12.48405838012719
 20
-18.71849822997987
 30
0.0
 11
-9.540712356567169
 21
-19.91931915282985
 31
0.0
  0
LINE
  5
A3DC
330
1F
100
AcDbEntity
  8
AM_0
100
AcDbLine
 10
-9.555570602417176
 20
-19.72502899169986
 30
0.0
 11
-9.540716171265174
 21
-19.91931915282985
 31
0.0
  0
LINE
  5
A3DD
330
1F
100
AcDbEntity
  8
AM_0
100
AcDbLine
 10
-9.55556297302219
 20
-19.72502899169986
 30
0.0
 11
-10.61512565612817
 21
-18.25743865966986
 31
0.0
  0
LINE
  5
A3DE
330
1F
100
AcDbEntity
  8
AM_0
100
AcDbLine
 10
-11.13790130615218
 20
-18.04416656493985
 30
0.0
 11
-10.61513710022019
 21
-18.25743865966986
 31
0.0
  0
LINE
  5
A3DF
330
1F
100
AcDbEntity
  8
AM_0
100
AcDbLine
 10
-14.74445915222217
 20
-16.48116302489987
 30
0.0
 11
-14.63286972045916
 21
-16.37041473388987
 31
0.0
  0
LINE
  5
A3E0
330
1F
100
AcDbEntity
  8
AM_0
100
AcDbLine
 10
-15.21463775634821
 20
-15.36296844481987
 30
0.0
 11
-14.74446296691918
 21
-16.48117828368987
 31
0.0
  0
LINE
  5
A3E1
330
1F
100
AcDbEntity
  8
AM_0
100
AcDbLine
 10
-14.63287734985418
 20
-16.37041473388987
 30
0.0
 11
-14.42891883850121
 21
-14.78673553466987
 31
0.0
  0
LINE
  5
A3E2
330
1F
100
AcDbEntity
  8
AM_0
100
AcDbLine
 10
-14.56486129760721
 20
-14.46343231200987
 30
0.0
 11
-14.42891883850121
 21
-14.78675079345987
 31
0.0
  0
LINE
  5
A3E3
330
1F
100
AcDbEntity
  8
AM_0
100
AcDbLine
 10
-11.67435646057121
 20
-11.93160247802987
 30
0.0
 11
-11.66740608215322
 21
-13.12602996825987
 31
0.0
  0
LINE
  5
A3E4
330
1F
100
AcDbEntity
  8
AM_0
100
AcDbLine
 10
-11.73048782348619
 20
-11.93192291259987
 30
0.0
 11
-11.67436027526922
 21
-11.93160247802987
 31
0.0
  0
LINE
  5
A3E5
330
1F
100
AcDbEntity
  8
AM_0
100
AcDbLine
 10
-6.16666793823218
 20
-17.92026519774985
 30
0.0
 11
-6.166667938232208
 21
-14.07952117919985
 31
0.0
  0
LINE
  5
A3E6
330
1F
100
AcDbEntity
  8
AM_0
100
AcDbLine
 10
-3.43336105346718
 20
-18.66584014892984
 30
0.0
 11
-1.19913864135718
 21
-16.40236663817984
 31
0.0
  0
LINE
  5
A3E7
330
1F
100
AcDbEntity
  8
AM_0
100
AcDbLine
 10
-1.41666793823218
 20
-16.29352569579984
 30
0.0
 11
-3.596607208252194
 21
-18.50199127196984
 31
0.0
  0
LINE
  5
A3E8
330
1F
100
AcDbEntity
  8
AM_0
100
AcDbLine
 10
-5.467622756958192
 20
-18.01117706298986
 30
0.0
 11
-2.214721679687201
 21
-14.71569061278984
 31
0.0
  0
LINE
  5
A3E9
330
1F
100
AcDbEntity
  8
AM_0
100
AcDbLine
 10
-6.362527847290195
 20
-19.90082550048986
 30
0.0
 11
-3.43336105346718
 21
-18.66584014892984
 31
0.0
  0
LINE
  5
A3EA
330
1F
100
AcDbEntity
  8
AM_0
100
AcDbLine
 10
-3.59659957885718
 20
-18.50199127196984
 30
0.0
 11
-5.467618942261182
 21
-18.01117706298986
 31
0.0
  0
LINE
  5
A3EB
330
1F
100
AcDbEntity
  8
AM_0
100
AcDbLine
 10
-5.98788070678718
 20
-18.23052215575985
 30
0.0
 11
-6.454610824585174
 21
-19.70697784423985
 31
0.0
  0
LINE
  5
A3EC
330
1F
100
AcDbEntity
  8
AM_0
100
AcDbLine
 10
-6.45460510253919
 20
-19.70699310302985
 30
0.0
 11
-6.362529754639197
 21
-19.90082550048986
 31
0.0
  0
LINE
  5
A3ED
330
1F
100
AcDbEntity
  8
AM_0
100
AcDbLine
 10
-5.98788070678718
 20
-18.23052215575985
 30
0.0
 11
-5.467624664307194
 21
-18.01116180419986
 31
0.0
  0
LINE
  5
A3EE
330
1F
100
AcDbEntity
  8
AM_0
100
AcDbLine
 10
-3.596611022949176
 20
-18.50199127196984
 30
0.0
 11
-3.43336105346718
 21
-18.66584014892984
 31
0.0
  0
LINE
  5
A3EF
330
1F
100
AcDbEntity
  8
AM_0
100
AcDbLine
 10
-2.214721679687201
 20
-14.71569061278984
 30
0.0
 11
-1.41666793823218
 21
-16.29351043700984
 31
0.0
  0
LINE
  5
A3F0
330
1F
100
AcDbEntity
  8
AM_0
100
AcDbLine
 10
-1.41666793823218
 20
-16.29352569579984
 30
0.0
 11
-1.19913864135718
 21
-16.40236663817984
 31
0.0
  0
LINE
  5
A3F1
330
1F
100
AcDbEntity
  8
AM_0
100
AcDbLine
 10
-2.214725494385206
 20
-14.71569061278984
 30
0.0
 11
-2.00175094604522
 21
-14.19220733642984
 31
0.0
  0
LINE
  5
A3F2
330
1F
100
AcDbEntity
  8
AM_0
100
AcDbLine
 10
-1.251861572266207
 20
-7.339241027829842
 30
0.0
 11
-2.400001525879204
 21
-6.202819824219858
 31
0.0
  0
LINE
  5
A3F3
330
1F
100
AcDbEntity
  8
AM_0
100
AcDbLine
 10
-2.400005340576214
 20
-6.528228759769859
 30
0.0
 11
-1.468120574951214
 21
-7.450599670409843
 31
0.0
  0
LINE
  5
A3F4
330
1F
100
AcDbEntity
  8
AM_0
100
AcDbLine
 10
-1.468120574951214
 20
-7.450599670409843
 30
0.0
 11
-1.251861572266207
 21
-7.339241027829842
 31
0.0
  0
LINE
  5
A3F5
330
1F
100
AcDbEntity
  8
AM_0
100
AcDbLine
 10
-1.468120574951214
 20
-7.450614929199844
 30
0.0
 11
-2.247764587402215
 21
-9.037635803219842
 31
0.0
  0
LINE
  5
A3F6
330
1F
100
AcDbEntity
  8
AM_0
100
AcDbLine
 10
-2.028701782227201
 20
-9.558601379389841
 30
0.0
 11
-2.247760772705206
 21
-9.037635803219842
 31
0.0
  0
LINE
  5
A3F7
330
1F
100
AcDbEntity
  8
AM_0
100
AcDbLine
 10
-2.247760772705206
 20
-9.037620544429842
 30
0.0
 11
-2.400005340576214
 21
-8.886940002439843
 31
0.0
  0
LINE
  5
A3F8
330
1F
100
AcDbEntity
  8
AM_0
100
AcDbLine
 10
-14.55623626709025
 20
1.612770080570129
 30
0.0
 11
-19.65798759460425
 21
1.642448425290126
 31
0.0
  0
ARC
  5
A3F9
330
1F
100
AcDbEntity
  8
AM_0
100
AcDbCircle
 10
-7.998165130615248
 20
11.91020965576015
 30
0.0
 40
3.9000000953674
100
AcDbArc
 50
89.66666878241104
 51
269.6666601309897
  0
ARC
  5
A3FA
330
1F
100
AcDbEntity
  8
AM_0
100
AcDbCircle
 10
-7.998165130615248
 20
11.91020965576015
 30
0.0
 40
3.9000000953674
100
AcDbArc
 50
269.6666706036496
 51
359.6666674785541
  0
LINE
  5
A3FB
330
1F
100
AcDbEntity
  8
AM_0
100
AcDbLine
 10
-15.99632072448723
 20
10.36540985107012
 30
0.0
 11
-15.97780418396026
 21
13.54795837402011
 31
0.0
  0
LINE
  5
A3FC
330
1F
100
AcDbEntity
  8
AM_0
100
AcDbLine
 10
-6.45561218261723
 20
3.901092529300143
 30
0.0
 11
-9.633789062500241
 21
3.919586181640141
 31
0.0
  0
LINE
  5
A3FD
330
1F
100
AcDbEntity
  8
AM_0
100
AcDbLine
 10
-6.166669845581239
 20
1.563957214360158
 30
0.0
 11
-10.33555221557624
 21
1.588211059570141
 31
0.0
  0
LINE
  5
A3FE
330
1F
100
AcDbEntity
  8
AM_0
100
AcDbLine
 10
-12.56296920776425
 20
5.15457153320014
 30
0.0
 11
-14.79719352722223
 21
7.418045043950115
 31
0.0
  0
LINE
  5
A3FF
330
1F
100
AcDbEntity
  8
AM_0
100
AcDbLine
 10
-15.27045822143624
 20
6.575187683110129
 30
0.0
 11
-15.27917861938523
 21
5.075210571290114
 31
0.0
  0
LINE
  5
A400
330
1F
100
AcDbEntity
  8
AM_0
100
AcDbLine
 10
-11.03020477294923
 20
1.592254638670141
 30
0.0
 11
-13.86158370971723
 21
1.60872650147013
 31
0.0
  0
LINE
  5
A401
330
1F
100
AcDbEntity
  8
AM_0
100
AcDbLine
 10
-13.48212623596224
 20
5.01009368897013
 30
0.0
 11
-13.13894653320325
 21
5.008102416990141
 31
0.0
  0
LINE
  5
A402
330
1F
100
AcDbEntity
  8
AM_0
100
AcDbLine
 10
-10.36628913879424
 20
4.228416442870127
 30
0.0
 11
-13.48656654357923
 21
4.246566772460141
 31
0.0
  0
LINE
  5
A403
330
1F
100
AcDbEntity
  8
AM_0
100
AcDbLine
 10
-13.48657035827623
 20
4.246566772460141
 30
0.0
 11
-13.48213005065925
 21
5.01009368897013
 31
0.0
  0
LINE
  5
A404
330
1F
100
AcDbEntity
  8
AM_0
100
AcDbLine
 10
-13.48212432861323
 20
5.01009368897013
 30
0.0
 11
-15.03467178344725
 21
5.019126892090127
 31
0.0
  0
LINE
  5
A405
330
1F
100
AcDbEntity
  8
AM_0
100
AcDbLine
 10
-15.03434944152824
 20
5.073783874510127
 30
0.0
 11
-15.03466987609924
 21
5.019126892090127
 31
0.0
  0
LINE
  5
A406
330
1F
100
AcDbEntity
  8
AM_0
100
AcDbLine
 10
-15.03434753418024
 20
5.073783874510127
 30
0.0
 11
-15.27917861938523
 21
5.075210571290114
 31
0.0
  0
LINE
  5
A407
330
1F
100
AcDbEntity
  8
AM_0
100
AcDbLine
 10
-13.86158370971723
 20
1.60872650147013
 30
0.0
 11
-14.55624389648424
 21
1.612770080570129
 31
0.0
  0
LINE
  5
A408
330
1F
100
AcDbEntity
  8
AM_0
100
AcDbLine
 10
-9.633798599243235
 20
3.919586181640141
 30
0.0
 11
-12.56297492981023
 21
5.154579162600128
 31
0.0
  0
LINE
  5
A409
330
1F
100
AcDbEntity
  8
AM_0
100
AcDbLine
 10
-12.80446243286123
 20
5.006149291990141
 30
0.0
 11
-12.80218887329122
 21
5.39692687988014
 31
0.0
  0
LINE
  5
A40A
330
1F
100
AcDbEntity
  8
AM_0
100
AcDbLine
 10
-13.13894844055222
 20
5.008102416990141
 30
0.0
 11
-12.20262336731023
 21
5.002655029300143
 31
0.0
  0
LINE
  5
A40B
330
1F
100
AcDbEntity
  8
AM_0
100
AcDbLine
 10
-11.03021049499524
 20
1.592254638670141
 30
0.0
 11
-10.33555030822823
 21
1.588211059570141
 31
0.0
  0
LINE
  5
A40C
330
1F
100
AcDbEntity
  8
AM_0
100
AcDbLine
 10
-14.79718971252423
 20
7.418052673340127
 30
0.0
 11
-15.99631500244124
 21
10.36540985107012
 31
0.0
  0
LINE
  5
A40D
330
1F
100
AcDbEntity
  8
AM_0
100
AcDbLine
 10
-14.86015510559123
 20
7.572807312010127
 30
0.0
 11
-15.07571983337423
 21
7.574066162110142
 31
0.0
  0
LINE
  5
A40E
330
1F
100
AcDbEntity
  8
AM_0
100
AcDbLine
 10
-15.22905540466324
 20
6.574943542480127
 30
0.0
 11
-15.27045822143624
 21
6.575187683110129
 31
0.0
  0
LINE
  5
A40F
330
1F
100
AcDbEntity
  8
AM_0
100
AcDbLine
 10
-15.07571792602523
 20
7.574066162110142
 30
0.0
 11
-15.07268905639624
 21
8.095199584960113
 31
0.0
  0
LINE
  5
A410
330
1F
100
AcDbEntity
  8
AM_0
100
AcDbLine
 10
-15.15973854064923
 20
8.30917358398014
 30
0.0
 11
-15.16687202453623
 21
7.083175659180113
 31
0.0
  0
LINE
  5
A411
330
1F
100
AcDbEntity
  8
AM_0
100
AcDbLine
 10
-15.78805923461924
 20
6.578193664550127
 30
0.0
 11
-15.27046012878425
 21
6.575180053710113
 31
0.0
  0
LINE
  5
A412
330
1F
100
AcDbEntity
  8
AM_0
100
AcDbLine
 10
-15.76927375793523
 20
9.807350158690127
 30
0.0
 11
-15.78805732727123
 21
6.578193664550127
 31
0.0
  0
LINE
  5
A413
330
1F
100
AcDbEntity
  8
AM_0
100
AcDbLine
 10
-1.251865386963245
 20
7.339241027830155
 30
0.0
 11
-3.51227569580125
 21
5.101921081540155
 31
0.0
  0
LINE
  5
A414
330
1F
100
AcDbEntity
  8
AM_0
100
AcDbLine
 10
-2.400005340576242
 20
6.202827453610154
 30
0.0
 11
-2.400005340576242
 21
1.542175292970142
 31
0.0
  0
LINE
  5
A415
330
1F
100
AcDbEntity
  8
AM_0
100
AcDbLine
 10
-5.484666824341232
 20
1.55999755859014
 30
0.0
 11
-2.718002319336235
 21
1.54389953613014
 31
0.0
  0
LINE
  5
A416
330
1F
100
AcDbEntity
  8
AM_0
100
AcDbLine
 10
-3.51227188110424
 20
5.101921081540155
 30
0.0
 11
-6.455617904663242
 21
3.901092529300143
 31
0.0
  0
LINE
  5
A417
330
1F
100
AcDbEntity
  8
AM_0
100
AcDbLine
 10
-6.000003814697251
 20
4.086975097660143
 30
0.0
 11
-6.000003814697251
 21
2.563011169430154
 31
0.0
  0
LINE
  5
A418
330
1F
100
AcDbEntity
  8
AM_0
100
AcDbLine
 10
-6.000003814697251
 20
2.563011169430154
 30
0.0
 11
-6.000003814697251
 21
1.562988281250142
 31
0.0
  0
LINE
  5
A419
330
1F
100
AcDbEntity
  8
AM_0
100
AcDbLine
 10
-6.166664123535227
 20
1.563964843750142
 30
0.0
 11
-5.484668731689239
 21
1.55999755859014
 31
0.0
  0
LINE
  5
A41A
330
1F
100
AcDbEntity
  8
AM_0
100
AcDbLine
 10
-2.784343719482237
 20
5.822418212890141
 30
0.0
 11
-2.784343719482237
 21
1.544403076170141
 31
0.0
  0
LINE
  5
A41B
330
1F
100
AcDbEntity
  8
AM_0
100
AcDbLine
 10
-2.718006134033245
 20
1.54389953613014
 30
0.0
 11
-2.400001525879233
 21
1.542045593260155
 31
0.0
  0
LINE
  5
A41C
330
1F
100
AcDbEntity
  8
AM_0
100
AcDbLine
 10
-9.540716171265259
 20
19.91931915283012
 30
0.0
 11
-6.362531661987262
 21
19.90082550049015
 31
0.0
  0
LINE
  5
A41D
330
1F
100
AcDbEntity
  8
AM_0
100
AcDbLine
 10
-14.74446487426827
 20
16.48116302490012
 30
0.0
 11
-12.48405647277827
 21
18.71849060059014
 31
0.0
  0
LINE
  5
A41E
330
1F
100
AcDbEntity
  8
AM_0
100
AcDbLine
 10
-15.97780609130926
 20
13.54795837402011
 30
0.0
 11
-14.74446678161625
 21
16.48117065430014
 31
0.0
  0
LINE
  5
A41F
330
1F
100
AcDbEntity
  8
AM_0
100
AcDbLine
 10
-15.73527908325227
 20
15.65080261231011
 30
0.0
 11
-15.74428176879926
 21
14.10334014893012
 31
0.0
  0
LINE
  5
A420
330
1F
100
AcDbEntity
  8
AM_0
100
AcDbLine
 10
-12.48405838012728
 20
18.71849060059014
 30
0.0
 11
-9.540710449219275
 21
19.91931152344014
 31
0.0
  0
LINE
  5
A421
330
1F
100
AcDbEntity
  8
AM_0
100
AcDbLine
 10
-3.433361053467265
 20
18.66584014893015
 30
0.0
 11
-1.199138641357265
 21
16.40236663818015
 31
0.0
  0
ARC
  5
A422
330
1F
100
AcDbEntity
  8
AM_0
100
AcDbCircle
 10
-7.998165130615248
 20
11.91020965576015
 30
0.0
 40
3.894654989242599
100
AcDbArc
 50
359.6666674785541
 51
89.66666878241104
  0
LINE
  5
A423
330
1F
100
AcDbEntity
  8
AM_0
100
AcDbLine
 10
-6.36252784729028
 20
19.90082550049015
 30
0.0
 11
-3.433361053467265
 21
18.66584014893015
 31
0.0
  0
LINE
  5
A424
330
1F
100
AcDbEntity
  8
AM_0
100
AcDbLine
 10
-0.0000000000002132
 20
-13.45499420165984
 30
0.0
 11
-0.0185165405272159
 21
-10.27245330810984
 31
0.0
  0
LINE
  5
A425
330
1F
100
AcDbEntity
  8
AM_0
100
AcDbLine
 10
-0.2647361755372088
 20
-10.31255340575984
 30
0.0
 11
-0.2466773986821948
 21
-13.41776275634984
 31
0.0
  0
LINE
  5
A426
330
1F
100
AcDbEntity
  8
AM_0
100
AcDbLine
 10
-0.2466735839842187
 20
-13.41776275634984
 30
0.0
 11
-0.0000038146971946
 21
-13.45499420165984
 31
0.0
  0
LINE
  5
A427
330
1F
100
AcDbEntity
  8
AM_0
100
AcDbLine
 10
-0.2647323608402274
 20
-10.31255340575984
 30
0.0
 11
-0.0185203552252205
 21
-10.27245330810984
 31
0.0
  0
LINE
  5
A428
330
1F
100
AcDbEntity
  8
AM_0
100
AcDbLine
 10
-0.00000000000027
 20
13.45500183106017
 30
0.0
 11
-0.0185165405272443
 21
10.27245330811015
 31
0.0
  0
LINE
  5
A52E
330
1F
100
AcDbEntity
  8
AM_11
100
AcDbLine
 10
-0.0000000000002844
 20
20.00000000000016
 30
0.0
 11
-0.0000000000002059
 21
-19.99999999999983
 31
0.0
  0
LINE
  5
A536
330
1F
100
AcDbEntity
  8
AM_11
100
AcDbLine
 10
-8.000000000000287
 20
20.00000000000014
 30
0.0
 11
-8.000000000000204
 21
-19.99999999999985
 31
0.0
  0
LINE
  5
A53E
330
1F
100
AcDbEntity
  8
AM_11
100
AcDbLine
 10
-8.000000000000287
 20
20.00000000000016
 30
0.0
 11
-0.0000000000002842
 21
20.00000000000016
 31
0.0
  0
LINE
  5
A542
330
1F
100
AcDbEntity
  8
AM_11
100
AcDbLine
 10
-8.000000000000198
 20
-19.99999999999985
 30
0.0
 11
-0.000000000000199
 21
-19.99999999999983
 31
0.0
  0
DIMENSION
  5
A54A
330
1F
100
AcDbEntity
  8
AM_5
100
AcDbDimension
  2
*D5
 10
13.99999999999971
 20
-19.99999999999984
 30
0.0
 11
11.39999999999971
 21
0.0000000000001629
 31
0.0
 70
    32
  1
%%c<>
 51
359.9999999999998
  3
AM_JIS$0
100
AcDbAlignedDimension
 13
-0.0000000000002844
 23
20.00000000000016
 33
0.0
 14
-0.0000000000002059
 24
-19.99999999999983
 34
0.0
 50
90.0
100
AcDbRotatedDimension
1001
GENIUS_GENDTOL_13
1000

1000
h7
1000

1040
0.0
1001
ACAD
1000
DSTYLE
1002
{
1070
   287
1070
     3
1070
    42
1040
1.0
1070
    43
1040
12.0
1070
    48
1040
0.1
1070
    78
1070
     8
1070
   140
1040
3.2
1070
   147
1040
1.0
1070
   176
1070
   256
1070
   177
1070
   256
1070
   271
1070
     1
1070
   272
1070
     3
1070
   275
1070
     0
1070
   284
1070
     0
1070
   289
1070
     3
1070
   340
1005
6B
1070
   371
1070
    -1
1070
   372
1070
    -1
1002
}
  0
DIMENSION
  5
A603
330
1F
100
AcDbEntity
  8
AM_5
100
AcDbDimension
  2
*D6
 10
-8.000000000000259
 20
34.00000000000016
 30
0.0
 11
-4.000000000000254
 21
36.60000000000016
 31
0.0
 70
    32
  1
<>
 51
359.9999999999998
  3
AM_JIS$0
100
AcDbAlignedDimension
 13
-0.0000000000002842
 23
20.00000000000016
 33
0.0
 14
-8.000000000000284
 24
20.00000000000014
 34
0.0
 50
180.0
100
AcDbRotatedDimension
1001
GENIUS_GENDTOL_13
1000

1000
h7
1000

1040
0.0
1001
ACAD
1000
DSTYLE
1002
{
1070
   287
1070
     3
1070
    42
1040
1.0
1070
    43
1040
12.0
1070
    48
1040
0.1
1070
    78
1070
     8
1070
   140
1040
3.2
1070
   147
1040
1.0
1070
   176
1070
   256
1070
   177
1070
   256
1070
   271
1070
     1
1070
   272
1070
     3
1070
   275
1070
     0
1070
   284
1070
     0
1070
   289
1070
     3
1070
   340
1005
6B
1070
   371
1070
    -1
1070
   372
1070
    -1
1002
}
  0
DIMENSION
  5
A6FB
330
1F
100
AcDbEntity
  8
AM_5
100
AcDbDimension
  2
*D7
 10
-38.12023069788454
 20
-15.66184234618994
 30
0.0
 11
-38.12023069788454
 21
4.748915462725477
 31
0.0
 70
   160
  1
%%C<>
 51
359.9999999999998
  3
AM_JIS$0
100
AcDbAlignedDimension
 13
-49.66183853149328
 23
15.66183471680005
 33
0.0
 14
-49.66183853149321
 24
-15.66184234618994
 34
0.0
 50
90.00000000000019
100
AcDbRotatedDimension
1001
GENIUS_GENDTOL_13
1000

1000
h7
1000

1040
0.0
1001
ACAD
1000
DSTYLE
1002
{
1070
   287
1070
     3
1070
    42
1040
1.0
1070
    43
1040
12.0
1070
    48
1040
0.1
1070
    78
1070
     8
1070
   140
1040
3.2
1070
   147
1040
1.0
1070
   176
1070
   256
1070
   177
1070
   256
1070
   271
1070
     1
1070
   272
1070
     3
1070
   275
1070
     0
1070
   284
1070
     0
1070
   289
1070
     3
1070
   340
1005
6B
1070
   371
1070
    -1
1070
   372
1070
    -1
1002
}
  0
DIMENSION
  5
A7E3
330
1F
100
AcDbEntity
  8
AM_5
100
AcDbDimension
  2
*D8
 10
-49.99999999999921
 20
-33.99999999999983
 30
0.0
 11
-24.99999999999971
 21
-31.39999999999983
 31
0.0
 70
    32
  1
<>
 51
359.9999999999998
  3
AM_JIS$0
100
AcDbAlignedDimension
 13
-0.0000000000002061
 23
-19.92499999999982
 33
0.0
 14
-49.99999999999921
 24
-16.00000762938994
 34
0.0
100
AcDbRotatedDimension
1001
GENIUS_GENDTOL_13
1000

1000
h7
1000

1040
0.0
1001
ACAD
1000
DSTYLE
1002
{
1070
   287
1070
     3
1070
    42
1040
1.0
1070
    43
1040
12.0
1070
    48
1040
0.1
1070
    78
1070
     8
1070
   140
1040
3.2
1070
   147
1040
1.0
1070
   176
1070
   256
1070
   177
1070
   256
1070
   271
1070
     1
1070
   272
1070
     3
1070
   275
1070
     0
1070
   284
1070
     0
1070
   289
1070
     3
1070
   340
1005
6B
1070
   371
1070
    -1
1070
   372
1070
    -1
1002
}
  0
DIMENSION
  5
A89C
330
1F
100
AcDbEntity
  8
AM_5
100
AcDbDimension
  2
*D9
 10
-250.0000000000002
 20
-33.99999999999983
 30
0.0
 11
-150.0000014305112
 21
-31.39999999999983
 31
0.0
 70
    32
  1
<>
 51
359.9999999999998
  3
AM_JIS$0
100
AcDbAlignedDimension
 13
-50.00000286102222
 23
-15.99999237060994
 33
0.0
 14
-250.0000000000002
 24
-15.46410369873034
 34
0.0
100
AcDbRotatedDimension
1001
GENIUS_GENDTOL_13
1000

1000
h7
1000

1040
0.0
1001
ACAD
1000
DSTYLE
1002
{
1070
   287
1070
     3
1070
   147
1040
1.0
1070
    41
1040
2.5
1070
    40
1040
1.0
1070
    42
1040
1.0
1070
    43
1040
12.0
1070
    48
1040
0.1
1070
    78
1070
     8
1070
   140
1040
3.2
1070
   176
1070
   256
1070
   177
1070
   256
1070
   271
1070
     1
1070
   272
1070
     3
1070
   275
1070
     0
1070
   284
1070
     0
1070
   289
1070
     3
1070
   340
1005
6B
1070
   371
1070
    -1
1070
   372
1070
    -1
1002
}
  0
DIMENSION
  5
A95E
330
1F
100
AcDbEntity
  8
AM_5
100
AcDbDimension
  2
*D10
 10
-250.0000000000002
 20
-43.99999999999983
 30
0.0
 11
-125.0000000000002
 21
-41.39999999999983
 31
0.0
 70
    32
  1
<>
 51
359.9999999999998
  3
AM_JIS$0
100
AcDbAlignedDimension
 13
-0.0000000000002059
 23
-19.99999999999983
 33
0.0
 14
-250.0000000000002
 24
-15.46410369873034
 34
0.0
100
AcDbRotatedDimension
1001
GENIUS_GENDTOL_13
1000

1000
h7
1000

1040
0.0
1001
ACAD
1000
DSTYLE
1002
{
1070
   287
1070
     3
1070
    42
1040
1.0
1070
    43
1040
12.0
1070
    48
1040
0.1
1070
    78
1070
     8
1070
   140
1040
3.2
1070
   147
1040
1.0
1070
   176
1070
   256
1070
   177
1070
   256
1070
   271
1070
     1
1070
   272
1070
     3
1070
   275
1070
     0
1070
   284
1070
     0
1070
   289
1070
     3
1070
   340
1005
6B
1070
   371
1070
    -1
1070
   372
1070
    -1
1002
}
  0
DIMENSION
  5
A9F3
330
1F
100
AcDbEntity
  8
AM_5
100
AcDbDimension
  2
*D11
 10
-264.0000000000002
 20
-15.99999237061032
 30
0.0
 11
-266.6000000000002
 21
0.0000038146946282
 31
0.0
 70
    32
  1
%%C<>
 51
359.9999999999998
  3
AM_JIS$0
100
AcDbAlignedDimension
 13
-248.0000000000003
 23
15.99999999999965
 33
0.0
 14
-248.0000000000002
 24
-15.99999237061032
 34
0.0
 50
270.0000000000002
100
AcDbRotatedDimension
1001
GENIUS_GENDTOL_13
1000

1000
h7
1000

1040
0.0
1001
ACAD
1000
DSTYLE
1002
{
1070
   287
1070
     3
1070
    42
1040
1.0
1070
    43
1040
12.0
1070
    48
1040
0.1
1070
    78
1070
     8
1070
   140
1040
3.2
1070
   147
1040
1.0
1070
   176
1070
   256
1070
   177
1070
   256
1070
   271
1070
     1
1070
   272
1070
     3
1070
   275
1070
     0
1070
   284
1070
     0
1070
   289
1070
     3
1070
   340
1005
6B
1070
   371
1070
    -1
1070
   372
1070
    -1
1002
}
  0
VIEWPORT
  5
110
330
101
100
AcDbEntity
 67
     1
  8
0
100
AcDbViewport
 10
420.5
 20
297.0
 30
0.0
 40
948.9782706766916
 41
628.452
 68
     1
 69
     1
1001
ACAD
1000
MVIEW
1002
{
1070
    16
1010
0.0
1020
0.0
1030
0.0
1010
0.0
1020
0.0
1030
1.0
1040
0.0
1040
628.452
1040
420.5
1040
297.0
1040
50.0
1040
0.0
1040
0.0
1070
     0
1070
   100
1070
     1
1070
     1
1070
     0
1070
     0
1070
     0
1070
     0
1040
0.0
1040
0.0
1040
0.0
1040
10.0
1040
10.0
1040
10.0
1040
10.0
1070
     0
1002
{
1002
}
1002
}
  0
ENDSEC
  0
SECTION
  2
OBJECTS
  0
DICTIONARY
  5
C
330
0
100
AcDbDictionary
  3
ACAD_GROUP
350
D
  3
ACAD_LAYOUT
350
1A
  3
ACAD_MLINESTYLE
350
17
  3
ACAD_PLOTSETTINGS
350
19
  3
ACAD_PLOTSTYLENAME
350
E
  3
ACDBVARIABLEDICTIONARY
350
34
  3
ACMDICTIONARY
350
43
  3
AMG
350
2B
  3
AMGSNAPSETTINGS
350
6E
  3
DWGPROPS
350
AE2F
  3
ACDBHEADERROUNDTRIPXREC
350
AE3B
  0
DICTIONARY
  5
74
330
1F
100
AcDbDictionary
280
     1
  3
ACAD_INDEX
360
AE31
  3
ACAD_LAYOUTSELFREF
360
AE5E
  0
DICTIONARY
  5
AE63
330
101
100
AcDbDictionary
280
     1
  3
ACAD_LAYOUTSELFREF
360
AE64
  0
DICTIONARY
  5
D
102
{ACAD_REACTORS
330
C
102
}
330
C
100
AcDbDictionary
  0
DICTIONARY
  5
1A
102
{ACAD_REACTORS
330
C
102
}
330
C
100
AcDbDictionary
  0
DICTIONARY
  5
17
102
{ACAD_REACTORS
330
C
102
}
330
C
100
AcDbDictionary
  3
STANDARD
350
18
  0
DICTIONARY
  5
19
102
{ACAD_REACTORS
330
C
102
}
330
C
100
AcDbDictionary
  3
ASAMI
350
399D
  0
ACDBDICTIONARYWDFLT
  5
E
102
{ACAD_REACTORS
330
C
102
}
330
C
100
AcDbDictionary
281
     1
  3
Normal
350
F
100
AcDbDictionaryWithDefault
340
F
  0
DICTIONARY
  5
34
102
{ACAD_REACTORS
330
C
102
}
330
C
100
AcDbDictionary
  3
INDEXCTL
350
35
  3
SORTENTS
350
B5E
  0
DICTIONARY
  5
43
102
{ACAD_REACTORS
330
C
102
}
330
C
100
AcDbDictionary
  3
ACMSTDDICTIONARY
350
260
  0
DICTIONARY
  5
2B
102
{ACAD_REACTORS
330
C
102
}
330
C
100
AcDbDictionary
  3
ACMGSETTINGS
350
2C
  0
DICTIONARY
  5
6E
102
{ACAD_REACTORS
330
C
102
}
330
C
100
AcDbDictionary
  0
XRECORD
  5
AE2F
102
{ACAD_REACTORS
330
C
102
}
330
C
100
AcDbXrecord
  1
DWGPROPS COOKIE
  2

  3

  4

  6

  7

  8

  9

300
AmdtFileType=82
301
=
302
=
303
=
304
=
305
=
306
=
307
=
308
=
309
=
 40
0.9291428819444444
 41
2452802.716478761
 42
2453075.691590335
  1

 90
        1
  0
DICTIONARY
  5
AE3B
102
{ACAD_REACTORS
330
C
102
}
330
C
100
AcDbDictionary
  3
TSTACKALIGN
350
AE3C
  3
TSTACKSIZE
350
AE3D
  3
HYPERLINKBASE
350
AE3E
  3
STYLESHEET
350
AE3F
  3
LAYOUTDICT
350
AE40
  3
PLOTSETDICT
350
AE41
  3
PLOTSTYLNAMDICT
350
AE42
  3
LWETCUNION
350
AE43
  3
INSUNITS
350
AE44
  3
CEPSNTYPE
350
AE45
  3
FINGERPRINTGUID
350
AE46
  3
VERSIONGUID
350
AE47
  3
PSVPSCALE
350
AE48
  3
DIMSTYLEDATA
350
AE49
  3
PUCSORTHOREF
350
AE4A
  3
PUCSORTHOVIEW
350
AE4B
  3
PUCSBASE
350
AE4C
  3
PUCSORGTOP
350
AE4D
  3
PUCSORGBOTTOM
350
AE4E
  3
PUCSORGLEFT
350
AE4F
  3
PUCSORGRIGHT
350
AE50
  3
PUCSORGFRONT
350
AE51
  3
PUCSORGBACK
350
AE52
  3
UCSORTHOREF
350
AE53
  3
UCSORTHOVIEW
350
AE54
  3
UCSBASE
350
AE55
  3
UCSORGTOP
350
AE56
  3
UCSORGBOTTOM
350
AE57
  3
UCSORGLEFT
350
AE58
  3
UCSORGRIGHT
350
AE59
  3
UCSORGFRONT
350
AE5A
  3
UCSORGBACK
350
AE5B
  0
DICTIONARY
  5
AE31
102
{ACAD_REACTORS
330
74
102
}
330
74
100
AcDbDictionary
  3
*A1
350
AE32
  0
XRECORD
  5
AE5E
102
{ACAD_REACTORS
330
74
102
}
330
74
100
AcDbXrecord
340
1F
  0
XRECORD
  5
AE64
102
{ACAD_REACTORS
330
AE63
102
}
330
AE63
100
AcDbXrecord
340
101
  0
MLINESTYLE
  5
18
102
{ACAD_REACTORS
330
17
102
}
330
17
100
AcDbMlineStyle
  2
STANDARD
 70
     0
  3

 62
   256
 51
90.0
 52
90.0
 71
     2
 49
0.5
 62
   256
  6
BYLAYER
 49
-0.5
 62
   256
  6
BYLAYER
  0
PLOTSETTINGS
  5
399D
102
{ACAD_REACTORS
330
19
102
}
330
19
100
AcDbPlotSettings
  1
asami
  2
RICOH imagio MF1540
  4
A4
  6

 40
5.831416606903076
 41
7.651742935180664
 42
4.90008544921875
 43
5.789077758789062
 44
296.9683227539062
 45
209.9733276367187
 46
0.0
 47
0.0
 48
-156.6707931774246
 49
-74.57609991074048
140
58.59973180214831
141
60.61068161925596
142
1.0
143
1.095343097833084
 70
  1712
 72
     1
 73
     1
 74
     4
  7
asami.ctb
 75
     0
147
0.9129559514076438
148
156.6707931774246
149
74.57609991074048
  0
ACDBPLACEHOLDER
  5
F
102
{ACAD_REACTORS
330
E
102
}
330
E
100
AcDbPlaceHolder
280
     0
  0
DICTIONARYVAR
  5
35
102
{ACAD_REACTORS
330
34
102
}
330
34
100
DictionaryVariables
280
     0
  1
1
  0
DICTIONARYVAR
  5
B5E
102
{ACAD_REACTORS
330
34
102
}
330
34
100
DictionaryVariables
280
     0
  1
96
  0
DICTIONARY
  5
260
102
{ACAD_REACTORS
330
43
102
}
330
43
100
AcDbDictionary
  0
DICTIONARY
  5
2C
102
{ACAD_REACTORS
330
2B
102
}
330
2B
100
AcDbDictionary
  3
DWGSETTINGS
350
2D
  0
XRECORD
  5
AE3C
102
{ACAD_REACTORS
330
AE3B
102
}
330
AE3B
100
AcDbXrecord
 90
        1
  0
XRECORD
  5
AE3D
102
{ACAD_REACTORS
330
AE3B
102
}
330
AE3B
100
AcDbXrecord
 90
       70
  0
XRECORD
  5
AE3E
102
{ACAD_REACTORS
330
AE3B
102
}
330
AE3B
100
AcDbXrecord
  1

  0
XRECORD
  5
AE3F
102
{ACAD_REACTORS
330
AE3B
102
}
330
AE3B
100
AcDbXrecord
  1
ASAMI.ctb
  0
XRECORD
  5
AE40
102
{ACAD_REACTORS
330
AE3B
102
}
330
AE3B
100
AcDbXrecord
340
1A
  0
XRECORD
  5
AE41
102
{ACAD_REACTORS
330
AE3B
102
}
330
AE3B
100
AcDbXrecord
340
19
  0
XRECORD
  5
AE42
102
{ACAD_REACTORS
330
AE3B
102
}
330
AE3B
100
AcDbXrecord
340
E
  0
XRECORD
  5
AE43
102
{ACAD_REACTORS
330
AE3B
102
}
330
AE3B
100
AcDbXrecord
 90
    10781
  0
XRECORD
  5
AE44
102
{ACAD_REACTORS
330
AE3B
102
}
330
AE3B
100
AcDbXrecord
 90
        4
  0
XRECORD
  5
AE45
102
{ACAD_REACTORS
330
AE3B
102
}
330
AE3B
100
AcDbXrecord
 90
        0
  0
XRECORD
  5
AE46
102
{ACAD_REACTORS
330
AE3B
102
}
330
AE3B
100
AcDbXrecord
  1
{AFB28963-8C59-40AE-9337-C84526B81ACE}
  0
XRECORD
  5
AE47
102
{ACAD_REACTORS
330
AE3B
102
}
330
AE3B
100
AcDbXrecord
  1
{BE11810B-EC3D-4040-A1C1-7DDE9F128CF9}
  0
XRECORD
  5
AE48
102
{ACAD_REACTORS
330
AE3B
102
}
330
AE3B
100
AcDbXrecord
 40
0.0
  0
XRECORD
  5
AE49
102
{ACAD_REACTORS
330
AE3B
102
}
330
AE3B
100
AcDbXrecord
1000
DSTYLE
1002
{
1070
    79
 70
     2
1070
   341
340
59
1070
   342
340
59
1070
   371
 70
    -1
1070
   372
 70
    -1
1002
}
  0
XRECORD
  5
AE4A
102
{ACAD_REACTORS
330
AE3B
102
}
330
AE3B
100
AcDbXrecord
340
0
  0
XRECORD
  5
AE4B
102
{ACAD_REACTORS
330
AE3B
102
}
330
AE3B
100
AcDbXrecord
 70
     0
  0
XRECORD
  5
AE4C
102
{ACAD_REACTORS
330
AE3B
102
}
330
AE3B
100
AcDbXrecord
340
0
  0
XRECORD
  5
AE4D
102
{ACAD_REACTORS
330
AE3B
102
}
330
AE3B
100
AcDbXrecord
 10
0.0
 20
0.0
 30
0.0
  0
XRECORD
  5
AE4E
102
{ACAD_REACTORS
330
AE3B
102
}
330
AE3B
100
AcDbXrecord
 10
0.0
 20
0.0
 30
0.0
  0
XRECORD
  5
AE4F
102
{ACAD_REACTORS
330
AE3B
102
}
330
AE3B
100
AcDbXrecord
 10
0.0
 20
0.0
 30
0.0
  0
XRECORD
  5
AE50
102
{ACAD_REACTORS
330
AE3B
102
}
330
AE3B
100
AcDbXrecord
 10
0.0
 20
0.0
 30
0.0
  0
XRECORD
  5
AE51
102
{ACAD_REACTORS
330
AE3B
102
}
330
AE3B
100
AcDbXrecord
 10
0.0
 20
0.0
 30
0.0
  0
XRECORD
  5
AE52
102
{ACAD_REACTORS
330
AE3B
102
}
330
AE3B
100
AcDbXrecord
 10
0.0
 20
0.0
 30
0.0
  0
XRECORD
  5
AE53
102
{ACAD_REACTORS
330
AE3B
102
}
330
AE3B
100
AcDbXrecord
340
0
  0
XRECORD
  5
AE54
102
{ACAD_REACTORS
330
AE3B
102
}
330
AE3B
100
AcDbXrecord
 70
     0
  0
XRECORD
  5
AE55
102
{ACAD_REACTORS
330
AE3B
102
}
330
AE3B
100
AcDbXrecord
340
0
  0
XRECORD
  5
AE56
102
{ACAD_REACTORS
330
AE3B
102
}
330
AE3B
100
AcDbXrecord
 10
0.0
 20
0.0
 30
0.0
  0
XRECORD
  5
AE57
102
{ACAD_REACTORS
330
AE3B
102
}
330
AE3B
100
AcDbXrecord
 10
0.0
 20
0.0
 30
0.0
  0
XRECORD
  5
AE58
102
{ACAD_REACTORS
330
AE3B
102
}
330
AE3B
100
AcDbXrecord
 10
0.0
 20
0.0
 30
0.0
  0
XRECORD
  5
AE59
102
{ACAD_REACTORS
330
AE3B
102
}
330
AE3B
100
AcDbXrecord
 10
0.0
 20
0.0
 30
0.0
  0
XRECORD
  5
AE5A
102
{ACAD_REACTORS
330
AE3B
102
}
330
AE3B
100
AcDbXrecord
 10
0.0
 20
0.0
 30
0.0
  0
XRECORD
  5
AE5B
102
{ACAD_REACTORS
330
AE3B
102
}
330
AE3B
100
AcDbXrecord
 10
0.0
 20
0.0
 30
0.0
  0
LAYER_INDEX
  5
AE32
102
{ACAD_REACTORS
330
AE31
102
}
330
AE31
100
AcDbIndex
 40
2453152.379357176
100
AcDbLayerIndex
  8
0
360
AE33
 90
        0
  8
AM_0
360
AE34
 90
      156
  8
AM_5
360
AE35
 90
        7
  8
AM_7
360
AE36
 90
        1
  8
AM_6
360
AE37
 90
        1
  8
Defpoints
360
AE38
 90
        0
  8
AM_11
360
AE39
 90
        4
  0
XRECORD
  5
2D
102
{ACAD_REACTORS
330
2C
102
}
330
2C
100
AcDbXrecord
  1
VERSION
140
15.0
  1
PRODUCT
  2
AutoCAD Mechanical 2000
  0
IDBUFFER
  5
AE33
330
0
100
AcDbIdBuffer
  0
IDBUFFER
  5
AE34
330
0
100
AcDbIdBuffer
330
A3FD
330
A3FE
330
A3FF
330
A400
330
A401
330
A402
330
A403
330
A404
330
A405
330
A406
330
A407
330
A408
330
A409
330
A40A
330
A40B
330
A40C
330
A40D
330
A40E
330
A40F
330
A410
330
A411
330
A412
330
A413
330
A414
330
A415
330
A416
330
A417
330
A418
330
A419
330
A41A
330
A41B
330
A41C
330
A41D
330
A41E
330
A41F
330
A420
330
A421
330
A422
330
A423
330
A424
330
A425
330
A426
330
A427
330
A428
330
A354
330
A355
330
A357
330
A358
330
A35A
330
A35B
330
A35D
330
A35F
330
A360
330
A362
330
A363
330
A369
330
A36A
330
A36C
330
A36D
330
A36E
330
A36F
330
A370
330
A371
330
A372
330
A373
330
A374
330
A375
330
A376
330
A377
330
A378
330
A379
330
A37A
330
A37B
330
A37C
330
A37D
330
A37E
330
A37F
330
A380
330
A381
330
A382
330
A383
330
A384
330
A385
330
A386
330
A387
330
A388
330
A389
330
A38A
330
A38B
330
A38C
330
A3BA
330
A3BB
330
A3BC
330
A3BD
330
A3BE
330
A3BF
330
A3C1
330
A3C2
330
A3C3
330
A3C4
330
A3C5
330
A3C6
330
A3C7
330
A3C8
330
A3C9
330
A3CA
330
A3CB
330
A3CC
330
A3CD
330
A3CE
330
A3CF
330
A3D0
330
A3D1
330
A3D2
330
A3D3
330
A3D4
330
A3D5
330
A3D6
330
A3D7
330
A3D8
330
A3D9
330
A3DA
330
A3DB
330
A3DC
330
A3DD
330
A3DE
330
A3DF
330
A3E0
330
A3E1
330
A3E2
330
A3E3
330
A3E4
330
A3E5
330
A3E6
330
A3E7
330
A3E8
330
A3E9
330
A3EA
330
A3EB
330
A3EC
330
A3ED
330
A3EE
330
A3EF
330
A3F0
330
A3F1
330
A3F2
330
A3F3
330
A3F4
330
A3F5
330
A3F6
330
A3F7
330
A3F8
330
A3F9
330
A3FA
330
A3FB
330
A3FC
  0
IDBUFFER
  5
AE35
330
0
100
AcDbIdBuffer
330
A54A
330
A603
330
A6FB
330
A7E3
330
A89C
330
A95E
330
A9F3
  0
IDBUFFER
  5
AE36
330
0
100
AcDbIdBuffer
330
A35C
  0
IDBUFFER
  5
AE37
330
0
100
AcDbIdBuffer
330
388D
  0
IDBUFFER
  5
AE38
330
0
100
AcDbIdBuffer
  0
IDBUFFER
  5
AE39
330
0
100
AcDbIdBuffer
330
A52E
330
A536
330
A53E
330
A542
  0
ENDSEC
  0
EOF
