  0
SECTION
  2
HEADER
  9
$ACADVER
  1
AC1014
  9
$ACADMAINTVER
 70
     9
  9
$DWGCODEPAGE
  3
ANSI_932
  9
$INSBASE
 10
0.0
 20
0.0
 30
0.0
  9
$EXTMIN
 10
-179.3500038146942
 20
-43.25000000000005
 30
-0.00000001
  9
$EXTMAX
 10
7.49999999999982
 20
29.35000000000018
 30
0.00000001
  9
$LIMMIN
 10
-196.972422640745
 20
-93.11980578560513
  9
$LIMMAX
 10
85.96819354545175
 20
80.20950819874412
  9
$ORTHOMODE
 70
     0
  9
$REGENMODE
 70
     1
  9
$FILLMODE
 70
     1
  9
$QTEXTMODE
 70
     0
  9
$MIRRTEXT
 70
     0
  9
$DRAGMODE
 70
     2
  9
$LTSCALE
 40
1.0
  9
$OSMODE
 70
    55
  9
$ATTMODE
 70
     1
  9
$TEXTSIZE
 40
2.5
  9
$TRACEWID
 40
1.0
  9
$TEXTSTYLE
  7
STANDARD
  9
$CLAYER
  8
AM_0
  9
$CELTYPE
  6
BYLAYER
  9
$CECOLOR
 62
   256
  9
$CELTSCALE
 40
1.0
  9
$DELOBJ
 70
     1
  9
$DISPSILH
 70
     0
  9
$DIMSCALE
 40
0.5
  9
$DIMASZ
 40
2.5
  9
$DIMEXO
 40
1.0
  9
$DIMDLI
 40
12.0
  9
$DIMRND
 40
0.0
  9
$DIMDLE
 40
0.0
  9
$DIMEXE
 40
1.0
  9
$DIMTP
 40
0.1
  9
$DIMTM
 40
0.1
  9
$DIMTXT
 40
3.2
  9
$DIMCEN
 40
0.0
  9
$DIMTSZ
 40
0.0
  9
$DIMTOL
 70
     0
  9
$DIMLIM
 70
     0
  9
$DIMTIH
 70
     0
  9
$DIMTOH
 70
     0
  9
$DIMSE1
 70
     0
  9
$DIMSE2
 70
     0
  9
$DIMTAD
 70
     3
  9
$DIMZIN
 70
     8
  9
$DIMBLK
  1
OPEN30
  9
$DIMASO
 70
     1
  9
$DIMSHO
 70
     1
  9
$DIMPOST
  1

  9
$DIMAPOST
  1
"
  9
$DIMALT
 70
     0
  9
$DIMALTD
 70
     2
  9
$DIMALTF
 40
0.0393701
  9
$DIMLFAC
 40
1.0
  9
$DIMTOFL
 70
     1
  9
$DIMTVP
 40
0.0
  9
$DIMTIX
 70
     0
  9
$DIMSOXD
 70
     0
  9
$DIMSAH
 70
     0
  9
$DIMBLK1
  1

  9
$DIMBLK2
  1

  9
$DIMSTYLE
  2
AM_JIS
  9
$DIMCLRD
 70
   256
  9
$DIMCLRE
 70
   256
  9
$DIMCLRT
 70
     2
  9
$DIMTFAC
 40
0.71
  9
$DIMGAP
 40
1.5
  9
$DIMJUST
 70
     0
  9
$DIMSD1
 70
     0
  9
$DIMSD2
 70
     0
  9
$DIMTOLJ
 70
     0
  9
$DIMTZIN
 70
     0
  9
$DIMALTZ
 70
     0
  9
$DIMALTTZ
 70
     0
  9
$DIMFIT
 70
     3
  9
$DIMUPT
 70
     0
  9
$DIMUNIT
 70
     2
  9
$DIMDEC
 70
     3
  9
$DIMTDEC
 70
     3
  9
$DIMALTU
 70
     2
  9
$DIMALTTD
 70
     2
  9
$DIMTXSTY
  7
ASAMI
  9
$DIMAUNIT
 70
     0
  9
$LUNITS
 70
     2
  9
$LUPREC
 70
     2
  9
$SKETCHINC
 40
1.0
  9
$FILLETRAD
 40
0.4
  9
$AUNITS
 70
     0
  9
$AUPREC
 70
     0
  9
$MENU
  1
.
  9
$ELEVATION
 40
0.0
  9
$PELEVATION
 40
0.0
  9
$THICKNESS
 40
0.0
  9
$LIMCHECK
 70
     1
  9
$BLIPMODE
 70
     0
  9
$CHAMFERA
 40
1.0
  9
$CHAMFERB
 40
1.0
  9
$CHAMFERC
 40
20.0
  9
$CHAMFERD
 40
0.0
  9
$SKPOLY
 70
     0
  9
$TDCREATE
 40
2452802.716478761
  9
$TDUPDATE
 40
2453152.379457916
  9
$TDINDWG
 40
0.9225465741
  9
$TDUSRTIMER
 40
0.9225465741
  9
$USRTIMER
 70
     1
  9
$ANGBASE
 50
0.0
  9
$ANGDIR
 70
     0
  9
$PDMODE
 70
     0
  9
$PDSIZE
 40
0.0
  9
$PLINEWID
 40
0.0
  9
$COORDS
 70
     1
  9
$SPLFRAME
 70
     0
  9
$SPLINETYPE
 70
     6
  9
$SPLINESEGS
 70
     8
  9
$ATTDIA
 70
     1
  9
$ATTREQ
 70
     1
  9
$HANDLING
 70
 12289
  9
$HANDSEED
  5
A3CD
  9
$SURFTAB1
 70
     6
  9
$SURFTAB2
 70
     6
  9
$SURFTYPE
 70
     6
  9
$SURFU
 70
     6
  9
$SURFV
 70
     6
  9
$UCSNAME
  2

  9
$UCSORG
 10
-0.0000000000002682
 20
0.000000000000161
 30
0.0
  9
$UCSXDIR
 10
1.0
 20
0.000000000000002
 30
0.0
  9
$UCSYDIR
 10
-0.000000000000002
 20
1.0
 30
0.0
  9
$PUCSNAME
  2

  9
$PUCSORG
 10
0.0
 20
0.0
 30
0.0
  9
$PUCSXDIR
 10
1.0
 20
0.0
 30
0.0
  9
$PUCSYDIR
 10
0.0
 20
1.0
 30
0.0
  9
$USERI1
 70
     0
  9
$USERI2
 70
     0
  9
$USERI3
 70
     0
  9
$USERI4
 70
     0
  9
$USERI5
 70
     0
  9
$USERR1
 40
0.0
  9
$USERR2
 40
0.0
  9
$USERR3
 40
0.0
  9
$USERR4
 40
0.0
  9
$USERR5
 40
0.0
  9
$WORLDVIEW
 70
     1
  9
$SHADEDGE
 70
     3
  9
$SHADEDIF
 70
    70
  9
$TILEMODE
 70
     1
  9
$MAXACTVP
 70
    64
  9
$PINSBASE
 10
0.0
 20
0.0
 30
0.0
  9
$PLIMCHECK
 70
     0
  9
$PEXTMIN
 10
1.000000000000000E+20
 20
1.000000000000000E+20
 30
1.000000000000000E+20
  9
$PEXTMAX
 10
-1.000000000000000E+20
 20
-1.000000000000000E+20
 30
-1.000000000000000E+20
  9
$PLIMMIN
 10
0.0
 20
0.0
  9
$PLIMMAX
 10
841.0
 20
594.0
  9
$UNITMODE
 70
     0
  9
$VISRETAIN
 70
     1
  9
$PLINEGEN
 70
     0
  9
$PSLTSCALE
 70
     0
  9
$TREEDEPTH
 70
  3020
  9
$PICKSTYLE
 70
     0
  9
$CMLSTYLE
  2
STANDARD
  9
$CMLJUST
 70
     0
  9
$CMLSCALE
 40
20.0
  9
$PROXYGRAPHICS
 70
     1
  9
$MEASUREMENT
 70
     1
  0
ENDSEC
  0
SECTION
  2
CLASSES
  0
CLASS
  1
ACDBDICTIONARYWDFLT
  2
AcDbDictionaryWithDefault
  3
AutoCAD 2000
 90
        0
280
     0
281
     0
  0
CLASS
  1
ACDBPLACEHOLDER
  2
AcDbPlaceHolder
  3
AutoCAD 2000
 90
        0
280
     0
281
     0
  0
CLASS
  1
LAYOUT
  2
AcDbLayout
  3
AutoCAD 2000
 90
        0
280
     0
281
     0
  0
CLASS
  1
AMGSETTINGSOBJ
  2
AmgSettingsObj
  3
"AcadM|Product Description: AutoCAD Mechanical 2000|Company: Autodesk"
 90
        0
280
     0
281
     0
  0
CLASS
  1
ACME_DOCUMENT
  2
AcMeDbDoc
  3
AcMeServices
 90
        0
280
     0
281
     0
  0
CLASS
  1
ACMESCOPE
  2
AcMeScope
  3
AcMeServices
 90
        0
280
     0
281
     0
  0
CLASS
  1
ACMECOMMANDHISTORY
  2
AcMeCommandHistory
  3
AcMeServices
 90
        0
280
     0
281
     0
  0
CLASS
  1
DICTIONARYVAR
  2
AcDbDictionaryVar
  3
AutoCAD 2000
 90
        0
280
     0
281
     0
  0
CLASS
  1
ACIMSYSVARMAN
  2
AcImSysVarManager
  3
AcMeServices
 90
        0
280
     0
281
     0
  0
CLASS
  1
ACIMREALSYSVAR
  2
AcImRealSysVar
  3
AcMeServices
 90
        0
280
     0
281
     0
  0
CLASS
  1
ACIMINTSYSVAR
  2
AcImIntSysVar
  3
AcMeServices
 90
        0
280
     0
281
     0
  0
CLASS
  1
ACMEDRAWINGMAN
  2
AcMeDrawingMan
  3
AcMeServices
 90
        0
280
     0
281
     0
  0
CLASS
  1
ACMEVIEW
  2
AcMeView
  3
AcMeServices
 90
        0
280
     0
281
     0
  0
CLASS
  1
ACDBENTITYCACHE
  2
AcMeEntityCache
  3
AcMeServices
 90
        0
280
     0
281
     0
  0
CLASS
  1
GSMANAGER
  2
AcMeGSManager
  3
AcMeServices
 90
        0
280
     0
281
     0
  0
CLASS
  1
AmdtInternalReactor
  2
AmdtInternalReactor
  3
AcMeServices
 90
        0
280
     0
281
     0
  0
CLASS
  1
ACMESTATEMGR
  2
AcMeStateMgr
  3
AcMeServices
 90
        0
280
     0
281
     0
  0
CLASS
  1
ACME_DATABASE
  2
AcMeDbDatabase
  3
AcMeServices
 90
        0
280
     0
281
     0
  0
CLASS
  1
ACRFINSADJUSTERMGR
  2
AcRfInsAdjusterMgr
  3
AcMeServices
 90
        0
280
     0
281
     0
  0
CLASS
  1
ACMDATADICTIONARY
  2
AcmDataDictionary
  3
"AcmSymBB|Product Description: AutoCAD Mechanical 2000|Company: Autodesk"
 90
        0
280
     0
281
     0
  0
CLASS
  1
ACMDATAENTRYBLOCK
  2
AcmDataEntryBlock
  3
"AcmSymBB|Product Description: AutoCAD Mechanical 2000|Company: Autodesk"
 90
        0
280
     0
281
     0
  0
CLASS
  1
AMGOBJPROPCFG
  2
AmgObjPropCfg
  3
"AmgLay|Product Description: AutoCAD Mechanical 2000|Company: Autodesk"
 90
        1
280
     0
281
     0
  0
CLASS
  1
ACAMGFILTERDAT
  2
AcAmgFilterDat
  3
"AcadM|Product Description: AutoCAD Mechanical 2000|Company: Autodesk"
 90
        0
280
     0
281
     0
  0
CLASS
  1
LAYER_INDEX
  2
AcDbLayerIndex
  3
AutoCAD 2000
 90
        0
280
     0
281
     0
  0
CLASS
  1
IDBUFFER
  2
AcDbIdBuffer
  3
AutoCAD 2000
 90
        0
280
     0
281
     0
  0
CLASS
  1
ACIMSTRSYSVAR
  2
AcImStrSysVar
  3
AcMeServices
 90
        0
280
     0
281
     0
  0
CLASS
  1
ACMSTANDARDJIS
  2
AcmStandardJIS
  3
"AcmSymBB|Product Description: AutoCAD Mechanical 2000|Company: Autodesk"
 90
        0
280
     0
281
     0
  0
CLASS
  1
ACMSURFSTANDARDJIS
  2
AcmSurfTextStdJIS
  3
"AcmSymBB|Product Description: AutoCAD Mechanical 2000|Company: Autodesk"
 90
        0
280
     0
281
     0
  0
CLASS
  1
ACMFCFSTANDARDJIS
  2
AcmFCFStdJIS
  3
"AcmSymBB|Product Description: AutoCAD Mechanical 2000|Company: Autodesk"
 90
        0
280
     0
281
     0
  0
CLASS
  1
ACMWELDSTANDARDJIS
  2
AcmWeldingStdJIS
  3
"AcmSymBB|Product Description: AutoCAD Mechanical 2000|Company: Autodesk"
 90
        0
280
     0
281
     0
  0
CLASS
  1
ACMIDSTANDARDJIS
  2
AcmIdStdJIS
  3
"AcmSymBB|Product Description: AutoCAD Mechanical 2000|Company: Autodesk"
 90
        0
280
     0
281
     0
  0
CLASS
  1
ACMDATUMSTANDARDJIS
  2
AcmDatumStdJIS
  3
"AcmSymBB|Product Description: AutoCAD Mechanical 2000|Company: Autodesk"
 90
        0
280
     0
281
     0
  0
CLASS
  1
ACMBOMSTANDARDJIS
  2
AcmBOMStdJIS
  3
"AcmSymBB|Product Description: AutoCAD Mechanical 2000|Company: Autodesk"
 90
        0
280
     0
281
     0
  0
CLASS
  1
ACMSTANDARDANSI
  2
AcmStandardANSI
  3
"AcmSymBB|Product Description: AutoCAD Mechanical 2000|Company: Autodesk"
 90
        0
280
     0
281
     0
  0
CLASS
  1
ACMSURFSTANDARDANSI
  2
AcmSurfTextStdANSI
  3
"AcmSymBB|Product Description: AutoCAD Mechanical 2000|Company: Autodesk"
 90
        0
280
     0
281
     0
  0
CLASS
  1
ACMFCFSTANDARDANSI
  2
AcmFCFStdANSI
  3
"AcmSymBB|Product Description: AutoCAD Mechanical 2000|Company: Autodesk"
 90
        0
280
     0
281
     0
  0
CLASS
  1
ACMWELDSTANDARDANSI
  2
AcmWeldingStdANSI
  3
"AcmSymBB|Product Description: AutoCAD Mechanical 2000|Company: Autodesk"
 90
        0
280
     0
281
     0
  0
CLASS
  1
ACMIDSTANDARDANSI
  2
AcmIdStdANSI
  3
"AcmSymBB|Product Description: AutoCAD Mechanical 2000|Company: Autodesk"
 90
        0
280
     0
281
     0
  0
CLASS
  1
ACMDATUMSTANDARDANSI
  2
AcmDatumStdANSI
  3
"AcmSymBB|Product Description: AutoCAD Mechanical 2000|Company: Autodesk"
 90
        0
280
     0
281
     0
  0
CLASS
  1
ACMBOMSTANDARDANSI
  2
AcmBOMStdANSI
  3
"AcmSymBB|Product Description: AutoCAD Mechanical 2000|Company: Autodesk"
 90
        0
280
     0
281
     0
  0
CLASS
  1
ACMSTANDARDBSI
  2
AcmStandardBSI
  3
"AcmSymBB|Product Description: AutoCAD Mechanical 2000|Company: Autodesk"
 90
        0
280
     0
281
     0
  0
CLASS
  1
ACMSURFSTANDARDBSI
  2
AcmSurfTextStdBSI
  3
"AcmSymBB|Product Description: AutoCAD Mechanical 2000|Company: Autodesk"
 90
        0
280
     0
281
     0
  0
CLASS
  1
ACMFCFSTANDARDBSI
  2
AcmFCFStdBSI
  3
"AcmSymBB|Product Description: AutoCAD Mechanical 2000|Company: Autodesk"
 90
        0
280
     0
281
     0
  0
CLASS
  1
ACMWELDSTANDARDBSI
  2
AcmWeldingStdBSI
  3
"AcmSymBB|Product Description: AutoCAD Mechanical 2000|Company: Autodesk"
 90
        0
280
     0
281
     0
  0
CLASS
  1
ACMIDSTANDARDBSI
  2
AcmIdStdBSI
  3
"AcmSymBB|Product Description: AutoCAD Mechanical 2000|Company: Autodesk"
 90
        0
280
     0
281
     0
  0
CLASS
  1
ACMDATUMSTANDARDBSI
  2
AcmDatumStdBSI
  3
"AcmSymBB|Product Description: AutoCAD Mechanical 2000|Company: Autodesk"
 90
        0
280
     0
281
     0
  0
CLASS
  1
ACMBOMSTANDARDBSI
  2
AcmBOMStdBSI
  3
"AcmSymBB|Product Description: AutoCAD Mechanical 2000|Company: Autodesk"
 90
        0
280
     0
281
     0
  0
CLASS
  1
STDPART2D
  2
AmgStdPart
  3
"AmgStdPart|Product Description: AutoCAD Mechanical 2000|Company: Autodesk"
 90
     1023
280
     0
281
     1
  0
CLASS
  1
PLOTSETTINGS
  2
AcDbPlotSettings
  3
AutoCAD 2000
 90
        0
280
     0
281
     0
  0
CLASS
  1
LONG_TRANSACTION
  2
AcDbLongTransaction
  3
AutoCAD 2000
 90
        0
280
     0
281
     0
  0
CLASS
  1
LWPOLYLINE
  2
AcDbPolyline
  3
AutoCAD 2000
 90
        0
280
     0
281
     1
  0
CLASS
  1
HATCH
  2
AcDbHatch
  3
AutoCAD 2000
 90
        0
280
     0
281
     1
  0
CLASS
  1
XRECORD
  2
AcDbXrecord
  3
AutoCAD 2000
 90
        0
280
     0
281
     0
  0
ENDSEC
  0
SECTION
  2
TABLES
  0
TABLE
  2
VPORT
  5
8
330
0
100
AcDbSymbolTable
 70
     3
  0
VPORT
  5
A365
330
8
100
AcDbSymbolTableRecord
100
AcDbViewportTableRecord
  2
*ACTIVE
 70
     0
 10
0.0
 20
0.0
 11
1.0
 21
1.0
 12
-91.33402061192368
 22
-9.712740416172039
 13
0.0
 23
0.0
 14
2.5
 24
2.5
 15
10.0
 25
10.0
 16
0.0
 26
0.0
 36
1.0
 17
0.0
 27
0.0
 37
0.0
 40
142.0969013556615
 41
1.56570841889117
 42
50.0
 43
0.0
 44
0.0
 50
0.0
 51
0.0
 71
     0
 72
   100
 73
     1
 74
     3
 75
     0
 76
     0
 77
     0
 78
     0
  0
ENDTAB
  0
TABLE
  2
LTYPE
  5
5
330
0
100
AcDbSymbolTable
 70
    10
  0
LTYPE
  5
14
330
5
100
AcDbSymbolTableRecord
100
AcDbLinetypeTableRecord
  2
BYBLOCK
 70
     0
  3

 72
    65
 73
     0
 40
0.0
  0
LTYPE
  5
15
330
5
100
AcDbSymbolTableRecord
100
AcDbLinetypeTableRecord
  2
BYLAYER
 70
     0
  3

 72
    65
 73
     0
 40
0.0
  0
LTYPE
  5
16
330
5
100
AcDbSymbolTableRecord
100
AcDbLinetypeTableRecord
  2
CONTINUOUS
 70
     0
  3
Solid line
 72
    65
 73
     0
 40
0.0
  0
LTYPE
  5
4B
330
5
100
AcDbSymbolTableRecord
100
AcDbLinetypeTableRecord
  2
AM_ISO02W050
 70
     0
  3
__ __ __ __ __ __ __ __ __ __ __ __ __ __ __
 72
    65
 73
     2
 40
7.5
 49
6.0
 74
     0
 49
-1.5
 74
     0
  0
LTYPE
  5
4C
330
5
100
AcDbSymbolTableRecord
100
AcDbLinetypeTableRecord
  2
AM_ISO08W050
 70
     0
  3
____ . ____ . ____ . ____ . ____ . ____ . ____
 72
    65
 73
     4
 40
18.0
 49
12.0
 74
     0
 49
-1.5
 74
     0
 49
3.0
 74
     0
 49
-1.5
 74
     0
  0
LTYPE
  5
4D
330
5
100
AcDbSymbolTableRecord
100
AcDbLinetypeTableRecord
  2
AM_ISO09W050
 70
     0
  3
_____ . . _____ . . _____ . . ____ .. ____
 72
    65
 73
     6
 40
22.5
 49
12.0
 74
     0
 49
-1.5
 74
     0
 49
3.0
 74
     0
 49
-1.5
 74
     0
 49
3.0
 74
     0
 49
-1.5
 74
     0
  0
LTYPE
  5
4E
330
5
100
AcDbSymbolTableRecord
100
AcDbLinetypeTableRecord
  2
AMCONSTR
 70
     0
  3
_______________________
 72
    65
 73
     2
 40
9999.0
 49
9999.0
 74
     0
 49
0.0
 74
     0
  0
LTYPE
  5
4F
330
5
100
AcDbSymbolTableRecord
100
AcDbLinetypeTableRecord
  2
AM_ISO02W050X2
 70
     0
  3
 _ _ _ _ _ _ _ _ _ _ _ _
 72
    65
 73
     2
 40
3.75
 49
3.0
 74
     0
 49
-0.75
 74
     0
  0
LTYPE
  5
50
330
5
100
AcDbSymbolTableRecord
100
AcDbLinetypeTableRecord
  2
AM_ISO08W050X2
 70
     0
  3
__ . __ . __ . __ . __ . __
 72
    65
 73
     4
 40
9.0
 49
6.0
 74
     0
 49
-0.75
 74
     0
 49
1.5
 74
     0
 49
-0.75
 74
     0
  0
LTYPE
  5
53
330
5
100
AcDbSymbolTableRecord
100
AcDbLinetypeTableRecord
  2
AMZIGZAG
 70
     0
  3
/\/-/\/-/\/-/\/-/\/-/\/
 72
    65
 73
     2
 40
11.00009999999999
 49
0.0001
 74
     4
 75
   135
340
52
 46
0.04
 50
0.0
 44
0.0
 45
0.0
 49
-11.0
 74
     0
  0
LTYPE
  5
166
330
5
100
AcDbSymbolTableRecord
100
AcDbLinetypeTableRecord
  2
ACJISTGL
 70
     0
  3
_ _ _ _ _
 72
    65
 73
     2
 40
3.0
 49
2.0
 74
     0
 49
-1.0
 74
     0
  0
LTYPE
  5
26A
330
5
100
AcDbSymbolTableRecord
100
AcDbLinetypeTableRecord
  2
ACJISTGB
 70
     0
  3
__ . . __ . .
 72
    65
 73
     6
 40
9.0
 49
4.0
 74
     0
 49
-1.0
 74
     0
 49
1.0
 74
     0
 49
-1.0
 74
     0
 49
1.0
 74
     0
 49
-1.0
 74
     0
  0
ENDTAB
  0
TABLE
  2
LAYER
  5
2
330
0
100
AcDbSymbolTable
 70
     7
  0
LAYER
  5
10
330
2
100
AcDbSymbolTableRecord
100
AcDbLayerTableRecord
  2
0
 70
     0
 62
     7
  6
CONTINUOUS
  0
LAYER
  5
3F9
330
2
100
AcDbSymbolTableRecord
100
AcDbLayerTableRecord
  2
AM_0
 70
     0
 62
     7
  6
CONTINUOUS
  0
LAYER
  5
BA4
330
2
100
AcDbSymbolTableRecord
100
AcDbLayerTableRecord
  2
AM_5
 70
     0
 62
     3
  6
CONTINUOUS
  0
LAYER
  5
BA6
330
2
100
AcDbSymbolTableRecord
100
AcDbLayerTableRecord
  2
AM_7
 70
     0
 62
     4
  6
AM_ISO08W050
  0
LAYER
  5
E64
330
2
100
AcDbSymbolTableRecord
100
AcDbLayerTableRecord
  2
AM_6
 70
     0
 62
     2
  6
CONTINUOUS
  0
LAYER
  5
F4D
330
2
100
AcDbSymbolTableRecord
100
AcDbLayerTableRecord
  2
DEFPOINTS
 70
     0
 62
     7
  6
CONTINUOUS
  0
LAYER
  5
4E80
330
2
100
AcDbSymbolTableRecord
100
AcDbLayerTableRecord
  2
AM_11
 70
     0
 62
     3
  6
AM_ISO09W050
  0
ENDTAB
  0
TABLE
  2
STYLE
  5
3
330
0
100
AcDbSymbolTable
 70
     5
  0
STYLE
  5
11
330
3
100
AcDbSymbolTableRecord
100
AcDbTextStyleTableRecord
  2
STANDARD
 70
     0
 40
0.0
 41
1.0
 50
0.0
 71
     0
 42
2.5
  3
simplex.shx
  4
EXTFONT.SHX
  0
STYLE
  5
52
330
3
100
AcDbSymbolTableRecord
100
AcDbTextStyleTableRecord
  2

 70
     1
 40
0.0
 41
1.0
 50
0.0
 71
     0
 42
2.5
  3
ltypeshp.shx
  4

  0
STYLE
  5
6B
330
3
100
AcDbSymbolTableRecord
100
AcDbTextStyleTableRecord
  2
ASAMI
 70
     0
 40
0.0
 41
1.0
 50
0.0
 71
     0
 42
2.5
  3
simplex.shx
  4
EXTFONT.SHX
  0
STYLE
  5
262
330
3
100
AcDbSymbolTableRecord
100
AcDbTextStyleTableRecord
  2
ACJISTS
 70
     0
 40
1.0
 41
1.0
 50
0.0
 71
     0
 42
2.5
  3
simplex.shx
  4
bigfont.shx
  0
STYLE
  5
269
330
3
100
AcDbSymbolTableRecord
100
AcDbTextStyleTableRecord
  2
ACJISGDT
 70
     0
 40
0.0
 41
1.0
 50
0.0
 71
     0
 42
2.5
  3
amgdtans.shx
  4

  0
ENDTAB
  0
TABLE
  2
VIEW
  5
6
330
0
100
AcDbSymbolTable
 70
     0
  0
ENDTAB
  0
TABLE
  2
UCS
  5
7
330
0
100
AcDbSymbolTable
 70
     0
  0
ENDTAB
  0
TABLE
  2
APPID
  5
9
330
0
100
AcDbSymbolTable
 70
    24
  0
APPID
  5
12
330
9
100
AcDbSymbolTableRecord
100
AcDbRegAppTableRecord
  2
ACAD
 70
     0
  0
APPID
  5
30
330
9
100
AcDbSymbolTableRecord
100
AcDbRegAppTableRecord
  2
MCAD_NO_VIS
 70
     0
  0
APPID
  5
31
330
9
100
AcDbSymbolTableRecord
100
AcDbRegAppTableRecord
  2
ACAD_TEMP_GRAPHIC
 70
     0
  0
APPID
  5
2C2
330
9
100
AcDbSymbolTableRecord
100
AcDbRegAppTableRecord
  2
GENIUS_GENDTOL_13
 70
     0
  0
APPID
  5
339
330
9
100
AcDbSymbolTableRecord
100
AcDbRegAppTableRecord
  2
GENIUS_GENODEF_13
 70
     0
  0
APPID
  5
33A
330
9
100
AcDbSymbolTableRecord
100
AcDbRegAppTableRecord
  2
GENIUS_GENOBJ-N-RSBK_13
 70
     0
  0
APPID
  5
33B
330
9
100
AcDbSymbolTableRecord
100
AcDbRegAppTableRecord
  2
GENIUS_GENOBJ-N-LIB_13
 70
     0
  0
APPID
  5
33C
330
9
100
AcDbSymbolTableRecord
100
AcDbRegAppTableRecord
  2
GENIUS_GENSCALE_13
 70
     0
  0
APPID
  5
378
330
9
100
AcDbSymbolTableRecord
100
AcDbRegAppTableRecord
  2
GENIUS_GENDIMSH_14
 70
     0
  0
APPID
  5
BB0
330
9
100
AcDbSymbolTableRecord
100
AcDbRegAppTableRecord
  2
GENIUS_GENOBJ-N-CEN_13
 70
     0
  0
APPID
  5
BB1
330
9
100
AcDbSymbolTableRecord
100
AcDbRegAppTableRecord
  2
GENIUS_GENFIL_13
 70
     0
  0
APPID
  5
BB2
330
9
100
AcDbSymbolTableRecord
100
AcDbRegAppTableRecord
  2
GENIUS_GENOBJ-N-CHA_13
 70
     0
  0
APPID
  5
1FAF
330
9
100
AcDbSymbolTableRecord
100
AcDbRegAppTableRecord
  2
GENIUS_GENOBJ-N-CRS_13
 70
     0
  0
APPID
  5
1FB0
330
9
100
AcDbSymbolTableRecord
100
AcDbRegAppTableRecord
  2
GENIUS_GENOENT_13
 70
     0
  0
APPID
  5
1FB1
330
9
100
AcDbSymbolTableRecord
100
AcDbRegAppTableRecord
  2
GENIUS_GENOREF_13
 70
     0
  0
APPID
  5
1FB2
330
9
100
AcDbSymbolTableRecord
100
AcDbRegAppTableRecord
  2
GENIUS_GENOLIS_13
 70
     0
  0
APPID
  5
1FB7
330
9
100
AcDbSymbolTableRecord
100
AcDbRegAppTableRecord
  2
GENIUS_GENOBJ-N-FIL_13
 70
     0
  0
APPID
  5
22A8
330
9
100
AcDbSymbolTableRecord
100
AcDbRegAppTableRecord
  2
GEVID1056506048
 70
     0
  0
APPID
  5
22A9
330
9
100
AcDbSymbolTableRecord
100
AcDbRegAppTableRecord
  2
GEVDC
 70
     0
  0
APPID
  5
22AC
330
9
100
AcDbSymbolTableRecord
100
AcDbRegAppTableRecord
  2
GENIUS_GENBH_13
 70
     0
  0
APPID
  5
22B8
330
9
100
AcDbSymbolTableRecord
100
AcDbRegAppTableRecord
  2
GENIUS_GENOBJ-NBEHI-BHF_13
 70
     0
  0
APPID
  5
22BA
330
9
100
AcDbSymbolTableRecord
100
AcDbRegAppTableRecord
  2
GENIUS_GENOBJ-NBEHI-BHB_13
 70
     0
  0
APPID
  5
35C9
330
9
100
AcDbSymbolTableRecord
100
AcDbRegAppTableRecord
  2
GENIUS_GENREC_14
 70
     0
  0
APPID
  5
35CA
330
9
100
AcDbSymbolTableRecord
100
AcDbRegAppTableRecord
  2
GENIUS_GENOBJ-N-REC_13
 70
     0
  0
ENDTAB
  0
TABLE
  2
DIMSTYLE
  5
A
330
0
100
AcDbSymbolTable
 70
     9
  0
DIMSTYLE
105
58
330
A
100
AcDbSymbolTableRecord
100
AcDbDimStyleTableRecord
  2
AM_JIS
 70
     0
  3

  4
"
  5
OPEN30
  6

  7

 40
0.5
 41
2.5
 42
1.0
 43
12.0
 44
1.0
 45
0.0
 46
0.0
 47
0.1
 48
0.1
140
3.2
141
0.0
142
0.0
143
0.0393701
144
1.0
145
0.0
146
0.71
147
1.5
 71
     0
 72
     0
 73
     0
 74
     0
 75
     0
 76
     0
 77
     3
 78
     8
170
     0
171
     2
172
     1
173
     0
174
     0
175
     0
176
   256
177
   256
178
     2
270
     2
271
     3
272
     3
273
     2
274
     2
340
6B
275
     0
280
     0
281
     0
282
     0
283
     0
284
     0
285
     0
286
     0
287
     3
288
     0
  0
DIMSTYLE
105
5F
330
A
100
AcDbSymbolTableRecord
100
AcDbDimStyleTableRecord
  2
AM_JIS$3
 70
     0
  3

  4
"
  5
OPEN30
  6

  7

 40
0.5
 41
2.5
 42
1.0
 43
10.0
 44
1.0
 45
0.0
 46
0.0
 47
0.1
 48
0.1
140
3.2
141
0.0
142
0.0
143
0.0393701
144
1.0
145
0.0
146
0.71
147
1.5
 71
     0
 72
     0
 73
     0
 74
     1
 75
     0
 76
     0
 77
     3
 78
     8
170
     0
171
     2
172
     0
173
     0
174
     0
175
     0
176
   256
177
   256
178
     2
270
     2
271
     2
272
     3
273
     2
274
     2
340
6B
275
     0
280
     0
281
     0
282
     0
283
     0
284
     0
285
     0
286
     0
287
     0
288
     1
  0
DIMSTYLE
105
60
330
A
100
AcDbSymbolTableRecord
100
AcDbDimStyleTableRecord
  2
AM_JIS$4
 70
     0
  3

  4
"
  5
OPEN30
  6

  7

 40
0.5
 41
2.5
 42
1.0
 43
10.0
 44
1.0
 45
0.0
 46
0.0
 47
0.1
 48
0.1
140
3.2
141
0.0
142
0.0
143
0.0393701
144
1.0
145
0.0
146
0.71
147
1.5
 71
     0
 72
     0
 73
     0
 74
     1
 75
     0
 76
     0
 77
     3
 78
     8
170
     0
171
     2
172
     0
173
     0
174
     0
175
     0
176
   256
177
   256
178
     2
270
     2
271
     2
272
     3
273
     2
274
     2
340
6B
275
     0
280
     0
281
     0
282
     0
283
     0
284
     0
285
     0
286
     0
287
     0
288
     1
  0
DIMSTYLE
105
61
330
A
100
AcDbSymbolTableRecord
100
AcDbDimStyleTableRecord
  2
AM_JIS$6
 70
     0
  3

  4
"
  5
OPEN30
  6

  7

 40
0.5
 41
2.5
 42
1.0
 43
10.0
 44
1.0
 45
0.0
 46
0.0
 47
0.1
 48
0.1
140
3.2
141
0.0
142
0.0
143
0.0393701
144
1.0
145
0.0
146
0.71
147
1.5
 71
     0
 72
     0
 73
     0
 74
     0
 75
     0
 76
     0
 77
     0
 78
     8
170
     0
171
     2
172
     1
173
     0
174
     0
175
     0
176
   256
177
   256
178
     2
270
     2
271
     2
272
     2
273
     2
274
     2
340
6B
275
     0
280
     0
281
     0
282
     0
283
     0
284
     0
285
     0
286
     0
287
     3
288
     0
  0
DIMSTYLE
105
62
330
A
100
AcDbSymbolTableRecord
100
AcDbDimStyleTableRecord
  2
AM_JIS$7
 70
     0
  3

  4
"
  5
OPEN30
  6

  7

 40
0.5
 41
2.5
 42
1.0
 43
10.0
 44
1.0
 45
0.0
 46
0.0
 47
0.1
 48
0.1
140
3.2
141
0.0
142
0.0
143
0.0393701
144
1.0
145
0.0
146
0.71
147
1.5
 71
     0
 72
     0
 73
     0
 74
     0
 75
     0
 76
     0
 77
     3
 78
     8
170
     0
171
     2
172
     1
173
     0
174
     0
175
     0
176
   256
177
   256
178
     2
270
     2
271
     2
272
     3
273
     2
274
     2
340
6B
275
     0
280
     0
281
     0
282
     0
283
     0
284
     0
285
     0
286
     0
287
     3
288
     0
  0
DIMSTYLE
105
63
330
A
100
AcDbSymbolTableRecord
100
AcDbDimStyleTableRecord
  2
AM_JIS$SF
 70
     0
  3

  4
"
  5
OPEN30
  6

  7

 40
0.5
 41
2.5
 42
1.0
 43
10.0
 44
1.0
 45
0.0
 46
0.0
 47
0.1
 48
0.1
140
3.2
141
0.0
142
0.0
143
0.0393701
144
1.0
145
0.0
146
0.71
147
1.5
 71
     0
 72
     0
 73
     0
 74
     0
 75
     1
 76
     1
 77
     3
 78
     8
170
     0
171
     2
172
     1
173
     0
174
     0
175
     0
176
   256
177
   256
178
     2
270
     2
271
     2
272
     2
273
     2
274
     2
340
6B
275
     0
280
     0
281
     0
282
     0
283
     0
284
     0
285
     0
286
     0
287
     3
288
     0
  0
DIMSTYLE
105
68
330
A
100
AcDbSymbolTableRecord
100
AcDbDimStyleTableRecord
  2
AM_JIS$SH
 70
     0
  3

  4
"
  5

  6
GENAXEH
  7
OPEN30
 40
0.5
 41
2.5
 42
1.0
 43
10.0
 44
1.0
 45
0.0
 46
0.0
 47
0.1
 48
0.1
140
3.2
141
0.0
142
0.0
143
0.0393701
144
2.0
145
0.0
146
0.71
147
1.5
 71
     0
 72
     0
 73
     0
 74
     0
 75
     1
 76
     1
 77
     3
 78
     8
170
     0
171
     2
172
     1
173
     1
174
     0
175
     0
176
   256
177
   256
178
     2
270
     2
271
     2
272
     2
273
     2
274
     2
340
6B
275
     0
280
     0
281
     0
282
     0
283
     0
284
     0
285
     0
286
     0
287
     3
288
     0
  0
DIMSTYLE
105
B34
330
A
100
AcDbSymbolTableRecord
100
AcDbDimStyleTableRecord
  2
AM_JIS$2
 70
     0
  3

  4
"
  5
OPEN30
  6

  7

 40
0.5
 41
2.5
 42
1.0
 43
12.0
 44
1.0
 45
0.0
 46
0.0
 47
0.1
 48
0.1
140
3.2
141
0.0
142
0.0
143
0.0393701
144
1.0
145
0.0
146
0.71
147
1.5
 71
     0
 72
     0
 73
     0
 74
     0
 75
     0
 76
     0
 77
     3
 78
     8
170
     0
171
     2
172
     1
173
     0
174
     0
175
     0
176
   256
177
   256
178
     2
270
     2
271
     3
272
     3
273
     2
274
     2
340
6B
275
     0
280
     0
281
     0
282
     0
283
     0
284
     0
285
     0
286
     0
287
     3
288
     0
  0
DIMSTYLE
105
3B48
102
{ACAD_REACTORS
330
9A4C
330
9C0F
330
9B69
330
9E78
330
9F43
330
A00E
330
A0E8
102
}
330
A
100
AcDbSymbolTableRecord
100
AcDbDimStyleTableRecord
  2
AM_JIS$0
 70
     0
  3

  4
"
  5
OPEN30
  6

  7

 40
1.0
 41
2.5
 42
0.0
 43
10.0
 44
1.0
 45
0.0
 46
0.0
 47
0.1
 48
0.1000000001
140
3.799999999999999
141
0.0
142
0.0
143
0.0393701
144
1.0
145
0.0
146
0.71
147
1.5
 71
     0
 72
     0
 73
     0
 74
     0
 75
     0
 76
     0
 77
     3
 78
     1
170
     0
171
     2
172
     1
173
     0
174
     0
175
     0
176
     3
177
     3
178
     2
270
     2
271
     2
272
     2
273
     2
274
     2
340
11
275
     1
280
     0
281
     0
282
     0
283
     0
284
     8
285
     0
286
     0
287
     0
288
     0
  0
ENDTAB
  0
TABLE
  2
BLOCK_RECORD
  5
1
330
0
100
AcDbSymbolTable
 70
    12
  0
BLOCK_RECORD
  5
1F
102
{ACAD_XDICTIONARY
360
74
102
}
330
1
100
AcDbSymbolTableRecord
100
AcDbBlockTableRecord
  2
*MODEL_SPACE
  0
BLOCK_RECORD
  5
101
102
{ACAD_XDICTIONARY
360
A38E
102
}
330
1
100
AcDbSymbolTableRecord
100
AcDbBlockTableRecord
  2
*PAPER_SPACE
  0
BLOCK_RECORD
  5
59
330
1
100
AcDbSymbolTableRecord
100
AcDbBlockTableRecord
  2
_OPEN30
  0
BLOCK_RECORD
  5
64
330
1
100
AcDbSymbolTableRecord
100
AcDbBlockTableRecord
  2
GENAXEH
  0
BLOCK_RECORD
  5
9A4D
330
1
100
AcDbSymbolTableRecord
100
AcDbBlockTableRecord
  2
*D5
  0
BLOCK_RECORD
  5
9B6A
330
1
100
AcDbSymbolTableRecord
100
AcDbBlockTableRecord
  2
*D6
  0
BLOCK_RECORD
  5
9C10
330
1
100
AcDbSymbolTableRecord
100
AcDbBlockTableRecord
  2
*D7
  0
BLOCK_RECORD
  5
9E79
330
1
100
AcDbSymbolTableRecord
100
AcDbBlockTableRecord
  2
*D8
  0
BLOCK_RECORD
  5
9F44
330
1
100
AcDbSymbolTableRecord
100
AcDbBlockTableRecord
  2
*D9
  0
BLOCK_RECORD
  5
A00F
330
1
100
AcDbSymbolTableRecord
100
AcDbBlockTableRecord
  2
*D10
  0
BLOCK_RECORD
  5
A0E9
330
1
100
AcDbSymbolTableRecord
100
AcDbBlockTableRecord
  2
*D11
  0
ENDTAB
  0
ENDSEC
  0
SECTION
  2
BLOCKS
  0
BLOCK
  5
20
330
1F
100
AcDbEntity
  8
0
100
AcDbBlockBegin
  2
*MODEL_SPACE
 70
     0
 10
0.0
 20
0.0
 30
0.0
  3
*MODEL_SPACE
  1

  0
ENDBLK
  5
21
330
1F
100
AcDbEntity
  8
0
100
AcDbBlockEnd
  0
BLOCK
  5
103
330
101
100
AcDbEntity
 67
     1
  8
0
100
AcDbBlockBegin
  2
*PAPER_SPACE
 70
     0
 10
0.0
 20
0.0
 30
0.0
  3
*PAPER_SPACE
  1

  0
ENDBLK
  5
104
330
101
100
AcDbEntity
 67
     1
  8
0
100
AcDbBlockEnd
  0
BLOCK
  5
5D
330
59
100
AcDbEntity
  8
0
100
AcDbBlockBegin
  2
_OPEN30
 70
     0
 10
0.0
 20
0.0
 30
0.0
  3
_OPEN30
  1

  0
LINE
  5
5A
330
59
100
AcDbEntity
  8
0
 62
     0
100
AcDbLine
 10
-1.0
 20
0.26794919
 30
0.0
 11
0.0
 21
0.0
 31
0.0
  0
LINE
  5
5B
330
59
100
AcDbEntity
  8
0
 62
     0
100
AcDbLine
 10
0.0
 20
0.0
 30
0.0
 11
-1.0
 21
-0.26794919
 31
0.0
  0
LINE
  5
5C
330
59
100
AcDbEntity
  8
0
 62
     0
100
AcDbLine
 10
0.0
 20
0.0
 30
0.0
 11
-1.0
 21
0.0
 31
0.0
  0
ENDBLK
  5
5E
330
59
100
AcDbEntity
  8
0
100
AcDbBlockEnd
  0
BLOCK
  5
66
330
64
100
AcDbEntity
  8
0
100
AcDbBlockBegin
  2
GENAXEH
 70
     0
 10
0.0
 20
0.0
 30
0.0
  3
GENAXEH
  1

  0
LINE
  5
65
330
64
100
AcDbEntity
  8
0
100
AcDbLine
 10
-1.0
 20
0.0
 30
0.0
 11
1.0
 21
0.0
 31
0.0
  0
ENDBLK
  5
67
330
64
100
AcDbEntity
  8
0
100
AcDbBlockEnd
  0
BLOCK
  5
9A57
330
9A4D
100
AcDbEntity
  8
0
100
AcDbBlockBegin
  2
*D5
 70
     1
 10
0.0
 20
0.0
 30
0.0
  3
*D5
  1

  0
LINE
  5
A390
330
9A4D
100
AcDbEntity
  8
AM_5
100
AcDbLine
 10
-170.0000038146941
 20
-15.96410369873052
 30
0.0
 11
-170.0000038146941
 21
-32.50000000000018
 31
0.0
  0
LINE
  5
A391
330
9A4D
100
AcDbEntity
  8
AM_5
100
AcDbLine
 10
-0.0000000000001858
 20
-20.49999999999983
 30
0.0
 11
-0.0000000000001623
 21
-32.49999999999984
 31
0.0
  0
LINE
  5
A392
330
9A4D
100
AcDbEntity
  8
AM_5
100
AcDbLine
 10
-168.7500038146941
 20
-32.00000000000018
 30
0.0
 11
-1.250000000000163
 21
-31.99999999999984
 31
0.0
  0
INSERT
  5
A393
330
9A4D
100
AcDbEntity
  8
AM_5
100
AcDbBlockReference
  2
_OPEN30
 10
-170.0000038146941
 20
-32.00000000000018
 30
0.0
 41
1.25
 42
1.25
 43
1.25
 50
180.0000000000001
  0
INSERT
  5
A394
330
9A4D
100
AcDbEntity
  8
AM_5
100
AcDbBlockReference
  2
_OPEN30
 10
-0.0000000000001632
 20
-31.99999999999984
 30
0.0
 41
1.25
 42
1.25
 43
1.25
 50
0.0000000000001018
  0
MTEXT
  5
A395
330
9A4D
100
AcDbEntity
  8
AM_5
 62
     2
100
AcDbMText
 10
-85.00000190734716
 20
-30.45000000000001
 30
0.0
 40
1.6
 41
0.0
 71
     5
 72
     1
  1
170
  7
ASAMI
  0
POINT
  5
A396
330
9A4D
100
AcDbEntity
  8
DEFPOINTS
 62
     0
100
AcDbPoint
 10
-170.0000038146942
 20
-15.46410369873018
 30
0.0
  0
POINT
  5
A397
330
9A4D
100
AcDbEntity
  8
DEFPOINTS
 62
     0
100
AcDbPoint
 10
-0.0000000000002272
 20
-19.99999999999983
 30
0.0
  0
POINT
  5
A398
330
9A4D
100
AcDbEntity
  8
DEFPOINTS
 62
     0
100
AcDbPoint
 10
-0.0000000000002279
 20
-31.99999999999984
 30
0.0
  0
ENDBLK
  5
9A58
330
9A4D
100
AcDbEntity
  8
0
100
AcDbBlockEnd
  0
BLOCK
  5
9B74
330
9B6A
100
AcDbEntity
  8
0
100
AcDbBlockBegin
  2
*D6
 70
     1
 10
0.0
 20
0.0
 30
0.0
  3
*D6
  1

  0
LINE
  5
A399
330
9B6A
100
AcDbEntity
  8
AM_5
100
AcDbLine
 10
-0.0000000000003676
 20
20.50000000000016
 30
0.0
 11
-0.0000000000003688
 21
27.50000000000018
 31
0.0
  0
LINE
  5
A39A
330
9B6A
100
AcDbEntity
  8
AM_5
100
AcDbLine
 10
-8.000000000000351
 20
20.50000000000012
 30
0.0
 11
-8.000000000000353
 21
27.50000000000017
 31
0.0
  0
LINE
  5
A39B
330
9B6A
100
AcDbEntity
  8
AM_5
100
AcDbLine
 10
-1.250000000000368
 20
27.00000000000018
 30
0.0
 11
-6.750000000000352
 21
27.00000000000018
 31
0.0
  0
INSERT
  5
A39C
330
9B6A
100
AcDbEntity
  8
AM_5
100
AcDbBlockReference
  2
_OPEN30
 10
-0.0000000000003687
 20
27.00000000000018
 30
0.0
 41
1.25
 42
1.25
 43
1.25
  0
INSERT
  5
A39D
330
9B6A
100
AcDbEntity
  8
AM_5
100
AcDbBlockReference
  2
_OPEN30
 10
-8.000000000000353
 20
27.00000000000017
 30
0.0
 41
1.25
 42
1.25
 43
1.25
 50
180.0
  0
MTEXT
  5
A39E
330
9B6A
100
AcDbEntity
  8
AM_5
 62
     2
100
AcDbMText
 10
-4.000000000000361
 20
28.55000000000018
 30
0.0
 40
1.6
 41
0.0
 71
     5
 72
     1
  1
8
  7
ASAMI
  0
POINT
  5
A39F
330
9B6A
100
AcDbEntity
  8
DEFPOINTS
 62
     0
100
AcDbPoint
 10
-0.000000000000327
 20
20.00000000000015
 30
0.0
  0
POINT
  5
A3A0
330
9B6A
100
AcDbEntity
  8
DEFPOINTS
 62
     0
100
AcDbPoint
 10
-8.00000000000031
 20
20.00000000000014
 30
0.0
  0
POINT
  5
A3A1
330
9B6A
100
AcDbEntity
  8
DEFPOINTS
 62
     0
100
AcDbPoint
 10
-8.000000000000298
 20
27.00000000000019
 30
0.0
  0
ENDBLK
  5
9B75
330
9B6A
100
AcDbEntity
  8
0
100
AcDbBlockEnd
  0
BLOCK
  5
9C1A
330
9C10
100
AcDbEntity
  8
0
100
AcDbBlockBegin
  2
*D7
 70
     1
 10
0.0
 20
0.0
 30
0.0
  3
*D7
  1

  0
LINE
  5
A3A2
330
9C10
100
AcDbEntity
  8
AM_5
100
AcDbLine
 10
-0.0000000000002005
 20
-20.32499999999984
 30
0.0
 11
-0.0000000000001865
 21
-27.49999999999984
 31
0.0
  0
LINE
  5
A3A3
330
9C10
100
AcDbEntity
  8
AM_5
100
AcDbLine
 10
-49.99999999999922
 20
-16.50000762939002
 30
0.0
 11
-49.9999999999992
 21
-27.49999999999994
 31
0.0
  0
LINE
  5
A3A4
330
9C10
100
AcDbEntity
  8
AM_5
100
AcDbLine
 10
-1.250000000000187
 20
-26.99999999999984
 30
0.0
 11
-48.7499999999992
 21
-26.99999999999993
 31
0.0
  0
INSERT
  5
A3A5
330
9C10
100
AcDbEntity
  8
AM_5
100
AcDbBlockReference
  2
_OPEN30
 10
-0.0000000000001874
 20
-26.99999999999984
 30
0.0
 41
1.25
 42
1.25
 43
1.25
 50
0.0000000000001018
  0
INSERT
  5
A3A6
330
9C10
100
AcDbEntity
  8
AM_5
100
AcDbBlockReference
  2
_OPEN30
 10
-49.9999999999992
 20
-26.99999999999993
 30
0.0
 41
1.25
 42
1.25
 43
1.25
 50
180.0000000000001
  0
MTEXT
  5
A3A7
330
9C10
100
AcDbEntity
  8
AM_5
 62
     2
100
AcDbMText
 10
-24.9999999999997
 20
-25.44999999999989
 30
0.0
 40
1.6
 41
0.0
 71
     5
 72
     1
  1
50
  7
ASAMI
  0
POINT
  5
A3A8
330
9C10
100
AcDbEntity
  8
DEFPOINTS
 62
     0
100
AcDbPoint
 10
-0.0000000000002416
 20
-19.82499999999984
 30
0.0
  0
POINT
  5
A3A9
330
9C10
100
AcDbEntity
  8
DEFPOINTS
 62
     0
100
AcDbPoint
 10
-49.99999999999926
 20
-16.00000762938992
 30
0.0
  0
POINT
  5
A3AA
330
9C10
100
AcDbEntity
  8
DEFPOINTS
 62
     0
100
AcDbPoint
 10
-49.99999999999926
 20
-26.99999999999984
 30
0.0
  0
ENDBLK
  5
9C1B
330
9C10
100
AcDbEntity
  8
0
100
AcDbBlockEnd
  0
BLOCK
  5
9E83
330
9E79
100
AcDbEntity
  8
0
100
AcDbBlockBegin
  2
*D8
 70
     1
 10
0.0
 20
0.0
 30
0.0
  3
*D8
  1

  0
LINE
  5
A3AB
330
9E79
100
AcDbEntity
  8
AM_5
100
AcDbLine
 10
0.4999999999996288
 20
20.00000000000016
 30
0.0
 11
7.49999999999974
 21
20.00000000000017
 31
0.0
  0
LINE
  5
A3AC
330
9E79
100
AcDbEntity
  8
AM_5
100
AcDbLine
 10
0.4999999999998171
 20
-19.99999999999984
 30
0.0
 11
7.49999999999982
 21
-19.99999999999982
 31
0.0
  0
LINE
  5
A3AD
330
9E79
100
AcDbEntity
  8
AM_5
100
AcDbLine
 10
6.999999999999743
 20
18.75000000000017
 30
0.0
 11
6.999999999999817
 21
-18.74999999999982
 31
0.0
  0
INSERT
  5
A3AE
330
9E79
100
AcDbEntity
  8
AM_5
100
AcDbBlockReference
  2
_OPEN30
 10
6.99999999999974
 20
20.00000000000017
 30
0.0
 41
1.25
 42
1.25
 43
1.25
 50
90.0000000000001
  0
INSERT
  5
A3AF
330
9E79
100
AcDbEntity
  8
AM_5
100
AcDbBlockReference
  2
_OPEN30
 10
6.99999999999982
 20
-19.99999999999982
 30
0.0
 41
1.25
 42
1.25
 43
1.25
 50
270.0000000000001
  0
MTEXT
  5
A3B0
330
9E79
100
AcDbEntity
  8
AM_5
 62
     2
100
AcDbMText
 10
5.44999999999978
 20
0.0000000000001724
 30
0.0
 40
1.6
 41
0.0
 71
     5
 72
     1
  1
%%c40
  7
ASAMI
 11
-0.000000000000002
 21
1.0
 31
0.0
  0
POINT
  5
A3B1
330
9E79
100
AcDbEntity
  8
DEFPOINTS
 62
     0
100
AcDbPoint
 10
-0.0000000000003268
 20
20.00000000000016
 30
0.0
  0
POINT
  5
A3B2
330
9E79
100
AcDbEntity
  8
DEFPOINTS
 62
     0
100
AcDbPoint
 10
-0.0000000000002274
 20
-19.99999999999984
 30
0.0
  0
POINT
  5
A3B3
330
9E79
100
AcDbEntity
  8
DEFPOINTS
 62
     0
100
AcDbPoint
 10
6.999999999999776
 20
-19.99999999999984
 30
0.0
  0
ENDBLK
  5
9E84
330
9E79
100
AcDbEntity
  8
0
100
AcDbBlockEnd
  0
BLOCK
  5
9F4E
330
9F44
100
AcDbEntity
  8
0
100
AcDbBlockBegin
  2
*D9
 70
     1
 10
0.0
 20
0.0
 30
0.0
  3
*D9
  1

  0
LINE
  5
A3B4
330
9F44
100
AcDbEntity
  8
AM_5
100
AcDbLine
 10
-49.99999999999922
 20
-16.50000762939002
 30
0.0
 11
-49.9999999999992
 21
-27.49999999999994
 31
0.0
  0
LINE
  5
A3B5
330
9F44
100
AcDbEntity
  8
AM_5
100
AcDbLine
 10
-170.0000038146941
 20
-15.96410369873052
 30
0.0
 11
-170.0000038146941
 21
-27.50000000000018
 31
0.0
  0
LINE
  5
A3B6
330
9F44
100
AcDbEntity
  8
AM_5
100
AcDbLine
 10
-51.2499999999992
 20
-26.99999999999994
 30
0.0
 11
-168.7500038146941
 21
-27.00000000000018
 31
0.0
  0
INSERT
  5
A3B7
330
9F44
100
AcDbEntity
  8
AM_5
100
AcDbBlockReference
  2
_OPEN30
 10
-49.9999999999992
 20
-26.99999999999993
 30
0.0
 41
1.25
 42
1.25
 43
1.25
 50
0.0000000000001018
  0
INSERT
  5
A3B8
330
9F44
100
AcDbEntity
  8
AM_5
100
AcDbBlockReference
  2
_OPEN30
 10
-170.0000038146941
 20
-27.00000000000018
 30
0.0
 41
1.25
 42
1.25
 43
1.25
 50
180.0000000000001
  0
MTEXT
  5
A3B9
330
9F44
100
AcDbEntity
  8
AM_5
 62
     2
100
AcDbMText
 10
-110.0000019073466
 20
-25.45000000000006
 30
0.0
 40
1.6
 41
0.0
 71
     5
 72
     1
  1
120
  7
ASAMI
  0
POINT
  5
A3BA
330
9F44
100
AcDbEntity
  8
DEFPOINTS
 62
     0
100
AcDbPoint
 10
-49.99999999999926
 20
-16.00000762938992
 30
0.0
  0
POINT
  5
A3BB
330
9F44
100
AcDbEntity
  8
DEFPOINTS
 62
     0
100
AcDbPoint
 10
-170.0000038146942
 20
-15.46410369873018
 30
0.0
  0
POINT
  5
A3BC
330
9F44
100
AcDbEntity
  8
DEFPOINTS
 62
     0
100
AcDbPoint
 10
-170.0000038146942
 20
-26.99999999999984
 30
0.0
  0
ENDBLK
  5
9F4F
330
9F44
100
AcDbEntity
  8
0
100
AcDbBlockEnd
  0
BLOCK
  5
A019
330
A00F
100
AcDbEntity
  8
0
100
AcDbBlockBegin
  2
*D10
 70
     1
 10
0.0
 20
0.0
 30
0.0
  3
*D10
  1

  0
LINE
  5
A3BD
330
A00F
100
AcDbEntity
  8
AM_5
100
AcDbLine
 10
-168.5000038146943
 20
15.99999999999942
 30
0.0
 11
-177.5000038146942
 21
15.99999999999941
 31
0.0
  0
LINE
  5
A3BE
330
A00F
100
AcDbEntity
  8
AM_5
100
AcDbLine
 10
-168.5000038146942
 20
-15.99999237061059
 30
0.0
 11
-177.5000038146941
 21
-15.9999923706106
 31
0.0
  0
LINE
  5
A3BF
330
A00F
100
AcDbEntity
  8
AM_5
100
AcDbLine
 10
-177.0000038146942
 20
14.74999999999941
 30
0.0
 11
-177.0000038146942
 21
-14.7499923706106
 31
0.0
  0
INSERT
  5
A3C0
330
A00F
100
AcDbEntity
  8
AM_5
100
AcDbBlockReference
  2
_OPEN30
 10
-177.0000038146942
 20
15.99999999999941
 30
0.0
 41
1.25
 42
1.25
 43
1.25
 50
90.0000000000001
  0
INSERT
  5
A3C1
330
A00F
100
AcDbEntity
  8
AM_5
100
AcDbBlockReference
  2
_OPEN30
 10
-177.0000038146942
 20
-15.9999923706106
 30
0.0
 41
1.25
 42
1.25
 43
1.25
 50
270.0000000000001
  0
MTEXT
  5
A3C2
330
A00F
100
AcDbEntity
  8
AM_5
 62
     2
100
AcDbMText
 10
-178.5500038146942
 20
0.0000038146944058
 30
0.0
 40
1.6
 41
0.0
 71
     5
 72
     1
  1
%%c32
  7
ASAMI
 11
-0.000000000000002
 21
1.0
 31
0.0
  0
POINT
  5
A3C3
330
A00F
100
AcDbEntity
  8
DEFPOINTS
 62
     0
100
AcDbPoint
 10
-168.0000038146943
 20
15.9999999999998
 30
0.0
  0
POINT
  5
A3C4
330
A00F
100
AcDbEntity
  8
DEFPOINTS
 62
     0
100
AcDbPoint
 10
-168.0000038146942
 20
-15.99999237061021
 30
0.0
  0
POINT
  5
A3C5
330
A00F
100
AcDbEntity
  8
DEFPOINTS
 62
     0
100
AcDbPoint
 10
-177.0000038146942
 20
-15.99999237061021
 30
0.0
  0
ENDBLK
  5
A01A
330
A00F
100
AcDbEntity
  8
0
100
AcDbBlockEnd
  0
BLOCK
  5
A0F3
330
A0E9
100
AcDbEntity
  8
0
100
AcDbBlockBegin
  2
*D11
 70
     1
 10
0.0
 20
0.0
 30
0.0
  3
*D11
  1

  0
LINE
  5
A3C6
330
A0E9
100
AcDbEntity
  8
AM_5
100
AcDbLine
 10
-37.83159504029087
 20
14.41183471679996
 30
0.0
 11
-37.83159504029081
 21
-14.41184234619001
 31
0.0
  0
INSERT
  5
A3C7
330
A0E9
100
AcDbEntity
  8
AM_5
100
AcDbBlockReference
  2
_OPEN30
 10
-37.83159504029087
 20
15.66183471679996
 30
0.0
 41
1.25
 42
1.25
 43
1.25
 50
90.0000000000001
  0
INSERT
  5
A3C8
330
A0E9
100
AcDbEntity
  8
AM_5
100
AcDbBlockReference
  2
_OPEN30
 10
-37.83159504029081
 20
-15.66184234619001
 30
0.0
 41
1.25
 42
1.25
 43
1.25
 50
270.0000000000001
  0
MTEXT
  5
A3C9
330
A0E9
100
AcDbEntity
  8
AM_5
 62
     2
100
AcDbMText
 10
-39.38159504029084
 20
4.140474635156214
 30
0.0
 40
1.6
 41
0.0
 71
     5
 72
     1
  1
%%c31.3
  7
ASAMI
 11
-0.000000000000002
 21
1.0
 31
0.0
  0
POINT
  5
A3CA
330
A0E9
100
AcDbEntity
  8
DEFPOINTS
 62
     0
100
AcDbPoint
 10
-49.66183853149331
 20
15.66183471680005
 30
0.0
  0
POINT
  5
A3CB
330
A0E9
100
AcDbEntity
  8
DEFPOINTS
 62
     0
100
AcDbPoint
 10
-49.66183853149326
 20
-15.66184234618993
 30
0.0
  0
POINT
  5
A3CC
330
A0E9
100
AcDbEntity
  8
DEFPOINTS
 62
     0
100
AcDbPoint
 10
-37.83159504029084
 20
-15.66184234618993
 30
0.0
  0
ENDBLK
  5
A0F4
330
A0E9
100
AcDbEntity
  8
0
100
AcDbBlockEnd
  0
ENDSEC
  0
SECTION
  2
ENTITIES
  0
TEXT
  5
388D
330
1F
100
AcDbEntity
  8
AM_6
100
AcDbText
 10
-96.60714476449001
 20
-43.24999999999999
 30
0.0
 40
2.5
  1
WRC16040ES
 50
359.9999999999998
 51
359.9999999999998
 72
     4
 11
-85.00000190734715
 21
-42.00000000000001
 31
0.0
100
AcDbText
  0
SPLINE
  5
9846
330
1F
100
AcDbEntity
  8
AM_0
100
AcDbSpline
210
0.0
220
0.0
230
1.0
 70
     8
 71
     3
 72
    11
 73
     7
 74
     5
 42
0.0000000001
 43
0.0000000001
 44
0.0000000001
 40
0.0
 40
0.0
 40
0.0
 40
0.0
 40
2.497061481585647
 40
8.02468636194073
 40
15.14813161901336
 40
22.54854593135296
 40
22.54854593135296
 40
22.54854593135296
 40
22.54854593135296
 10
-35.29525315761552
 20
15.59562683106008
 30
0.0
 10
-35.0649991663255
 20
14.7955292999728
 30
0.0
 10
-34.32504299091162
 20
12.22429435310175
 30
0.0
 10
-32.19132269384653
 20
7.60220198502962
 30
0.0
 10
-27.02442529637067
 20
2.767308310120111
 30
0.0
 10
-22.14448560092729
 20
2.022138500134572
 30
0.0
 10
-19.65798568725628
 20
1.642448425290126
 30
0.0
 11
-35.29525315761552
 21
15.59562683106008
 31
0.0
 11
-34.56669163703901
 21
13.20721435547008
 31
0.0
 11
-32.13395261764509
 21
8.243705749510098
 31
0.0
 11
-26.82218456268299
 21
3.497276306150098
 31
0.0
 11
-19.65798568725628
 21
1.642448425290126
 31
0.0
  0
ELLIPSE
  5
9847
330
1F
100
AcDbEntity
  8
AM_0
100
AcDbEllipse
 10
-27.04329299926738
 20
0.0000000000001137
 30
0.0
 11
298.8507384871031
 21
0.0047836302105899
 31
0.0
210
0.0
220
0.0
230
1.0
 40
0.052406879749
 41
1.57049054102575
 42
1.595250195971355
  0
LINE
  5
9849
330
1F
100
AcDbEntity
  8
AM_0
100
AcDbLine
 10
-26.95218944549552
 20
15.6618423461901
 30
0.0
 11
-49.66184139251632
 21
15.66184234619007
 31
0.0
  0
LINE
  5
984A
330
1F
100
AcDbEntity
  8
AM_0
100
AcDbLine
 10
-49.66184139251627
 20
-15.66184234618992
 30
0.0
 11
-26.95218944549546
 21
-15.66184234618989
 31
0.0
  0
SPLINE
  5
984C
330
1F
100
AcDbEntity
  8
AM_0
100
AcDbSpline
210
0.0
220
0.0
230
1.0
 70
     8
 71
     3
 72
    11
 73
     7
 74
     5
 42
0.0000000001
 43
0.0000000001
 44
0.0000000001
 40
0.0
 40
0.0
 40
0.0
 40
0.0
 40
0.366822262766475
 40
0.6740167384979912
 40
0.8776610758298533
 40
0.9526508728265108
 40
0.9526508728265108
 40
0.9526508728265108
 40
0.9526508728265108
 10
-34.35077977180472
 20
15.6570358276401
 30
0.0
 10
-34.47332784452966
 20
15.65749492840584
 30
0.0
 10
-34.69850352406541
 20
15.65833850207129
 30
0.0
 10
-34.9880619040035
 20
15.64241401903523
 30
0.0
 10
-35.18911292362649
 20
15.64997342011586
 30
0.0
 10
-35.27407952038586
 20
15.61087874485772
 30
0.0
 10
-35.2969468832014
 20
15.60035705566008
 30
0.0
 11
-34.35077977180472
 21
15.6570358276401
 31
0.0
 11
-34.7175935506819
 21
15.65454101563008
 31
0.0
 11
-35.02467668056471
 21
15.64627075195008
 31
0.0
 11
-35.2275727987288
 21
15.62882995606008
 31
0.0
 11
-35.2969468832014
 21
15.60035705566008
 31
0.0
  0
LINE
  5
984D
330
1F
100
AcDbEntity
  8
AM_0
100
AcDbLine
 10
-168.0000038146943
 20
15.99999999999982
 30
0.0
 11
-50.00000286102232
 21
16.00000000000005
 31
0.0
  0
LINE
  5
984E
330
1F
100
AcDbEntity
  8
AM_7
100
AcDbLine
 10
-173.6899604797342
 20
-0.000000000000199
 30
0.0
 11
3.223876953124715
 21
0.0000000000001705
 31
0.0
  0
LINE
  5
984F
330
1F
100
AcDbEntity
  8
AM_0
100
AcDbLine
 10
-168.0000038146942
 20
-15.99999237061018
 30
0.0
 11
-50.00000286102227
 21
-15.99999237060993
 31
0.0
  0
LINE
  5
9851
330
1F
100
AcDbEntity
  8
AM_0
100
AcDbLine
 10
-168.0000038146942
 20
-15.99999237061018
 30
0.0
 11
-168.0000038146943
 21
15.99999999999982
 31
0.0
  0
LINE
  5
9852
330
1F
100
AcDbEntity
  8
AM_0
100
AcDbLine
 10
-170.0000038146942
 20
-15.46410369873018
 30
0.0
 11
-170.0000038146943
 21
15.46410369872981
 31
0.0
  0
LINE
  5
9854
330
1F
100
AcDbEntity
  8
AM_0
100
AcDbLine
 10
-170.0000038146942
 20
-15.46410369873018
 30
0.0
 11
-168.0000038146942
 21
-16.00000762939018
 31
0.0
  0
LINE
  5
9855
330
1F
100
AcDbEntity
  8
AM_0
100
AcDbLine
 10
-168.0000190734843
 20
15.99999999999982
 30
0.0
 11
-170.0000038146943
 21
15.46410369872981
 31
0.0
  0
LINE
  5
985B
330
1F
100
AcDbEntity
  8
AM_0
100
AcDbLine
 10
-49.66184139251627
 20
-15.66184234618992
 30
0.0
 11
-49.66184139251632
 21
15.66184234619007
 31
0.0
  0
LINE
  5
985C
330
1F
100
AcDbEntity
  8
AM_0
100
AcDbLine
 10
-50.00000286102227
 20
-15.99999237060993
 30
0.0
 11
-50.00000286102232
 21
16.00000000000005
 31
0.0
  0
LINE
  5
985E
330
1F
100
AcDbEntity
  8
AM_0
100
AcDbLine
 10
-49.99999999999926
 20
-16.00000762938992
 30
0.0
 11
-49.66183853149326
 21
-15.66184234618992
 31
0.0
  0
LINE
  5
985F
330
1F
100
AcDbEntity
  8
AM_0
100
AcDbLine
 10
-49.66183853149331
 20
15.66183471680005
 30
0.0
 11
-49.99999999999932
 21
16.00000000000005
 31
0.0
  0
LINE
  5
9860
330
1F
100
AcDbEntity
  8
AM_0
100
AcDbLine
 10
-35.29694879055012
 20
15.60035705566008
 30
0.0
 11
-35.29525494575492
 21
15.59562683106008
 31
0.0
  0
SPLINE
  5
9861
330
1F
100
AcDbEntity
  8
AM_0
100
AcDbSpline
210
0.0
220
0.0
230
1.0
 70
     8
 71
     3
 72
    11
 73
     7
 74
     5
 42
0.0000000001
 43
0.0000000001
 44
0.0000000001
 40
0.0
 40
0.0
 40
0.0
 40
0.0
 40
0.1956088864575423
 40
0.6380651803131697
 40
1.23470192633974
 40
1.918295817053388
 40
1.918295817053388
 40
1.918295817053388
 40
1.918295817053388
 10
-15.16661453247127
 20
5.074554443360142
 30
0.0
 10
-15.11142530554498
 20
5.109411354839609
 30
0.0
 10
-14.93140115292187
 20
5.223112638616071
 30
0.0
 10
-14.62565714854189
 20
5.50105147750926
 30
0.0
 10
-14.18869242829424
 20
5.872674444560699
 30
0.0
 10
-13.86059141567397
 20
6.145707260654805
 30
0.0
 10
-13.68539810180729
 20
6.291496276860129
 30
0.0
 11
-15.16661453247127
 21
5.074554443360142
 31
0.0
 11
-15.00311660766627
 21
5.181938171390129
 31
0.0
 11
-14.66270065307628
 21
5.464576721190127
 31
0.0
 11
-14.21001815795927
 21
5.853233337400126
 31
0.0
 11
-13.68539810180729
 21
6.291496276860129
 31
0.0
  0
SPLINE
  5
9862
330
1F
100
AcDbEntity
  8
AM_0
100
AcDbSpline
210
0.0
220
0.0
230
1.0
 70
     8
 71
     3
 72
    11
 73
     7
 74
     5
 42
0.0000000001
 43
0.0000000001
 44
0.0000000001
 40
0.0
 40
0.0
 40
0.0
 40
0.0
 40
0.1925183710588555
 40
0.3849725411408504
 40
0.5773808199298538
 40
0.7697467784022369
 40
0.7697467784022369
 40
0.7697467784022369
 40
0.7697467784022369
 10
-11.03020858764622
 20
-17.71045684813987
 30
0.0
 10
-10.98223199358774
 20
-17.75342652446449
 30
0.0
 10
-10.88629480469301
 20
-17.83935154759714
 30
0.0
 10
-10.7139106631573
 20
-17.928581245845
 30
0.0
 10
-10.52851192523045
 20
-17.98626173228343
 30
0.0
 10
-10.39986740236892
 20
-17.99155012515324
 30
0.0
 10
-10.33555221557622
 20
-17.99419403075987
 30
0.0
 11
-11.03020858764622
 21
-17.71045684813987
 31
0.0
 11
-10.88152694702122
 21
-17.83275604247987
 31
0.0
 11
-10.71171951293922
 21
-17.92333221435987
 31
0.0
 11
-10.52723312377924
 21
-17.97797393798987
 31
0.0
 11
-10.33555221557622
 21
-17.99419403075987
 31
0.0
  0
SPLINE
  5
9863
330
1F
100
AcDbEntity
  8
AM_0
100
AcDbSpline
210
0.0
220
0.0
230
1.0
 70
     8
 71
     3
 72
    11
 73
     7
 74
     5
 42
0.0000000001
 43
0.0000000001
 44
0.0000000001
 40
0.0
 40
0.0
 40
0.0
 40
0.0
 40
0.1678400468382043
 40
0.3346199237441993
 40
0.4994507325382754
 40
0.6616166244340524
 40
0.6616166244340524
 40
0.6616166244340524
 40
0.6616166244340524
 10
-8.810977935791242
 20
-14.26497650145987
 30
0.0
 10
-8.755024683387414
 20
-14.2635787042372
 30
0.0
 10
-8.643471610057673
 20
-14.26079193904695
 30
0.0
 10
-8.477860800661115
 20
-14.24222233868733
 30
0.0
 10
-8.31548056164056
 20
-14.2143393167208
 30
0.0
 10
-8.210009268057559
 20
-14.1866513743612
 30
0.0
 10
-8.157703399658259
 20
-14.17292022704984
 30
0.0
 11
-8.810977935791242
 21
-14.26497650145987
 31
0.0
 11
-8.643268585205248
 21
-14.25835418700987
 31
0.0
 11
-8.477443695068245
 21
-14.24053192138987
 31
0.0
 11
-8.315128326416242
 21
-14.21184539794987
 31
0.0
 11
-8.157703399658259
 21
-14.17292022704984
 31
0.0
  0
SPLINE
  5
9864
330
1F
100
AcDbEntity
  8
AM_0
100
AcDbSpline
210
0.0
220
0.0
230
1.0
 70
     8
 71
     3
 72
    11
 73
     7
 74
     5
 42
0.0000000001
 43
0.0000000001
 44
0.0000000001
 40
0.0
 40
0.0
 40
0.0
 40
0.0
 40
0.1156917341577604
 40
0.2322568686757331
 40
0.3494161586234479
 40
0.4668508773357493
 40
0.4668508773357493
 40
0.4668508773357493
 40
0.4668508773357493
 10
-9.275478363037251
 20
-14.22475433349987
 30
0.0
 10
-9.237428700631198
 20
-14.23107511794314
 30
0.0
 10
-9.161042124624415
 20
-14.24376440480582
 30
0.0
 10
-9.045185832724486
 20
-14.2562195507633
 30
0.0
 10
-8.928340571650359
 20
-14.26406227433846
 30
0.0
 10
-8.850129422751775
 20
-14.26467152065435
 30
0.0
 10
-8.810977935791242
 20
-14.26497650145987
 30
0.0
 11
-9.275478363037251
 21
-14.22475433349987
 31
0.0
 11
-9.161174774170262
 21
-14.24262237548987
 31
0.0
 11
-9.045314788818245
 21
-14.25542449950987
 31
0.0
 11
-8.928394317627265
 21
-14.26290130614987
 31
0.0
 11
-8.810977935791242
 21
-14.26497650145987
 31
0.0
  0
SPLINE
  5
9865
330
1F
100
AcDbEntity
  8
AM_0
100
AcDbSpline
210
0.0
220
0.0
230
1.0
 70
     8
 71
     3
 72
    11
 73
     7
 74
     5
 42
0.0000000001
 43
0.0000000001
 44
0.0000000001
 40
0.0
 40
0.0
 40
0.0
 40
0.0
 40
0.2004831669497168
 40
0.4010480203826531
 40
0.6017695776850484
 40
0.8026523475998519
 40
0.8026523475998519
 40
0.8026523475998519
 40
0.8026523475998519
 10
-10.33555221557625
 20
-14.27352142333987
 30
0.0
 10
-10.40277836830908
 20
-14.27138216120272
 30
0.0
 10
-10.53725806494219
 20
-14.26710276529016
 30
0.0
 10
-10.72720658391494
 20
-14.19339538698167
 30
0.0
 10
-10.89627084948286
 20
-14.08177236289453
 30
0.0
 10
-10.98555072863738
 20
-13.98133685194932
 30
0.0
 10
-11.03020858764625
 20
-13.93109893798987
 30
0.0
 11
-10.33555221557625
 21
-14.27352142333987
 31
0.0
 11
-10.53525924682625
 21
-14.25589752196987
 31
0.0
 11
-10.72365951538125
 21
-14.18711090087987
 31
0.0
 11
-10.89036178588926
 21
-14.07530975341987
 31
0.0
 11
-11.03020858764625
 21
-13.93109893798987
 31
0.0
  0
SPLINE
  5
9866
330
1F
100
AcDbEntity
  8
AM_0
100
AcDbSpline
210
0.0
220
0.0
230
1.0
 70
     8
 71
     3
 72
    11
 73
     7
 74
     5
 42
0.0000000001
 43
0.0000000001
 44
0.0000000001
 40
0.0
 40
0.0
 40
0.0
 40
0.0
 40
0.1198704101598938
 40
0.2397410427181581
 40
0.3596190814697601
 40
0.479489491629654
 40
0.479489491629654
 40
0.479489491629654
 40
0.479489491629654
 10
-15.03567886352525
 20
-14.45659637450987
 30
0.0
 10
-14.99572624229937
 20
-14.45717447988383
 30
0.0
 10
-14.91582092572258
 20
-14.45833069170432
 30
0.0
 10
-14.79596089888233
 20
-14.46009616136645
 30
0.0
 10
-14.67610039206892
 20
-14.46182870256843
 30
0.0
 10
-14.5961926710159
 20
-14.46298934057289
 30
0.0
 10
-14.55624008178725
 20
-14.46356964110987
 30
0.0
 11
-15.03567886352525
 21
-14.45659637450987
 31
0.0
 11
-14.91582107543925
 21
-14.45833587645987
 31
0.0
 11
-14.79596328735425
 21
-14.46009063720987
 31
0.0
 11
-14.67609786987324
 21
-14.46183013915987
 31
0.0
 11
-14.55624008178725
 21
-14.46356964110987
 31
0.0
  0
SPLINE
  5
9867
330
1F
100
AcDbEntity
  8
AM_0
100
AcDbSpline
210
0.0
220
0.0
230
1.0
 70
     8
 71
     3
 72
    11
 73
     7
 74
     5
 42
0.0000000001
 43
0.0000000001
 44
0.0000000001
 40
0.0
 40
0.0
 40
0.0
 40
0.0
 40
0.1954203803928951
 40
0.3908061875032758
 40
0.5861402089583812
 40
0.7814113569876799
 40
0.7814113569876799
 40
0.7814113569876799
 40
0.7814113569876799
 10
-13.86158370971725
 20
-14.77683258056987
 30
0.0
 10
-13.90896276293572
 20
-14.73180753712785
 30
0.0
 10
-14.00371248718965
 20
-14.64176541596133
 30
0.0
 10
-14.17496204476868
 20
-14.54454425378786
 30
0.0
 10
-14.36071387158217
 20
-14.4783539732311
 30
0.0
 10
-14.49107167269607
 20
-14.46849722295583
 30
0.0
 10
-14.55624008178725
 20
-14.46356964110987
 30
0.0
 11
-13.86158370971725
 21
-14.77683258056987
 31
0.0
 11
-14.00857925415024
 21
-14.64806365966987
 31
0.0
 11
-14.17740249633826
 21
-14.54970550536987
 31
0.0
 11
-14.36236953735425
 21
-14.48691558837987
 31
0.0
 11
-14.55624008178725
 21
-14.46356964110987
 31
0.0
  0
SPLINE
  5
9868
330
1F
100
AcDbEntity
  8
AM_0
100
AcDbSpline
210
0.0
220
0.0
230
1.0
 70
     8
 71
     3
 72
    11
 73
     7
 74
     5
 42
0.0000000001
 43
0.0000000001
 44
0.0000000001
 40
0.0
 40
0.0
 40
0.0
 40
0.0
 40
0.221865661194864
 40
0.4438156293633701
 40
0.6658445367800723
 40
0.8878525116310552
 40
0.8878525116310552
 40
0.8878525116310552
 40
0.8878525116310552
 10
-2.718006134033259
 20
-14.79750823974984
 30
0.0
 10
-2.669779644584819
 20
-14.74107681932017
 30
0.0
 10
-2.573308340051818
 20
-14.62819253502406
 30
0.0
 10
-2.475495975068603
 20
-14.4268534207028
 30
0.0
 10
-2.411722925664666
 20
-14.2125271527893
 30
0.0
 10
-2.403911079518339
 20
-14.0642431710131
 30
0.0
 10
-2.400005340576257
 20
-13.99010467528984
 30
0.0
 11
-2.718006134033259
 21
-14.79750823974984
 31
0.0
 11
-2.581142425537251
 21
-14.62288665770984
 31
0.0
 11
-2.481182098389268
 21
-14.42472076415984
 31
0.0
 11
-2.420398712158259
 21
-14.21117401122984
 31
0.0
 11
-2.400005340576257
 21
-13.99010467528984
 31
0.0
  0
SPLINE
  5
9869
330
1F
100
AcDbEntity
  8
AM_0
100
AcDbSpline
210
0.0
220
0.0
230
1.0
 70
     8
 71
     3
 72
    11
 73
     7
 74
     5
 42
0.0000000001
 43
0.0000000001
 44
0.0000000001
 40
0.0
 40
0.0
 40
0.0
 40
0.0
 40
0.3751998210818737
 40
0.7486604481179664
 40
1.118699531768268
 40
1.483814423257454
 40
1.483814423257454
 40
1.483814423257454
 40
1.483814423257454
 10
-8.914318084717251
 20
-8.915489196779873
 30
0.0
 10
-9.039460948764583
 20
-8.920695502898215
 30
0.0
 10
-9.289166592030326
 20
-8.931083981923494
 30
0.0
 10
-9.655704201127186
 20
-9.006376989843184
 30
0.0
 10
-10.00857176807701
 20
-9.12035185505749
 30
0.0
 10
-10.22704652734972
 20
-9.232124043836602
 30
0.0
 10
-10.33555221557625
 20
-9.28763580321987
 30
0.0
 11
-8.914318084717251
 21
-8.915489196779873
 31
0.0
 11
-9.288639068604254
 21
-8.941154479979871
 31
0.0
 11
-9.655071258545262
 21
-9.013267517089872
 31
0.0
 11
-10.00620651245125
 21
-9.130027770999873
 31
0.0
 11
-10.33555221557625
 21
-9.28763580321987
 31
0.0
  0
SPLINE
  5
986A
330
1F
100
AcDbEntity
  8
AM_0
100
AcDbSpline
210
0.0
220
0.0
230
1.0
 70
     8
 71
     3
 72
    11
 73
     7
 74
     5
 42
0.0000000001
 43
0.0000000001
 44
0.0000000001
 40
0.0
 40
0.0
 40
0.0
 40
0.0
 40
0.5273174109875068
 40
1.07047555002386
 40
1.639378803382619
 40
2.247851300360069
 40
2.247851300360069
 40
2.247851300360069
 40
2.247851300360069
 10
-11.03020858764625
 20
-9.849494934079871
 30
0.0
 10
-11.13826567402222
 20
-9.988859938790177
 30
0.0
 10
-11.35762590480936
 20
-10.27177650282314
 30
0.0
 10
-11.58124034478455
 20
-10.77503335562563
 30
0.0
 10
-11.72668482903261
 20
-11.33446078247302
 30
0.0
 10
-11.72919207087419
 20
-11.7283561903352
 30
0.0
 10
-11.73048782348624
 20
-11.93192291259987
 30
0.0
 11
-11.03020858764625
 21
-9.849494934079871
 31
0.0
 11
-11.33658218383825
 21
-10.27867889403987
 31
0.0
 11
-11.56396865844726
 21
-10.77194976806987
 31
0.0
 11
-11.70068740844726
 21
-11.32418060302987
 31
0.0
 11
-11.73048782348624
 21
-11.93192291259987
 31
0.0
  0
SPLINE
  5
986B
330
1F
100
AcDbEntity
  8
AM_0
100
AcDbSpline
210
0.0
220
0.0
230
1.0
 70
     8
 71
     3
 72
    11
 73
     7
 74
     5
 42
0.0000000001
 43
0.0000000001
 44
0.0000000001
 40
0.0
 40
0.0
 40
0.0
 40
0.0
 40
0.8406298413193757
 40
1.681265940920849
 40
2.521901988283837
 40
3.362545560177446
 40
3.362545560177446
 40
3.362545560177446
 40
3.362545560177446
 10
-11.53507614135722
 20
-17.20458221435987
 30
0.0
 10
-11.72986090617124
 20
-17.00314587139781
 30
0.0
 10
-12.11943188592388
 20
-16.60027168582975
 30
0.0
 10
-12.70188996997515
 20
-15.99412828070174
 30
0.0
 10
-13.28294937823526
 20
-15.38663664523412
 30
0.0
 10
-13.6687050237429
 20
-14.98010120860481
 30
0.0
 10
-13.86158370971725
 20
-14.77683258056987
 30
0.0
 11
-11.53507614135722
 21
-17.20458221435987
 31
0.0
 11
-12.11911392211922
 21
-16.59996795653987
 31
0.0
 11
-12.70165634155324
 21
-15.99390411376987
 31
0.0
 11
-13.28254318237324
 21
-15.38625335692987
 31
0.0
 11
-13.86158370971725
 21
-14.77683258056987
 31
0.0
  0
SPLINE
  5
986C
330
1F
100
AcDbEntity
  8
AM_0
100
AcDbSpline
210
0.0
220
0.0
230
1.0
 70
     8
 71
     3
 72
    11
 73
     7
 74
     5
 42
0.0000000001
 43
0.0000000001
 44
0.0000000001
 40
0.0
 40
0.0
 40
0.0
 40
0.0
 40
0.2566875946785252
 40
0.5133687455328467
 40
0.7700458326315865
 40
1.026728395468347
 40
1.026728395468347
 40
1.026728395468347
 40
1.026728395468347
 10
-11.66740798950226
 20
-13.12602996825987
 30
0.0
 10
-11.61465640654942
 20
-13.19339635426067
 30
0.0
 10
-11.5091545649069
 20
-13.32812743511257
 30
0.0
 10
-11.35011443731742
 20
-13.52960231537355
 30
0.0
 10
-11.19054482891234
 20
-13.73065592956245
 30
0.0
 10
-11.08365438144972
 20
-13.86428412673344
 30
0.0
 10
-11.03020858764625
 20
-13.93109893798987
 30
0.0
 11
-11.66740798950226
 21
-13.12602996825987
 31
0.0
 11
-11.50902175903325
 21
-13.32802581786987
 31
0.0
 11
-11.35002517700226
 21
-13.52953338622987
 31
0.0
 11
-11.19041824340825
 21
-13.73055267333987
 31
0.0
 11
-11.03020858764625
 21
-13.93109893798987
 31
0.0
  0
SPLINE
  5
986D
330
1F
100
AcDbEntity
  8
AM_0
100
AcDbSpline
210
0.0
220
0.0
230
1.0
 70
     8
 71
     3
 72
    11
 73
     7
 74
     5
 42
0.0000000001
 43
0.0000000001
 44
0.0000000001
 40
0.0
 40
0.0
 40
0.0
 40
0.0
 40
0.988658625095857
 40
1.97732329276087
 40
2.965992968680804
 40
3.954661611963178
 40
3.954661611963178
 40
3.954661611963178
 40
3.954661611963178
 10
-5.484668731689225
 20
-17.62322235106984
 30
0.0
 10
-5.25270342162055
 20
-17.38913388481008
 30
0.0
 10
-4.788771383737587
 20
-16.92095552156846
 30
0.0
 10
-4.095776957064066
 20
-16.21581726127686
 30
0.0
 10
-3.404962329571037
 20
-15.50853628143847
 30
0.0
 10
-2.946991452822869
 20
-15.03451750446281
 30
0.0
 10
-2.718006134033259
 20
-14.79750823974984
 30
0.0
 11
-5.484668731689225
 21
-17.62322235106984
 31
0.0
 11
-4.789257049561228
 21
-16.92047882079984
 31
0.0
 11
-4.096141815186228
 21
-16.21546173095984
 31
0.0
 11
-3.405605316162251
 21
-15.50791168212984
 31
0.0
 11
-2.718006134033259
 21
-14.79750823974984
 31
0.0
  0
SPLINE
  5
986E
330
1F
100
AcDbEntity
  8
AM_0
100
AcDbSpline
210
0.0
220
0.0
230
1.0
 70
     8
 71
     3
 72
    11
 73
     7
 74
     5
 42
0.0000000001
 43
0.0000000001
 44
0.0000000001
 40
0.0
 40
0.0
 40
0.0
 40
0.0
 40
0.1898624801991169
 40
0.4013952893921749
 40
0.6369380551738003
 40
0.8976287248855232
 40
0.8976287248855232
 40
0.8976287248855232
 40
0.8976287248855232
 10
-11.03020858764625
 20
-9.849494934079871
 30
0.0
 10
-10.98766065036629
 20
-9.802596877662619
 30
0.0
 10
-10.89770848298906
 20
-9.703447962575287
 30
0.0
 10
-10.73957866606952
 20
-9.561326092975033
 30
0.0
 10
-10.55254260432713
 20
-9.416815734448574
 30
0.0
 10
-10.41028542776421
 20
-9.332126396865584
 30
0.0
 10
-10.33555221557625
 20
-9.28763580321987
 30
0.0
 11
-11.03020858764625
 21
-9.849494934079871
 31
0.0
 11
-10.90039443969726
 21
-9.71094512938987
 31
0.0
 11
-10.74393844604526
 21
-9.568580627439871
 31
0.0
 11
-10.55668258667026
 21
-9.425697326659872
 31
0.0
 11
-10.33555221557625
 21
-9.28763580321987
 31
0.0
  0
SPLINE
  5
986F
330
1F
100
AcDbEntity
  8
AM_0
100
AcDbSpline
210
0.0
220
0.0
230
1.0
 70
     8
 71
     3
 72
    11
 73
     7
 74
     5
 42
0.0000000001
 43
0.0000000001
 44
0.0000000001
 40
0.0
 40
0.0
 40
0.0
 40
0.0
 40
0.7837468852587345
 40
1.609918958801505
 40
2.470467859357592
 40
3.350247774099388
 40
3.350247774099388
 40
3.350247774099388
 40
3.350247774099388
 10
-6.166667938232251
 20
-10.55693817138984
 30
0.0
 10
-6.308396262549941
 20
-10.33567709999415
 30
0.0
 10
-6.599524840678696
 20
-9.881177821739212
 30
0.0
 10
-7.250198557911579
 20
-9.357492461984492
 30
0.0
 10
-8.036983977712932
 20
-8.984771582898764
 30
0.0
 10
-8.619726903438817
 20
-8.938752831244332
 30
0.0
 10
-8.914318084717251
 20
-8.915489196779873
 30
0.0
 11
-6.166667938232251
 21
-10.55693817138984
 31
0.0
 11
-6.62334823608424
 21
-9.919990539549843
 31
0.0
 11
-7.258617401123245
 21
-9.391792297359842
 31
0.0
 11
-8.04312515258826
 21
-9.03810882567987
 31
0.0
 11
-8.914318084717251
 21
-8.915489196779873
 31
0.0
  0
SPLINE
  5
9870
330
1F
100
AcDbEntity
  8
AM_0
100
AcDbSpline
210
0.0
220
0.0
230
1.0
 70
     8
 71
     3
 72
    11
 73
     7
 74
     5
 42
0.0000000001
 43
0.0000000001
 44
0.0000000001
 40
0.0
 40
0.0
 40
0.0
 40
0.0
 40
0.3702761477309497
 40
0.72231192945282
 40
1.06490688871763
 40
1.404838065513782
 40
1.404838065513782
 40
1.404838065513782
 40
1.404838065513782
 10
-6.166667938232251
 20
-10.55693817138984
 30
0.0
 10
-6.111129406346071
 20
-10.66733340847265
 30
0.0
 10
-6.002788255095806
 20
-10.88268564541345
 30
0.0
 10
-5.890256895003489
 20
-11.22033298977167
 30
0.0
 10
-5.81245447741299
 20
-11.55725877233907
 30
0.0
 10
-5.793730303150074
 20
-11.78426907673627
 30
0.0
 10
-5.784404754639268
 20
-11.89733123778984
 30
0.0
 11
-6.166667938232251
 21
-10.55693817138984
 31
0.0
 11
-6.008464813232251
 21
-10.89171600341984
 31
0.0
 11
-5.894695281982251
 21
-11.22486114501984
 31
0.0
 11
-5.82046890258826
 21
-11.55931854247984
 31
0.0
 11
-5.784404754639268
 21
-11.89733123778984
 31
0.0
  0
SPLINE
  5
9871
330
1F
100
AcDbEntity
  8
AM_0
100
AcDbSpline
210
0.0
220
0.0
230
1.0
 70
     8
 71
     3
 72
    11
 73
     7
 74
     5
 42
0.0000000001
 43
0.0000000001
 44
0.0000000001
 40
0.0
 40
0.0
 40
0.0
 40
0.0
 40
0.5239626522299204
 40
1.029889196118929
 40
1.51691571547117
 40
1.984196316824706
 40
1.984196316824706
 40
1.984196316824706
 40
1.984196316824706
 10
-5.784404754639268
 20
-11.89733123778984
 30
0.0
 10
-5.775564237279914
 20
-12.07176180265166
 30
0.0
 10
-5.758187515336562
 20
-12.41461859494319
 30
0.0
 10
-5.730215754634897
 20
-12.91948424785817
 30
0.0
 10
-5.701661656073273
 20
-13.40539263452804
 30
0.0
 10
-5.681181982696162
 20
-13.72283566163833
 30
0.0
 10
-5.671154022217251
 20
-13.87827301024984
 30
0.0
 11
-5.784404754639268
 21
-11.89733123778984
 31
0.0
 11
-5.757465362549254
 21
-12.42060089110984
 31
0.0
 11
-5.729579925537251
 21
-12.92575836181984
 31
0.0
 11
-5.700801849365262
 21
-13.41193389892984
 31
0.0
 11
-5.671154022217251
 21
-13.87827301024984
 31
0.0
  0
SPLINE
  5
9872
330
1F
100
AcDbEntity
  8
AM_0
100
AcDbSpline
210
0.0
220
0.0
230
1.0
 70
     8
 71
     3
 72
    11
 73
     7
 74
     5
 42
0.0000000001
 43
0.0000000001
 44
0.0000000001
 40
0.0
 40
0.0
 40
0.0
 40
0.0
 40
0.1359572081933182
 40
0.2718760269835529
 40
0.407747339061621
 40
0.5435885681432048
 40
0.5435885681432048
 40
0.5435885681432048
 40
0.5435885681432048
 10
-5.671154022217251
 20
-13.87827301024984
 30
0.0
 10
-5.707287180026538
 20
-13.90577190669268
 30
0.0
 10
-5.77954329294694
 20
-13.96076193488362
 30
0.0
 10
-5.901493041772313
 20
-14.02213971220102
 30
0.0
 10
-6.03110131384089
 20
-14.06593798040237
 30
0.0
 10
-6.121482398987052
 20
-14.07499378047545
 30
0.0
 10
-6.166667938232251
 20
-14.07952117919984
 30
0.0
 11
-5.671154022217251
 21
-13.87827301024984
 31
0.0
 11
-5.78181838989326
 21
-13.95725250243984
 31
0.0
 11
-5.902790069580248
 21
-14.01921844481984
 31
0.0
 11
-6.032108306885248
 21
-14.06090545653984
 31
0.0
 11
-6.166667938232251
 21
-14.07952117919984
 31
0.0
  0
SPLINE
  5
9873
330
1F
100
AcDbEntity
  8
AM_0
100
AcDbSpline
210
0.0
220
0.0
230
1.0
 70
     8
 71
     3
 72
    11
 73
     7
 74
     5
 42
0.0000000001
 43
0.0000000001
 44
0.0000000001
 40
0.0
 40
0.0
 40
0.0
 40
0.0
 40
0.1902910781092
 40
0.3806352464482057
 40
0.5710361205642453
 40
0.7615018396410821
 40
0.7615018396410821
 40
0.7615018396410821
 40
0.7615018396410821
 10
-6.166667938232222
 20
-17.92026519774984
 30
0.0
 10
-6.103187099347114
 20
-17.91542500345614
 30
0.0
 10
-5.976207710750106
 20
-17.9057432644795
 30
0.0
 10
-5.794626455596523
 20
-17.84337298604468
 30
0.0
 10
-5.626127029550671
 20
-17.75165511897175
 30
0.0
 10
-5.531826849378264
 20
-17.66603813264937
 30
0.0
 10
-5.484668731689225
 20
-17.62322235106984
 30
0.0
 11
-6.166667938232222
 21
-17.92026519774984
 31
0.0
 11
-5.977710723877237
 21
-17.89777374267984
 31
0.0
 11
-5.79683303833022
 21
-17.83849334716984
 31
0.0
 11
-5.630657196045234
 21
-17.74555206298984
 31
0.0
 11
-5.484668731689225
 21
-17.62322235106984
 31
0.0
  0
ELLIPSE
  5
9874
330
1F
100
AcDbEntity
  8
AM_0
100
AcDbEllipse
 10
-10.55460739135728
 20
4.566596984860126
 30
0.0
 11
-2.999412432317999
 21
0.0595166111499962
 31
0.0
210
0.0
220
0.0
230
1.0
 40
0.2584632951769
 41
5.755982246931691
 42
6.071561219032819
  0
ELLIPSE
  5
9875
330
1F
100
AcDbEntity
  8
AM_0
100
AcDbEllipse
 10
-15.21160507202128
 20
9.574890136720142
 30
0.0
 11
0.0174484189489922
 21
2.999946635699998
 31
0.0
210
0.0
220
0.0
230
1.0
 40
0.0354391671086
 41
3.141590186748335
 42
3.725590771345951
  0
ELLIPSE
  5
9876
330
1F
100
AcDbEntity
  8
AM_0
100
AcDbEllipse
 10
-15.16296768188527
 20
7.574577331540126
 30
0.0
 11
0.0145415552959975
 21
2.499957946699993
 31
0.0
210
0.0
220
0.0
230
1.0
 40
0.0349004891014
 41
3.141590148673417
 42
4.71238904126608
  0
ELLIPSE
  5
9877
330
1F
100
AcDbEntity
  8
AM_0
100
AcDbEllipse
 10
-15.49983596801828
 20
9.576568603520144
 30
0.0
 11
0.017448418949994
 21
2.999946635699998
 31
0.0
210
0.0
220
0.0
230
1.0
 40
0.2079123288024
 41
3.141592233110607
 42
3.73301896675096
  0
ELLIPSE
  5
9878
330
1F
100
AcDbEntity
  8
AM_0
100
AcDbEllipse
 10
-124.2776069641102
 20
-0.0000534057600987
 30
0.0
 11
-361.7340087447739
 21
0.0056604873592891
 31
0.0
210
0.0
220
0.0
230
0.9999999999999998
 40
0.0524068402892
 41
1.891313102854376
 42
1.903454321843346
  0
ELLIPSE
  5
9879
330
1F
100
AcDbEntity
  8
AM_0
100
AcDbEllipse
 10
-27.04329299926738
 20
0.0000000000001137
 30
0.0
 11
-298.8507690063769
 21
0.0046764776294091
 31
0.0
210
0.0
220
0.0
230
0.9999999999999998
 40
0.0524068999265
 41
1.571104478857445
 42
1.608644619349596
  0
ELLIPSE
  5
987A
330
1F
100
AcDbEntity
  8
AM_0
100
AcDbEllipse
 10
-15.95128250122127
 20
0.0000000000001421
 30
0.0
 11
-0.0954204384760321
 21
15.66182728395
 31
0.0
210
0.0
220
0.0
230
1.0
 40
0.2125527334632
 41
3.177854802860879
 42
3.365442267182617
  0
ELLIPSE
  5
987B
330
1F
100
AcDbEntity
  8
AM_0
100
AcDbEllipse
 10
-15.33018112182628
 20
-0.0000076293898701
 30
0.0
 11
-0.0912251290090313
 21
15.66183893048999
 31
0.0
210
0.0
220
0.0
230
1.0
 40
0.0349201118901
 41
3.36718290508383
 42
3.53778888837991
  0
ELLIPSE
  5
987C
330
1F
100
AcDbEntity
  8
AM_0
100
AcDbEllipse
 10
-27.04329299926738
 20
0.0000000000001137
 30
0.0
 11
298.850769004683
 21
0.0047836301605819
 31
0.0
210
0.0
220
0.0
230
1.0
 40
0.0524068743974
 41
1.532948135585989
 42
1.570490541056976
  0
ELLIPSE
  5
987D
330
1F
100
AcDbEntity
  8
AM_0
100
AcDbEllipse
 10
-15.95128250122127
 20
0.0000000000001421
 30
0.0
 11
0.0954358725939681
 21
15.66182718990999
 31
0.0
210
0.0
220
0.0
230
1.0
 40
0.2125527334631999
 41
6.088825169766659
 42
6.246943524901876
  0
ELLIPSE
  5
987E
330
1F
100
AcDbEntity
  8
AM_0
100
AcDbEllipse
 10
-11.04345321655327
 20
-0.104858398439859
 30
0.0
 11
-0.1090231730500384
 21
18.64002197629
 31
0.0
210
0.0
220
0.0
230
0.9999999999999998
 40
0.0524733102699
 41
2.258014296018976
 42
2.343213101100523
  0
LINE
  5
98AC
330
1F
100
AcDbEntity
  8
AM_0
100
AcDbLine
 10
-0.0185203552252915
 20
10.27245330811015
 30
0.0
 11
-1.251865386963288
 21
7.339248657230172
 31
0.0
  0
LINE
  5
98AD
330
1F
100
AcDbEntity
  8
AM_0
100
AcDbLine
 10
-1.199134826660298
 20
16.40235900879017
 30
0.0
 11
-0.0000000000003126
 21
13.45500183106017
 31
0.0
  0
LINE
  5
98AE
330
1F
100
AcDbEntity
  8
AM_0
100
AcDbLine
 10
-1.199138641357222
 20
-16.40236663817984
 30
0.0
 11
-0.0000000000002558
 21
-13.45499420165984
 31
0.0
  0
LINE
  5
98AF
330
1F
100
AcDbEntity
  8
AM_0
100
AcDbLine
 10
-0.0185165405272585
 20
-10.27245330810984
 30
0.0
 11
-1.25186538696326
 21
-7.339241027829842
 31
0.0
  0
LINE
  5
98B0
330
1F
100
AcDbEntity
  8
AM_0
100
AcDbLine
 10
-0.2466773986822375
 20
-13.41776275634984
 30
0.0
 11
-2.001747131348253
 21
-14.19219207763984
 31
0.0
  0
LINE
  5
98B1
330
1F
100
AcDbEntity
  8
AM_0
100
AcDbLine
 10
-2.028701782227244
 20
-9.558601379389841
 30
0.0
 11
-0.2647361755372515
 21
-10.31255340575984
 31
0.0
  0
LINE
  5
98B3
330
1F
100
AcDbEntity
  8
AM_0
100
AcDbLine
 10
-14.55624008178725
 20
-14.46356964110987
 30
0.0
 11
-14.55624008178728
 21
1.612770080570129
 31
0.0
  0
LINE
  5
98B4
330
1F
100
AcDbEntity
  8
AM_0
100
AcDbLine
 10
-2.400005340576257
 20
-13.99010467528984
 30
0.0
 11
-2.400005340576285
 21
1.542045593260155
 31
0.0
  0
LINE
  5
98B5
330
1F
100
AcDbEntity
  8
AM_0
100
AcDbLine
 10
-13.86158370971725
 20
-14.77683258056987
 30
0.0
 11
-13.86158370971728
 21
1.60872650147013
 31
0.0
  0
LINE
  5
98B6
330
1F
100
AcDbEntity
  8
AM_0
100
AcDbLine
 10
-2.718006134033259
 20
-14.79750823974984
 30
0.0
 11
-2.718006134033288
 21
1.54389953613014
 31
0.0
  0
LINE
  5
98B7
330
1F
100
AcDbEntity
  8
AM_0
100
AcDbLine
 10
-11.03020858764625
 20
-9.849494934079871
 30
0.0
 11
-11.03020858764628
 21
1.592254638670141
 31
0.0
  0
LINE
  5
98B8
330
1F
100
AcDbEntity
  8
AM_0
100
AcDbLine
 10
-10.33555221557625
 20
-9.28763580321987
 30
0.0
 11
-10.33555221557628
 21
1.588211059570141
 31
0.0
  0
LINE
  5
98B9
330
1F
100
AcDbEntity
  8
AM_0
100
AcDbLine
 10
-6.166667938232251
 20
-10.55693817138984
 30
0.0
 11
-6.166667938232279
 21
1.563957214360158
 31
0.0
  0
LINE
  5
98BA
330
1F
100
AcDbEntity
  8
AM_0
100
AcDbLine
 10
-5.484668731689225
 20
-17.62322235106984
 30
0.0
 11
-5.484668731689282
 21
1.559989929200156
 31
0.0
  0
ARC
  5
98BB
330
1F
100
AcDbEntity
  8
AM_0
100
AcDbCircle
 10
-8.82918167114326
 20
-11.76503753661987
 30
0.0
 40
2.499999284744299
100
AcDbArc
 50
90.33334988691938
 51
259.7160307367682
  0
ARC
  5
98BC
330
1F
100
AcDbEntity
  8
AM_0
100
AcDbCircle
 10
-8.489002227783259
 20
-11.76305389403987
 30
0.0
 40
2.499981164932299
100
AcDbArc
 50
94.57200136129099
 51
180.0000050089585
  0
ARC
  5
98BD
330
1F
100
AcDbEntity
  8
AM_0
100
AcDbCircle
 10
-8.82918167114326
 20
-11.76503753661987
 30
0.0
 40
2.4997627735138
100
AcDbArc
 50
285.5820905396632
 51
90.33334988691938
  0
ARC
  5
98BE
330
1F
100
AcDbEntity
  8
AM_0
100
AcDbCircle
 10
-8.678516387939254
 20
-11.91416168212984
 30
0.0
 40
2.999992609023999
100
AcDbArc
 50
92.78312017615057
 51
180.3333455612087
  0
ARC
  5
98BF
330
1F
100
AcDbEntity
  8
AM_0
100
AcDbCircle
 10
-8.076663970947265
 20
-11.91066741942987
 30
0.0
 40
2.897798538207999
100
AcDbArc
 50
138.4100269262625
 51
182.0916001781086
  0
LINE
  5
98C0
330
1F
100
AcDbEntity
  8
AM_0
100
AcDbLine
 10
-2.001747131348253
 20
-14.19219207763984
 30
0.0
 11
-2.028701782227244
 21
-9.558601379389841
 31
0.0
  0
ARC
  5
98C1
330
1F
100
AcDbEntity
  8
AM_0
100
AcDbCircle
 10
-8.489002227783259
 20
-11.76305389403987
 30
0.0
 40
2.496573925018299
100
AcDbArc
 50
180.0000086514213
 51
266.2243508846071
  0
LINE
  5
98C2
330
1F
100
AcDbEntity
  8
AM_0
100
AcDbLine
 10
-9.540716171265216
 20
-19.91931915282987
 30
0.0
 11
-6.362531661987219
 21
-19.90082550048984
 31
0.0
  0
LINE
  5
98C3
330
1F
100
AcDbEntity
  8
AM_0
100
AcDbLine
 10
-6.454610824585216
 20
-19.70697784423984
 30
0.0
 11
-9.555564880371235
 21
-19.72502899169987
 31
0.0
  0
LINE
  5
98C4
330
1F
100
AcDbEntity
  8
AM_0
100
AcDbLine
 10
-10.61512947082522
 20
-18.25743865966987
 30
0.0
 11
-5.987880706787223
 21
-18.23050689696984
 31
0.0
  0
LINE
  5
98C5
330
1F
100
AcDbEntity
  8
AM_0
100
AcDbLine
 10
-11.03020286560121
 20
-17.71047210692987
 30
0.0
 11
-11.53507041931223
 21
-17.20459747313987
 31
0.0
  0
LINE
  5
98C6
330
1F
100
AcDbEntity
  8
AM_0
100
AcDbLine
 10
-10.33555221557622
 20
-17.99419403075987
 30
0.0
 11
-10.33555221557625
 21
-14.27352142333987
 31
0.0
  0
LINE
  5
98C7
330
1F
100
AcDbEntity
  8
AM_0
100
AcDbLine
 10
-11.03020858764622
 20
-17.71045684813987
 30
0.0
 11
-11.03020858764625
 21
-13.93109893798987
 31
0.0
  0
LINE
  5
98C8
330
1F
100
AcDbEntity
  8
AM_0
100
AcDbLine
 10
-14.74446487426823
 20
-16.48116302489987
 30
0.0
 11
-12.48405647277823
 21
-18.71848297118987
 31
0.0
  0
LINE
  5
98C9
330
1F
100
AcDbEntity
  8
AM_0
100
AcDbLine
 10
-12.42739486694321
 20
-18.55336761474987
 30
0.0
 11
-14.63287925720223
 21
-16.37039947509987
 31
0.0
  0
LINE
  5
98CA
330
1F
100
AcDbEntity
  8
AM_0
100
AcDbLine
 10
-14.42891883850126
 20
-14.78675079345987
 30
0.0
 11
-11.13789367675821
 21
-18.04416656493987
 31
0.0
  0
LINE
  5
98CB
330
1F
100
AcDbEntity
  8
AM_0
100
AcDbLine
 10
-11.13789749145521
 20
-18.04416656493987
 30
0.0
 11
-12.42739486694321
 21
-18.55336761474987
 31
0.0
  0
LINE
  5
98CC
330
1F
100
AcDbEntity
  8
AM_0
100
AcDbLine
 10
-12.42739486694321
 20
-18.55336761474987
 30
0.0
 11
-12.48406028747621
 21
-18.71849822997987
 31
0.0
  0
LINE
  5
98CD
330
1F
100
AcDbEntity
  8
AM_0
100
AcDbLine
 10
-12.48405838012723
 20
-18.71849822997987
 30
0.0
 11
-9.540712356567212
 21
-19.91931915282987
 31
0.0
  0
LINE
  5
98CE
330
1F
100
AcDbEntity
  8
AM_0
100
AcDbLine
 10
-9.555570602417219
 20
-19.72502899169987
 30
0.0
 11
-9.540716171265216
 21
-19.91931915282987
 31
0.0
  0
LINE
  5
98CF
330
1F
100
AcDbEntity
  8
AM_0
100
AcDbLine
 10
-9.555562973022233
 20
-19.72502899169987
 30
0.0
 11
-10.61512565612821
 21
-18.25743865966987
 31
0.0
  0
LINE
  5
98D0
330
1F
100
AcDbEntity
  8
AM_0
100
AcDbLine
 10
-11.13790130615223
 20
-18.04416656493987
 30
0.0
 11
-10.61513710022023
 21
-18.25743865966987
 31
0.0
  0
LINE
  5
98D1
330
1F
100
AcDbEntity
  8
AM_0
100
AcDbLine
 10
-14.74445915222221
 20
-16.48116302489987
 30
0.0
 11
-14.63286972045921
 21
-16.37041473388987
 31
0.0
  0
LINE
  5
98D2
330
1F
100
AcDbEntity
  8
AM_0
100
AcDbLine
 10
-15.21463775634825
 20
-15.36296844481987
 30
0.0
 11
-14.74446296691922
 21
-16.48117828368987
 31
0.0
  0
LINE
  5
98D3
330
1F
100
AcDbEntity
  8
AM_0
100
AcDbLine
 10
-14.63287734985422
 20
-16.37041473388987
 30
0.0
 11
-14.42891883850126
 21
-14.78673553466987
 31
0.0
  0
LINE
  5
98D4
330
1F
100
AcDbEntity
  8
AM_0
100
AcDbLine
 10
-14.56486129760725
 20
-14.46343231200987
 30
0.0
 11
-14.42891883850126
 21
-14.78675079345987
 31
0.0
  0
LINE
  5
98D5
330
1F
100
AcDbEntity
  8
AM_0
100
AcDbLine
 10
-11.67435646057126
 20
-11.93160247802987
 30
0.0
 11
-11.66740608215326
 21
-13.12602996825987
 31
0.0
  0
LINE
  5
98D6
330
1F
100
AcDbEntity
  8
AM_0
100
AcDbLine
 10
-11.73048782348624
 20
-11.93192291259987
 30
0.0
 11
-11.67436027526926
 21
-11.93160247802987
 31
0.0
  0
LINE
  5
98D7
330
1F
100
AcDbEntity
  8
AM_0
100
AcDbLine
 10
-6.166667938232222
 20
-17.92026519774984
 30
0.0
 11
-6.166667938232251
 21
-14.07952117919984
 31
0.0
  0
LINE
  5
98D8
330
1F
100
AcDbEntity
  8
AM_0
100
AcDbLine
 10
-3.433361053467223
 20
-18.66584014892984
 30
0.0
 11
-1.199138641357222
 21
-16.40236663817984
 31
0.0
  0
LINE
  5
98D9
330
1F
100
AcDbEntity
  8
AM_0
100
AcDbLine
 10
-1.416667938232222
 20
-16.29352569579984
 30
0.0
 11
-3.596607208252237
 21
-18.50199127196984
 31
0.0
  0
LINE
  5
98DA
330
1F
100
AcDbEntity
  8
AM_0
100
AcDbLine
 10
-5.467622756958235
 20
-18.01117706298984
 30
0.0
 11
-2.214721679687244
 21
-14.71569061278984
 31
0.0
  0
LINE
  5
98DB
330
1F
100
AcDbEntity
  8
AM_0
100
AcDbLine
 10
-6.362527847290238
 20
-19.90082550048984
 30
0.0
 11
-3.433361053467223
 21
-18.66584014892984
 31
0.0
  0
LINE
  5
98DC
330
1F
100
AcDbEntity
  8
AM_0
100
AcDbLine
 10
-3.596599578857222
 20
-18.50199127196984
 30
0.0
 11
-5.467618942261225
 21
-18.01117706298984
 31
0.0
  0
LINE
  5
98DD
330
1F
100
AcDbEntity
  8
AM_0
100
AcDbLine
 10
-5.987880706787223
 20
-18.23052215575984
 30
0.0
 11
-6.454610824585216
 21
-19.70697784423984
 31
0.0
  0
LINE
  5
98DE
330
1F
100
AcDbEntity
  8
AM_0
100
AcDbLine
 10
-6.454605102539233
 20
-19.70699310302984
 30
0.0
 11
-6.36252975463924
 21
-19.90082550048984
 31
0.0
  0
LINE
  5
98DF
330
1F
100
AcDbEntity
  8
AM_0
100
AcDbLine
 10
-5.987880706787223
 20
-18.23052215575984
 30
0.0
 11
-5.467624664307237
 21
-18.01116180419984
 31
0.0
  0
LINE
  5
98E0
330
1F
100
AcDbEntity
  8
AM_0
100
AcDbLine
 10
-3.596611022949218
 20
-18.50199127196984
 30
0.0
 11
-3.433361053467223
 21
-18.66584014892984
 31
0.0
  0
LINE
  5
98E1
330
1F
100
AcDbEntity
  8
AM_0
100
AcDbLine
 10
-2.214721679687244
 20
-14.71569061278984
 30
0.0
 11
-1.416667938232222
 21
-16.29351043700984
 31
0.0
  0
LINE
  5
98E2
330
1F
100
AcDbEntity
  8
AM_0
100
AcDbLine
 10
-1.416667938232222
 20
-16.29352569579984
 30
0.0
 11
-1.199138641357222
 21
-16.40236663817984
 31
0.0
  0
LINE
  5
98E3
330
1F
100
AcDbEntity
  8
AM_0
100
AcDbLine
 10
-2.214725494385248
 20
-14.71569061278984
 30
0.0
 11
-2.001750946045262
 21
-14.19220733642984
 31
0.0
  0
LINE
  5
98E4
330
1F
100
AcDbEntity
  8
AM_0
100
AcDbLine
 10
-1.25186157226625
 20
-7.339241027829842
 30
0.0
 11
-2.400001525879247
 21
-6.202819824219858
 31
0.0
  0
LINE
  5
98E5
330
1F
100
AcDbEntity
  8
AM_0
100
AcDbLine
 10
-2.400005340576257
 20
-6.528228759769859
 30
0.0
 11
-1.468120574951257
 21
-7.450599670409843
 31
0.0
  0
LINE
  5
98E6
330
1F
100
AcDbEntity
  8
AM_0
100
AcDbLine
 10
-1.468120574951257
 20
-7.450599670409843
 30
0.0
 11
-1.25186157226625
 21
-7.339241027829842
 31
0.0
  0
LINE
  5
98E7
330
1F
100
AcDbEntity
  8
AM_0
100
AcDbLine
 10
-1.468120574951257
 20
-7.450614929199844
 30
0.0
 11
-2.247764587402258
 21
-9.037635803219842
 31
0.0
  0
LINE
  5
98E8
330
1F
100
AcDbEntity
  8
AM_0
100
AcDbLine
 10
-2.028701782227244
 20
-9.558601379389841
 30
0.0
 11
-2.247760772705248
 21
-9.037635803219842
 31
0.0
  0
LINE
  5
98E9
330
1F
100
AcDbEntity
  8
AM_0
100
AcDbLine
 10
-2.247760772705248
 20
-9.037620544429842
 30
0.0
 11
-2.400005340576257
 21
-8.886940002439843
 31
0.0
  0
LINE
  5
98EA
330
1F
100
AcDbEntity
  8
AM_0
100
AcDbLine
 10
-14.55623626709029
 20
1.612770080570129
 30
0.0
 11
-19.65798759460429
 21
1.642448425290126
 31
0.0
  0
ARC
  5
98EB
330
1F
100
AcDbEntity
  8
AM_0
100
AcDbCircle
 10
-7.998165130615291
 20
11.91020965576015
 30
0.0
 40
3.9000000953674
100
AcDbArc
 50
89.66666878241106
 51
269.6666601309897
  0
ARC
  5
98EC
330
1F
100
AcDbEntity
  8
AM_0
100
AcDbCircle
 10
-7.998165130615291
 20
11.91020965576015
 30
0.0
 40
3.9000000953674
100
AcDbArc
 50
269.6666706036496
 51
359.6666674785541
  0
LINE
  5
98ED
330
1F
100
AcDbEntity
  8
AM_0
100
AcDbLine
 10
-15.99632072448727
 20
10.36540985107012
 30
0.0
 11
-15.9778041839603
 21
13.54795837402011
 31
0.0
  0
LINE
  5
98EE
330
1F
100
AcDbEntity
  8
AM_0
100
AcDbLine
 10
-6.455612182617272
 20
3.901092529300143
 30
0.0
 11
-9.633789062500284
 21
3.919586181640141
 31
0.0
  0
LINE
  5
98EF
330
1F
100
AcDbEntity
  8
AM_0
100
AcDbLine
 10
-6.166669845581282
 20
1.563957214360158
 30
0.0
 11
-10.33555221557628
 21
1.588211059570141
 31
0.0
  0
LINE
  5
98F0
330
1F
100
AcDbEntity
  8
AM_0
100
AcDbLine
 10
-12.56296920776429
 20
5.15457153320014
 30
0.0
 11
-14.79719352722227
 21
7.418045043950115
 31
0.0
  0
LINE
  5
98F1
330
1F
100
AcDbEntity
  8
AM_0
100
AcDbLine
 10
-15.27045822143628
 20
6.575187683110129
 30
0.0
 11
-15.27917861938527
 21
5.075210571290114
 31
0.0
  0
LINE
  5
98F2
330
1F
100
AcDbEntity
  8
AM_0
100
AcDbLine
 10
-11.03020477294927
 20
1.592254638670141
 30
0.0
 11
-13.86158370971728
 21
1.60872650147013
 31
0.0
  0
LINE
  5
98F3
330
1F
100
AcDbEntity
  8
AM_0
100
AcDbLine
 10
-13.48212623596228
 20
5.01009368897013
 30
0.0
 11
-13.13894653320329
 21
5.008102416990141
 31
0.0
  0
LINE
  5
98F4
330
1F
100
AcDbEntity
  8
AM_0
100
AcDbLine
 10
-10.36628913879428
 20
4.228416442870127
 30
0.0
 11
-13.48656654357927
 21
4.246566772460141
 31
0.0
  0
LINE
  5
98F5
330
1F
100
AcDbEntity
  8
AM_0
100
AcDbLine
 10
-13.48657035827628
 20
4.246566772460141
 30
0.0
 11
-13.48213005065929
 21
5.01009368897013
 31
0.0
  0
LINE
  5
98F6
330
1F
100
AcDbEntity
  8
AM_0
100
AcDbLine
 10
-13.48212432861328
 20
5.01009368897013
 30
0.0
 11
-15.03467178344729
 21
5.019126892090127
 31
0.0
  0
LINE
  5
98F7
330
1F
100
AcDbEntity
  8
AM_0
100
AcDbLine
 10
-15.03434944152829
 20
5.073783874510127
 30
0.0
 11
-15.03466987609928
 21
5.019126892090127
 31
0.0
  0
LINE
  5
98F8
330
1F
100
AcDbEntity
  8
AM_0
100
AcDbLine
 10
-15.03434753418028
 20
5.073783874510127
 30
0.0
 11
-15.27917861938527
 21
5.075210571290114
 31
0.0
  0
LINE
  5
98F9
330
1F
100
AcDbEntity
  8
AM_0
100
AcDbLine
 10
-13.86158370971728
 20
1.60872650147013
 30
0.0
 11
-14.55624389648429
 21
1.612770080570129
 31
0.0
  0
LINE
  5
98FA
330
1F
100
AcDbEntity
  8
AM_0
100
AcDbLine
 10
-9.633798599243277
 20
3.919586181640141
 30
0.0
 11
-12.56297492981028
 21
5.154579162600128
 31
0.0
  0
LINE
  5
98FB
330
1F
100
AcDbEntity
  8
AM_0
100
AcDbLine
 10
-12.80446243286127
 20
5.006149291990141
 30
0.0
 11
-12.80218887329127
 21
5.39692687988014
 31
0.0
  0
LINE
  5
98FC
330
1F
100
AcDbEntity
  8
AM_0
100
AcDbLine
 10
-13.13894844055226
 20
5.008102416990141
 30
0.0
 11
-12.20262336731028
 21
5.002655029300143
 31
0.0
  0
LINE
  5
98FD
330
1F
100
AcDbEntity
  8
AM_0
100
AcDbLine
 10
-11.03021049499528
 20
1.592254638670141
 30
0.0
 11
-10.33555030822827
 21
1.588211059570141
 31
0.0
  0
LINE
  5
98FE
330
1F
100
AcDbEntity
  8
AM_0
100
AcDbLine
 10
-14.79718971252427
 20
7.418052673340127
 30
0.0
 11
-15.99631500244129
 21
10.36540985107012
 31
0.0
  0
LINE
  5
98FF
330
1F
100
AcDbEntity
  8
AM_0
100
AcDbLine
 10
-14.86015510559127
 20
7.572807312010127
 30
0.0
 11
-15.07571983337427
 21
7.574066162110142
 31
0.0
  0
LINE
  5
9900
330
1F
100
AcDbEntity
  8
AM_0
100
AcDbLine
 10
-15.22905540466328
 20
6.574943542480127
 30
0.0
 11
-15.27045822143628
 21
6.575187683110129
 31
0.0
  0
LINE
  5
9901
330
1F
100
AcDbEntity
  8
AM_0
100
AcDbLine
 10
-15.07571792602527
 20
7.574066162110142
 30
0.0
 11
-15.07268905639628
 21
8.095199584960113
 31
0.0
  0
LINE
  5
9902
330
1F
100
AcDbEntity
  8
AM_0
100
AcDbLine
 10
-15.15973854064927
 20
8.30917358398014
 30
0.0
 11
-15.16687202453627
 21
7.083175659180113
 31
0.0
  0
LINE
  5
9903
330
1F
100
AcDbEntity
  8
AM_0
100
AcDbLine
 10
-15.78805923461928
 20
6.578193664550127
 30
0.0
 11
-15.27046012878429
 21
6.575180053710113
 31
0.0
  0
LINE
  5
9904
330
1F
100
AcDbEntity
  8
AM_0
100
AcDbLine
 10
-15.76927375793528
 20
9.807350158690127
 30
0.0
 11
-15.78805732727127
 21
6.578193664550127
 31
0.0
  0
LINE
  5
9905
330
1F
100
AcDbEntity
  8
AM_0
100
AcDbLine
 10
-1.251865386963288
 20
7.339241027830155
 30
0.0
 11
-3.512275695801292
 21
5.101921081540155
 31
0.0
  0
LINE
  5
9906
330
1F
100
AcDbEntity
  8
AM_0
100
AcDbLine
 10
-2.400005340576285
 20
6.202827453610154
 30
0.0
 11
-2.400005340576285
 21
1.542175292970142
 31
0.0
  0
LINE
  5
9907
330
1F
100
AcDbEntity
  8
AM_0
100
AcDbLine
 10
-5.484666824341275
 20
1.55999755859014
 30
0.0
 11
-2.718002319336278
 21
1.54389953613014
 31
0.0
  0
LINE
  5
9908
330
1F
100
AcDbEntity
  8
AM_0
100
AcDbLine
 10
-3.512271881104283
 20
5.101921081540155
 30
0.0
 11
-6.455617904663284
 21
3.901092529300143
 31
0.0
  0
LINE
  5
9909
330
1F
100
AcDbEntity
  8
AM_0
100
AcDbLine
 10
-6.000003814697294
 20
4.086975097660143
 30
0.0
 11
-6.000003814697294
 21
2.563011169430154
 31
0.0
  0
LINE
  5
990A
330
1F
100
AcDbEntity
  8
AM_0
100
AcDbLine
 10
-6.000003814697294
 20
2.563011169430154
 30
0.0
 11
-6.000003814697294
 21
1.562988281250142
 31
0.0
  0
LINE
  5
990B
330
1F
100
AcDbEntity
  8
AM_0
100
AcDbLine
 10
-6.166664123535269
 20
1.563964843750142
 30
0.0
 11
-5.484668731689282
 21
1.55999755859014
 31
0.0
  0
LINE
  5
990C
330
1F
100
AcDbEntity
  8
AM_0
100
AcDbLine
 10
-2.784343719482279
 20
5.822418212890141
 30
0.0
 11
-2.784343719482279
 21
1.544403076170141
 31
0.0
  0
LINE
  5
990D
330
1F
100
AcDbEntity
  8
AM_0
100
AcDbLine
 10
-2.718006134033288
 20
1.54389953613014
 30
0.0
 11
-2.400001525879275
 21
1.542045593260155
 31
0.0
  0
LINE
  5
990E
330
1F
100
AcDbEntity
  8
AM_0
100
AcDbLine
 10
-9.540716171265302
 20
19.91931915283012
 30
0.0
 11
-6.362531661987304
 21
19.90082550049015
 31
0.0
  0
LINE
  5
990F
330
1F
100
AcDbEntity
  8
AM_0
100
AcDbLine
 10
-14.74446487426831
 20
16.48116302490012
 30
0.0
 11
-12.48405647277832
 21
18.71849060059014
 31
0.0
  0
LINE
  5
9910
330
1F
100
AcDbEntity
  8
AM_0
100
AcDbLine
 10
-15.9778060913093
 20
13.54795837402011
 30
0.0
 11
-14.74446678161629
 21
16.48117065430014
 31
0.0
  0
LINE
  5
9911
330
1F
100
AcDbEntity
  8
AM_0
100
AcDbLine
 10
-15.73527908325232
 20
15.65080261231011
 30
0.0
 11
-15.74428176879931
 21
14.10334014893012
 31
0.0
  0
LINE
  5
9912
330
1F
100
AcDbEntity
  8
AM_0
100
AcDbLine
 10
-12.48405838012732
 20
18.71849060059014
 30
0.0
 11
-9.540710449219318
 21
19.91931152344014
 31
0.0
  0
LINE
  5
9913
330
1F
100
AcDbEntity
  8
AM_0
100
AcDbLine
 10
-3.433361053467308
 20
18.66584014893015
 30
0.0
 11
-1.199138641357308
 21
16.40236663818015
 31
0.0
  0
ARC
  5
9914
330
1F
100
AcDbEntity
  8
AM_0
100
AcDbCircle
 10
-7.998165130615291
 20
11.91020965576015
 30
0.0
 40
3.894654989242599
100
AcDbArc
 50
359.6666674785541
 51
89.66666878241106
  0
LINE
  5
9915
330
1F
100
AcDbEntity
  8
AM_0
100
AcDbLine
 10
-6.362527847290323
 20
19.90082550049015
 30
0.0
 11
-3.433361053467308
 21
18.66584014893015
 31
0.0
  0
LINE
  5
9916
330
1F
100
AcDbEntity
  8
AM_0
100
AcDbLine
 10
-0.0000000000002558
 20
-13.45499420165984
 30
0.0
 11
-0.0185165405272585
 21
-10.27245330810984
 31
0.0
  0
LINE
  5
9917
330
1F
100
AcDbEntity
  8
AM_0
100
AcDbLine
 10
-0.2647361755372515
 20
-10.31255340575984
 30
0.0
 11
-0.2466773986822375
 21
-13.41776275634984
 31
0.0
  0
LINE
  5
9918
330
1F
100
AcDbEntity
  8
AM_0
100
AcDbLine
 10
-0.2466735839842613
 20
-13.41776275634984
 30
0.0
 11
-0.0000038146972372
 21
-13.45499420165984
 31
0.0
  0
LINE
  5
9919
330
1F
100
AcDbEntity
  8
AM_0
100
AcDbLine
 10
-0.2647323608402701
 20
-10.31255340575984
 30
0.0
 11
-0.0185203552252631
 21
-10.27245330810984
 31
0.0
  0
LINE
  5
991A
330
1F
100
AcDbEntity
  8
AM_0
100
AcDbLine
 10
-0.0000000000003126
 20
13.45500183106017
 30
0.0
 11
-0.0185165405272869
 21
10.27245330811015
 31
0.0
  0
LINE
  5
9A30
330
1F
100
AcDbEntity
  8
AM_11
100
AcDbLine
 10
-0.000000000000327
 20
20.00000000000015
 30
0.0
 11
-0.0000000000002272
 21
-19.99999999999983
 31
0.0
  0
LINE
  5
9A38
330
1F
100
AcDbEntity
  8
AM_11
100
AcDbLine
 10
-8.00000000000031
 20
20.00000000000014
 30
0.0
 11
-8.000000000000227
 21
-19.99999999999985
 31
0.0
  0
DIMENSION
  5
9A4C
330
1F
100
AcDbEntity
  8
AM_5
100
AcDbDimension
  2
*D5
 10
-0.0000000000002279
 20
-31.99999999999984
 30
0.0
 11
-85.00000190734722
 21
-30.44999999999983
 31
0.0
 70
    32
  1
<>
 51
359.9999999999998
  3
AM_JIS$0
100
AcDbAlignedDimension
 13
-170.0000038146942
 23
-15.46410369873018
 33
0.0
 14
-0.0000000000002272
 24
-19.99999999999983
 34
0.0
100
AcDbRotatedDimension
1001
GENIUS_GENDTOL_13
1000

1000
h7
1000

1040
0.0
1001
ACAD
1000
DSTYLE
1002
{
1070
   287
1070
     3
1070
    40
1040
0.5
1070
    42
1040
1.0
1070
    43
1040
12.0
1070
    48
1040
0.1
1070
    78
1070
     8
1070
   140
1040
3.2
1070
   176
1070
   256
1070
   177
1070
   256
1070
   271
1070
     1
1070
   272
1070
     3
1070
   275
1070
     0
1070
   284
1070
     0
1070
   289
1070
     3
1070
   340
1005
6B
1070
   371
1070
    -1
1070
   372
1070
    -1
1002
}
  0
DIMENSION
  5
9B69
330
1F
100
AcDbEntity
  8
AM_5
100
AcDbDimension
  2
*D6
 10
-8.000000000000298
 20
27.00000000000019
 30
0.0
 11
-4.000000000000303
 21
28.55000000000019
 31
0.0
 70
    32
  1
<>
 51
359.9999999999998
  3
AM_JIS$0
100
AcDbAlignedDimension
 13
-0.000000000000327
 23
20.00000000000015
 33
0.0
 14
-8.00000000000031
 24
20.00000000000014
 34
0.0
 50
180.0
100
AcDbRotatedDimension
1001
GENIUS_GENDTOL_13
1000

1000
h7
1000

1040
0.0
1001
ACAD
1000
DSTYLE
1002
{
1070
   287
1070
     3
1070
    40
1040
0.5
1070
    42
1040
1.0
1070
    43
1040
12.0
1070
    48
1040
0.1
1070
    78
1070
     8
1070
   140
1040
3.2
1070
   176
1070
   256
1070
   177
1070
   256
1070
   271
1070
     1
1070
   272
1070
     3
1070
   275
1070
     0
1070
   284
1070
     0
1070
   289
1070
     3
1070
   340
1005
6B
1070
   371
1070
    -1
1070
   372
1070
    -1
1002
}
  0
DIMENSION
  5
9C0F
330
1F
100
AcDbEntity
  8
AM_5
100
AcDbDimension
  2
*D7
 10
-49.99999999999926
 20
-26.99999999999984
 30
0.0
 11
-24.99999999999975
 21
-25.44999999999983
 31
0.0
 70
    32
  1
<>
 51
359.9999999999998
  3
AM_JIS$0
100
AcDbAlignedDimension
 13
-0.0000000000002416
 23
-19.82499999999984
 33
0.0
 14
-49.99999999999926
 24
-16.00000762938992
 34
0.0
100
AcDbRotatedDimension
1001
GENIUS_GENDTOL_13
1000

1000
h7
1000

1040
0.0
1001
ACAD
1000
DSTYLE
1002
{
1070
   287
1070
     3
1070
    40
1040
0.5
1070
    42
1040
1.0
1070
    43
1040
12.0
1070
    48
1040
0.1
1070
    78
1070
     8
1070
   140
1040
3.2
1070
   176
1070
   256
1070
   177
1070
   256
1070
   271
1070
     1
1070
   272
1070
     3
1070
   275
1070
     0
1070
   284
1070
     0
1070
   289
1070
     3
1070
   340
1005
6B
1070
   371
1070
    -1
1070
   372
1070
    -1
1002
}
  0
LINE
  5
9E51
330
1F
100
AcDbEntity
  8
AM_11
100
AcDbLine
 10
-8.000000000000326
 20
20.00000000000013
 30
0.0
 11
-0.0000000000003268
 21
20.00000000000016
 31
0.0
  0
LINE
  5
9E55
330
1F
100
AcDbEntity
  8
AM_11
100
AcDbLine
 10
-8.000000000000227
 20
-19.99999999999986
 30
0.0
 11
-0.0000000000002274
 21
-19.99999999999984
 31
0.0
  0
DIMENSION
  5
9E78
330
1F
100
AcDbEntity
  8
AM_5
100
AcDbDimension
  2
*D8
 10
6.999999999999776
 20
-19.99999999999984
 30
0.0
 11
5.44999999999978
 21
0.0000000000001614
 31
0.0
 70
    32
  1
%%c<>
 51
359.9999999999998
  3
AM_JIS$0
100
AcDbAlignedDimension
 13
-0.0000000000003268
 23
20.00000000000016
 33
0.0
 14
-0.0000000000002274
 24
-19.99999999999984
 34
0.0
 50
90.0
100
AcDbRotatedDimension
1001
GENIUS_GENDTOL_13
1000

1000
h7
1000

1040
0.0
1001
ACAD
1000
DSTYLE
1002
{
1070
   287
1070
     3
1070
    40
1040
0.5
1070
    42
1040
1.0
1070
    43
1040
12.0
1070
    48
1040
0.1
1070
    78
1070
     8
1070
   140
1040
3.2
1070
   176
1070
   256
1070
   177
1070
   256
1070
   272
1070
     3
1070
   275
1070
     0
1070
   284
1070
     0
1070
   289
1070
     3
1070
   340
1005
6B
1070
   371
1070
    -1
1070
   372
1070
    -1
1002
}
  0
DIMENSION
  5
9F43
330
1F
100
AcDbEntity
  8
AM_5
100
AcDbDimension
  2
*D9
 10
-170.0000038146942
 20
-26.99999999999984
 30
0.0
 11
-110.0000019073467
 21
-25.44999999999983
 31
0.0
 70
    32
  1
<>
 51
359.9999999999998
  3
AM_JIS$0
100
AcDbAlignedDimension
 13
-49.99999999999926
 23
-16.00000762938992
 33
0.0
 14
-170.0000038146942
 24
-15.46410369873018
 34
0.0
100
AcDbRotatedDimension
1001
GENIUS_GENDTOL_13
1000

1000
h7
1000

1040
0.0
1001
ACAD
1000
DSTYLE
1002
{
1070
   287
1070
     3
1070
    40
1040
0.5
1070
    42
1040
1.0
1070
    43
1040
12.0
1070
    48
1040
0.1
1070
    78
1070
     8
1070
   140
1040
3.2
1070
   176
1070
   256
1070
   177
1070
   256
1070
   271
1070
     1
1070
   272
1070
     3
1070
   275
1070
     0
1070
   284
1070
     0
1070
   289
1070
     3
1070
   340
1005
6B
1070
   371
1070
    -1
1070
   372
1070
    -1
1002
}
  0
DIMENSION
  5
A00E
330
1F
100
AcDbEntity
  8
AM_5
100
AcDbDimension
  2
*D10
 10
-177.0000038146942
 20
-15.99999237061021
 30
0.0
 11
-178.5500038146942
 21
0.0000038146947667
 31
0.0
 70
    32
  1
%%c<>
 51
359.9999999999998
  3
AM_JIS$0
100
AcDbAlignedDimension
 13
-168.0000038146943
 23
15.9999999999998
 33
0.0
 14
-168.0000038146942
 24
-15.99999237061021
 34
0.0
 50
270.0
100
AcDbRotatedDimension
1001
GENIUS_GENDTOL_13
1000

1000
h7
1000

1040
0.0
1001
ACAD
1000
DSTYLE
1002
{
1070
   287
1070
     3
1070
    40
1040
0.5
1070
    42
1040
1.0
1070
    43
1040
12.0
1070
    48
1040
0.1
1070
    78
1070
     8
1070
   140
1040
3.2
1070
   176
1070
   256
1070
   177
1070
   256
1070
   271
1070
     1
1070
   272
1070
     3
1070
   275
1070
     0
1070
   284
1070
     0
1070
   289
1070
     3
1070
   340
1005
6B
1070
   371
1070
    -1
1070
   372
1070
    -1
1002
}
  0
DIMENSION
  5
A0E8
330
1F
100
AcDbEntity
  8
AM_5
100
AcDbDimension
  2
*D11
 10
-37.83159504029084
 20
-15.66184234618993
 30
0.0
 11
-37.83159504029084
 21
4.140474635156294
 31
0.0
 70
   160
  1
%%c<>
 51
359.9999999999998
  3
AM_JIS$0
100
AcDbAlignedDimension
 13
-49.66183853149331
 23
15.66183471680005
 33
0.0
 14
-49.66183853149326
 24
-15.66184234618993
 34
0.0
 50
90.00000000000003
100
AcDbRotatedDimension
1001
GENIUS_GENDTOL_13
1000

1000
h7
1000

1040
0.0
1001
ACAD
1000
DSTYLE
1002
{
1070
   287
1070
     3
1070
    76
1070
     1
1070
    75
1070
     1
1070
    40
1040
0.5
1070
    42
1040
1.0
1070
    43
1040
12.0
1070
    48
1040
0.1
1070
    78
1070
     8
1070
   140
1040
3.2
1070
   176
1070
   256
1070
   177
1070
   256
1070
   271
1070
     1
1070
   272
1070
     3
1070
   275
1070
     0
1070
   284
1070
     0
1070
   289
1070
     3
1070
   340
1005
6B
1070
   371
1070
    -1
1070
   372
1070
    -1
1002
}
  0
VIEWPORT
  5
110
330
101
100
AcDbEntity
 67
     1
  8
0
100
AcDbViewport
 10
420.5
 20
297.0
 30
0.0
 40
948.9782706766916
 41
628.452
 68
     1
 69
     1
1001
ACAD
1000
MVIEW
1002
{
1070
    16
1010
0.0
1020
0.0
1030
0.0
1010
0.0
1020
0.0
1030
1.0
1040
0.0
1040
628.452
1040
420.5
1040
297.0
1040
50.0
1040
0.0
1040
0.0
1070
     0
1070
   100
1070
     1
1070
     1
1070
     0
1070
     0
1070
     0
1070
     0
1040
0.0
1040
0.0
1040
0.0
1040
10.0
1040
10.0
1040
10.0
1040
10.0
1070
     0
1002
{
1002
}
1002
}
  0
ENDSEC
  0
SECTION
  2
OBJECTS
  0
DICTIONARY
  5
C
330
0
100
AcDbDictionary
  3
ACAD_GROUP
350
D
  3
ACAD_LAYOUT
350
1A
  3
ACAD_MLINESTYLE
350
17
  3
ACAD_PLOTSETTINGS
350
19
  3
ACAD_PLOTSTYLENAME
350
E
  3
ACDBVARIABLEDICTIONARY
350
34
  3
ACMDICTIONARY
350
43
  3
AMG
350
2B
  3
AMGSNAPSETTINGS
350
6E
  3
DWGPROPS
350
A35A
  3
ACDBHEADERROUNDTRIPXREC
350
A366
  0
DICTIONARY
  5
74
330
1F
100
AcDbDictionary
280
     1
  3
ACAD_INDEX
360
A35C
  3
ACAD_LAYOUTSELFREF
360
A389
  0
DICTIONARY
  5
A38E
330
101
100
AcDbDictionary
280
     1
  3
ACAD_LAYOUTSELFREF
360
A38F
  0
DICTIONARY
  5
D
102
{ACAD_REACTORS
330
C
102
}
330
C
100
AcDbDictionary
  0
DICTIONARY
  5
1A
102
{ACAD_REACTORS
330
C
102
}
330
C
100
AcDbDictionary
  0
DICTIONARY
  5
17
102
{ACAD_REACTORS
330
C
102
}
330
C
100
AcDbDictionary
  3
STANDARD
350
18
  0
DICTIONARY
  5
19
102
{ACAD_REACTORS
330
C
102
}
330
C
100
AcDbDictionary
  3
ASAMI
350
399D
  0
ACDBDICTIONARYWDFLT
  5
E
102
{ACAD_REACTORS
330
C
102
}
330
C
100
AcDbDictionary
281
     1
  3
Normal
350
F
100
AcDbDictionaryWithDefault
340
F
  0
DICTIONARY
  5
34
102
{ACAD_REACTORS
330
C
102
}
330
C
100
AcDbDictionary
  3
INDEXCTL
350
35
  3
SORTENTS
350
B5E
  0
DICTIONARY
  5
43
102
{ACAD_REACTORS
330
C
102
}
330
C
100
AcDbDictionary
  3
ACMSTDDICTIONARY
350
260
  0
DICTIONARY
  5
2B
102
{ACAD_REACTORS
330
C
102
}
330
C
100
AcDbDictionary
  3
ACMGSETTINGS
350
2C
  0
DICTIONARY
  5
6E
102
{ACAD_REACTORS
330
C
102
}
330
C
100
AcDbDictionary
  0
XRECORD
  5
A35A
102
{ACAD_REACTORS
330
C
102
}
330
C
100
AcDbXrecord
  1
DWGPROPS COOKIE
  2

  3

  4

  6

  7

  8

  9

300
AmdtFileType=82
301
=
302
=
303
=
304
=
305
=
306
=
307
=
308
=
309
=
 40
0.922476412037037
 41
2452802.716478761
 42
2453075.691740081
  1

 90
        1
  0
DICTIONARY
  5
A366
102
{ACAD_REACTORS
330
C
102
}
330
C
100
AcDbDictionary
  3
TSTACKALIGN
350
A367
  3
TSTACKSIZE
350
A368
  3
HYPERLINKBASE
350
A369
  3
STYLESHEET
350
A36A
  3
LAYOUTDICT
350
A36B
  3
PLOTSETDICT
350
A36C
  3
PLOTSTYLNAMDICT
350
A36D
  3
LWETCUNION
350
A36E
  3
INSUNITS
350
A36F
  3
CEPSNTYPE
350
A370
  3
FINGERPRINTGUID
350
A371
  3
VERSIONGUID
350
A372
  3
PSVPSCALE
350
A373
  3
DIMSTYLEDATA
350
A374
  3
PUCSORTHOREF
350
A375
  3
PUCSORTHOVIEW
350
A376
  3
PUCSBASE
350
A377
  3
PUCSORGTOP
350
A378
  3
PUCSORGBOTTOM
350
A379
  3
PUCSORGLEFT
350
A37A
  3
PUCSORGRIGHT
350
A37B
  3
PUCSORGFRONT
350
A37C
  3
PUCSORGBACK
350
A37D
  3
UCSORTHOREF
350
A37E
  3
UCSORTHOVIEW
350
A37F
  3
UCSBASE
350
A380
  3
UCSORGTOP
350
A381
  3
UCSORGBOTTOM
350
A382
  3
UCSORGLEFT
350
A383
  3
UCSORGRIGHT
350
A384
  3
UCSORGFRONT
350
A385
  3
UCSORGBACK
350
A386
  0
DICTIONARY
  5
A35C
102
{ACAD_REACTORS
330
74
102
}
330
74
100
AcDbDictionary
  3
*A1
350
A35D
  0
XRECORD
  5
A389
102
{ACAD_REACTORS
330
74
102
}
330
74
100
AcDbXrecord
340
1F
  0
XRECORD
  5
A38F
102
{ACAD_REACTORS
330
A38E
102
}
330
A38E
100
AcDbXrecord
340
101
  0
MLINESTYLE
  5
18
102
{ACAD_REACTORS
330
17
102
}
330
17
100
AcDbMlineStyle
  2
STANDARD
 70
     0
  3

 62
   256
 51
90.0
 52
90.0
 71
     2
 49
0.5
 62
   256
  6
BYLAYER
 49
-0.5
 62
   256
  6
BYLAYER
  0
PLOTSETTINGS
  5
399D
102
{ACAD_REACTORS
330
19
102
}
330
19
100
AcDbPlotSettings
  1
asami
  2
RICOH imagio MF1540
  4
A4
  6

 40
5.831416606903076
 41
7.651742935180664
 42
4.90008544921875
 43
5.789077758789062
 44
296.9683227539062
 45
209.9733276367187
 46
0.0
 47
0.0
 48
-156.6707931774246
 49
-74.57609991074048
140
58.59973180214831
141
60.61068161925596
142
1.0
143
1.095343097833084
 70
  1712
 72
     1
 73
     1
 74
     4
  7
asami.ctb
 75
     0
147
0.9129559514076438
148
156.6707931774246
149
74.57609991074048
  0
ACDBPLACEHOLDER
  5
F
102
{ACAD_REACTORS
330
E
102
}
330
E
100
AcDbPlaceHolder
280
     0
  0
DICTIONARYVAR
  5
35
102
{ACAD_REACTORS
330
34
102
}
330
34
100
DictionaryVariables
280
     0
  1
1
  0
DICTIONARYVAR
  5
B5E
102
{ACAD_REACTORS
330
34
102
}
330
34
100
DictionaryVariables
280
     0
  1
96
  0
DICTIONARY
  5
260
102
{ACAD_REACTORS
330
43
102
}
330
43
100
AcDbDictionary
  0
DICTIONARY
  5
2C
102
{ACAD_REACTORS
330
2B
102
}
330
2B
100
AcDbDictionary
  3
DWGSETTINGS
350
2D
  0
XRECORD
  5
A367
102
{ACAD_REACTORS
330
A366
102
}
330
A366
100
AcDbXrecord
 90
        1
  0
XRECORD
  5
A368
102
{ACAD_REACTORS
330
A366
102
}
330
A366
100
AcDbXrecord
 90
       70
  0
XRECORD
  5
A369
102
{ACAD_REACTORS
330
A366
102
}
330
A366
100
AcDbXrecord
  1

  0
XRECORD
  5
A36A
102
{ACAD_REACTORS
330
A366
102
}
330
A366
100
AcDbXrecord
  1
ASAMI.ctb
  0
XRECORD
  5
A36B
102
{ACAD_REACTORS
330
A366
102
}
330
A366
100
AcDbXrecord
340
1A
  0
XRECORD
  5
A36C
102
{ACAD_REACTORS
330
A366
102
}
330
A366
100
AcDbXrecord
340
19
  0
XRECORD
  5
A36D
102
{ACAD_REACTORS
330
A366
102
}
330
A366
100
AcDbXrecord
340
E
  0
XRECORD
  5
A36E
102
{ACAD_REACTORS
330
A366
102
}
330
A366
100
AcDbXrecord
 90
    10781
  0
XRECORD
  5
A36F
102
{ACAD_REACTORS
330
A366
102
}
330
A366
100
AcDbXrecord
 90
        4
  0
XRECORD
  5
A370
102
{ACAD_REACTORS
330
A366
102
}
330
A366
100
AcDbXrecord
 90
        0
  0
XRECORD
  5
A371
102
{ACAD_REACTORS
330
A366
102
}
330
A366
100
AcDbXrecord
  1
{AFB28963-8C59-40AE-9337-C84526B81ACE}
  0
XRECORD
  5
A372
102
{ACAD_REACTORS
330
A366
102
}
330
A366
100
AcDbXrecord
  1
{F8B2C0B3-26FC-485C-8750-3075FBACA190}
  0
XRECORD
  5
A373
102
{ACAD_REACTORS
330
A366
102
}
330
A366
100
AcDbXrecord
 40
0.0
  0
XRECORD
  5
A374
102
{ACAD_REACTORS
330
A366
102
}
330
A366
100
AcDbXrecord
1000
DSTYLE
1002
{
1070
    79
 70
     2
1070
   341
340
59
1070
   342
340
59
1070
   371
 70
    -1
1070
   372
 70
    -1
1002
}
  0
XRECORD
  5
A375
102
{ACAD_REACTORS
330
A366
102
}
330
A366
100
AcDbXrecord
340
0
  0
XRECORD
  5
A376
102
{ACAD_REACTORS
330
A366
102
}
330
A366
100
AcDbXrecord
 70
     0
  0
XRECORD
  5
A377
102
{ACAD_REACTORS
330
A366
102
}
330
A366
100
AcDbXrecord
340
0
  0
XRECORD
  5
A378
102
{ACAD_REACTORS
330
A366
102
}
330
A366
100
AcDbXrecord
 10
0.0
 20
0.0
 30
0.0
  0
XRECORD
  5
A379
102
{ACAD_REACTORS
330
A366
102
}
330
A366
100
AcDbXrecord
 10
0.0
 20
0.0
 30
0.0
  0
XRECORD
  5
A37A
102
{ACAD_REACTORS
330
A366
102
}
330
A366
100
AcDbXrecord
 10
0.0
 20
0.0
 30
0.0
  0
XRECORD
  5
A37B
102
{ACAD_REACTORS
330
A366
102
}
330
A366
100
AcDbXrecord
 10
0.0
 20
0.0
 30
0.0
  0
XRECORD
  5
A37C
102
{ACAD_REACTORS
330
A366
102
}
330
A366
100
AcDbXrecord
 10
0.0
 20
0.0
 30
0.0
  0
XRECORD
  5
A37D
102
{ACAD_REACTORS
330
A366
102
}
330
A366
100
AcDbXrecord
 10
0.0
 20
0.0
 30
0.0
  0
XRECORD
  5
A37E
102
{ACAD_REACTORS
330
A366
102
}
330
A366
100
AcDbXrecord
340
0
  0
XRECORD
  5
A37F
102
{ACAD_REACTORS
330
A366
102
}
330
A366
100
AcDbXrecord
 70
     0
  0
XRECORD
  5
A380
102
{ACAD_REACTORS
330
A366
102
}
330
A366
100
AcDbXrecord
340
0
  0
XRECORD
  5
A381
102
{ACAD_REACTORS
330
A366
102
}
330
A366
100
AcDbXrecord
 10
0.0
 20
0.0
 30
0.0
  0
XRECORD
  5
A382
102
{ACAD_REACTORS
330
A366
102
}
330
A366
100
AcDbXrecord
 10
0.0
 20
0.0
 30
0.0
  0
XRECORD
  5
A383
102
{ACAD_REACTORS
330
A366
102
}
330
A366
100
AcDbXrecord
 10
0.0
 20
0.0
 30
0.0
  0
XRECORD
  5
A384
102
{ACAD_REACTORS
330
A366
102
}
330
A366
100
AcDbXrecord
 10
0.0
 20
0.0
 30
0.0
  0
XRECORD
  5
A385
102
{ACAD_REACTORS
330
A366
102
}
330
A366
100
AcDbXrecord
 10
0.0
 20
0.0
 30
0.0
  0
XRECORD
  5
A386
102
{ACAD_REACTORS
330
A366
102
}
330
A366
100
AcDbXrecord
 10
0.0
 20
0.0
 30
0.0
  0
LAYER_INDEX
  5
A35D
102
{ACAD_REACTORS
330
A35C
102
}
330
A35C
100
AcDbIndex
 40
2453152.379457916
100
AcDbLayerIndex
  8
0
360
A35E
 90
        0
  8
AM_0
360
A35F
 90
      156
  8
AM_5
360
A360
 90
        7
  8
AM_7
360
A361
 90
        1
  8
AM_6
360
A362
 90
        1
  8
Defpoints
360
A363
 90
        0
  8
AM_11
360
A364
 90
        4
  0
XRECORD
  5
2D
102
{ACAD_REACTORS
330
2C
102
}
330
2C
100
AcDbXrecord
  1
VERSION
140
15.0
  1
PRODUCT
  2
AutoCAD Mechanical 2000
  0
IDBUFFER
  5
A35E
330
0
100
AcDbIdBuffer
  0
IDBUFFER
  5
A35F
330
0
100
AcDbIdBuffer
330
98EF
330
98F0
330
98F1
330
98F2
330
98F3
330
98F4
330
98F5
330
98F6
330
98F7
330
98F8
330
98F9
330
98FA
330
98FB
330
98FC
330
98FD
330
98FE
330
98FF
330
9900
330
9901
330
9902
330
9903
330
9904
330
9905
330
9906
330
9907
330
9908
330
9909
330
990A
330
990B
330
990C
330
990D
330
990E
330
990F
330
9910
330
9911
330
9912
330
9913
330
9914
330
9915
330
9916
330
9917
330
9918
330
9919
330
991A
330
9846
330
9847
330
9849
330
984A
330
984C
330
984D
330
984F
330
9851
330
9852
330
9854
330
9855
330
985B
330
985C
330
985E
330
985F
330
9860
330
9861
330
9862
330
9863
330
9864
330
9865
330
9866
330
9867
330
9868
330
9869
330
986A
330
986B
330
986C
330
986D
330
986E
330
986F
330
9870
330
9871
330
9872
330
9873
330
9874
330
9875
330
9876
330
9877
330
9878
330
9879
330
987A
330
987B
330
987C
330
987D
330
987E
330
98AC
330
98AD
330
98AE
330
98AF
330
98B0
330
98B1
330
98B3
330
98B4
330
98B5
330
98B6
330
98B7
330
98B8
330
98B9
330
98BA
330
98BB
330
98BC
330
98BD
330
98BE
330
98BF
330
98C0
330
98C1
330
98C2
330
98C3
330
98C4
330
98C5
330
98C6
330
98C7
330
98C8
330
98C9
330
98CA
330
98CB
330
98CC
330
98CD
330
98CE
330
98CF
330
98D0
330
98D1
330
98D2
330
98D3
330
98D4
330
98D5
330
98D6
330
98D7
330
98D8
330
98D9
330
98DA
330
98DB
330
98DC
330
98DD
330
98DE
330
98DF
330
98E0
330
98E1
330
98E2
330
98E3
330
98E4
330
98E5
330
98E6
330
98E7
330
98E8
330
98E9
330
98EA
330
98EB
330
98EC
330
98ED
330
98EE
  0
IDBUFFER
  5
A360
330
0
100
AcDbIdBuffer
330
9A4C
330
9B69
330
9C0F
330
9E78
330
9F43
330
A00E
330
A0E8
  0
IDBUFFER
  5
A361
330
0
100
AcDbIdBuffer
330
984E
  0
IDBUFFER
  5
A362
330
0
100
AcDbIdBuffer
330
388D
  0
IDBUFFER
  5
A363
330
0
100
AcDbIdBuffer
  0
IDBUFFER
  5
A364
330
0
100
AcDbIdBuffer
330
9A30
330
9A38
330
9E51
330
9E55
  0
ENDSEC
  0
EOF
