  0
SECTION
  2
HEADER
  9
$ACADVER
  1
AC1014
  9
$ACADMAINTVER
 70
     9
  9
$DWGCODEPAGE
  3
ANSI_932
  9
$INSBASE
 10
0.0
 20
0.0
 30
0.0
  9
$EXTMIN
 10
-179.3499999999942
 20
-48.25000000000003
 30
-0.00000001
  9
$EXTMAX
 10
7.499999999999776
 20
34.35000000000017
 30
0.00000001
  9
$LIMMIN
 10
-194.3413815669785
 20
-102.2866199357921
  9
$LIMMAX
 10
98.51573600986377
 20
81.89981958777911
  9
$ORTHOMODE
 70
     0
  9
$REGENMODE
 70
     1
  9
$FILLMODE
 70
     1
  9
$QTEXTMODE
 70
     0
  9
$MIRRTEXT
 70
     0
  9
$DRAGMODE
 70
     2
  9
$LTSCALE
 40
1.0
  9
$OSMODE
 70
    55
  9
$ATTMODE
 70
     1
  9
$TEXTSIZE
 40
2.5
  9
$TRACEWID
 40
1.0
  9
$TEXTSTYLE
  7
STANDARD
  9
$CLAYER
  8
AM_0
  9
$CELTYPE
  6
BYLAYER
  9
$CECOLOR
 62
   256
  9
$CELTSCALE
 40
1.0
  9
$DELOBJ
 70
     1
  9
$DISPSILH
 70
     0
  9
$DIMSCALE
 40
0.5
  9
$DIMASZ
 40
2.5
  9
$DIMEXO
 40
1.0
  9
$DIMDLI
 40
12.0
  9
$DIMRND
 40
0.0
  9
$DIMDLE
 40
0.0
  9
$DIMEXE
 40
1.0
  9
$DIMTP
 40
0.1
  9
$DIMTM
 40
0.1
  9
$DIMTXT
 40
3.2
  9
$DIMCEN
 40
0.0
  9
$DIMTSZ
 40
0.0
  9
$DIMTOL
 70
     0
  9
$DIMLIM
 70
     0
  9
$DIMTIH
 70
     0
  9
$DIMTOH
 70
     0
  9
$DIMSE1
 70
     0
  9
$DIMSE2
 70
     0
  9
$DIMTAD
 70
     3
  9
$DIMZIN
 70
     8
  9
$DIMBLK
  1
OPEN30
  9
$DIMASO
 70
     1
  9
$DIMSHO
 70
     1
  9
$DIMPOST
  1

  9
$DIMAPOST
  1
"
  9
$DIMALT
 70
     0
  9
$DIMALTD
 70
     2
  9
$DIMALTF
 40
0.0393701
  9
$DIMLFAC
 40
1.0
  9
$DIMTOFL
 70
     1
  9
$DIMTVP
 40
0.0
  9
$DIMTIX
 70
     0
  9
$DIMSOXD
 70
     0
  9
$DIMSAH
 70
     0
  9
$DIMBLK1
  1

  9
$DIMBLK2
  1

  9
$DIMSTYLE
  2
AM_JIS
  9
$DIMCLRD
 70
   256
  9
$DIMCLRE
 70
   256
  9
$DIMCLRT
 70
     2
  9
$DIMTFAC
 40
0.71
  9
$DIMGAP
 40
1.5
  9
$DIMJUST
 70
     0
  9
$DIMSD1
 70
     0
  9
$DIMSD2
 70
     0
  9
$DIMTOLJ
 70
     0
  9
$DIMTZIN
 70
     0
  9
$DIMALTZ
 70
     0
  9
$DIMALTTZ
 70
     0
  9
$DIMFIT
 70
     3
  9
$DIMUPT
 70
     0
  9
$DIMUNIT
 70
     2
  9
$DIMDEC
 70
     3
  9
$DIMTDEC
 70
     3
  9
$DIMALTU
 70
     2
  9
$DIMALTTD
 70
     2
  9
$DIMTXSTY
  7
ASAMI
  9
$DIMAUNIT
 70
     0
  9
$LUNITS
 70
     2
  9
$LUPREC
 70
     2
  9
$SKETCHINC
 40
1.0
  9
$FILLETRAD
 40
0.4
  9
$AUNITS
 70
     0
  9
$AUPREC
 70
     0
  9
$MENU
  1
.
  9
$ELEVATION
 40
0.0
  9
$PELEVATION
 40
0.0
  9
$THICKNESS
 40
0.0
  9
$LIMCHECK
 70
     1
  9
$BLIPMODE
 70
     0
  9
$CHAMFERA
 40
1.0
  9
$CHAMFERB
 40
1.0
  9
$CHAMFERC
 40
20.0
  9
$CHAMFERD
 40
0.0
  9
$SKPOLY
 70
     0
  9
$TDCREATE
 40
2452802.716478761
  9
$TDUPDATE
 40
2453152.377761007
  9
$TDINDWG
 40
0.9356398495
  9
$TDUSRTIMER
 40
0.9356398495
  9
$USRTIMER
 70
     1
  9
$ANGBASE
 50
0.0
  9
$ANGDIR
 70
     0
  9
$PDMODE
 70
     0
  9
$PDSIZE
 40
0.0
  9
$PLINEWID
 40
0.0
  9
$COORDS
 70
     1
  9
$SPLFRAME
 70
     0
  9
$SPLINETYPE
 70
     6
  9
$SPLINESEGS
 70
     8
  9
$ATTDIA
 70
     1
  9
$ATTREQ
 70
     1
  9
$HANDLING
 70
 12289
  9
$HANDSEED
  5
C094
  9
$SURFTAB1
 70
     6
  9
$SURFTAB2
 70
     6
  9
$SURFTYPE
 70
     6
  9
$SURFU
 70
     6
  9
$SURFV
 70
     6
  9
$UCSNAME
  2

  9
$UCSORG
 10
-0.0000000000002682
 20
0.000000000000161
 30
0.0
  9
$UCSXDIR
 10
1.0
 20
0.000000000000002
 30
0.0
  9
$UCSYDIR
 10
-0.000000000000002
 20
1.0
 30
0.0
  9
$PUCSNAME
  2

  9
$PUCSORG
 10
0.0
 20
0.0
 30
0.0
  9
$PUCSXDIR
 10
1.0
 20
0.0
 30
0.0
  9
$PUCSYDIR
 10
0.0
 20
1.0
 30
0.0
  9
$USERI1
 70
     0
  9
$USERI2
 70
     0
  9
$USERI3
 70
     0
  9
$USERI4
 70
     0
  9
$USERI5
 70
     0
  9
$USERR1
 40
0.0
  9
$USERR2
 40
0.0
  9
$USERR3
 40
0.0
  9
$USERR4
 40
0.0
  9
$USERR5
 40
0.0
  9
$WORLDVIEW
 70
     1
  9
$SHADEDGE
 70
     3
  9
$SHADEDIF
 70
    70
  9
$TILEMODE
 70
     1
  9
$MAXACTVP
 70
    64
  9
$PINSBASE
 10
0.0
 20
0.0
 30
0.0
  9
$PLIMCHECK
 70
     0
  9
$PEXTMIN
 10
1.000000000000000E+20
 20
1.000000000000000E+20
 30
1.000000000000000E+20
  9
$PEXTMAX
 10
-1.000000000000000E+20
 20
-1.000000000000000E+20
 30
-1.000000000000000E+20
  9
$PLIMMIN
 10
0.0
 20
0.0
  9
$PLIMMAX
 10
841.0
 20
594.0
  9
$UNITMODE
 70
     0
  9
$VISRETAIN
 70
     1
  9
$PLINEGEN
 70
     0
  9
$PSLTSCALE
 70
     0
  9
$TREEDEPTH
 70
  3020
  9
$PICKSTYLE
 70
     0
  9
$CMLSTYLE
  2
STANDARD
  9
$CMLJUST
 70
     0
  9
$CMLSCALE
 40
20.0
  9
$PROXYGRAPHICS
 70
     1
  9
$MEASUREMENT
 70
     1
  0
ENDSEC
  0
SECTION
  2
CLASSES
  0
CLASS
  1
ACDBDICTIONARYWDFLT
  2
AcDbDictionaryWithDefault
  3
AutoCAD 2000
 90
        0
280
     0
281
     0
  0
CLASS
  1
ACDBPLACEHOLDER
  2
AcDbPlaceHolder
  3
AutoCAD 2000
 90
        0
280
     0
281
     0
  0
CLASS
  1
LAYOUT
  2
AcDbLayout
  3
AutoCAD 2000
 90
        0
280
     0
281
     0
  0
CLASS
  1
AMGSETTINGSOBJ
  2
AmgSettingsObj
  3
"AcadM|Product Description: AutoCAD Mechanical 2000|Company: Autodesk"
 90
        0
280
     0
281
     0
  0
CLASS
  1
ACME_DOCUMENT
  2
AcMeDbDoc
  3
AcMeServices
 90
        0
280
     0
281
     0
  0
CLASS
  1
ACMESCOPE
  2
AcMeScope
  3
AcMeServices
 90
        0
280
     0
281
     0
  0
CLASS
  1
ACMECOMMANDHISTORY
  2
AcMeCommandHistory
  3
AcMeServices
 90
        0
280
     0
281
     0
  0
CLASS
  1
DICTIONARYVAR
  2
AcDbDictionaryVar
  3
AutoCAD 2000
 90
        0
280
     0
281
     0
  0
CLASS
  1
ACIMSYSVARMAN
  2
AcImSysVarManager
  3
AcMeServices
 90
        0
280
     0
281
     0
  0
CLASS
  1
ACIMREALSYSVAR
  2
AcImRealSysVar
  3
AcMeServices
 90
        0
280
     0
281
     0
  0
CLASS
  1
ACIMINTSYSVAR
  2
AcImIntSysVar
  3
AcMeServices
 90
        0
280
     0
281
     0
  0
CLASS
  1
ACMEDRAWINGMAN
  2
AcMeDrawingMan
  3
AcMeServices
 90
        0
280
     0
281
     0
  0
CLASS
  1
ACMEVIEW
  2
AcMeView
  3
AcMeServices
 90
        0
280
     0
281
     0
  0
CLASS
  1
ACDBENTITYCACHE
  2
AcMeEntityCache
  3
AcMeServices
 90
        0
280
     0
281
     0
  0
CLASS
  1
GSMANAGER
  2
AcMeGSManager
  3
AcMeServices
 90
        0
280
     0
281
     0
  0
CLASS
  1
AmdtInternalReactor
  2
AmdtInternalReactor
  3
AcMeServices
 90
        0
280
     0
281
     0
  0
CLASS
  1
ACMESTATEMGR
  2
AcMeStateMgr
  3
AcMeServices
 90
        0
280
     0
281
     0
  0
CLASS
  1
ACME_DATABASE
  2
AcMeDbDatabase
  3
AcMeServices
 90
        0
280
     0
281
     0
  0
CLASS
  1
ACRFINSADJUSTERMGR
  2
AcRfInsAdjusterMgr
  3
AcMeServices
 90
        0
280
     0
281
     0
  0
CLASS
  1
ACMDATADICTIONARY
  2
AcmDataDictionary
  3
"AcmSymBB|Product Description: AutoCAD Mechanical 2000|Company: Autodesk"
 90
        0
280
     0
281
     0
  0
CLASS
  1
ACMDATAENTRYBLOCK
  2
AcmDataEntryBlock
  3
"AcmSymBB|Product Description: AutoCAD Mechanical 2000|Company: Autodesk"
 90
        0
280
     0
281
     0
  0
CLASS
  1
AMGOBJPROPCFG
  2
AmgObjPropCfg
  3
"AmgLay|Product Description: AutoCAD Mechanical 2000|Company: Autodesk"
 90
        1
280
     0
281
     0
  0
CLASS
  1
ACAMGFILTERDAT
  2
AcAmgFilterDat
  3
"AcadM|Product Description: AutoCAD Mechanical 2000|Company: Autodesk"
 90
        0
280
     0
281
     0
  0
CLASS
  1
LAYER_INDEX
  2
AcDbLayerIndex
  3
AutoCAD 2000
 90
        0
280
     0
281
     0
  0
CLASS
  1
IDBUFFER
  2
AcDbIdBuffer
  3
AutoCAD 2000
 90
        0
280
     0
281
     0
  0
CLASS
  1
ACIMSTRSYSVAR
  2
AcImStrSysVar
  3
AcMeServices
 90
        0
280
     0
281
     0
  0
CLASS
  1
ACMSTANDARDJIS
  2
AcmStandardJIS
  3
"AcmSymBB|Product Description: AutoCAD Mechanical 2000|Company: Autodesk"
 90
        0
280
     0
281
     0
  0
CLASS
  1
ACMSURFSTANDARDJIS
  2
AcmSurfTextStdJIS
  3
"AcmSymBB|Product Description: AutoCAD Mechanical 2000|Company: Autodesk"
 90
        0
280
     0
281
     0
  0
CLASS
  1
ACMFCFSTANDARDJIS
  2
AcmFCFStdJIS
  3
"AcmSymBB|Product Description: AutoCAD Mechanical 2000|Company: Autodesk"
 90
        0
280
     0
281
     0
  0
CLASS
  1
ACMWELDSTANDARDJIS
  2
AcmWeldingStdJIS
  3
"AcmSymBB|Product Description: AutoCAD Mechanical 2000|Company: Autodesk"
 90
        0
280
     0
281
     0
  0
CLASS
  1
ACMIDSTANDARDJIS
  2
AcmIdStdJIS
  3
"AcmSymBB|Product Description: AutoCAD Mechanical 2000|Company: Autodesk"
 90
        0
280
     0
281
     0
  0
CLASS
  1
ACMDATUMSTANDARDJIS
  2
AcmDatumStdJIS
  3
"AcmSymBB|Product Description: AutoCAD Mechanical 2000|Company: Autodesk"
 90
        0
280
     0
281
     0
  0
CLASS
  1
ACMBOMSTANDARDJIS
  2
AcmBOMStdJIS
  3
"AcmSymBB|Product Description: AutoCAD Mechanical 2000|Company: Autodesk"
 90
        0
280
     0
281
     0
  0
CLASS
  1
ACMSTANDARDANSI
  2
AcmStandardANSI
  3
"AcmSymBB|Product Description: AutoCAD Mechanical 2000|Company: Autodesk"
 90
        0
280
     0
281
     0
  0
CLASS
  1
ACMSURFSTANDARDANSI
  2
AcmSurfTextStdANSI
  3
"AcmSymBB|Product Description: AutoCAD Mechanical 2000|Company: Autodesk"
 90
        0
280
     0
281
     0
  0
CLASS
  1
ACMFCFSTANDARDANSI
  2
AcmFCFStdANSI
  3
"AcmSymBB|Product Description: AutoCAD Mechanical 2000|Company: Autodesk"
 90
        0
280
     0
281
     0
  0
CLASS
  1
ACMWELDSTANDARDANSI
  2
AcmWeldingStdANSI
  3
"AcmSymBB|Product Description: AutoCAD Mechanical 2000|Company: Autodesk"
 90
        0
280
     0
281
     0
  0
CLASS
  1
ACMIDSTANDARDANSI
  2
AcmIdStdANSI
  3
"AcmSymBB|Product Description: AutoCAD Mechanical 2000|Company: Autodesk"
 90
        0
280
     0
281
     0
  0
CLASS
  1
ACMDATUMSTANDARDANSI
  2
AcmDatumStdANSI
  3
"AcmSymBB|Product Description: AutoCAD Mechanical 2000|Company: Autodesk"
 90
        0
280
     0
281
     0
  0
CLASS
  1
ACMBOMSTANDARDANSI
  2
AcmBOMStdANSI
  3
"AcmSymBB|Product Description: AutoCAD Mechanical 2000|Company: Autodesk"
 90
        0
280
     0
281
     0
  0
CLASS
  1
ACMSTANDARDBSI
  2
AcmStandardBSI
  3
"AcmSymBB|Product Description: AutoCAD Mechanical 2000|Company: Autodesk"
 90
        0
280
     0
281
     0
  0
CLASS
  1
ACMSURFSTANDARDBSI
  2
AcmSurfTextStdBSI
  3
"AcmSymBB|Product Description: AutoCAD Mechanical 2000|Company: Autodesk"
 90
        0
280
     0
281
     0
  0
CLASS
  1
ACMFCFSTANDARDBSI
  2
AcmFCFStdBSI
  3
"AcmSymBB|Product Description: AutoCAD Mechanical 2000|Company: Autodesk"
 90
        0
280
     0
281
     0
  0
CLASS
  1
ACMWELDSTANDARDBSI
  2
AcmWeldingStdBSI
  3
"AcmSymBB|Product Description: AutoCAD Mechanical 2000|Company: Autodesk"
 90
        0
280
     0
281
     0
  0
CLASS
  1
ACMIDSTANDARDBSI
  2
AcmIdStdBSI
  3
"AcmSymBB|Product Description: AutoCAD Mechanical 2000|Company: Autodesk"
 90
        0
280
     0
281
     0
  0
CLASS
  1
ACMDATUMSTANDARDBSI
  2
AcmDatumStdBSI
  3
"AcmSymBB|Product Description: AutoCAD Mechanical 2000|Company: Autodesk"
 90
        0
280
     0
281
     0
  0
CLASS
  1
ACMBOMSTANDARDBSI
  2
AcmBOMStdBSI
  3
"AcmSymBB|Product Description: AutoCAD Mechanical 2000|Company: Autodesk"
 90
        0
280
     0
281
     0
  0
CLASS
  1
STDPART2D
  2
AmgStdPart
  3
"AmgStdPart|Product Description: AutoCAD Mechanical 2000|Company: Autodesk"
 90
     1023
280
     0
281
     1
  0
CLASS
  1
PLOTSETTINGS
  2
AcDbPlotSettings
  3
AutoCAD 2000
 90
        0
280
     0
281
     0
  0
CLASS
  1
LONG_TRANSACTION
  2
AcDbLongTransaction
  3
AutoCAD 2000
 90
        0
280
     0
281
     0
  0
CLASS
  1
LWPOLYLINE
  2
AcDbPolyline
  3
AutoCAD 2000
 90
        0
280
     0
281
     1
  0
CLASS
  1
HATCH
  2
AcDbHatch
  3
AutoCAD 2000
 90
        0
280
     0
281
     1
  0
CLASS
  1
XRECORD
  2
AcDbXrecord
  3
AutoCAD 2000
 90
        0
280
     0
281
     0
  0
ENDSEC
  0
SECTION
  2
TABLES
  0
TABLE
  2
VPORT
  5
8
330
0
100
AcDbSymbolTable
 70
     3
  0
VPORT
  5
C02A
330
8
100
AcDbSymbolTableRecord
100
AcDbViewportTableRecord
  2
*ACTIVE
 70
     0
 10
0.0
 20
0.0
 11
1.0
 21
1.0
 12
-83.86834026071975
 22
-14.88925516096928
 13
0.0
 23
0.0
 14
2.5
 24
2.5
 15
10.0
 25
10.0
 16
0.0
 26
0.0
 36
1.0
 17
0.0
 27
0.0
 37
0.0
 40
140.6277750892996
 41
1.56570841889117
 42
50.0
 43
0.0
 44
0.0
 50
0.0
 51
0.0
 71
     0
 72
   100
 73
     1
 74
     3
 75
     0
 76
     0
 77
     0
 78
     0
  0
ENDTAB
  0
TABLE
  2
LTYPE
  5
5
330
0
100
AcDbSymbolTable
 70
    10
  0
LTYPE
  5
14
330
5
100
AcDbSymbolTableRecord
100
AcDbLinetypeTableRecord
  2
BYBLOCK
 70
     0
  3

 72
    65
 73
     0
 40
0.0
  0
LTYPE
  5
15
330
5
100
AcDbSymbolTableRecord
100
AcDbLinetypeTableRecord
  2
BYLAYER
 70
     0
  3

 72
    65
 73
     0
 40
0.0
  0
LTYPE
  5
16
330
5
100
AcDbSymbolTableRecord
100
AcDbLinetypeTableRecord
  2
CONTINUOUS
 70
     0
  3
Solid line
 72
    65
 73
     0
 40
0.0
  0
LTYPE
  5
4B
330
5
100
AcDbSymbolTableRecord
100
AcDbLinetypeTableRecord
  2
AM_ISO02W050
 70
     0
  3
__ __ __ __ __ __ __ __ __ __ __ __ __ __ __
 72
    65
 73
     2
 40
7.5
 49
6.0
 74
     0
 49
-1.5
 74
     0
  0
LTYPE
  5
4C
330
5
100
AcDbSymbolTableRecord
100
AcDbLinetypeTableRecord
  2
AM_ISO08W050
 70
     0
  3
____ . ____ . ____ . ____ . ____ . ____ . ____
 72
    65
 73
     4
 40
18.0
 49
12.0
 74
     0
 49
-1.5
 74
     0
 49
3.0
 74
     0
 49
-1.5
 74
     0
  0
LTYPE
  5
4D
330
5
100
AcDbSymbolTableRecord
100
AcDbLinetypeTableRecord
  2
AM_ISO09W050
 70
     0
  3
_____ . . _____ . . _____ . . ____ .. ____
 72
    65
 73
     6
 40
22.5
 49
12.0
 74
     0
 49
-1.5
 74
     0
 49
3.0
 74
     0
 49
-1.5
 74
     0
 49
3.0
 74
     0
 49
-1.5
 74
     0
  0
LTYPE
  5
4E
330
5
100
AcDbSymbolTableRecord
100
AcDbLinetypeTableRecord
  2
AMCONSTR
 70
     0
  3
_______________________
 72
    65
 73
     2
 40
9999.0
 49
9999.0
 74
     0
 49
0.0
 74
     0
  0
LTYPE
  5
4F
330
5
100
AcDbSymbolTableRecord
100
AcDbLinetypeTableRecord
  2
AM_ISO02W050X2
 70
     0
  3
 _ _ _ _ _ _ _ _ _ _ _ _
 72
    65
 73
     2
 40
3.75
 49
3.0
 74
     0
 49
-0.75
 74
     0
  0
LTYPE
  5
50
330
5
100
AcDbSymbolTableRecord
100
AcDbLinetypeTableRecord
  2
AM_ISO08W050X2
 70
     0
  3
__ . __ . __ . __ . __ . __
 72
    65
 73
     4
 40
9.0
 49
6.0
 74
     0
 49
-0.75
 74
     0
 49
1.5
 74
     0
 49
-0.75
 74
     0
  0
LTYPE
  5
53
330
5
100
AcDbSymbolTableRecord
100
AcDbLinetypeTableRecord
  2
AMZIGZAG
 70
     0
  3
/\/-/\/-/\/-/\/-/\/-/\/
 72
    65
 73
     2
 40
11.00009999999999
 49
0.0001
 74
     4
 75
   135
340
52
 46
0.04
 50
0.0
 44
0.0
 45
0.0
 49
-11.0
 74
     0
  0
LTYPE
  5
166
330
5
100
AcDbSymbolTableRecord
100
AcDbLinetypeTableRecord
  2
ACJISTGL
 70
     0
  3
_ _ _ _ _
 72
    65
 73
     2
 40
3.0
 49
2.0
 74
     0
 49
-1.0
 74
     0
  0
LTYPE
  5
26A
330
5
100
AcDbSymbolTableRecord
100
AcDbLinetypeTableRecord
  2
ACJISTGB
 70
     0
  3
__ . . __ . .
 72
    65
 73
     6
 40
9.0
 49
4.0
 74
     0
 49
-1.0
 74
     0
 49
1.0
 74
     0
 49
-1.0
 74
     0
 49
1.0
 74
     0
 49
-1.0
 74
     0
  0
ENDTAB
  0
TABLE
  2
LAYER
  5
2
330
0
100
AcDbSymbolTable
 70
     7
  0
LAYER
  5
10
330
2
100
AcDbSymbolTableRecord
100
AcDbLayerTableRecord
  2
0
 70
     0
 62
     7
  6
CONTINUOUS
  0
LAYER
  5
3F9
330
2
100
AcDbSymbolTableRecord
100
AcDbLayerTableRecord
  2
AM_0
 70
     0
 62
     7
  6
CONTINUOUS
  0
LAYER
  5
BA4
330
2
100
AcDbSymbolTableRecord
100
AcDbLayerTableRecord
  2
AM_5
 70
     0
 62
     3
  6
CONTINUOUS
  0
LAYER
  5
BA6
330
2
100
AcDbSymbolTableRecord
100
AcDbLayerTableRecord
  2
AM_7
 70
     0
 62
     4
  6
AM_ISO08W050
  0
LAYER
  5
E64
330
2
100
AcDbSymbolTableRecord
100
AcDbLayerTableRecord
  2
AM_6
 70
     0
 62
     2
  6
CONTINUOUS
  0
LAYER
  5
F4D
330
2
100
AcDbSymbolTableRecord
100
AcDbLayerTableRecord
  2
DEFPOINTS
 70
     0
 62
     7
  6
CONTINUOUS
  0
LAYER
  5
4E80
330
2
100
AcDbSymbolTableRecord
100
AcDbLayerTableRecord
  2
AM_11
 70
     0
 62
     3
  6
AM_ISO09W050
  0
ENDTAB
  0
TABLE
  2
STYLE
  5
3
330
0
100
AcDbSymbolTable
 70
     5
  0
STYLE
  5
11
330
3
100
AcDbSymbolTableRecord
100
AcDbTextStyleTableRecord
  2
STANDARD
 70
     0
 40
0.0
 41
1.0
 50
0.0
 71
     0
 42
2.5
  3
simplex.shx
  4
EXTFONT.SHX
  0
STYLE
  5
52
330
3
100
AcDbSymbolTableRecord
100
AcDbTextStyleTableRecord
  2

 70
     1
 40
0.0
 41
1.0
 50
0.0
 71
     0
 42
2.5
  3
ltypeshp.shx
  4

  0
STYLE
  5
6B
330
3
100
AcDbSymbolTableRecord
100
AcDbTextStyleTableRecord
  2
ASAMI
 70
     0
 40
0.0
 41
1.0
 50
0.0
 71
     0
 42
2.5
  3
simplex.shx
  4
EXTFONT.SHX
  0
STYLE
  5
262
330
3
100
AcDbSymbolTableRecord
100
AcDbTextStyleTableRecord
  2
ACJISTS
 70
     0
 40
1.0
 41
1.0
 50
0.0
 71
     0
 42
2.5
  3
simplex.shx
  4
bigfont.shx
  0
STYLE
  5
269
330
3
100
AcDbSymbolTableRecord
100
AcDbTextStyleTableRecord
  2
ACJISGDT
 70
     0
 40
0.0
 41
1.0
 50
0.0
 71
     0
 42
2.5
  3
amgdtans.shx
  4

  0
ENDTAB
  0
TABLE
  2
VIEW
  5
6
330
0
100
AcDbSymbolTable
 70
     0
  0
ENDTAB
  0
TABLE
  2
UCS
  5
7
330
0
100
AcDbSymbolTable
 70
     0
  0
ENDTAB
  0
TABLE
  2
APPID
  5
9
330
0
100
AcDbSymbolTable
 70
    24
  0
APPID
  5
12
330
9
100
AcDbSymbolTableRecord
100
AcDbRegAppTableRecord
  2
ACAD
 70
     0
  0
APPID
  5
30
330
9
100
AcDbSymbolTableRecord
100
AcDbRegAppTableRecord
  2
MCAD_NO_VIS
 70
     0
  0
APPID
  5
31
330
9
100
AcDbSymbolTableRecord
100
AcDbRegAppTableRecord
  2
ACAD_TEMP_GRAPHIC
 70
     0
  0
APPID
  5
2C2
330
9
100
AcDbSymbolTableRecord
100
AcDbRegAppTableRecord
  2
GENIUS_GENDTOL_13
 70
     0
  0
APPID
  5
339
330
9
100
AcDbSymbolTableRecord
100
AcDbRegAppTableRecord
  2
GENIUS_GENODEF_13
 70
     0
  0
APPID
  5
33A
330
9
100
AcDbSymbolTableRecord
100
AcDbRegAppTableRecord
  2
GENIUS_GENOBJ-N-RSBK_13
 70
     0
  0
APPID
  5
33B
330
9
100
AcDbSymbolTableRecord
100
AcDbRegAppTableRecord
  2
GENIUS_GENOBJ-N-LIB_13
 70
     0
  0
APPID
  5
33C
330
9
100
AcDbSymbolTableRecord
100
AcDbRegAppTableRecord
  2
GENIUS_GENSCALE_13
 70
     0
  0
APPID
  5
378
330
9
100
AcDbSymbolTableRecord
100
AcDbRegAppTableRecord
  2
GENIUS_GENDIMSH_14
 70
     0
  0
APPID
  5
BB0
330
9
100
AcDbSymbolTableRecord
100
AcDbRegAppTableRecord
  2
GENIUS_GENOBJ-N-CEN_13
 70
     0
  0
APPID
  5
BB1
330
9
100
AcDbSymbolTableRecord
100
AcDbRegAppTableRecord
  2
GENIUS_GENFIL_13
 70
     0
  0
APPID
  5
BB2
330
9
100
AcDbSymbolTableRecord
100
AcDbRegAppTableRecord
  2
GENIUS_GENOBJ-N-CHA_13
 70
     0
  0
APPID
  5
1FAF
330
9
100
AcDbSymbolTableRecord
100
AcDbRegAppTableRecord
  2
GENIUS_GENOBJ-N-CRS_13
 70
     0
  0
APPID
  5
1FB0
330
9
100
AcDbSymbolTableRecord
100
AcDbRegAppTableRecord
  2
GENIUS_GENOENT_13
 70
     0
  0
APPID
  5
1FB1
330
9
100
AcDbSymbolTableRecord
100
AcDbRegAppTableRecord
  2
GENIUS_GENOREF_13
 70
     0
  0
APPID
  5
1FB2
330
9
100
AcDbSymbolTableRecord
100
AcDbRegAppTableRecord
  2
GENIUS_GENOLIS_13
 70
     0
  0
APPID
  5
1FB7
330
9
100
AcDbSymbolTableRecord
100
AcDbRegAppTableRecord
  2
GENIUS_GENOBJ-N-FIL_13
 70
     0
  0
APPID
  5
22A8
330
9
100
AcDbSymbolTableRecord
100
AcDbRegAppTableRecord
  2
GEVID1056506048
 70
     0
  0
APPID
  5
22A9
330
9
100
AcDbSymbolTableRecord
100
AcDbRegAppTableRecord
  2
GEVDC
 70
     0
  0
APPID
  5
22AC
330
9
100
AcDbSymbolTableRecord
100
AcDbRegAppTableRecord
  2
GENIUS_GENBH_13
 70
     0
  0
APPID
  5
22B8
330
9
100
AcDbSymbolTableRecord
100
AcDbRegAppTableRecord
  2
GENIUS_GENOBJ-NBEHI-BHF_13
 70
     0
  0
APPID
  5
22BA
330
9
100
AcDbSymbolTableRecord
100
AcDbRegAppTableRecord
  2
GENIUS_GENOBJ-NBEHI-BHB_13
 70
     0
  0
APPID
  5
35C9
330
9
100
AcDbSymbolTableRecord
100
AcDbRegAppTableRecord
  2
GENIUS_GENREC_14
 70
     0
  0
APPID
  5
35CA
330
9
100
AcDbSymbolTableRecord
100
AcDbRegAppTableRecord
  2
GENIUS_GENOBJ-N-REC_13
 70
     0
  0
ENDTAB
  0
TABLE
  2
DIMSTYLE
  5
A
330
0
100
AcDbSymbolTable
 70
     9
  0
DIMSTYLE
105
58
330
A
100
AcDbSymbolTableRecord
100
AcDbDimStyleTableRecord
  2
AM_JIS
 70
     0
  3

  4
"
  5
OPEN30
  6

  7

 40
0.5
 41
2.5
 42
1.0
 43
12.0
 44
1.0
 45
0.0
 46
0.0
 47
0.1
 48
0.1
140
3.2
141
0.0
142
0.0
143
0.0393701
144
1.0
145
0.0
146
0.71
147
1.5
 71
     0
 72
     0
 73
     0
 74
     0
 75
     0
 76
     0
 77
     3
 78
     8
170
     0
171
     2
172
     1
173
     0
174
     0
175
     0
176
   256
177
   256
178
     2
270
     2
271
     3
272
     3
273
     2
274
     2
340
6B
275
     0
280
     0
281
     0
282
     0
283
     0
284
     0
285
     0
286
     0
287
     3
288
     0
  0
DIMSTYLE
105
5F
330
A
100
AcDbSymbolTableRecord
100
AcDbDimStyleTableRecord
  2
AM_JIS$3
 70
     0
  3

  4
"
  5
OPEN30
  6

  7

 40
0.5
 41
2.5
 42
1.0
 43
10.0
 44
1.0
 45
0.0
 46
0.0
 47
0.1
 48
0.1
140
3.2
141
0.0
142
0.0
143
0.0393701
144
1.0
145
0.0
146
0.71
147
1.5
 71
     0
 72
     0
 73
     0
 74
     1
 75
     0
 76
     0
 77
     3
 78
     8
170
     0
171
     2
172
     0
173
     0
174
     0
175
     0
176
   256
177
   256
178
     2
270
     2
271
     2
272
     3
273
     2
274
     2
340
6B
275
     0
280
     0
281
     0
282
     0
283
     0
284
     0
285
     0
286
     0
287
     0
288
     1
  0
DIMSTYLE
105
60
330
A
100
AcDbSymbolTableRecord
100
AcDbDimStyleTableRecord
  2
AM_JIS$4
 70
     0
  3

  4
"
  5
OPEN30
  6

  7

 40
0.5
 41
2.5
 42
1.0
 43
10.0
 44
1.0
 45
0.0
 46
0.0
 47
0.1
 48
0.1
140
3.2
141
0.0
142
0.0
143
0.0393701
144
1.0
145
0.0
146
0.71
147
1.5
 71
     0
 72
     0
 73
     0
 74
     1
 75
     0
 76
     0
 77
     3
 78
     8
170
     0
171
     2
172
     0
173
     0
174
     0
175
     0
176
   256
177
   256
178
     2
270
     2
271
     2
272
     3
273
     2
274
     2
340
6B
275
     0
280
     0
281
     0
282
     0
283
     0
284
     0
285
     0
286
     0
287
     0
288
     1
  0
DIMSTYLE
105
61
330
A
100
AcDbSymbolTableRecord
100
AcDbDimStyleTableRecord
  2
AM_JIS$6
 70
     0
  3

  4
"
  5
OPEN30
  6

  7

 40
0.5
 41
2.5
 42
1.0
 43
10.0
 44
1.0
 45
0.0
 46
0.0
 47
0.1
 48
0.1
140
3.2
141
0.0
142
0.0
143
0.0393701
144
1.0
145
0.0
146
0.71
147
1.5
 71
     0
 72
     0
 73
     0
 74
     0
 75
     0
 76
     0
 77
     0
 78
     8
170
     0
171
     2
172
     1
173
     0
174
     0
175
     0
176
   256
177
   256
178
     2
270
     2
271
     2
272
     2
273
     2
274
     2
340
6B
275
     0
280
     0
281
     0
282
     0
283
     0
284
     0
285
     0
286
     0
287
     3
288
     0
  0
DIMSTYLE
105
62
330
A
100
AcDbSymbolTableRecord
100
AcDbDimStyleTableRecord
  2
AM_JIS$7
 70
     0
  3

  4
"
  5
OPEN30
  6

  7

 40
0.5
 41
2.5
 42
1.0
 43
10.0
 44
1.0
 45
0.0
 46
0.0
 47
0.1
 48
0.1
140
3.2
141
0.0
142
0.0
143
0.0393701
144
1.0
145
0.0
146
0.71
147
1.5
 71
     0
 72
     0
 73
     0
 74
     0
 75
     0
 76
     0
 77
     3
 78
     8
170
     0
171
     2
172
     1
173
     0
174
     0
175
     0
176
   256
177
   256
178
     2
270
     2
271
     2
272
     3
273
     2
274
     2
340
6B
275
     0
280
     0
281
     0
282
     0
283
     0
284
     0
285
     0
286
     0
287
     3
288
     0
  0
DIMSTYLE
105
63
330
A
100
AcDbSymbolTableRecord
100
AcDbDimStyleTableRecord
  2
AM_JIS$SF
 70
     0
  3

  4
"
  5
OPEN30
  6

  7

 40
0.5
 41
2.5
 42
1.0
 43
10.0
 44
1.0
 45
0.0
 46
0.0
 47
0.1
 48
0.1
140
3.2
141
0.0
142
0.0
143
0.0393701
144
1.0
145
0.0
146
0.71
147
1.5
 71
     0
 72
     0
 73
     0
 74
     0
 75
     1
 76
     1
 77
     3
 78
     8
170
     0
171
     2
172
     1
173
     0
174
     0
175
     0
176
   256
177
   256
178
     2
270
     2
271
     2
272
     2
273
     2
274
     2
340
6B
275
     0
280
     0
281
     0
282
     0
283
     0
284
     0
285
     0
286
     0
287
     3
288
     0
  0
DIMSTYLE
105
68
330
A
100
AcDbSymbolTableRecord
100
AcDbDimStyleTableRecord
  2
AM_JIS$SH
 70
     0
  3

  4
"
  5

  6
GENAXEH
  7
OPEN30
 40
0.5
 41
2.5
 42
1.0
 43
10.0
 44
1.0
 45
0.0
 46
0.0
 47
0.1
 48
0.1
140
3.2
141
0.0
142
0.0
143
0.0393701
144
2.0
145
0.0
146
0.71
147
1.5
 71
     0
 72
     0
 73
     0
 74
     0
 75
     1
 76
     1
 77
     3
 78
     8
170
     0
171
     2
172
     1
173
     1
174
     0
175
     0
176
   256
177
   256
178
     2
270
     2
271
     2
272
     2
273
     2
274
     2
340
6B
275
     0
280
     0
281
     0
282
     0
283
     0
284
     0
285
     0
286
     0
287
     3
288
     0
  0
DIMSTYLE
105
B34
330
A
100
AcDbSymbolTableRecord
100
AcDbDimStyleTableRecord
  2
AM_JIS$2
 70
     0
  3

  4
"
  5
OPEN30
  6

  7

 40
0.5
 41
2.5
 42
1.0
 43
12.0
 44
1.0
 45
0.0
 46
0.0
 47
0.1
 48
0.1
140
3.2
141
0.0
142
0.0
143
0.0393701
144
1.0
145
0.0
146
0.71
147
1.5
 71
     0
 72
     0
 73
     0
 74
     0
 75
     0
 76
     0
 77
     3
 78
     8
170
     0
171
     2
172
     1
173
     0
174
     0
175
     0
176
   256
177
   256
178
     2
270
     2
271
     3
272
     3
273
     2
274
     2
340
6B
275
     0
280
     0
281
     0
282
     0
283
     0
284
     0
285
     0
286
     0
287
     3
288
     0
  0
DIMSTYLE
105
3B48
102
{ACAD_REACTORS
330
B984
330
BA14
330
BAA0
330
BB86
330
BC3F
330
BCD4
330
BD7B
102
}
330
A
100
AcDbSymbolTableRecord
100
AcDbDimStyleTableRecord
  2
AM_JIS$0
 70
     0
  3

  4
"
  5
OPEN30
  6

  7

 40
1.0
 41
2.5
 42
0.0
 43
10.0
 44
1.0
 45
0.0
 46
0.0
 47
0.1
 48
0.1000000001
140
3.799999999999999
141
0.0
142
0.0
143
0.0393701
144
1.0
145
0.0
146
0.71
147
1.5
 71
     0
 72
     0
 73
     0
 74
     0
 75
     0
 76
     0
 77
     3
 78
     1
170
     0
171
     2
172
     1
173
     0
174
     0
175
     0
176
     3
177
     3
178
     2
270
     2
271
     2
272
     2
273
     2
274
     2
340
11
275
     1
280
     0
281
     0
282
     0
283
     0
284
     8
285
     0
286
     0
287
     0
288
     0
  0
ENDTAB
  0
TABLE
  2
BLOCK_RECORD
  5
1
330
0
100
AcDbSymbolTable
 70
    12
  0
BLOCK_RECORD
  5
1F
102
{ACAD_XDICTIONARY
360
74
102
}
330
1
100
AcDbSymbolTableRecord
100
AcDbBlockTableRecord
  2
*MODEL_SPACE
  0
BLOCK_RECORD
  5
101
102
{ACAD_XDICTIONARY
360
C053
102
}
330
1
100
AcDbSymbolTableRecord
100
AcDbBlockTableRecord
  2
*PAPER_SPACE
  0
BLOCK_RECORD
  5
59
330
1
100
AcDbSymbolTableRecord
100
AcDbBlockTableRecord
  2
_OPEN30
  0
BLOCK_RECORD
  5
64
330
1
100
AcDbSymbolTableRecord
100
AcDbBlockTableRecord
  2
GENAXEH
  0
BLOCK_RECORD
  5
B985
330
1
100
AcDbSymbolTableRecord
100
AcDbBlockTableRecord
  2
*D5
  0
BLOCK_RECORD
  5
BA15
330
1
100
AcDbSymbolTableRecord
100
AcDbBlockTableRecord
  2
*D6
  0
BLOCK_RECORD
  5
BAA1
330
1
100
AcDbSymbolTableRecord
100
AcDbBlockTableRecord
  2
*D7
  0
BLOCK_RECORD
  5
BB87
330
1
100
AcDbSymbolTableRecord
100
AcDbBlockTableRecord
  2
*D8
  0
BLOCK_RECORD
  5
BC40
330
1
100
AcDbSymbolTableRecord
100
AcDbBlockTableRecord
  2
*D9
  0
BLOCK_RECORD
  5
BCD5
330
1
100
AcDbSymbolTableRecord
100
AcDbBlockTableRecord
  2
*D10
  0
BLOCK_RECORD
  5
BD7C
330
1
100
AcDbSymbolTableRecord
100
AcDbBlockTableRecord
  2
*D11
  0
ENDTAB
  0
ENDSEC
  0
SECTION
  2
BLOCKS
  0
BLOCK
  5
20
330
1F
100
AcDbEntity
  8
0
100
AcDbBlockBegin
  2
*MODEL_SPACE
 70
     0
 10
0.0
 20
0.0
 30
0.0
  3
*MODEL_SPACE
  1

  0
ENDBLK
  5
21
330
1F
100
AcDbEntity
  8
0
100
AcDbBlockEnd
  0
BLOCK
  5
103
330
101
100
AcDbEntity
 67
     1
  8
0
100
AcDbBlockBegin
  2
*PAPER_SPACE
 70
     0
 10
0.0
 20
0.0
 30
0.0
  3
*PAPER_SPACE
  1

  0
ENDBLK
  5
104
330
101
100
AcDbEntity
 67
     1
  8
0
100
AcDbBlockEnd
  0
BLOCK
  5
5D
330
59
100
AcDbEntity
  8
0
100
AcDbBlockBegin
  2
_OPEN30
 70
     0
 10
0.0
 20
0.0
 30
0.0
  3
_OPEN30
  1

  0
LINE
  5
5A
330
59
100
AcDbEntity
  8
0
 62
     0
100
AcDbLine
 10
-1.0
 20
0.26794919
 30
0.0
 11
0.0
 21
0.0
 31
0.0
  0
LINE
  5
5B
330
59
100
AcDbEntity
  8
0
 62
     0
100
AcDbLine
 10
0.0
 20
0.0
 30
0.0
 11
-1.0
 21
-0.26794919
 31
0.0
  0
LINE
  5
5C
330
59
100
AcDbEntity
  8
0
 62
     0
100
AcDbLine
 10
0.0
 20
0.0
 30
0.0
 11
-1.0
 21
0.0
 31
0.0
  0
ENDBLK
  5
5E
330
59
100
AcDbEntity
  8
0
100
AcDbBlockEnd
  0
BLOCK
  5
66
330
64
100
AcDbEntity
  8
0
100
AcDbBlockBegin
  2
GENAXEH
 70
     0
 10
0.0
 20
0.0
 30
0.0
  3
GENAXEH
  1

  0
LINE
  5
65
330
64
100
AcDbEntity
  8
0
100
AcDbLine
 10
-1.0
 20
0.0
 30
0.0
 11
1.0
 21
0.0
 31
0.0
  0
ENDBLK
  5
67
330
64
100
AcDbEntity
  8
0
100
AcDbBlockEnd
  0
BLOCK
  5
B98F
330
B985
100
AcDbEntity
  8
0
100
AcDbBlockBegin
  2
*D5
 70
     1
 10
0.0
 20
0.0
 30
0.0
  3
*D5
  1

  0
LINE
  5
C055
330
B985
100
AcDbEntity
  8
AM_5
100
AcDbLine
 10
-8.000000000000392
 20
25.50000000000006
 30
0.0
 11
-8.000000000000392
 21
32.50000000000017
 31
0.0
  0
LINE
  5
C056
330
B985
100
AcDbEntity
  8
AM_5
100
AcDbLine
 10
-0.0000000000003348
 20
25.50000000000014
 30
0.0
 11
-0.0000000000003361
 21
32.50000000000017
 31
0.0
  0
LINE
  5
C057
330
B985
100
AcDbEntity
  8
AM_5
100
AcDbLine
 10
-6.750000000000393
 20
32.00000000000017
 30
0.0
 11
-1.250000000000335
 21
32.00000000000017
 31
0.0
  0
INSERT
  5
C058
330
B985
100
AcDbEntity
  8
AM_5
100
AcDbBlockReference
  2
_OPEN30
 10
-8.000000000000392
 20
32.00000000000017
 30
0.0
 41
1.25
 42
1.25
 43
1.25
 50
180.0
  0
INSERT
  5
C059
330
B985
100
AcDbEntity
  8
AM_5
100
AcDbBlockReference
  2
_OPEN30
 10
-0.000000000000336
 20
32.00000000000017
 30
0.0
 41
1.25
 42
1.25
 43
1.25
  0
MTEXT
  5
C05A
330
B985
100
AcDbEntity
  8
AM_5
 62
     2
100
AcDbMText
 10
-4.000000000000365
 20
33.55000000000016
 30
0.0
 40
1.6
 41
0.0
 71
     5
 72
     1
  1
8
  7
ASAMI
  0
POINT
  5
C05B
330
B985
100
AcDbEntity
  8
DEFPOINTS
 62
     0
100
AcDbPoint
 10
-8.000000000000341
 20
25.00000000000008
 30
0.0
  0
POINT
  5
C05C
330
B985
100
AcDbEntity
  8
DEFPOINTS
 62
     0
100
AcDbPoint
 10
-0.0000000000002842
 20
25.00000000000014
 30
0.0
  0
POINT
  5
C05D
330
B985
100
AcDbEntity
  8
DEFPOINTS
 62
     0
100
AcDbPoint
 10
-0.0000000000002714
 20
32.00000000000017
 30
0.0
  0
ENDBLK
  5
B990
330
B985
100
AcDbEntity
  8
0
100
AcDbBlockEnd
  0
BLOCK
  5
BA1F
330
BA15
100
AcDbEntity
  8
0
100
AcDbBlockBegin
  2
*D6
 70
     1
 10
0.0
 20
0.0
 30
0.0
  3
*D6
  1

  0
LINE
  5
C05E
330
BA15
100
AcDbEntity
  8
AM_5
100
AcDbLine
 10
0.4999999999996035
 20
25.00000000000008
 30
0.0
 11
7.499999999999676
 21
25.0000000000001
 31
0.0
  0
LINE
  5
C05F
330
BA15
100
AcDbEntity
  8
AM_5
100
AcDbLine
 10
0.4999999999997713
 20
-24.99999999999983
 30
0.0
 11
7.499999999999776
 21
-24.99999999999981
 31
0.0
  0
LINE
  5
C060
330
BA15
100
AcDbEntity
  8
AM_5
100
AcDbLine
 10
6.999999999999679
 20
23.7500000000001
 30
0.0
 11
6.999999999999773
 21
-23.74999999999981
 31
0.0
  0
INSERT
  5
C061
330
BA15
100
AcDbEntity
  8
AM_5
100
AcDbBlockReference
  2
_OPEN30
 10
6.999999999999676
 20
25.0000000000001
 30
0.0
 41
1.25
 42
1.25
 43
1.25
 50
90.0000000000001
  0
INSERT
  5
C062
330
BA15
100
AcDbEntity
  8
AM_5
100
AcDbBlockReference
  2
_OPEN30
 10
6.999999999999776
 20
-24.99999999999981
 30
0.0
 41
1.25
 42
1.25
 43
1.25
 50
270.0000000000001
  0
MTEXT
  5
C063
330
BA15
100
AcDbEntity
  8
AM_5
 62
     2
100
AcDbMText
 10
5.449999999999725
 20
0.0000000000001387
 30
0.0
 40
1.6
 41
0.0
 71
     5
 72
     1
  1
%%c50
  7
ASAMI
 11
-0.000000000000002
 21
1.0
 31
0.0
  0
POINT
  5
C064
330
BA15
100
AcDbEntity
  8
DEFPOINTS
 62
     0
100
AcDbPoint
 10
-0.0000000000003411
 20
25.00000000000008
 30
0.0
  0
POINT
  5
C065
330
BA15
100
AcDbEntity
  8
DEFPOINTS
 62
     0
100
AcDbPoint
 10
-0.0000000000002842
 20
-24.99999999999983
 30
0.0
  0
POINT
  5
C066
330
BA15
100
AcDbEntity
  8
DEFPOINTS
 62
     0
100
AcDbPoint
 10
6.999999999999721
 20
-24.99999999999983
 30
0.0
  0
ENDBLK
  5
BA20
330
BA15
100
AcDbEntity
  8
0
100
AcDbBlockEnd
  0
BLOCK
  5
BAAB
330
BAA1
100
AcDbEntity
  8
0
100
AcDbBlockBegin
  2
*D7
 70
     1
 10
0.0
 20
0.0
 30
0.0
  3
*D7
  1

  0
LINE
  5
C067
330
BAA1
100
AcDbEntity
  8
AM_5
100
AcDbLine
 10
-40.36103547811938
 20
20.39632415771398
 30
0.0
 11
-57.49999999999934
 21
20.39632415771395
 31
0.0
  0
LINE
  5
C068
330
BAA1
100
AcDbEntity
  8
AM_5
100
AcDbLine
 10
-40.36102771759053
 20
-20.39633178711
 30
0.0
 11
-57.49999999999925
 21
-20.39633178711003
 31
0.0
  0
LINE
  5
C069
330
BAA1
100
AcDbEntity
  8
AM_5
100
AcDbLine
 10
-56.99999999999933
 20
19.14632415771395
 30
0.0
 11
-56.99999999999926
 21
-19.14633178711003
 31
0.0
  0
INSERT
  5
C06A
330
BAA1
100
AcDbEntity
  8
AM_5
100
AcDbBlockReference
  2
_OPEN30
 10
-56.99999999999934
 20
20.39632415771395
 30
0.0
 41
1.25
 42
1.25
 43
1.25
 50
90.0000000000001
  0
INSERT
  5
C06B
330
BAA1
100
AcDbEntity
  8
AM_5
100
AcDbBlockReference
  2
_OPEN30
 10
-56.99999999999925
 20
-20.39633178711003
 30
0.0
 41
1.25
 42
1.25
 43
1.25
 50
270.0000000000001
  0
MTEXT
  5
C06C
330
BAA1
100
AcDbEntity
  8
AM_5
 62
     2
100
AcDbMText
 10
-58.54999999999931
 20
5.5908212726633
 30
0.0
 40
1.6
 41
0.0
 71
     5
 72
     1
  1
%%c40.8
  7
ASAMI
 11
-0.000000000000002
 21
1.0
 31
0.0
  0
POINT
  5
C06D
330
BAA1
100
AcDbEntity
  8
DEFPOINTS
 62
     0
100
AcDbPoint
 10
-39.86103547811933
 20
20.39632415771407
 30
0.0
  0
POINT
  5
C06E
330
BAA1
100
AcDbEntity
  8
DEFPOINTS
 62
     0
100
AcDbPoint
 10
-39.86102771759059
 20
-20.39633178710991
 30
0.0
  0
POINT
  5
C06F
330
BAA1
100
AcDbEntity
  8
DEFPOINTS
 62
     0
100
AcDbPoint
 10
-56.9999999999993
 20
-20.3963317871099
 30
0.0
  0
ENDBLK
  5
BAAC
330
BAA1
100
AcDbEntity
  8
0
100
AcDbBlockEnd
  0
BLOCK
  5
BB91
330
BB87
100
AcDbEntity
  8
0
100
AcDbBlockBegin
  2
*D8
 70
     1
 10
0.0
 20
0.0
 30
0.0
  3
*D8
  1

  0
LINE
  5
C070
330
BB87
100
AcDbEntity
  8
AM_5
100
AcDbLine
 10
-0.0000000000002327
 20
-25.49999999999986
 30
0.0
 11
-0.000000000000219
 21
-32.49999999999985
 31
0.0
  0
LINE
  5
C071
330
BB87
100
AcDbEntity
  8
AM_5
100
AcDbLine
 10
-49.99999999999922
 20
-16.50000190734805
 30
0.0
 11
-49.9999999999992
 21
-32.49999999999996
 31
0.0
  0
LINE
  5
C072
330
BB87
100
AcDbEntity
  8
AM_5
100
AcDbLine
 10
-1.25000000000022
 20
-31.99999999999986
 30
0.0
 11
-48.7499999999992
 21
-31.99999999999995
 31
0.0
  0
INSERT
  5
C073
330
BB87
100
AcDbEntity
  8
AM_5
100
AcDbBlockReference
  2
_OPEN30
 10
-0.00000000000022
 20
-31.99999999999985
 30
0.0
 41
1.25
 42
1.25
 43
1.25
 50
0.0000000000001018
  0
INSERT
  5
C074
330
BB87
100
AcDbEntity
  8
AM_5
100
AcDbBlockReference
  2
_OPEN30
 10
-49.9999999999992
 20
-31.99999999999995
 30
0.0
 41
1.25
 42
1.25
 43
1.25
 50
180.0000000000001
  0
MTEXT
  5
C075
330
BB87
100
AcDbEntity
  8
AM_5
 62
     2
100
AcDbMText
 10
-24.99999999999971
 20
-30.44999999999991
 30
0.0
 40
1.6
 41
0.0
 71
     5
 72
     1
  1
50
  7
ASAMI
  0
POINT
  5
C076
330
BB87
100
AcDbEntity
  8
DEFPOINTS
 62
     0
100
AcDbPoint
 10
-0.0000000000002842
 20
-24.99999999999985
 30
0.0
  0
POINT
  5
C077
330
BB87
100
AcDbEntity
  8
DEFPOINTS
 62
     0
100
AcDbPoint
 10
-49.99999999999926
 20
-16.00000190734795
 30
0.0
  0
POINT
  5
C078
330
BB87
100
AcDbEntity
  8
DEFPOINTS
 62
     0
100
AcDbPoint
 10
-49.99999999999926
 20
-31.99999999999985
 30
0.0
  0
ENDBLK
  5
BB92
330
BB87
100
AcDbEntity
  8
0
100
AcDbBlockEnd
  0
BLOCK
  5
BC4A
330
BC40
100
AcDbEntity
  8
0
100
AcDbBlockBegin
  2
*D9
 70
     1
 10
0.0
 20
0.0
 30
0.0
  3
*D9
  1

  0
LINE
  5
C079
330
BC40
100
AcDbEntity
  8
AM_5
100
AcDbLine
 10
-49.99999999999922
 20
-16.50000190734805
 30
0.0
 11
-49.9999999999992
 21
-32.49999999999996
 31
0.0
  0
LINE
  5
C07A
330
BC40
100
AcDbEntity
  8
AM_5
100
AcDbLine
 10
-169.9999999999942
 20
-15.96411132812054
 30
0.0
 11
-169.9999999999942
 21
-32.50000000000019
 31
0.0
  0
LINE
  5
C07B
330
BC40
100
AcDbEntity
  8
AM_5
100
AcDbLine
 10
-51.2499999999992
 20
-31.99999999999996
 30
0.0
 11
-168.7499999999942
 21
-32.0000000000002
 31
0.0
  0
INSERT
  5
C07C
330
BC40
100
AcDbEntity
  8
AM_5
100
AcDbBlockReference
  2
_OPEN30
 10
-49.9999999999992
 20
-31.99999999999995
 30
0.0
 41
1.25
 42
1.25
 43
1.25
 50
0.0000000000001018
  0
INSERT
  5
C07D
330
BC40
100
AcDbEntity
  8
AM_5
100
AcDbBlockReference
  2
_OPEN30
 10
-169.9999999999942
 20
-32.0000000000002
 30
0.0
 41
1.25
 42
1.25
 43
1.25
 50
180.0000000000001
  0
MTEXT
  5
C07E
330
BC40
100
AcDbEntity
  8
AM_5
 62
     2
100
AcDbMText
 10
-109.9999999999966
 20
-30.45000000000008
 30
0.0
 40
1.6
 41
0.0
 71
     5
 72
     1
  1
120
  7
ASAMI
  0
POINT
  5
C07F
330
BC40
100
AcDbEntity
  8
DEFPOINTS
 62
     0
100
AcDbPoint
 10
-49.99999999999926
 20
-16.00000190734795
 30
0.0
  0
POINT
  5
C080
330
BC40
100
AcDbEntity
  8
DEFPOINTS
 62
     0
100
AcDbPoint
 10
-169.9999999999942
 20
-15.46411132812019
 30
0.0
  0
POINT
  5
C081
330
BC40
100
AcDbEntity
  8
DEFPOINTS
 62
     0
100
AcDbPoint
 10
-169.9999999999942
 20
-31.99999999999985
 30
0.0
  0
ENDBLK
  5
BC4B
330
BC40
100
AcDbEntity
  8
0
100
AcDbBlockEnd
  0
BLOCK
  5
BCDF
330
BCD5
100
AcDbEntity
  8
0
100
AcDbBlockBegin
  2
*D10
 70
     1
 10
0.0
 20
0.0
 30
0.0
  3
*D10
  1

  0
LINE
  5
C082
330
BCD5
100
AcDbEntity
  8
AM_5
100
AcDbLine
 10
-0.0000000000002327
 20
-25.49999999999986
 30
0.0
 11
-0.0000000000002092
 21
-37.49999999999985
 31
0.0
  0
LINE
  5
C083
330
BCD5
100
AcDbEntity
  8
AM_5
100
AcDbLine
 10
-169.9999999999942
 20
-15.96409606933051
 30
0.0
 11
-169.9999999999941
 21
-37.50000000000019
 31
0.0
  0
LINE
  5
C084
330
BCD5
100
AcDbEntity
  8
AM_5
100
AcDbLine
 10
-1.25000000000021
 20
-36.99999999999985
 30
0.0
 11
-168.7499999999941
 21
-37.0000000000002
 31
0.0
  0
INSERT
  5
C085
330
BCD5
100
AcDbEntity
  8
AM_5
100
AcDbBlockReference
  2
_OPEN30
 10
-0.0000000000002102
 20
-36.99999999999985
 30
0.0
 41
1.25
 42
1.25
 43
1.25
 50
0.0000000000001018
  0
INSERT
  5
C086
330
BCD5
100
AcDbEntity
  8
AM_5
100
AcDbBlockReference
  2
_OPEN30
 10
-169.9999999999941
 20
-37.0000000000002
 30
0.0
 41
1.25
 42
1.25
 43
1.25
 50
180.0000000000001
  0
MTEXT
  5
C087
330
BCD5
100
AcDbEntity
  8
AM_5
 62
     2
100
AcDbMText
 10
-84.99999999999721
 20
-35.45000000000003
 30
0.0
 40
1.6
 41
0.0
 71
     5
 72
     1
  1
170
  7
ASAMI
  0
POINT
  5
C088
330
BCD5
100
AcDbEntity
  8
DEFPOINTS
 62
     0
100
AcDbPoint
 10
-0.0000000000002842
 20
-24.99999999999985
 30
0.0
  0
POINT
  5
C089
330
BCD5
100
AcDbEntity
  8
DEFPOINTS
 62
     0
100
AcDbPoint
 10
-169.9999999999942
 20
-15.46409606933016
 30
0.0
  0
POINT
  5
C08A
330
BCD5
100
AcDbEntity
  8
DEFPOINTS
 62
     0
100
AcDbPoint
 10
-169.9999999999942
 20
-36.99999999999985
 30
0.0
  0
ENDBLK
  5
BCE0
330
BCD5
100
AcDbEntity
  8
0
100
AcDbBlockEnd
  0
BLOCK
  5
BD86
330
BD7C
100
AcDbEntity
  8
0
100
AcDbBlockBegin
  2
*D11
 70
     1
 10
0.0
 20
0.0
 30
0.0
  3
*D11
  1

  0
LINE
  5
C08B
330
BD7C
100
AcDbEntity
  8
AM_5
100
AcDbLine
 10
-168.4999999999943
 20
15.99999999999942
 30
0.0
 11
-177.4999999999942
 21
15.99999999999941
 31
0.0
  0
LINE
  5
C08C
330
BD7C
100
AcDbEntity
  8
AM_5
100
AcDbLine
 10
-168.4999999999942
 20
-16.00000000000054
 30
0.0
 11
-177.4999999999942
 21
-16.00000000000056
 31
0.0
  0
LINE
  5
C08D
330
BD7C
100
AcDbEntity
  8
AM_5
100
AcDbLine
 10
-176.9999999999942
 20
14.74999999999941
 30
0.0
 11
-176.9999999999942
 21
-14.75000000000056
 31
0.0
  0
INSERT
  5
C08E
330
BD7C
100
AcDbEntity
  8
AM_5
100
AcDbBlockReference
  2
_OPEN30
 10
-176.9999999999942
 20
15.99999999999941
 30
0.0
 41
1.25
 42
1.25
 43
1.25
 50
90.0000000000001
  0
INSERT
  5
C08F
330
BD7C
100
AcDbEntity
  8
AM_5
100
AcDbBlockReference
  2
_OPEN30
 10
-176.9999999999942
 20
-16.00000000000056
 30
0.0
 41
1.25
 42
1.25
 43
1.25
 50
270.0000000000001
  0
MTEXT
  5
C090
330
BD7C
100
AcDbEntity
  8
AM_5
 62
     2
100
AcDbMText
 10
-178.5499999999942
 20
-0.000000000000571
 30
0.0
 40
1.6
 41
0.0
 71
     5
 72
     1
  1
%%c32
  7
ASAMI
 11
-0.000000000000002
 21
1.0
 31
0.0
  0
POINT
  5
C091
330
BD7C
100
AcDbEntity
  8
DEFPOINTS
 62
     0
100
AcDbPoint
 10
-167.9999999999943
 20
15.9999999999998
 30
0.0
  0
POINT
  5
C092
330
BD7C
100
AcDbEntity
  8
DEFPOINTS
 62
     0
100
AcDbPoint
 10
-167.9999999999942
 20
-16.00000000000017
 30
0.0
  0
POINT
  5
C093
330
BD7C
100
AcDbEntity
  8
DEFPOINTS
 62
     0
100
AcDbPoint
 10
-176.9999999999942
 20
-16.00000000000016
 30
0.0
  0
ENDBLK
  5
BD87
330
BD7C
100
AcDbEntity
  8
0
100
AcDbBlockEnd
  0
ENDSEC
  0
SECTION
  2
ENTITIES
  0
TEXT
  5
388D
330
1F
100
AcDbEntity
  8
AM_6
100
AcDbText
 10
-97.93862280417272
 20
-48.25
 30
0.0
 40
2.5
  1
WRC16050EHS
 50
359.9999999999998
 51
359.9999999999998
 72
     4
 11
-85.02195613750606
 21
-47.00000000000002
 31
0.0
100
AcDbText
  0
SPLINE
  5
B6E1
330
1F
100
AcDbEntity
  8
AM_0
100
AcDbSpline
210
0.0
220
0.0
230
1.0
 70
     8
 71
     3
 72
    11
 73
     7
 74
     5
 42
0.0000000001
 43
0.0000000001
 44
0.0000000001
 40
0.0
 40
0.0
 40
0.0
 40
0.0
 40
4.011688310890588
 40
7.281431010459519
 40
10.00138040045543
 40
13.10156156533985
 40
13.10156156533985
 40
13.10156156533985
 40
13.10156156533985
 10
-35.38882064819358
 20
-9.805473327629925
 30
0.0
 10
-35.27521400893653
 20
-11.13691888057248
 30
0.0
 10
-35.06901182123549
 20
-13.55356448876085
 30
0.0
 10
-34.41886813730128
 20
-16.85078496669593
 30
0.0
 10
-32.48380002392879
 20
-19.44423124239337
 30
0.0
 10
-30.52870583909748
 20
-19.87594979430156
 30
0.0
 10
-29.48729515075706
 20
-20.10591125487991
 30
0.0
 11
-35.38882064819358
 21
-9.805473327629925
 31
0.0
 11
-34.96691513061546
 21
-13.79491424559992
 31
0.0
 11
-34.11917877197282
 21
-16.95285034178991
 31
0.0
 11
-32.40834808349626
 21
-19.06736755370991
 31
0.0
 11
-29.48729515075706
 21
-20.10591125487991
 31
0.0
  0
SPLINE
  5
B6E2
330
1F
100
AcDbEntity
  8
AM_0
100
AcDbSpline
210
0.0
220
0.0
230
1.0
 70
     8
 71
     3
 72
    11
 73
     7
 74
     5
 42
0.0000000001
 43
0.0000000001
 44
0.0000000001
 40
0.0
 40
0.0
 40
0.0
 40
0.0
 40
2.619970886015572
 40
5.402560346002127
 40
8.272496127746864
 40
11.17841672141246
 40
11.17841672141246
 40
11.17841672141246
 40
11.17841672141246
 10
-29.48729515075712
 20
13.02310943604007
 30
0.0
 10
-28.84347641137569
 20
12.42939463927222
 30
0.0
 10
-27.51587784531495
 20
11.2051138524232
 30
0.0
 10
-25.1021105821225
 20
9.831448389450134
 30
0.0
 10
-22.39164754163442
 20
8.856728942192685
 30
0.0
 10
-20.46437289272497
 20
8.706339479854536
 30
0.0
 10
-19.4947319030773
 20
8.630676269540089
 30
0.0
 11
-29.48729515075712
 21
13.02310943604007
 31
0.0
 11
-27.49733352661161
 21
11.31890869141008
 31
0.0
 11
-25.0934638977053
 21
9.917404174810116
 31
0.0
 11
-22.37883377075235
 21
8.9861068725601
 31
0.0
 11
-19.4947319030773
 21
8.630676269540089
 31
0.0
  0
SPLINE
  5
B6E3
330
1F
100
AcDbEntity
  8
AM_0
100
AcDbSpline
210
0.0
220
0.0
230
1.0
 70
     8
 71
     3
 72
    11
 73
     7
 74
     5
 42
0.0000000001
 43
0.0000000001
 44
0.0000000001
 40
0.0
 40
0.0
 40
0.0
 40
0.0
 40
0.7103979469918214
 40
2.557166112977196
 40
5.550066280147862
 40
9.502376358972604
 40
9.502376358972604
 40
9.502376358972604
 40
9.502376358972604
 10
-35.35895919799833
 20
20.39632415771407
 30
0.0
 10
-35.20940505465695
 20
20.21183139288479
 30
0.0
 10
-34.67106624184461
 20
19.54772664946789
 30
0.0
 10
-33.9669772912304
 20
17.81509518527031
 30
0.0
 10
-32.23967214091603
 20
15.40878154395106
 30
0.0
 10
-30.48552658274207
 20
13.88834442857249
 30
0.0
 10
-29.48729515075712
 20
13.02310943604007
 30
0.0
 11
-35.35895919799833
 21
20.39632415771407
 31
0.0
 11
-34.92680740356473
 21
19.83248901367105
 31
0.0
 11
-34.06332778930692
 21
18.20001983642507
 31
0.0
 11
-32.35580062866228
 21
15.74201202392507
 31
0.0
 11
-29.48729515075712
 21
13.02310943604007
 31
0.0
  0
ELLIPSE
  5
B6E4
330
1F
100
AcDbEntity
  8
AM_0
100
AcDbEllipse
 10
4.413650512694687
 20
0.0000000000001421
 30
0.0
 11
387.5937205267009
 21
19.17204244544777
 31
0.0
210
0.0
220
0.0
230
1.0
 40
0.0179573363471
 41
4.611069007900342
 42
4.6605428353934
  0
ELLIPSE
  5
B6E5
330
1F
100
AcDbEntity
  8
AM_0
100
AcDbEllipse
 10
4.413650512694687
 20
0.0000000000001421
 30
0.0
 11
-387.593850600389
 21
3.549979205479233
 31
0.0
210
0.0
220
0.0
230
1.0
 40
0.0518197265174
 41
4.763822335412568
 42
4.813304195258788
  0
LINE
  5
B6E7
330
1F
100
AcDbEntity
  8
AM_0
100
AcDbLine
 10
-39.86102771759055
 20
-20.39633178710991
 30
0.0
 11
-25.66787528991716
 21
-20.39633178710988
 31
0.0
  0
SPLINE
  5
B6EB
330
1F
100
AcDbEntity
  8
AM_0
100
AcDbSpline
210
0.0
220
0.0
230
1.0
 70
     8
 71
     3
 72
    11
 73
     7
 74
     5
 42
0.0000000001
 43
0.0000000001
 44
0.0000000001
 40
0.0
 40
0.0
 40
0.0
 40
0.0
 40
0.0610672228745319
 40
0.1218776157819133
 40
0.1825040478438266
 40
0.2429888056510252
 40
0.2429888056510252
 40
0.2429888056510252
 40
0.2429888056510252
 10
-35.36917114257841
 20
-9.564178466789911
 30
0.0
 10
-35.37344362775506
 20
-9.584091736313247
 30
0.0
 10
-35.38197062934909
 20
-9.623834526269705
 30
0.0
 10
-35.38898231388866
 20
-9.68433814687842
 30
0.0
 10
-35.39195533173828
 20
-9.744987633374698
 30
0.0
 10
-35.38986472752151
 20
-9.785327159091247
 30
0.0
 10
-35.38882064819358
 20
-9.805473327629925
 30
0.0
 11
-35.36917114257841
 21
-9.564178466789911
 31
0.0
 11
-35.3810234069827
 21
-9.624084472649911
 31
0.0
 11
-35.38831710815447
 21
-9.684455871579928
 31
0.0
 11
-35.39093780517595
 21
-9.745025634759912
 31
0.0
 11
-35.38882064819358
 21
-9.805473327629925
 31
0.0
  0
SPLINE
  5
B6EC
330
1F
100
AcDbEntity
  8
AM_0
100
AcDbSpline
210
0.0
220
0.0
230
1.0
 70
     8
 71
     3
 72
    11
 73
     7
 74
     5
 42
0.0000000001
 43
0.0000000001
 44
0.0000000001
 40
0.0
 40
0.0
 40
0.0
 40
0.0
 40
0.3220413728233058
 40
0.6369845564901393
 40
0.9406174363688418
 40
1.232539329194362
 40
1.232539329194362
 40
1.232539329194362
 40
1.232539329194362
 10
-34.45042800903337
 20
-8.863777160639926
 30
0.0
 10
-34.55774111062567
 20
-8.877957336621861
 30
0.0
 10
-34.77000200066002
 20
-8.906005140013135
 30
0.0
 10
-35.04883152183767
 20
-9.061851197690423
 30
0.0
 10
-35.26863651973739
 20
-9.282515032776313
 30
0.0
 10
-35.33610181407192
 20
-9.471529582610061
 30
0.0
 10
-35.36917114257841
 20
-9.564178466789911
 30
0.0
 11
-34.45042800903337
 21
-8.863777160639926
 31
0.0
 11
-34.76637649536161
 21
-8.926124572749927
 31
0.0
 11
-35.04336166381858
 21
-9.076019287109915
 31
0.0
 11
-35.2516288757327
 21
-9.296966552729912
 31
0.0
 11
-35.36917114257841
 21
-9.564178466789911
 31
0.0
  0
SPLINE
  5
B6ED
330
1F
100
AcDbEntity
  8
AM_0
100
AcDbSpline
210
0.0
220
0.0
230
1.0
 70
     8
 71
     3
 72
    11
 73
     7
 74
     5
 42
0.0000000001
 43
0.0000000001
 44
0.0000000001
 40
0.0
 40
0.0
 40
0.0
 40
0.0
 40
0.2606369460923745
 40
0.4991471087087949
 40
0.6983838937027799
 40
0.8441220824469995
 40
0.8441220824469995
 40
0.8441220824469995
 40
0.8441220824469995
 10
-34.45042800903348
 20
20.34046173095711
 30
0.0
 10
-34.53730713790322
 20
20.34126655885244
 30
0.0
 10
-34.7036897886848
 20
20.34280788874823
 30
0.0
 10
-34.93635704319471
 20
20.35089692426358
 30
0.0
 10
-35.13063839554217
 20
20.36062220334165
 30
0.0
 10
-35.24523250398712
 20
20.37025254713485
 30
0.0
 10
-35.29364395141636
 20
20.37432098388606
 30
0.0
 11
-34.45042800903348
 21
20.34046173095711
 31
0.0
 11
-34.71104049682645
 21
20.34403228759706
 31
0.0
 11
-34.94941711425815
 21
20.35201263427708
 31
0.0
 11
-35.14836120605497
 21
20.36280822753909
 31
0.0
 11
-35.29364395141636
 21
20.37432098388606
 31
0.0
  0
ELLIPSE
  5
B6EE
330
1F
100
AcDbEntity
  8
AM_0
100
AcDbEllipse
 10
-20.5166387557993
 20
21.34115600585912
 30
0.0
 11
-13.3978814232488
 21
4.061618724801962
 31
0.0
210
0.0
220
0.0
230
1.0
 40
0.9834583134962999
 41
0.3716512662593379
 42
0.5207450157898318
  0
ELLIPSE
  5
B6EF
330
1F
100
AcDbEntity
  8
AM_0
100
AcDbEllipse
 10
-20.46408939361629
 20
-9.504959106439883
 30
0.0
 11
14.97653495285399
 21
0.8387069906500254
 31
0.0
210
0.0
220
0.0
230
0.9999999999999998
 40
0.3416074853511
 41
2.902126147203554
 42
3.037100062240125
  0
LINE
  5
B6F0
330
1F
100
AcDbEntity
  8
AM_0
100
AcDbLine
 10
-167.9999999999942
 20
-16.00000000000017
 30
0.0
 11
-49.99999999999926
 21
-15.99999999999994
 31
0.0
  0
LINE
  5
B6F1
330
1F
100
AcDbEntity
  8
AM_0
100
AcDbLine
 10
-167.9999999999943
 20
15.9999999999998
 30
0.0
 11
-49.99999999999932
 21
16.00000000000003
 31
0.0
  0
LINE
  5
B6F2
330
1F
100
AcDbEntity
  8
AM_7
100
AcDbLine
 10
-172.8704833984342
 20
-0.000000000000199
 30
0.0
 11
5.212966918944687
 21
0.0000000000001705
 31
0.0
  0
LINE
  5
B6F3
330
1F
100
AcDbEntity
  8
AM_0
100
AcDbLine
 10
-169.9999999999943
 20
15.46409606933482
 30
0.0
 11
-167.9999999999943
 21
15.9999999999998
 31
0.0
  0
LINE
  5
B6F4
330
1F
100
AcDbEntity
  8
AM_0
100
AcDbLine
 10
-167.9999999999942
 20
-16.00000000000017
 30
0.0
 11
-167.9999999999943
 21
15.9999999999998
 31
0.0
  0
LINE
  5
B6F6
330
1F
100
AcDbEntity
  8
AM_0
100
AcDbLine
 10
-169.9999999999942
 20
-15.46409606933016
 30
0.0
 11
-169.9999999999943
 21
15.46410369872981
 31
0.0
  0
LINE
  5
B6F7
330
1F
100
AcDbEntity
  8
AM_0
100
AcDbLine
 10
-169.9999999999942
 20
-15.46411132812019
 30
0.0
 11
-167.9999999999942
 21
-16.00000000000017
 31
0.0
  0
ARC
  5
B6FD
330
1F
100
AcDbEntity
  8
AM_0
100
AcDbCircle
 10
-47.24264049530034
 20
18.50000000000008
 30
0.0
 40
3.0
100
AcDbArc
 50
269.9999974955215
 51
314.9999987477636
  0
LINE
  5
B6FE
330
1F
100
AcDbEntity
  8
AM_0
100
AcDbLine
 10
-41.10367584228535
 20
-19.40353393553994
 30
0.0
 11
-41.10367584228543
 21
19.62305450439404
 31
0.0
  0
LINE
  5
B6FF
330
1F
100
AcDbEntity
  8
AM_0
100
AcDbLine
 10
-49.99999809265131
 20
16.00000000000003
 30
0.0
 11
-49.49999809265131
 21
15.50000000000008
 31
0.0
  0
LINE
  5
B700
330
1F
100
AcDbEntity
  8
AM_0
100
AcDbLine
 10
-49.99999999999926
 20
-15.99999999999994
 30
0.0
 11
-49.99999999999932
 21
16.00000000000003
 31
0.0
  0
LINE
  5
B702
330
1F
100
AcDbEntity
  8
AM_0
100
AcDbLine
 10
-45.99999999999925
 20
-15.49999999999994
 30
0.0
 11
-45.99999999999932
 21
15.50000000000008
 31
0.0
  0
LINE
  5
B703
330
1F
100
AcDbEntity
  8
AM_0
100
AcDbLine
 10
-49.49999999999931
 20
15.50000000000008
 30
0.0
 11
-49.49999999999926
 21
-15.49999999999994
 31
0.0
  0
ARC
  5
B704
330
1F
100
AcDbEntity
  8
AM_0
100
AcDbCircle
 10
-47.24264049530026
 20
-18.49999999999994
 30
0.0
 40
3.0
100
AcDbArc
 50
45.0000012522369
 51
90.00000250447845
  0
LINE
  5
B705
330
1F
100
AcDbEntity
  8
AM_0
100
AcDbLine
 10
-49.99999809265125
 20
-15.99999999999994
 30
0.0
 11
-49.49999809265126
 21
-15.49999999999994
 31
0.0
  0
LINE
  5
B706
330
1F
100
AcDbEntity
  8
AM_0
100
AcDbLine
 10
-47.24264049530026
 20
-15.49999999999994
 30
0.0
 11
-49.49999999999926
 21
-15.49999999999994
 31
0.0
  0
LINE
  5
B707
330
1F
100
AcDbEntity
  8
AM_0
100
AcDbLine
 10
-45.12132167816125
 20
-16.37867736815994
 30
0.0
 11
-41.98234844207786
 21
-19.51765441893994
 31
0.0
  0
ARC
  5
B708
330
1F
100
AcDbEntity
  8
AM_0
100
AcDbCircle
 10
-39.86102771759055
 20
-17.39633178710991
 30
0.0
 40
3.0
100
AcDbArc
 50
224.9999996583766
 51
269.9999974955215
  0
LINE
  5
B709
330
1F
100
AcDbEntity
  8
AM_0
100
AcDbLine
 10
-47.24264049530032
 20
15.50000000000008
 30
0.0
 11
-49.49999999999931
 21
15.50000000000008
 31
0.0
  0
LINE
  5
B70A
330
1F
100
AcDbEntity
  8
AM_0
100
AcDbLine
 10
-35.35889816284208
 20
20.39632415771407
 30
0.0
 11
-39.86103534698514
 21
20.39632415771407
 31
0.0
  0
LINE
  5
B70B
330
1F
100
AcDbEntity
  8
AM_0
100
AcDbLine
 10
-45.12131977081231
 20
16.37868499755805
 30
0.0
 11
-41.98235702514674
 21
19.51764678955007
 31
0.0
  0
ARC
  5
B70C
330
1F
100
AcDbEntity
  8
AM_0
100
AcDbCircle
 10
-39.86103534698512
 20
17.39632415771407
 30
0.0
 40
3.0
100
AcDbArc
 50
90.00000250447845
 51
135.0000003416239
  0
SPLINE
  5
B70D
330
1F
100
AcDbEntity
  8
AM_0
100
AcDbSpline
210
0.0
220
0.0
230
1.0
 70
     8
 71
     3
 72
    11
 73
     7
 74
     5
 42
0.0000000001
 43
0.0000000001
 44
0.0000000001
 40
0.0
 40
0.0
 40
0.0
 40
0.0
 40
0.1878062283233028
 40
0.6130924215938933
 40
1.189059860721489
 40
1.851367701622475
 40
1.851367701622475
 40
1.851367701622475
 40
1.851367701622475
 10
-15.16661071777429
 20
10.16955566407014
 30
0.0
 10
-15.1134943130129
 20
10.2028223934988
 30
0.0
 10
-14.94009609554028
 20
10.3114214526781
 30
0.0
 10
-14.64546401918891
 20
10.57896739497844
 30
0.0
 10
-14.2232590793693
 20
10.93750435816782
 30
0.0
 10
-13.90677991523975
 20
11.20263542968465
 30
0.0
 10
-13.73750686645536
 20
11.3444442749101
 30
0.0
 11
-15.16661071777429
 21
10.16955566407014
 31
0.0
 11
-15.00927734375028
 21
10.27210998536011
 31
0.0
 11
-14.6817150115973
 21
10.54335021973011
 31
0.0
 11
-14.24469375610431
 21
10.91851806641014
 31
0.0
 11
-13.73750686645536
 21
11.3444442749101
 31
0.0
  0
SPLINE
  5
B70E
330
1F
100
AcDbEntity
  8
AM_0
100
AcDbSpline
210
0.0
220
0.0
230
1.0
 70
     8
 71
     3
 72
    11
 73
     7
 74
     5
 42
0.0000000001
 43
0.0000000001
 44
0.0000000001
 40
0.0
 40
0.0
 40
0.0
 40
0.0
 40
0.1778095690171187
 40
0.3642024959750415
 40
0.5582629358858713
 40
0.7571944190396644
 40
0.7571944190396644
 40
0.7571944190396644
 40
0.7571944190396644
 10
-13.9345130920413
 20
-20.57164001463988
 30
0.0
 10
-13.9808725261056
 20
-20.5344298283121
 30
0.0
 10
-14.07582929188339
 20
-20.45821321741098
 30
0.0
 10
-14.24496890246663
 20
-20.37747895591358
 30
0.0
 10
-14.43148034532546
 20
-20.3221402329842
 30
0.0
 10
-14.56273081818194
 20
-20.3153751505942
 30
0.0
 10
-14.62916946411229
 20
-20.31195068358988
 30
0.0
 11
-13.9345130920413
 21
-20.57164001463988
 31
0.0
 11
-14.07725906372127
 21
-20.46562194823988
 31
0.0
 11
-14.24437522888223
 21
-20.38307189940988
 31
0.0
 11
-14.43106842041123
 21
-20.33010864256988
 31
0.0
 11
-14.62916946411229
 21
-20.31195068358988
 31
0.0
  0
SPLINE
  5
B70F
330
1F
100
AcDbEntity
  8
AM_0
100
AcDbSpline
210
0.0
220
0.0
230
1.0
 70
     8
 71
     3
 72
    11
 73
     7
 74
     5
 42
0.0000000001
 43
0.0000000001
 44
0.0000000001
 40
0.0
 40
0.0
 40
0.0
 40
0.0
 40
0.9030870821607502
 40
1.804848170620118
 40
2.705164754181041
 40
3.603860038524268
 40
3.603860038524268
 40
3.603860038524268
 40
3.603860038524268
 10
-11.2148933410653
 20
-22.93614196776985
 30
0.0
 10
-11.44402421749298
 20
-22.74090360814188
 30
0.0
 10
-11.90194953978153
 20
-22.35071355541042
 30
0.0
 10
-12.58426404311999
 20
-21.76117272029515
 30
0.0
 10
-13.26241539643013
 20
-21.16906519860471
 30
0.0
 10
-13.71061516851741
 20
-20.77066206013129
 30
0.0
 10
-13.9345130920413
 20
-20.57164001463988
 30
0.0
 11
-11.2148933410653
 21
-22.93614196776985
 31
0.0
 11
-11.90161132812528
 21
-22.34963989256985
 31
0.0
 11
-12.58411788940526
 21
-21.76026916503988
 31
0.0
 11
-13.26194000244226
 21
-21.16770935057988
 31
0.0
 11
-13.9345130920413
 21
-20.57164001463988
 31
0.0
  0
SPLINE
  5
B710
330
1F
100
AcDbEntity
  8
AM_0
100
AcDbSpline
210
0.0
220
0.0
230
1.0
 70
     8
 71
     3
 72
    11
 73
     7
 74
     5
 42
0.0000000001
 43
0.0000000001
 44
0.0000000001
 40
0.0
 40
0.0
 40
0.0
 40
0.0
 40
0.0354673086624587
 40
0.0709365738954283
 40
0.106403882556807
 40
0.141871240454123
 40
0.141871240454123
 40
0.141871240454123
 40
0.141871240454123
 10
-6.321428298951275
 20
-23.30877685545985
 30
0.0
 10
-6.309605910483319
 20
-23.3087430673484
 30
0.0
 10
-6.285960481359869
 20
-23.30867548926156
 30
0.0
 10
-6.250492769228541
 20
-23.30854143844687
 30
0.0
 10
-6.215024914127681
 20
-23.3084466109515
 30
0.0
 10
-6.19138017704202
 20
-23.30836159819674
 30
0.0
 10
-6.179557800293252
 20
-23.30831909178985
 30
0.0
 11
-6.321428298951275
 21
-23.30877685545985
 31
0.0
 11
-6.285961151123217
 21
-23.30867004393985
 31
0.0
 11
-6.250492095948231
 21
-23.30854797362985
 31
0.0
 11
-6.215024948121254
 21
-23.30844116210986
 31
0.0
 11
-6.179557800293252
 21
-23.30831909178985
 31
0.0
  0
SPLINE
  5
B711
330
1F
100
AcDbEntity
  8
AM_0
100
AcDbSpline
210
0.0
220
0.0
230
1.0
 70
     8
 71
     3
 72
    11
 73
     7
 74
     5
 42
0.0000000001
 43
0.0000000001
 44
0.0000000001
 40
0.0
 40
0.0
 40
0.0
 40
0.0
 40
0.1958489615244974
 40
0.3882839255951481
 40
0.5742157211392769
 40
0.751980489871052
 40
0.751980489871052
 40
0.751980489871052
 40
0.751980489871052
 10
-6.179557800293252
 20
-23.30831909178985
 30
0.0
 10
-6.114185046129648
 20
-23.30486045604048
 30
0.0
 10
-5.984579101752784
 20
-23.29800347474472
 30
0.0
 10
-5.799046760108996
 20
-23.24626435864853
 30
0.0
 10
-5.628808461093149
 20
-23.16964218745068
 30
0.0
 10
-5.532145626767622
 20
-23.09589200795491
 30
0.0
 10
-5.48489952087425
 20
-23.05984497069985
 30
0.0
 11
-6.179557800293252
 21
-23.30831909178985
 31
0.0
 11
-5.984495162964265
 21
-23.29078674315985
 31
0.0
 11
-5.798608779908249
 21
-23.24101257323985
 31
0.0
 11
-5.630142211914233
 21
-23.16233825682985
 31
0.0
 11
-5.48489952087425
 21
-23.05984497069985
 31
0.0
  0
SPLINE
  5
B712
330
1F
100
AcDbEntity
  8
AM_0
100
AcDbSpline
210
0.0
220
0.0
230
1.0
 70
     8
 71
     3
 72
    11
 73
     7
 74
     5
 42
0.0000000001
 43
0.0000000001
 44
0.0000000001
 40
0.0
 40
0.0
 40
0.0
 40
0.0
 40
0.9224324665050465
 40
1.843711859690109
 40
2.763698618119622
 40
3.682250738542814
 40
3.682250738542814
 40
3.682250738542814
 40
3.682250738542814
 10
-5.48489952087425
 20
-23.05984497069985
 30
0.0
 10
-5.251076618380389
 20
-22.86017111286581
 30
0.0
 10
-4.783723100319089
 20
-22.46107299660637
 30
0.0
 10
-4.086737461733842
 20
-21.85867077473238
 30
0.0
 10
-3.393374065035306
 20
-21.25406465045711
 30
0.0
 10
-2.934566242999439
 20
-20.84776613039651
 30
0.0
 10
-2.705341339112294
 20
-20.64477539061985
 30
0.0
 11
-5.48489952087425
 21
-23.05984497069985
 31
0.0
 11
-4.784027099610227
 21
-22.46012878417985
 31
0.0
 11
-4.086853027344261
 21
-21.85787963866985
 31
0.0
 11
-3.393789291382233
 21
-21.25286865233985
 31
0.0
 11
-2.705341339112294
 21
-20.64477539061985
 31
0.0
  0
SPLINE
  5
B713
330
1F
100
AcDbEntity
  8
AM_0
100
AcDbSpline
210
0.0
220
0.0
230
1.0
 70
     8
 71
     3
 72
    11
 73
     7
 74
     5
 42
0.0000000001
 43
0.0000000001
 44
0.0000000001
 40
0.0
 40
0.0
 40
0.0
 40
0.0
 40
0.200059776913504
 40
0.3904333444939694
 40
0.5740250137497588
 40
0.7540257643034254
 40
0.7540257643034254
 40
0.7540257643034254
 40
0.7540257643034254
 10
-2.705341339112294
 20
-20.64477539061985
 30
0.0
 10
-2.658019439337961
 20
-20.59737950605254
 30
0.0
 10
-2.565666804131889
 20
-20.50488248335083
 30
0.0
 10
-2.470856764327286
 20
-20.33654302397767
 30
0.0
 10
-2.410854537421079
 20
-20.16001377736498
 30
0.0
 10
-2.403594022681065
 20
-20.03854391373897
 30
0.0
 10
-2.399999618531239
 20
-19.97840881346985
 30
0.0
 11
-2.705341339112294
 21
-20.64477539061985
 31
0.0
 11
-2.57069206237827
 21
-20.49681091307985
 31
0.0
 11
-2.475246429444268
 21
-20.33209228514985
 31
0.0
 11
-2.418655395508267
 21
-20.15744018553985
 31
0.0
 11
-2.399999618531239
 21
-19.97840881346985
 31
0.0
  0
SPLINE
  5
B714
330
1F
100
AcDbEntity
  8
AM_0
100
AcDbSpline
210
0.0
220
0.0
230
1.0
 70
     8
 71
     3
 72
    11
 73
     7
 74
     5
 42
0.0000000001
 43
0.0000000001
 44
0.0000000001
 40
0.0
 40
0.0
 40
0.0
 40
0.0
 40
0.1139749467816234
 40
0.2406387579613976
 40
0.3872997959770777
 40
0.5571367467062486
 40
0.5571367467062486
 40
0.5571367467062486
 40
0.5571367467062486
 10
-2.399999618531239
 20
-12.93707275389985
 30
0.0
 10
-2.404450360053154
 20
-12.89892319565093
 30
0.0
 10
-2.413847345461646
 20
-12.81837687759574
 30
0.0
 10
-2.484469562399672
 20
-12.70625723207769
 30
0.0
 10
-2.59030801469794
 20
-12.60185156342814
 30
0.0
 10
-2.681782754295359
 20
-12.54840808314921
 30
0.0
 10
-2.730869293213288
 20
-12.51972961424985
 30
0.0
 11
-2.399999618531239
 21
-12.93707275389985
 31
0.0
 11
-2.421087265015273
 21
-12.82506561278984
 31
0.0
 11
-2.48413848877027
 21
-12.71520996092985
 31
0.0
 11
-2.588184356690305
 21
-12.61184692381985
 31
0.0
 11
-2.730869293213288
 21
-12.51972961424985
 31
0.0
  0
SPLINE
  5
B715
330
1F
100
AcDbEntity
  8
AM_0
100
AcDbSpline
210
0.0
220
0.0
230
1.0
 70
     8
 71
     3
 72
    11
 73
     7
 74
     5
 42
0.0000000001
 43
0.0000000001
 44
0.0000000001
 40
0.0
 40
0.0
 40
0.0
 40
0.0
 40
0.2556302989346731
 40
0.5110814040265832
 40
0.7663606628749272
 40
1.021464715520861
 40
1.021464715520861
 40
1.021464715520861
 40
1.021464715520861
 10
-2.730869293213288
 20
-12.51972961424985
 30
0.0
 10
-2.806222005588074
 20
-12.47994606490721
 30
0.0
 10
-2.956874608969643
 20
-12.40040685402364
 30
0.0
 10
-3.18264419368723
 20
-12.28088850486372
 30
0.0
 10
-3.408159266088847
 20
-12.16126449032183
 30
0.0
 10
-3.558359806258728
 20
-12.08136918232513
 30
0.0
 10
-3.633434295655263
 20
-12.04143524169984
 30
0.0
 11
-2.730869293213288
 21
-12.51972961424985
 31
0.0
 11
-2.956905364991257
 21
-12.40033721922984
 31
0.0
 11
-3.182678222657273
 21
-12.28083038329984
 31
0.0
 11
-3.408187866211221
 21
-12.16119384764985
 31
0.0
 11
-3.633434295655263
 21
-12.04143524169984
 31
0.0
  0
SPLINE
  5
B716
330
1F
100
AcDbEntity
  8
AM_0
100
AcDbSpline
210
0.0
220
0.0
230
1.0
 70
     8
 71
     3
 72
    11
 73
     7
 74
     5
 42
0.0000000001
 43
0.0000000001
 44
0.0000000001
 40
0.0
 40
0.0
 40
0.0
 40
0.0
 40
0.2119313405556745
 40
0.4248655365354641
 40
0.6396764842204336
 40
0.8570273341496363
 40
0.8570273341496363
 40
0.8570273341496363
 40
0.8570273341496363
 10
-2.399999618531239
 20
-16.09873962401985
 30
0.0
 10
-2.40409723440056
 20
-16.02794612055044
 30
0.0
 10
-2.412311855986355
 20
-15.88602411998226
 30
0.0
 10
-2.479004364088805
 20
-15.68153990389909
 30
0.0
 10
-2.581321396251181
 20
-15.49011463408586
 30
0.0
 10
-2.680825059844194
 20
-15.3851246717658
 30
0.0
 10
-2.730869293213288
 20
-15.33232116698985
 30
0.0
 11
-2.399999618531239
 21
-16.09873962401985
 31
0.0
 11
-2.421270370484251
 21
-15.88787841795985
 31
0.0
 11
-2.484569549561285
 21
-15.68457031249985
 31
0.0
 11
-2.588567733765273
 21
-15.49661254881985
 31
0.0
 11
-2.730869293213288
 21
-15.33232116698985
 31
0.0
  0
SPLINE
  5
B717
330
1F
100
AcDbEntity
  8
AM_0
100
AcDbSpline
210
0.0
220
0.0
230
1.0
 70
     8
 71
     3
 72
    11
 73
     7
 74
     5
 42
0.0000000001
 43
0.0000000001
 44
0.0000000001
 40
0.0
 40
0.0
 40
0.0
 40
0.0
 40
1.005900097985132
 40
2.011479484636143
 40
3.016663628816164
 40
4.021384757472308
 40
4.021384757472308
 40
4.021384757472308
 40
4.021384757472308
 10
-2.730869293213288
 20
-15.33232116698985
 30
0.0
 10
-2.975741085164814
 20
-15.10326980961764
 30
0.0
 10
-3.465406596544317
 20
-14.64524012336437
 30
0.0
 10
-4.1951482238682
 20
-13.95341087703101
 30
0.0
 10
-4.921013414701843
 20
-13.25807366886716
 30
0.0
 10
-5.400295364479348
 20
-12.78993758321891
 30
0.0
 10
-5.639881134034283
 20
-12.55592346190985
 30
0.0
 11
-2.730869293213288
 21
-15.33232116698985
 31
0.0
 11
-3.464714050293252
 21
-14.64434814452985
 31
0.0
 11
-4.194644927979254
 21
-13.95269012450987
 31
0.0
 11
-4.919992446900266
 21
-13.25679779051986
 31
0.0
 11
-5.639881134034283
 21
-12.55592346190985
 31
0.0
  0
SPLINE
  5
B718
330
1F
100
AcDbEntity
  8
AM_0
100
AcDbSpline
210
0.0
220
0.0
230
1.0
 70
     8
 71
     3
 72
    11
 73
     7
 74
     5
 42
0.0000000001
 43
0.0000000001
 44
0.0000000001
 40
0.0
 40
0.0
 40
0.0
 40
0.0
 40
0.1017872502592019
 40
0.2035725943796172
 40
0.3053579384990677
 40
0.4071451887582118
 40
0.4071451887582118
 40
0.4071451887582118
 40
0.4071451887582118
 10
-15.03605651855531
 20
-4.525321960449872
 30
0.0
 10
-15.00214894592548
 20
-4.526529942260985
 30
0.0
 10
-14.93433443564258
 20
-4.528945883261706
 30
0.0
 10
-14.83261299133361
 20
-4.532569885249834
 30
0.0
 10
-14.73089154702466
 20
-4.536193887238107
 30
0.0
 10
-14.6630770367421
 20
-4.538609828238775
 30
0.0
 10
-14.62916946411229
 20
-4.539817810049868
 30
0.0
 11
-15.03605651855531
 21
-4.525321960449872
 31
0.0
 11
-14.93433380127027
 21
-4.528945922849885
 31
0.0
 11
-14.83261299133329
 21
-4.53256988524987
 31
0.0
 11
-14.73089218139728
 21
-4.536193847649883
 31
0.0
 11
-14.62916946411229
 21
-4.539817810049868
 31
0.0
  0
SPLINE
  5
B719
330
1F
100
AcDbEntity
  8
AM_0
100
AcDbSpline
210
0.0
220
0.0
230
1.0
 70
     8
 71
     3
 72
    11
 73
     7
 74
     5
 42
0.0000000001
 43
0.0000000001
 44
0.0000000001
 40
0.0
 40
0.0
 40
0.0
 40
0.0
 40
0.8397185882835257
 40
1.759814832534245
 40
2.760530091875858
 40
3.836980020902705
 40
3.836980020902705
 40
3.836980020902705
 40
3.836980020902705
 10
-29.48729515075706
 20
-20.10591125487991
 30
0.0
 10
-29.21214062784612
 20
-20.15813482093802
 30
0.0
 10
-28.63549385901924
 20
-20.26758077990477
 30
0.0
 10
-27.71752972736537
 20
-20.34679680639874
 30
0.0
 10
-26.71938510482225
 20
-20.39118871485446
 30
0.0
 10
-26.0269178254389
 20
-20.3945762590704
 30
0.0
 10
-25.66806030273454
 20
-20.39633178710988
 30
0.0
 11
-29.48729515075706
 21
-20.10591125487991
 31
0.0
 11
-28.65988540649436
 21
-20.24916076659991
 31
0.0
 11
-27.74412345886247
 21
-20.33836364745991
 31
0.0
 11
-26.74443626403825
 21
-20.38371276854991
 31
0.0
 11
-25.66806030273454
 21
-20.39633178710988
 31
0.0
  0
SPLINE
  5
B71A
330
1F
100
AcDbEntity
  8
AM_0
100
AcDbSpline
210
0.0
220
0.0
230
1.0
 70
     8
 71
     3
 72
    11
 73
     7
 74
     5
 42
0.0000000001
 43
0.0000000001
 44
0.0000000001
 40
0.0
 40
0.0
 40
0.0
 40
0.0
 40
1.44419413450584
 40
2.971675018672436
 40
4.557135039282874
 40
11.03941531113153
 40
11.03941531113153
 40
11.03941531113153
 40
11.03941531113153
 10
-25.66806030273454
 20
-20.39633178710988
 30
0.0
 10
-25.18666778080496
 20
-20.39295723453164
 30
0.0
 10
-24.19612080556512
 20
-20.38601351875524
 30
0.0
 10
-22.67739004248761
 20
-20.35401103392401
 30
0.0
 10
-19.47935254202791
 20
-20.30339851751764
 30
0.0
 10
-16.79000806512099
 20
-20.30814054894666
 30
0.0
 10
-14.62916946411229
 20
-20.31195068358988
 30
0.0
 11
-25.66806030273454
 21
-20.39633178710988
 31
0.0
 11
-24.22392845153825
 21
-20.38291931151988
 31
0.0
 11
-22.69668960571306
 21
-20.35572814940988
 31
0.0
 11
-21.11142158508329
 21
-20.33105468749988
 31
0.0
 11
-14.62916946411229
 21
-20.31195068358988
 31
0.0
  0
SPLINE
  5
B71B
330
1F
100
AcDbEntity
  8
AM_0
100
AcDbSpline
210
0.0
220
0.0
230
1.0
 70
     8
 71
     3
 72
    11
 73
     7
 74
     5
 42
0.0000000001
 43
0.0000000001
 44
0.0000000001
 40
0.0
 40
0.0
 40
0.0
 40
0.0
 40
0.1626679004975575
 40
0.33989236387393
 40
0.5277382893243568
 40
0.7210788717770946
 40
0.7210788717770946
 40
0.7210788717770946
 40
0.7210788717770946
 10
-13.9345130920413
 20
-4.711196899409884
 30
0.0
 10
-13.98339506172578
 20
-4.687543935031802
 30
0.0
 10
-14.08553327200607
 20
-4.638121387925077
 30
0.0
 10
-14.25489388164851
 20
-4.588315922651021
 30
0.0
 10
-14.43785260658274
 20
-4.552099073461656
 30
0.0
 10
-14.56478727345723
 20
-4.543950716332529
 30
0.0
 10
-14.62916946411229
 20
-4.539817810049868
 30
0.0
 11
-13.9345130920413
 21
-4.711196899409884
 31
0.0
 11
-14.08274841308627
 21
-4.644210815429886
 31
0.0
 11
-14.25206375122132
 21
-4.591857910149883
 31
0.0
 11
-14.4365482330333
 21
-4.556480407709869
 31
0.0
 11
-14.62916946411229
 21
-4.539817810049868
 31
0.0
  0
SPLINE
  5
B71C
330
1F
100
AcDbEntity
  8
AM_0
100
AcDbSpline
210
0.0
220
0.0
230
1.0
 70
     8
 71
     3
 72
    11
 73
     7
 74
     5
 42
0.0000000001
 43
0.0000000001
 44
0.0000000001
 40
0.0
 40
0.0
 40
0.0
 40
0.0
 40
0.1575723294252996
 40
0.2947485198143906
 40
0.4139158540422351
 40
0.521352006536006
 40
0.521352006536006
 40
0.521352006536006
 40
0.521352006536006
 10
-2.705341339112294
 20
-4.376304626459841
 30
0.0
 10
-2.66045088793076
 20
-4.348645010067065
 30
0.0
 10
-2.576480598935126
 20
-4.296906033940109
 30
0.0
 10
-2.478903676975273
 20
-4.198277258856967
 30
0.0
 10
-2.413055800521367
 20
-4.092760866736073
 30
0.0
 10
-2.404198838607591
 20
-4.016926509728294
 30
0.0
 10
-2.399999618531296
 20
-3.980972290039858
 30
0.0
 11
-2.705341339112294
 21
-4.376304626459841
 31
0.0
 11
-2.574810028077251
 21
-4.288040161129856
 31
0.0
 11
-2.478675842286293
 21
-4.190185546869855
 31
0.0
 11
-2.419826507569325
 21
-4.086563110349857
 31
0.0
 11
-2.399999618531296
 21
-3.980972290039858
 31
0.0
  0
SPLINE
  5
B71D
330
1F
100
AcDbEntity
  8
AM_0
100
AcDbSpline
210
0.0
220
0.0
230
1.0
 70
     8
 71
     3
 72
    11
 73
     7
 74
     5
 42
0.0000000001
 43
0.0000000001
 44
0.0000000001
 40
0.0
 40
0.0
 40
0.0
 40
0.0
 40
0.1382227301884758
 40
0.2401149777613588
 40
0.3086081891756123
 40
0.3529417053702906
 40
0.3529417053702906
 40
0.3529417053702906
 40
0.3529417053702906
 10
-2.705341339112294
 20
8.27588653565013
 30
0.0
 10
-2.659869031160801
 20
8.285023806819852
 30
0.0
 10
-2.580876363329379
 20
8.300896707468867
 30
0.0
 10
-2.48621418051114
 20
8.336124740944457
 30
0.0
 10
-2.417830740760466
 20
8.370736986880336
 30
0.0
 10
-2.405029620566101
 20
8.407252238778168
 30
0.0
 10
-2.399999618531353
 20
8.421600341800143
 30
0.0
 11
-2.705341339112294
 21
8.27588653565013
 31
0.0
 11
-2.570693969727301
 21
8.307121276860158
 31
0.0
 11
-2.475254058838288
 21
8.342803955080142
 31
0.0
 11
-2.418661117554336
 21
8.381385803230131
 31
0.0
 11
-2.399999618531353
 21
8.421600341800143
 31
0.0
  0
SPLINE
  5
B71E
330
1F
100
AcDbEntity
  8
AM_0
100
AcDbSpline
210
0.0
220
0.0
230
1.0
 70
     8
 71
     3
 72
    11
 73
     7
 74
     5
 42
0.0000000001
 43
0.0000000001
 44
0.0000000001
 40
0.0
 40
0.0
 40
0.0
 40
0.0
 40
0.1451686522809893
 40
0.313658276690133
 40
0.500954638063738
 40
0.6992007246470388
 40
0.6992007246470388
 40
0.6992007246470388
 40
0.6992007246470388
 10
-13.9345130920413
 20
8.480522155770103
 30
0.0
 10
-13.98200724745374
 20
8.489860565751122
 30
0.0
 10
-14.08462537268566
 20
8.510037577355547
 30
0.0
 10
-14.25051353606074
 20
8.530145740835537
 30
0.0
 10
-14.43461219409385
 20
8.545480942028433
 30
0.0
 10
-14.56310064789639
 20
8.549087152414498
 30
0.0
 10
-14.62916946411229
 20
8.55094146729013
 30
0.0
 11
-13.9345130920413
 21
8.480522155770103
 31
0.0
 11
-14.07726287841831
 21
8.506912231450115
 31
0.0
 11
-14.24437713623132
 21
8.528396606450115
 31
0.0
 11
-14.43106269836533
 21
8.543510437020103
 31
0.0
 11
-14.62916946411229
 21
8.55094146729013
 31
0.0
  0
SPLINE
  5
B71F
330
1F
100
AcDbEntity
  8
AM_0
100
AcDbSpline
210
0.0
220
0.0
230
1.0
 70
     8
 71
     3
 72
    11
 73
     7
 74
     5
 42
0.0000000001
 43
0.0000000001
 44
0.0000000001
 40
0.0
 40
0.0
 40
0.0
 40
0.0
 40
0.0354716410699361
 40
0.0709453114903902
 40
0.1064169525595761
 40
0.1418887158812115
 40
0.1418887158812115
 40
0.1418887158812115
 40
0.1418887158812115
 10
-6.321428298951275
 20
7.733444213870114
 30
0.0
 10
-6.309605901846481
 20
7.73325692667154
 30
0.0
 10
-6.28596043127158
 20
7.732882341559595
 30
0.0
 10
-6.250492824523191
 20
7.732304186907372
 30
0.0
 10
-6.215024863764655
 20
7.731745579557045
 30
0.0
 10
-6.191380168365579
 20
7.731362296272607
 30
0.0
 10
-6.179557800293309
 20
7.731170654300143
 30
0.0
 11
-6.321428298951275
 21
7.733444213870114
 31
0.0
 11
-6.285961151123331
 21
7.732879638680145
 31
0.0
 11
-6.250492095948345
 21
7.732307434090131
 31
0.0
 11
-6.21502494812131
 21
7.731742858890157
 31
0.0
 11
-6.179557800293309
 21
7.731170654300143
 31
0.0
  0
SPLINE
  5
B720
330
1F
100
AcDbEntity
  8
AM_0
100
AcDbSpline
210
0.0
220
0.0
230
1.0
 70
     8
 71
     3
 72
    11
 73
     7
 74
     5
 42
0.0000000001
 43
0.0000000001
 44
0.0000000001
 40
0.0
 40
0.0
 40
0.0
 40
0.0
 40
0.0919178889052829
 40
0.183804625608602
 40
0.2756678891773696
 40
0.3675061135083509
 40
0.3675061135083509
 40
0.3675061135083509
 40
0.3675061135083509
 10
-6.179557800293309
 20
7.39454650879017
 30
0.0
 10
-6.190323829681101
 20
7.423233470457231
 30
0.0
 10
-6.21185223970533
 20
7.480597671396352
 30
0.0
 10
-6.246513788600421
 20
7.565708813984192
 30
0.0
 10
-6.2827580781278
 20
7.650130233507653
 30
0.0
 10
-6.308539396708606
 20
7.705675410758252
 30
0.0
 10
-6.321428298951275
 20
7.733444213870114
 30
0.0
 11
-6.179557800293309
 21
7.39454650879017
 31
0.0
 11
-6.212251663208292
 21
7.480453491210113
 31
0.0
 11
-6.246782302857297
 21
7.565605163580158
 31
0.0
 11
-6.283166885376317
 21
7.649955749520159
 31
0.0
 11
-6.321428298951275
 21
7.733444213870114
 31
0.0
  0
SPLINE
  5
B721
330
1F
100
AcDbEntity
  8
AM_0
100
AcDbSpline
210
0.0
220
0.0
230
1.0
 70
     8
 71
     3
 72
    11
 73
     7
 74
     5
 42
0.0000000001
 43
0.0000000001
 44
0.0000000001
 40
0.0
 40
0.0
 40
0.0
 40
0.0
 40
0.8697151683338915
 40
1.737493018836425
 40
2.599972676750809
 40
3.452178697574102
 40
3.452178697574102
 40
3.452178697574102
 40
3.452178697574102
 10
-11.2148933410653
 20
7.89975738526013
 30
0.0
 10
-11.3100633222344
 20
7.625688224412174
 30
0.0
 10
-11.50019129045285
 20
7.07816040037304
 30
0.0
 10
-11.69177483218594
 20
6.231658699600768
 30
0.0
 10
-11.81550963736175
 20
5.377418062091295
 30
0.0
 10
-11.81378969440136
 20
4.805144040244468
 30
0.0
 10
-11.81293487548936
 20
4.520721435550143
 30
0.0
 11
-11.2148933410653
 21
7.89975738526013
 31
0.0
 11
-11.48484420776429
 21
7.072998046880144
 31
0.0
 11
-11.68094825744731
 21
6.227668762210129
 31
0.0
 11
-11.79478073120231
 21
5.372734069830102
 31
0.0
 11
-11.81293487548936
 21
4.520721435550143
 31
0.0
  0
SPLINE
  5
B722
330
1F
100
AcDbEntity
  8
AM_0
100
AcDbSpline
210
0.0
220
0.0
230
1.0
 70
     8
 71
     3
 72
    11
 73
     7
 74
     5
 42
0.0000000001
 43
0.0000000001
 44
0.0000000001
 40
0.0
 40
0.0
 40
0.0
 40
0.0
 40
0.7017061764204264
 40
1.399413139630112
 40
2.092670999491202
 40
2.780947942091121
 40
2.780947942091121
 40
2.780947942091121
 40
2.780947942091121
 10
-11.2148933410653
 20
7.89975738526013
 30
0.0
 10
-11.44382040638301
 20
7.947742967603807
 30
0.0
 10
-11.90036981978111
 20
8.043440649484134
 30
0.0
 10
-12.58271415380084
 20
8.188329517055469
 30
0.0
 10
-13.2604007241899
 20
8.333598485738143
 30
0.0
 10
-13.71034971069962
 20
8.431665454359229
 30
0.0
 10
-13.9345130920413
 20
8.480522155770103
 30
0.0
 11
-11.2148933410653
 21
7.89975738526013
 31
0.0
 11
-11.90161132812528
 21
8.044013977050127
 31
0.0
 11
-12.58411788940532
 21
8.188858032230115
 31
0.0
 11
-13.26194000244231
 21
8.334335327150114
 31
0.0
 11
-13.9345130920413
 21
8.480522155770103
 31
0.0
  0
SPLINE
  5
B723
330
1F
100
AcDbEntity
  8
AM_0
100
AcDbSpline
210
0.0
220
0.0
230
1.0
 70
     8
 71
     3
 72
    11
 73
     7
 74
     5
 42
0.0000000001
 43
0.0000000001
 44
0.0000000001
 40
0.0
 40
0.0
 40
0.0
 40
0.0
 40
0.68152988825301
 40
1.362511550131895
 40
2.042951034762856
 40
2.722852732649888
 40
2.722852732649888
 40
2.722852732649888
 40
2.722852732649888
 10
-11.53551673889228
 20
-5.999114990229855
 30
0.0
 10
-11.73586782962339
 20
-5.892023103553652
 30
0.0
 10
-12.13640884757111
 20
-5.677925475501318
 30
0.0
 10
-12.73654584988513
 20
-5.356095442266452
 30
0.0
 10
-13.33591132014141
 20
-5.033975666199454
 30
0.0
 10
-13.73503176313593
 20
-4.818761461300939
 30
0.0
 10
-13.9345130920413
 20
-4.711196899409884
 30
0.0
 11
-11.53551673889228
 21
-5.999114990229855
 31
0.0
 11
-12.13649749755927
 21
-5.677703857419857
 31
0.0
 11
-12.73665618896529
 21
-5.355918884269868
 31
0.0
 11
-13.33599472045926
 21
-5.033752441399883
 31
0.0
 11
-13.9345130920413
 21
-4.711196899409884
 31
0.0
  0
SPLINE
  5
B724
330
1F
100
AcDbEntity
  8
AM_0
100
AcDbSpline
210
0.0
220
0.0
230
1.0
 70
     8
 71
     3
 72
    11
 73
     7
 74
     5
 42
0.0000000001
 43
0.0000000001
 44
0.0000000001
 40
0.0
 40
0.0
 40
0.0
 40
0.0
 40
0.7967980591285757
 40
1.592756348522109
 40
2.387865539475169
 40
3.182011047572638
 40
3.182011047572638
 40
3.182011047572638
 40
3.182011047572638
 10
-5.484899520874307
 20
-5.925247192379856
 30
0.0
 10
-5.252574276507383
 20
-5.796530352855373
 30
0.0
 10
-4.788168642422302
 20
-5.539232332402691
 30
0.0
 10
-4.092627327249825
 20
-5.152234390097572
 30
0.0
 10
-3.398307369642995
 20
-4.764860686500747
 30
0.0
 10
-2.936236620047343
 20
-4.50577094470556
 30
0.0
 10
-2.705341339112294
 20
-4.376304626459841
 30
0.0
 11
-5.484899520874307
 21
-5.925247192379856
 31
0.0
 11
-4.788040161133324
 21
-5.538887023919841
 31
0.0
 11
-4.092454910279286
 21
-5.151962280269856
 31
0.0
 11
-3.398164749146303
 21
-4.76445770262984
 31
0.0
 11
-2.705341339112294
 21
-4.376304626459841
 31
0.0
  0
SPLINE
  5
B725
330
1F
100
AcDbEntity
  8
AM_0
100
AcDbSpline
210
0.0
220
0.0
230
1.0
 70
     8
 71
     3
 72
    11
 73
     7
 74
     5
 42
0.0000000001
 43
0.0000000001
 44
0.0000000001
 40
0.0
 40
0.0
 40
0.0
 40
0.0
 40
0.7117585119093265
 40
1.419986702701833
 40
2.124293660402862
 40
2.824197437103144
 40
2.824197437103144
 40
2.824197437103144
 40
2.824197437103144
 10
-5.484899520874307
 20
7.77577972413016
 30
0.0
 10
-5.251259736029948
 20
7.817027674159318
 30
0.0
 10
-4.785139019312236
 20
7.89931898444937
 30
0.0
 10
-4.0881039998758
 20
8.024000313023584
 30
0.0
 10
-3.395171103946832
 20
8.149168844163606
 30
0.0
 10
-2.934803402674218
 20
8.233735697196129
 30
0.0
 10
-2.705341339112294
 20
8.27588653565013
 30
0.0
 11
-5.484899520874307
 21
7.77577972413016
 31
0.0
 11
-4.784027099610341
 21
7.899787902840131
 31
0.0
 11
-4.086853027344318
 21
8.02442932129017
 31
0.0
 11
-3.393789291382347
 21
8.149772644050159
 31
0.0
 11
-2.705341339112294
 21
8.27588653565013
 31
0.0
  0
SPLINE
  5
B726
330
1F
100
AcDbEntity
  8
AM_0
100
AcDbSpline
210
0.0
220
0.0
230
1.0
 70
     8
 71
     3
 72
    11
 73
     7
 74
     5
 42
0.0000000001
 43
0.0000000001
 44
0.0000000001
 40
0.0
 40
0.0
 40
0.0
 40
0.0
 40
0.1262421325191236
 40
0.2524842650375466
 40
0.3787230820632015
 40
0.5049647237618222
 40
0.5049647237618222
 40
0.5049647237618222
 40
0.5049647237618222
 10
-9.850143432618267
 20
2.539627075200115
 30
0.0
 10
-9.892136873705972
 20
2.536918361489012
 30
0.0
 10
-9.976123755881149
 20
2.53150093406682
 30
0.0
 10
-10.1021032998722
 20
2.523379879748423
 30
0.0
 10
-10.22808138621503
 20
2.515238773599905
 30
0.0
 10
-10.31206756667409
 20
2.509830181036598
 30
0.0
 10
-10.35406112670926
 20
2.507125854500117
 30
0.0
 11
-9.850143432618267
 21
2.539627075200115
 31
0.0
 11
-9.976123809815305
 21
2.531501770020128
 31
0.0
 11
-10.10210418701228
 21
2.523376464850144
 31
0.0
 11
-10.22808074951228
 21
2.515243530280116
 31
0.0
 11
-10.35406112670926
 21
2.507125854500117
 31
0.0
  0
SPLINE
  5
B727
330
1F
100
AcDbEntity
  8
AM_0
100
AcDbSpline
210
0.0
220
0.0
230
1.0
 70
     8
 71
     3
 72
    11
 73
     7
 74
     5
 42
0.0000000001
 43
0.0000000001
 44
0.0000000001
 40
0.0
 40
0.0
 40
0.0
 40
0.0
 40
0.3757981834726014
 40
0.7544251084098346
 40
1.134365536863536
 40
1.514706944509793
 40
1.514706944509793
 40
1.514706944509793
 40
1.514706944509793
 10
-6.179557800293309
 20
7.39454650879017
 30
0.0
 10
-6.139632446657994
 20
7.275726326877595
 30
0.0
 10
-6.059481209719353
 20
7.037191569225669
 30
0.0
 10
-5.977674674529307
 20
6.667477145267403
 30
0.0
 10
-5.916900005914083
 20
6.292434719273336
 30
0.0
 10
-5.897058586586068
 20
6.039681691392926
 30
0.0
 10
-5.887132644654286
 20
5.913238525390141
 30
0.0
 11
-6.179557800293309
 21
7.39454650879017
 31
0.0
 11
-6.066169738770327
 21
7.036262512210129
 31
0.0
 11
-5.981313705445302
 21
6.667266845710145
 31
0.0
 11
-5.922098159790323
 21
6.291969299320129
 31
0.0
 11
-5.887132644654286
 21
5.913238525390141
 31
0.0
  0
SPLINE
  5
B728
330
1F
100
AcDbEntity
  8
AM_0
100
AcDbSpline
210
0.0
220
0.0
230
1.0
 70
     8
 71
     3
 72
    11
 73
     7
 74
     5
 42
0.0000000001
 43
0.0000000001
 44
0.0000000001
 40
0.0
 40
0.0
 40
0.0
 40
0.0
 40
0.7300175860304149
 40
1.465038088233039
 40
2.20425263074773
 40
2.946836751333152
 40
2.946836751333152
 40
2.946836751333152
 40
2.946836751333152
 10
-5.881759643555312
 20
5.809669494630128
 30
0.0
 10
-5.871195596059334
 20
5.566559702740226
 30
0.0
 10
-5.849995104120957
 20
5.078674052371422
 30
0.0
 10
-5.817401814349056
 20
4.34464635719035
 30
0.0
 10
-5.784155695170143
 20
3.606454828746854
 30
0.0
 10
-5.761473632246206
 20
3.113042986876827
 30
0.0
 10
-5.75010681152429
 20
2.865776062020159
 30
0.0
 11
-5.881759643555312
 21
5.809669494630128
 31
0.0
 11
-5.849952697754304
 21
5.080345153810156
 31
0.0
 11
-5.817386627198345
 21
4.34604644776013
 31
0.0
 11
-5.784091949463288
 21
3.60758209229013
 31
0.0
 11
-5.75010681152429
 21
2.865776062020159
 31
0.0
  0
SPLINE
  5
B729
330
1F
100
AcDbEntity
  8
AM_0
100
AcDbSpline
210
0.0
220
0.0
230
1.0
 70
     8
 71
     3
 72
    11
 73
     7
 74
     5
 42
0.0000000001
 43
0.0000000001
 44
0.0000000001
 40
0.0
 40
0.0
 40
0.0
 40
0.0
 40
0.1048236228514482
 40
0.2138372736223395
 40
0.3259694062013365
 40
0.4398363148369616
 40
0.4398363148369616
 40
0.4398363148369616
 40
0.4398363148369616
 10
-5.75010681152429
 20
2.865776062020159
 30
0.0
 10
-5.783214967826255
 20
2.854555867419454
 30
0.0
 10
-5.85075468536023
 20
2.831666982665613
 30
0.0
 10
-5.956546749297269
 20
2.806356580186569
 30
0.0
 10
-6.066625095922542
 20
2.786883544406399
 30
0.0
 10
-6.141721418224912
 20
2.780484106673564
 30
0.0
 10
-6.179557800293252
 20
2.777259826660127
 30
0.0
 11
-5.75010681152429
 21
2.865776062020159
 31
0.0
 11
-5.849878311158306
 21
2.833625793460129
 31
0.0
 11
-5.955751419068292
 21
2.807647705080142
 31
0.0
 11
-6.066261291504304
 21
2.788642883300127
 31
0.0
 11
-6.179557800293252
 21
2.777259826660127
 31
0.0
  0
SPLINE
  5
B72A
330
1F
100
AcDbEntity
  8
AM_0
100
AcDbSpline
210
0.0
220
0.0
230
1.0
 70
     8
 71
     3
 72
    11
 73
     7
 74
     5
 42
0.0000000001
 43
0.0000000001
 44
0.0000000001
 40
0.0
 40
0.0
 40
0.0
 40
0.0
 40
0.1935051089773787
 40
0.3818149710535876
 40
0.5598546043152356
 40
0.7235768425966591
 40
0.7235768425966591
 40
0.7235768425966591
 40
0.7235768425966591
 10
-6.179557800293252
 20
-6.107269287109858
 30
0.0
 10
-6.115199567411033
 20
-6.102070400039294
 30
0.0
 10
-5.988210998712014
 20
-6.091812206202199
 30
0.0
 10
-5.805347951697394
 20
-6.052784522951956
 30
0.0
 10
-5.635946581038572
 20
-6.000468923402925
 30
0.0
 10
-5.533822449004548
 20
-5.949610906156686
 30
0.0
 10
-5.484899520874307
 20
-5.925247192379856
 30
0.0
 11
-6.179557800293252
 21
-6.107269287109858
 31
0.0
 11
-5.98706817627027
 21
-6.087471008299871
 31
0.0
 11
-5.802675247193292
 21
-6.049263000479868
 31
0.0
 11
-5.633296966553302
 21
-5.994407653799868
 31
0.0
 11
-5.484899520874307
 21
-5.925247192379856
 31
0.0
  0
SPLINE
  5
B72B
330
1F
100
AcDbEntity
  8
AM_0
100
AcDbSpline
210
0.0
220
0.0
230
1.0
 70
     8
 71
     3
 72
    11
 73
     7
 74
     5
 42
0.0000000001
 43
0.0000000001
 44
0.0000000001
 40
0.0
 40
0.0
 40
0.0
 40
0.0
 40
0.1950582336704346
 40
0.381132309725762
 40
0.5502025991541359
 40
0.6969788306061188
 40
0.6969788306061188
 40
0.6969788306061188
 40
0.6969788306061188
 10
-6.179557800293309
 20
7.731170654300143
 30
0.0
 10
-6.114528608870106
 20
7.730848356933767
 30
0.0
 10
-5.987465395693471
 20
7.730218606846554
 30
0.0
 10
-5.804205919218818
 20
7.738591170192262
 30
0.0
 10
-5.637350350020776
 20
7.75229614398041
 30
0.0
 10
-5.533267566049427
 20
7.768329093183016
 30
0.0
 10
-5.484899520874307
 20
7.77577972413016
 30
0.0
 11
-6.179557800293309
 21
7.731170654300143
 31
0.0
 11
-5.984500885010277
 21
7.731887817390173
 31
0.0
 11
-5.798604965210358
 21
7.740028381350128
 31
0.0
 11
-5.630201339722304
 21
7.755027771000158
 31
0.0
 11
-5.484899520874307
 21
7.77577972413016
 31
0.0
  0
SPLINE
  5
B72C
330
1F
100
AcDbEntity
  8
AM_0
100
AcDbSpline
210
0.0
220
0.0
230
1.0
 70
     8
 71
     3
 72
    11
 73
     7
 74
     5
 42
0.0000000001
 43
0.0000000001
 44
0.0000000001
 40
0.0
 40
0.0
 40
0.0
 40
0.0
 40
0.1968106454435614
 40
0.3853771262834126
 40
0.5590853973566845
 40
0.7147927271933465
 40
0.7147927271933465
 40
0.7147927271933465
 40
0.7147927271933465
 10
-10.35406112670926
 20
2.507125854500117
 30
0.0
 10
-10.41973729849837
 20
2.50513707584083
 30
0.0
 10
-10.54833854510443
 20
2.501242826102446
 30
0.0
 10
-10.73368987749992
 20
2.525513012449371
 30
0.0
 10
-10.90213914504367
 20
2.567301980074073
 30
0.0
 10
-11.00167361360184
 20
2.614215651124156
 30
0.0
 10
-11.0487213134773
 20
2.63639068604013
 30
0.0
 11
-10.35406112670926
 21
2.507125854500117
 31
0.0
 11
-10.55087089538625
 21
2.50653839112013
 31
0.0
 11
-10.7379951477053
 21
2.529815673830142
 31
0.0
 11
-10.90588188171426
 21
2.57440948487013
 31
0.0
 11
-11.0487213134773
 21
2.63639068604013
 31
0.0
  0
SPLINE
  5
B72D
330
1F
100
AcDbEntity
  8
AM_0
100
AcDbSpline
210
0.0
220
0.0
230
1.0
 70
     8
 71
     3
 72
    11
 73
     7
 74
     5
 42
0.0000000001
 43
0.0000000001
 44
0.0000000001
 40
0.0
 40
0.0
 40
0.0
 40
0.0
 40
0.1586454180424756
 40
0.3325770516847937
 40
0.5177175655353881
 40
0.7089240559696285
 40
0.7089240559696285
 40
0.7089240559696285
 40
0.7089240559696285
 10
-11.0487213134773
 20
-6.216865539549871
 30
0.0
 10
-10.99938668396005
 20
-6.236150252489874
 30
0.0
 10
-10.89596380649368
 20
-6.276577849147321
 30
0.0
 10
-10.72612878124953
 20
-6.310801180571488
 30
0.0
 10
-10.5433894541972
 20
-6.330323488152052
 30
0.0
 10
-10.41784507901612
 20
-6.327251814597736
 30
0.0
 10
-10.35406112670926
 20
-6.32569122313987
 30
0.0
 11
-11.0487213134773
 21
-6.216865539549871
 31
0.0
 11
-10.8994255065923
 21
-6.270523071289886
 31
0.0
 11
-10.72946548462027
 21
-6.307479858389854
 31
0.0
 11
-10.54526710510327
 21
-6.326133728019868
 31
0.0
 11
-10.35406112670926
 21
-6.32569122313987
 31
0.0
  0
SPLINE
  5
B72E
330
1F
100
AcDbEntity
  8
AM_0
100
AcDbSpline
210
0.0
220
0.0
230
1.0
 70
     8
 71
     3
 72
    11
 73
     7
 74
     5
 42
0.0000000001
 43
0.0000000001
 44
0.0000000001
 40
0.0
 40
0.0
 40
0.0
 40
0.0
 40
0.5576569540718871
 40
1.11464018263428
 40
1.671523940713627
 40
2.228824572406876
 40
2.228824572406876
 40
2.228824572406876
 40
2.228824572406876
 10
-9.850143432618267
 20
2.539627075200115
 30
0.0
 10
-9.687482906955109
 20
2.44663397367002
 30
0.0
 10
-9.362358371685351
 20
2.260760118934816
 30
0.0
 10
-8.793423816598604
 20
2.193078394091455
 30
0.0
 10
-8.238769350822966
 20
2.334862914928839
 30
0.0
 10
-7.939887069112063
 20
2.560119896473759
 30
0.0
 10
-7.79039001464929
 20
2.672790527350144
 30
0.0
 11
-9.850143432618267
 21
2.539627075200115
 31
0.0
 11
-9.348579406739304
 21
2.295875549320129
 31
0.0
 11
-8.795749664307265
 21
2.227981567390116
 31
0.0
 11
-8.256622314454318
 21
2.367485046390157
 31
0.0
 11
-7.79039001464929
 21
2.672790527350144
 31
0.0
  0
ELLIPSE
  5
B72F
330
1F
100
AcDbEntity
  8
AM_0
100
AcDbEllipse
 10
-10.55460357666134
 20
9.661598205570129
 30
0.0
 11
-2.999408604180998
 21
0.0595172505799949
 31
0.0
210
0.0
220
0.0
230
1.0
 40
0.2584636436983
 41
5.755982172722902
 42
6.07763038288576
  0
ELLIPSE
  5
B730
330
1F
100
AcDbEntity
  8
AM_0
100
AcDbEllipse
 10
-15.4998302459723
 20
14.67156982421809
 30
0.0
 11
0.0174523749779934
 21
2.999950427452006
 31
0.0
210
0.0
220
0.0
230
1.0
 40
0.2079114286457
 41
3.141592233108787
 42
3.733020970642559
  0
ELLIPSE
  5
B731
330
1F
100
AcDbEntity
  8
AM_0
100
AcDbEllipse
 10
-15.21159934997632
 20
14.6698913574211
 30
0.0
 11
0.0174523527859923
 21
2.999946612819002
 31
0.0
210
0.0
220
0.0
230
1.0
 40
0.0354378955417
 41
3.141590186659821
 42
3.725602591083514
  0
ELLIPSE
  5
B732
330
1F
100
AcDbEntity
  8
AM_0
100
AcDbEllipse
 10
-15.16296195983932
 20
12.66957092286011
 30
0.0
 11
0.0145436414229949
 21
2.499957934554998
 31
0.0
210
0.0
220
0.0
230
1.0
 40
0.034899726162
 41
3.141590148618658
 42
4.712389066226977
  0
ELLIPSE
  5
B733
330
1F
100
AcDbEntity
  8
AM_0
100
AcDbEllipse
 10
-8.988956451416299
 20
-24.51586914061985
 30
0.0
 11
2.999882619965996
 21
0.2574920671399982
 31
0.0
210
0.0
220
0.0
230
0.9999999999999998
 40
0.8113974653734999
 41
0.4101263835126544
 42
2.334880395698752
  0
ELLIPSE
  5
B734
330
1F
100
AcDbEntity
  8
AM_0
100
AcDbEllipse
 10
-19.57561588287427
 20
-25.37016296385988
 30
0.0
 11
14.97227773617999
 21
0.9138565120200336
 31
0.0
210
0.0
220
0.0
230
1.0
 40
0.5072755129003001
 41
1.545755730382189
 42
2.262923341049621
  0
ELLIPSE
  5
B735
330
1F
100
AcDbEntity
  8
AM_0
100
AcDbEllipse
 10
-19.57561492920035
 20
24.4452819824211
 30
0.0
 11
0.0886061700489692
 21
15.231139900637
 31
0.0
210
0.0
220
0.0
230
1.0
 40
0.9834583055908
 41
2.424434561553032
 42
3.141592742483044
  0
ELLIPSE
  5
B736
330
1F
100
AcDbEntity
  8
AM_0
100
AcDbEllipse
 10
-15.98092269897529
 20
0.0000000000001137
 30
0.0
 11
3.73940932391096
 21
20.392349552038
 31
0.0
210
0.0
220
0.0
230
1.0
 40
0.107739052352
 41
4.331883508784077
 42
4.380840244248933
  0
ELLIPSE
  5
B737
330
1F
100
AcDbEntity
  8
AM_0
100
AcDbEllipse
 10
-15.3598213195803
 20
0.0000000000001137
 30
0.0
 11
0.55780135437796
 21
20.396319934529
 31
0.0
210
0.0
220
0.0
230
1.0
 40
0.0224822968127
 41
4.361469432189583
 42
4.489427047733636
  0
ELLIPSE
  5
B738
330
1F
100
AcDbEntity
  8
AM_0
100
AcDbEllipse
 10
-15.98092269897529
 20
-0.000076293939884
 30
0.0
 11
0.1242836123549603
 21
20.396382288276
 31
0.0
210
0.0
220
0.0
230
1.0
 40
0.2125522862502
 41
6.149324308246405
 42
6.161002980956594
  0
ELLIPSE
  5
B739
330
1F
100
AcDbEntity
  8
AM_0
100
AcDbEllipse
 10
-8.988956451416299
 20
7.504898071290114
 30
0.0
 11
-3.007143918056002
 21
0.0315743369099917
 31
0.0
210
0.0
220
0.0
230
1.0
 40
0.1841026621248
 41
3.623852527639563
 42
5.548872717290173
  0
ELLIPSE
  5
B73A
330
1F
100
AcDbEntity
  8
AM_0
100
AcDbEllipse
 10
-11.06023025512729
 20
-1.093811035149855
 30
0.0
 11
-1.133422986134046
 21
23.44773886345797
 31
0.0
210
0.0
220
0.0
230
0.9999999999999998
 40
0.0210980375775
 41
1.328451089598891
 42
1.393751075150758
  0
ELLIPSE
  5
B73B
330
1F
100
AcDbEntity
  8
AM_0
100
AcDbEllipse
 10
-8.75701713562131
 20
3.67275238038016
 30
0.0
 11
2.994520103439998
 21
0.1812438967000022
 31
0.0
210
0.0
220
0.0
230
1.0
 40
0.4995799064636001
 41
0.1382086390853774
 42
3.117205770773901
  0
ELLIPSE
  5
B73C
330
1F
100
AcDbEntity
  8
AM_0
100
AcDbEllipse
 10
-124.3073272705073
 20
-0.0000152587900857
 30
0.0
 11
453.077339314943
 21
20.5738685745919
 31
0.0
210
0.0
220
0.0
230
1.0
 40
0.0261633448365
 41
4.965445585059232
 42
4.97497658443952
  0
ELLIPSE
  5
B73D
330
1F
100
AcDbEntity
  8
AM_0
100
AcDbEllipse
 10
-8.907682418824322
 20
3.740524292000117
 30
0.0
 11
2.495433735725
 21
0.1510353028199964
 31
0.0
210
0.0
220
0.0
230
1.0
 40
0.4995773315833
 41
5.146173682014831
 42
6.283185307179586
  0
ELLIPSE
  5
B73E
330
1F
100
AcDbEntity
  8
AM_0
100
AcDbEllipse
 10
-8.907682418824322
 20
3.740524292000117
 30
0.0
 11
2.495433735725
 21
0.1510353028199964
 31
0.0
210
0.0
220
0.0
230
1.0
 40
0.4995773315833
 41
0.0
 42
3.141592828583334
  0
ELLIPSE
  5
B73F
330
1F
100
AcDbEntity
  8
AM_0
100
AcDbEllipse
 10
-8.907682418824322
 20
3.740524292000117
 30
0.0
 11
2.495433735725
 21
0.1510353028199964
 31
0.0
210
0.0
220
0.0
230
1.0
 40
0.4995773315833
 41
3.141592478596251
 42
4.295075538373632
  0
ARC
  5
B784
330
1F
100
AcDbEntity
  8
AM_0
100
AcDbCircle
 10
-7.998159408570302
 20
16.91020202636716
 30
0.0
 40
3.9000000953674
100
AcDbArc
 50
89.66666878241106
 51
269.6666601309897
  0
ARC
  5
B785
330
1F
100
AcDbEntity
  8
AM_0
100
AcDbCircle
 10
-7.998159408570302
 20
16.91020202636716
 30
0.0
 40
3.9000000953674
100
AcDbArc
 50
269.6666706036496
 51
359.6666674785541
  0
LINE
  5
B786
330
1F
100
AcDbEntity
  8
AM_0
100
AcDbLine
 10
-15.99631690979032
 20
15.36540985107413
 30
0.0
 11
-15.97780227661235
 21
18.54795074462813
 31
0.0
  0
LINE
  5
B787
330
1F
100
AcDbEntity
  8
AM_0
100
AcDbLine
 10
-0.0000000000003411
 20
18.45500183105414
 30
0.0
 11
-0.0185127258303624
 21
15.27245330810515
 31
0.0
  0
LINE
  5
B789
330
1F
100
AcDbEntity
  8
AM_0
100
AcDbLine
 10
-0.2647361755372799
 20
-6.800247192379856
 30
0.0
 11
-0.0185165405283101
 21
-7.636222839349841
 31
0.0
  0
LINE
  5
B78A
330
1F
100
AcDbEntity
  8
AM_0
100
AcDbLine
 10
-0.2647361755372799
 20
-6.800247192379856
 30
0.0
 11
-0.2466697692872799
 21
-8.352859497069857
 31
0.0
  0
LINE
  5
B78B
330
1F
100
AcDbEntity
  8
AM_0
100
AcDbLine
 10
-0.2466697692872799
 20
-8.352859497069857
 30
0.0
 11
-2.0017433166513
 21
-4.05025482176984
 31
0.0
  0
LINE
  5
B78C
330
1F
100
AcDbEntity
  8
AM_0
100
AcDbLine
 10
-14.63287544250528
 20
-10.48287963866988
 30
0.0
 11
-14.42891693115331
 21
-4.911697387689883
 31
0.0
  0
LINE
  5
B78D
330
1F
100
AcDbEntity
  8
AM_0
100
AcDbLine
 10
-2.214723587037326
 20
-4.321800231929842
 30
0.0
 11
-1.4166660308843
 21
-9.844596862789842
 31
0.0
  0
LINE
  5
B78E
330
1F
100
AcDbEntity
  8
AM_0
100
AcDbLine
 10
-11.13789558410729
 20
-6.391906738279857
 30
0.0
 11
-12.42739105224626
 21
-11.47484588622987
 31
0.0
  0
LINE
  5
B78F
330
1F
100
AcDbEntity
  8
AM_0
100
AcDbLine
 10
-9.555562973023256
 20
-11.93063354491985
 30
0.0
 11
-10.61512374878026
 21
-6.474868774409856
 31
0.0
  0
LINE
  5
B790
330
1F
100
AcDbEntity
  8
AM_0
100
AcDbLine
 10
-3.596601486206225
 20
-11.04835510253985
 30
0.0
 11
-5.467620849610284
 21
-6.118049621579871
 31
0.0
  0
LINE
  5
B791
330
1F
100
AcDbEntity
  8
AM_0
100
AcDbLine
 10
-5.987873077393317
 20
-6.251396179199872
 30
0.0
 11
-6.454601287842251
 21
-11.78086853026985
 31
0.0
  0
LINE
  5
B792
330
1F
100
AcDbEntity
  8
AM_0
100
AcDbLine
 10
-14.7444591522223
 20
-11.41057586669987
 30
0.0
 11
-12.48405265808122
 21
-12.42723846434987
 31
0.0
  0
LINE
  5
B793
330
1F
100
AcDbEntity
  8
AM_0
100
AcDbLine
 10
-12.42738723754922
 20
-11.47484588622987
 30
0.0
 11
-14.63287544250528
 21
-10.48288726805987
 31
0.0
  0
LINE
  5
B794
330
1F
100
AcDbEntity
  8
AM_0
100
AcDbLine
 10
-2.399999618531239
 20
-16.92079162596985
 30
0.0
 11
-19.66422748565724
 21
-17.75459289549988
 31
0.0
  0
LINE
  5
B795
330
1F
100
AcDbEntity
  8
AM_0
100
AcDbLine
 10
-15.99631690979032
 20
-8.407897949209882
 30
0.0
 11
-15.97780227661229
 21
-9.999168395989869
 31
0.0
  0
LINE
  5
B796
330
1F
100
AcDbEntity
  8
AM_0
100
AcDbLine
 10
-15.92410278320431
 20
-7.973236083979884
 30
0.0
 11
-15.99631500244226
 21
-8.40789031981987
 31
0.0
  0
LINE
  5
B797
330
1F
100
AcDbEntity
  8
AM_0
100
AcDbLine
 10
-15.83625221252526
 20
-9.105773925779885
 30
0.0
 11
-15.84947013855031
 21
-7.969619750969883
 31
0.0
  0
LINE
  5
B798
330
1F
100
AcDbEntity
  8
AM_0
100
AcDbLine
 10
-15.97780609130927
 20
-9.999168395989869
 30
0.0
 11
-14.74446296691922
 21
-11.41056823729988
 31
0.0
  0
LINE
  5
B799
330
1F
100
AcDbEntity
  8
AM_0
100
AcDbLine
 10
-15.5283412933353
 20
-7.954040527339884
 30
0.0
 11
-15.83625221252526
 21
-9.105773925779885
 31
0.0
  0
LINE
  5
B79A
330
1F
100
AcDbEntity
  8
AM_0
100
AcDbLine
 10
-15.83625411987327
 20
-9.105773925779885
 30
0.0
 11
-15.97780227661229
 21
-9.999160766599885
 31
0.0
  0
LINE
  5
B79B
330
1F
100
AcDbEntity
  8
AM_0
100
AcDbLine
 10
-14.74445724487321
 20
-11.41056823729988
 30
0.0
 11
-14.63287544250528
 21
-10.48288726805987
 31
0.0
  0
LINE
  5
B79C
330
1F
100
AcDbEntity
  8
AM_0
100
AcDbLine
 10
-2.399999618531239
 20
-19.97840881346985
 30
0.0
 11
-2.399999618531239
 21
-16.92080688475985
 31
0.0
  0
LINE
  5
B79D
330
1F
100
AcDbEntity
  8
AM_0
100
AcDbLine
 10
-6.362525939942258
 20
-12.74088287352987
 30
0.0
 11
-3.433353424073231
 21
-11.99011993407984
 31
0.0
  0
LINE
  5
B79E
330
1F
100
AcDbEntity
  8
AM_0
100
AcDbLine
 10
-9.540708541871254
 20
-12.89437866210985
 30
0.0
 11
-6.362525939942258
 21
-12.74088287352987
 31
0.0
  0
LINE
  5
B79F
330
1F
100
AcDbEntity
  8
AM_0
100
AcDbLine
 10
-6.454601287842251
 20
-11.78087615965986
 30
0.0
 11
-9.555561065674226
 21
-11.93064117430987
 31
0.0
  0
LINE
  5
B7A0
330
1F
100
AcDbEntity
  8
AM_0
100
AcDbLine
 10
-12.42738914489825
 20
-11.47484588622987
 30
0.0
 11
-12.48405075073327
 21
-12.42723083495988
 31
0.0
  0
LINE
  5
B7A1
330
1F
100
AcDbEntity
  8
AM_0
100
AcDbLine
 10
-12.48405265808122
 20
-12.42723846434987
 30
0.0
 11
-9.540708541871254
 21
-12.89437866210985
 31
0.0
  0
LINE
  5
B7A2
330
1F
100
AcDbEntity
  8
AM_0
100
AcDbLine
 10
-9.555562973023256
 20
-11.93063354491985
 30
0.0
 11
-9.540708541871254
 21
-12.89437103270987
 31
0.0
  0
LINE
  5
B7A3
330
1F
100
AcDbEntity
  8
AM_0
100
AcDbLine
 10
-6.454603195191282
 20
-11.78086853026985
 30
0.0
 11
-6.362525939942258
 21
-12.74088287352987
 31
0.0
  0
LINE
  5
B7A4
330
1F
100
AcDbEntity
  8
AM_0
100
AcDbLine
 10
-0.2466735839852845
 20
-10.06491088866985
 30
0.0
 11
-2.001747131348281
 21
-15.14193725585985
 31
0.0
  0
LINE
  5
B7A5
330
1F
100
AcDbEntity
  8
AM_0
100
AcDbLine
 10
-2.001743316651243
 20
-15.14195251463985
 30
0.0
 11
-2.02869987487827
 21
-12.82514190672984
 31
0.0
  0
LINE
  5
B7A6
330
1F
100
AcDbEntity
  8
AM_0
100
AcDbLine
 10
-2.399999618531239
 20
-12.93707275389985
 30
0.0
 11
-2.399999618531239
 21
-16.04896545409985
 31
0.0
  0
LINE
  5
B7A7
330
1F
100
AcDbEntity
  8
AM_0
100
AcDbLine
 10
-2.730869293213288
 20
-12.51972961424985
 30
0.0
 11
-2.730869293213288
 21
-15.33331298827985
 31
0.0
  0
LINE
  5
B7A8
330
1F
100
AcDbEntity
  8
AM_0
100
AcDbLine
 10
-2.399999618531239
 20
-15.47927856444985
 30
0.0
 11
-2.214721679688238
 21
-15.39389038085985
 31
0.0
  0
LINE
  5
B7A9
330
1F
100
AcDbEntity
  8
AM_0
100
AcDbLine
 10
-2.214717864991257
 20
-15.39387512206985
 30
0.0
 11
-2.001741409302269
 21
-15.14195251463985
 31
0.0
  0
LINE
  5
B7AA
330
1F
100
AcDbEntity
  8
AM_0
100
AcDbLine
 10
-2.399999618531239
 20
-16.92080688475985
 30
0.0
 11
-2.399999618531239
 21
-16.09873962401985
 31
0.0
  0
LINE
  5
B7AB
330
1F
100
AcDbEntity
  8
AM_0
100
AcDbLine
 10
-3.433353424073231
 20
-11.99011230467985
 30
0.0
 11
-1.199132919312262
 21
-10.75637817381985
 31
0.0
  0
LINE
  5
B7AC
330
1F
100
AcDbEntity
  8
AM_0
100
AcDbLine
 10
-1.4166660308843
 20
-9.844596862789842
 30
0.0
 11
-1.199131011963288
 21
-10.75639343260985
 31
0.0
  0
LINE
  5
B7AD
330
1F
100
AcDbEntity
  8
AM_0
100
AcDbLine
 10
-2.02869987487827
 20
-12.82514953612985
 30
0.0
 11
-1.164522171021303
 21
-10.71225738524984
 31
0.0
  0
LINE
  5
B7AE
330
1F
100
AcDbEntity
  8
AM_0
100
AcDbLine
 10
-1.416667938233274
 20
-9.844589233389854
 30
0.0
 11
-3.596603393555255
 21
-11.04834747313984
 31
0.0
  0
LINE
  5
B7AF
330
1F
100
AcDbEntity
  8
AM_0
100
AcDbLine
 10
-3.596601486206225
 20
-11.04834747313984
 30
0.0
 11
-3.433353424073231
 21
-11.99011993407984
 31
0.0
  0
LINE
  5
B7B0
330
1F
100
AcDbEntity
  8
AM_0
100
AcDbLine
 10
-2.061227798462255
 20
-11.23242950438984
 30
0.0
 11
-2.247756958008267
 21
-12.55484771727984
 31
0.0
  0
LINE
  5
B7B1
330
1F
100
AcDbEntity
  8
AM_0
100
AcDbLine
 10
-2.028701782227301
 20
-12.82514190672984
 30
0.0
 11
-2.247756958008267
 21
-12.55485534667985
 31
0.0
  0
LINE
  5
B7B2
330
1F
100
AcDbEntity
  8
AM_0
100
AcDbLine
 10
-2.247756958008267
 20
-12.55485534667985
 30
0.0
 11
-3.364217758179222
 21
-11.95195007323985
 31
0.0
  0
LINE
  5
B7B3
330
1F
100
AcDbEntity
  8
AM_0
100
AcDbLine
 10
-0.0000000000002842
 20
-9.22750091551984
 30
0.0
 11
-0.0185165405283101
 21
-7.636230468749857
 31
0.0
  0
LINE
  5
B7B4
330
1F
100
AcDbEntity
  8
AM_0
100
AcDbLine
 10
-1.199131011963288
 20
-10.75638580321984
 30
0.0
 11
-0.0000000000002842
 21
-9.22750091551984
 31
0.0
  0
LINE
  5
B7B5
330
1F
100
AcDbEntity
  8
AM_0
100
AcDbLine
 10
-0.2466697692872799
 20
-8.352859497069857
 30
0.0
 11
-0.0000000000002842
 21
-9.22750091551984
 31
0.0
  0
LINE
  5
B7B6
330
1F
100
AcDbEntity
  8
AM_0
100
AcDbLine
 10
-0.2466735839852845
 20
-10.06491851805984
 30
0.0
 11
-0.0000000000002842
 21
-9.227493286129856
 31
0.0
  0
LINE
  5
B7B7
330
1F
100
AcDbEntity
  8
AM_0
100
AcDbLine
 10
-0.2526664733892971
 20
-9.549644470209841
 30
0.0
 11
-0.2466697692872799
 21
-10.06491088866985
 31
0.0
  0
LINE
  5
B7B8
330
1F
100
AcDbEntity
  8
AM_0
100
AcDbLine
 10
-14.42891693115331
 20
-4.911697387689883
 30
0.0
 11
-11.1378974914553
 21
-6.391899108879869
 31
0.0
  0
LINE
  5
B7B9
330
1F
100
AcDbEntity
  8
AM_0
100
AcDbLine
 10
-13.48817253112832
 20
10.10513305664014
 30
0.0
 11
-15.04071617126533
 21
10.1141586303801
 31
0.0
  0
LINE
  5
B7BA
330
1F
100
AcDbEntity
  8
AM_0
100
AcDbLine
 10
-2.399999618531353
 20
9.113700866700156
 30
0.0
 11
-19.66422653198333
 21
9.214141845710145
 31
0.0
  0
LINE
  5
B7BB
330
1F
100
AcDbEntity
  8
AM_0
100
AcDbLine
 10
-12.56296348571828
 20
10.15457916260013
 30
0.0
 11
-14.79718208313028
 21
12.41804504395011
 31
0.0
  0
LINE
  5
B7BC
330
1F
100
AcDbEntity
  8
AM_0
100
AcDbLine
 10
-14.62916946411229
 20
-4.539817810049868
 30
0.0
 11
-14.62916946411229
 21
8.55094146729013
 31
0.0
  0
LINE
  5
B7BD
330
1F
100
AcDbEntity
  8
AM_0
100
AcDbLine
 10
-13.9345130920413
 20
-4.711196899409884
 30
0.0
 11
-13.9345130920413
 21
8.480522155770103
 31
0.0
  0
LINE
  5
B7BE
330
1F
100
AcDbEntity
  8
AM_0
100
AcDbLine
 10
-14.6479740142833
 20
-4.661018371579871
 30
0.0
 11
-15.09696960449326
 21
-6.340492248529869
 31
0.0
  0
LINE
  5
B7BF
330
1F
100
AcDbEntity
  8
AM_0
100
AcDbLine
 10
-14.6479701995853
 20
-4.661018371579871
 30
0.0
 11
-14.42891693115331
 21
-4.911697387689883
 31
0.0
  0
LINE
  5
B7C0
330
1F
100
AcDbEntity
  8
AM_0
100
AcDbLine
 10
-14.64939117431725
 20
-4.53910064696987
 30
0.0
 11
-14.6479740142833
 21
-4.661018371579871
 31
0.0
  0
LINE
  5
B7C1
330
1F
100
AcDbEntity
  8
AM_0
100
AcDbLine
 10
-15.04090118408231
 20
10.16882324219014
 30
0.0
 11
-15.0407142639163
 21
10.11416625977014
 31
0.0
  0
LINE
  5
B7C2
330
1F
100
AcDbEntity
  8
AM_0
100
AcDbLine
 10
-19.49472999572827
 20
8.6306686401401
 30
0.0
 11
-19.6642246246343
 21
9.214141845710145
 31
0.0
  0
LINE
  5
B7C3
330
1F
100
AcDbEntity
  8
AM_0
100
AcDbLine
 10
-14.89889335632432
 20
12.66804504395011
 30
0.0
 11
-15.07571411132931
 21
12.66907501221012
 31
0.0
  0
LINE
  5
B7C4
330
1F
100
AcDbEntity
  8
AM_0
100
AcDbLine
 10
-15.1602840423593
 20
13.3105087280301
 30
0.0
 11
-15.16687202453732
 21
12.17816925049012
 31
0.0
  0
LINE
  5
B7C5
330
1F
100
AcDbEntity
  8
AM_0
100
AcDbLine
 10
-15.22905158996633
 20
11.6699447631901
 30
0.0
 11
-15.25679969787631
 21
11.67010498047014
 31
0.0
  0
LINE
  5
B7C6
330
1F
100
AcDbEntity
  8
AM_0
100
AcDbLine
 10
-15.07571601867732
 20
12.66906738282014
 30
0.0
 11
-15.07322883606031
 21
13.09653472901013
 31
0.0
  0
LINE
  5
B7C7
330
1F
100
AcDbEntity
  8
AM_0
100
AcDbLine
 10
-15.04090118408231
 20
10.16882324219014
 30
0.0
 11
-15.27478981018129
 21
10.17018127442011
 31
0.0
  0
LINE
  5
B7C8
330
1F
100
AcDbEntity
  8
AM_0
100
AcDbLine
 10
-15.25679969787631
 20
11.6700973510801
 30
0.0
 11
-15.27479171753032
 21
10.1701889038101
 31
0.0
  0
LINE
  5
B7C9
330
1F
100
AcDbEntity
  8
AM_0
100
AcDbLine
 10
-15.70417785644627
 20
11.67270660401013
 30
0.0
 11
-15.25679779052831
 21
11.6700973510801
 31
0.0
  0
LINE
  5
B7CA
330
1F
100
AcDbEntity
  8
AM_0
100
AcDbLine
 10
-15.58659744262735
 20
14.3583526611321
 30
0.0
 11
-15.70417785644627
 21
11.67270660401013
 31
0.0
  0
LINE
  5
B7CB
330
1F
100
AcDbEntity
  8
AM_0
100
AcDbLine
 10
-14.79718589782834
 20
12.41804504395011
 30
0.0
 11
-15.99631881713929
 21
15.36540985107413
 31
0.0
  0
LINE
  5
B7CC
330
1F
100
AcDbEntity
  8
AM_0
100
AcDbLine
 10
-2.399999618531296
 20
-3.980972290039858
 30
0.0
 11
-2.399999618531353
 21
8.421600341800143
 31
0.0
  0
LINE
  5
B7CD
330
1F
100
AcDbEntity
  8
AM_0
100
AcDbLine
 10
-11.81293487548936
 20
4.520721435550143
 30
0.0
 11
-11.75285530090428
 21
3.528068542480099
 31
0.0
  0
LINE
  5
B7CE
330
1F
100
AcDbEntity
  8
AM_0
100
AcDbLine
 10
-2.705341339112294
 20
-4.376304626459841
 30
0.0
 11
-2.705341339112294
 21
8.27588653565013
 31
0.0
  0
LINE
  5
B7CF
330
1F
100
AcDbEntity
  8
AM_0
100
AcDbLine
 10
-5.484899520874307
 20
-5.925247192379856
 30
0.0
 11
-5.484899520874307
 21
7.77577972413016
 31
0.0
  0
LINE
  5
B7D0
330
1F
100
AcDbEntity
  8
AM_0
100
AcDbLine
 10
-5.467622756958292
 20
-6.118049621579871
 30
0.0
 11
-2.214723587037326
 21
-4.321800231929842
 31
0.0
  0
LINE
  5
B7D1
330
1F
100
AcDbEntity
  8
AM_0
100
AcDbLine
 10
-6.179557800293252
 20
-6.107269287109858
 30
0.0
 11
-6.179557800293252
 21
2.777259826660127
 31
0.0
  0
LINE
  5
B7D2
330
1F
100
AcDbEntity
  8
AM_0
100
AcDbLine
 10
-10.35406112670926
 20
-6.32569122313987
 30
0.0
 11
-10.35406112670926
 21
2.507125854500117
 31
0.0
  0
LINE
  5
B7D3
330
1F
100
AcDbEntity
  8
AM_0
100
AcDbLine
 10
-11.0487213134773
 20
-6.216865539549871
 30
0.0
 11
-11.0487213134773
 21
2.63639068604013
 31
0.0
  0
LINE
  5
B7D4
330
1F
100
AcDbEntity
  8
AM_0
100
AcDbLine
 10
-10.61512374878026
 20
-6.474868774409856
 30
0.0
 11
-5.987876892090298
 21
-6.251396179199872
 31
0.0
  0
LINE
  5
B7D5
330
1F
100
AcDbEntity
  8
AM_0
100
AcDbLine
 10
-11.04871940612832
 20
-6.216873168939883
 30
0.0
 11
-11.53551483154325
 21
-5.999114990229855
 31
0.0
  0
LINE
  5
B7D6
330
1F
100
AcDbEntity
  8
AM_0
100
AcDbLine
 10
-11.13789558410729
 20
-6.391899108879869
 30
0.0
 11
-10.61512184143128
 21
-6.474868774409856
 31
0.0
  0
LINE
  5
B7D7
330
1F
100
AcDbEntity
  8
AM_0
100
AcDbLine
 10
-5.98787498474229
 20
-6.251396179199872
 30
0.0
 11
-5.467620849610284
 21
-6.118049621579871
 31
0.0
  0
LINE
  5
B7D8
330
1F
100
AcDbEntity
  8
AM_0
100
AcDbLine
 10
-11.74687194824326
 20
3.013420104980099
 30
0.0
 11
-11.04871940612832
 21
2.636383056640141
 31
0.0
  0
LINE
  5
B7D9
330
1F
100
AcDbEntity
  8
AM_0
100
AcDbLine
 10
-11.75285530090428
 20
3.528068542480099
 30
0.0
 11
-11.74686813354532
 21
3.013427734380144
 31
0.0
  0
LINE
  5
B7DA
330
1F
100
AcDbEntity
  8
AM_0
100
AcDbLine
 10
-2.247755050660259
 20
-1.482772827139854
 30
0.0
 11
-2.399995803833292
 21
-1.414299011229843
 31
0.0
  0
LINE
  5
B7DB
330
1F
100
AcDbEntity
  8
AM_0
100
AcDbLine
 10
-2.028701782227301
 20
-1.733451843259842
 30
0.0
 11
-0.2647361755372799
 21
-6.800247192379856
 31
0.0
  0
LINE
  5
B7DC
330
1F
100
AcDbEntity
  8
AM_0
100
AcDbLine
 10
-2.214725494385277
 20
-4.321800231929842
 30
0.0
 11
-2.001745223999307
 21
-4.05025482176984
 31
0.0
  0
LINE
  5
B7DD
330
1F
100
AcDbEntity
  8
AM_0
100
AcDbLine
 10
-2.0017433166513
 20
-4.05025482176984
 30
0.0
 11
-2.028701782227301
 21
-1.733459472649855
 31
0.0
  0
LINE
  5
B7DE
330
1F
100
AcDbEntity
  8
AM_0
100
AcDbLine
 10
-2.028701782227301
 20
-1.733451843259842
 30
0.0
 11
-2.247755050660259
 21
-1.482772827139854
 31
0.0
  0
LINE
  5
B7DF
330
1F
100
AcDbEntity
  8
AM_0
100
AcDbLine
 10
-3.512266159058356
 20
10.10192108155016
 30
0.0
 11
-5.884796142579318
 21
9.13397979737013
 31
0.0
  0
LINE
  5
B7E0
330
1F
100
AcDbEntity
  8
AM_0
100
AcDbLine
 10
-12.80445671081628
 20
10.10115051270011
 30
0.0
 11
-12.80273437500028
 21
10.39748382569015
 31
0.0
  0
LINE
  5
B7E1
330
1F
100
AcDbEntity
  8
AM_0
100
AcDbLine
 10
-10.20185661316031
 20
9.159095764160127
 30
0.0
 11
-12.56296348571828
 21
10.15457916260013
 31
0.0
  0
LINE
  5
B7E2
330
1F
100
AcDbEntity
  8
AM_0
100
AcDbLine
 10
-13.48817253112832
 20
10.10512542725015
 30
0.0
 11
-13.13894462585534
 21
10.10309600830012
 31
0.0
  0
LINE
  5
B7E3
330
1F
100
AcDbEntity
  8
AM_0
100
AcDbLine
 10
-13.13894462585534
 20
10.10309600830012
 30
0.0
 11
-12.43109893798936
 21
10.09898376465011
 31
0.0
  0
LINE
  5
B7E4
330
1F
100
AcDbEntity
  8
AM_0
100
AcDbLine
 10
-10.58185958862333
 20
9.319305419930145
 30
0.0
 11
-13.48554992675832
 21
9.336196899420116
 31
0.0
  0
LINE
  5
B7E5
330
1F
100
AcDbEntity
  8
AM_0
100
AcDbLine
 10
-13.48554992675832
 20
9.336204528810156
 30
0.0
 11
-13.48817062378032
 21
10.10513305664014
 31
0.0
  0
LINE
  5
B7E6
330
1F
100
AcDbEntity
  8
AM_0
100
AcDbLine
 10
-5.887134552002351
 20
5.913238525390141
 30
0.0
 11
-5.881759643555312
 21
5.809669494630128
 31
0.0
  0
LINE
  5
B7E7
330
1F
100
AcDbEntity
  8
AM_0
100
AcDbLine
 10
-6.179557800293309
 20
7.39454650879017
 30
0.0
 11
-6.179557800293309
 21
7.731170654300143
 31
0.0
  0
LINE
  5
B7E8
330
1F
100
AcDbEntity
  8
AM_0
100
AcDbLine
 10
-2.399999618531353
 20
11.20282745362013
 30
0.0
 11
-2.399999618531353
 21
9.113700866700156
 31
0.0
  0
LINE
  5
B7E9
330
1F
100
AcDbEntity
  8
AM_0
100
AcDbLine
 10
-2.730869293213288
 20
10.87533569336014
 30
0.0
 11
-2.730869293213288
 21
9.115631103520144
 31
0.0
  0
LINE
  5
B7EA
330
1F
100
AcDbEntity
  8
AM_0
100
AcDbLine
 10
-1.251855850220351
 20
12.33924102784013
 30
0.0
 11
-3.512264251709325
 21
10.10192108155016
 31
0.0
  0
LINE
  5
B7EB
330
1F
100
AcDbEntity
  8
AM_0
100
AcDbLine
 10
-2.399999618531353
 20
8.421600341800143
 30
0.0
 11
-2.399999618531353
 21
9.113700866700156
 31
0.0
  0
LINE
  5
B7EC
330
1F
100
AcDbEntity
  8
AM_0
100
AcDbLine
 10
-0.0185165405283101
 20
15.27245330810515
 30
0.0
 11
-1.251857757569325
 21
12.33924865723017
 31
0.0
  0
LINE
  5
B7ED
330
1F
100
AcDbEntity
  8
AM_0
100
AcDbLine
 10
-14.74445533752538
 20
21.4811706542961
 30
0.0
 11
-12.48404884338435
 21
23.71849060058511
 31
0.0
  0
LINE
  5
B7EE
330
1F
100
AcDbEntity
  8
AM_0
100
AcDbLine
 10
-15.32905006408731
 20
20.24095916748009
 30
0.0
 11
-15.33638572692933
 21
20.07341003417914
 31
0.0
  0
LINE
  5
B7EF
330
1F
100
AcDbEntity
  8
AM_0
100
AcDbLine
 10
-15.97780418396036
 20
18.54795837402312
 30
0.0
 11
-14.74445915222236
 21
21.4811706542961
 31
0.0
  0
ARC
  5
B7F0
330
1F
100
AcDbEntity
  8
AM_0
100
AcDbCircle
 10
-7.998159408570302
 20
16.91020202636716
 30
0.0
 40
3.894654989242599
100
AcDbArc
 50
359.6666674785541
 51
89.66666878241106
  0
LINE
  5
B7F1
330
1F
100
AcDbEntity
  8
AM_0
100
AcDbLine
 10
-6.362524032593341
 20
24.90082550048814
 30
0.0
 11
-3.433353424073345
 21
23.6658325195311
 31
0.0
  0
LINE
  5
B7F2
330
1F
100
AcDbEntity
  8
AM_0
100
AcDbLine
 10
-9.540706634522337
 20
24.91931152343713
 30
0.0
 11
-6.362525939942372
 21
24.90082550048814
 31
0.0
  0
LINE
  5
B7F3
330
1F
100
AcDbEntity
  8
AM_0
100
AcDbLine
 10
-12.48405075073333
 20
23.71849060058511
 30
0.0
 11
-9.540706634522337
 21
24.91931152343713
 31
0.0
  0
LINE
  5
B7F4
330
1F
100
AcDbEntity
  8
AM_0
100
AcDbLine
 10
-3.433355331421353
 20
23.6658325195311
 30
0.0
 11
-1.199131011963345
 21
21.40235900878914
 31
0.0
  0
LINE
  5
B7F5
330
1F
100
AcDbEntity
  8
AM_0
100
AcDbLine
 10
-1.199131011963345
 20
21.40235900878914
 30
0.0
 11
-0.0000000000003411
 21
18.45499420166012
 31
0.0
  0
LINE
  5
B956
330
1F
100
AcDbEntity
  8
AM_11
100
AcDbLine
 10
-0.0000000000003411
 20
25.00000000000008
 30
0.0
 11
-0.0000000000002842
 21
-24.99999999999985
 31
0.0
  0
LINE
  5
B95E
330
1F
100
AcDbEntity
  8
AM_11
100
AcDbLine
 10
-8.000000000000397
 20
25.00000000000008
 30
0.0
 11
-8.000000000000284
 21
-24.99999999999988
 31
0.0
  0
LINE
  5
B966
330
1F
100
AcDbEntity
  8
AM_11
100
AcDbLine
 10
-0.0000000000004547
 20
25.00000000000014
 30
0.0
 11
-8.000000000000397
 21
25.00000000000008
 31
0.0
  0
LINE
  5
B96A
330
1F
100
AcDbEntity
  8
AM_11
100
AcDbLine
 10
-0.0000000000002842
 20
-24.99999999999985
 30
0.0
 11
-8.000000000000284
 21
-24.99999999999985
 31
0.0
  0
DIMENSION
  5
B984
330
1F
100
AcDbEntity
  8
AM_5
100
AcDbDimension
  2
*D5
 10
-0.0000000000002714
 20
32.00000000000017
 30
0.0
 11
-4.000000000000297
 21
33.55000000000017
 31
0.0
 70
    32
  1
<>
 51
359.9999999999998
  3
AM_JIS$0
100
AcDbAlignedDimension
 13
-8.000000000000341
 23
25.00000000000008
 33
0.0
 14
-0.0000000000002842
 24
25.00000000000014
 34
0.0
 50
180.0
100
AcDbRotatedDimension
1001
GENIUS_GENDTOL_13
1000

1000
h7
1000

1040
0.0
1001
ACAD
1000
DSTYLE
1002
{
1070
   287
1070
     3
1070
    40
1040
0.5
1070
    42
1040
1.0
1070
    43
1040
12.0
1070
    48
1040
0.1
1070
    78
1070
     8
1070
   140
1040
3.2
1070
   176
1070
   256
1070
   177
1070
   256
1070
   271
1070
     1
1070
   272
1070
     3
1070
   275
1070
     0
1070
   284
1070
     0
1070
   289
1070
     3
1070
   340
1005
6B
1070
   371
1070
    -1
1070
   372
1070
    -1
1002
}
  0
DIMENSION
  5
BA14
330
1F
100
AcDbEntity
  8
AM_5
100
AcDbDimension
  2
*D6
 10
6.999999999999721
 20
-24.99999999999983
 30
0.0
 11
5.449999999999725
 21
0.0000000000001277
 31
0.0
 70
    32
  1
%%c<>
 51
359.9999999999998
  3
AM_JIS$0
100
AcDbAlignedDimension
 13
-0.0000000000003411
 23
25.00000000000008
 33
0.0
 14
-0.0000000000002842
 24
-24.99999999999983
 34
0.0
 50
90.0
100
AcDbRotatedDimension
1001
GENIUS_GENDTOL_13
1000

1000
h7
1000

1040
0.0
1001
ACAD
1000
DSTYLE
1002
{
1070
   287
1070
     3
1070
    40
1040
0.5
1070
    42
1040
1.0
1070
    43
1040
12.0
1070
    48
1040
0.1
1070
    78
1070
     8
1070
   140
1040
3.2
1070
   176
1070
   256
1070
   177
1070
   256
1070
   271
1070
     1
1070
   272
1070
     3
1070
   275
1070
     0
1070
   284
1070
     0
1070
   289
1070
     3
1070
   340
1005
6B
1070
   371
1070
    -1
1070
   372
1070
    -1
1002
}
  0
DIMENSION
  5
BAA0
330
1F
100
AcDbEntity
  8
AM_5
100
AcDbDimension
  2
*D7
 10
-56.9999999999993
 20
-20.3963317871099
 30
0.0
 11
-56.9999999999993
 21
5.590821272663418
 31
0.0
 70
   160
  1
%%c<>
 51
359.9999999999998
  3
AM_JIS$0
100
AcDbAlignedDimension
 13
-39.86103547811933
 23
20.39632415771407
 33
0.0
 14
-39.86102771759059
 24
-20.39633178710991
 34
0.0
 50
270.0
100
AcDbRotatedDimension
1001
GENIUS_GENDTOL_13
1000

1000
h7
1000

1040
0.0
1001
ACAD
1000
DSTYLE
1002
{
1070
   287
1070
     3
1070
    40
1040
0.5
1070
    42
1040
1.0
1070
    43
1040
12.0
1070
    48
1040
0.1
1070
    78
1070
     8
1070
   140
1040
3.2
1070
   176
1070
   256
1070
   177
1070
   256
1070
   271
1070
     1
1070
   272
1070
     3
1070
   275
1070
     0
1070
   284
1070
     0
1070
   289
1070
     3
1070
   340
1005
6B
1070
   371
1070
    -1
1070
   372
1070
    -1
1002
}
  0
DIMENSION
  5
BB86
330
1F
100
AcDbEntity
  8
AM_5
100
AcDbDimension
  2
*D8
 10
-49.99999999999926
 20
-31.99999999999985
 30
0.0
 11
-24.99999999999977
 21
-30.44999999999985
 31
0.0
 70
    32
  1
<>
 51
359.9999999999998
  3
AM_JIS$0
100
AcDbAlignedDimension
 13
-0.0000000000002842
 23
-24.99999999999985
 33
0.0
 14
-49.99999999999926
 24
-16.00000190734795
 34
0.0
100
AcDbRotatedDimension
1001
GENIUS_GENDTOL_13
1000

1000
h7
1000

1040
0.0
1001
ACAD
1000
DSTYLE
1002
{
1070
   287
1070
     3
1070
    40
1040
0.5
1070
    42
1040
1.0
1070
    43
1040
12.0
1070
    48
1040
0.1
1070
    78
1070
     8
1070
   140
1040
3.2
1070
   176
1070
   256
1070
   177
1070
   256
1070
   271
1070
     1
1070
   272
1070
     3
1070
   275
1070
     0
1070
   284
1070
     0
1070
   289
1070
     3
1070
   340
1005
6B
1070
   371
1070
    -1
1070
   372
1070
    -1
1002
}
  0
DIMENSION
  5
BC3F
330
1F
100
AcDbEntity
  8
AM_5
100
AcDbDimension
  2
*D9
 10
-169.9999999999942
 20
-31.99999999999985
 30
0.0
 11
-109.9999999999967
 21
-30.44999999999985
 31
0.0
 70
    32
  1
<>
 51
359.9999999999998
  3
AM_JIS$0
100
AcDbAlignedDimension
 13
-49.99999999999926
 23
-16.00000190734795
 33
0.0
 14
-169.9999999999942
 24
-15.46411132812019
 34
0.0
100
AcDbRotatedDimension
1001
GENIUS_GENDTOL_13
1000

1000
h7
1000

1040
0.0
1001
ACAD
1000
DSTYLE
1002
{
1070
   287
1070
     3
1070
    40
1040
0.5
1070
    42
1040
1.0
1070
    43
1040
12.0
1070
    48
1040
0.1
1070
    78
1070
     8
1070
   140
1040
3.2
1070
   176
1070
   256
1070
   177
1070
   256
1070
   271
1070
     1
1070
   272
1070
     3
1070
   275
1070
     0
1070
   284
1070
     0
1070
   289
1070
     3
1070
   340
1005
6B
1070
   371
1070
    -1
1070
   372
1070
    -1
1002
}
  0
DIMENSION
  5
BCD4
330
1F
100
AcDbEntity
  8
AM_5
100
AcDbDimension
  2
*D10
 10
-169.9999999999942
 20
-36.99999999999985
 30
0.0
 11
-84.99999999999728
 21
-35.44999999999986
 31
0.0
 70
    32
  1
<>
 51
359.9999999999998
  3
AM_JIS$0
100
AcDbAlignedDimension
 13
-0.0000000000002842
 23
-24.99999999999985
 33
0.0
 14
-169.9999999999942
 24
-15.46409606933016
 34
0.0
100
AcDbRotatedDimension
1001
GENIUS_GENDTOL_13
1000

1000
h7
1000

1040
0.0
1001
ACAD
1000
DSTYLE
1002
{
1070
   287
1070
     3
1070
    40
1040
0.5
1070
    42
1040
1.0
1070
    43
1040
12.0
1070
    48
1040
0.1
1070
    78
1070
     8
1070
   140
1040
3.2
1070
   176
1070
   256
1070
   177
1070
   256
1070
   271
1070
     1
1070
   272
1070
     3
1070
   275
1070
     0
1070
   284
1070
     0
1070
   289
1070
     3
1070
   340
1005
6B
1070
   371
1070
    -1
1070
   372
1070
    -1
1002
}
  0
DIMENSION
  5
BD7B
330
1F
100
AcDbEntity
  8
AM_5
100
AcDbDimension
  2
*D11
 10
-176.9999999999942
 20
-16.00000000000016
 30
0.0
 11
-178.5499999999942
 21
-0.0000000000002101
 31
0.0
 70
    32
  1
%%c<>
 51
359.9999999999998
  3
AM_JIS$0
100
AcDbAlignedDimension
 13
-167.9999999999943
 23
15.9999999999998
 33
0.0
 14
-167.9999999999942
 24
-16.00000000000017
 34
0.0
 50
270.0
100
AcDbRotatedDimension
1001
GENIUS_GENDTOL_13
1000

1000
h7
1000

1040
0.0
1001
ACAD
1000
DSTYLE
1002
{
1070
   287
1070
     3
1070
    40
1040
0.5
1070
    42
1040
1.0
1070
    43
1040
12.0
1070
    48
1040
0.1
1070
    78
1070
     8
1070
   140
1040
3.2
1070
   176
1070
   256
1070
   177
1070
   256
1070
   271
1070
     1
1070
   272
1070
     3
1070
   275
1070
     0
1070
   284
1070
     0
1070
   289
1070
     3
1070
   340
1005
6B
1070
   371
1070
    -1
1070
   372
1070
    -1
1002
}
  0
VIEWPORT
  5
110
330
101
100
AcDbEntity
 67
     1
  8
0
100
AcDbViewport
 10
420.5
 20
297.0
 30
0.0
 40
948.9782706766916
 41
628.452
 68
     1
 69
     1
1001
ACAD
1000
MVIEW
1002
{
1070
    16
1010
0.0
1020
0.0
1030
0.0
1010
0.0
1020
0.0
1030
1.0
1040
0.0
1040
628.452
1040
420.5
1040
297.0
1040
50.0
1040
0.0
1040
0.0
1070
     0
1070
   100
1070
     1
1070
     1
1070
     0
1070
     0
1070
     0
1070
     0
1040
0.0
1040
0.0
1040
0.0
1040
10.0
1040
10.0
1040
10.0
1040
10.0
1070
     0
1002
{
1002
}
1002
}
  0
ENDSEC
  0
SECTION
  2
OBJECTS
  0
DICTIONARY
  5
C
330
0
100
AcDbDictionary
  3
ACAD_GROUP
350
D
  3
ACAD_LAYOUT
350
1A
  3
ACAD_MLINESTYLE
350
17
  3
ACAD_PLOTSETTINGS
350
19
  3
ACAD_PLOTSTYLENAME
350
E
  3
ACDBVARIABLEDICTIONARY
350
34
  3
ACMDICTIONARY
350
43
  3
AMG
350
2B
  3
AMGSNAPSETTINGS
350
6E
  3
DWGPROPS
350
C01F
  3
ACDBHEADERROUNDTRIPXREC
350
C02B
  0
DICTIONARY
  5
74
330
1F
100
AcDbDictionary
280
     1
  3
ACAD_INDEX
360
C021
  3
ACAD_LAYOUTSELFREF
360
C04E
  0
DICTIONARY
  5
C053
330
101
100
AcDbDictionary
280
     1
  3
ACAD_LAYOUTSELFREF
360
C054
  0
DICTIONARY
  5
D
102
{ACAD_REACTORS
330
C
102
}
330
C
100
AcDbDictionary
  0
DICTIONARY
  5
1A
102
{ACAD_REACTORS
330
C
102
}
330
C
100
AcDbDictionary
  0
DICTIONARY
  5
17
102
{ACAD_REACTORS
330
C
102
}
330
C
100
AcDbDictionary
  3
STANDARD
350
18
  0
DICTIONARY
  5
19
102
{ACAD_REACTORS
330
C
102
}
330
C
100
AcDbDictionary
  3
ASAMI
350
399D
  0
ACDBDICTIONARYWDFLT
  5
E
102
{ACAD_REACTORS
330
C
102
}
330
C
100
AcDbDictionary
281
     1
  3
Normal
350
F
100
AcDbDictionaryWithDefault
340
F
  0
DICTIONARY
  5
34
102
{ACAD_REACTORS
330
C
102
}
330
C
100
AcDbDictionary
  3
INDEXCTL
350
35
  3
SORTENTS
350
B5E
  0
DICTIONARY
  5
43
102
{ACAD_REACTORS
330
C
102
}
330
C
100
AcDbDictionary
  3
ACMSTDDICTIONARY
350
260
  0
DICTIONARY
  5
2B
102
{ACAD_REACTORS
330
C
102
}
330
C
100
AcDbDictionary
  3
ACMGSETTINGS
350
2C
  0
DICTIONARY
  5
6E
102
{ACAD_REACTORS
330
C
102
}
330
C
100
AcDbDictionary
  0
XRECORD
  5
C01F
102
{ACAD_REACTORS
330
C
102
}
330
C
100
AcDbXrecord
  1
DWGPROPS COOKIE
  2

  3

  4

  6

  7

  8

  9

300
AmdtFileType=82
301
=
302
=
303
=
304
=
305
=
306
=
307
=
308
=
309
=
 40
0.9355711342592593
 41
2452802.716478761
 42
2453075.69537199
  1

 90
        1
  0
DICTIONARY
  5
C02B
102
{ACAD_REACTORS
330
C
102
}
330
C
100
AcDbDictionary
  3
TSTACKALIGN
350
C02C
  3
TSTACKSIZE
350
C02D
  3
HYPERLINKBASE
350
C02E
  3
STYLESHEET
350
C02F
  3
LAYOUTDICT
350
C030
  3
PLOTSETDICT
350
C031
  3
PLOTSTYLNAMDICT
350
C032
  3
LWETCUNION
350
C033
  3
INSUNITS
350
C034
  3
CEPSNTYPE
350
C035
  3
FINGERPRINTGUID
350
C036
  3
VERSIONGUID
350
C037
  3
PSVPSCALE
350
C038
  3
DIMSTYLEDATA
350
C039
  3
PUCSORTHOREF
350
C03A
  3
PUCSORTHOVIEW
350
C03B
  3
PUCSBASE
350
C03C
  3
PUCSORGTOP
350
C03D
  3
PUCSORGBOTTOM
350
C03E
  3
PUCSORGLEFT
350
C03F
  3
PUCSORGRIGHT
350
C040
  3
PUCSORGFRONT
350
C041
  3
PUCSORGBACK
350
C042
  3
UCSORTHOREF
350
C043
  3
UCSORTHOVIEW
350
C044
  3
UCSBASE
350
C045
  3
UCSORGTOP
350
C046
  3
UCSORGBOTTOM
350
C047
  3
UCSORGLEFT
350
C048
  3
UCSORGRIGHT
350
C049
  3
UCSORGFRONT
350
C04A
  3
UCSORGBACK
350
C04B
  0
DICTIONARY
  5
C021
102
{ACAD_REACTORS
330
74
102
}
330
74
100
AcDbDictionary
  3
*A1
350
C022
  0
XRECORD
  5
C04E
102
{ACAD_REACTORS
330
74
102
}
330
74
100
AcDbXrecord
340
1F
  0
XRECORD
  5
C054
102
{ACAD_REACTORS
330
C053
102
}
330
C053
100
AcDbXrecord
340
101
  0
MLINESTYLE
  5
18
102
{ACAD_REACTORS
330
17
102
}
330
17
100
AcDbMlineStyle
  2
STANDARD
 70
     0
  3

 62
   256
 51
90.0
 52
90.0
 71
     2
 49
0.5
 62
   256
  6
BYLAYER
 49
-0.5
 62
   256
  6
BYLAYER
  0
PLOTSETTINGS
  5
399D
102
{ACAD_REACTORS
330
19
102
}
330
19
100
AcDbPlotSettings
  1
asami
  2
RICOH imagio MF1540
  4
A4
  6

 40
5.831416606903076
 41
7.651742935180664
 42
4.90008544921875
 43
5.789077758789062
 44
296.9683227539062
 45
209.9733276367187
 46
0.0
 47
0.0
 48
-156.6707931774246
 49
-74.57609991074048
140
58.59973180214831
141
60.61068161925596
142
1.0
143
1.095343097833084
 70
  1712
 72
     1
 73
     1
 74
     4
  7
asami.ctb
 75
     0
147
0.9129559514076438
148
156.6707931774246
149
74.57609991074048
  0
ACDBPLACEHOLDER
  5
F
102
{ACAD_REACTORS
330
E
102
}
330
E
100
AcDbPlaceHolder
280
     0
  0
DICTIONARYVAR
  5
35
102
{ACAD_REACTORS
330
34
102
}
330
34
100
DictionaryVariables
280
     0
  1
1
  0
DICTIONARYVAR
  5
B5E
102
{ACAD_REACTORS
330
34
102
}
330
34
100
DictionaryVariables
280
     0
  1
96
  0
DICTIONARY
  5
260
102
{ACAD_REACTORS
330
43
102
}
330
43
100
AcDbDictionary
  0
DICTIONARY
  5
2C
102
{ACAD_REACTORS
330
2B
102
}
330
2B
100
AcDbDictionary
  3
DWGSETTINGS
350
2D
  0
XRECORD
  5
C02C
102
{ACAD_REACTORS
330
C02B
102
}
330
C02B
100
AcDbXrecord
 90
        1
  0
XRECORD
  5
C02D
102
{ACAD_REACTORS
330
C02B
102
}
330
C02B
100
AcDbXrecord
 90
       70
  0
XRECORD
  5
C02E
102
{ACAD_REACTORS
330
C02B
102
}
330
C02B
100
AcDbXrecord
  1

  0
XRECORD
  5
C02F
102
{ACAD_REACTORS
330
C02B
102
}
330
C02B
100
AcDbXrecord
  1
ASAMI.ctb
  0
XRECORD
  5
C030
102
{ACAD_REACTORS
330
C02B
102
}
330
C02B
100
AcDbXrecord
340
1A
  0
XRECORD
  5
C031
102
{ACAD_REACTORS
330
C02B
102
}
330
C02B
100
AcDbXrecord
340
19
  0
XRECORD
  5
C032
102
{ACAD_REACTORS
330
C02B
102
}
330
C02B
100
AcDbXrecord
340
E
  0
XRECORD
  5
C033
102
{ACAD_REACTORS
330
C02B
102
}
330
C02B
100
AcDbXrecord
 90
    10781
  0
XRECORD
  5
C034
102
{ACAD_REACTORS
330
C02B
102
}
330
C02B
100
AcDbXrecord
 90
        4
  0
XRECORD
  5
C035
102
{ACAD_REACTORS
330
C02B
102
}
330
C02B
100
AcDbXrecord
 90
        0
  0
XRECORD
  5
C036
102
{ACAD_REACTORS
330
C02B
102
}
330
C02B
100
AcDbXrecord
  1
{AFB28963-8C59-40AE-9337-C84526B81ACE}
  0
XRECORD
  5
C037
102
{ACAD_REACTORS
330
C02B
102
}
330
C02B
100
AcDbXrecord
  1
{F4E97560-5337-494A-A170-348925893FA3}
  0
XRECORD
  5
C038
102
{ACAD_REACTORS
330
C02B
102
}
330
C02B
100
AcDbXrecord
 40
0.0
  0
XRECORD
  5
C039
102
{ACAD_REACTORS
330
C02B
102
}
330
C02B
100
AcDbXrecord
1000
DSTYLE
1002
{
1070
    79
 70
     2
1070
   341
340
59
1070
   342
340
59
1070
   371
 70
    -1
1070
   372
 70
    -1
1002
}
  0
XRECORD
  5
C03A
102
{ACAD_REACTORS
330
C02B
102
}
330
C02B
100
AcDbXrecord
340
0
  0
XRECORD
  5
C03B
102
{ACAD_REACTORS
330
C02B
102
}
330
C02B
100
AcDbXrecord
 70
     0
  0
XRECORD
  5
C03C
102
{ACAD_REACTORS
330
C02B
102
}
330
C02B
100
AcDbXrecord
340
0
  0
XRECORD
  5
C03D
102
{ACAD_REACTORS
330
C02B
102
}
330
C02B
100
AcDbXrecord
 10
0.0
 20
0.0
 30
0.0
  0
XRECORD
  5
C03E
102
{ACAD_REACTORS
330
C02B
102
}
330
C02B
100
AcDbXrecord
 10
0.0
 20
0.0
 30
0.0
  0
XRECORD
  5
C03F
102
{ACAD_REACTORS
330
C02B
102
}
330
C02B
100
AcDbXrecord
 10
0.0
 20
0.0
 30
0.0
  0
XRECORD
  5
C040
102
{ACAD_REACTORS
330
C02B
102
}
330
C02B
100
AcDbXrecord
 10
0.0
 20
0.0
 30
0.0
  0
XRECORD
  5
C041
102
{ACAD_REACTORS
330
C02B
102
}
330
C02B
100
AcDbXrecord
 10
0.0
 20
0.0
 30
0.0
  0
XRECORD
  5
C042
102
{ACAD_REACTORS
330
C02B
102
}
330
C02B
100
AcDbXrecord
 10
0.0
 20
0.0
 30
0.0
  0
XRECORD
  5
C043
102
{ACAD_REACTORS
330
C02B
102
}
330
C02B
100
AcDbXrecord
340
0
  0
XRECORD
  5
C044
102
{ACAD_REACTORS
330
C02B
102
}
330
C02B
100
AcDbXrecord
 70
     0
  0
XRECORD
  5
C045
102
{ACAD_REACTORS
330
C02B
102
}
330
C02B
100
AcDbXrecord
340
0
  0
XRECORD
  5
C046
102
{ACAD_REACTORS
330
C02B
102
}
330
C02B
100
AcDbXrecord
 10
0.0
 20
0.0
 30
0.0
  0
XRECORD
  5
C047
102
{ACAD_REACTORS
330
C02B
102
}
330
C02B
100
AcDbXrecord
 10
0.0
 20
0.0
 30
0.0
  0
XRECORD
  5
C048
102
{ACAD_REACTORS
330
C02B
102
}
330
C02B
100
AcDbXrecord
 10
0.0
 20
0.0
 30
0.0
  0
XRECORD
  5
C049
102
{ACAD_REACTORS
330
C02B
102
}
330
C02B
100
AcDbXrecord
 10
0.0
 20
0.0
 30
0.0
  0
XRECORD
  5
C04A
102
{ACAD_REACTORS
330
C02B
102
}
330
C02B
100
AcDbXrecord
 10
0.0
 20
0.0
 30
0.0
  0
XRECORD
  5
C04B
102
{ACAD_REACTORS
330
C02B
102
}
330
C02B
100
AcDbXrecord
 10
0.0
 20
0.0
 30
0.0
  0
LAYER_INDEX
  5
C022
102
{ACAD_REACTORS
330
C021
102
}
330
C021
100
AcDbIndex
 40
2453152.377761007
100
AcDbLayerIndex
  8
0
360
C023
 90
        0
  8
AM_0
360
C024
 90
      196
  8
AM_5
360
C025
 90
        7
  8
AM_7
360
C026
 90
        1
  8
AM_6
360
C027
 90
        1
  8
Defpoints
360
C028
 90
        0
  8
AM_11
360
C029
 90
        4
  0
XRECORD
  5
2D
102
{ACAD_REACTORS
330
2C
102
}
330
2C
100
AcDbXrecord
  1
VERSION
140
15.0
  1
PRODUCT
  2
AutoCAD Mechanical 2000
  0
IDBUFFER
  5
C023
330
0
100
AcDbIdBuffer
  0
IDBUFFER
  5
C024
330
0
100
AcDbIdBuffer
330
B7A2
330
B7A3
330
B7A4
330
B7A5
330
B7A6
330
B7A7
330
B7A8
330
B7A9
330
B7AA
330
B7AB
330
B7AC
330
B7AD
330
B7AE
330
B7AF
330
B7B0
330
B7B1
330
B7B2
330
B7B3
330
B7B4
330
B7B5
330
B7B6
330
B7B7
330
B7B8
330
B7B9
330
B7BA
330
B7BB
330
B7BC
330
B7BD
330
B7BE
330
B7BF
330
B7C0
330
B7C1
330
B7C2
330
B7C3
330
B7C4
330
B7C5
330
B7C6
330
B7C7
330
B7C8
330
B7C9
330
B7CA
330
B7CB
330
B7CC
330
B7CD
330
B7CE
330
B7CF
330
B7D0
330
B7D1
330
B7D2
330
B7D3
330
B7D4
330
B7D5
330
B7D6
330
B7D7
330
B7D8
330
B7D9
330
B7DA
330
B7DB
330
B7DC
330
B7DD
330
B7DE
330
B7DF
330
B7E0
330
B7E1
330
B7E2
330
B7E3
330
B7E4
330
B7E5
330
B7E6
330
B7E7
330
B7E8
330
B7E9
330
B7EA
330
B7EB
330
B7EC
330
B7ED
330
B7EE
330
B7EF
330
B7F0
330
B7F1
330
B7F2
330
B7F3
330
B7F4
330
B7F5
330
B6E1
330
B6E2
330
B6E3
330
B6E4
330
B6E5
330
B6E7
330
B6EB
330
B6EC
330
B6ED
330
B6EE
330
B6EF
330
B6F0
330
B6F1
330
B6F3
330
B6F4
330
B6F6
330
B6F7
330
B6FD
330
B6FE
330
B6FF
330
B700
330
B702
330
B703
330
B704
330
B705
330
B706
330
B707
330
B708
330
B709
330
B70A
330
B70B
330
B70C
330
B70D
330
B70E
330
B70F
330
B710
330
B711
330
B712
330
B713
330
B714
330
B715
330
B716
330
B717
330
B718
330
B719
330
B71A
330
B71B
330
B71C
330
B71D
330
B71E
330
B71F
330
B720
330
B721
330
B722
330
B723
330
B724
330
B725
330
B726
330
B727
330
B728
330
B729
330
B72A
330
B72B
330
B72C
330
B72D
330
B72E
330
B72F
330
B730
330
B731
330
B732
330
B733
330
B734
330
B735
330
B736
330
B737
330
B738
330
B739
330
B73A
330
B73B
330
B73C
330
B73D
330
B73E
330
B73F
330
B784
330
B785
330
B786
330
B787
330
B789
330
B78A
330
B78B
330
B78C
330
B78D
330
B78E
330
B78F
330
B790
330
B791
330
B792
330
B793
330
B794
330
B795
330
B796
330
B797
330
B798
330
B799
330
B79A
330
B79B
330
B79C
330
B79D
330
B79E
330
B79F
330
B7A0
330
B7A1
  0
IDBUFFER
  5
C025
330
0
100
AcDbIdBuffer
330
B984
330
BA14
330
BAA0
330
BB86
330
BC3F
330
BCD4
330
BD7B
  0
IDBUFFER
  5
C026
330
0
100
AcDbIdBuffer
330
B6F2
  0
IDBUFFER
  5
C027
330
0
100
AcDbIdBuffer
330
388D
  0
IDBUFFER
  5
C028
330
0
100
AcDbIdBuffer
  0
IDBUFFER
  5
C029
330
0
100
AcDbIdBuffer
330
B956
330
B95E
330
B966
330
B96A
  0
ENDSEC
  0
EOF
