  0
SECTION
  2
HEADER
  9
$ACADVER
  1
AC1014
  9
$ACADMAINTVER
 70
     9
  9
$DWGCODEPAGE
  3
ANSI_932
  9
$INSBASE
 10
0.0
 20
0.0
 30
0.0
  9
$EXTMIN
 10
-268.2000000000001
 20
-71.50000000000009
 30
-0.00000001
  9
$EXTMAX
 10
14.99999999999985
 20
43.20000000000017
 30
0.00000001
  9
$LIMMIN
 10
-279.6084502681619
 20
-135.4042016273653
  9
$LIMMAX
 10
111.2085678022441
 20
95.16042465128453
  9
$ORTHOMODE
 70
     0
  9
$REGENMODE
 70
     1
  9
$FILLMODE
 70
     1
  9
$QTEXTMODE
 70
     0
  9
$MIRRTEXT
 70
     0
  9
$DRAGMODE
 70
     2
  9
$LTSCALE
 40
1.0
  9
$OSMODE
 70
    55
  9
$ATTMODE
 70
     1
  9
$TEXTSIZE
 40
2.5
  9
$TRACEWID
 40
1.0
  9
$TEXTSTYLE
  7
STANDARD
  9
$CLAYER
  8
AM_0
  9
$CELTYPE
  6
BYLAYER
  9
$CECOLOR
 62
   256
  9
$CELTSCALE
 40
1.0
  9
$DELOBJ
 70
     1
  9
$DISPSILH
 70
     0
  9
$DIMSCALE
 40
0.5
  9
$DIMASZ
 40
2.5
  9
$DIMEXO
 40
1.0
  9
$DIMDLI
 40
12.0
  9
$DIMRND
 40
0.0
  9
$DIMDLE
 40
0.0
  9
$DIMEXE
 40
1.0
  9
$DIMTP
 40
0.1
  9
$DIMTM
 40
0.1
  9
$DIMTXT
 40
3.2
  9
$DIMCEN
 40
0.0
  9
$DIMTSZ
 40
0.0
  9
$DIMTOL
 70
     0
  9
$DIMLIM
 70
     0
  9
$DIMTIH
 70
     0
  9
$DIMTOH
 70
     0
  9
$DIMSE1
 70
     0
  9
$DIMSE2
 70
     0
  9
$DIMTAD
 70
     3
  9
$DIMZIN
 70
     8
  9
$DIMBLK
  1
OPEN30
  9
$DIMASO
 70
     1
  9
$DIMSHO
 70
     1
  9
$DIMPOST
  1

  9
$DIMAPOST
  1
"
  9
$DIMALT
 70
     0
  9
$DIMALTD
 70
     2
  9
$DIMALTF
 40
0.0393701
  9
$DIMLFAC
 40
1.0
  9
$DIMTOFL
 70
     1
  9
$DIMTVP
 40
0.0
  9
$DIMTIX
 70
     0
  9
$DIMSOXD
 70
     0
  9
$DIMSAH
 70
     0
  9
$DIMBLK1
  1

  9
$DIMBLK2
  1

  9
$DIMSTYLE
  2
AM_JIS
  9
$DIMCLRD
 70
   256
  9
$DIMCLRE
 70
   256
  9
$DIMCLRT
 70
     2
  9
$DIMTFAC
 40
0.71
  9
$DIMGAP
 40
1.5
  9
$DIMJUST
 70
     0
  9
$DIMSD1
 70
     0
  9
$DIMSD2
 70
     0
  9
$DIMTOLJ
 70
     0
  9
$DIMTZIN
 70
     0
  9
$DIMALTZ
 70
     0
  9
$DIMALTTZ
 70
     0
  9
$DIMFIT
 70
     3
  9
$DIMUPT
 70
     0
  9
$DIMUNIT
 70
     2
  9
$DIMDEC
 70
     3
  9
$DIMTDEC
 70
     3
  9
$DIMALTU
 70
     2
  9
$DIMALTTD
 70
     2
  9
$DIMTXSTY
  7
ASAMI
  9
$DIMAUNIT
 70
     0
  9
$LUNITS
 70
     2
  9
$LUPREC
 70
     2
  9
$SKETCHINC
 40
1.0
  9
$FILLETRAD
 40
0.4
  9
$AUNITS
 70
     0
  9
$AUPREC
 70
     0
  9
$MENU
  1
.
  9
$ELEVATION
 40
0.0
  9
$PELEVATION
 40
0.0
  9
$THICKNESS
 40
0.0
  9
$LIMCHECK
 70
     1
  9
$BLIPMODE
 70
     0
  9
$CHAMFERA
 40
1.0
  9
$CHAMFERB
 40
1.0
  9
$CHAMFERC
 40
20.0
  9
$CHAMFERD
 40
0.0
  9
$SKPOLY
 70
     0
  9
$TDCREATE
 40
2452802.716478761
  9
$TDUPDATE
 40
2453152.379762650
  9
$TDINDWG
 40
0.9439825000
  9
$TDUSRTIMER
 40
0.9439825000
  9
$USRTIMER
 70
     1
  9
$ANGBASE
 50
0.0
  9
$ANGDIR
 70
     0
  9
$PDMODE
 70
     0
  9
$PDSIZE
 40
0.0
  9
$PLINEWID
 40
0.0
  9
$COORDS
 70
     1
  9
$SPLFRAME
 70
     0
  9
$SPLINETYPE
 70
     6
  9
$SPLINESEGS
 70
     8
  9
$ATTDIA
 70
     1
  9
$ATTREQ
 70
     1
  9
$HANDLING
 70
 12289
  9
$HANDSEED
  5
CB98
  9
$SURFTAB1
 70
     6
  9
$SURFTAB2
 70
     6
  9
$SURFTYPE
 70
     6
  9
$SURFU
 70
     6
  9
$SURFV
 70
     6
  9
$UCSNAME
  2

  9
$UCSORG
 10
-0.0000000000002682
 20
0.000000000000161
 30
0.0
  9
$UCSXDIR
 10
1.0
 20
0.000000000000002
 30
0.0
  9
$UCSYDIR
 10
-0.000000000000002
 20
1.0
 30
0.0
  9
$PUCSNAME
  2

  9
$PUCSORG
 10
0.0
 20
0.0
 30
0.0
  9
$PUCSXDIR
 10
1.0
 20
0.0
 30
0.0
  9
$PUCSYDIR
 10
0.0
 20
1.0
 30
0.0
  9
$USERI1
 70
     0
  9
$USERI2
 70
     0
  9
$USERI3
 70
     0
  9
$USERI4
 70
     0
  9
$USERI5
 70
     0
  9
$USERR1
 40
0.0
  9
$USERR2
 40
0.0
  9
$USERR3
 40
0.0
  9
$USERR4
 40
0.0
  9
$USERR5
 40
0.0
  9
$WORLDVIEW
 70
     1
  9
$SHADEDGE
 70
     3
  9
$SHADEDIF
 70
    70
  9
$TILEMODE
 70
     1
  9
$MAXACTVP
 70
    64
  9
$PINSBASE
 10
0.0
 20
0.0
 30
0.0
  9
$PLIMCHECK
 70
     0
  9
$PEXTMIN
 10
1.000000000000000E+20
 20
1.000000000000000E+20
 30
1.000000000000000E+20
  9
$PEXTMAX
 10
-1.000000000000000E+20
 20
-1.000000000000000E+20
 30
-1.000000000000000E+20
  9
$PLIMMIN
 10
0.0
 20
0.0
  9
$PLIMMAX
 10
841.0
 20
594.0
  9
$UNITMODE
 70
     0
  9
$VISRETAIN
 70
     1
  9
$PLINEGEN
 70
     0
  9
$PSLTSCALE
 70
     0
  9
$TREEDEPTH
 70
  3020
  9
$PICKSTYLE
 70
     0
  9
$CMLSTYLE
  2
STANDARD
  9
$CMLJUST
 70
     0
  9
$CMLSCALE
 40
20.0
  9
$PROXYGRAPHICS
 70
     1
  9
$MEASUREMENT
 70
     1
  0
ENDSEC
  0
SECTION
  2
CLASSES
  0
CLASS
  1
ACDBDICTIONARYWDFLT
  2
AcDbDictionaryWithDefault
  3
AutoCAD 2000
 90
        0
280
     0
281
     0
  0
CLASS
  1
ACDBPLACEHOLDER
  2
AcDbPlaceHolder
  3
AutoCAD 2000
 90
        0
280
     0
281
     0
  0
CLASS
  1
LAYOUT
  2
AcDbLayout
  3
AutoCAD 2000
 90
        0
280
     0
281
     0
  0
CLASS
  1
AMGSETTINGSOBJ
  2
AmgSettingsObj
  3
"AcadM|Product Description: AutoCAD Mechanical 2000|Company: Autodesk"
 90
        0
280
     0
281
     0
  0
CLASS
  1
ACME_DOCUMENT
  2
AcMeDbDoc
  3
AcMeServices
 90
        0
280
     0
281
     0
  0
CLASS
  1
ACMESCOPE
  2
AcMeScope
  3
AcMeServices
 90
        0
280
     0
281
     0
  0
CLASS
  1
ACMECOMMANDHISTORY
  2
AcMeCommandHistory
  3
AcMeServices
 90
        0
280
     0
281
     0
  0
CLASS
  1
DICTIONARYVAR
  2
AcDbDictionaryVar
  3
AutoCAD 2000
 90
        0
280
     0
281
     0
  0
CLASS
  1
ACIMSYSVARMAN
  2
AcImSysVarManager
  3
AcMeServices
 90
        0
280
     0
281
     0
  0
CLASS
  1
ACIMREALSYSVAR
  2
AcImRealSysVar
  3
AcMeServices
 90
        0
280
     0
281
     0
  0
CLASS
  1
ACIMINTSYSVAR
  2
AcImIntSysVar
  3
AcMeServices
 90
        0
280
     0
281
     0
  0
CLASS
  1
ACMEDRAWINGMAN
  2
AcMeDrawingMan
  3
AcMeServices
 90
        0
280
     0
281
     0
  0
CLASS
  1
ACMEVIEW
  2
AcMeView
  3
AcMeServices
 90
        0
280
     0
281
     0
  0
CLASS
  1
ACDBENTITYCACHE
  2
AcMeEntityCache
  3
AcMeServices
 90
        0
280
     0
281
     0
  0
CLASS
  1
GSMANAGER
  2
AcMeGSManager
  3
AcMeServices
 90
        0
280
     0
281
     0
  0
CLASS
  1
AmdtInternalReactor
  2
AmdtInternalReactor
  3
AcMeServices
 90
        0
280
     0
281
     0
  0
CLASS
  1
ACMESTATEMGR
  2
AcMeStateMgr
  3
AcMeServices
 90
        0
280
     0
281
     0
  0
CLASS
  1
ACME_DATABASE
  2
AcMeDbDatabase
  3
AcMeServices
 90
        0
280
     0
281
     0
  0
CLASS
  1
ACRFINSADJUSTERMGR
  2
AcRfInsAdjusterMgr
  3
AcMeServices
 90
        0
280
     0
281
     0
  0
CLASS
  1
ACMDATADICTIONARY
  2
AcmDataDictionary
  3
"AcmSymBB|Product Description: AutoCAD Mechanical 2000|Company: Autodesk"
 90
        0
280
     0
281
     0
  0
CLASS
  1
ACMDATAENTRYBLOCK
  2
AcmDataEntryBlock
  3
"AcmSymBB|Product Description: AutoCAD Mechanical 2000|Company: Autodesk"
 90
        0
280
     0
281
     0
  0
CLASS
  1
AMGOBJPROPCFG
  2
AmgObjPropCfg
  3
"AmgLay|Product Description: AutoCAD Mechanical 2000|Company: Autodesk"
 90
        1
280
     0
281
     0
  0
CLASS
  1
ACAMGFILTERDAT
  2
AcAmgFilterDat
  3
"AcadM|Product Description: AutoCAD Mechanical 2000|Company: Autodesk"
 90
        0
280
     0
281
     0
  0
CLASS
  1
LAYER_INDEX
  2
AcDbLayerIndex
  3
AutoCAD 2000
 90
        0
280
     0
281
     0
  0
CLASS
  1
IDBUFFER
  2
AcDbIdBuffer
  3
AutoCAD 2000
 90
        0
280
     0
281
     0
  0
CLASS
  1
ACIMSTRSYSVAR
  2
AcImStrSysVar
  3
AcMeServices
 90
        0
280
     0
281
     0
  0
CLASS
  1
ACMSTANDARDJIS
  2
AcmStandardJIS
  3
"AcmSymBB|Product Description: AutoCAD Mechanical 2000|Company: Autodesk"
 90
        0
280
     0
281
     0
  0
CLASS
  1
ACMSURFSTANDARDJIS
  2
AcmSurfTextStdJIS
  3
"AcmSymBB|Product Description: AutoCAD Mechanical 2000|Company: Autodesk"
 90
        0
280
     0
281
     0
  0
CLASS
  1
ACMFCFSTANDARDJIS
  2
AcmFCFStdJIS
  3
"AcmSymBB|Product Description: AutoCAD Mechanical 2000|Company: Autodesk"
 90
        0
280
     0
281
     0
  0
CLASS
  1
ACMWELDSTANDARDJIS
  2
AcmWeldingStdJIS
  3
"AcmSymBB|Product Description: AutoCAD Mechanical 2000|Company: Autodesk"
 90
        0
280
     0
281
     0
  0
CLASS
  1
ACMIDSTANDARDJIS
  2
AcmIdStdJIS
  3
"AcmSymBB|Product Description: AutoCAD Mechanical 2000|Company: Autodesk"
 90
        0
280
     0
281
     0
  0
CLASS
  1
ACMDATUMSTANDARDJIS
  2
AcmDatumStdJIS
  3
"AcmSymBB|Product Description: AutoCAD Mechanical 2000|Company: Autodesk"
 90
        0
280
     0
281
     0
  0
CLASS
  1
ACMBOMSTANDARDJIS
  2
AcmBOMStdJIS
  3
"AcmSymBB|Product Description: AutoCAD Mechanical 2000|Company: Autodesk"
 90
        0
280
     0
281
     0
  0
CLASS
  1
ACMSTANDARDANSI
  2
AcmStandardANSI
  3
"AcmSymBB|Product Description: AutoCAD Mechanical 2000|Company: Autodesk"
 90
        0
280
     0
281
     0
  0
CLASS
  1
ACMSURFSTANDARDANSI
  2
AcmSurfTextStdANSI
  3
"AcmSymBB|Product Description: AutoCAD Mechanical 2000|Company: Autodesk"
 90
        0
280
     0
281
     0
  0
CLASS
  1
ACMFCFSTANDARDANSI
  2
AcmFCFStdANSI
  3
"AcmSymBB|Product Description: AutoCAD Mechanical 2000|Company: Autodesk"
 90
        0
280
     0
281
     0
  0
CLASS
  1
ACMWELDSTANDARDANSI
  2
AcmWeldingStdANSI
  3
"AcmSymBB|Product Description: AutoCAD Mechanical 2000|Company: Autodesk"
 90
        0
280
     0
281
     0
  0
CLASS
  1
ACMIDSTANDARDANSI
  2
AcmIdStdANSI
  3
"AcmSymBB|Product Description: AutoCAD Mechanical 2000|Company: Autodesk"
 90
        0
280
     0
281
     0
  0
CLASS
  1
ACMDATUMSTANDARDANSI
  2
AcmDatumStdANSI
  3
"AcmSymBB|Product Description: AutoCAD Mechanical 2000|Company: Autodesk"
 90
        0
280
     0
281
     0
  0
CLASS
  1
ACMBOMSTANDARDANSI
  2
AcmBOMStdANSI
  3
"AcmSymBB|Product Description: AutoCAD Mechanical 2000|Company: Autodesk"
 90
        0
280
     0
281
     0
  0
CLASS
  1
ACMSTANDARDBSI
  2
AcmStandardBSI
  3
"AcmSymBB|Product Description: AutoCAD Mechanical 2000|Company: Autodesk"
 90
        0
280
     0
281
     0
  0
CLASS
  1
ACMSURFSTANDARDBSI
  2
AcmSurfTextStdBSI
  3
"AcmSymBB|Product Description: AutoCAD Mechanical 2000|Company: Autodesk"
 90
        0
280
     0
281
     0
  0
CLASS
  1
ACMFCFSTANDARDBSI
  2
AcmFCFStdBSI
  3
"AcmSymBB|Product Description: AutoCAD Mechanical 2000|Company: Autodesk"
 90
        0
280
     0
281
     0
  0
CLASS
  1
ACMWELDSTANDARDBSI
  2
AcmWeldingStdBSI
  3
"AcmSymBB|Product Description: AutoCAD Mechanical 2000|Company: Autodesk"
 90
        0
280
     0
281
     0
  0
CLASS
  1
ACMIDSTANDARDBSI
  2
AcmIdStdBSI
  3
"AcmSymBB|Product Description: AutoCAD Mechanical 2000|Company: Autodesk"
 90
        0
280
     0
281
     0
  0
CLASS
  1
ACMDATUMSTANDARDBSI
  2
AcmDatumStdBSI
  3
"AcmSymBB|Product Description: AutoCAD Mechanical 2000|Company: Autodesk"
 90
        0
280
     0
281
     0
  0
CLASS
  1
ACMBOMSTANDARDBSI
  2
AcmBOMStdBSI
  3
"AcmSymBB|Product Description: AutoCAD Mechanical 2000|Company: Autodesk"
 90
        0
280
     0
281
     0
  0
CLASS
  1
STDPART2D
  2
AmgStdPart
  3
"AmgStdPart|Product Description: AutoCAD Mechanical 2000|Company: Autodesk"
 90
     1023
280
     0
281
     1
  0
CLASS
  1
PLOTSETTINGS
  2
AcDbPlotSettings
  3
AutoCAD 2000
 90
        0
280
     0
281
     0
  0
CLASS
  1
LONG_TRANSACTION
  2
AcDbLongTransaction
  3
AutoCAD 2000
 90
        0
280
     0
281
     0
  0
CLASS
  1
LWPOLYLINE
  2
AcDbPolyline
  3
AutoCAD 2000
 90
        0
280
     0
281
     1
  0
CLASS
  1
HATCH
  2
AcDbHatch
  3
AutoCAD 2000
 90
        0
280
     0
281
     1
  0
CLASS
  1
XRECORD
  2
AcDbXrecord
  3
AutoCAD 2000
 90
        0
280
     0
281
     0
  0
ENDSEC
  0
SECTION
  2
TABLES
  0
TABLE
  2
VPORT
  5
8
330
0
100
AcDbSymbolTable
 70
     3
  0
VPORT
  5
CB2E
330
8
100
AcDbSymbolTableRecord
100
AcDbViewportTableRecord
  2
*ACTIVE
 70
     0
 10
0.0
 20
0.0
 11
1.0
 21
1.0
 12
-124.5696880967065
 22
-7.546179873501372
 13
0.0
 23
0.0
 14
2.5
 24
2.5
 15
10.0
 25
10.0
 16
0.0
 26
0.0
 36
1.0
 17
0.0
 27
0.0
 37
0.0
 40
209.843728614911
 41
1.56570841889117
 42
50.0
 43
0.0
 44
0.0
 50
0.0
 51
0.0
 71
     0
 72
   100
 73
     1
 74
     3
 75
     0
 76
     0
 77
     0
 78
     0
  0
ENDTAB
  0
TABLE
  2
LTYPE
  5
5
330
0
100
AcDbSymbolTable
 70
    10
  0
LTYPE
  5
14
330
5
100
AcDbSymbolTableRecord
100
AcDbLinetypeTableRecord
  2
BYBLOCK
 70
     0
  3

 72
    65
 73
     0
 40
0.0
  0
LTYPE
  5
15
330
5
100
AcDbSymbolTableRecord
100
AcDbLinetypeTableRecord
  2
BYLAYER
 70
     0
  3

 72
    65
 73
     0
 40
0.0
  0
LTYPE
  5
16
330
5
100
AcDbSymbolTableRecord
100
AcDbLinetypeTableRecord
  2
CONTINUOUS
 70
     0
  3
Solid line
 72
    65
 73
     0
 40
0.0
  0
LTYPE
  5
4B
330
5
100
AcDbSymbolTableRecord
100
AcDbLinetypeTableRecord
  2
AM_ISO02W050
 70
     0
  3
__ __ __ __ __ __ __ __ __ __ __ __ __ __ __
 72
    65
 73
     2
 40
7.5
 49
6.0
 74
     0
 49
-1.5
 74
     0
  0
LTYPE
  5
4C
330
5
100
AcDbSymbolTableRecord
100
AcDbLinetypeTableRecord
  2
AM_ISO08W050
 70
     0
  3
____ . ____ . ____ . ____ . ____ . ____ . ____
 72
    65
 73
     4
 40
18.0
 49
12.0
 74
     0
 49
-1.5
 74
     0
 49
3.0
 74
     0
 49
-1.5
 74
     0
  0
LTYPE
  5
4D
330
5
100
AcDbSymbolTableRecord
100
AcDbLinetypeTableRecord
  2
AM_ISO09W050
 70
     0
  3
_____ . . _____ . . _____ . . ____ .. ____
 72
    65
 73
     6
 40
22.5
 49
12.0
 74
     0
 49
-1.5
 74
     0
 49
3.0
 74
     0
 49
-1.5
 74
     0
 49
3.0
 74
     0
 49
-1.5
 74
     0
  0
LTYPE
  5
4E
330
5
100
AcDbSymbolTableRecord
100
AcDbLinetypeTableRecord
  2
AMCONSTR
 70
     0
  3
_______________________
 72
    65
 73
     2
 40
9999.0
 49
9999.0
 74
     0
 49
0.0
 74
     0
  0
LTYPE
  5
4F
330
5
100
AcDbSymbolTableRecord
100
AcDbLinetypeTableRecord
  2
AM_ISO02W050X2
 70
     0
  3
 _ _ _ _ _ _ _ _ _ _ _ _
 72
    65
 73
     2
 40
3.75
 49
3.0
 74
     0
 49
-0.75
 74
     0
  0
LTYPE
  5
50
330
5
100
AcDbSymbolTableRecord
100
AcDbLinetypeTableRecord
  2
AM_ISO08W050X2
 70
     0
  3
__ . __ . __ . __ . __ . __
 72
    65
 73
     4
 40
9.0
 49
6.0
 74
     0
 49
-0.75
 74
     0
 49
1.5
 74
     0
 49
-0.75
 74
     0
  0
LTYPE
  5
53
330
5
100
AcDbSymbolTableRecord
100
AcDbLinetypeTableRecord
  2
AMZIGZAG
 70
     0
  3
/\/-/\/-/\/-/\/-/\/-/\/
 72
    65
 73
     2
 40
11.00009999999999
 49
0.0001
 74
     4
 75
   135
340
52
 46
0.04
 50
0.0
 44
0.0
 45
0.0
 49
-11.0
 74
     0
  0
LTYPE
  5
166
330
5
100
AcDbSymbolTableRecord
100
AcDbLinetypeTableRecord
  2
ACJISTGL
 70
     0
  3
_ _ _ _ _
 72
    65
 73
     2
 40
3.0
 49
2.0
 74
     0
 49
-1.0
 74
     0
  0
LTYPE
  5
26A
330
5
100
AcDbSymbolTableRecord
100
AcDbLinetypeTableRecord
  2
ACJISTGB
 70
     0
  3
__ . . __ . .
 72
    65
 73
     6
 40
9.0
 49
4.0
 74
     0
 49
-1.0
 74
     0
 49
1.0
 74
     0
 49
-1.0
 74
     0
 49
1.0
 74
     0
 49
-1.0
 74
     0
  0
ENDTAB
  0
TABLE
  2
LAYER
  5
2
330
0
100
AcDbSymbolTable
 70
     7
  0
LAYER
  5
10
330
2
100
AcDbSymbolTableRecord
100
AcDbLayerTableRecord
  2
0
 70
     0
 62
     7
  6
CONTINUOUS
  0
LAYER
  5
3F9
330
2
100
AcDbSymbolTableRecord
100
AcDbLayerTableRecord
  2
AM_0
 70
     0
 62
     7
  6
CONTINUOUS
  0
LAYER
  5
BA4
330
2
100
AcDbSymbolTableRecord
100
AcDbLayerTableRecord
  2
AM_5
 70
     0
 62
     3
  6
CONTINUOUS
  0
LAYER
  5
BA6
330
2
100
AcDbSymbolTableRecord
100
AcDbLayerTableRecord
  2
AM_7
 70
     0
 62
     4
  6
AM_ISO08W050
  0
LAYER
  5
E64
330
2
100
AcDbSymbolTableRecord
100
AcDbLayerTableRecord
  2
AM_6
 70
     0
 62
     2
  6
CONTINUOUS
  0
LAYER
  5
F4D
330
2
100
AcDbSymbolTableRecord
100
AcDbLayerTableRecord
  2
DEFPOINTS
 70
     0
 62
     7
  6
CONTINUOUS
  0
LAYER
  5
4E80
330
2
100
AcDbSymbolTableRecord
100
AcDbLayerTableRecord
  2
AM_11
 70
     0
 62
     3
  6
AM_ISO09W050
  0
ENDTAB
  0
TABLE
  2
STYLE
  5
3
330
0
100
AcDbSymbolTable
 70
     5
  0
STYLE
  5
11
330
3
100
AcDbSymbolTableRecord
100
AcDbTextStyleTableRecord
  2
STANDARD
 70
     0
 40
0.0
 41
1.0
 50
0.0
 71
     0
 42
2.5
  3
simplex.shx
  4
EXTFONT.SHX
  0
STYLE
  5
52
330
3
100
AcDbSymbolTableRecord
100
AcDbTextStyleTableRecord
  2

 70
     1
 40
0.0
 41
1.0
 50
0.0
 71
     0
 42
2.5
  3
ltypeshp.shx
  4

  0
STYLE
  5
6B
330
3
100
AcDbSymbolTableRecord
100
AcDbTextStyleTableRecord
  2
ASAMI
 70
     0
 40
0.0
 41
1.0
 50
0.0
 71
     0
 42
2.5
  3
simplex.shx
  4
EXTFONT.SHX
  0
STYLE
  5
262
330
3
100
AcDbSymbolTableRecord
100
AcDbTextStyleTableRecord
  2
ACJISTS
 70
     0
 40
1.0
 41
1.0
 50
0.0
 71
     0
 42
2.5
  3
simplex.shx
  4
bigfont.shx
  0
STYLE
  5
269
330
3
100
AcDbSymbolTableRecord
100
AcDbTextStyleTableRecord
  2
ACJISGDT
 70
     0
 40
0.0
 41
1.0
 50
0.0
 71
     0
 42
2.5
  3
amgdtans.shx
  4

  0
ENDTAB
  0
TABLE
  2
VIEW
  5
6
330
0
100
AcDbSymbolTable
 70
     0
  0
ENDTAB
  0
TABLE
  2
UCS
  5
7
330
0
100
AcDbSymbolTable
 70
     0
  0
ENDTAB
  0
TABLE
  2
APPID
  5
9
330
0
100
AcDbSymbolTable
 70
    24
  0
APPID
  5
12
330
9
100
AcDbSymbolTableRecord
100
AcDbRegAppTableRecord
  2
ACAD
 70
     0
  0
APPID
  5
30
330
9
100
AcDbSymbolTableRecord
100
AcDbRegAppTableRecord
  2
MCAD_NO_VIS
 70
     0
  0
APPID
  5
31
330
9
100
AcDbSymbolTableRecord
100
AcDbRegAppTableRecord
  2
ACAD_TEMP_GRAPHIC
 70
     0
  0
APPID
  5
2C2
330
9
100
AcDbSymbolTableRecord
100
AcDbRegAppTableRecord
  2
GENIUS_GENDTOL_13
 70
     0
  0
APPID
  5
339
330
9
100
AcDbSymbolTableRecord
100
AcDbRegAppTableRecord
  2
GENIUS_GENODEF_13
 70
     0
  0
APPID
  5
33A
330
9
100
AcDbSymbolTableRecord
100
AcDbRegAppTableRecord
  2
GENIUS_GENOBJ-N-RSBK_13
 70
     0
  0
APPID
  5
33B
330
9
100
AcDbSymbolTableRecord
100
AcDbRegAppTableRecord
  2
GENIUS_GENOBJ-N-LIB_13
 70
     0
  0
APPID
  5
33C
330
9
100
AcDbSymbolTableRecord
100
AcDbRegAppTableRecord
  2
GENIUS_GENSCALE_13
 70
     0
  0
APPID
  5
378
330
9
100
AcDbSymbolTableRecord
100
AcDbRegAppTableRecord
  2
GENIUS_GENDIMSH_14
 70
     0
  0
APPID
  5
BB0
330
9
100
AcDbSymbolTableRecord
100
AcDbRegAppTableRecord
  2
GENIUS_GENOBJ-N-CEN_13
 70
     0
  0
APPID
  5
BB1
330
9
100
AcDbSymbolTableRecord
100
AcDbRegAppTableRecord
  2
GENIUS_GENFIL_13
 70
     0
  0
APPID
  5
BB2
330
9
100
AcDbSymbolTableRecord
100
AcDbRegAppTableRecord
  2
GENIUS_GENOBJ-N-CHA_13
 70
     0
  0
APPID
  5
1FAF
330
9
100
AcDbSymbolTableRecord
100
AcDbRegAppTableRecord
  2
GENIUS_GENOBJ-N-CRS_13
 70
     0
  0
APPID
  5
1FB0
330
9
100
AcDbSymbolTableRecord
100
AcDbRegAppTableRecord
  2
GENIUS_GENOENT_13
 70
     0
  0
APPID
  5
1FB1
330
9
100
AcDbSymbolTableRecord
100
AcDbRegAppTableRecord
  2
GENIUS_GENOREF_13
 70
     0
  0
APPID
  5
1FB2
330
9
100
AcDbSymbolTableRecord
100
AcDbRegAppTableRecord
  2
GENIUS_GENOLIS_13
 70
     0
  0
APPID
  5
1FB7
330
9
100
AcDbSymbolTableRecord
100
AcDbRegAppTableRecord
  2
GENIUS_GENOBJ-N-FIL_13
 70
     0
  0
APPID
  5
22A8
330
9
100
AcDbSymbolTableRecord
100
AcDbRegAppTableRecord
  2
GEVID1056506048
 70
     0
  0
APPID
  5
22A9
330
9
100
AcDbSymbolTableRecord
100
AcDbRegAppTableRecord
  2
GEVDC
 70
     0
  0
APPID
  5
22AC
330
9
100
AcDbSymbolTableRecord
100
AcDbRegAppTableRecord
  2
GENIUS_GENBH_13
 70
     0
  0
APPID
  5
22B8
330
9
100
AcDbSymbolTableRecord
100
AcDbRegAppTableRecord
  2
GENIUS_GENOBJ-NBEHI-BHF_13
 70
     0
  0
APPID
  5
22BA
330
9
100
AcDbSymbolTableRecord
100
AcDbRegAppTableRecord
  2
GENIUS_GENOBJ-NBEHI-BHB_13
 70
     0
  0
APPID
  5
35C9
330
9
100
AcDbSymbolTableRecord
100
AcDbRegAppTableRecord
  2
GENIUS_GENREC_14
 70
     0
  0
APPID
  5
35CA
330
9
100
AcDbSymbolTableRecord
100
AcDbRegAppTableRecord
  2
GENIUS_GENOBJ-N-REC_13
 70
     0
  0
ENDTAB
  0
TABLE
  2
DIMSTYLE
  5
A
330
0
100
AcDbSymbolTable
 70
     9
  0
DIMSTYLE
105
58
330
A
100
AcDbSymbolTableRecord
100
AcDbDimStyleTableRecord
  2
AM_JIS
 70
     0
  3

  4
"
  5
OPEN30
  6

  7

 40
1.0
 41
2.5
 42
1.0
 43
12.0
 44
1.0
 45
0.0
 46
0.0
 47
0.1
 48
0.1
140
3.2
141
0.0
142
0.0
143
0.0393701
144
1.0
145
0.0
146
0.71
147
1.5
 71
     0
 72
     0
 73
     0
 74
     0
 75
     0
 76
     0
 77
     3
 78
     8
170
     0
171
     2
172
     1
173
     0
174
     0
175
     0
176
   256
177
   256
178
     2
270
     2
271
     3
272
     3
273
     2
274
     2
340
6B
275
     0
280
     0
281
     0
282
     0
283
     0
284
     0
285
     0
286
     0
287
     3
288
     0
  0
DIMSTYLE
105
5F
330
A
100
AcDbSymbolTableRecord
100
AcDbDimStyleTableRecord
  2
AM_JIS$3
 70
     0
  3

  4
"
  5
OPEN30
  6

  7

 40
1.0
 41
2.5
 42
1.0
 43
10.0
 44
1.0
 45
0.0
 46
0.0
 47
0.1
 48
0.1
140
3.2
141
0.0
142
0.0
143
0.0393701
144
1.0
145
0.0
146
0.71
147
1.5
 71
     0
 72
     0
 73
     0
 74
     1
 75
     0
 76
     0
 77
     3
 78
     8
170
     0
171
     2
172
     0
173
     0
174
     0
175
     0
176
   256
177
   256
178
     2
270
     2
271
     2
272
     3
273
     2
274
     2
340
6B
275
     0
280
     0
281
     0
282
     0
283
     0
284
     0
285
     0
286
     0
287
     0
288
     1
  0
DIMSTYLE
105
60
330
A
100
AcDbSymbolTableRecord
100
AcDbDimStyleTableRecord
  2
AM_JIS$4
 70
     0
  3

  4
"
  5
OPEN30
  6

  7

 40
1.0
 41
2.5
 42
1.0
 43
10.0
 44
1.0
 45
0.0
 46
0.0
 47
0.1
 48
0.1
140
3.2
141
0.0
142
0.0
143
0.0393701
144
1.0
145
0.0
146
0.71
147
1.5
 71
     0
 72
     0
 73
     0
 74
     1
 75
     0
 76
     0
 77
     3
 78
     8
170
     0
171
     2
172
     0
173
     0
174
     0
175
     0
176
   256
177
   256
178
     2
270
     2
271
     2
272
     3
273
     2
274
     2
340
6B
275
     0
280
     0
281
     0
282
     0
283
     0
284
     0
285
     0
286
     0
287
     0
288
     1
  0
DIMSTYLE
105
61
330
A
100
AcDbSymbolTableRecord
100
AcDbDimStyleTableRecord
  2
AM_JIS$6
 70
     0
  3

  4
"
  5
OPEN30
  6

  7

 40
1.0
 41
2.5
 42
1.0
 43
10.0
 44
1.0
 45
0.0
 46
0.0
 47
0.1
 48
0.1
140
3.2
141
0.0
142
0.0
143
0.0393701
144
1.0
145
0.0
146
0.71
147
1.5
 71
     0
 72
     0
 73
     0
 74
     0
 75
     0
 76
     0
 77
     0
 78
     8
170
     0
171
     2
172
     1
173
     0
174
     0
175
     0
176
   256
177
   256
178
     2
270
     2
271
     2
272
     2
273
     2
274
     2
340
6B
275
     0
280
     0
281
     0
282
     0
283
     0
284
     0
285
     0
286
     0
287
     3
288
     0
  0
DIMSTYLE
105
62
330
A
100
AcDbSymbolTableRecord
100
AcDbDimStyleTableRecord
  2
AM_JIS$7
 70
     0
  3

  4
"
  5
OPEN30
  6

  7

 40
1.0
 41
2.5
 42
1.0
 43
10.0
 44
1.0
 45
0.0
 46
0.0
 47
0.1
 48
0.1
140
3.2
141
0.0
142
0.0
143
0.0393701
144
1.0
145
0.0
146
0.71
147
1.5
 71
     0
 72
     0
 73
     0
 74
     0
 75
     0
 76
     0
 77
     3
 78
     8
170
     0
171
     2
172
     1
173
     0
174
     0
175
     0
176
   256
177
   256
178
     2
270
     2
271
     2
272
     3
273
     2
274
     2
340
6B
275
     0
280
     0
281
     0
282
     0
283
     0
284
     0
285
     0
286
     0
287
     3
288
     0
  0
DIMSTYLE
105
63
330
A
100
AcDbSymbolTableRecord
100
AcDbDimStyleTableRecord
  2
AM_JIS$SF
 70
     0
  3

  4
"
  5
OPEN30
  6

  7

 40
1.0
 41
2.5
 42
1.0
 43
10.0
 44
1.0
 45
0.0
 46
0.0
 47
0.1
 48
0.1
140
3.2
141
0.0
142
0.0
143
0.0393701
144
1.0
145
0.0
146
0.71
147
1.5
 71
     0
 72
     0
 73
     0
 74
     0
 75
     1
 76
     1
 77
     3
 78
     8
170
     0
171
     2
172
     1
173
     0
174
     0
175
     0
176
   256
177
   256
178
     2
270
     2
271
     2
272
     2
273
     2
274
     2
340
6B
275
     0
280
     0
281
     0
282
     0
283
     0
284
     0
285
     0
286
     0
287
     3
288
     0
  0
DIMSTYLE
105
68
330
A
100
AcDbSymbolTableRecord
100
AcDbDimStyleTableRecord
  2
AM_JIS$SH
 70
     0
  3

  4
"
  5

  6
GENAXEH
  7
OPEN30
 40
1.0
 41
2.5
 42
1.0
 43
10.0
 44
1.0
 45
0.0
 46
0.0
 47
0.1
 48
0.1
140
3.2
141
0.0
142
0.0
143
0.0393701
144
2.0
145
0.0
146
0.71
147
1.5
 71
     0
 72
     0
 73
     0
 74
     0
 75
     1
 76
     1
 77
     3
 78
     8
170
     0
171
     2
172
     1
173
     1
174
     0
175
     0
176
   256
177
   256
178
     2
270
     2
271
     2
272
     2
273
     2
274
     2
340
6B
275
     0
280
     0
281
     0
282
     0
283
     0
284
     0
285
     0
286
     0
287
     3
288
     0
  0
DIMSTYLE
105
B34
330
A
100
AcDbSymbolTableRecord
100
AcDbDimStyleTableRecord
  2
AM_JIS$2
 70
     0
  3

  4
"
  5
OPEN30
  6

  7

 40
1.0
 41
2.5
 42
1.0
 43
12.0
 44
1.0
 45
0.0
 46
0.0
 47
0.1
 48
0.1
140
3.2
141
0.0
142
0.0
143
0.0393701
144
1.0
145
0.0
146
0.71
147
1.5
 71
     0
 72
     0
 73
     0
 74
     0
 75
     0
 76
     0
 77
     3
 78
     8
170
     0
171
     2
172
     1
173
     0
174
     0
175
     0
176
   256
177
   256
178
     2
270
     2
271
     3
272
     3
273
     2
274
     2
340
6B
275
     0
280
     0
281
     0
282
     0
283
     0
284
     0
285
     0
286
     0
287
     3
288
     0
  0
DIMSTYLE
105
3B48
102
{ACAD_REACTORS
330
C66F
330
C508
330
C5DA
330
C46F
330
C3E3
330
C711
330
C353
102
}
330
A
100
AcDbSymbolTableRecord
100
AcDbDimStyleTableRecord
  2
AM_JIS$0
 70
     0
  3

  4
"
  5
OPEN30
  6

  7

 40
1.0
 41
2.5
 42
0.0
 43
10.0
 44
1.0
 45
0.0
 46
0.0
 47
0.1
 48
0.1000000001
140
3.799999999999999
141
0.0
142
0.0
143
0.0393701
144
1.0
145
0.0
146
0.71
147
1.5
 71
     0
 72
     0
 73
     0
 74
     0
 75
     0
 76
     0
 77
     3
 78
     1
170
     0
171
     2
172
     1
173
     0
174
     0
175
     0
176
     3
177
     3
178
     2
270
     2
271
     2
272
     2
273
     2
274
     2
340
11
275
     1
280
     0
281
     0
282
     0
283
     0
284
     8
285
     0
286
     0
287
     0
288
     0
  0
ENDTAB
  0
TABLE
  2
BLOCK_RECORD
  5
1
330
0
100
AcDbSymbolTable
 70
    12
  0
BLOCK_RECORD
  5
1F
102
{ACAD_XDICTIONARY
360
74
102
}
330
1
100
AcDbSymbolTableRecord
100
AcDbBlockTableRecord
  2
*MODEL_SPACE
  0
BLOCK_RECORD
  5
101
102
{ACAD_XDICTIONARY
360
CB57
102
}
330
1
100
AcDbSymbolTableRecord
100
AcDbBlockTableRecord
  2
*PAPER_SPACE
  0
BLOCK_RECORD
  5
59
330
1
100
AcDbSymbolTableRecord
100
AcDbBlockTableRecord
  2
_OPEN30
  0
BLOCK_RECORD
  5
64
330
1
100
AcDbSymbolTableRecord
100
AcDbBlockTableRecord
  2
GENAXEH
  0
BLOCK_RECORD
  5
C354
330
1
100
AcDbSymbolTableRecord
100
AcDbBlockTableRecord
  2
*D5
  0
BLOCK_RECORD
  5
C3E4
330
1
100
AcDbSymbolTableRecord
100
AcDbBlockTableRecord
  2
*D6
  0
BLOCK_RECORD
  5
C470
330
1
100
AcDbSymbolTableRecord
100
AcDbBlockTableRecord
  2
*D7
  0
BLOCK_RECORD
  5
C509
330
1
100
AcDbSymbolTableRecord
100
AcDbBlockTableRecord
  2
*D8
  0
BLOCK_RECORD
  5
C5DB
330
1
100
AcDbSymbolTableRecord
100
AcDbBlockTableRecord
  2
*D9
  0
BLOCK_RECORD
  5
C670
330
1
100
AcDbSymbolTableRecord
100
AcDbBlockTableRecord
  2
*D10
  0
BLOCK_RECORD
  5
C712
330
1
100
AcDbSymbolTableRecord
100
AcDbBlockTableRecord
  2
*D11
  0
ENDTAB
  0
ENDSEC
  0
SECTION
  2
BLOCKS
  0
BLOCK
  5
20
330
1F
100
AcDbEntity
  8
0
100
AcDbBlockBegin
  2
*MODEL_SPACE
 70
     0
 10
0.0
 20
0.0
 30
0.0
  3
*MODEL_SPACE
  1

  0
ENDBLK
  5
21
330
1F
100
AcDbEntity
  8
0
100
AcDbBlockEnd
  0
BLOCK
  5
103
330
101
100
AcDbEntity
 67
     1
  8
0
100
AcDbBlockBegin
  2
*PAPER_SPACE
 70
     0
 10
0.0
 20
0.0
 30
0.0
  3
*PAPER_SPACE
  1

  0
ENDBLK
  5
104
330
101
100
AcDbEntity
 67
     1
  8
0
100
AcDbBlockEnd
  0
BLOCK
  5
5D
330
59
100
AcDbEntity
  8
0
100
AcDbBlockBegin
  2
_OPEN30
 70
     0
 10
0.0
 20
0.0
 30
0.0
  3
_OPEN30
  1

  0
LINE
  5
5A
330
59
100
AcDbEntity
  8
0
 62
     0
100
AcDbLine
 10
-1.0
 20
0.26794919
 30
0.0
 11
0.0
 21
0.0
 31
0.0
  0
LINE
  5
5B
330
59
100
AcDbEntity
  8
0
 62
     0
100
AcDbLine
 10
0.0
 20
0.0
 30
0.0
 11
-1.0
 21
-0.26794919
 31
0.0
  0
LINE
  5
5C
330
59
100
AcDbEntity
  8
0
 62
     0
100
AcDbLine
 10
0.0
 20
0.0
 30
0.0
 11
-1.0
 21
0.0
 31
0.0
  0
ENDBLK
  5
5E
330
59
100
AcDbEntity
  8
0
100
AcDbBlockEnd
  0
BLOCK
  5
66
330
64
100
AcDbEntity
  8
0
100
AcDbBlockBegin
  2
GENAXEH
 70
     0
 10
0.0
 20
0.0
 30
0.0
  3
GENAXEH
  1

  0
LINE
  5
65
330
64
100
AcDbEntity
  8
0
100
AcDbLine
 10
-1.0
 20
0.0
 30
0.0
 11
1.0
 21
0.0
 31
0.0
  0
ENDBLK
  5
67
330
64
100
AcDbEntity
  8
0
100
AcDbBlockEnd
  0
BLOCK
  5
C35E
330
C354
100
AcDbEntity
  8
0
100
AcDbBlockBegin
  2
*D5
 70
     1
 10
0.0
 20
0.0
 30
0.0
  3
*D5
  1

  0
LINE
  5
CB59
330
C354
100
AcDbEntity
  8
AM_5
100
AcDbLine
 10
-8.000000000000307
 20
26.00000000000015
 30
0.0
 11
-8.000000000000309
 21
40.00000000000016
 31
0.0
  0
LINE
  5
CB5A
330
C354
100
AcDbEntity
  8
AM_5
100
AcDbLine
 10
-0.0000000000002781
 20
26.00000000000017
 30
0.0
 11
-0.0000000000002807
 21
40.00000000000016
 31
0.0
  0
LINE
  5
CB5B
330
C354
100
AcDbEntity
  8
AM_5
100
AcDbLine
 10
-5.500000000000309
 20
39.00000000000017
 30
0.0
 11
-2.50000000000028
 21
39.00000000000017
 31
0.0
  0
INSERT
  5
CB5C
330
C354
100
AcDbEntity
  8
AM_5
100
AcDbBlockReference
  2
_OPEN30
 10
-8.000000000000309
 20
39.00000000000017
 30
0.0
 41
2.5
 42
2.5
 43
2.5
 50
180.0
  0
INSERT
  5
CB5D
330
C354
100
AcDbEntity
  8
AM_5
100
AcDbBlockReference
  2
_OPEN30
 10
-0.0000000000002805
 20
39.00000000000017
 30
0.0
 41
2.5
 42
2.5
 43
2.5
  0
MTEXT
  5
CB5E
330
C354
100
AcDbEntity
  8
AM_5
 62
     2
100
AcDbMText
 10
-4.000000000000296
 20
41.60000000000017
 30
0.0
 40
3.2
 41
0.0
 71
     5
 72
     1
  1
8
  7
ASAMI
  0
POINT
  5
CB5F
330
C354
100
AcDbEntity
  8
DEFPOINTS
 62
     0
100
AcDbPoint
 10
-8.000000000000255
 20
25.00000000000017
 30
0.0
  0
POINT
  5
CB60
330
C354
100
AcDbEntity
  8
DEFPOINTS
 62
     0
100
AcDbPoint
 10
-0.0000000000002274
 20
25.00000000000017
 30
0.0
  0
POINT
  5
CB61
330
C354
100
AcDbEntity
  8
DEFPOINTS
 62
     0
100
AcDbPoint
 10
-0.0000000000002016
 20
39.00000000000017
 30
0.0
  0
ENDBLK
  5
C35F
330
C354
100
AcDbEntity
  8
0
100
AcDbBlockEnd
  0
BLOCK
  5
C3EE
330
C3E4
100
AcDbEntity
  8
0
100
AcDbBlockBegin
  2
*D6
 70
     1
 10
0.0
 20
0.0
 30
0.0
  3
*D6
  1

  0
LINE
  5
CB62
330
C3E4
100
AcDbEntity
  8
AM_5
100
AcDbLine
 10
0.9999999999996603
 20
25.00000000000017
 30
0.0
 11
14.99999999999975
 21
25.00000000000019
 31
0.0
  0
LINE
  5
CB63
330
C3E4
100
AcDbEntity
  8
AM_5
100
AcDbLine
 10
0.9999999999998564
 20
-24.99999999999982
 30
0.0
 11
14.99999999999985
 21
-24.9999999999998
 31
0.0
  0
LINE
  5
CB64
330
C3E4
100
AcDbEntity
  8
AM_5
100
AcDbLine
 10
13.99999999999975
 20
22.50000000000019
 30
0.0
 11
13.99999999999984
 21
-22.4999999999998
 31
0.0
  0
INSERT
  5
CB65
330
C3E4
100
AcDbEntity
  8
AM_5
100
AcDbBlockReference
  2
_OPEN30
 10
13.99999999999975
 20
25.00000000000019
 30
0.0
 41
2.5
 42
2.5
 43
2.5
 50
90.0000000000001
  0
INSERT
  5
CB66
330
C3E4
100
AcDbEntity
  8
AM_5
100
AcDbBlockReference
  2
_OPEN30
 10
13.99999999999985
 20
-24.9999999999998
 30
0.0
 41
2.5
 42
2.5
 43
2.5
 50
270.0000000000001
  0
MTEXT
  5
CB67
330
C3E4
100
AcDbEntity
  8
AM_5
 62
     2
100
AcDbMText
 10
11.3999999999998
 20
0.000000000000193
 30
0.0
 40
3.2
 41
0.0
 71
     5
 72
     1
  1
%%c50
  7
ASAMI
 11
-0.000000000000002
 21
1.0
 31
0.0
  0
POINT
  5
CB68
330
C3E4
100
AcDbEntity
  8
DEFPOINTS
 62
     0
100
AcDbPoint
 10
-0.0000000000002842
 20
25.00000000000017
 30
0.0
  0
POINT
  5
CB69
330
C3E4
100
AcDbEntity
  8
DEFPOINTS
 62
     0
100
AcDbPoint
 10
-0.000000000000199
 20
-24.99999999999983
 30
0.0
  0
POINT
  5
CB6A
330
C3E4
100
AcDbEntity
  8
DEFPOINTS
 62
     0
100
AcDbPoint
 10
13.99999999999979
 20
-24.99999999999983
 30
0.0
  0
ENDBLK
  5
C3EF
330
C3E4
100
AcDbEntity
  8
0
100
AcDbBlockEnd
  0
BLOCK
  5
C47A
330
C470
100
AcDbEntity
  8
0
100
AcDbBlockBegin
  2
*D7
 70
     1
 10
0.0
 20
0.0
 30
0.0
  3
*D7
  1

  0
LINE
  5
CB6B
330
C470
100
AcDbEntity
  8
AM_5
100
AcDbLine
 10
-0.0000000000001465
 20
-25.99999999999983
 30
0.0
 11
-0.000000000000119
 21
-39.99999999999983
 31
0.0
  0
LINE
  5
CB6C
330
C470
100
AcDbEntity
  8
AM_5
100
AcDbLine
 10
-49.99999999999914
 20
-17.00000000000004
 30
0.0
 11
-49.9999999999991
 21
-39.99999999999992
 31
0.0
  0
LINE
  5
CB6D
330
C470
100
AcDbEntity
  8
AM_5
100
AcDbLine
 10
-2.50000000000012
 20
-38.99999999999984
 30
0.0
 11
-47.4999999999991
 21
-38.99999999999993
 31
0.0
  0
INSERT
  5
CB6E
330
C470
100
AcDbEntity
  8
AM_5
100
AcDbBlockReference
  2
_OPEN30
 10
-0.000000000000121
 20
-38.99999999999982
 30
0.0
 41
2.5
 42
2.5
 43
2.5
 50
0.0000000000001018
  0
INSERT
  5
CB6F
330
C470
100
AcDbEntity
  8
AM_5
100
AcDbBlockReference
  2
_OPEN30
 10
-49.9999999999991
 20
-38.99999999999993
 30
0.0
 41
2.5
 42
2.5
 43
2.5
 50
180.0000000000001
  0
MTEXT
  5
CB70
330
C470
100
AcDbEntity
  8
AM_5
 62
     2
100
AcDbMText
 10
-24.99999999999961
 20
-36.39999999999988
 30
0.0
 40
3.2
 41
0.0
 71
     5
 72
     1
  1
50
  7
ASAMI
  0
POINT
  5
CB71
330
C470
100
AcDbEntity
  8
DEFPOINTS
 62
     0
100
AcDbPoint
 10
-0.000000000000199
 20
-24.99999999999983
 30
0.0
  0
POINT
  5
CB72
330
C470
100
AcDbEntity
  8
DEFPOINTS
 62
     0
100
AcDbPoint
 10
-49.99999999999918
 20
-15.99999999999994
 30
0.0
  0
POINT
  5
CB73
330
C470
100
AcDbEntity
  8
DEFPOINTS
 62
     0
100
AcDbPoint
 10
-49.99999999999918
 20
-38.99999999999982
 30
0.0
  0
ENDBLK
  5
C47B
330
C470
100
AcDbEntity
  8
0
100
AcDbBlockEnd
  0
BLOCK
  5
C513
330
C509
100
AcDbEntity
  8
0
100
AcDbBlockBegin
  2
*D8
 70
     1
 10
0.0
 20
0.0
 30
0.0
  3
*D8
  1

  0
LINE
  5
CB74
330
C509
100
AcDbEntity
  8
AM_5
100
AcDbLine
 10
-49.99999999999914
 20
-17.00000000000004
 30
0.0
 11
-49.9999999999991
 21
-39.99999999999992
 31
0.0
  0
LINE
  5
CB75
330
C509
100
AcDbEntity
  8
AM_5
100
AcDbLine
 10
-250.0000000000001
 20
-16.46409606933084
 30
0.0
 11
-250.0
 21
-40.00000000000033
 31
0.0
  0
LINE
  5
CB76
330
C509
100
AcDbEntity
  8
AM_5
100
AcDbLine
 10
-52.4999999999991
 20
-38.99999999999993
 30
0.0
 11
-247.5
 21
-39.00000000000032
 31
0.0
  0
INSERT
  5
CB77
330
C509
100
AcDbEntity
  8
AM_5
100
AcDbBlockReference
  2
_OPEN30
 10
-49.9999999999991
 20
-38.99999999999993
 30
0.0
 41
2.5
 42
2.5
 43
2.5
 50
0.0000000000001018
  0
INSERT
  5
CB78
330
C509
100
AcDbEntity
  8
AM_5
100
AcDbBlockReference
  2
_OPEN30
 10
-250.0
 20
-39.00000000000033
 30
0.0
 41
2.5
 42
2.5
 43
2.5
 50
180.0000000000001
  0
MTEXT
  5
CB79
330
C509
100
AcDbEntity
  8
AM_5
 62
     2
100
AcDbMText
 10
-149.9999999999995
 20
-36.40000000000013
 30
0.0
 40
3.2
 41
0.0
 71
     5
 72
     1
  1
200
  7
ASAMI
  0
POINT
  5
CB7A
330
C509
100
AcDbEntity
  8
DEFPOINTS
 62
     0
100
AcDbPoint
 10
-49.99999999999918
 20
-15.99999999999994
 30
0.0
  0
POINT
  5
CB7B
330
C509
100
AcDbEntity
  8
DEFPOINTS
 62
     0
100
AcDbPoint
 10
-250.0000000000001
 20
-15.46409606933034
 30
0.0
  0
POINT
  5
CB7C
330
C509
100
AcDbEntity
  8
DEFPOINTS
 62
     0
100
AcDbPoint
 10
-250.0000000000001
 20
-38.99999999999982
 30
0.0
  0
ENDBLK
  5
C514
330
C509
100
AcDbEntity
  8
0
100
AcDbBlockEnd
  0
BLOCK
  5
C5E5
330
C5DB
100
AcDbEntity
  8
0
100
AcDbBlockBegin
  2
*D9
 70
     1
 10
0.0
 20
0.0
 30
0.0
  3
*D9
  1

  0
LINE
  5
CB7D
330
C5DB
100
AcDbEntity
  8
AM_5
100
AcDbLine
 10
-0.0000000000001465
 20
-25.99999999999983
 30
0.0
 11
-0.0000000000000994
 21
-49.99999999999983
 31
0.0
  0
LINE
  5
CB7E
330
C5DB
100
AcDbEntity
  8
AM_5
100
AcDbLine
 10
-250.0000000000001
 20
-16.46409606933084
 30
0.0
 11
-250.0
 21
-50.00000000000033
 31
0.0
  0
LINE
  5
CB7F
330
C5DB
100
AcDbEntity
  8
AM_5
100
AcDbLine
 10
-2.500000000000101
 20
-48.99999999999984
 30
0.0
 11
-247.5
 21
-49.00000000000033
 31
0.0
  0
INSERT
  5
CB80
330
C5DB
100
AcDbEntity
  8
AM_5
100
AcDbBlockReference
  2
_OPEN30
 10
-0.0000000000001014
 20
-48.99999999999983
 30
0.0
 41
2.5
 42
2.5
 43
2.5
 50
0.0000000000001018
  0
INSERT
  5
CB81
330
C5DB
100
AcDbEntity
  8
AM_5
100
AcDbBlockReference
  2
_OPEN30
 10
-250.0
 20
-49.00000000000034
 30
0.0
 41
2.5
 42
2.5
 43
2.5
 50
180.0000000000001
  0
MTEXT
  5
CB82
330
C5DB
100
AcDbEntity
  8
AM_5
 62
     2
100
AcDbMText
 10
-125.0
 20
-46.40000000000008
 30
0.0
 40
3.2
 41
0.0
 71
     5
 72
     1
  1
250
  7
ASAMI
  0
POINT
  5
CB83
330
C5DB
100
AcDbEntity
  8
DEFPOINTS
 62
     0
100
AcDbPoint
 10
-0.000000000000199
 20
-24.99999999999983
 30
0.0
  0
POINT
  5
CB84
330
C5DB
100
AcDbEntity
  8
DEFPOINTS
 62
     0
100
AcDbPoint
 10
-250.0000000000001
 20
-15.46409606933034
 30
0.0
  0
POINT
  5
CB85
330
C5DB
100
AcDbEntity
  8
DEFPOINTS
 62
     0
100
AcDbPoint
 10
-250.0000000000001
 20
-48.99999999999983
 30
0.0
  0
ENDBLK
  5
C5E6
330
C5DB
100
AcDbEntity
  8
0
100
AcDbBlockEnd
  0
BLOCK
  5
C67A
330
C670
100
AcDbEntity
  8
0
100
AcDbBlockBegin
  2
*D10
 70
     1
 10
0.0
 20
0.0
 30
0.0
  3
*D10
  1

  0
LINE
  5
CB86
330
C670
100
AcDbEntity
  8
AM_5
100
AcDbLine
 10
-249.0000000000002
 20
15.9999999999991
 30
0.0
 11
-265.0000000000002
 21
15.99999999999907
 31
0.0
  0
LINE
  5
CB87
330
C670
100
AcDbEntity
  8
AM_5
100
AcDbLine
 10
-249.0000000000001
 20
-16.00000000000089
 30
0.0
 11
-265.0000000000001
 21
-16.00000000000092
 31
0.0
  0
LINE
  5
CB88
330
C670
100
AcDbEntity
  8
AM_5
100
AcDbLine
 10
-264.0000000000001
 20
13.49999999999907
 30
0.0
 11
-264.0000000000001
 21
-13.50000000000092
 31
0.0
  0
INSERT
  5
CB89
330
C670
100
AcDbEntity
  8
AM_5
100
AcDbBlockReference
  2
_OPEN30
 10
-264.0000000000002
 20
15.99999999999907
 30
0.0
 41
2.5
 42
2.5
 43
2.5
 50
90.0000000000001
  0
INSERT
  5
CB8A
330
C670
100
AcDbEntity
  8
AM_5
100
AcDbBlockReference
  2
_OPEN30
 10
-264.0000000000001
 20
-16.00000000000092
 30
0.0
 41
2.5
 42
2.5
 43
2.5
 50
270.0000000000001
  0
MTEXT
  5
CB8B
330
C670
100
AcDbEntity
  8
AM_5
 62
     2
100
AcDbMText
 10
-266.6000000000002
 20
-0.0000000000009185
 30
0.0
 40
3.2
 41
0.0
 71
     5
 72
     1
  1
%%c32
  7
ASAMI
 11
-0.000000000000002
 21
1.0
 31
0.0
  0
POINT
  5
CB8C
330
C670
100
AcDbEntity
  8
DEFPOINTS
 62
     0
100
AcDbPoint
 10
-248.0000000000002
 20
15.99999999999965
 30
0.0
  0
POINT
  5
CB8D
330
C670
100
AcDbEntity
  8
DEFPOINTS
 62
     0
100
AcDbPoint
 10
-248.0000000000001
 20
-16.00000000000034
 30
0.0
  0
POINT
  5
CB8E
330
C670
100
AcDbEntity
  8
DEFPOINTS
 62
     0
100
AcDbPoint
 10
-264.0000000000001
 20
-16.00000000000033
 30
0.0
  0
ENDBLK
  5
C67B
330
C670
100
AcDbEntity
  8
0
100
AcDbBlockEnd
  0
BLOCK
  5
C71C
330
C712
100
AcDbEntity
  8
0
100
AcDbBlockBegin
  2
*D11
 70
     1
 10
0.0
 20
0.0
 30
0.0
  3
*D11
  1

  0
LINE
  5
CB8F
330
C712
100
AcDbEntity
  8
AM_5
100
AcDbLine
 10
-40.86103547811924
 20
20.39632415771398
 30
0.0
 11
-64.99999999999921
 21
20.39632415771393
 31
0.0
  0
LINE
  5
CB90
330
C712
100
AcDbEntity
  8
AM_5
100
AcDbLine
 10
-40.8610277175904
 20
-20.39633178711
 30
0.0
 11
-64.99999999999913
 21
-20.39633178711005
 31
0.0
  0
LINE
  5
CB91
330
C712
100
AcDbEntity
  8
AM_5
100
AcDbLine
 10
-63.99999999999921
 20
17.89632415771394
 30
0.0
 11
-63.99999999999914
 21
-17.89633178711005
 31
0.0
  0
INSERT
  5
CB92
330
C712
100
AcDbEntity
  8
AM_5
100
AcDbBlockReference
  2
_OPEN30
 10
-63.99999999999922
 20
20.39632415771394
 30
0.0
 41
2.5
 42
2.5
 43
2.5
 50
90.0000000000001
  0
INSERT
  5
CB93
330
C712
100
AcDbEntity
  8
AM_5
100
AcDbBlockReference
  2
_OPEN30
 10
-63.99999999999913
 20
-20.39633178711004
 30
0.0
 41
2.5
 42
2.5
 43
2.5
 50
270.0000000000001
  0
MTEXT
  5
CB94
330
C712
100
AcDbEntity
  8
AM_5
 62
     2
100
AcDbMText
 10
-66.59999999999918
 20
4.970205704700853
 30
0.0
 40
3.2
 41
0.0
 71
     5
 72
     1
  1
%%c40.8
  7
ASAMI
 11
-0.000000000000002
 21
1.0
 31
0.0
  0
POINT
  5
CB95
330
C712
100
AcDbEntity
  8
DEFPOINTS
 62
     0
100
AcDbPoint
 10
-39.86103547811919
 20
20.39632415771407
 30
0.0
  0
POINT
  5
CB96
330
C712
100
AcDbEntity
  8
DEFPOINTS
 62
     0
100
AcDbPoint
 10
-39.86102771759044
 20
-20.39633178710991
 30
0.0
  0
POINT
  5
CB97
330
C712
100
AcDbEntity
  8
DEFPOINTS
 62
     0
100
AcDbPoint
 10
-63.99999999999918
 20
-20.3963317871099
 30
0.0
  0
ENDBLK
  5
C71D
330
C712
100
AcDbEntity
  8
0
100
AcDbBlockEnd
  0
ENDSEC
  0
SECTION
  2
ENTITIES
  0
TEXT
  5
388D
330
1F
100
AcDbEntity
  8
AM_6
100
AcDbText
 10
-148.452380952381
 20
-71.50000000000004
 30
0.0
 40
5.0
  1
WRC16050EM
 50
359.9999999999998
 51
359.9999999999998
 72
     4
 11
-125.0
 21
-69.00000000000009
 31
0.0
100
AcDbText
  0
SPLINE
  5
C0D1
330
1F
100
AcDbEntity
  8
AM_0
100
AcDbSpline
210
0.0
220
0.0
230
1.0
 70
     8
 71
     3
 72
    11
 73
     7
 74
     5
 42
0.0000000001
 43
0.0000000001
 44
0.0000000001
 40
0.0
 40
0.0
 40
0.0
 40
0.0
 40
4.011688310890588
 40
7.281431010459538
 40
10.00138040045546
 40
13.10156156533988
 40
13.10156156533988
 40
13.10156156533988
 40
13.10156156533988
 10
-35.38882064819347
 20
-9.805473327629897
 30
0.0
 10
-35.27521400893641
 20
-11.13691888057245
 30
0.0
 10
-35.06901182123535
 20
-13.55356448876082
 30
0.0
 10
-34.41886813730122
 20
-16.85078496669593
 30
0.0
 10
-32.48380002392866
 20
-19.44423124239337
 30
0.0
 10
-30.52870583909737
 20
-19.87594979430155
 30
0.0
 10
-29.48729515075695
 20
-20.10591125487988
 30
0.0
 11
-35.38882064819347
 21
-9.805473327629897
 31
0.0
 11
-34.96691513061534
 21
-13.79491424559989
 31
0.0
 11
-34.11917877197274
 21
-16.95285034178991
 31
0.0
 11
-32.40834808349615
 21
-19.06736755370991
 31
0.0
 11
-29.48729515075695
 21
-20.10591125487988
 31
0.0
  0
SPLINE
  5
C0D2
330
1F
100
AcDbEntity
  8
AM_0
100
AcDbSpline
210
0.0
220
0.0
230
1.0
 70
     8
 71
     3
 72
    11
 73
     7
 74
     5
 42
0.0000000001
 43
0.0000000001
 44
0.0000000001
 40
0.0
 40
0.0
 40
0.0
 40
0.0
 40
2.619970886015572
 40
5.402560346002141
 40
8.272496127746904
 40
11.17841672141247
 40
11.17841672141247
 40
11.17841672141247
 40
11.17841672141247
 10
-29.48729515075701
 20
13.0231094360401
 30
0.0
 10
-28.84347641137559
 20
12.42939463927226
 30
0.0
 10
-27.51587784531484
 20
11.20511385242324
 30
0.0
 10
-25.10211058212238
 20
9.83144838945012
 30
0.0
 10
-22.3916475416343
 20
8.85672894219269
 30
0.0
 10
-20.46437289272484
 20
8.706339479854555
 30
0.0
 10
-19.49473190307719
 20
8.630676269540117
 30
0.0
 11
-29.48729515075701
 21
13.0231094360401
 31
0.0
 11
-27.4973335266115
 21
11.31890869141011
 31
0.0
 11
-25.09346389770519
 21
9.917404174810116
 31
0.0
 11
-22.3788337707522
 21
8.9861068725601
 31
0.0
 11
-19.49473190307719
 21
8.630676269540117
 31
0.0
  0
SPLINE
  5
C0D3
330
1F
100
AcDbEntity
  8
AM_0
100
AcDbSpline
210
0.0
220
0.0
230
1.0
 70
     8
 71
     3
 72
    11
 73
     7
 74
     5
 42
0.0000000001
 43
0.0000000001
 44
0.0000000001
 40
0.0
 40
0.0
 40
0.0
 40
0.0
 40
0.7103979469918161
 40
2.557166112977178
 40
5.550066280147843
 40
9.502376358972608
 40
9.502376358972608
 40
9.502376358972608
 40
9.502376358972608
 10
-35.35895919799824
 20
20.39632415771407
 30
0.0
 10
-35.20940505465685
 20
20.21183139288481
 30
0.0
 10
-34.67106624184447
 20
19.54772664946794
 30
0.0
 10
-33.96697729123033
 20
17.81509518527032
 30
0.0
 10
-32.23967214091592
 20
15.40878154395109
 30
0.0
 10
-30.48552658274196
 20
13.88834442857252
 30
0.0
 10
-29.48729515075701
 20
13.0231094360401
 30
0.0
 11
-35.35895919799824
 21
20.39632415771407
 31
0.0
 11
-34.92680740356462
 21
19.83248901367107
 31
0.0
 11
-34.06332778930684
 21
18.2000198364251
 31
0.0
 11
-32.35580062866219
 21
15.7420120239251
 31
0.0
 11
-29.48729515075701
 21
13.0231094360401
 31
0.0
  0
ELLIPSE
  5
C0D4
330
1F
100
AcDbEntity
  8
AM_0
100
AcDbEllipse
 10
4.413650512694829
 20
0.0000000000001705
 30
0.0
 11
387.5937205267009
 21
19.17204244544777
 31
0.0
210
0.0
220
0.0
230
1.0
 40
0.0179573363471
 41
4.611069007900342
 42
4.6605428353934
  0
ELLIPSE
  5
C0D5
330
1F
100
AcDbEntity
  8
AM_0
100
AcDbEllipse
 10
4.413650512694829
 20
0.0000000000001705
 30
0.0
 11
-387.593850600389
 21
3.549979205479233
 31
0.0
210
0.0
220
0.0
230
1.0
 40
0.0518197265174
 41
4.763822335412568
 42
4.813304195258788
  0
LINE
  5
C0D7
330
1F
100
AcDbEntity
  8
AM_0
100
AcDbLine
 10
-39.86102771759044
 20
-20.39633178710991
 30
0.0
 11
-25.66787528991705
 21
-20.39633178710988
 31
0.0
  0
SPLINE
  5
C0DB
330
1F
100
AcDbEntity
  8
AM_0
100
AcDbSpline
210
0.0
220
0.0
230
1.0
 70
     8
 71
     3
 72
    11
 73
     7
 74
     5
 42
0.0000000001
 43
0.0000000001
 44
0.0000000001
 40
0.0
 40
0.0
 40
0.0
 40
0.0
 40
0.0610672228745319
 40
0.1218776157818919
 40
0.1825040478438335
 40
0.2429888056510049
 40
0.2429888056510049
 40
0.2429888056510049
 40
0.2429888056510049
 10
-35.36917114257827
 20
-9.564178466789911
 30
0.0
 10
-35.37344362775491
 20
-9.584091736313247
 30
0.0
 10
-35.38197062934893
 20
-9.623834526269702
 30
0.0
 10
-35.3889823138886
 20
-9.684338146878408
 30
0.0
 10
-35.3919553317382
 20
-9.74498763337468
 30
0.0
 10
-35.3898647275214
 20
-9.785327159091229
 30
0.0
 10
-35.38882064819347
 20
-9.805473327629897
 30
0.0
 11
-35.36917114257827
 21
-9.564178466789911
 31
0.0
 11
-35.38102340698256
 21
-9.624084472649911
 31
0.0
 11
-35.38831710815438
 21
-9.684455871579899
 31
0.0
 11
-35.39093780517586
 21
-9.745025634759912
 31
0.0
 11
-35.38882064819347
 21
-9.805473327629897
 31
0.0
  0
SPLINE
  5
C0DC
330
1F
100
AcDbEntity
  8
AM_0
100
AcDbSpline
210
0.0
220
0.0
230
1.0
 70
     8
 71
     3
 72
    11
 73
     7
 74
     5
 42
0.0000000001
 43
0.0000000001
 44
0.0000000001
 40
0.0
 40
0.0
 40
0.0
 40
0.0
 40
0.32204137282325
 40
0.636984556490122
 40
0.9406174363688048
 40
1.232539329194325
 40
1.232539329194325
 40
1.232539329194325
 40
1.232539329194325
 10
-34.45042800903328
 20
-8.863777160639898
 30
0.0
 10
-34.55774111062558
 20
-8.877957336621836
 30
0.0
 10
-34.77000200065991
 20
-8.906005140013121
 30
0.0
 10
-35.04883152183754
 20
-9.061851197690408
 30
0.0
 10
-35.26863651973725
 20
-9.282515032776323
 30
0.0
 10
-35.33610181407177
 20
-9.471529582610061
 30
0.0
 10
-35.36917114257827
 20
-9.564178466789911
 30
0.0
 11
-34.45042800903328
 21
-8.863777160639898
 31
0.0
 11
-34.76637649536147
 21
-8.926124572749898
 31
0.0
 11
-35.04336166381847
 21
-9.076019287109915
 31
0.0
 11
-35.25162887573256
 21
-9.296966552729912
 31
0.0
 11
-35.36917114257827
 21
-9.564178466789911
 31
0.0
  0
SPLINE
  5
C0DD
330
1F
100
AcDbEntity
  8
AM_0
100
AcDbSpline
210
0.0
220
0.0
230
1.0
 70
     8
 71
     3
 72
    11
 73
     7
 74
     5
 42
0.0000000001
 43
0.0000000001
 44
0.0000000001
 40
0.0
 40
0.0
 40
0.0
 40
0.0
 40
0.2606369460924037
 40
0.4991471087088232
 40
0.6983838937027798
 40
0.8441220824470278
 40
0.8441220824470278
 40
0.8441220824470278
 40
0.8441220824470278
 10
-34.45042800903334
 20
20.34046173095708
 30
0.0
 10
-34.53730713790308
 20
20.34126655885244
 30
0.0
 10
-34.70368978868467
 20
20.34280788874829
 30
0.0
 10
-34.93635704319459
 20
20.35089692426356
 30
0.0
 10
-35.13063839554205
 20
20.36062220334167
 30
0.0
 10
-35.24523250398699
 20
20.37025254713485
 30
0.0
 10
-35.29364395141624
 20
20.37432098388606
 30
0.0
 11
-34.45042800903334
 21
20.34046173095708
 31
0.0
 11
-34.71104049682634
 21
20.34403228759708
 31
0.0
 11
-34.94941711425804
 21
20.35201263427708
 31
0.0
 11
-35.14836120605483
 21
20.36280822753909
 31
0.0
 11
-35.29364395141624
 21
20.37432098388606
 31
0.0
  0
ELLIPSE
  5
C0DE
330
1F
100
AcDbEntity
  8
AM_0
100
AcDbEllipse
 10
-20.51663875579922
 20
21.34115600585912
 30
0.0
 11
-13.3978814232488
 21
4.061618724801962
 31
0.0
210
0.0
220
0.0
230
1.0
 40
0.9834583134962999
 41
0.3716512662593379
 42
0.5207450157898318
  0
ELLIPSE
  5
C0DF
330
1F
100
AcDbEntity
  8
AM_0
100
AcDbEllipse
 10
-20.46408939361617
 20
-9.504959106439883
 30
0.0
 11
14.97653495285399
 21
0.8387069906500254
 31
0.0
210
0.0
220
0.0
230
0.9999999999999998
 40
0.3416074853511
 41
2.902126147203554
 42
3.037100062240125
  0
LINE
  5
C0E0
330
1F
100
AcDbEntity
  8
AM_0
100
AcDbLine
 10
-248.0000000000001
 20
-16.00000000000031
 30
0.0
 11
-49.99999999999914
 21
-15.99999999999994
 31
0.0
  0
LINE
  5
C0E1
330
1F
100
AcDbEntity
  8
AM_0
100
AcDbLine
 10
-248.0000000000002
 20
15.99999999999965
 30
0.0
 11
-49.9999999999992
 21
16.00000000000005
 31
0.0
  0
LINE
  5
C0E2
330
1F
100
AcDbEntity
  8
AM_7
100
AcDbLine
 10
-256.0902750462282
 20
-0.0000000000003695
 30
0.0
 11
5.212966918944829
 21
0.0000000000001705
 31
0.0
  0
LINE
  5
C0E3
330
1F
100
AcDbEntity
  8
AM_0
100
AcDbLine
 10
-250.0000000000002
 20
15.46409606933465
 30
0.0
 11
-248.0000000000002
 21
15.99999999999965
 31
0.0
  0
LINE
  5
C0E4
330
1F
100
AcDbEntity
  8
AM_0
100
AcDbLine
 10
-248.0000000000001
 20
-16.00000000000034
 30
0.0
 11
-248.0000000000002
 21
15.99999999999965
 31
0.0
  0
LINE
  5
C0E6
330
1F
100
AcDbEntity
  8
AM_0
100
AcDbLine
 10
-250.0000000000001
 20
-15.46409606933034
 30
0.0
 11
-250.0000000000002
 21
15.46410369872964
 31
0.0
  0
LINE
  5
C0E7
330
1F
100
AcDbEntity
  8
AM_0
100
AcDbLine
 10
-250.0000000000001
 20
-15.46411132812034
 30
0.0
 11
-248.0000000000001
 21
-16.00000000000034
 31
0.0
  0
ARC
  5
C0ED
330
1F
100
AcDbEntity
  8
AM_0
100
AcDbCircle
 10
-47.24264049530023
 20
18.50000000000005
 30
0.0
 40
3.0
100
AcDbArc
 50
269.9999974955216
 51
314.9999987477634
  0
LINE
  5
C0EE
330
1F
100
AcDbEntity
  8
AM_0
100
AcDbLine
 10
-41.10367584228524
 20
-19.40353393553991
 30
0.0
 11
-41.10367584228533
 21
19.62305450439407
 31
0.0
  0
LINE
  5
C0EF
330
1F
100
AcDbEntity
  8
AM_0
100
AcDbLine
 10
-49.99999809265119
 20
16.00000000000005
 30
0.0
 11
-49.49999809265119
 21
15.50000000000005
 31
0.0
  0
LINE
  5
C0F0
330
1F
100
AcDbEntity
  8
AM_0
100
AcDbLine
 10
-49.99999999999914
 20
-15.99999999999994
 30
0.0
 11
-49.9999999999992
 21
16.00000000000005
 31
0.0
  0
LINE
  5
C0F2
330
1F
100
AcDbEntity
  8
AM_0
100
AcDbLine
 10
-45.99999999999915
 20
-15.49999999999994
 30
0.0
 11
-45.9999999999992
 21
15.50000000000005
 31
0.0
  0
LINE
  5
C0F3
330
1F
100
AcDbEntity
  8
AM_0
100
AcDbLine
 10
-49.49999999999921
 20
15.50000000000005
 30
0.0
 11
-49.49999999999914
 21
-15.49999999999994
 31
0.0
  0
ARC
  5
C0F4
330
1F
100
AcDbEntity
  8
AM_0
100
AcDbCircle
 10
-47.24264049530015
 20
-18.49999999999994
 30
0.0
 40
3.0
100
AcDbArc
 50
45.00000125223659
 51
90.00000250447856
  0
LINE
  5
C0F5
330
1F
100
AcDbEntity
  8
AM_0
100
AcDbLine
 10
-49.99999809265114
 20
-15.99999999999994
 30
0.0
 11
-49.49999809265114
 21
-15.49999999999994
 31
0.0
  0
LINE
  5
C0F6
330
1F
100
AcDbEntity
  8
AM_0
100
AcDbLine
 10
-47.24264049530015
 20
-15.49999999999994
 30
0.0
 11
-49.49999999999914
 21
-15.49999999999994
 31
0.0
  0
LINE
  5
C0F7
330
1F
100
AcDbEntity
  8
AM_0
100
AcDbLine
 10
-45.12132167816114
 20
-16.37867736815994
 30
0.0
 11
-41.98234844207775
 21
-19.51765441893991
 31
0.0
  0
ARC
  5
C0F8
330
1F
100
AcDbEntity
  8
AM_0
100
AcDbCircle
 10
-39.86102771759044
 20
-17.39633178710991
 30
0.0
 40
3.0
100
AcDbArc
 50
224.9999996583763
 51
269.9999974955216
  0
LINE
  5
C0F9
330
1F
100
AcDbEntity
  8
AM_0
100
AcDbLine
 10
-47.2426404953002
 20
15.50000000000005
 30
0.0
 11
-49.49999999999921
 21
15.50000000000005
 31
0.0
  0
LINE
  5
C0FA
330
1F
100
AcDbEntity
  8
AM_0
100
AcDbLine
 10
-35.35889816284194
 20
20.39632415771407
 30
0.0
 11
-39.86103534698503
 21
20.39632415771407
 31
0.0
  0
LINE
  5
C0FB
330
1F
100
AcDbEntity
  8
AM_0
100
AcDbLine
 10
-45.12131977081219
 20
16.37868499755805
 30
0.0
 11
-41.98235702514662
 21
19.51764678955007
 31
0.0
  0
ARC
  5
C0FC
330
1F
100
AcDbEntity
  8
AM_0
100
AcDbCircle
 10
-39.861035346985
 20
17.39632415771407
 30
0.0
 40
3.0
100
AcDbArc
 50
90.00000250447856
 51
135.0000003416237
  0
SPLINE
  5
C0FD
330
1F
100
AcDbEntity
  8
AM_0
100
AcDbSpline
210
0.0
220
0.0
230
1.0
 70
     8
 71
     3
 72
    11
 73
     7
 74
     5
 42
0.0000000001
 43
0.0000000001
 44
0.0000000001
 40
0.0
 40
0.0
 40
0.0
 40
0.0
 40
0.1878062283233028
 40
0.6130924215938933
 40
1.189059860721511
 40
1.851367701622537
 40
1.851367701622537
 40
1.851367701622537
 40
1.851367701622537
 10
-15.1666107177742
 20
10.16955566407014
 30
0.0
 10
-15.11349431301282
 20
10.2028223934988
 30
0.0
 10
-14.9400960955402
 20
10.3114214526781
 30
0.0
 10
-14.64546401918882
 20
10.57896739497845
 30
0.0
 10
-14.22325907936918
 20
10.93750435816781
 30
0.0
 10
-13.90677991523962
 20
11.20263542968466
 30
0.0
 10
-13.73750686645522
 20
11.34444427491013
 30
0.0
 11
-15.1666107177742
 21
10.16955566407014
 31
0.0
 11
-15.0092773437502
 21
10.27210998536011
 31
0.0
 11
-14.68171501159722
 21
10.54335021973011
 31
0.0
 11
-14.24469375610419
 21
10.91851806641014
 31
0.0
 11
-13.73750686645522
 21
11.34444427491013
 31
0.0
  0
SPLINE
  5
C0FE
330
1F
100
AcDbEntity
  8
AM_0
100
AcDbSpline
210
0.0
220
0.0
230
1.0
 70
     8
 71
     3
 72
    11
 73
     7
 74
     5
 42
0.0000000001
 43
0.0000000001
 44
0.0000000001
 40
0.0
 40
0.0
 40
0.0
 40
0.0
 40
0.1778095690171415
 40
0.3642024959750898
 40
0.5582629358859196
 40
0.757194419039656
 40
0.757194419039656
 40
0.757194419039656
 40
0.757194419039656
 10
-13.93451309204115
 20
-20.57164001463985
 30
0.0
 10
-13.98087252610547
 20
-20.53442982831207
 30
0.0
 10
-14.07582929188328
 20
-20.45821321741095
 30
0.0
 10
-14.24496890246653
 20
-20.37747895591356
 30
0.0
 10
-14.43148034532536
 20
-20.32214023298418
 30
0.0
 10
-14.56273081818182
 20
-20.31537515059418
 30
0.0
 10
-14.62916946411215
 20
-20.31195068358985
 30
0.0
 11
-13.93451309204115
 21
-20.57164001463985
 31
0.0
 11
-14.07725906372115
 21
-20.46562194823985
 31
0.0
 11
-14.24437522888214
 21
-20.38307189940985
 31
0.0
 11
-14.43106842041115
 21
-20.33010864256985
 31
0.0
 11
-14.62916946411215
 21
-20.31195068358985
 31
0.0
  0
SPLINE
  5
C0FF
330
1F
100
AcDbEntity
  8
AM_0
100
AcDbSpline
210
0.0
220
0.0
230
1.0
 70
     8
 71
     3
 72
    11
 73
     7
 74
     5
 42
0.0000000001
 43
0.0000000001
 44
0.0000000001
 40
0.0
 40
0.0
 40
0.0
 40
0.0
 40
0.9030870821607502
 40
1.804848170620158
 40
2.705164754181081
 40
3.603860038524286
 40
3.603860038524286
 40
3.603860038524286
 40
3.603860038524286
 10
-11.21489334106516
 20
-22.93614196776985
 30
0.0
 10
-11.44402421749284
 20
-22.74090360814189
 30
0.0
 10
-11.90194953978139
 20
-22.35071355541041
 30
0.0
 10
-12.58426404311988
 20
-21.76117272029514
 30
0.0
 10
-13.26241539643001
 20
-21.16906519860469
 30
0.0
 10
-13.71061516851728
 20
-20.77066206013126
 30
0.0
 10
-13.93451309204115
 20
-20.57164001463985
 30
0.0
 11
-11.21489334106516
 21
-22.93614196776985
 31
0.0
 11
-11.90161132812514
 21
-22.34963989256985
 31
0.0
 11
-12.58411788940515
 21
-21.76026916503985
 31
0.0
 11
-13.26194000244214
 21
-21.16770935057985
 31
0.0
 11
-13.93451309204115
 21
-20.57164001463985
 31
0.0
  0
SPLINE
  5
C100
330
1F
100
AcDbEntity
  8
AM_0
100
AcDbSpline
210
0.0
220
0.0
230
1.0
 70
     8
 71
     3
 72
    11
 73
     7
 74
     5
 42
0.0000000001
 43
0.0000000001
 44
0.0000000001
 40
0.0
 40
0.0
 40
0.0
 40
0.0
 40
0.0354673086624019
 40
0.0709365738953715
 40
0.1064038825567786
 40
0.1418712404540946
 40
0.1418712404540946
 40
0.1418712404540946
 40
0.1418712404540946
 10
-6.321428298951133
 20
-23.30877685545985
 30
0.0
 10
-6.309605910483195
 20
-23.3087430673484
 30
0.0
 10
-6.285960481359764
 20
-23.30867548926156
 30
0.0
 10
-6.250492769228445
 20
-23.30854143844687
 30
0.0
 10
-6.215024914127578
 20
-23.3084466109515
 30
0.0
 10
-6.191380177041907
 20
-23.30836159819674
 30
0.0
 10
-6.179557800293139
 20
-23.30831909178985
 30
0.0
 11
-6.321428298951133
 21
-23.30877685545985
 31
0.0
 11
-6.285961151123132
 21
-23.30867004393985
 31
0.0
 11
-6.250492095948146
 21
-23.30854797362985
 31
0.0
 11
-6.21502494812114
 21
-23.30844116210986
 31
0.0
 11
-6.179557800293139
 21
-23.30831909178985
 31
0.0
  0
SPLINE
  5
C101
330
1F
100
AcDbEntity
  8
AM_0
100
AcDbSpline
210
0.0
220
0.0
230
1.0
 70
     8
 71
     3
 72
    11
 73
     7
 74
     5
 42
0.0000000001
 43
0.0000000001
 44
0.0000000001
 40
0.0
 40
0.0
 40
0.0
 40
0.0
 40
0.1958489615244974
 40
0.3882839255951481
 40
0.5742157211392512
 40
0.7519804898710496
 40
0.7519804898710496
 40
0.7519804898710496
 40
0.7519804898710496
 10
-6.179557800293139
 20
-23.30831909178985
 30
0.0
 10
-6.114185046129534
 20
-23.30486045604048
 30
0.0
 10
-5.984579101752672
 20
-23.29800347474472
 30
0.0
 10
-5.799046760108888
 20
-23.24626435864854
 30
0.0
 10
-5.628808461093056
 20
-23.16964218745066
 30
0.0
 10
-5.532145626767521
 20
-23.09589200795492
 30
0.0
 10
-5.484899520874137
 20
-23.05984497069985
 30
0.0
 11
-6.179557800293139
 21
-23.30831909178985
 31
0.0
 11
-5.984495162964151
 21
-23.29078674315985
 31
0.0
 11
-5.798608779908136
 21
-23.24101257323985
 31
0.0
 11
-5.630142211914147
 21
-23.16233825682985
 31
0.0
 11
-5.484899520874137
 21
-23.05984497069985
 31
0.0
  0
SPLINE
  5
C102
330
1F
100
AcDbEntity
  8
AM_0
100
AcDbSpline
210
0.0
220
0.0
230
1.0
 70
     8
 71
     3
 72
    11
 73
     7
 74
     5
 42
0.0000000001
 43
0.0000000001
 44
0.0000000001
 40
0.0
 40
0.0
 40
0.0
 40
0.0
 40
0.922432466505025
 40
1.843711859690108
 40
2.7636986181196
 40
3.682250738542835
 40
3.682250738542835
 40
3.682250738542835
 40
3.682250738542835
 10
-5.484899520874137
 20
-23.05984497069985
 30
0.0
 10
-5.251076618380288
 20
-22.86017111286581
 30
0.0
 10
-4.783723100319003
 20
-22.46107299660636
 30
0.0
 10
-4.086737461733727
 20
-21.8586707747324
 30
0.0
 10
-3.393374065035216
 20
-21.25406465045708
 30
0.0
 10
-2.93456624299932
 20
-20.84776613039651
 30
0.0
 10
-2.705341339112152
 20
-20.64477539061985
 30
0.0
 11
-5.484899520874137
 21
-23.05984497069985
 31
0.0
 11
-4.784027099610142
 21
-22.46012878417985
 31
0.0
 11
-4.086853027344147
 21
-21.85787963866985
 31
0.0
 11
-3.393789291382148
 21
-21.25286865233985
 31
0.0
 11
-2.705341339112152
 21
-20.64477539061985
 31
0.0
  0
SPLINE
  5
C103
330
1F
100
AcDbEntity
  8
AM_0
100
AcDbSpline
210
0.0
220
0.0
230
1.0
 70
     8
 71
     3
 72
    11
 73
     7
 74
     5
 42
0.0000000001
 43
0.0000000001
 44
0.0000000001
 40
0.0
 40
0.0
 40
0.0
 40
0.0
 40
0.2000597769134849
 40
0.3904333444939503
 40
0.5740250137497397
 40
0.7540257643034032
 40
0.7540257643034032
 40
0.7540257643034032
 40
0.7540257643034032
 10
-2.705341339112152
 20
-20.64477539061985
 30
0.0
 10
-2.65801943933783
 20
-20.59737950605254
 30
0.0
 10
-2.565666804131775
 20
-20.50488248335082
 30
0.0
 10
-2.470856764327173
 20
-20.33654302397766
 30
0.0
 10
-2.410854537420958
 20
-20.16001377736499
 30
0.0
 10
-2.403594022680969
 20
-20.03854391373897
 30
0.0
 10
-2.399999618531154
 20
-19.97840881346985
 30
0.0
 11
-2.705341339112152
 21
-20.64477539061985
 31
0.0
 11
-2.570692062378157
 21
-20.49681091307985
 31
0.0
 11
-2.475246429444155
 21
-20.33209228514985
 31
0.0
 11
-2.418655395508153
 21
-20.15744018553985
 31
0.0
 11
-2.399999618531154
 21
-19.97840881346985
 31
0.0
  0
SPLINE
  5
C104
330
1F
100
AcDbEntity
  8
AM_0
100
AcDbSpline
210
0.0
220
0.0
230
1.0
 70
     8
 71
     3
 72
    11
 73
     7
 74
     5
 42
0.0000000001
 43
0.0000000001
 44
0.0000000001
 40
0.0
 40
0.0
 40
0.0
 40
0.0
 40
0.1139749467816182
 40
0.2406387579613924
 40
0.3872997959770523
 40
0.5571367467062231
 40
0.5571367467062231
 40
0.5571367467062231
 40
0.5571367467062231
 10
-2.399999618531154
 20
-12.93707275389985
 30
0.0
 10
-2.404450360053056
 20
-12.89892319565093
 30
0.0
 10
-2.413847345461524
 20
-12.81837687759574
 30
0.0
 10
-2.484469562399561
 20
-12.7062572320777
 30
0.0
 10
-2.590308014697797
 20
-12.60185156342814
 30
0.0
 10
-2.681782754295214
 20
-12.54840808314921
 30
0.0
 10
-2.730869293213146
 20
-12.51972961424985
 30
0.0
 11
-2.399999618531154
 21
-12.93707275389985
 31
0.0
 11
-2.42108726501516
 21
-12.82506561278984
 31
0.0
 11
-2.484138488770156
 21
-12.71520996092985
 31
0.0
 11
-2.588184356690163
 21
-12.61184692381985
 31
0.0
 11
-2.730869293213146
 21
-12.51972961424985
 31
0.0
  0
SPLINE
  5
C105
330
1F
100
AcDbEntity
  8
AM_0
100
AcDbSpline
210
0.0
220
0.0
230
1.0
 70
     8
 71
     3
 72
    11
 73
     7
 74
     5
 42
0.0000000001
 43
0.0000000001
 44
0.0000000001
 40
0.0
 40
0.0
 40
0.0
 40
0.0
 40
0.2556302989346983
 40
0.5110814040266084
 40
0.7663606628749774
 40
1.021464715520886
 40
1.021464715520886
 40
1.021464715520886
 40
1.021464715520886
 10
-2.730869293213146
 20
-12.51972961424985
 30
0.0
 10
-2.806222005587943
 20
-12.47994606490721
 30
0.0
 10
-2.956874608969524
 20
-12.40040685402365
 30
0.0
 10
-3.182644193687122
 20
-12.28088850486371
 30
0.0
 10
-3.40815926608875
 20
-12.16126449032185
 30
0.0
 10
-3.558359806258625
 20
-12.08136918232514
 30
0.0
 10
-3.633434295655149
 20
-12.04143524169984
 30
0.0
 11
-2.730869293213146
 21
-12.51972961424985
 31
0.0
 11
-2.956905364991143
 21
-12.40033721922984
 31
0.0
 11
-3.182678222657159
 21
-12.28083038329984
 31
0.0
 11
-3.408187866211136
 21
-12.16119384764985
 31
0.0
 11
-3.633434295655149
 21
-12.04143524169984
 31
0.0
  0
SPLINE
  5
C106
330
1F
100
AcDbEntity
  8
AM_0
100
AcDbSpline
210
0.0
220
0.0
230
1.0
 70
     8
 71
     3
 72
    11
 73
     7
 74
     5
 42
0.0000000001
 43
0.0000000001
 44
0.0000000001
 40
0.0
 40
0.0
 40
0.0
 40
0.0
 40
0.2119313405556717
 40
0.4248655365354529
 40
0.639676484220436
 40
0.8570273341496202
 40
0.8570273341496202
 40
0.8570273341496202
 40
0.8570273341496202
 10
-2.399999618531154
 20
-16.09873962401985
 30
0.0
 10
-2.404097234400466
 20
-16.02794612055044
 30
0.0
 10
-2.412311855986243
 20
-15.88602411998226
 30
0.0
 10
-2.479004364088651
 20
-15.68153990389907
 30
0.0
 10
-2.581321396251074
 20
-15.49011463408588
 30
0.0
 10
-2.680825059844066
 20
-15.3851246717658
 30
0.0
 10
-2.730869293213146
 20
-15.33232116698985
 30
0.0
 11
-2.399999618531154
 21
-16.09873962401985
 31
0.0
 11
-2.421270370484137
 21
-15.88787841795985
 31
0.0
 11
-2.484569549561143
 21
-15.68457031249985
 31
0.0
 11
-2.58856773376516
 21
-15.49661254881985
 31
0.0
 11
-2.730869293213146
 21
-15.33232116698985
 31
0.0
  0
SPLINE
  5
C107
330
1F
100
AcDbEntity
  8
AM_0
100
AcDbSpline
210
0.0
220
0.0
230
1.0
 70
     8
 71
     3
 72
    11
 73
     7
 74
     5
 42
0.0000000001
 43
0.0000000001
 44
0.0000000001
 40
0.0
 40
0.0
 40
0.0
 40
0.0
 40
1.005900097985153
 40
2.011479484636184
 40
3.016663628816204
 40
4.021384757472307
 40
4.021384757472307
 40
4.021384757472307
 40
4.021384757472307
 10
-2.730869293213146
 20
-15.33232116698985
 30
0.0
 10
-2.975741085164683
 20
-15.10326980961765
 30
0.0
 10
-3.46540659654421
 20
-14.64524012336437
 30
0.0
 10
-4.195148223868077
 20
-13.95341087703099
 30
0.0
 10
-4.921013414701721
 20
-13.25807366886714
 30
0.0
 10
-5.400295364479216
 20
-12.78993758321889
 30
0.0
 10
-5.639881134034141
 20
-12.55592346190985
 30
0.0
 11
-2.730869293213146
 21
-15.33232116698985
 31
0.0
 11
-3.464714050293139
 21
-14.64434814452985
 31
0.0
 11
-4.19464492797914
 21
-13.95269012450984
 31
0.0
 11
-4.919992446900153
 21
-13.25679779051984
 31
0.0
 11
-5.639881134034141
 21
-12.55592346190985
 31
0.0
  0
SPLINE
  5
C108
330
1F
100
AcDbEntity
  8
AM_0
100
AcDbSpline
210
0.0
220
0.0
230
1.0
 70
     8
 71
     3
 72
    11
 73
     7
 74
     5
 42
0.0000000001
 43
0.0000000001
 44
0.0000000001
 40
0.0
 40
0.0
 40
0.0
 40
0.0
 40
0.1017872502591451
 40
0.2035725943795887
 40
0.3053579384990383
 40
0.4071451887581834
 40
0.4071451887581834
 40
0.4071451887581834
 40
0.4071451887581834
 10
-15.03605651855517
 20
-4.525321960449872
 30
0.0
 10
-15.00214894592535
 20
-4.526529942260984
 30
0.0
 10
-14.93433443564246
 20
-4.528945883261703
 30
0.0
 10
-14.8326129913335
 20
-4.532569885249845
 30
0.0
 10
-14.73089154702455
 20
-4.536193887238063
 30
0.0
 10
-14.66307703674199
 20
-4.53860982823876
 30
0.0
 10
-14.62916946411218
 20
-4.539817810049868
 30
0.0
 11
-15.03605651855517
 21
-4.525321960449872
 31
0.0
 11
-14.93433380127018
 21
-4.528945922849885
 31
0.0
 11
-14.83261299133317
 21
-4.53256988524987
 31
0.0
 11
-14.73089218139716
 21
-4.536193847649855
 31
0.0
 11
-14.62916946411218
 21
-4.539817810049868
 31
0.0
  0
SPLINE
  5
C109
330
1F
100
AcDbEntity
  8
AM_0
100
AcDbSpline
210
0.0
220
0.0
230
1.0
 70
     8
 71
     3
 72
    11
 73
     7
 74
     5
 42
0.0000000001
 43
0.0000000001
 44
0.0000000001
 40
0.0
 40
0.0
 40
0.0
 40
0.0
 40
0.8397185882835257
 40
1.759814832534245
 40
2.760530091875858
 40
3.836980020902677
 40
3.836980020902677
 40
3.836980020902677
 40
3.836980020902677
 10
-29.48729515075695
 20
-20.10591125487988
 30
0.0
 10
-29.212140627846
 20
-20.15813482093799
 30
0.0
 10
-28.63549385901913
 20
-20.26758077990474
 30
0.0
 10
-27.71752972736527
 20
-20.34679680639871
 30
0.0
 10
-26.71938510482213
 20
-20.39118871485442
 30
0.0
 10
-26.0269178254388
 20
-20.39457625907038
 30
0.0
 10
-25.66806030273446
 20
-20.39633178710988
 30
0.0
 11
-29.48729515075695
 21
-20.10591125487988
 31
0.0
 11
-28.65988540649425
 21
-20.24916076659988
 31
0.0
 11
-27.74412345886236
 21
-20.33836364745988
 31
0.0
 11
-26.74443626403814
 21
-20.38371276854988
 31
0.0
 11
-25.66806030273446
 21
-20.39633178710988
 31
0.0
  0
SPLINE
  5
C10A
330
1F
100
AcDbEntity
  8
AM_0
100
AcDbSpline
210
0.0
220
0.0
230
1.0
 70
     8
 71
     3
 72
    11
 73
     7
 74
     5
 42
0.0000000001
 43
0.0000000001
 44
0.0000000001
 40
0.0
 40
0.0
 40
0.0
 40
0.0
 40
1.444194134505868
 40
2.971675018672465
 40
4.557135039282931
 40
11.03941531113159
 40
11.03941531113159
 40
11.03941531113159
 40
11.03941531113159
 10
-25.66806030273446
 20
-20.39633178710988
 30
0.0
 10
-25.18666778080487
 20
-20.39295723453165
 30
0.0
 10
-24.19612080556503
 20
-20.38601351875525
 30
0.0
 10
-22.67739004248749
 20
-20.35401103392401
 30
0.0
 10
-19.47935254202779
 20
-20.30339851751766
 30
0.0
 10
-16.79000806512086
 20
-20.30814054894665
 30
0.0
 10
-14.62916946411215
 20
-20.31195068358985
 30
0.0
 11
-25.66806030273446
 21
-20.39633178710988
 31
0.0
 11
-24.22392845153814
 21
-20.38291931151988
 31
0.0
 11
-22.69668960571294
 21
-20.35572814940988
 31
0.0
 11
-21.11142158508314
 21
-20.33105468749988
 31
0.0
 11
-14.62916946411215
 21
-20.31195068358985
 31
0.0
  0
SPLINE
  5
C10B
330
1F
100
AcDbEntity
  8
AM_0
100
AcDbSpline
210
0.0
220
0.0
230
1.0
 70
     8
 71
     3
 72
    11
 73
     7
 74
     5
 42
0.0000000001
 43
0.0000000001
 44
0.0000000001
 40
0.0
 40
0.0
 40
0.0
 40
0.0
 40
0.1626679004975575
 40
0.3398923638739029
 40
0.5277382893243243
 40
0.7210788717770904
 40
0.7210788717770904
 40
0.7210788717770904
 40
0.7210788717770904
 10
-13.93451309204118
 20
-4.711196899409856
 30
0.0
 10
-13.98339506172566
 20
-4.687543935031774
 30
0.0
 10
-14.08553327200595
 20
-4.638121387925059
 30
0.0
 10
-14.25489388164837
 20
-4.58831592265098
 30
0.0
 10
-14.43785260658261
 20
-4.552099073461663
 30
0.0
 10
-14.5647872734571
 20
-4.543950716332531
 30
0.0
 10
-14.62916946411218
 20
-4.539817810049868
 30
0.0
 11
-13.93451309204118
 21
-4.711196899409856
 31
0.0
 11
-14.08274841308616
 21
-4.644210815429858
 31
0.0
 11
-14.25206375122118
 21
-4.591857910149855
 31
0.0
 11
-14.43654823303316
 21
-4.556480407709869
 31
0.0
 11
-14.62916946411218
 21
-4.539817810049868
 31
0.0
  0
SPLINE
  5
C10C
330
1F
100
AcDbEntity
  8
AM_0
100
AcDbSpline
210
0.0
220
0.0
230
1.0
 70
     8
 71
     3
 72
    11
 73
     7
 74
     5
 42
0.0000000001
 43
0.0000000001
 44
0.0000000001
 40
0.0
 40
0.0
 40
0.0
 40
0.0
 40
0.157572329425276
 40
0.2947485198143871
 40
0.4139158540422456
 40
0.5213520065360111
 40
0.5213520065360111
 40
0.5213520065360111
 40
0.5213520065360111
 10
-2.70534133911218
 20
-4.376304626459841
 30
0.0
 10
-2.660450887930656
 20
-4.348645010067062
 30
0.0
 10
-2.576480598935034
 20
-4.296906033940093
 30
0.0
 10
-2.478903676975167
 20
-4.198277258856967
 30
0.0
 10
-2.413055800521213
 20
-4.092760866736083
 30
0.0
 10
-2.404198838607464
 20
-4.016926509728295
 30
0.0
 10
-2.399999618531182
 20
-3.980972290039858
 30
0.0
 11
-2.70534133911218
 21
-4.376304626459841
 31
0.0
 11
-2.574810028077166
 21
-4.288040161129856
 31
0.0
 11
-2.478675842286179
 21
-4.190185546869855
 31
0.0
 11
-2.419826507569183
 21
-4.086563110349857
 31
0.0
 11
-2.399999618531182
 21
-3.980972290039858
 31
0.0
  0
SPLINE
  5
C10D
330
1F
100
AcDbEntity
  8
AM_0
100
AcDbSpline
210
0.0
220
0.0
230
1.0
 70
     8
 71
     3
 72
    11
 73
     7
 74
     5
 42
0.0000000001
 43
0.0000000001
 44
0.0000000001
 40
0.0
 40
0.0
 40
0.0
 40
0.0
 40
0.1382227301884693
 40
0.2401149777613524
 40
0.3086081891756689
 40
0.3529417053703213
 40
0.3529417053703213
 40
0.3529417053703213
 40
0.3529417053703213
 10
-2.705341339112209
 20
8.275886535650158
 30
0.0
 10
-2.659869031160714
 20
8.285023806819868
 30
0.0
 10
-2.58087636332929
 20
8.300896707468861
 30
0.0
 10
-2.486214180511039
 20
8.33612474094447
 30
0.0
 10
-2.417830740760343
 20
8.370736986880341
 30
0.0
 10
-2.405029620565961
 20
8.407252238778179
 30
0.0
 10
-2.399999618531211
 20
8.421600341800143
 30
0.0
 11
-2.705341339112209
 21
8.275886535650158
 31
0.0
 11
-2.570693969727216
 21
8.307121276860158
 31
0.0
 11
-2.475254058838203
 21
8.342803955080142
 31
0.0
 11
-2.418661117554194
 21
8.381385803230159
 31
0.0
 11
-2.399999618531211
 21
8.421600341800143
 31
0.0
  0
SPLINE
  5
C10E
330
1F
100
AcDbEntity
  8
AM_0
100
AcDbSpline
210
0.0
220
0.0
230
1.0
 70
     8
 71
     3
 72
    11
 73
     7
 74
     5
 42
0.0000000001
 43
0.0000000001
 44
0.0000000001
 40
0.0
 40
0.0
 40
0.0
 40
0.0
 40
0.1451686522809561
 40
0.3136582766900999
 40
0.5009546380636789
 40
0.6992007246470353
 40
0.6992007246470353
 40
0.6992007246470353
 40
0.6992007246470353
 10
-13.93451309204121
 20
8.480522155770131
 30
0.0
 10
-13.98200724745364
 20
8.489860565751138
 30
0.0
 10
-14.08462537268556
 20
8.510037577355541
 30
0.0
 10
-14.25051353606062
 20
8.530145740835529
 30
0.0
 10
-14.43461219409373
 20
8.545480942028483
 30
0.0
 10
-14.56310064789628
 20
8.549087152414514
 30
0.0
 10
-14.62916946411221
 20
8.55094146729013
 30
0.0
 11
-13.93451309204121
 21
8.480522155770131
 31
0.0
 11
-14.07726287841819
 21
8.506912231450115
 31
0.0
 11
-14.2443771362312
 21
8.528396606450115
 31
0.0
 11
-14.43106269836519
 21
8.543510437020131
 31
0.0
 11
-14.62916946411221
 21
8.55094146729013
 31
0.0
  0
SPLINE
  5
C10F
330
1F
100
AcDbEntity
  8
AM_0
100
AcDbSpline
210
0.0
220
0.0
230
1.0
 70
     8
 71
     3
 72
    11
 73
     7
 74
     5
 42
0.0000000001
 43
0.0000000001
 44
0.0000000001
 40
0.0
 40
0.0
 40
0.0
 40
0.0
 40
0.0354716410699934
 40
0.0709453114904475
 40
0.106416952559605
 40
0.1418887158812403
 40
0.1418887158812403
 40
0.1418887158812403
 40
0.1418887158812403
 10
-6.32142829895119
 20
7.733444213870143
 30
0.0
 10
-6.309605901846377
 20
7.733256926671557
 30
0.0
 10
-6.285960431271456
 20
7.732882341559588
 30
0.0
 10
-6.250492824523058
 20
7.732304186907375
 30
0.0
 10
-6.215024863764534
 20
7.731745579557045
 30
0.0
 10
-6.191380168365465
 20
7.731362296272607
 30
0.0
 10
-6.179557800293196
 20
7.731170654300143
 30
0.0
 11
-6.32142829895119
 21
7.733444213870143
 31
0.0
 11
-6.285961151123188
 21
7.732879638680145
 31
0.0
 11
-6.250492095948203
 21
7.732307434090131
 31
0.0
 11
-6.215024948121197
 21
7.731742858890157
 31
0.0
 11
-6.179557800293196
 21
7.731170654300143
 31
0.0
  0
SPLINE
  5
C110
330
1F
100
AcDbEntity
  8
AM_0
100
AcDbSpline
210
0.0
220
0.0
230
1.0
 70
     8
 71
     3
 72
    11
 73
     7
 74
     5
 42
0.0000000001
 43
0.0000000001
 44
0.0000000001
 40
0.0
 40
0.0
 40
0.0
 40
0.0
 40
0.0919178889053462
 40
0.1838046256086389
 40
0.2756678891773952
 40
0.3675061135084143
 40
0.3675061135084143
 40
0.3675061135084143
 40
0.3675061135084143
 10
-6.179557800293196
 20
7.394546508790142
 30
0.0
 10
-6.190323829680997
 20
7.423233470457223
 30
0.0
 10
-6.21185223970523
 20
7.480597671396355
 30
0.0
 10
-6.246513788600351
 20
7.56570881398419
 30
0.0
 10
-6.282758078127679
 20
7.650130233507674
 30
0.0
 10
-6.308539396708507
 20
7.705675410758271
 30
0.0
 10
-6.32142829895119
 20
7.733444213870143
 30
0.0
 11
-6.179557800293196
 21
7.394546508790142
 31
0.0
 11
-6.212251663208206
 21
7.480453491210141
 31
0.0
 11
-6.246782302857212
 21
7.565605163580158
 31
0.0
 11
-6.283166885376203
 21
7.649955749520159
 31
0.0
 11
-6.32142829895119
 21
7.733444213870143
 31
0.0
  0
SPLINE
  5
C111
330
1F
100
AcDbEntity
  8
AM_0
100
AcDbSpline
210
0.0
220
0.0
230
1.0
 70
     8
 71
     3
 72
    11
 73
     7
 74
     5
 42
0.0000000001
 43
0.0000000001
 44
0.0000000001
 40
0.0
 40
0.0
 40
0.0
 40
0.0
 40
0.8697151683338915
 40
1.737493018836418
 40
2.599972676750775
 40
3.452178697574095
 40
3.452178697574095
 40
3.452178697574095
 40
3.452178697574095
 10
-11.21489334106522
 20
7.89975738526013
 30
0.0
 10
-11.31006332223431
 20
7.625688224412174
 30
0.0
 10
-11.50019129045277
 20
7.078160400373047
 30
0.0
 10
-11.69177483218581
 20
6.231658699600771
 30
0.0
 10
-11.81550963736165
 20
5.377418062091306
 30
0.0
 10
-11.81378969440123
 20
4.805144040244478
 30
0.0
 10
-11.81293487548922
 20
4.520721435550143
 30
0.0
 11
-11.21489334106522
 21
7.89975738526013
 31
0.0
 11
-11.48484420776421
 21
7.072998046880144
 31
0.0
 11
-11.68094825744719
 21
6.227668762210129
 31
0.0
 11
-11.79478073120219
 21
5.37273406983013
 31
0.0
 11
-11.81293487548922
 21
4.520721435550143
 31
0.0
  0
SPLINE
  5
C112
330
1F
100
AcDbEntity
  8
AM_0
100
AcDbSpline
210
0.0
220
0.0
230
1.0
 70
     8
 71
     3
 72
    11
 73
     7
 74
     5
 42
0.0000000001
 43
0.0000000001
 44
0.0000000001
 40
0.0
 40
0.0
 40
0.0
 40
0.0
 40
0.7017061764204264
 40
1.39941313963009
 40
2.092670999491174
 40
2.780947942091127
 40
2.780947942091127
 40
2.780947942091127
 40
2.780947942091127
 10
-11.21489334106522
 20
7.89975738526013
 30
0.0
 10
-11.44382040638293
 20
7.947742967603801
 30
0.0
 10
-11.90036981978102
 20
8.043440649484118
 30
0.0
 10
-12.58271415380073
 20
8.188329517055526
 30
0.0
 10
-13.2604007241898
 20
8.333598485738125
 30
0.0
 10
-13.71034971069954
 20
8.431665454359244
 30
0.0
 10
-13.93451309204121
 20
8.480522155770131
 30
0.0
 11
-11.21489334106522
 21
7.89975738526013
 31
0.0
 11
-11.90161132812519
 21
8.044013977050127
 31
0.0
 11
-12.5841178894052
 21
8.188858032230143
 31
0.0
 11
-13.2619400024422
 21
8.334335327150114
 31
0.0
 11
-13.93451309204121
 21
8.480522155770131
 31
0.0
  0
SPLINE
  5
C113
330
1F
100
AcDbEntity
  8
AM_0
100
AcDbSpline
210
0.0
220
0.0
230
1.0
 70
     8
 71
     3
 72
    11
 73
     7
 74
     5
 42
0.0000000001
 43
0.0000000001
 44
0.0000000001
 40
0.0
 40
0.0
 40
0.0
 40
0.0
 40
0.68152988825301
 40
1.362511550131895
 40
2.042951034762894
 40
2.722852732649901
 40
2.722852732649901
 40
2.722852732649901
 40
2.722852732649901
 10
-11.53551673889217
 20
-5.999114990229855
 30
0.0
 10
-11.73586782962327
 20
-5.892023103553652
 30
0.0
 10
-12.136408847571
 20
-5.677925475501318
 30
0.0
 10
-12.73654584988502
 20
-5.356095442266449
 30
0.0
 10
-13.33591132014131
 20
-5.033975666199436
 30
0.0
 10
-13.73503176313582
 20
-4.818761461300911
 30
0.0
 10
-13.93451309204118
 20
-4.711196899409856
 30
0.0
 11
-11.53551673889217
 21
-5.999114990229855
 31
0.0
 11
-12.13649749755916
 21
-5.677703857419857
 31
0.0
 11
-12.73665618896518
 21
-5.355918884269868
 31
0.0
 11
-13.33599472045918
 21
-5.033752441399855
 31
0.0
 11
-13.93451309204118
 21
-4.711196899409856
 31
0.0
  0
SPLINE
  5
C114
330
1F
100
AcDbEntity
  8
AM_0
100
AcDbSpline
210
0.0
220
0.0
230
1.0
 70
     8
 71
     3
 72
    11
 73
     7
 74
     5
 42
0.0000000001
 43
0.0000000001
 44
0.0000000001
 40
0.0
 40
0.0
 40
0.0
 40
0.0
 40
0.7967980591285757
 40
1.592756348522084
 40
2.387865539475145
 40
3.182011047572613
 40
3.182011047572613
 40
3.182011047572613
 40
3.182011047572613
 10
-5.484899520874165
 20
-5.925247192379856
 30
0.0
 10
-5.252574276507241
 20
-5.796530352855375
 30
0.0
 10
-4.788168642422166
 20
-5.5392323324027
 30
0.0
 10
-4.092627327249707
 20
-5.152234390097564
 30
0.0
 10
-3.398307369642881
 20
-4.764860686500748
 30
0.0
 10
-2.936236620047228
 20
-4.50577094470556
 30
0.0
 10
-2.70534133911218
 20
-4.376304626459841
 30
0.0
 11
-5.484899520874165
 21
-5.925247192379856
 31
0.0
 11
-4.788040161133181
 21
-5.538887023919841
 31
0.0
 11
-4.092454910279172
 21
-5.151962280269856
 31
0.0
 11
-3.398164749146189
 21
-4.76445770262984
 31
0.0
 11
-2.70534133911218
 21
-4.376304626459841
 31
0.0
  0
SPLINE
  5
C115
330
1F
100
AcDbEntity
  8
AM_0
100
AcDbSpline
210
0.0
220
0.0
230
1.0
 70
     8
 71
     3
 72
    11
 73
     7
 74
     5
 42
0.0000000001
 43
0.0000000001
 44
0.0000000001
 40
0.0
 40
0.0
 40
0.0
 40
0.0
 40
0.7117585119093594
 40
1.419986702701828
 40
2.12429366040289
 40
2.824197437103121
 40
2.824197437103121
 40
2.824197437103121
 40
2.824197437103121
 10
-5.484899520874193
 20
7.77577972413016
 30
0.0
 10
-5.251259736029826
 20
7.817027674159337
 30
0.0
 10
-4.785139019312122
 20
7.899318984449418
 30
0.0
 10
-4.088103999875658
 20
8.024000313023535
 30
0.0
 10
-3.395171103946717
 20
8.149168844163602
 30
0.0
 10
-2.934803402674113
 20
8.233735697196149
 30
0.0
 10
-2.705341339112209
 20
8.275886535650158
 30
0.0
 11
-5.484899520874193
 21
7.77577972413016
 31
0.0
 11
-4.784027099610199
 21
7.899787902840159
 31
0.0
 11
-4.086853027344204
 21
8.024429321290142
 31
0.0
 11
-3.393789291382205
 21
8.149772644050159
 31
0.0
 11
-2.705341339112209
 21
8.275886535650158
 31
0.0
  0
SPLINE
  5
C116
330
1F
100
AcDbEntity
  8
AM_0
100
AcDbSpline
210
0.0
220
0.0
230
1.0
 70
     8
 71
     3
 72
    11
 73
     7
 74
     5
 42
0.0000000001
 43
0.0000000001
 44
0.0000000001
 40
0.0
 40
0.0
 40
0.0
 40
0.0
 40
0.1262421325190971
 40
0.2524842650375201
 40
0.3787230820631731
 40
0.5049647237618222
 40
0.5049647237618222
 40
0.5049647237618222
 40
0.5049647237618222
 10
-9.850143432618182
 20
2.539627075200144
 30
0.0
 10
-9.892136873705876
 20
2.536918361489028
 30
0.0
 10
-9.976123755881044
 20
2.531500934066813
 30
0.0
 10
-10.10210329987209
 20
2.523379879748415
 30
0.0
 10
-10.22808138621493
 20
2.515238773599941
 30
0.0
 10
-10.31206756667399
 20
2.509830181036629
 30
0.0
 10
-10.35406112670918
 20
2.507125854500145
 30
0.0
 11
-9.850143432618182
 21
2.539627075200144
 31
0.0
 11
-9.976123809815192
 21
2.531501770020128
 31
0.0
 11
-10.10210418701217
 21
2.523376464850144
 31
0.0
 11
-10.22808074951217
 21
2.515243530280145
 31
0.0
 11
-10.35406112670918
 21
2.507125854500145
 31
0.0
  0
SPLINE
  5
C117
330
1F
100
AcDbEntity
  8
AM_0
100
AcDbSpline
210
0.0
220
0.0
230
1.0
 70
     8
 71
     3
 72
    11
 73
     7
 74
     5
 42
0.0000000001
 43
0.0000000001
 44
0.0000000001
 40
0.0
 40
0.0
 40
0.0
 40
0.0
 40
0.3757981834725744
 40
0.7544251084098012
 40
1.134365536863479
 40
1.514706944509761
 40
1.514706944509761
 40
1.514706944509761
 40
1.514706944509761
 10
-6.179557800293196
 20
7.394546508790142
 30
0.0
 10
-6.139632446657875
 20
7.275726326877578
 30
0.0
 10
-6.059481209719224
 20
7.037191569225666
 30
0.0
 10
-5.977674674529247
 20
6.667477145267402
 30
0.0
 10
-5.916900005913944
 20
6.292434719273352
 30
0.0
 10
-5.897058586585965
 20
6.039681691392937
 30
0.0
 10
-5.887132644654201
 20
5.913238525390141
 30
0.0
 11
-6.179557800293196
 21
7.394546508790142
 31
0.0
 11
-6.066169738770213
 21
7.036262512210129
 31
0.0
 11
-5.981313705445217
 21
6.667266845710145
 31
0.0
 11
-5.922098159790209
 21
6.291969299320157
 31
0.0
 11
-5.887132644654201
 21
5.913238525390141
 31
0.0
  0
SPLINE
  5
C118
330
1F
100
AcDbEntity
  8
AM_0
100
AcDbSpline
210
0.0
220
0.0
230
1.0
 70
     8
 71
     3
 72
    11
 73
     7
 74
     5
 42
0.0000000001
 43
0.0000000001
 44
0.0000000001
 40
0.0
 40
0.0
 40
0.0
 40
0.0
 40
0.730017586030442
 40
1.46503808823304
 40
2.20425263074773
 40
2.946836751333181
 40
2.946836751333181
 40
2.946836751333181
 40
2.946836751333181
 10
-5.881759643555199
 20
5.809669494630156
 30
0.0
 10
-5.871195596059239
 20
5.566559702740244
 30
0.0
 10
-5.849995104120902
 20
5.078674052371438
 30
0.0
 10
-5.817401814348877
 20
4.34464635719037
 30
0.0
 10
-5.784155695170045
 20
3.606454828746873
 30
0.0
 10
-5.761473632246097
 20
3.113042986876837
 30
0.0
 10
-5.750106811524176
 20
2.865776062020159
 30
0.0
 11
-5.881759643555199
 21
5.809669494630156
 31
0.0
 11
-5.849952697754218
 21
5.080345153810156
 31
0.0
 11
-5.817386627198203
 21
4.346046447760159
 31
0.0
 11
-5.784091949463174
 21
3.607582092290158
 31
0.0
 11
-5.750106811524176
 21
2.865776062020159
 31
0.0
  0
SPLINE
  5
C119
330
1F
100
AcDbEntity
  8
AM_0
100
AcDbSpline
210
0.0
220
0.0
230
1.0
 70
     8
 71
     3
 72
    11
 73
     7
 74
     5
 42
0.0000000001
 43
0.0000000001
 44
0.0000000001
 40
0.0
 40
0.0
 40
0.0
 40
0.0
 40
0.1048236228514124
 40
0.2138372736223381
 40
0.3259694062013351
 40
0.4398363148369885
 40
0.4398363148369885
 40
0.4398363148369885
 40
0.4398363148369885
 10
-5.750106811524176
 20
2.865776062020159
 30
0.0
 10
-5.783214967826133
 20
2.854555867419468
 30
0.0
 10
-5.850754685360113
 20
2.831666982665646
 30
0.0
 10
-5.956546749297142
 20
2.806356580186563
 30
0.0
 10
-6.066625095922441
 20
2.786883544406398
 30
0.0
 10
-6.141721418224817
 20
2.780484106673564
 30
0.0
 10
-6.179557800293167
 20
2.777259826660127
 30
0.0
 11
-5.750106811524176
 21
2.865776062020159
 31
0.0
 11
-5.849878311158164
 21
2.833625793460157
 31
0.0
 11
-5.955751419068178
 21
2.807647705080142
 31
0.0
 11
-6.06626129150419
 21
2.788642883300127
 31
0.0
 11
-6.179557800293167
 21
2.777259826660127
 31
0.0
  0
SPLINE
  5
C11A
330
1F
100
AcDbEntity
  8
AM_0
100
AcDbSpline
210
0.0
220
0.0
230
1.0
 70
     8
 71
     3
 72
    11
 73
     7
 74
     5
 42
0.0000000001
 43
0.0000000001
 44
0.0000000001
 40
0.0
 40
0.0
 40
0.0
 40
0.0
 40
0.1935051089773816
 40
0.3818149710536184
 40
0.5598546043152661
 40
0.7235768425967036
 40
0.7235768425967036
 40
0.7235768425967036
 40
0.7235768425967036
 10
-6.179557800293167
 20
-6.107269287109858
 30
0.0
 10
-6.115199567410948
 20
-6.102070400039282
 30
0.0
 10
-5.988210998711925
 20
-6.09181220620216
 30
0.0
 10
-5.805347951697286
 20
-6.052784522951937
 30
0.0
 10
-5.635946581038458
 20
-6.000468923402884
 30
0.0
 10
-5.533822449004416
 20
-5.949610906156673
 30
0.0
 10
-5.484899520874165
 20
-5.925247192379856
 30
0.0
 11
-6.179557800293167
 21
-6.107269287109858
 31
0.0
 11
-5.987068176270184
 21
-6.087471008299843
 31
0.0
 11
-5.802675247193178
 21
-6.04926300047984
 31
0.0
 11
-5.633296966553189
 21
-5.994407653799839
 31
0.0
 11
-5.484899520874165
 21
-5.925247192379856
 31
0.0
  0
SPLINE
  5
C11B
330
1F
100
AcDbEntity
  8
AM_0
100
AcDbSpline
210
0.0
220
0.0
230
1.0
 70
     8
 71
     3
 72
    11
 73
     7
 74
     5
 42
0.0000000001
 43
0.0000000001
 44
0.0000000001
 40
0.0
 40
0.0
 40
0.0
 40
0.0
 40
0.1950582336704061
 40
0.3811323097257928
 40
0.5502025991541075
 40
0.6969788306061185
 40
0.6969788306061185
 40
0.6969788306061185
 40
0.6969788306061185
 10
-6.179557800293196
 20
7.731170654300143
 30
0.0
 10
-6.114528608870001
 20
7.730848356933746
 30
0.0
 10
-5.987465395693353
 20
7.730218606846495
 30
0.0
 10
-5.804205919218718
 20
7.738591170192316
 30
0.0
 10
-5.63735035002066
 20
7.752296143980403
 30
0.0
 10
-5.533267566049323
 20
7.768329093183012
 30
0.0
 10
-5.484899520874193
 20
7.77577972413016
 30
0.0
 11
-6.179557800293196
 21
7.731170654300143
 31
0.0
 11
-5.984500885010191
 21
7.731887817390145
 31
0.0
 11
-5.798604965210216
 21
7.740028381350157
 31
0.0
 11
-5.630201339722219
 21
7.755027771000158
 31
0.0
 11
-5.484899520874193
 21
7.77577972413016
 31
0.0
  0
SPLINE
  5
C11C
330
1F
100
AcDbEntity
  8
AM_0
100
AcDbSpline
210
0.0
220
0.0
230
1.0
 70
     8
 71
     3
 72
    11
 73
     7
 74
     5
 42
0.0000000001
 43
0.0000000001
 44
0.0000000001
 40
0.0
 40
0.0
 40
0.0
 40
0.0
 40
0.1968106454435615
 40
0.3853771262833845
 40
0.5590853973566839
 40
0.7147927271933197
 40
0.7147927271933197
 40
0.7147927271933197
 40
0.7147927271933197
 10
-10.35406112670918
 20
2.507125854500145
 30
0.0
 10
-10.41973729849829
 20
2.505137075840845
 30
0.0
 10
-10.54833854510434
 20
2.501242826102437
 30
0.0
 10
-10.73368987749982
 20
2.52551301244938
 30
0.0
 10
-10.90213914504357
 20
2.567301980074063
 30
0.0
 10
-11.00167361360174
 20
2.614215651124156
 30
0.0
 10
-11.04872131347718
 20
2.63639068604013
 30
0.0
 11
-10.35406112670918
 21
2.507125854500145
 31
0.0
 11
-10.55087089538616
 21
2.50653839112013
 31
0.0
 11
-10.73799514770519
 21
2.529815673830142
 31
0.0
 11
-10.90588188171418
 21
2.57440948487013
 31
0.0
 11
-11.04872131347718
 21
2.63639068604013
 31
0.0
  0
SPLINE
  5
C11D
330
1F
100
AcDbEntity
  8
AM_0
100
AcDbSpline
210
0.0
220
0.0
230
1.0
 70
     8
 71
     3
 72
    11
 73
     7
 74
     5
 42
0.0000000001
 43
0.0000000001
 44
0.0000000001
 40
0.0
 40
0.0
 40
0.0
 40
0.0
 40
0.1586454180424927
 40
0.3325770516847891
 40
0.5177175655353837
 40
0.7089240559695956
 40
0.7089240559695956
 40
0.7089240559695956
 40
0.7089240559695956
 10
-11.04872131347718
 20
-6.216865539549871
 30
0.0
 10
-10.99938668395992
 20
-6.236150252489858
 30
0.0
 10
-10.89596380649354
 20
-6.276577849147269
 30
0.0
 10
-10.72612878124941
 20
-6.310801180571503
 30
0.0
 10
-10.5433894541971
 20
-6.330323488152049
 30
0.0
 10
-10.41784507901603
 20
-6.327251814597733
 30
0.0
 10
-10.35406112670918
 20
-6.32569122313987
 30
0.0
 11
-11.04872131347718
 21
-6.216865539549871
 31
0.0
 11
-10.89942550659216
 21
-6.270523071289858
 31
0.0
 11
-10.72946548462016
 21
-6.307479858389854
 31
0.0
 11
-10.54526710510316
 21
-6.326133728019868
 31
0.0
 11
-10.35406112670918
 21
-6.32569122313987
 31
0.0
  0
SPLINE
  5
C11E
330
1F
100
AcDbEntity
  8
AM_0
100
AcDbSpline
210
0.0
220
0.0
230
1.0
 70
     8
 71
     3
 72
    11
 73
     7
 74
     5
 42
0.0000000001
 43
0.0000000001
 44
0.0000000001
 40
0.0
 40
0.0
 40
0.0
 40
0.0
 40
0.5576569540719251
 40
1.114640182634286
 40
1.671523940713681
 40
2.228824572406907
 40
2.228824572406907
 40
2.228824572406907
 40
2.228824572406907
 10
-9.850143432618182
 20
2.539627075200144
 30
0.0
 10
-9.687482906955015
 20
2.446633973670032
 30
0.0
 10
-9.362358371685262
 20
2.260760118934808
 30
0.0
 10
-8.793423816598496
 20
2.193078394091509
 30
0.0
 10
-8.238769350822838
 20
2.334862914928809
 30
0.0
 10
-7.939887069111938
 20
2.560119896473754
 30
0.0
 10
-7.790390014649176
 20
2.672790527350144
 30
0.0
 11
-9.850143432618182
 21
2.539627075200144
 31
0.0
 11
-9.34857940673919
 21
2.295875549320129
 31
0.0
 11
-8.79574966430718
 21
2.227981567390145
 31
0.0
 11
-8.256622314454176
 21
2.367485046390157
 31
0.0
 11
-7.790390014649176
 21
2.672790527350144
 31
0.0
  0
ELLIPSE
  5
C11F
330
1F
100
AcDbEntity
  8
AM_0
100
AcDbEllipse
 10
-10.5546035766612
 20
9.661598205570129
 30
0.0
 11
-2.999408604180998
 21
0.0595172505799949
 31
0.0
210
0.0
220
0.0
230
1.0
 40
0.2584636436983
 41
5.755982172722902
 42
6.07763038288576
  0
ELLIPSE
  5
C120
330
1F
100
AcDbEntity
  8
AM_0
100
AcDbEllipse
 10
-15.49983024597222
 20
14.67156982421812
 30
0.0
 11
0.0174523749779934
 21
2.999950427452006
 31
0.0
210
0.0
220
0.0
230
1.0
 40
0.2079114286457
 41
3.141592233108787
 42
3.733020970642559
  0
ELLIPSE
  5
C121
330
1F
100
AcDbEntity
  8
AM_0
100
AcDbEllipse
 10
-15.21159934997621
 20
14.6698913574211
 30
0.0
 11
0.0174523527859923
 21
2.999946612819002
 31
0.0
210
0.0
220
0.0
230
1.0
 40
0.0354378955417
 41
3.141590186659821
 42
3.725602591083514
  0
ELLIPSE
  5
C122
330
1F
100
AcDbEntity
  8
AM_0
100
AcDbEllipse
 10
-15.16296195983921
 20
12.66957092286011
 30
0.0
 11
0.0145436414229949
 21
2.499957934554998
 31
0.0
210
0.0
220
0.0
230
1.0
 40
0.034899726162
 41
3.141590148618658
 42
4.712389066226977
  0
ELLIPSE
  5
C123
330
1F
100
AcDbEntity
  8
AM_0
100
AcDbEllipse
 10
-8.988956451416157
 20
-24.51586914061985
 30
0.0
 11
2.999882619965997
 21
0.2574920671399982
 31
0.0
210
0.0
220
0.0
230
0.9999999999999998
 40
0.8113974653734999
 41
0.4101263835126544
 42
2.334880395698752
  0
ELLIPSE
  5
C124
330
1F
100
AcDbEntity
  8
AM_0
100
AcDbEllipse
 10
-19.57561588287413
 20
-25.37016296385988
 30
0.0
 11
14.97227773617999
 21
0.9138565120200336
 31
0.0
210
0.0
220
0.0
230
1.0
 40
0.5072755129003001
 41
1.545755730382189
 42
2.262923341049621
  0
ELLIPSE
  5
C125
330
1F
100
AcDbEntity
  8
AM_0
100
AcDbEllipse
 10
-19.57561492920024
 20
24.4452819824211
 30
0.0
 11
0.0886061700489692
 21
15.231139900637
 31
0.0
210
0.0
220
0.0
230
1.0
 40
0.9834583055908
 41
2.424434561553032
 42
3.141592742483044
  0
ELLIPSE
  5
C126
330
1F
100
AcDbEntity
  8
AM_0
100
AcDbEllipse
 10
-15.98092269897517
 20
0.0000000000001421
 30
0.0
 11
3.73940932391096
 21
20.392349552038
 31
0.0
210
0.0
220
0.0
230
1.0
 40
0.107739052352
 41
4.331883508784077
 42
4.380840244248933
  0
ELLIPSE
  5
C127
330
1F
100
AcDbEntity
  8
AM_0
100
AcDbEllipse
 10
-15.35982131958019
 20
0.0000000000001421
 30
0.0
 11
0.55780135437796
 21
20.396319934529
 31
0.0
210
0.0
220
0.0
230
1.0
 40
0.0224822968127
 41
4.361469432189583
 42
4.489427047733636
  0
ELLIPSE
  5
C128
330
1F
100
AcDbEntity
  8
AM_0
100
AcDbEllipse
 10
-15.98092269897517
 20
-0.000076293939884
 30
0.0
 11
0.1242836123549603
 21
20.396382288276
 31
0.0
210
0.0
220
0.0
230
1.0
 40
0.2125522862502
 41
6.149324308246405
 42
6.161002980956594
  0
ELLIPSE
  5
C129
330
1F
100
AcDbEntity
  8
AM_0
100
AcDbEllipse
 10
-8.988956451416214
 20
7.504898071290142
 30
0.0
 11
-3.007143918056002
 21
0.0315743369099917
 31
0.0
210
0.0
220
0.0
230
1.0
 40
0.1841026621248
 41
3.623852527639563
 42
5.548872717290173
  0
ELLIPSE
  5
C12A
330
1F
100
AcDbEntity
  8
AM_0
100
AcDbEllipse
 10
-11.06023025512718
 20
-1.093811035149855
 30
0.0
 11
-1.133422986134046
 21
23.44773886345798
 31
0.0
210
0.0
220
0.0
230
0.9999999999999998
 40
0.0210980375775
 41
1.328451089598891
 42
1.393751075150758
  0
ELLIPSE
  5
C12B
330
1F
100
AcDbEntity
  8
AM_0
100
AcDbEllipse
 10
-8.757017135621197
 20
3.67275238038016
 30
0.0
 11
2.994520103439998
 21
0.1812438967000022
 31
0.0
210
0.0
220
0.0
230
1.0
 40
0.4995799064636001
 41
0.1382086390853774
 42
3.117205770773901
  0
ELLIPSE
  5
C12C
330
1F
100
AcDbEntity
  8
AM_0
100
AcDbEllipse
 10
-124.3073272705071
 20
-0.0000152587900857
 30
0.0
 11
453.077339314943
 21
20.5738685745919
 31
0.0
210
0.0
220
0.0
230
1.0
 40
0.0261633448365
 41
4.965445585059232
 42
4.97497658443952
  0
ELLIPSE
  5
C12D
330
1F
100
AcDbEntity
  8
AM_0
100
AcDbEllipse
 10
-8.907682418824208
 20
3.740524292000145
 30
0.0
 11
2.495433735725
 21
0.1510353028199965
 31
0.0
210
0.0
220
0.0
230
0.9999999999999998
 40
0.4995773315833
 41
5.146173682014831
 42
6.283185307179586
  0
ELLIPSE
  5
C12E
330
1F
100
AcDbEntity
  8
AM_0
100
AcDbEllipse
 10
-8.907682418824208
 20
3.740524292000145
 30
0.0
 11
2.495433735725
 21
0.1510353028199965
 31
0.0
210
0.0
220
0.0
230
0.9999999999999998
 40
0.4995773315833
 41
0.0
 42
3.141592828583334
  0
ELLIPSE
  5
C12F
330
1F
100
AcDbEntity
  8
AM_0
100
AcDbEllipse
 10
-8.907682418824208
 20
3.740524292000145
 30
0.0
 11
2.495433735725
 21
0.1510353028199965
 31
0.0
210
0.0
220
0.0
230
0.9999999999999998
 40
0.4995773315833
 41
3.141592478596251
 42
4.295075538373632
  0
ARC
  5
C174
330
1F
100
AcDbEntity
  8
AM_0
100
AcDbCircle
 10
-7.998159408570217
 20
16.91020202636716
 30
0.0
 40
3.9000000953674
100
AcDbArc
 50
89.66666878241118
 51
269.6666601309899
  0
ARC
  5
C175
330
1F
100
AcDbEntity
  8
AM_0
100
AcDbCircle
 10
-7.998159408570217
 20
16.91020202636716
 30
0.0
 40
3.9000000953674
100
AcDbArc
 50
269.6666706036497
 51
359.6666674785541
  0
LINE
  5
C176
330
1F
100
AcDbEntity
  8
AM_0
100
AcDbLine
 10
-15.99631690979021
 20
15.36540985107413
 30
0.0
 11
-15.97780227661223
 21
18.54795074462813
 31
0.0
  0
LINE
  5
C177
330
1F
100
AcDbEntity
  8
AM_0
100
AcDbLine
 10
-0.0000000000002274
 20
18.45500183105414
 30
0.0
 11
-0.0185127258302202
 21
15.27245330810515
 31
0.0
  0
LINE
  5
C179
330
1F
100
AcDbEntity
  8
AM_0
100
AcDbLine
 10
-0.2647361755371662
 20
-6.800247192379828
 30
0.0
 11
-0.018516540528168
 21
-7.636222839349841
 31
0.0
  0
LINE
  5
C17A
330
1F
100
AcDbEntity
  8
AM_0
100
AcDbLine
 10
-0.2647361755371662
 20
-6.800247192379828
 30
0.0
 11
-0.2466697692871662
 21
-8.352859497069829
 31
0.0
  0
LINE
  5
C17B
330
1F
100
AcDbEntity
  8
AM_0
100
AcDbLine
 10
-0.2466697692871662
 20
-8.352859497069829
 30
0.0
 11
-2.001743316651186
 21
-4.05025482176984
 31
0.0
  0
LINE
  5
C17C
330
1F
100
AcDbEntity
  8
AM_0
100
AcDbLine
 10
-14.63287544250516
 20
-10.48287963866985
 30
0.0
 11
-14.42891693115316
 21
-4.911697387689883
 31
0.0
  0
LINE
  5
C17D
330
1F
100
AcDbEntity
  8
AM_0
100
AcDbLine
 10
-2.214723587037184
 20
-4.321800231929842
 30
0.0
 11
-1.416666030884186
 21
-9.844596862789842
 31
0.0
  0
LINE
  5
C17E
330
1F
100
AcDbEntity
  8
AM_0
100
AcDbLine
 10
-11.13789558410718
 20
-6.391906738279857
 30
0.0
 11
-12.42739105224615
 21
-11.47484588622987
 31
0.0
  0
LINE
  5
C17F
330
1F
100
AcDbEntity
  8
AM_0
100
AcDbLine
 10
-9.555562973023143
 20
-11.93063354491985
 30
0.0
 11
-10.61512374878017
 21
-6.474868774409856
 31
0.0
  0
LINE
  5
C180
330
1F
100
AcDbEntity
  8
AM_0
100
AcDbLine
 10
-3.596601486206139
 20
-11.04835510253985
 30
0.0
 11
-5.46762084961017
 21
-6.118049621579842
 31
0.0
  0
LINE
  5
C181
330
1F
100
AcDbEntity
  8
AM_0
100
AcDbLine
 10
-5.987873077393174
 20
-6.251396179199844
 30
0.0
 11
-6.454601287842137
 21
-11.78086853026985
 31
0.0
  0
LINE
  5
C182
330
1F
100
AcDbEntity
  8
AM_0
100
AcDbLine
 10
-14.74445915222216
 20
-11.41057586669987
 30
0.0
 11
-12.48405265808114
 21
-12.42723846434987
 31
0.0
  0
LINE
  5
C183
330
1F
100
AcDbEntity
  8
AM_0
100
AcDbLine
 10
-12.42738723754914
 20
-11.47484588622987
 30
0.0
 11
-14.63287544250516
 21
-10.48288726805987
 31
0.0
  0
LINE
  5
C184
330
1F
100
AcDbEntity
  8
AM_0
100
AcDbLine
 10
-2.399999618531154
 20
-16.92079162596985
 30
0.0
 11
-19.66422748565713
 21
-17.75459289549988
 31
0.0
  0
LINE
  5
C185
330
1F
100
AcDbEntity
  8
AM_0
100
AcDbLine
 10
-15.99631690979018
 20
-8.407897949209882
 30
0.0
 11
-15.97780227661218
 21
-9.999168395989869
 31
0.0
  0
LINE
  5
C186
330
1F
100
AcDbEntity
  8
AM_0
100
AcDbLine
 10
-15.92410278320417
 20
-7.973236083979884
 30
0.0
 11
-15.99631500244217
 21
-8.40789031981987
 31
0.0
  0
LINE
  5
C187
330
1F
100
AcDbEntity
  8
AM_0
100
AcDbLine
 10
-15.83625221252518
 20
-9.105773925779857
 30
0.0
 11
-15.84947013855017
 21
-7.969619750969883
 31
0.0
  0
LINE
  5
C188
330
1F
100
AcDbEntity
  8
AM_0
100
AcDbLine
 10
-15.97780609130916
 20
-9.999168395989869
 30
0.0
 11
-14.74446296691914
 21
-11.41056823729988
 31
0.0
  0
LINE
  5
C189
330
1F
100
AcDbEntity
  8
AM_0
100
AcDbLine
 10
-15.52834129333518
 20
-7.954040527339856
 30
0.0
 11
-15.83625221252518
 21
-9.105773925779857
 31
0.0
  0
LINE
  5
C18A
330
1F
100
AcDbEntity
  8
AM_0
100
AcDbLine
 10
-15.83625411987316
 20
-9.105773925779857
 30
0.0
 11
-15.97780227661218
 21
-9.999160766599885
 31
0.0
  0
LINE
  5
C18B
330
1F
100
AcDbEntity
  8
AM_0
100
AcDbLine
 10
-14.74445724487313
 20
-11.41056823729988
 30
0.0
 11
-14.63287544250516
 21
-10.48288726805987
 31
0.0
  0
LINE
  5
C18C
330
1F
100
AcDbEntity
  8
AM_0
100
AcDbLine
 10
-2.399999618531154
 20
-19.97840881346985
 30
0.0
 11
-2.399999618531154
 21
-16.92080688475985
 31
0.0
  0
LINE
  5
C18D
330
1F
100
AcDbEntity
  8
AM_0
100
AcDbLine
 10
-6.362525939942145
 20
-12.74088287352984
 30
0.0
 11
-3.433353424073146
 21
-11.99011993407984
 31
0.0
  0
LINE
  5
C18E
330
1F
100
AcDbEntity
  8
AM_0
100
AcDbLine
 10
-9.54070854187114
 20
-12.89437866210985
 30
0.0
 11
-6.362525939942145
 21
-12.74088287352984
 31
0.0
  0
LINE
  5
C18F
330
1F
100
AcDbEntity
  8
AM_0
100
AcDbLine
 10
-6.454601287842137
 20
-11.78087615965984
 30
0.0
 11
-9.55556106567414
 21
-11.93064117430987
 31
0.0
  0
LINE
  5
C190
330
1F
100
AcDbEntity
  8
AM_0
100
AcDbLine
 10
-12.42738914489814
 20
-11.47484588622987
 30
0.0
 11
-12.48405075073313
 21
-12.42723083495985
 31
0.0
  0
LINE
  5
C191
330
1F
100
AcDbEntity
  8
AM_0
100
AcDbLine
 10
-12.48405265808114
 20
-12.42723846434987
 30
0.0
 11
-9.54070854187114
 21
-12.89437866210985
 31
0.0
  0
LINE
  5
C192
330
1F
100
AcDbEntity
  8
AM_0
100
AcDbLine
 10
-9.555562973023143
 20
-11.93063354491985
 30
0.0
 11
-9.54070854187114
 21
-12.89437103270987
 31
0.0
  0
LINE
  5
C193
330
1F
100
AcDbEntity
  8
AM_0
100
AcDbLine
 10
-6.45460319519114
 20
-11.78086853026985
 30
0.0
 11
-6.362525939942145
 21
-12.74088287352984
 31
0.0
  0
LINE
  5
C194
330
1F
100
AcDbEntity
  8
AM_0
100
AcDbLine
 10
-0.2466735839851708
 20
-10.06491088866985
 30
0.0
 11
-2.001747131348139
 21
-15.14193725585985
 31
0.0
  0
LINE
  5
C195
330
1F
100
AcDbEntity
  8
AM_0
100
AcDbLine
 10
-2.001743316651158
 20
-15.14195251463985
 30
0.0
 11
-2.028699874878157
 21
-12.82514190672984
 31
0.0
  0
LINE
  5
C196
330
1F
100
AcDbEntity
  8
AM_0
100
AcDbLine
 10
-2.399999618531154
 20
-12.93707275389985
 30
0.0
 11
-2.399999618531154
 21
-16.04896545409985
 31
0.0
  0
LINE
  5
C197
330
1F
100
AcDbEntity
  8
AM_0
100
AcDbLine
 10
-2.730869293213146
 20
-12.51972961424985
 30
0.0
 11
-2.730869293213146
 21
-15.33331298827985
 31
0.0
  0
LINE
  5
C198
330
1F
100
AcDbEntity
  8
AM_0
100
AcDbLine
 10
-2.399999618531154
 20
-15.47927856444985
 30
0.0
 11
-2.214721679688153
 21
-15.39389038085985
 31
0.0
  0
LINE
  5
C199
330
1F
100
AcDbEntity
  8
AM_0
100
AcDbLine
 10
-2.214717864991143
 20
-15.39387512206985
 30
0.0
 11
-2.001741409302155
 21
-15.14195251463985
 31
0.0
  0
LINE
  5
C19A
330
1F
100
AcDbEntity
  8
AM_0
100
AcDbLine
 10
-2.399999618531154
 20
-16.92080688475985
 30
0.0
 11
-2.399999618531154
 21
-16.09873962401985
 31
0.0
  0
LINE
  5
C19B
330
1F
100
AcDbEntity
  8
AM_0
100
AcDbLine
 10
-3.433353424073146
 20
-11.99011230467985
 30
0.0
 11
-1.199132919312148
 21
-10.75637817381985
 31
0.0
  0
LINE
  5
C19C
330
1F
100
AcDbEntity
  8
AM_0
100
AcDbLine
 10
-1.416666030884186
 20
-9.844596862789842
 30
0.0
 11
-1.199131011963146
 21
-10.75639343260982
 31
0.0
  0
LINE
  5
C19D
330
1F
100
AcDbEntity
  8
AM_0
100
AcDbLine
 10
-2.028699874878157
 20
-12.82514953612985
 30
0.0
 11
-1.164522171021189
 21
-10.71225738524984
 31
0.0
  0
LINE
  5
C19E
330
1F
100
AcDbEntity
  8
AM_0
100
AcDbLine
 10
-1.41666793823316
 20
-9.844589233389825
 30
0.0
 11
-3.596603393555142
 21
-11.04834747313984
 31
0.0
  0
LINE
  5
C19F
330
1F
100
AcDbEntity
  8
AM_0
100
AcDbLine
 10
-3.596601486206139
 20
-11.04834747313984
 30
0.0
 11
-3.433353424073146
 21
-11.99011993407984
 31
0.0
  0
LINE
  5
C1A0
330
1F
100
AcDbEntity
  8
AM_0
100
AcDbLine
 10
-2.061227798462141
 20
-11.23242950438984
 30
0.0
 11
-2.247756958008153
 21
-12.55484771727984
 31
0.0
  0
LINE
  5
C1A1
330
1F
100
AcDbEntity
  8
AM_0
100
AcDbLine
 10
-2.028701782227159
 20
-12.82514190672984
 30
0.0
 11
-2.247756958008153
 21
-12.55485534667985
 31
0.0
  0
LINE
  5
C1A2
330
1F
100
AcDbEntity
  8
AM_0
100
AcDbLine
 10
-2.247756958008153
 20
-12.55485534667985
 30
0.0
 11
-3.364217758179137
 21
-11.95195007323985
 31
0.0
  0
LINE
  5
C1A3
330
1F
100
AcDbEntity
  8
AM_0
100
AcDbLine
 10
-0.0000000000001705
 20
-9.22750091551984
 30
0.0
 11
-0.018516540528168
 21
-7.636230468749857
 31
0.0
  0
LINE
  5
C1A4
330
1F
100
AcDbEntity
  8
AM_0
100
AcDbLine
 10
-1.199131011963146
 20
-10.75638580321984
 30
0.0
 11
-0.0000000000001705
 21
-9.22750091551984
 31
0.0
  0
LINE
  5
C1A5
330
1F
100
AcDbEntity
  8
AM_0
100
AcDbLine
 10
-0.2466697692871662
 20
-8.352859497069829
 30
0.0
 11
-0.0000000000001705
 21
-9.22750091551984
 31
0.0
  0
LINE
  5
C1A6
330
1F
100
AcDbEntity
  8
AM_0
100
AcDbLine
 10
-0.2466735839851708
 20
-10.06491851805984
 30
0.0
 11
-0.0000000000001705
 21
-9.227493286129828
 31
0.0
  0
LINE
  5
C1A7
330
1F
100
AcDbEntity
  8
AM_0
100
AcDbLine
 10
-0.2526664733891835
 20
-9.549644470209841
 30
0.0
 11
-0.2466697692871662
 21
-10.06491088866985
 31
0.0
  0
LINE
  5
C1A8
330
1F
100
AcDbEntity
  8
AM_0
100
AcDbLine
 10
-14.42891693115316
 20
-4.911697387689883
 30
0.0
 11
-11.13789749145519
 21
-6.391899108879869
 31
0.0
  0
LINE
  5
C1A9
330
1F
100
AcDbEntity
  8
AM_0
100
AcDbLine
 10
-13.48817253112821
 20
10.10513305664014
 30
0.0
 11
-15.04071617126521
 21
10.11415863038013
 31
0.0
  0
LINE
  5
C1AA
330
1F
100
AcDbEntity
  8
AM_0
100
AcDbLine
 10
-2.399999618531211
 20
9.113700866700156
 30
0.0
 11
-19.66422653198321
 21
9.214141845710116
 31
0.0
  0
LINE
  5
C1AB
330
1F
100
AcDbEntity
  8
AM_0
100
AcDbLine
 10
-12.5629634857182
 20
10.15457916260013
 30
0.0
 11
-14.79718208313019
 21
12.41804504395011
 31
0.0
  0
LINE
  5
C1AC
330
1F
100
AcDbEntity
  8
AM_0
100
AcDbLine
 10
-14.62916946411218
 20
-4.539817810049868
 30
0.0
 11
-14.62916946411221
 21
8.55094146729013
 31
0.0
  0
LINE
  5
C1AD
330
1F
100
AcDbEntity
  8
AM_0
100
AcDbLine
 10
-13.93451309204118
 20
-4.711196899409856
 30
0.0
 11
-13.93451309204121
 21
8.480522155770131
 31
0.0
  0
LINE
  5
C1AE
330
1F
100
AcDbEntity
  8
AM_0
100
AcDbLine
 10
-14.64797401428316
 20
-4.661018371579871
 30
0.0
 11
-15.09696960449318
 21
-6.340492248529869
 31
0.0
  0
LINE
  5
C1AF
330
1F
100
AcDbEntity
  8
AM_0
100
AcDbLine
 10
-14.64797019958519
 20
-4.661018371579871
 30
0.0
 11
-14.42891693115316
 21
-4.911697387689883
 31
0.0
  0
LINE
  5
C1B0
330
1F
100
AcDbEntity
  8
AM_0
100
AcDbLine
 10
-14.64939117431717
 20
-4.53910064696987
 30
0.0
 11
-14.64797401428316
 21
-4.661018371579871
 31
0.0
  0
LINE
  5
C1B1
330
1F
100
AcDbEntity
  8
AM_0
100
AcDbLine
 10
-15.0409011840822
 20
10.16882324219014
 30
0.0
 11
-15.04071426391621
 21
10.11416625977014
 31
0.0
  0
LINE
  5
C1B2
330
1F
100
AcDbEntity
  8
AM_0
100
AcDbLine
 10
-19.49472999572819
 20
8.630668640140129
 30
0.0
 11
-19.66422462463421
 21
9.214141845710116
 31
0.0
  0
LINE
  5
C1B3
330
1F
100
AcDbEntity
  8
AM_0
100
AcDbLine
 10
-14.89889335632421
 20
12.66804504395011
 30
0.0
 11
-15.0757141113292
 21
12.66907501221012
 31
0.0
  0
LINE
  5
C1B4
330
1F
100
AcDbEntity
  8
AM_0
100
AcDbLine
 10
-15.16028404235919
 20
13.31050872803013
 30
0.0
 11
-15.16687202453721
 21
12.17816925049012
 31
0.0
  0
LINE
  5
C1B5
330
1F
100
AcDbEntity
  8
AM_0
100
AcDbLine
 10
-15.22905158996619
 20
11.66994476319013
 30
0.0
 11
-15.2567996978762
 21
11.67010498047014
 31
0.0
  0
LINE
  5
C1B6
330
1F
100
AcDbEntity
  8
AM_0
100
AcDbLine
 10
-15.07571601867721
 20
12.66906738282014
 30
0.0
 11
-15.07322883606019
 21
13.09653472901013
 31
0.0
  0
LINE
  5
C1B7
330
1F
100
AcDbEntity
  8
AM_0
100
AcDbLine
 10
-15.0409011840822
 20
10.16882324219014
 30
0.0
 11
-15.2747898101812
 21
10.17018127442011
 31
0.0
  0
LINE
  5
C1B8
330
1F
100
AcDbEntity
  8
AM_0
100
AcDbLine
 10
-15.2567996978762
 20
11.67009735108013
 30
0.0
 11
-15.2747917175302
 21
10.17018890381012
 31
0.0
  0
LINE
  5
C1B9
330
1F
100
AcDbEntity
  8
AM_0
100
AcDbLine
 10
-15.70417785644619
 20
11.67270660401013
 30
0.0
 11
-15.25679779052819
 21
11.67009735108013
 31
0.0
  0
LINE
  5
C1BA
330
1F
100
AcDbEntity
  8
AM_0
100
AcDbLine
 10
-15.58659744262721
 20
14.35835266113213
 30
0.0
 11
-15.70417785644619
 21
11.67270660401013
 31
0.0
  0
LINE
  5
C1BB
330
1F
100
AcDbEntity
  8
AM_0
100
AcDbLine
 10
-14.7971858978282
 20
12.41804504395011
 30
0.0
 11
-15.99631881713921
 21
15.36540985107413
 31
0.0
  0
LINE
  5
C1BC
330
1F
100
AcDbEntity
  8
AM_0
100
AcDbLine
 10
-2.399999618531182
 20
-3.980972290039858
 30
0.0
 11
-2.399999618531211
 21
8.421600341800143
 31
0.0
  0
LINE
  5
C1BD
330
1F
100
AcDbEntity
  8
AM_0
100
AcDbLine
 10
-11.81293487548922
 20
4.520721435550143
 30
0.0
 11
-11.75285530090417
 21
3.528068542480127
 31
0.0
  0
LINE
  5
C1BE
330
1F
100
AcDbEntity
  8
AM_0
100
AcDbLine
 10
-2.70534133911218
 20
-4.376304626459841
 30
0.0
 11
-2.705341339112209
 21
8.275886535650158
 31
0.0
  0
LINE
  5
C1BF
330
1F
100
AcDbEntity
  8
AM_0
100
AcDbLine
 10
-5.484899520874165
 20
-5.925247192379856
 30
0.0
 11
-5.484899520874193
 21
7.77577972413016
 31
0.0
  0
LINE
  5
C1C0
330
1F
100
AcDbEntity
  8
AM_0
100
AcDbLine
 10
-5.467622756958178
 20
-6.118049621579842
 30
0.0
 11
-2.214723587037184
 21
-4.321800231929842
 31
0.0
  0
LINE
  5
C1C1
330
1F
100
AcDbEntity
  8
AM_0
100
AcDbLine
 10
-6.179557800293167
 20
-6.107269287109858
 30
0.0
 11
-6.179557800293167
 21
2.777259826660127
 31
0.0
  0
LINE
  5
C1C2
330
1F
100
AcDbEntity
  8
AM_0
100
AcDbLine
 10
-10.35406112670918
 20
-6.32569122313987
 30
0.0
 11
-10.35406112670918
 21
2.507125854500145
 31
0.0
  0
LINE
  5
C1C3
330
1F
100
AcDbEntity
  8
AM_0
100
AcDbLine
 10
-11.04872131347718
 20
-6.216865539549871
 30
0.0
 11
-11.04872131347718
 21
2.63639068604013
 31
0.0
  0
LINE
  5
C1C4
330
1F
100
AcDbEntity
  8
AM_0
100
AcDbLine
 10
-10.61512374878017
 20
-6.474868774409856
 30
0.0
 11
-5.987876892090184
 21
-6.251396179199844
 31
0.0
  0
LINE
  5
C1C5
330
1F
100
AcDbEntity
  8
AM_0
100
AcDbLine
 10
-11.04871940612818
 20
-6.216873168939855
 30
0.0
 11
-11.53551483154316
 21
-5.999114990229855
 31
0.0
  0
LINE
  5
C1C6
330
1F
100
AcDbEntity
  8
AM_0
100
AcDbLine
 10
-11.13789558410718
 20
-6.391899108879869
 30
0.0
 11
-10.61512184143117
 21
-6.474868774409856
 31
0.0
  0
LINE
  5
C1C7
330
1F
100
AcDbEntity
  8
AM_0
100
AcDbLine
 10
-5.987874984742177
 20
-6.251396179199844
 30
0.0
 11
-5.46762084961017
 21
-6.118049621579842
 31
0.0
  0
LINE
  5
C1C8
330
1F
100
AcDbEntity
  8
AM_0
100
AcDbLine
 10
-11.74687194824318
 20
3.013420104980127
 30
0.0
 11
-11.04871940612818
 21
2.636383056640141
 31
0.0
  0
LINE
  5
C1C9
330
1F
100
AcDbEntity
  8
AM_0
100
AcDbLine
 10
-11.75285530090417
 20
3.528068542480127
 30
0.0
 11
-11.74686813354517
 21
3.013427734380144
 31
0.0
  0
LINE
  5
C1CA
330
1F
100
AcDbEntity
  8
AM_0
100
AcDbLine
 10
-2.247755050660174
 20
-1.482772827139854
 30
0.0
 11
-2.399995803833178
 21
-1.414299011229843
 31
0.0
  0
LINE
  5
C1CB
330
1F
100
AcDbEntity
  8
AM_0
100
AcDbLine
 10
-2.028701782227187
 20
-1.733451843259842
 30
0.0
 11
-0.2647361755371662
 21
-6.800247192379828
 31
0.0
  0
LINE
  5
C1CC
330
1F
100
AcDbEntity
  8
AM_0
100
AcDbLine
 10
-2.214725494385163
 20
-4.321800231929842
 30
0.0
 11
-2.001745223999165
 21
-4.05025482176984
 31
0.0
  0
LINE
  5
C1CD
330
1F
100
AcDbEntity
  8
AM_0
100
AcDbLine
 10
-2.001743316651186
 20
-4.05025482176984
 30
0.0
 11
-2.028701782227187
 21
-1.733459472649855
 31
0.0
  0
LINE
  5
C1CE
330
1F
100
AcDbEntity
  8
AM_0
100
AcDbLine
 10
-2.028701782227187
 20
-1.733451843259842
 30
0.0
 11
-2.247755050660174
 21
-1.482772827139854
 31
0.0
  0
LINE
  5
C1CF
330
1F
100
AcDbEntity
  8
AM_0
100
AcDbLine
 10
-3.512266159058214
 20
10.10192108155016
 30
0.0
 11
-5.884796142579205
 21
9.133979797370159
 31
0.0
  0
LINE
  5
C1D0
330
1F
100
AcDbEntity
  8
AM_0
100
AcDbLine
 10
-12.80445671081619
 20
10.10115051270014
 30
0.0
 11
-12.80273437500019
 21
10.39748382569013
 31
0.0
  0
LINE
  5
C1D1
330
1F
100
AcDbEntity
  8
AM_0
100
AcDbLine
 10
-10.2018566131602
 20
9.159095764160127
 30
0.0
 11
-12.5629634857182
 21
10.15457916260013
 31
0.0
  0
LINE
  5
C1D2
330
1F
100
AcDbEntity
  8
AM_0
100
AcDbLine
 10
-13.48817253112821
 20
10.10512542725013
 30
0.0
 11
-13.1389446258552
 21
10.10309600830012
 31
0.0
  0
LINE
  5
C1D3
330
1F
100
AcDbEntity
  8
AM_0
100
AcDbLine
 10
-13.1389446258552
 20
10.10309600830012
 30
0.0
 11
-12.43109893798922
 21
10.09898376465014
 31
0.0
  0
LINE
  5
C1D4
330
1F
100
AcDbEntity
  8
AM_0
100
AcDbLine
 10
-10.58185958862319
 20
9.319305419930145
 30
0.0
 11
-13.48554992675821
 21
9.336196899420116
 31
0.0
  0
LINE
  5
C1D5
330
1F
100
AcDbEntity
  8
AM_0
100
AcDbLine
 10
-13.48554992675821
 20
9.336204528810128
 30
0.0
 11
-13.4881706237802
 21
10.10513305664014
 31
0.0
  0
LINE
  5
C1D6
330
1F
100
AcDbEntity
  8
AM_0
100
AcDbLine
 10
-5.887134552002208
 20
5.913238525390141
 30
0.0
 11
-5.881759643555199
 21
5.809669494630156
 31
0.0
  0
LINE
  5
C1D7
330
1F
100
AcDbEntity
  8
AM_0
100
AcDbLine
 10
-6.179557800293196
 20
7.394546508790142
 30
0.0
 11
-6.179557800293196
 21
7.731170654300143
 31
0.0
  0
LINE
  5
C1D8
330
1F
100
AcDbEntity
  8
AM_0
100
AcDbLine
 10
-2.399999618531211
 20
11.20282745362015
 30
0.0
 11
-2.399999618531211
 21
9.113700866700156
 31
0.0
  0
LINE
  5
C1D9
330
1F
100
AcDbEntity
  8
AM_0
100
AcDbLine
 10
-2.730869293213203
 20
10.87533569336014
 30
0.0
 11
-2.730869293213203
 21
9.115631103520144
 31
0.0
  0
LINE
  5
C1DA
330
1F
100
AcDbEntity
  8
AM_0
100
AcDbLine
 10
-1.251855850220209
 20
12.33924102784015
 30
0.0
 11
-3.512264251709211
 21
10.10192108155016
 31
0.0
  0
LINE
  5
C1DB
330
1F
100
AcDbEntity
  8
AM_0
100
AcDbLine
 10
-2.399999618531211
 20
8.421600341800143
 30
0.0
 11
-2.399999618531211
 21
9.113700866700156
 31
0.0
  0
LINE
  5
C1DC
330
1F
100
AcDbEntity
  8
AM_0
100
AcDbLine
 10
-0.0185165405281964
 20
15.27245330810515
 30
0.0
 11
-1.251857757569212
 21
12.33924865723017
 31
0.0
  0
LINE
  5
C1DD
330
1F
100
AcDbEntity
  8
AM_0
100
AcDbLine
 10
-14.74445533752524
 20
21.4811706542961
 30
0.0
 11
-12.48404884338424
 21
23.71849060058514
 31
0.0
  0
LINE
  5
C1DE
330
1F
100
AcDbEntity
  8
AM_0
100
AcDbLine
 10
-15.32905006408722
 20
20.24095916748013
 30
0.0
 11
-15.33638572692922
 21
20.07341003417914
 31
0.0
  0
LINE
  5
C1DF
330
1F
100
AcDbEntity
  8
AM_0
100
AcDbLine
 10
-15.97780418396024
 20
18.54795837402312
 30
0.0
 11
-14.74445915222224
 21
21.4811706542961
 31
0.0
  0
ARC
  5
C1E0
330
1F
100
AcDbEntity
  8
AM_0
100
AcDbCircle
 10
-7.998159408570217
 20
16.91020202636716
 30
0.0
 40
3.894654989242599
100
AcDbArc
 50
359.6666674785541
 51
89.66666878241118
  0
LINE
  5
C1E1
330
1F
100
AcDbEntity
  8
AM_0
100
AcDbLine
 10
-6.362524032593228
 20
24.90082550048814
 30
0.0
 11
-3.433353424073231
 21
23.66583251953113
 31
0.0
  0
LINE
  5
C1E2
330
1F
100
AcDbEntity
  8
AM_0
100
AcDbLine
 10
-9.540706634522223
 20
24.91931152343713
 30
0.0
 11
-6.36252593994223
 21
24.90082550048814
 31
0.0
  0
LINE
  5
C1E3
330
1F
100
AcDbEntity
  8
AM_0
100
AcDbLine
 10
-12.48405075073321
 20
23.71849060058514
 30
0.0
 11
-9.540706634522223
 21
24.91931152343713
 31
0.0
  0
LINE
  5
C1E4
330
1F
100
AcDbEntity
  8
AM_0
100
AcDbLine
 10
-3.433355331421239
 20
23.66583251953113
 30
0.0
 11
-1.199131011963231
 21
21.40235900878914
 31
0.0
  0
LINE
  5
C1E5
330
1F
100
AcDbEntity
  8
AM_0
100
AcDbLine
 10
-1.199131011963231
 20
21.40235900878914
 30
0.0
 11
-0.0000000000002274
 21
18.45499420166015
 31
0.0
  0
LINE
  5
C337
330
1F
100
AcDbEntity
  8
AM_11
100
AcDbLine
 10
-0.0000000000002274
 20
25.00000000000019
 30
0.0
 11
-0.000000000000199
 21
-24.99999999999983
 31
0.0
  0
LINE
  5
C33F
330
1F
100
AcDbEntity
  8
AM_11
100
AcDbLine
 10
-8.000000000000255
 20
25.00000000000017
 30
0.0
 11
-0.0000000000002842
 21
25.00000000000017
 31
0.0
  0
LINE
  5
C343
330
1F
100
AcDbEntity
  8
AM_11
100
AcDbLine
 10
-8.00000000000017
 20
-24.99999999999985
 30
0.0
 11
-0.000000000000199
 21
-24.99999999999983
 31
0.0
  0
LINE
  5
C34B
330
1F
100
AcDbEntity
  8
AM_11
100
AcDbLine
 10
-8.000000000000255
 20
25.00000000000017
 30
0.0
 11
-8.000000000000142
 21
-24.99999999999985
 31
0.0
  0
DIMENSION
  5
C353
330
1F
100
AcDbEntity
  8
AM_5
100
AcDbDimension
  2
*D5
 10
-0.0000000000002016
 20
39.00000000000017
 30
0.0
 11
-4.000000000000212
 21
41.60000000000017
 31
0.0
 70
    32
  1
<>
 51
359.9999999999998
  3
AM_JIS$0
100
AcDbAlignedDimension
 13
-8.000000000000255
 23
25.00000000000017
 33
0.0
 14
-0.0000000000002274
 24
25.00000000000017
 34
0.0
 50
180.0
100
AcDbRotatedDimension
1001
GENIUS_GENDTOL_13
1000

1000
h7
1000

1040
0.0
1001
ACAD
1000
DSTYLE
1002
{
1070
   287
1070
     3
1070
    42
1040
1.0
1070
    43
1040
12.0
1070
    48
1040
0.1
1070
    78
1070
     8
1070
   140
1040
3.2
1070
   147
1040
1.0
1070
   176
1070
   256
1070
   177
1070
   256
1070
   271
1070
     1
1070
   272
1070
     3
1070
   275
1070
     0
1070
   284
1070
     0
1070
   289
1070
     3
1070
   340
1005
6B
1070
   371
1070
    -1
1070
   372
1070
    -1
1002
}
  0
DIMENSION
  5
C3E3
330
1F
100
AcDbEntity
  8
AM_5
100
AcDbDimension
  2
*D6
 10
13.99999999999979
 20
-24.99999999999983
 30
0.0
 11
11.3999999999998
 21
0.00000000000017
 31
0.0
 70
    32
  1
%%c<>
 51
359.9999999999998
  3
AM_JIS$0
100
AcDbAlignedDimension
 13
-0.0000000000002842
 23
25.00000000000017
 33
0.0
 14
-0.000000000000199
 24
-24.99999999999983
 34
0.0
 50
90.0
100
AcDbRotatedDimension
1001
GENIUS_GENDTOL_13
1000

1000
h7
1000

1040
0.0
1001
ACAD
1000
DSTYLE
1002
{
1070
   287
1070
     3
1070
    42
1040
1.0
1070
    43
1040
12.0
1070
    48
1040
0.1
1070
    78
1070
     8
1070
   140
1040
3.2
1070
   147
1040
1.0
1070
   176
1070
   256
1070
   177
1070
   256
1070
   271
1070
     1
1070
   272
1070
     3
1070
   275
1070
     0
1070
   284
1070
     0
1070
   289
1070
     3
1070
   340
1005
6B
1070
   371
1070
    -1
1070
   372
1070
    -1
1002
}
  0
DIMENSION
  5
C46F
330
1F
100
AcDbEntity
  8
AM_5
100
AcDbDimension
  2
*D7
 10
-49.99999999999918
 20
-38.99999999999982
 30
0.0
 11
-24.99999999999968
 21
-36.39999999999982
 31
0.0
 70
    32
  1
<>
 51
359.9999999999998
  3
AM_JIS$0
100
AcDbAlignedDimension
 13
-0.000000000000199
 23
-24.99999999999983
 33
0.0
 14
-49.99999999999918
 24
-15.99999999999994
 34
0.0
100
AcDbRotatedDimension
1001
GENIUS_GENDTOL_13
1000

1000
h7
1000

1040
0.0
1001
ACAD
1000
DSTYLE
1002
{
1070
   287
1070
     3
1070
    42
1040
1.0
1070
    43
1040
12.0
1070
    48
1040
0.1
1070
    78
1070
     8
1070
   140
1040
3.2
1070
   147
1040
1.0
1070
   176
1070
   256
1070
   177
1070
   256
1070
   271
1070
     1
1070
   272
1070
     3
1070
   275
1070
     0
1070
   284
1070
     0
1070
   289
1070
     3
1070
   340
1005
6B
1070
   371
1070
    -1
1070
   372
1070
    -1
1002
}
  0
DIMENSION
  5
C508
330
1F
100
AcDbEntity
  8
AM_5
100
AcDbDimension
  2
*D8
 10
-250.0000000000001
 20
-38.99999999999982
 30
0.0
 11
-149.9999999999996
 21
-36.39999999999982
 31
0.0
 70
    32
  1
<>
 51
359.9999999999998
  3
AM_JIS$0
100
AcDbAlignedDimension
 13
-49.99999999999918
 23
-15.99999999999994
 33
0.0
 14
-250.0000000000001
 24
-15.46409606933034
 34
0.0
100
AcDbRotatedDimension
1001
GENIUS_GENDTOL_13
1000

1000
h7
1000

1040
0.0
1001
ACAD
1000
DSTYLE
1002
{
1070
   287
1070
     3
1070
    42
1040
1.0
1070
    43
1040
12.0
1070
    48
1040
0.1
1070
    78
1070
     8
1070
   140
1040
3.2
1070
   147
1040
1.0
1070
   176
1070
   256
1070
   177
1070
   256
1070
   271
1070
     1
1070
   272
1070
     3
1070
   275
1070
     0
1070
   284
1070
     0
1070
   289
1070
     3
1070
   340
1005
6B
1070
   371
1070
    -1
1070
   372
1070
    -1
1002
}
  0
DIMENSION
  5
C5DA
330
1F
100
AcDbEntity
  8
AM_5
100
AcDbDimension
  2
*D9
 10
-250.0000000000001
 20
-48.99999999999983
 30
0.0
 11
-125.0000000000001
 21
-46.39999999999982
 31
0.0
 70
    32
  1
<>
 51
359.9999999999998
  3
AM_JIS$0
100
AcDbAlignedDimension
 13
-0.000000000000199
 23
-24.99999999999983
 33
0.0
 14
-250.0000000000001
 24
-15.46409606933034
 34
0.0
100
AcDbRotatedDimension
1001
GENIUS_GENDTOL_13
1000

1000
h7
1000

1040
0.0
1001
ACAD
1000
DSTYLE
1002
{
1070
   287
1070
     3
1070
    42
1040
1.0
1070
    43
1040
12.0
1070
    48
1040
0.1
1070
    78
1070
     8
1070
   140
1040
3.2
1070
   147
1040
1.0
1070
   176
1070
   256
1070
   177
1070
   256
1070
   271
1070
     1
1070
   272
1070
     3
1070
   275
1070
     0
1070
   284
1070
     0
1070
   289
1070
     3
1070
   340
1005
6B
1070
   371
1070
    -1
1070
   372
1070
    -1
1002
}
  0
DIMENSION
  5
C66F
330
1F
100
AcDbEntity
  8
AM_5
100
AcDbDimension
  2
*D10
 10
-264.0000000000001
 20
-16.00000000000033
 30
0.0
 11
-266.6000000000002
 21
-0.0000000000003796
 31
0.0
 70
    32
  1
%%c<>
 51
359.9999999999998
  3
AM_JIS$0
100
AcDbAlignedDimension
 13
-248.0000000000002
 23
15.99999999999965
 33
0.0
 14
-248.0000000000001
 24
-16.00000000000034
 34
0.0
 50
270.0
100
AcDbRotatedDimension
1001
GENIUS_GENDTOL_13
1000

1000
h7
1000

1040
0.0
1001
ACAD
1000
DSTYLE
1002
{
1070
   287
1070
     3
1070
   147
1040
1.0
1070
    41
1040
2.5
1070
    40
1040
1.0
1070
    42
1040
1.0
1070
    43
1040
12.0
1070
    48
1040
0.1
1070
    78
1070
     8
1070
   140
1040
3.2
1070
   176
1070
   256
1070
   177
1070
   256
1070
   271
1070
     1
1070
   272
1070
     3
1070
   275
1070
     0
1070
   284
1070
     0
1070
   289
1070
     3
1070
   340
1005
6B
1070
   371
1070
    -1
1070
   372
1070
    -1
1002
}
  0
DIMENSION
  5
C711
330
1F
100
AcDbEntity
  8
AM_5
100
AcDbDimension
  2
*D11
 10
-63.99999999999918
 20
-20.3963317871099
 30
0.0
 11
-63.99999999999917
 21
4.970205704700987
 31
0.0
 70
   160
  1
%%c<>
 51
359.9999999999998
  3
AM_JIS$0
100
AcDbAlignedDimension
 13
-39.86103547811919
 23
20.39632415771407
 33
0.0
 14
-39.86102771759044
 24
-20.39633178710991
 34
0.0
 50
270.0
100
AcDbRotatedDimension
1001
GENIUS_GENDTOL_13
1000

1000
h7
1000

1040
0.0
1001
ACAD
1000
DSTYLE
1002
{
1070
   287
1070
     3
1070
    42
1040
1.0
1070
    43
1040
12.0
1070
    48
1040
0.1
1070
    78
1070
     8
1070
   140
1040
3.2
1070
   147
1040
1.0
1070
   176
1070
   256
1070
   177
1070
   256
1070
   271
1070
     1
1070
   272
1070
     3
1070
   275
1070
     0
1070
   284
1070
     0
1070
   289
1070
     3
1070
   340
1005
6B
1070
   371
1070
    -1
1070
   372
1070
    -1
1002
}
  0
VIEWPORT
  5
110
330
101
100
AcDbEntity
 67
     1
  8
0
100
AcDbViewport
 10
420.5
 20
297.0
 30
0.0
 40
948.9782706766916
 41
628.452
 68
     1
 69
     1
1001
ACAD
1000
MVIEW
1002
{
1070
    16
1010
0.0
1020
0.0
1030
0.0
1010
0.0
1020
0.0
1030
1.0
1040
0.0
1040
628.452
1040
420.5
1040
297.0
1040
50.0
1040
0.0
1040
0.0
1070
     0
1070
   100
1070
     1
1070
     1
1070
     0
1070
     0
1070
     0
1070
     0
1040
0.0
1040
0.0
1040
0.0
1040
10.0
1040
10.0
1040
10.0
1040
10.0
1070
     0
1002
{
1002
}
1002
}
  0
ENDSEC
  0
SECTION
  2
OBJECTS
  0
DICTIONARY
  5
C
330
0
100
AcDbDictionary
  3
ACAD_GROUP
350
D
  3
ACAD_LAYOUT
350
1A
  3
ACAD_MLINESTYLE
350
17
  3
ACAD_PLOTSETTINGS
350
19
  3
ACAD_PLOTSTYLENAME
350
E
  3
ACDBVARIABLEDICTIONARY
350
34
  3
ACMDICTIONARY
350
43
  3
AMG
350
2B
  3
AMGSNAPSETTINGS
350
6E
  3
DWGPROPS
350
CB23
  3
ACDBHEADERROUNDTRIPXREC
350
CB2F
  0
DICTIONARY
  5
74
330
1F
100
AcDbDictionary
280
     1
  3
ACAD_INDEX
360
CB25
  3
ACAD_LAYOUTSELFREF
360
CB52
  0
DICTIONARY
  5
CB57
330
101
100
AcDbDictionary
280
     1
  3
ACAD_LAYOUTSELFREF
360
CB58
  0
DICTIONARY
  5
D
102
{ACAD_REACTORS
330
C
102
}
330
C
100
AcDbDictionary
  0
DICTIONARY
  5
1A
102
{ACAD_REACTORS
330
C
102
}
330
C
100
AcDbDictionary
  0
DICTIONARY
  5
17
102
{ACAD_REACTORS
330
C
102
}
330
C
100
AcDbDictionary
  3
STANDARD
350
18
  0
DICTIONARY
  5
19
102
{ACAD_REACTORS
330
C
102
}
330
C
100
AcDbDictionary
  3
ASAMI
350
399D
  0
ACDBDICTIONARYWDFLT
  5
E
102
{ACAD_REACTORS
330
C
102
}
330
C
100
AcDbDictionary
281
     1
  3
Normal
350
F
100
AcDbDictionaryWithDefault
340
F
  0
DICTIONARY
  5
34
102
{ACAD_REACTORS
330
C
102
}
330
C
100
AcDbDictionary
  3
INDEXCTL
350
35
  3
SORTENTS
350
B5E
  0
DICTIONARY
  5
43
102
{ACAD_REACTORS
330
C
102
}
330
C
100
AcDbDictionary
  3
ACMSTDDICTIONARY
350
260
  0
DICTIONARY
  5
2B
102
{ACAD_REACTORS
330
C
102
}
330
C
100
AcDbDictionary
  3
ACMGSETTINGS
350
2C
  0
DICTIONARY
  5
6E
102
{ACAD_REACTORS
330
C
102
}
330
C
100
AcDbDictionary
  0
XRECORD
  5
CB23
102
{ACAD_REACTORS
330
C
102
}
330
C
100
AcDbXrecord
  1
DWGPROPS COOKIE
  2

  3

  4

  6

  7

  8

  9

300
AmdtFileType=82
301
=
302
=
303
=
304
=
305
=
306
=
307
=
308
=
309
=
 40
0.9439101620370371
 41
2452802.716478761
 42
2453075.692326018
  1

 90
        1
  0
DICTIONARY
  5
CB2F
102
{ACAD_REACTORS
330
C
102
}
330
C
100
AcDbDictionary
  3
TSTACKALIGN
350
CB30
  3
TSTACKSIZE
350
CB31
  3
HYPERLINKBASE
350
CB32
  3
STYLESHEET
350
CB33
  3
LAYOUTDICT
350
CB34
  3
PLOTSETDICT
350
CB35
  3
PLOTSTYLNAMDICT
350
CB36
  3
LWETCUNION
350
CB37
  3
INSUNITS
350
CB38
  3
CEPSNTYPE
350
CB39
  3
FINGERPRINTGUID
350
CB3A
  3
VERSIONGUID
350
CB3B
  3
PSVPSCALE
350
CB3C
  3
DIMSTYLEDATA
350
CB3D
  3
PUCSORTHOREF
350
CB3E
  3
PUCSORTHOVIEW
350
CB3F
  3
PUCSBASE
350
CB40
  3
PUCSORGTOP
350
CB41
  3
PUCSORGBOTTOM
350
CB42
  3
PUCSORGLEFT
350
CB43
  3
PUCSORGRIGHT
350
CB44
  3
PUCSORGFRONT
350
CB45
  3
PUCSORGBACK
350
CB46
  3
UCSORTHOREF
350
CB47
  3
UCSORTHOVIEW
350
CB48
  3
UCSBASE
350
CB49
  3
UCSORGTOP
350
CB4A
  3
UCSORGBOTTOM
350
CB4B
  3
UCSORGLEFT
350
CB4C
  3
UCSORGRIGHT
350
CB4D
  3
UCSORGFRONT
350
CB4E
  3
UCSORGBACK
350
CB4F
  0
DICTIONARY
  5
CB25
102
{ACAD_REACTORS
330
74
102
}
330
74
100
AcDbDictionary
  3
*A1
350
CB26
  0
XRECORD
  5
CB52
102
{ACAD_REACTORS
330
74
102
}
330
74
100
AcDbXrecord
340
1F
  0
XRECORD
  5
CB58
102
{ACAD_REACTORS
330
CB57
102
}
330
CB57
100
AcDbXrecord
340
101
  0
MLINESTYLE
  5
18
102
{ACAD_REACTORS
330
17
102
}
330
17
100
AcDbMlineStyle
  2
STANDARD
 70
     0
  3

 62
   256
 51
90.0
 52
90.0
 71
     2
 49
0.5
 62
   256
  6
BYLAYER
 49
-0.5
 62
   256
  6
BYLAYER
  0
PLOTSETTINGS
  5
399D
102
{ACAD_REACTORS
330
19
102
}
330
19
100
AcDbPlotSettings
  1
asami
  2
RICOH imagio MF1540
  4
A4
  6

 40
5.831416606903076
 41
7.651742935180664
 42
4.90008544921875
 43
5.789077758789062
 44
296.9683227539062
 45
209.9733276367187
 46
0.0
 47
0.0
 48
-156.6707931774246
 49
-74.57609991074048
140
58.59973180214831
141
60.61068161925596
142
1.0
143
1.095343097833084
 70
  1712
 72
     1
 73
     1
 74
     4
  7
asami.ctb
 75
     0
147
0.9129559514076438
148
156.6707931774246
149
74.57609991074048
  0
ACDBPLACEHOLDER
  5
F
102
{ACAD_REACTORS
330
E
102
}
330
E
100
AcDbPlaceHolder
280
     0
  0
DICTIONARYVAR
  5
35
102
{ACAD_REACTORS
330
34
102
}
330
34
100
DictionaryVariables
280
     0
  1
1
  0
DICTIONARYVAR
  5
B5E
102
{ACAD_REACTORS
330
34
102
}
330
34
100
DictionaryVariables
280
     0
  1
96
  0
DICTIONARY
  5
260
102
{ACAD_REACTORS
330
43
102
}
330
43
100
AcDbDictionary
  0
DICTIONARY
  5
2C
102
{ACAD_REACTORS
330
2B
102
}
330
2B
100
AcDbDictionary
  3
DWGSETTINGS
350
2D
  0
XRECORD
  5
CB30
102
{ACAD_REACTORS
330
CB2F
102
}
330
CB2F
100
AcDbXrecord
 90
        1
  0
XRECORD
  5
CB31
102
{ACAD_REACTORS
330
CB2F
102
}
330
CB2F
100
AcDbXrecord
 90
       70
  0
XRECORD
  5
CB32
102
{ACAD_REACTORS
330
CB2F
102
}
330
CB2F
100
AcDbXrecord
  1

  0
XRECORD
  5
CB33
102
{ACAD_REACTORS
330
CB2F
102
}
330
CB2F
100
AcDbXrecord
  1
ASAMI.ctb
  0
XRECORD
  5
CB34
102
{ACAD_REACTORS
330
CB2F
102
}
330
CB2F
100
AcDbXrecord
340
1A
  0
XRECORD
  5
CB35
102
{ACAD_REACTORS
330
CB2F
102
}
330
CB2F
100
AcDbXrecord
340
19
  0
XRECORD
  5
CB36
102
{ACAD_REACTORS
330
CB2F
102
}
330
CB2F
100
AcDbXrecord
340
E
  0
XRECORD
  5
CB37
102
{ACAD_REACTORS
330
CB2F
102
}
330
CB2F
100
AcDbXrecord
 90
    10781
  0
XRECORD
  5
CB38
102
{ACAD_REACTORS
330
CB2F
102
}
330
CB2F
100
AcDbXrecord
 90
        4
  0
XRECORD
  5
CB39
102
{ACAD_REACTORS
330
CB2F
102
}
330
CB2F
100
AcDbXrecord
 90
        0
  0
XRECORD
  5
CB3A
102
{ACAD_REACTORS
330
CB2F
102
}
330
CB2F
100
AcDbXrecord
  1
{AFB28963-8C59-40AE-9337-C84526B81ACE}
  0
XRECORD
  5
CB3B
102
{ACAD_REACTORS
330
CB2F
102
}
330
CB2F
100
AcDbXrecord
  1
{065F179C-DF71-47E2-879B-4051B8EA9983}
  0
XRECORD
  5
CB3C
102
{ACAD_REACTORS
330
CB2F
102
}
330
CB2F
100
AcDbXrecord
 40
0.0
  0
XRECORD
  5
CB3D
102
{ACAD_REACTORS
330
CB2F
102
}
330
CB2F
100
AcDbXrecord
1000
DSTYLE
1002
{
1070
    79
 70
     2
1070
   341
340
59
1070
   342
340
59
1070
   371
 70
    -1
1070
   372
 70
    -1
1002
}
  0
XRECORD
  5
CB3E
102
{ACAD_REACTORS
330
CB2F
102
}
330
CB2F
100
AcDbXrecord
340
0
  0
XRECORD
  5
CB3F
102
{ACAD_REACTORS
330
CB2F
102
}
330
CB2F
100
AcDbXrecord
 70
     0
  0
XRECORD
  5
CB40
102
{ACAD_REACTORS
330
CB2F
102
}
330
CB2F
100
AcDbXrecord
340
0
  0
XRECORD
  5
CB41
102
{ACAD_REACTORS
330
CB2F
102
}
330
CB2F
100
AcDbXrecord
 10
0.0
 20
0.0
 30
0.0
  0
XRECORD
  5
CB42
102
{ACAD_REACTORS
330
CB2F
102
}
330
CB2F
100
AcDbXrecord
 10
0.0
 20
0.0
 30
0.0
  0
XRECORD
  5
CB43
102
{ACAD_REACTORS
330
CB2F
102
}
330
CB2F
100
AcDbXrecord
 10
0.0
 20
0.0
 30
0.0
  0
XRECORD
  5
CB44
102
{ACAD_REACTORS
330
CB2F
102
}
330
CB2F
100
AcDbXrecord
 10
0.0
 20
0.0
 30
0.0
  0
XRECORD
  5
CB45
102
{ACAD_REACTORS
330
CB2F
102
}
330
CB2F
100
AcDbXrecord
 10
0.0
 20
0.0
 30
0.0
  0
XRECORD
  5
CB46
102
{ACAD_REACTORS
330
CB2F
102
}
330
CB2F
100
AcDbXrecord
 10
0.0
 20
0.0
 30
0.0
  0
XRECORD
  5
CB47
102
{ACAD_REACTORS
330
CB2F
102
}
330
CB2F
100
AcDbXrecord
340
0
  0
XRECORD
  5
CB48
102
{ACAD_REACTORS
330
CB2F
102
}
330
CB2F
100
AcDbXrecord
 70
     0
  0
XRECORD
  5
CB49
102
{ACAD_REACTORS
330
CB2F
102
}
330
CB2F
100
AcDbXrecord
340
0
  0
XRECORD
  5
CB4A
102
{ACAD_REACTORS
330
CB2F
102
}
330
CB2F
100
AcDbXrecord
 10
0.0
 20
0.0
 30
0.0
  0
XRECORD
  5
CB4B
102
{ACAD_REACTORS
330
CB2F
102
}
330
CB2F
100
AcDbXrecord
 10
0.0
 20
0.0
 30
0.0
  0
XRECORD
  5
CB4C
102
{ACAD_REACTORS
330
CB2F
102
}
330
CB2F
100
AcDbXrecord
 10
0.0
 20
0.0
 30
0.0
  0
XRECORD
  5
CB4D
102
{ACAD_REACTORS
330
CB2F
102
}
330
CB2F
100
AcDbXrecord
 10
0.0
 20
0.0
 30
0.0
  0
XRECORD
  5
CB4E
102
{ACAD_REACTORS
330
CB2F
102
}
330
CB2F
100
AcDbXrecord
 10
0.0
 20
0.0
 30
0.0
  0
XRECORD
  5
CB4F
102
{ACAD_REACTORS
330
CB2F
102
}
330
CB2F
100
AcDbXrecord
 10
0.0
 20
0.0
 30
0.0
  0
LAYER_INDEX
  5
CB26
102
{ACAD_REACTORS
330
CB25
102
}
330
CB25
100
AcDbIndex
 40
2453152.37976265
100
AcDbLayerIndex
  8
0
360
CB27
 90
        0
  8
AM_0
360
CB28
 90
      196
  8
AM_5
360
CB29
 90
        7
  8
AM_7
360
CB2A
 90
        1
  8
AM_6
360
CB2B
 90
        1
  8
Defpoints
360
CB2C
 90
        0
  8
AM_11
360
CB2D
 90
        4
  0
XRECORD
  5
2D
102
{ACAD_REACTORS
330
2C
102
}
330
2C
100
AcDbXrecord
  1
VERSION
140
15.0
  1
PRODUCT
  2
AutoCAD Mechanical 2000
  0
IDBUFFER
  5
CB27
330
0
100
AcDbIdBuffer
  0
IDBUFFER
  5
CB28
330
0
100
AcDbIdBuffer
330
C192
330
C193
330
C194
330
C195
330
C196
330
C197
330
C198
330
C199
330
C19A
330
C19B
330
C19C
330
C19D
330
C19E
330
C19F
330
C1A0
330
C1A1
330
C1A2
330
C1A3
330
C1A4
330
C1A5
330
C1A6
330
C1A7
330
C1A8
330
C1A9
330
C1AA
330
C1AB
330
C1AC
330
C1AD
330
C1AE
330
C1AF
330
C1B0
330
C1B1
330
C1B2
330
C1B3
330
C1B4
330
C1B5
330
C1B6
330
C1B7
330
C1B8
330
C1B9
330
C1BA
330
C1BB
330
C1BC
330
C1BD
330
C1BE
330
C1BF
330
C1C0
330
C1C1
330
C1C2
330
C1C3
330
C1C4
330
C1C5
330
C1C6
330
C1C7
330
C1C8
330
C1C9
330
C1CA
330
C1CB
330
C1CC
330
C1CD
330
C1CE
330
C1CF
330
C1D0
330
C1D1
330
C1D2
330
C1D3
330
C1D4
330
C1D5
330
C1D6
330
C1D7
330
C1D8
330
C1D9
330
C1DA
330
C1DB
330
C1DC
330
C1DD
330
C1DE
330
C1DF
330
C1E0
330
C1E1
330
C1E2
330
C1E3
330
C1E4
330
C1E5
330
C0D1
330
C0D2
330
C0D3
330
C0D4
330
C0D5
330
C0D7
330
C0DB
330
C0DC
330
C0DD
330
C0DE
330
C0DF
330
C0E0
330
C0E1
330
C0E3
330
C0E4
330
C0E6
330
C0E7
330
C0ED
330
C0EE
330
C0EF
330
C0F0
330
C0F2
330
C0F3
330
C0F4
330
C0F5
330
C0F6
330
C0F7
330
C0F8
330
C0F9
330
C0FA
330
C0FB
330
C0FC
330
C0FD
330
C0FE
330
C0FF
330
C100
330
C101
330
C102
330
C103
330
C104
330
C105
330
C106
330
C107
330
C108
330
C109
330
C10A
330
C10B
330
C10C
330
C10D
330
C10E
330
C10F
330
C110
330
C111
330
C112
330
C113
330
C114
330
C115
330
C116
330
C117
330
C118
330
C119
330
C11A
330
C11B
330
C11C
330
C11D
330
C11E
330
C11F
330
C120
330
C121
330
C122
330
C123
330
C124
330
C125
330
C126
330
C127
330
C128
330
C129
330
C12A
330
C12B
330
C12C
330
C12D
330
C12E
330
C12F
330
C174
330
C175
330
C176
330
C177
330
C179
330
C17A
330
C17B
330
C17C
330
C17D
330
C17E
330
C17F
330
C180
330
C181
330
C182
330
C183
330
C184
330
C185
330
C186
330
C187
330
C188
330
C189
330
C18A
330
C18B
330
C18C
330
C18D
330
C18E
330
C18F
330
C190
330
C191
  0
IDBUFFER
  5
CB29
330
0
100
AcDbIdBuffer
330
C353
330
C3E3
330
C46F
330
C508
330
C5DA
330
C66F
330
C711
  0
IDBUFFER
  5
CB2A
330
0
100
AcDbIdBuffer
330
C0E2
  0
IDBUFFER
  5
CB2B
330
0
100
AcDbIdBuffer
330
388D
  0
IDBUFFER
  5
CB2C
330
0
100
AcDbIdBuffer
  0
IDBUFFER
  5
CB2D
330
0
100
AcDbIdBuffer
330
C337
330
C33F
330
C343
330
C34B
  0
ENDSEC
  0
EOF
