  0
SECTION
  2
HEADER
  9
$ACADVER
  1
AC1014
  9
$ACADMAINTVER
 70
     9
  9
$DWGCODEPAGE
  3
ANSI_932
  9
$INSBASE
 10
0.0
 20
0.0
 30
0.0
  9
$EXTMIN
 10
-188.1999999999963
 20
-71.50000000000007
 30
-0.00000001
  9
$EXTMAX
 10
14.99999999999982
 20
43.20000000000013
 30
0.00000001
  9
$LIMMIN
 10
-198.8773780341193
 20
-121.0789634841187
  9
$LIMMAX
 10
105.9136208073521
 20
100.896905834407
  9
$ORTHOMODE
 70
     0
  9
$REGENMODE
 70
     1
  9
$FILLMODE
 70
     1
  9
$QTEXTMODE
 70
     0
  9
$MIRRTEXT
 70
     0
  9
$DRAGMODE
 70
     2
  9
$LTSCALE
 40
1.0
  9
$OSMODE
 70
    55
  9
$ATTMODE
 70
     1
  9
$TEXTSIZE
 40
2.5
  9
$TRACEWID
 40
1.0
  9
$TEXTSTYLE
  7
STANDARD
  9
$CLAYER
  8
AM_0
  9
$CELTYPE
  6
BYLAYER
  9
$CECOLOR
 62
   256
  9
$CELTSCALE
 40
1.0
  9
$DELOBJ
 70
     1
  9
$DISPSILH
 70
     0
  9
$DIMSCALE
 40
0.5
  9
$DIMASZ
 40
2.5
  9
$DIMEXO
 40
1.0
  9
$DIMDLI
 40
12.0
  9
$DIMRND
 40
0.0
  9
$DIMDLE
 40
0.0
  9
$DIMEXE
 40
1.0
  9
$DIMTP
 40
0.1
  9
$DIMTM
 40
0.1
  9
$DIMTXT
 40
3.2
  9
$DIMCEN
 40
0.0
  9
$DIMTSZ
 40
0.0
  9
$DIMTOL
 70
     0
  9
$DIMLIM
 70
     0
  9
$DIMTIH
 70
     0
  9
$DIMTOH
 70
     0
  9
$DIMSE1
 70
     0
  9
$DIMSE2
 70
     0
  9
$DIMTAD
 70
     3
  9
$DIMZIN
 70
     8
  9
$DIMBLK
  1
OPEN30
  9
$DIMASO
 70
     1
  9
$DIMSHO
 70
     1
  9
$DIMPOST
  1

  9
$DIMAPOST
  1
"
  9
$DIMALT
 70
     0
  9
$DIMALTD
 70
     2
  9
$DIMALTF
 40
0.0393701
  9
$DIMLFAC
 40
1.0
  9
$DIMTOFL
 70
     1
  9
$DIMTVP
 40
0.0
  9
$DIMTIX
 70
     0
  9
$DIMSOXD
 70
     0
  9
$DIMSAH
 70
     0
  9
$DIMBLK1
  1

  9
$DIMBLK2
  1

  9
$DIMSTYLE
  2
AM_JIS
  9
$DIMCLRD
 70
   256
  9
$DIMCLRE
 70
   256
  9
$DIMCLRT
 70
     2
  9
$DIMTFAC
 40
0.71
  9
$DIMGAP
 40
1.5
  9
$DIMJUST
 70
     0
  9
$DIMSD1
 70
     0
  9
$DIMSD2
 70
     0
  9
$DIMTOLJ
 70
     0
  9
$DIMTZIN
 70
     0
  9
$DIMALTZ
 70
     0
  9
$DIMALTTZ
 70
     0
  9
$DIMFIT
 70
     3
  9
$DIMUPT
 70
     0
  9
$DIMUNIT
 70
     2
  9
$DIMDEC
 70
     3
  9
$DIMTDEC
 70
     3
  9
$DIMALTU
 70
     2
  9
$DIMALTTD
 70
     2
  9
$DIMTXSTY
  7
ASAMI
  9
$DIMAUNIT
 70
     0
  9
$LUNITS
 70
     2
  9
$LUPREC
 70
     2
  9
$SKETCHINC
 40
1.0
  9
$FILLETRAD
 40
0.4
  9
$AUNITS
 70
     0
  9
$AUPREC
 70
     0
  9
$MENU
  1
.
  9
$ELEVATION
 40
0.0
  9
$PELEVATION
 40
0.0
  9
$THICKNESS
 40
0.0
  9
$LIMCHECK
 70
     1
  9
$BLIPMODE
 70
     0
  9
$CHAMFERA
 40
1.0
  9
$CHAMFERB
 40
1.0
  9
$CHAMFERC
 40
20.0
  9
$CHAMFERD
 40
0.0
  9
$SKPOLY
 70
     0
  9
$TDCREATE
 40
2452802.716478761
  9
$TDUPDATE
 40
2453152.375802766
  9
$TDINDWG
 40
0.9413604282
  9
$TDUSRTIMER
 40
0.9413604282
  9
$USRTIMER
 70
     1
  9
$ANGBASE
 50
0.0
  9
$ANGDIR
 70
     0
  9
$PDMODE
 70
     0
  9
$PDSIZE
 40
0.0
  9
$PLINEWID
 40
0.0
  9
$COORDS
 70
     1
  9
$SPLFRAME
 70
     0
  9
$SPLINETYPE
 70
     6
  9
$SPLINESEGS
 70
     8
  9
$ATTDIA
 70
     1
  9
$ATTREQ
 70
     1
  9
$HANDLING
 70
 12289
  9
$HANDSEED
  5
D451
  9
$SURFTAB1
 70
     6
  9
$SURFTAB2
 70
     6
  9
$SURFTYPE
 70
     6
  9
$SURFU
 70
     6
  9
$SURFV
 70
     6
  9
$UCSNAME
  2

  9
$UCSORG
 10
-0.0000000000002682
 20
0.000000000000161
 30
0.0
  9
$UCSXDIR
 10
1.0
 20
0.000000000000002
 30
0.0
  9
$UCSYDIR
 10
-0.000000000000002
 20
1.0
 30
0.0
  9
$PUCSNAME
  2

  9
$PUCSORG
 10
0.0
 20
0.0
 30
0.0
  9
$PUCSXDIR
 10
1.0
 20
0.0
 30
0.0
  9
$PUCSYDIR
 10
0.0
 20
1.0
 30
0.0
  9
$USERI1
 70
     0
  9
$USERI2
 70
     0
  9
$USERI3
 70
     0
  9
$USERI4
 70
     0
  9
$USERI5
 70
     0
  9
$USERR1
 40
0.0
  9
$USERR2
 40
0.0
  9
$USERR3
 40
0.0
  9
$USERR4
 40
0.0
  9
$USERR5
 40
0.0
  9
$WORLDVIEW
 70
     1
  9
$SHADEDGE
 70
     3
  9
$SHADEDIF
 70
    70
  9
$TILEMODE
 70
     1
  9
$MAXACTVP
 70
    64
  9
$PINSBASE
 10
0.0
 20
0.0
 30
0.0
  9
$PLIMCHECK
 70
     0
  9
$PEXTMIN
 10
1.000000000000000E+20
 20
1.000000000000000E+20
 30
1.000000000000000E+20
  9
$PEXTMAX
 10
-1.000000000000000E+20
 20
-1.000000000000000E+20
 30
-1.000000000000000E+20
  9
$PLIMMIN
 10
0.0
 20
0.0
  9
$PLIMMAX
 10
841.0
 20
594.0
  9
$UNITMODE
 70
     0
  9
$VISRETAIN
 70
     1
  9
$PLINEGEN
 70
     0
  9
$PSLTSCALE
 70
     0
  9
$TREEDEPTH
 70
  3020
  9
$PICKSTYLE
 70
     0
  9
$CMLSTYLE
  2
STANDARD
  9
$CMLJUST
 70
     0
  9
$CMLSCALE
 40
20.0
  9
$PROXYGRAPHICS
 70
     1
  9
$MEASUREMENT
 70
     1
  0
ENDSEC
  0
SECTION
  2
CLASSES
  0
CLASS
  1
ACDBDICTIONARYWDFLT
  2
AcDbDictionaryWithDefault
  3
AutoCAD 2000
 90
        0
280
     0
281
     0
  0
CLASS
  1
ACDBPLACEHOLDER
  2
AcDbPlaceHolder
  3
AutoCAD 2000
 90
        0
280
     0
281
     0
  0
CLASS
  1
LAYOUT
  2
AcDbLayout
  3
AutoCAD 2000
 90
        0
280
     0
281
     0
  0
CLASS
  1
AMGSETTINGSOBJ
  2
AmgSettingsObj
  3
"AcadM|Product Description: AutoCAD Mechanical 2000|Company: Autodesk"
 90
        0
280
     0
281
     0
  0
CLASS
  1
ACME_DOCUMENT
  2
AcMeDbDoc
  3
AcMeServices
 90
        0
280
     0
281
     0
  0
CLASS
  1
ACMESCOPE
  2
AcMeScope
  3
AcMeServices
 90
        0
280
     0
281
     0
  0
CLASS
  1
ACMECOMMANDHISTORY
  2
AcMeCommandHistory
  3
AcMeServices
 90
        0
280
     0
281
     0
  0
CLASS
  1
DICTIONARYVAR
  2
AcDbDictionaryVar
  3
AutoCAD 2000
 90
        0
280
     0
281
     0
  0
CLASS
  1
ACIMSYSVARMAN
  2
AcImSysVarManager
  3
AcMeServices
 90
        0
280
     0
281
     0
  0
CLASS
  1
ACIMREALSYSVAR
  2
AcImRealSysVar
  3
AcMeServices
 90
        0
280
     0
281
     0
  0
CLASS
  1
ACIMINTSYSVAR
  2
AcImIntSysVar
  3
AcMeServices
 90
        0
280
     0
281
     0
  0
CLASS
  1
ACMEDRAWINGMAN
  2
AcMeDrawingMan
  3
AcMeServices
 90
        0
280
     0
281
     0
  0
CLASS
  1
ACMEVIEW
  2
AcMeView
  3
AcMeServices
 90
        0
280
     0
281
     0
  0
CLASS
  1
ACDBENTITYCACHE
  2
AcMeEntityCache
  3
AcMeServices
 90
        0
280
     0
281
     0
  0
CLASS
  1
GSMANAGER
  2
AcMeGSManager
  3
AcMeServices
 90
        0
280
     0
281
     0
  0
CLASS
  1
AmdtInternalReactor
  2
AmdtInternalReactor
  3
AcMeServices
 90
        0
280
     0
281
     0
  0
CLASS
  1
ACMESTATEMGR
  2
AcMeStateMgr
  3
AcMeServices
 90
        0
280
     0
281
     0
  0
CLASS
  1
ACME_DATABASE
  2
AcMeDbDatabase
  3
AcMeServices
 90
        0
280
     0
281
     0
  0
CLASS
  1
ACRFINSADJUSTERMGR
  2
AcRfInsAdjusterMgr
  3
AcMeServices
 90
        0
280
     0
281
     0
  0
CLASS
  1
ACMDATADICTIONARY
  2
AcmDataDictionary
  3
"AcmSymBB|Product Description: AutoCAD Mechanical 2000|Company: Autodesk"
 90
        0
280
     0
281
     0
  0
CLASS
  1
ACMDATAENTRYBLOCK
  2
AcmDataEntryBlock
  3
"AcmSymBB|Product Description: AutoCAD Mechanical 2000|Company: Autodesk"
 90
        0
280
     0
281
     0
  0
CLASS
  1
AMGOBJPROPCFG
  2
AmgObjPropCfg
  3
"AmgLay|Product Description: AutoCAD Mechanical 2000|Company: Autodesk"
 90
        1
280
     0
281
     0
  0
CLASS
  1
ACAMGFILTERDAT
  2
AcAmgFilterDat
  3
"AcadM|Product Description: AutoCAD Mechanical 2000|Company: Autodesk"
 90
        0
280
     0
281
     0
  0
CLASS
  1
LAYER_INDEX
  2
AcDbLayerIndex
  3
AutoCAD 2000
 90
        0
280
     0
281
     0
  0
CLASS
  1
IDBUFFER
  2
AcDbIdBuffer
  3
AutoCAD 2000
 90
        0
280
     0
281
     0
  0
CLASS
  1
ACIMSTRSYSVAR
  2
AcImStrSysVar
  3
AcMeServices
 90
        0
280
     0
281
     0
  0
CLASS
  1
ACMSTANDARDJIS
  2
AcmStandardJIS
  3
"AcmSymBB|Product Description: AutoCAD Mechanical 2000|Company: Autodesk"
 90
        0
280
     0
281
     0
  0
CLASS
  1
ACMSURFSTANDARDJIS
  2
AcmSurfTextStdJIS
  3
"AcmSymBB|Product Description: AutoCAD Mechanical 2000|Company: Autodesk"
 90
        0
280
     0
281
     0
  0
CLASS
  1
ACMFCFSTANDARDJIS
  2
AcmFCFStdJIS
  3
"AcmSymBB|Product Description: AutoCAD Mechanical 2000|Company: Autodesk"
 90
        0
280
     0
281
     0
  0
CLASS
  1
ACMWELDSTANDARDJIS
  2
AcmWeldingStdJIS
  3
"AcmSymBB|Product Description: AutoCAD Mechanical 2000|Company: Autodesk"
 90
        0
280
     0
281
     0
  0
CLASS
  1
ACMIDSTANDARDJIS
  2
AcmIdStdJIS
  3
"AcmSymBB|Product Description: AutoCAD Mechanical 2000|Company: Autodesk"
 90
        0
280
     0
281
     0
  0
CLASS
  1
ACMDATUMSTANDARDJIS
  2
AcmDatumStdJIS
  3
"AcmSymBB|Product Description: AutoCAD Mechanical 2000|Company: Autodesk"
 90
        0
280
     0
281
     0
  0
CLASS
  1
ACMBOMSTANDARDJIS
  2
AcmBOMStdJIS
  3
"AcmSymBB|Product Description: AutoCAD Mechanical 2000|Company: Autodesk"
 90
        0
280
     0
281
     0
  0
CLASS
  1
ACMSTANDARDANSI
  2
AcmStandardANSI
  3
"AcmSymBB|Product Description: AutoCAD Mechanical 2000|Company: Autodesk"
 90
        0
280
     0
281
     0
  0
CLASS
  1
ACMSURFSTANDARDANSI
  2
AcmSurfTextStdANSI
  3
"AcmSymBB|Product Description: AutoCAD Mechanical 2000|Company: Autodesk"
 90
        0
280
     0
281
     0
  0
CLASS
  1
ACMFCFSTANDARDANSI
  2
AcmFCFStdANSI
  3
"AcmSymBB|Product Description: AutoCAD Mechanical 2000|Company: Autodesk"
 90
        0
280
     0
281
     0
  0
CLASS
  1
ACMWELDSTANDARDANSI
  2
AcmWeldingStdANSI
  3
"AcmSymBB|Product Description: AutoCAD Mechanical 2000|Company: Autodesk"
 90
        0
280
     0
281
     0
  0
CLASS
  1
ACMIDSTANDARDANSI
  2
AcmIdStdANSI
  3
"AcmSymBB|Product Description: AutoCAD Mechanical 2000|Company: Autodesk"
 90
        0
280
     0
281
     0
  0
CLASS
  1
ACMDATUMSTANDARDANSI
  2
AcmDatumStdANSI
  3
"AcmSymBB|Product Description: AutoCAD Mechanical 2000|Company: Autodesk"
 90
        0
280
     0
281
     0
  0
CLASS
  1
ACMBOMSTANDARDANSI
  2
AcmBOMStdANSI
  3
"AcmSymBB|Product Description: AutoCAD Mechanical 2000|Company: Autodesk"
 90
        0
280
     0
281
     0
  0
CLASS
  1
ACMSTANDARDBSI
  2
AcmStandardBSI
  3
"AcmSymBB|Product Description: AutoCAD Mechanical 2000|Company: Autodesk"
 90
        0
280
     0
281
     0
  0
CLASS
  1
ACMSURFSTANDARDBSI
  2
AcmSurfTextStdBSI
  3
"AcmSymBB|Product Description: AutoCAD Mechanical 2000|Company: Autodesk"
 90
        0
280
     0
281
     0
  0
CLASS
  1
ACMFCFSTANDARDBSI
  2
AcmFCFStdBSI
  3
"AcmSymBB|Product Description: AutoCAD Mechanical 2000|Company: Autodesk"
 90
        0
280
     0
281
     0
  0
CLASS
  1
ACMWELDSTANDARDBSI
  2
AcmWeldingStdBSI
  3
"AcmSymBB|Product Description: AutoCAD Mechanical 2000|Company: Autodesk"
 90
        0
280
     0
281
     0
  0
CLASS
  1
ACMIDSTANDARDBSI
  2
AcmIdStdBSI
  3
"AcmSymBB|Product Description: AutoCAD Mechanical 2000|Company: Autodesk"
 90
        0
280
     0
281
     0
  0
CLASS
  1
ACMDATUMSTANDARDBSI
  2
AcmDatumStdBSI
  3
"AcmSymBB|Product Description: AutoCAD Mechanical 2000|Company: Autodesk"
 90
        0
280
     0
281
     0
  0
CLASS
  1
ACMBOMSTANDARDBSI
  2
AcmBOMStdBSI
  3
"AcmSymBB|Product Description: AutoCAD Mechanical 2000|Company: Autodesk"
 90
        0
280
     0
281
     0
  0
CLASS
  1
STDPART2D
  2
AmgStdPart
  3
"AmgStdPart|Product Description: AutoCAD Mechanical 2000|Company: Autodesk"
 90
     1023
280
     0
281
     1
  0
CLASS
  1
PLOTSETTINGS
  2
AcDbPlotSettings
  3
AutoCAD 2000
 90
        0
280
     0
281
     0
  0
CLASS
  1
LONG_TRANSACTION
  2
AcDbLongTransaction
  3
AutoCAD 2000
 90
        0
280
     0
281
     0
  0
CLASS
  1
LWPOLYLINE
  2
AcDbPolyline
  3
AutoCAD 2000
 90
        0
280
     0
281
     1
  0
CLASS
  1
HATCH
  2
AcDbHatch
  3
AutoCAD 2000
 90
        0
280
     0
281
     1
  0
CLASS
  1
XRECORD
  2
AcDbXrecord
  3
AutoCAD 2000
 90
        0
280
     0
281
     0
  0
ENDSEC
  0
SECTION
  2
TABLES
  0
TABLE
  2
VPORT
  5
8
330
0
100
AcDbSymbolTable
 70
     3
  0
VPORT
  5
D3E7
330
8
100
AcDbSymbolTableRecord
100
AcDbViewportTableRecord
  2
*ACTIVE
 70
     0
 10
0.0
 20
0.0
 11
1.0
 21
1.0
 12
-81.19374803483578
 22
-11.29684410259508
 13
0.0
 23
0.0
 14
2.5
 24
2.5
 15
10.0
 25
10.0
 16
0.0
 26
0.0
 36
1.0
 17
0.0
 27
0.0
 37
0.0
 40
161.230223982179
 41
1.56570841889117
 42
50.0
 43
0.0
 44
0.0
 50
0.0
 51
0.0
 71
     0
 72
   100
 73
     1
 74
     3
 75
     0
 76
     0
 77
     0
 78
     0
  0
ENDTAB
  0
TABLE
  2
LTYPE
  5
5
330
0
100
AcDbSymbolTable
 70
    10
  0
LTYPE
  5
14
330
5
100
AcDbSymbolTableRecord
100
AcDbLinetypeTableRecord
  2
BYBLOCK
 70
     0
  3

 72
    65
 73
     0
 40
0.0
  0
LTYPE
  5
15
330
5
100
AcDbSymbolTableRecord
100
AcDbLinetypeTableRecord
  2
BYLAYER
 70
     0
  3

 72
    65
 73
     0
 40
0.0
  0
LTYPE
  5
16
330
5
100
AcDbSymbolTableRecord
100
AcDbLinetypeTableRecord
  2
CONTINUOUS
 70
     0
  3
Solid line
 72
    65
 73
     0
 40
0.0
  0
LTYPE
  5
4B
330
5
100
AcDbSymbolTableRecord
100
AcDbLinetypeTableRecord
  2
AM_ISO02W050
 70
     0
  3
__ __ __ __ __ __ __ __ __ __ __ __ __ __ __
 72
    65
 73
     2
 40
7.5
 49
6.0
 74
     0
 49
-1.5
 74
     0
  0
LTYPE
  5
4C
330
5
100
AcDbSymbolTableRecord
100
AcDbLinetypeTableRecord
  2
AM_ISO08W050
 70
     0
  3
____ . ____ . ____ . ____ . ____ . ____ . ____
 72
    65
 73
     4
 40
18.0
 49
12.0
 74
     0
 49
-1.5
 74
     0
 49
3.0
 74
     0
 49
-1.5
 74
     0
  0
LTYPE
  5
4D
330
5
100
AcDbSymbolTableRecord
100
AcDbLinetypeTableRecord
  2
AM_ISO09W050
 70
     0
  3
_____ . . _____ . . _____ . . ____ .. ____
 72
    65
 73
     6
 40
22.5
 49
12.0
 74
     0
 49
-1.5
 74
     0
 49
3.0
 74
     0
 49
-1.5
 74
     0
 49
3.0
 74
     0
 49
-1.5
 74
     0
  0
LTYPE
  5
4E
330
5
100
AcDbSymbolTableRecord
100
AcDbLinetypeTableRecord
  2
AMCONSTR
 70
     0
  3
_______________________
 72
    65
 73
     2
 40
9999.0
 49
9999.0
 74
     0
 49
0.0
 74
     0
  0
LTYPE
  5
4F
330
5
100
AcDbSymbolTableRecord
100
AcDbLinetypeTableRecord
  2
AM_ISO02W050X2
 70
     0
  3
 _ _ _ _ _ _ _ _ _ _ _ _
 72
    65
 73
     2
 40
3.75
 49
3.0
 74
     0
 49
-0.75
 74
     0
  0
LTYPE
  5
50
330
5
100
AcDbSymbolTableRecord
100
AcDbLinetypeTableRecord
  2
AM_ISO08W050X2
 70
     0
  3
__ . __ . __ . __ . __ . __
 72
    65
 73
     4
 40
9.0
 49
6.0
 74
     0
 49
-0.75
 74
     0
 49
1.5
 74
     0
 49
-0.75
 74
     0
  0
LTYPE
  5
53
330
5
100
AcDbSymbolTableRecord
100
AcDbLinetypeTableRecord
  2
AMZIGZAG
 70
     0
  3
/\/-/\/-/\/-/\/-/\/-/\/
 72
    65
 73
     2
 40
11.00009999999999
 49
0.0001
 74
     4
 75
   135
340
52
 46
0.04
 50
0.0
 44
0.0
 45
0.0
 49
-11.0
 74
     0
  0
LTYPE
  5
166
330
5
100
AcDbSymbolTableRecord
100
AcDbLinetypeTableRecord
  2
ACJISTGL
 70
     0
  3
_ _ _ _ _
 72
    65
 73
     2
 40
3.0
 49
2.0
 74
     0
 49
-1.0
 74
     0
  0
LTYPE
  5
26A
330
5
100
AcDbSymbolTableRecord
100
AcDbLinetypeTableRecord
  2
ACJISTGB
 70
     0
  3
__ . . __ . .
 72
    65
 73
     6
 40
9.0
 49
4.0
 74
     0
 49
-1.0
 74
     0
 49
1.0
 74
     0
 49
-1.0
 74
     0
 49
1.0
 74
     0
 49
-1.0
 74
     0
  0
ENDTAB
  0
TABLE
  2
LAYER
  5
2
330
0
100
AcDbSymbolTable
 70
     7
  0
LAYER
  5
10
330
2
100
AcDbSymbolTableRecord
100
AcDbLayerTableRecord
  2
0
 70
     0
 62
     7
  6
CONTINUOUS
  0
LAYER
  5
3F9
330
2
100
AcDbSymbolTableRecord
100
AcDbLayerTableRecord
  2
AM_0
 70
     0
 62
     7
  6
CONTINUOUS
  0
LAYER
  5
BA4
330
2
100
AcDbSymbolTableRecord
100
AcDbLayerTableRecord
  2
AM_5
 70
     0
 62
     3
  6
CONTINUOUS
  0
LAYER
  5
BA6
330
2
100
AcDbSymbolTableRecord
100
AcDbLayerTableRecord
  2
AM_7
 70
     0
 62
     4
  6
AM_ISO08W050
  0
LAYER
  5
E64
330
2
100
AcDbSymbolTableRecord
100
AcDbLayerTableRecord
  2
AM_6
 70
     0
 62
     2
  6
CONTINUOUS
  0
LAYER
  5
F4D
330
2
100
AcDbSymbolTableRecord
100
AcDbLayerTableRecord
  2
DEFPOINTS
 70
     0
 62
     7
  6
CONTINUOUS
  0
LAYER
  5
4E80
330
2
100
AcDbSymbolTableRecord
100
AcDbLayerTableRecord
  2
AM_11
 70
     0
 62
     3
  6
AM_ISO09W050
  0
ENDTAB
  0
TABLE
  2
STYLE
  5
3
330
0
100
AcDbSymbolTable
 70
     5
  0
STYLE
  5
11
330
3
100
AcDbSymbolTableRecord
100
AcDbTextStyleTableRecord
  2
STANDARD
 70
     0
 40
0.0
 41
1.0
 50
0.0
 71
     0
 42
2.5
  3
simplex.shx
  4
EXTFONT.SHX
  0
STYLE
  5
52
330
3
100
AcDbSymbolTableRecord
100
AcDbTextStyleTableRecord
  2

 70
     1
 40
0.0
 41
1.0
 50
0.0
 71
     0
 42
2.5
  3
ltypeshp.shx
  4

  0
STYLE
  5
6B
330
3
100
AcDbSymbolTableRecord
100
AcDbTextStyleTableRecord
  2
ASAMI
 70
     0
 40
0.0
 41
1.0
 50
0.0
 71
     0
 42
2.5
  3
simplex.shx
  4
EXTFONT.SHX
  0
STYLE
  5
262
330
3
100
AcDbSymbolTableRecord
100
AcDbTextStyleTableRecord
  2
ACJISTS
 70
     0
 40
1.0
 41
1.0
 50
0.0
 71
     0
 42
2.5
  3
simplex.shx
  4
bigfont.shx
  0
STYLE
  5
269
330
3
100
AcDbSymbolTableRecord
100
AcDbTextStyleTableRecord
  2
ACJISGDT
 70
     0
 40
0.0
 41
1.0
 50
0.0
 71
     0
 42
2.5
  3
amgdtans.shx
  4

  0
ENDTAB
  0
TABLE
  2
VIEW
  5
6
330
0
100
AcDbSymbolTable
 70
     0
  0
ENDTAB
  0
TABLE
  2
UCS
  5
7
330
0
100
AcDbSymbolTable
 70
     0
  0
ENDTAB
  0
TABLE
  2
APPID
  5
9
330
0
100
AcDbSymbolTable
 70
    24
  0
APPID
  5
12
330
9
100
AcDbSymbolTableRecord
100
AcDbRegAppTableRecord
  2
ACAD
 70
     0
  0
APPID
  5
30
330
9
100
AcDbSymbolTableRecord
100
AcDbRegAppTableRecord
  2
MCAD_NO_VIS
 70
     0
  0
APPID
  5
31
330
9
100
AcDbSymbolTableRecord
100
AcDbRegAppTableRecord
  2
ACAD_TEMP_GRAPHIC
 70
     0
  0
APPID
  5
2C2
330
9
100
AcDbSymbolTableRecord
100
AcDbRegAppTableRecord
  2
GENIUS_GENDTOL_13
 70
     0
  0
APPID
  5
339
330
9
100
AcDbSymbolTableRecord
100
AcDbRegAppTableRecord
  2
GENIUS_GENODEF_13
 70
     0
  0
APPID
  5
33A
330
9
100
AcDbSymbolTableRecord
100
AcDbRegAppTableRecord
  2
GENIUS_GENOBJ-N-RSBK_13
 70
     0
  0
APPID
  5
33B
330
9
100
AcDbSymbolTableRecord
100
AcDbRegAppTableRecord
  2
GENIUS_GENOBJ-N-LIB_13
 70
     0
  0
APPID
  5
33C
330
9
100
AcDbSymbolTableRecord
100
AcDbRegAppTableRecord
  2
GENIUS_GENSCALE_13
 70
     0
  0
APPID
  5
378
330
9
100
AcDbSymbolTableRecord
100
AcDbRegAppTableRecord
  2
GENIUS_GENDIMSH_14
 70
     0
  0
APPID
  5
BB0
330
9
100
AcDbSymbolTableRecord
100
AcDbRegAppTableRecord
  2
GENIUS_GENOBJ-N-CEN_13
 70
     0
  0
APPID
  5
BB1
330
9
100
AcDbSymbolTableRecord
100
AcDbRegAppTableRecord
  2
GENIUS_GENFIL_13
 70
     0
  0
APPID
  5
BB2
330
9
100
AcDbSymbolTableRecord
100
AcDbRegAppTableRecord
  2
GENIUS_GENOBJ-N-CHA_13
 70
     0
  0
APPID
  5
1FAF
330
9
100
AcDbSymbolTableRecord
100
AcDbRegAppTableRecord
  2
GENIUS_GENOBJ-N-CRS_13
 70
     0
  0
APPID
  5
1FB0
330
9
100
AcDbSymbolTableRecord
100
AcDbRegAppTableRecord
  2
GENIUS_GENOENT_13
 70
     0
  0
APPID
  5
1FB1
330
9
100
AcDbSymbolTableRecord
100
AcDbRegAppTableRecord
  2
GENIUS_GENOREF_13
 70
     0
  0
APPID
  5
1FB2
330
9
100
AcDbSymbolTableRecord
100
AcDbRegAppTableRecord
  2
GENIUS_GENOLIS_13
 70
     0
  0
APPID
  5
1FB7
330
9
100
AcDbSymbolTableRecord
100
AcDbRegAppTableRecord
  2
GENIUS_GENOBJ-N-FIL_13
 70
     0
  0
APPID
  5
22A8
330
9
100
AcDbSymbolTableRecord
100
AcDbRegAppTableRecord
  2
GEVID1056506048
 70
     0
  0
APPID
  5
22A9
330
9
100
AcDbSymbolTableRecord
100
AcDbRegAppTableRecord
  2
GEVDC
 70
     0
  0
APPID
  5
22AC
330
9
100
AcDbSymbolTableRecord
100
AcDbRegAppTableRecord
  2
GENIUS_GENBH_13
 70
     0
  0
APPID
  5
22B8
330
9
100
AcDbSymbolTableRecord
100
AcDbRegAppTableRecord
  2
GENIUS_GENOBJ-NBEHI-BHF_13
 70
     0
  0
APPID
  5
22BA
330
9
100
AcDbSymbolTableRecord
100
AcDbRegAppTableRecord
  2
GENIUS_GENOBJ-NBEHI-BHB_13
 70
     0
  0
APPID
  5
35C9
330
9
100
AcDbSymbolTableRecord
100
AcDbRegAppTableRecord
  2
GENIUS_GENREC_14
 70
     0
  0
APPID
  5
35CA
330
9
100
AcDbSymbolTableRecord
100
AcDbRegAppTableRecord
  2
GENIUS_GENOBJ-N-REC_13
 70
     0
  0
ENDTAB
  0
TABLE
  2
DIMSTYLE
  5
A
330
0
100
AcDbSymbolTable
 70
     9
  0
DIMSTYLE
105
58
330
A
100
AcDbSymbolTableRecord
100
AcDbDimStyleTableRecord
  2
AM_JIS
 70
     0
  3

  4
"
  5
OPEN30
  6

  7

 40
1.0
 41
2.5
 42
1.0
 43
12.0
 44
1.0
 45
0.0
 46
0.0
 47
0.1
 48
0.1
140
3.2
141
0.0
142
0.0
143
0.0393701
144
1.0
145
0.0
146
0.71
147
1.5
 71
     0
 72
     0
 73
     0
 74
     0
 75
     0
 76
     0
 77
     3
 78
     8
170
     0
171
     2
172
     1
173
     0
174
     0
175
     0
176
   256
177
   256
178
     2
270
     2
271
     3
272
     3
273
     2
274
     2
340
6B
275
     0
280
     0
281
     0
282
     0
283
     0
284
     0
285
     0
286
     0
287
     3
288
     0
  0
DIMSTYLE
105
5F
330
A
100
AcDbSymbolTableRecord
100
AcDbDimStyleTableRecord
  2
AM_JIS$3
 70
     0
  3

  4
"
  5
OPEN30
  6

  7

 40
1.0
 41
2.5
 42
1.0
 43
10.0
 44
1.0
 45
0.0
 46
0.0
 47
0.1
 48
0.1
140
3.2
141
0.0
142
0.0
143
0.0393701
144
1.0
145
0.0
146
0.71
147
1.5
 71
     0
 72
     0
 73
     0
 74
     1
 75
     0
 76
     0
 77
     3
 78
     8
170
     0
171
     2
172
     0
173
     0
174
     0
175
     0
176
   256
177
   256
178
     2
270
     2
271
     2
272
     3
273
     2
274
     2
340
6B
275
     0
280
     0
281
     0
282
     0
283
     0
284
     0
285
     0
286
     0
287
     0
288
     1
  0
DIMSTYLE
105
60
330
A
100
AcDbSymbolTableRecord
100
AcDbDimStyleTableRecord
  2
AM_JIS$4
 70
     0
  3

  4
"
  5
OPEN30
  6

  7

 40
1.0
 41
2.5
 42
1.0
 43
10.0
 44
1.0
 45
0.0
 46
0.0
 47
0.1
 48
0.1
140
3.2
141
0.0
142
0.0
143
0.0393701
144
1.0
145
0.0
146
0.71
147
1.5
 71
     0
 72
     0
 73
     0
 74
     1
 75
     0
 76
     0
 77
     3
 78
     8
170
     0
171
     2
172
     0
173
     0
174
     0
175
     0
176
   256
177
   256
178
     2
270
     2
271
     2
272
     3
273
     2
274
     2
340
6B
275
     0
280
     0
281
     0
282
     0
283
     0
284
     0
285
     0
286
     0
287
     0
288
     1
  0
DIMSTYLE
105
61
330
A
100
AcDbSymbolTableRecord
100
AcDbDimStyleTableRecord
  2
AM_JIS$6
 70
     0
  3

  4
"
  5
OPEN30
  6

  7

 40
1.0
 41
2.5
 42
1.0
 43
10.0
 44
1.0
 45
0.0
 46
0.0
 47
0.1
 48
0.1
140
3.2
141
0.0
142
0.0
143
0.0393701
144
1.0
145
0.0
146
0.71
147
1.5
 71
     0
 72
     0
 73
     0
 74
     0
 75
     0
 76
     0
 77
     0
 78
     8
170
     0
171
     2
172
     1
173
     0
174
     0
175
     0
176
   256
177
   256
178
     2
270
     2
271
     2
272
     2
273
     2
274
     2
340
6B
275
     0
280
     0
281
     0
282
     0
283
     0
284
     0
285
     0
286
     0
287
     3
288
     0
  0
DIMSTYLE
105
62
330
A
100
AcDbSymbolTableRecord
100
AcDbDimStyleTableRecord
  2
AM_JIS$7
 70
     0
  3

  4
"
  5
OPEN30
  6

  7

 40
1.0
 41
2.5
 42
1.0
 43
10.0
 44
1.0
 45
0.0
 46
0.0
 47
0.1
 48
0.1
140
3.2
141
0.0
142
0.0
143
0.0393701
144
1.0
145
0.0
146
0.71
147
1.5
 71
     0
 72
     0
 73
     0
 74
     0
 75
     0
 76
     0
 77
     3
 78
     8
170
     0
171
     2
172
     1
173
     0
174
     0
175
     0
176
   256
177
   256
178
     2
270
     2
271
     2
272
     3
273
     2
274
     2
340
6B
275
     0
280
     0
281
     0
282
     0
283
     0
284
     0
285
     0
286
     0
287
     3
288
     0
  0
DIMSTYLE
105
63
330
A
100
AcDbSymbolTableRecord
100
AcDbDimStyleTableRecord
  2
AM_JIS$SF
 70
     0
  3

  4
"
  5
OPEN30
  6

  7

 40
1.0
 41
2.5
 42
1.0
 43
10.0
 44
1.0
 45
0.0
 46
0.0
 47
0.1
 48
0.1
140
3.2
141
0.0
142
0.0
143
0.0393701
144
1.0
145
0.0
146
0.71
147
1.5
 71
     0
 72
     0
 73
     0
 74
     0
 75
     1
 76
     1
 77
     3
 78
     8
170
     0
171
     2
172
     1
173
     0
174
     0
175
     0
176
   256
177
   256
178
     2
270
     2
271
     2
272
     2
273
     2
274
     2
340
6B
275
     0
280
     0
281
     0
282
     0
283
     0
284
     0
285
     0
286
     0
287
     3
288
     0
  0
DIMSTYLE
105
68
330
A
100
AcDbSymbolTableRecord
100
AcDbDimStyleTableRecord
  2
AM_JIS$SH
 70
     0
  3

  4
"
  5

  6
GENAXEH
  7
OPEN30
 40
1.0
 41
2.5
 42
1.0
 43
10.0
 44
1.0
 45
0.0
 46
0.0
 47
0.1
 48
0.1
140
3.2
141
0.0
142
0.0
143
0.0393701
144
2.0
145
0.0
146
0.71
147
1.5
 71
     0
 72
     0
 73
     0
 74
     0
 75
     1
 76
     1
 77
     3
 78
     8
170
     0
171
     2
172
     1
173
     1
174
     0
175
     0
176
   256
177
   256
178
     2
270
     2
271
     2
272
     2
273
     2
274
     2
340
6B
275
     0
280
     0
281
     0
282
     0
283
     0
284
     0
285
     0
286
     0
287
     3
288
     0
  0
DIMSTYLE
105
B34
330
A
100
AcDbSymbolTableRecord
100
AcDbDimStyleTableRecord
  2
AM_JIS$2
 70
     0
  3

  4
"
  5
OPEN30
  6

  7

 40
1.0
 41
2.5
 42
1.0
 43
12.0
 44
1.0
 45
0.0
 46
0.0
 47
0.1
 48
0.1
140
3.2
141
0.0
142
0.0
143
0.0393701
144
1.0
145
0.0
146
0.71
147
1.5
 71
     0
 72
     0
 73
     0
 74
     0
 75
     0
 76
     0
 77
     3
 78
     8
170
     0
171
     2
172
     1
173
     0
174
     0
175
     0
176
   256
177
   256
178
     2
270
     2
271
     3
272
     3
273
     2
274
     2
340
6B
275
     0
280
     0
281
     0
282
     0
283
     0
284
     0
285
     0
286
     0
287
     3
288
     0
  0
DIMSTYLE
105
3B48
102
{ACAD_REACTORS
330
CE65
330
CD4D
330
CDD9
330
CCC1
330
CBF8
330
CF27
330
CFD2
102
}
330
A
100
AcDbSymbolTableRecord
100
AcDbDimStyleTableRecord
  2
AM_JIS$0
 70
     0
  3

  4
"
  5
OPEN30
  6

  7

 40
1.0
 41
2.5
 42
0.0
 43
10.0
 44
1.0
 45
0.0
 46
0.0
 47
0.1
 48
0.1000000001
140
3.799999999999999
141
0.0
142
0.0
143
0.0393701
144
1.0
145
0.0
146
0.71
147
1.5
 71
     0
 72
     0
 73
     0
 74
     0
 75
     0
 76
     0
 77
     3
 78
     1
170
     0
171
     2
172
     1
173
     0
174
     0
175
     0
176
     3
177
     3
178
     2
270
     2
271
     2
272
     2
273
     2
274
     2
340
11
275
     1
280
     0
281
     0
282
     0
283
     0
284
     8
285
     0
286
     0
287
     0
288
     0
  0
ENDTAB
  0
TABLE
  2
BLOCK_RECORD
  5
1
330
0
100
AcDbSymbolTable
 70
    12
  0
BLOCK_RECORD
  5
1F
102
{ACAD_XDICTIONARY
360
74
102
}
330
1
100
AcDbSymbolTableRecord
100
AcDbBlockTableRecord
  2
*MODEL_SPACE
  0
BLOCK_RECORD
  5
101
102
{ACAD_XDICTIONARY
360
D410
102
}
330
1
100
AcDbSymbolTableRecord
100
AcDbBlockTableRecord
  2
*PAPER_SPACE
  0
BLOCK_RECORD
  5
59
330
1
100
AcDbSymbolTableRecord
100
AcDbBlockTableRecord
  2
_OPEN30
  0
BLOCK_RECORD
  5
64
330
1
100
AcDbSymbolTableRecord
100
AcDbBlockTableRecord
  2
GENAXEH
  0
BLOCK_RECORD
  5
CBF9
330
1
100
AcDbSymbolTableRecord
100
AcDbBlockTableRecord
  2
*D5
  0
BLOCK_RECORD
  5
CCC2
330
1
100
AcDbSymbolTableRecord
100
AcDbBlockTableRecord
  2
*D6
  0
BLOCK_RECORD
  5
CD4E
330
1
100
AcDbSymbolTableRecord
100
AcDbBlockTableRecord
  2
*D7
  0
BLOCK_RECORD
  5
CDDA
330
1
100
AcDbSymbolTableRecord
100
AcDbBlockTableRecord
  2
*D8
  0
BLOCK_RECORD
  5
CE66
330
1
100
AcDbSymbolTableRecord
100
AcDbBlockTableRecord
  2
*D9
  0
BLOCK_RECORD
  5
CF28
330
1
100
AcDbSymbolTableRecord
100
AcDbBlockTableRecord
  2
*D10
  0
BLOCK_RECORD
  5
CFD3
330
1
100
AcDbSymbolTableRecord
100
AcDbBlockTableRecord
  2
*D11
  0
ENDTAB
  0
ENDSEC
  0
SECTION
  2
BLOCKS
  0
BLOCK
  5
20
330
1F
100
AcDbEntity
  8
0
100
AcDbBlockBegin
  2
*MODEL_SPACE
 70
     0
 10
0.0
 20
0.0
 30
0.0
  3
*MODEL_SPACE
  1

  0
ENDBLK
  5
21
330
1F
100
AcDbEntity
  8
0
100
AcDbBlockEnd
  0
BLOCK
  5
103
330
101
100
AcDbEntity
 67
     1
  8
0
100
AcDbBlockBegin
  2
*PAPER_SPACE
 70
     0
 10
0.0
 20
0.0
 30
0.0
  3
*PAPER_SPACE
  1

  0
ENDBLK
  5
104
330
101
100
AcDbEntity
 67
     1
  8
0
100
AcDbBlockEnd
  0
BLOCK
  5
5D
330
59
100
AcDbEntity
  8
0
100
AcDbBlockBegin
  2
_OPEN30
 70
     0
 10
0.0
 20
0.0
 30
0.0
  3
_OPEN30
  1

  0
LINE
  5
5A
330
59
100
AcDbEntity
  8
0
 62
     0
100
AcDbLine
 10
-1.0
 20
0.26794919
 30
0.0
 11
0.0
 21
0.0
 31
0.0
  0
LINE
  5
5B
330
59
100
AcDbEntity
  8
0
 62
     0
100
AcDbLine
 10
0.0
 20
0.0
 30
0.0
 11
-1.0
 21
-0.26794919
 31
0.0
  0
LINE
  5
5C
330
59
100
AcDbEntity
  8
0
 62
     0
100
AcDbLine
 10
0.0
 20
0.0
 30
0.0
 11
-1.0
 21
0.0
 31
0.0
  0
ENDBLK
  5
5E
330
59
100
AcDbEntity
  8
0
100
AcDbBlockEnd
  0
BLOCK
  5
66
330
64
100
AcDbEntity
  8
0
100
AcDbBlockBegin
  2
GENAXEH
 70
     0
 10
0.0
 20
0.0
 30
0.0
  3
GENAXEH
  1

  0
LINE
  5
65
330
64
100
AcDbEntity
  8
0
100
AcDbLine
 10
-1.0
 20
0.0
 30
0.0
 11
1.0
 21
0.0
 31
0.0
  0
ENDBLK
  5
67
330
64
100
AcDbEntity
  8
0
100
AcDbBlockEnd
  0
BLOCK
  5
CC03
330
CBF9
100
AcDbEntity
  8
0
100
AcDbBlockBegin
  2
*D5
 70
     1
 10
0.0
 20
0.0
 30
0.0
  3
*D5
  1

  0
LINE
  5
D412
330
CBF9
100
AcDbEntity
  8
AM_5
100
AcDbLine
 10
-10.00000000000045
 20
26.00000000000012
 30
0.0
 11
-10.00000000000045
 21
40.00000000000014
 31
0.0
  0
LINE
  5
D413
330
CBF9
100
AcDbEntity
  8
AM_5
100
AcDbLine
 10
-0.0000000000004202
 20
26.0000000000002
 30
0.0
 11
-0.0000000000004228
 21
40.00000000000014
 31
0.0
  0
LINE
  5
D414
330
CBF9
100
AcDbEntity
  8
AM_5
100
AcDbLine
 10
-7.500000000000452
 20
39.00000000000014
 30
0.0
 11
-2.500000000000422
 21
39.00000000000014
 31
0.0
  0
INSERT
  5
D415
330
CBF9
100
AcDbEntity
  8
AM_5
100
AcDbBlockReference
  2
_OPEN30
 10
-10.00000000000045
 20
39.00000000000014
 30
0.0
 41
2.5
 42
2.5
 43
2.5
 50
180.0
  0
INSERT
  5
D416
330
CBF9
100
AcDbEntity
  8
AM_5
100
AcDbBlockReference
  2
_OPEN30
 10
-0.0000000000004226
 20
39.00000000000014
 30
0.0
 41
2.5
 42
2.5
 43
2.5
  0
MTEXT
  5
D417
330
CBF9
100
AcDbEntity
  8
AM_5
 62
     2
100
AcDbMText
 10
-5.000000000000438
 20
41.60000000000014
 30
0.0
 40
3.2
 41
0.0
 71
     5
 72
     1
  1
10
  7
ASAMI
  0
POINT
  5
D418
330
CBF9
100
AcDbEntity
  8
DEFPOINTS
 62
     0
100
AcDbPoint
 10
-10.00000000000039
 20
25.00000000000014
 30
0.0
  0
POINT
  5
D419
330
CBF9
100
AcDbEntity
  8
DEFPOINTS
 62
     0
100
AcDbPoint
 10
-0.0000000000003695
 20
25.00000000000019
 30
0.0
  0
POINT
  5
D41A
330
CBF9
100
AcDbEntity
  8
DEFPOINTS
 62
     0
100
AcDbPoint
 10
-0.0000000000003438
 20
39.00000000000014
 30
0.0
  0
ENDBLK
  5
CC04
330
CBF9
100
AcDbEntity
  8
0
100
AcDbBlockEnd
  0
BLOCK
  5
CCCC
330
CCC2
100
AcDbEntity
  8
0
100
AcDbBlockBegin
  2
*D6
 70
     1
 10
0.0
 20
0.0
 30
0.0
  3
*D6
  1

  0
LINE
  5
D41B
330
CCC2
100
AcDbEntity
  8
AM_5
100
AcDbLine
 10
0.999999999999575
 20
25.00000000000017
 30
0.0
 11
14.99999999999972
 21
25.00000000000019
 31
0.0
  0
LINE
  5
D41C
330
CCC2
100
AcDbEntity
  8
AM_5
100
AcDbLine
 10
0.999999999999828
 20
-24.9999999999998
 30
0.0
 11
14.99999999999982
 21
-24.99999999999977
 31
0.0
  0
LINE
  5
D41D
330
CCC2
100
AcDbEntity
  8
AM_5
100
AcDbLine
 10
13.99999999999973
 20
22.50000000000019
 30
0.0
 11
13.99999999999981
 21
-22.49999999999977
 31
0.0
  0
INSERT
  5
D41E
330
CCC2
100
AcDbEntity
  8
AM_5
100
AcDbBlockReference
  2
_OPEN30
 10
13.99999999999972
 20
25.00000000000019
 30
0.0
 41
2.5
 42
2.5
 43
2.5
 50
90.0000000000001
  0
INSERT
  5
D41F
330
CCC2
100
AcDbEntity
  8
AM_5
100
AcDbBlockReference
  2
_OPEN30
 10
13.99999999999982
 20
-24.99999999999977
 30
0.0
 41
2.5
 42
2.5
 43
2.5
 50
270.0000000000001
  0
MTEXT
  5
D420
330
CCC2
100
AcDbEntity
  8
AM_5
 62
     2
100
AcDbMText
 10
11.39999999999977
 20
0.0000000000002072
 30
0.0
 40
3.2
 41
0.0
 71
     5
 72
     1
  1
%%c50
  7
ASAMI
 11
-0.000000000000002
 21
1.0
 31
0.0
  0
POINT
  5
D421
330
CCC2
100
AcDbEntity
  8
DEFPOINTS
 62
     0
100
AcDbPoint
 10
-0.0000000000003695
 20
25.00000000000017
 30
0.0
  0
POINT
  5
D422
330
CCC2
100
AcDbEntity
  8
DEFPOINTS
 62
     0
100
AcDbPoint
 10
-0.0000000000002274
 20
-24.9999999999998
 30
0.0
  0
POINT
  5
D423
330
CCC2
100
AcDbEntity
  8
DEFPOINTS
 62
     0
100
AcDbPoint
 10
13.99999999999977
 20
-24.9999999999998
 30
0.0
  0
ENDBLK
  5
CCCD
330
CCC2
100
AcDbEntity
  8
0
100
AcDbBlockEnd
  0
BLOCK
  5
CD58
330
CD4E
100
AcDbEntity
  8
0
100
AcDbBlockBegin
  2
*D7
 70
     1
 10
0.0
 20
0.0
 30
0.0
  3
*D7
  1

  0
LINE
  5
D424
330
CD4E
100
AcDbEntity
  8
AM_5
100
AcDbLine
 10
-0.0000000000001749
 20
-25.99999999999983
 30
0.0
 11
-0.0000000000001474
 21
-39.99999999999983
 31
0.0
  0
LINE
  5
D425
330
CD4E
100
AcDbEntity
  8
AM_5
100
AcDbLine
 10
-49.99999999999921
 20
-21.99999237061003
 30
0.0
 11
-49.99999999999918
 21
-39.99999999999992
 31
0.0
  0
LINE
  5
D426
330
CD4E
100
AcDbEntity
  8
AM_5
100
AcDbLine
 10
-2.500000000000149
 20
-38.99999999999984
 30
0.0
 11
-47.49999999999918
 21
-38.99999999999993
 31
0.0
  0
INSERT
  5
D427
330
CD4E
100
AcDbEntity
  8
AM_5
100
AcDbBlockReference
  2
_OPEN30
 10
-0.0000000000001494
 20
-38.99999999999982
 30
0.0
 41
2.5
 42
2.5
 43
2.5
 50
0.0000000000001018
  0
INSERT
  5
D428
330
CD4E
100
AcDbEntity
  8
AM_5
100
AcDbBlockReference
  2
_OPEN30
 10
-49.99999999999918
 20
-38.99999999999993
 30
0.0
 41
2.5
 42
2.5
 43
2.5
 50
180.0000000000001
  0
MTEXT
  5
D429
330
CD4E
100
AcDbEntity
  8
AM_5
 62
     2
100
AcDbMText
 10
-24.99999999999967
 20
-36.39999999999988
 30
0.0
 40
3.2
 41
0.0
 71
     5
 72
     1
  1
50
  7
ASAMI
  0
POINT
  5
D42A
330
CD4E
100
AcDbEntity
  8
DEFPOINTS
 62
     0
100
AcDbPoint
 10
-0.0000000000002274
 20
-24.99999999999983
 30
0.0
  0
POINT
  5
D42B
330
CD4E
100
AcDbEntity
  8
DEFPOINTS
 62
     0
100
AcDbPoint
 10
-49.99999999999926
 20
-20.99999237060993
 30
0.0
  0
POINT
  5
D42C
330
CD4E
100
AcDbEntity
  8
DEFPOINTS
 62
     0
100
AcDbPoint
 10
-49.99999999999926
 20
-38.99999999999982
 30
0.0
  0
ENDBLK
  5
CD59
330
CD4E
100
AcDbEntity
  8
0
100
AcDbBlockEnd
  0
BLOCK
  5
CDE4
330
CDDA
100
AcDbEntity
  8
0
100
AcDbBlockBegin
  2
*D8
 70
     1
 10
0.0
 20
0.0
 30
0.0
  3
*D8
  1

  0
LINE
  5
D42D
330
CDDA
100
AcDbEntity
  8
AM_5
100
AcDbLine
 10
-49.99999999999921
 20
-21.99999237061003
 30
0.0
 11
-49.99999999999918
 21
-39.99999999999992
 31
0.0
  0
LINE
  5
D42E
330
CDDA
100
AcDbEntity
  8
AM_5
100
AcDbLine
 10
-169.9999999999961
 20
-21.19615936279052
 30
0.0
 11
-169.9999999999961
 21
-40.00000000000016
 31
0.0
  0
LINE
  5
D42F
330
CDDA
100
AcDbEntity
  8
AM_5
100
AcDbLine
 10
-52.49999999999918
 20
-38.99999999999993
 30
0.0
 11
-167.4999999999961
 21
-39.00000000000017
 31
0.0
  0
INSERT
  5
D430
330
CDDA
100
AcDbEntity
  8
AM_5
100
AcDbBlockReference
  2
_OPEN30
 10
-49.99999999999918
 20
-38.99999999999993
 30
0.0
 41
2.5
 42
2.5
 43
2.5
 50
0.0000000000001018
  0
INSERT
  5
D431
330
CDDA
100
AcDbEntity
  8
AM_5
100
AcDbBlockReference
  2
_OPEN30
 10
-169.9999999999961
 20
-39.00000000000017
 30
0.0
 41
2.5
 42
2.5
 43
2.5
 50
180.0000000000001
  0
MTEXT
  5
D432
330
CDDA
100
AcDbEntity
  8
AM_5
 62
     2
100
AcDbMText
 10
-109.9999999999976
 20
-36.40000000000005
 30
0.0
 40
3.2
 41
0.0
 71
     5
 72
     1
  1
120
  7
ASAMI
  0
POINT
  5
D433
330
CDDA
100
AcDbEntity
  8
DEFPOINTS
 62
     0
100
AcDbPoint
 10
-49.99999999999926
 20
-20.99999237060993
 30
0.0
  0
POINT
  5
D434
330
CDDA
100
AcDbEntity
  8
DEFPOINTS
 62
     0
100
AcDbPoint
 10
-169.9999999999962
 20
-20.19615936279018
 30
0.0
  0
POINT
  5
D435
330
CDDA
100
AcDbEntity
  8
DEFPOINTS
 62
     0
100
AcDbPoint
 10
-169.9999999999962
 20
-38.99999999999982
 30
0.0
  0
ENDBLK
  5
CDE5
330
CDDA
100
AcDbEntity
  8
0
100
AcDbBlockEnd
  0
BLOCK
  5
CE70
330
CE66
100
AcDbEntity
  8
0
100
AcDbBlockBegin
  2
*D9
 70
     1
 10
0.0
 20
0.0
 30
0.0
  3
*D9
  1

  0
LINE
  5
D436
330
CE66
100
AcDbEntity
  8
AM_5
100
AcDbLine
 10
-0.0000000000001749
 20
-25.99999999999983
 30
0.0
 11
-0.0000000000001278
 21
-49.99999999999983
 31
0.0
  0
LINE
  5
D437
330
CE66
100
AcDbEntity
  8
AM_5
100
AcDbLine
 10
-169.9999999999961
 20
-21.19615936279052
 30
0.0
 11
-169.9999999999961
 21
-50.00000000000017
 31
0.0
  0
LINE
  5
D438
330
CE66
100
AcDbEntity
  8
AM_5
100
AcDbLine
 10
-2.500000000000129
 20
-48.99999999999984
 30
0.0
 11
-167.4999999999961
 21
-49.00000000000017
 31
0.0
  0
INSERT
  5
D439
330
CE66
100
AcDbEntity
  8
AM_5
100
AcDbBlockReference
  2
_OPEN30
 10
-0.0000000000001298
 20
-48.99999999999983
 30
0.0
 41
2.5
 42
2.5
 43
2.5
 50
0.0000000000001018
  0
INSERT
  5
D43A
330
CE66
100
AcDbEntity
  8
AM_5
100
AcDbBlockReference
  2
_OPEN30
 10
-169.9999999999961
 20
-49.00000000000017
 30
0.0
 41
2.5
 42
2.5
 43
2.5
 50
180.0000000000001
  0
MTEXT
  5
D43B
330
CE66
100
AcDbEntity
  8
AM_5
 62
     2
100
AcDbMText
 10
-84.99999999999813
 20
-46.39999999999999
 30
0.0
 40
3.2
 41
0.0
 71
     5
 72
     1
  1
170
  7
ASAMI
  0
POINT
  5
D43C
330
CE66
100
AcDbEntity
  8
DEFPOINTS
 62
     0
100
AcDbPoint
 10
-0.0000000000002274
 20
-24.99999999999983
 30
0.0
  0
POINT
  5
D43D
330
CE66
100
AcDbEntity
  8
DEFPOINTS
 62
     0
100
AcDbPoint
 10
-169.9999999999962
 20
-20.19615936279018
 30
0.0
  0
POINT
  5
D43E
330
CE66
100
AcDbEntity
  8
DEFPOINTS
 62
     0
100
AcDbPoint
 10
-169.9999999999962
 20
-48.99999999999983
 30
0.0
  0
ENDBLK
  5
CE71
330
CE66
100
AcDbEntity
  8
0
100
AcDbBlockEnd
  0
BLOCK
  5
CF32
330
CF28
100
AcDbEntity
  8
0
100
AcDbBlockBegin
  2
*D10
 70
     1
 10
0.0
 20
0.0
 30
0.0
  3
*D10
  1

  0
LINE
  5
D43F
330
CF28
100
AcDbEntity
  8
AM_5
100
AcDbLine
 10
-47.29999923706033
 20
19.29063105582828
 30
0.0
 11
-40.29999923706032
 21
19.29063105582829
 31
0.0
  0
LINE
  5
D440
330
CF28
100
AcDbEntity
  8
AM_5
100
AcDbLine
 10
-47.29999923706016
 20
-19.29062342643634
 30
0.0
 11
-40.29999923706025
 21
-19.29062342643633
 31
0.0
  0
LINE
  5
D441
330
CF28
100
AcDbEntity
  8
AM_5
100
AcDbLine
 10
-41.29999923706033
 20
16.79063105582829
 30
0.0
 11
-41.29999923706026
 21
-16.79062342643633
 31
0.0
  0
INSERT
  5
D442
330
CF28
100
AcDbEntity
  8
AM_5
100
AcDbBlockReference
  2
_OPEN30
 10
-41.29999923706033
 20
19.29063105582829
 30
0.0
 41
2.5
 42
2.5
 43
2.5
 50
90.0000000000001
  0
INSERT
  5
D443
330
CF28
100
AcDbEntity
  8
AM_5
100
AcDbBlockReference
  2
_OPEN30
 10
-41.29999923706026
 20
-19.29062342643633
 30
0.0
 41
2.5
 42
2.5
 43
2.5
 50
270.0000000000001
  0
MTEXT
  5
D444
330
CF28
100
AcDbEntity
  8
AM_5
 62
     2
100
AcDbMText
 10
-43.8999992370603
 20
4.637535380320539
 30
0.0
 40
3.2
 41
0.0
 71
     5
 72
     1
  1
%%c38.6
  7
ASAMI
 11
-0.000000000000002
 21
1.0
 31
0.0
  0
POINT
  5
D445
330
CF28
100
AcDbEntity
  8
DEFPOINTS
 62
     0
100
AcDbPoint
 10
-48.29999923706029
 20
19.29063105582838
 30
0.0
  0
POINT
  5
D446
330
CF28
100
AcDbEntity
  8
DEFPOINTS
 62
     0
100
AcDbPoint
 10
-48.2999992370602
 20
-19.29062342643624
 30
0.0
  0
POINT
  5
D447
330
CF28
100
AcDbEntity
  8
DEFPOINTS
 62
     0
100
AcDbPoint
 10
-41.29999923706029
 20
-19.29062342643624
 30
0.0
  0
ENDBLK
  5
CF33
330
CF28
100
AcDbEntity
  8
0
100
AcDbBlockEnd
  0
BLOCK
  5
CFDD
330
CFD3
100
AcDbEntity
  8
0
100
AcDbBlockBegin
  2
*D11
 70
     1
 10
0.0
 20
0.0
 30
0.0
  3
*D11
  1

  0
LINE
  5
D448
330
CFD3
100
AcDbEntity
  8
AM_5
100
AcDbLine
 10
-167.9999847412063
 20
20.99999237060043
 30
0.0
 11
-184.9999999999963
 21
20.9999923706004
 31
0.0
  0
LINE
  5
D449
330
CFD3
100
AcDbEntity
  8
AM_5
100
AcDbLine
 10
-167.9999847412061
 20
-20.99999237061055
 30
0.0
 11
-184.9999999999962
 21
-20.99999237061059
 31
0.0
  0
LINE
  5
D44A
330
CFD3
100
AcDbEntity
  8
AM_5
100
AcDbLine
 10
-183.9999999999962
 20
18.4999923706004
 30
0.0
 11
-183.9999999999962
 21
-18.49999237061058
 31
0.0
  0
INSERT
  5
D44B
330
CFD3
100
AcDbEntity
  8
AM_5
100
AcDbBlockReference
  2
_OPEN30
 10
-183.9999999999962
 20
20.9999923706004
 30
0.0
 41
2.5
 42
2.5
 43
2.5
 50
90.0000000000001
  0
INSERT
  5
D44C
330
CFD3
100
AcDbEntity
  8
AM_5
100
AcDbBlockReference
  2
_OPEN30
 10
-183.9999999999962
 20
-20.99999237061058
 30
0.0
 41
2.5
 42
2.5
 43
2.5
 50
270.0000000000001
  0
MTEXT
  5
D44D
330
CFD3
100
AcDbEntity
  8
AM_5
 62
     2
100
AcDbMText
 10
-186.5999999999962
 20
-0.0000000000050907
 30
0.0
 40
3.2
 41
0.0
 71
     5
 72
     1
  1
%%c42
  7
ASAMI
 11
-0.000000000000002
 21
1.0
 31
0.0
  0
POINT
  5
D44E
330
CFD3
100
AcDbEntity
  8
DEFPOINTS
 62
     0
100
AcDbPoint
 10
-166.9999847412063
 20
20.9999923706008
 30
0.0
  0
POINT
  5
D44F
330
CFD3
100
AcDbEntity
  8
DEFPOINTS
 62
     0
100
AcDbPoint
 10
-166.9999847412062
 20
-20.99999237061018
 30
0.0
  0
POINT
  5
D450
330
CFD3
100
AcDbEntity
  8
DEFPOINTS
 62
     0
100
AcDbPoint
 10
-183.9999999999962
 20
-20.99999237061018
 30
0.0
  0
ENDBLK
  5
CFDE
330
CFD3
100
AcDbEntity
  8
0
100
AcDbBlockEnd
  0
ENDSEC
  0
SECTION
  2
ENTITIES
  0
TEXT
  5
388D
330
1F
100
AcDbEntity
  8
AM_6
100
AcDbText
 10
-115.8333333333314
 20
-71.49999999999995
 30
0.0
 40
5.0
  1
WRC20050ESS42
 50
359.9999999999998
 51
359.9999999999998
 72
     4
 11
-84.99999999999811
 21
-69.0
 31
0.0
100
AcDbText
  0
SPLINE
  5
CA10
330
1F
100
AcDbEntity
  8
AM_0
100
AcDbSpline
210
0.0
220
0.0
230
1.0
 70
     8
 71
     3
 72
    11
 73
     7
 74
     5
 42
0.0000000001
 43
0.0000000001
 44
0.0000000001
 40
0.0
 40
0.0
 40
0.0
 40
0.0
 40
0.9938828973514295
 40
1.987747733621341
 40
2.981629825280279
 40
3.9755246354214
 40
3.9755246354214
 40
3.9755246354214
 40
3.9755246354214
 10
-15.12519168853722
 20
-21.52010345458987
 30
0.0
 10
-15.35839537803967
 20
-21.28479088073403
 30
0.0
 10
-15.82479851921046
 20
-20.81417000917963
 30
0.0
 10
-16.52295535539188
 20
-20.10680255917749
 30
0.0
 10
-17.22016968685307
 20
-19.39850017973608
 30
0.0
 10
-17.68381358429719
 20
-18.92514702487752
 30
0.0
 10
-17.91563701629604
 20
-18.68846893310987
 30
0.0
 11
-15.12519168853722
 21
-21.52010345458987
 31
0.0
 11
-15.82456111907922
 21
-20.81392669677987
 31
0.0
 11
-16.52279376983611
 21
-20.10665130614987
 31
0.0
 11
-17.21987438201876
 21
-19.39821624755987
 31
0.0
 11
-17.91563701629604
 21
-18.68846893310987
 31
0.0
  0
LINE
  5
CA11
330
1F
100
AcDbEntity
  8
AM_0
100
AcDbLine
 10
-12.04224824905367
 20
4.990715026860158
 30
0.0
 11
-15.70371198654149
 21
6.534477233890129
 31
0.0
  0
LINE
  5
CA12
330
1F
100
AcDbEntity
  8
AM_0
100
AcDbLine
 10
-18.4305847361681
 20
20.69271850586014
 30
0.0
 11
-15.60507297515843
 21
23.48934936523014
 31
0.0
  0
LINE
  5
CA13
330
1F
100
AcDbEntity
  8
AM_0
100
AcDbLine
 10
-18.11503443121876
 20
-18.99829864501987
 30
0.0
 11
-14.25890636444063
 21
-22.81504058837987
 31
0.0
  0
LINE
  5
CA14
330
1F
100
AcDbEntity
  8
AM_0
100
AcDbLine
 10
-15.54841828346221
 20
-23.32425689696987
 30
0.0
 11
-18.31900247931443
 21
-20.58194732665987
 31
0.0
  0
LINE
  5
CA15
330
1F
100
AcDbEntity
  8
AM_0
100
AcDbLine
 10
-18.43056926876272
 20
-20.69271087645986
 30
0.0
 11
-15.60505747795071
 21
-23.48935699462987
 31
0.0
  0
LINE
  5
CA16
330
1F
100
AcDbEntity
  8
AM_0
100
AcDbLine
 10
-7.000000000000284
 20
3.751434326170141
 30
0.0
 11
-23.43099594116176
 21
3.847015380860113
 31
0.0
  0
LINE
  5
CA17
330
1F
100
AcDbEntity
  8
AM_0
100
AcDbLine
 10
-16.85237956047027
 20
5.423912048340127
 30
0.0
 11
-13.01678705215428
 21
5.401603698730127
 31
0.0
  0
LINE
  5
CA18
330
1F
100
AcDbEntity
  8
AM_0
100
AcDbLine
 10
-16.84794211387608
 20
6.186805725100128
 30
0.0
 11
-14.85157704353307
 21
6.175209045410127
 31
0.0
  0
LINE
  5
CA19
330
1F
100
AcDbEntity
  8
AM_0
100
AcDbLine
 10
-13.88970041274999
 20
2.791503906250142
 30
0.0
 11
-17.91563695669148
 21
2.814910888670141
 31
0.0
  0
LINE
  5
CA1A
330
1F
100
AcDbEntity
  8
AM_7
100
AcDbLine
 10
-179.9721374511662
 20
-0.000000000000199
 30
0.0
 11
1.94759368896473
 21
0.0000000000001705
 31
0.0
  0
SPLINE
  5
CA1C
330
1F
100
AcDbEntity
  8
AM_0
100
AcDbSpline
210
0.0
220
0.0
230
1.0
 70
     8
 71
     3
 72
    11
 73
     7
 74
     5
 42
0.0000000001
 43
0.0000000001
 44
0.0000000001
 40
0.0
 40
0.0
 40
0.0
 40
0.0
 40
0.0884415184266075
 40
0.1768830368532433
 40
0.2653236016635892
 40
0.3537641664740772
 40
0.3537641664740772
 40
0.3537641664740772
 40
0.3537641664740772
 10
-18.96403884887664
 20
-18.38277435302987
 30
0.0
 10
-18.93456013997641
 20
-18.38309987411391
 30
0.0
 10
-18.87560272217594
 20
-18.383750916282
 30
0.0
 10
-18.78716691327814
 20
-18.38472747151143
 30
0.0
 10
-18.69873142243231
 20
-18.38570404128199
 30
0.0
 10
-18.63977464040367
 20
-18.38635508244724
 30
0.0
 10
-18.61029624938933
 20
-18.38668060302987
 30
0.0
 11
-18.96403884887664
 21
-18.38277435302987
 31
0.0
 11
-18.87560272216765
 21
-18.38375091552987
 31
0.0
 11
-18.78716659545864
 21
-18.38472747802987
 31
0.0
 11
-18.69873142242406
 21
-18.38570404052987
 31
0.0
 11
-18.61029624938933
 21
-18.38668060302987
 31
0.0
  0
SPLINE
  5
CA1D
330
1F
100
AcDbEntity
  8
AM_0
100
AcDbSpline
210
0.0
220
0.0
230
1.0
 70
     8
 71
     3
 72
    11
 73
     7
 74
     5
 42
0.0000000001
 43
0.0000000001
 44
0.0000000001
 40
0.0
 40
0.0
 40
0.0
 40
0.0
 40
0.1940498120545388
 40
0.3880612156830659
 40
0.5820430839406975
 40
0.7759910221220754
 40
0.7759910221220754
 40
0.7759910221220754
 40
0.7759910221220754
 10
-17.91563701629604
 20
-18.68846893310987
 30
0.0
 10
-17.96344215817333
 20
-18.64456987557637
 30
0.0
 10
-18.05904297982001
 20
-18.55678044948302
 30
0.0
 10
-18.23078855065421
 20
-18.46326546219738
 30
0.0
 10
-18.4160765629264
 20
-18.40026919719392
 30
0.0
 10
-18.54556012897233
 20
-18.3912098702948
 30
0.0
 10
-18.61029624938933
 20
-18.38668060302987
 30
0.0
 11
-17.91563701629604
 21
-18.68846893310987
 31
0.0
 11
-18.06377983093236
 21
-18.56313323974987
 31
0.0
 11
-18.23305988311736
 21
-18.46834564208987
 31
0.0
 11
-18.41757965087853
 21
-18.40850067138987
 31
0.0
 11
-18.61029624938933
 21
-18.38668060302987
 31
0.0
  0
SPLINE
  5
CA1E
330
1F
100
AcDbEntity
  8
AM_0
100
AcDbSpline
210
0.0
220
0.0
230
1.0
 70
     8
 71
     3
 72
    11
 73
     7
 74
     5
 42
0.0000000001
 43
0.0000000001
 44
0.0000000001
 40
0.0
 40
0.0
 40
0.0
 40
0.0
 40
0.3664869793977388
 40
0.6732843033691893
 40
0.8769166024723762
 40
0.9506264390342392
 40
0.9506264390342392
 40
0.9506264390342392
 40
0.9506264390342392
 10
-37.32220268249429
 20
19.28991699219008
 30
0.0
 10
-37.44448952522633
 20
19.29040651075754
 30
0.0
 10
-37.66914637894419
 20
19.29130582010876
 30
0.0
 10
-37.96010171613009
 20
19.28159467834959
 30
0.0
 10
-38.15748069645549
 20
19.28857690083925
 30
0.0
 10
-38.24643965372221
 20
19.26234326541435
 30
0.0
 10
-38.27008247375431
 20
19.25537109375008
 30
0.0
 11
-37.32220268249429
 21
19.28991699219008
 31
0.0
 11
-37.6886882781973
 21
19.28890991211008
 31
0.0
 11
-37.9954566955563
 21
19.28469848633008
 31
0.0
 11
-38.19881820678631
 21
19.27420043945008
 31
0.0
 11
-38.27008247375431
 21
19.25537109375008
 31
0.0
  0
SPLINE
  5
CA1F
330
1F
100
AcDbEntity
  8
AM_0
100
AcDbSpline
210
0.0
220
0.0
230
1.0
 70
     8
 71
     3
 72
    11
 73
     7
 74
     5
 42
0.0000000001
 43
0.0000000001
 44
0.0000000001
 40
0.0
 40
0.0
 40
0.0
 40
0.0
 40
3.840081271588342
 40
9.685821066608321
 40
16.55953328502347
 40
23.63531914353843
 40
23.63531914353843
 40
23.63531914353843
 40
23.63531914353843
 10
-37.96754455566329
 20
17.93182373047008
 30
0.0
 10
-37.76323474422469
 20
16.66315303739384
 30
0.0
 10
-37.24790495410068
 20
13.46319020939259
 30
0.0
 10
-34.65489537929661
 20
8.470770995513055
 30
0.0
 10
-29.47652737672541
 20
3.868927053698602
 30
0.0
 10
-24.78632299530611
 20
3.18697824320921
 30
0.0
 10
-22.40724945068328
 20
2.841064453130115
 30
0.0
 11
-37.96754455566329
 21
17.93182373047008
 31
0.0
 11
-37.1972198486323
 21
14.16979980469008
 31
0.0
 11
-34.5337390899653
 21
8.966094970700083
 31
0.0
 11
-29.27660942077528
 21
4.537719726560112
 31
0.0
 11
-22.40724945068328
 21
2.841064453130115
 31
0.0
  0
SPLINE
  5
CA20
330
1F
100
AcDbEntity
  8
AM_0
100
AcDbSpline
210
0.0
220
0.0
230
1.0
 70
     8
 71
     3
 72
    11
 73
     7
 74
     5
 42
0.0000000001
 43
0.0000000001
 44
0.0000000001
 40
0.0
 40
0.0
 40
0.0
 40
0.0
 40
0.7982227592350219
 40
1.508907919052988
 40
2.050100529726099
 40
2.296494095378119
 40
2.296494095378119
 40
2.296494095378119
 40
2.296494095378119
 10
-17.26081275939918
 20
8.11193847656014
 30
0.0
 10
-17.47482348743247
 20
7.953645412090688
 30
0.0
 10
-17.87937532281385
 20
7.654418591324486
 30
0.0
 10
-18.40340960740119
 20
7.216435500659589
 30
0.0
 10
-18.77727320910777
 20
6.882562082179548
 30
0.0
 10
-19.00016196587738
 20
6.743303962011979
 30
0.0
 10
-19.06989192962618
 20
6.699737548830142
 30
0.0
 11
-17.26081275939918
 21
8.11193847656014
 31
0.0
 11
-17.89756870269747
 21
7.630584716800143
 31
0.0
 11
-18.44427967071507
 21
7.176513671880144
 31
0.0
 11
-18.86328220367408
 21
6.833984375000142
 31
0.0
 11
-19.06989192962618
 21
6.699737548830142
 31
0.0
  0
ELLIPSE
  5
CA21
330
1F
100
AcDbEntity
  8
AM_0
100
AcDbEllipse
 10
-19.20250606536839
 20
10.81781005859014
 30
0.0
 11
0.014543409978695
 21
2.499969380199999
 31
0.0
210
0.0
220
0.0
230
1.0
 40
0.2079107820865
 41
3.141592233107479
 42
3.369766731075258
  0
ELLIPSE
  5
CA22
330
1F
100
AcDbEntity
  8
AM_0
100
AcDbEllipse
 10
-19.10471343994109
 20
9.19998168945014
 30
0.0
 11
0.014543409978695
 21
2.499969380199999
 31
0.0
210
0.0
220
0.0
230
1.0
 40
0.0348995932264
 41
3.141590148609116
 42
4.712384485674983
  0
ELLIPSE
  5
CA23
330
1F
100
AcDbEntity
  8
AM_0
100
AcDbEllipse
 10
-34.24037170410128
 20
0.0000000000000853
 30
0.0
 11
368.0935058122449
 21
0.0058898924607316
 31
0.0
210
0.0
220
0.0
230
1.0
 40
0.0524068438845
 41
1.531142124628839
 42
1.570490516244638
  0
ELLIPSE
  5
CA24
330
1F
100
AcDbEntity
  8
AM_0
100
AcDbEllipse
 10
-34.24037170410128
 20
0.0000000000000853
 30
0.0
 11
-368.0935058143043
 21
0.0057600020692779
 31
0.0
210
0.0
220
0.0
230
1.0
 40
0.0524068231578
 41
1.571104497148834
 42
1.610450677491175
  0
ELLIPSE
  5
CA25
330
1F
100
AcDbEntity
  8
AM_0
100
AcDbEllipse
 10
-19.92146778106658
 20
0.0000076293901259
 30
0.0
 11
0.1175457171713619
 21
19.29061553926999
 31
0.0
210
0.0
220
0.0
230
0.9999999999999998
 40
0.2125526966215
 41
6.118181945475863
 42
6.245145167240948
  0
ELLIPSE
  5
CA26
330
1F
100
AcDbEntity
  8
AM_0
100
AcDbEllipse
 10
-34.24037170410128
 20
-0.0001525878899145
 30
0.0
 11
368.0950927263151
 21
0.0058898924107236
 31
0.0
210
0.0
220
0.0
230
1.0
 40
0.0524071153913
 41
1.570490508412682
 42
1.579168023419637
  0
ELLIPSE
  5
CA27
330
1F
100
AcDbEntity
  8
AM_0
100
AcDbEllipse
 10
-38.44458961486728
 20
0.0000076293900975
 30
0.0
 11
0.1125300627659636
 21
19.29061493156
 31
0.0
210
0.0
220
0.0
230
1.0
 40
0.0524069088324
 41
5.906226224971649
 42
6.22030192601625
  0
ELLIPSE
  5
CA28
330
1F
100
AcDbEntity
  8
AM_0
100
AcDbEllipse
 10
-19.27521610259978
 20
0.0000076293901259
 30
0.0
 11
-0.1123640546599381
 21
19.29064641733999
 31
0.0
210
0.0
220
0.0
230
1.0
 40
0.0349201723676
 41
3.331373876536528
 42
3.449470508116685
  0
ELLIPSE
  5
CA29
330
1F
100
AcDbEntity
  8
AM_0
100
AcDbEllipse
 10
-19.92146778106658
 20
0.0000076293901259
 30
0.0
 11
-0.117533605887238
 21
19.29061561305999
 31
0.0
210
0.0
220
0.0
230
1.0
 40
0.2125526966215
 41
3.179510492366571
 42
3.3300459236225
  0
ELLIPSE
  5
CA2A
330
1F
100
AcDbEntity
  8
AM_0
100
AcDbEllipse
 10
-19.10522747039769
 20
10.81726074219014
 30
0.0
 11
0.0145434099786951
 21
2.499969380189995
 31
0.0
210
0.0
220
0.0
230
1.0
 40
0.0354378355547
 41
3.141590186655645
 42
3.375327544314576
  0
LINE
  5
CA2B
330
1F
100
AcDbEntity
  8
AM_0
100
AcDbLine
 10
-166.9999999999962
 20
-20.99999237061016
 30
0.0
 11
-49.99999999999923
 21
-20.99999237060993
 31
0.0
  0
LINE
  5
CA2C
330
1F
100
AcDbEntity
  8
AM_0
100
AcDbLine
 10
-49.99999999999932
 20
20.99999999999604
 30
0.0
 11
-166.9999999999963
 21
20.99999999999582
 31
0.0
  0
LINE
  5
CA2F
330
1F
100
AcDbEntity
  8
AM_0
100
AcDbLine
 10
-166.9999999999962
 20
-20.99999237061016
 30
0.0
 11
-166.9999999999963
 21
20.99999999999582
 31
0.0
  0
LINE
  5
CA30
330
1F
100
AcDbEntity
  8
AM_0
100
AcDbLine
 10
-169.9999999999962
 20
-20.19615936279018
 30
0.0
 11
-169.9999999999963
 21
20.19616699218983
 31
0.0
  0
LINE
  5
CA31
330
1F
100
AcDbEntity
  8
AM_0
100
AcDbLine
 10
-169.9999999999962
 20
-20.19615936279018
 30
0.0
 11
-166.9999847412062
 21
-20.99999237061016
 31
0.0
  0
LINE
  5
CA32
330
1F
100
AcDbEntity
  8
AM_0
100
AcDbLine
 10
-166.9999847412063
 20
20.99999237060083
 30
0.0
 11
-169.9999999999963
 21
20.19615173339983
 31
0.0
  0
ARC
  5
CA33
330
1F
100
AcDbEntity
  8
AM_0
100
AcDbCircle
 10
-48.2999992370602
 20
-20.99062347411992
 30
0.0
 40
1.7000000476837
100
AcDbArc
 50
90.00000250447845
 51
180.0000050089585
  0
ARC
  5
CA34
330
1F
100
AcDbEntity
  8
AM_0
100
AcDbCircle
 10
-48.29999923706029
 20
20.99063110351207
 30
0.0
 40
1.7000000476837
100
AcDbArc
 50
180.0000086514213
 51
269.9999974955215
  0
LINE
  5
CA35
330
1F
100
AcDbEntity
  8
AM_0
100
AcDbLine
 10
-49.99999999999923
 20
-20.99999237060993
 30
0.0
 11
-49.99999999999932
 21
20.99999999999604
 31
0.0
  0
LINE
  5
CA36
330
1F
100
AcDbEntity
  8
AM_0
100
AcDbLine
 10
-17.91563701629604
 20
-18.68846893310987
 30
0.0
 11
-17.91563701629607
 21
2.814910888670141
 31
0.0
  0
LINE
  5
CA37
330
1F
100
AcDbEntity
  8
AM_0
100
AcDbLine
 10
-18.61029624938933
 20
-18.38668060302987
 30
0.0
 11
-18.61029624938936
 21
2.81896972656014
 31
0.0
  0
LINE
  5
CA39
330
1F
100
AcDbEntity
  8
AM_0
100
AcDbLine
 10
-48.29999923706023
 20
-19.29064178466992
 30
0.0
 11
-34.12815284728924
 21
-19.2906417846699
 31
0.0
  0
LINE
  5
CA3A
330
1F
100
AcDbEntity
  8
AM_0
100
AcDbLine
 10
-18.35632086638324
 20
-18.42444610595987
 30
0.0
 11
-18.11503836512534
 21
-18.99826812743987
 31
0.0
  0
LINE
  5
CA3B
330
1F
100
AcDbEntity
  8
AM_0
100
AcDbLine
 10
-18.31898993253671
 20
-20.58193206786987
 30
0.0
 11
-18.11503082513775
 21
-18.99828338622987
 31
0.0
  0
LINE
  5
CA3C
330
1F
100
AcDbEntity
  8
AM_0
100
AcDbLine
 10
-19.13202273845644
 20
-19.02449798583987
 30
0.0
 11
-18.43057671934332
 21
-20.69271087645986
 31
0.0
  0
LINE
  5
CA3D
330
1F
100
AcDbEntity
  8
AM_0
100
AcDbLine
 10
-18.31899503618442
 20
-20.58193206786987
 30
0.0
 11
-18.43058400601111
 21
-20.69271087645986
 31
0.0
  0
ARC
  5
CA3E
330
1F
100
AcDbEntity
  8
AM_0
100
AcDbCircle
 10
-23.34954833984349
 20
17.84680175781011
 30
0.0
 40
13.980813026428
100
AcDbArc
 50
179.6666644567004
 51
269.6666601309897
  0
LINE
  5
CA3F
330
1F
100
AcDbEntity
  8
AM_0
100
AcDbLine
 10
-34.1281528472893
 20
19.29064941406008
 30
0.0
 11
-48.29999923706029
 21
19.29064941406008
 31
0.0
  0
LINE
  5
CA40
330
1F
100
AcDbEntity
  8
AM_0
100
AcDbLine
 10
-38.2700786590573
 20
19.25537109375008
 30
0.0
 11
-38.2687263488763
 21
19.25212860107009
 31
0.0
  0
LINE
  5
CA41
330
1F
100
AcDbEntity
  8
AM_0
100
AcDbLine
 10
-37.3301239013663
 20
17.92813110352008
 30
0.0
 11
-37.32220268249429
 21
19.28991699219008
 31
0.0
  0
LINE
  5
CA42
330
1F
100
AcDbEntity
  8
AM_0
100
AcDbLine
 10
-18.4964773058889
 20
9.363792419430126
 30
0.0
 11
-19.99539124965639
 21
13.04799652100013
 31
0.0
  0
LINE
  5
CA43
330
1F
100
AcDbEntity
  8
AM_0
100
AcDbLine
 10
-19.71175611019108
 20
8.32073974609014
 30
0.0
 11
-19.68863999843572
 21
12.29402923584012
 31
0.0
  0
LINE
  5
CA44
330
1F
100
AcDbEntity
  8
AM_0
100
AcDbLine
 10
-16.84794235229466
 20
6.186813354490112
 30
0.0
 11
-16.85237979888887
 21
5.423912048340127
 31
0.0
  0
LINE
  5
CA45
330
1F
100
AcDbEntity
  8
AM_0
100
AcDbLine
 10
-18.61029563844178
 20
2.818984985350112
 30
0.0
 11
-22.40724945068328
 21
2.841079711910111
 31
0.0
  0
LINE
  5
CA46
330
1F
100
AcDbEntity
  8
AM_0
100
AcDbLine
 10
-17.91563701629607
 20
2.814910888670141
 30
0.0
 11
-18.61029587686039
 21
2.81896972656014
 31
0.0
  0
LINE
  5
CA47
330
1F
100
AcDbEntity
  8
AM_0
100
AcDbLine
 10
-19.19938546419118
 20
8.317756652830126
 30
0.0
 11
-19.71175539493526
 21
8.320747375490128
 31
0.0
  0
LINE
  5
CA48
330
1F
100
AcDbEntity
  8
AM_0
100
AcDbLine
 10
-15.70371603965728
 20
6.534484863280141
 30
0.0
 11
-18.4964867681262
 21
9.363792419430126
 31
0.0
  0
LINE
  5
CA49
330
1F
100
AcDbEntity
  8
AM_0
100
AcDbLine
 10
-19.20879477262468
 20
6.700569152830126
 30
0.0
 11
-19.19938582181896
 21
8.317756652830126
 31
0.0
  0
LINE
  5
CA4A
330
1F
100
AcDbEntity
  8
AM_0
100
AcDbLine
 10
-19.20879417657826
 20
6.700569152830126
 30
0.0
 11
-18.95933067798589
 21
6.699104309080126
 31
0.0
  0
LINE
  5
CA4B
330
1F
100
AcDbEntity
  8
AM_0
100
AcDbLine
 10
-18.96224015951128
 20
6.199119567870127
 30
0.0
 11
-18.95933037996266
 21
6.699111938480115
 31
0.0
  0
LINE
  5
CA4C
330
1F
100
AcDbEntity
  8
AM_0
100
AcDbLine
 10
-16.84794270992247
 20
6.18679809570014
 30
0.0
 11
-18.96223992109267
 21
6.199127197270144
 31
0.0
  0
LINE
  5
CA4D
330
1F
100
AcDbEntity
  8
AM_0
100
AcDbLine
 10
-19.08527505397771
 20
10.81100463867014
 30
0.0
 11
-19.09940940141646
 21
8.381660461430129
 31
0.0
  0
LINE
  5
CA4E
330
1F
100
AcDbEntity
  8
AM_0
100
AcDbLine
 10
-19.01746499538401
 20
9.199485778810128
 30
0.0
 11
-19.00917845964412
 21
10.62396240234014
 31
0.0
  0
LINE
  5
CA4F
330
1F
100
AcDbEntity
  8
AM_0
100
AcDbLine
 10
-19.11977070569966
 20
8.317283630370127
 30
0.0
 11
-19.19938594102828
 21
8.317741394040126
 31
0.0
  0
LINE
  5
CA50
330
1F
100
AcDbEntity
  8
AM_0
100
AcDbLine
 10
-16.71237277984587
 20
6.186035156250142
 30
0.0
 11
-16.70444667339296
 21
7.548316955570129
 31
0.0
  0
LINE
  5
CA51
330
1F
100
AcDbEntity
  8
AM_0
100
AcDbLine
 10
-18.33033374324409
 20
9.195495605470142
 30
0.0
 11
-19.01746445894221
 21
9.19949340820014
 31
0.0
  0
LINE
  5
CA52
330
1F
100
AcDbEntity
  8
AM_0
100
AcDbLine
 10
-19.97224736213661
 20
17.02619171143012
 30
0.0
 11
-18.43056408315871
 21
20.69273376465011
 31
0.0
  0
LINE
  5
CA53
330
1F
100
AcDbEntity
  8
AM_0
100
AcDbLine
 10
-19.995396852493
 20
13.04798889160011
 30
0.0
 11
-19.97225296497319
 21
17.02619171143012
 31
0.0
  0
LINE
  5
CA54
330
1F
100
AcDbEntity
  8
AM_0
100
AcDbLine
 10
-19.6567432880399
 20
17.77654266357012
 30
0.0
 11
-19.64802098274199
 21
19.27569580078014
 31
0.0
  0
SPLINE
  5
CA55
330
1F
100
AcDbEntity
  8
AM_0
100
AcDbSpline
210
0.0
220
0.0
230
1.0
 70
     8
 71
     3
 72
    11
 73
     7
 74
     5
 42
0.0000000001
 43
0.0000000001
 44
0.0000000001
 40
0.0
 40
0.0
 40
0.0
 40
0.0
 40
0.2216171989181123
 40
0.4640423629554761
 40
0.7306948937442167
 40
1.025221823033859
 40
1.025221823033859
 40
1.025221823033859
 40
1.025221823033859
 10
-13.88969993591274
 20
-12.93260955810987
 30
0.0
 10
-13.84802824434764
 20
-12.87156459576998
 30
0.0
 10
-13.7607722447383
 20
-12.74374306969248
 30
0.0
 10
-13.60389645258983
 20
-12.55700128015433
 30
0.0
 10
-13.41684586660869
 20
-12.36459336835035
 30
0.0
 10
-13.27138510947201
 20
-12.24672786493179
 30
0.0
 10
-13.19504213333095
 20
-12.18486785888987
 30
0.0
 11
-13.88969993591274
 21
-12.93260955810987
 31
0.0
 11
-13.76186323165865
 21
-12.75157928466987
 31
0.0
 11
-13.60701179504366
 21
-12.56505584716987
 31
0.0
 11
-13.41998386383025
 21
-12.37499237060987
 31
0.0
 11
-13.19504213333095
 21
-12.18486785888987
 31
0.0
  0
SPLINE
  5
CA56
330
1F
100
AcDbEntity
  8
AM_0
100
AcDbSpline
210
0.0
220
0.0
230
1.0
 70
     8
 71
     3
 72
    11
 73
     7
 74
     5
 42
0.0000000001
 43
0.0000000001
 44
0.0000000001
 40
0.0
 40
0.0
 40
0.0
 40
0.0
 40
0.1938656912049908
 40
0.3876811388671858
 40
0.5814459510955076
 40
0.7751637943692077
 40
0.7751637943692077
 40
0.7751637943692077
 40
0.7751637943692077
 10
-6.573479652405211
 20
-22.63515472411984
 30
0.0
 10
-6.621396983451322
 20
-22.67883855824432
 30
0.0
 10
-6.717219226964176
 20
-22.76619490509561
 30
0.0
 10
-6.889064560811999
 20
-22.85908713742256
 30
0.0
 10
-7.074190833623064
 20
-22.9217399137056
 30
0.0
 10
-7.203494759425488
 20
-22.93104156940378
 30
0.0
 10
-7.268138885498217
 20
-22.93569183349984
 30
0.0
 11
-6.573479652405211
 21
-22.63515472411984
 31
0.0
 11
-6.721921920776225
 21
-22.75984954833984
 31
0.0
 11
-6.891301155090218
 21
-22.85405731200984
 31
0.0
 11
-7.075681686401225
 21
-22.91362762450984
 31
0.0
 11
-7.268138885498217
 21
-22.93569183349984
 31
0.0
  0
SPLINE
  5
CA57
330
1F
100
AcDbEntity
  8
AM_0
100
AcDbSpline
210
0.0
220
0.0
230
1.0
 70
     8
 71
     3
 72
    11
 73
     7
 74
     5
 42
0.0000000001
 43
0.0000000001
 44
0.0000000001
 40
0.0
 40
0.0
 40
0.0
 40
0.0
 40
0.3007923231648846
 40
0.6105938705846754
 40
0.9277994565102851
 40
1.249156281207802
 40
1.249156281207802
 40
1.249156281207802
 40
1.249156281207802
 10
-12.14379787445034
 20
-17.64116668700987
 30
0.0
 10
-12.05018959720133
 20
-17.67732139198435
 30
0.0
 10
-11.86016932100928
 20
-17.7507136947464
 30
0.0
 10
-11.55963751591538
 20
-17.82628078774756
 30
0.0
 10
-11.24675882794328
 20
-17.87647427655187
 30
0.0
 10
-11.03375192935157
 20
-17.88178180413858
 30
0.0
 10
-10.92655611038173
 20
-17.88445281981987
 30
0.0
 11
-12.14379787445034
 21
-17.64116668700987
 31
0.0
 11
-11.86108922958345
 21
-17.74388885497987
 31
0.0
 11
-11.56111812591524
 21
-17.82131195067987
 31
0.0
 11
-11.24755191802944
 21
-17.86922454833987
 31
0.0
 11
-10.92655611038173
 21
-17.88445281981987
 31
0.0
  0
SPLINE
  5
CA58
330
1F
100
AcDbEntity
  8
AM_0
100
AcDbSpline
210
0.0
220
0.0
230
1.0
 70
     8
 71
     3
 72
    11
 73
     7
 74
     5
 42
0.0000000001
 43
0.0000000001
 44
0.0000000001
 40
0.0
 40
0.0
 40
0.0
 40
0.0
 40
1.23240137965212
 40
2.567677147607264
 40
4.011027507989409
 40
5.525963604853997
 40
5.525963604853997
 40
5.525963604853997
 40
5.525963604853997
 10
-7.486209869385248
 20
-14.96437835692984
 30
0.0
 10
-7.548048425924011
 20
-14.55379196647601
 30
0.0
 10
-7.676887496609264
 20
-13.69834559219133
 30
0.0
 10
-8.443879842403827
 20
-12.55909768886406
 30
0.0
 10
-9.62978681389195
 20
-11.66762478231937
 30
0.0
 10
-10.62476599890372
 20
-11.54721784906927
 30
0.0
 10
-11.13429403305025
 20
-11.48555755614987
 30
0.0
 11
-7.486209869385248
 21
-14.96437835692984
 31
0.0
 11
-7.755154609680261
 21
-13.76168060302984
 31
0.0
 11
-8.477746009826347
 21
-12.63881683349984
 31
0.0
 11
-9.652359008788749
 21
-11.80004119872984
 31
0.0
 11
-11.13429403305025
 21
-11.48555755614987
 31
0.0
  0
SPLINE
  5
CA59
330
1F
100
AcDbEntity
  8
AM_0
100
AcDbSpline
210
0.0
220
0.0
230
1.0
 70
     8
 71
     3
 72
    11
 73
     7
 74
     5
 42
0.0000000001
 43
0.0000000001
 44
0.0000000001
 40
0.0
 40
0.0
 40
0.0
 40
0.0
 40
1.385248296627838
 40
2.770489034742484
 40
4.155719070233766
 40
5.540951710102111
 40
5.540951710102111
 40
5.540951710102111
 40
5.540951710102111
 10
-2.705341339111242
 20
-18.66786956786984
 30
0.0
 10
-3.02600555964949
 20
-19.00011560387276
 30
0.0
 10
-3.667332251043459
 20
-19.66460586300068
 30
0.0
 10
-4.633499327043785
 20
-20.65728856094661
 30
0.0
 10
-5.601981319477074
 20
-21.64770337686083
 30
0.0
 10
-6.249646671816278
 20
-22.3060040687547
 30
0.0
 10
-6.573479652405211
 20
-22.63515472411984
 30
0.0
 11
-2.705341339111242
 21
-18.66786956786984
 31
0.0
 11
-3.668030738830253
 21
-19.66393280028984
 31
0.0
 11
-4.633888244629218
 21
-20.65691375731984
 31
0.0
 11
-5.602483749390216
 21
-21.64720916747984
 31
0.0
 11
-6.573479652405211
 21
-22.63515472411984
 31
0.0
  0
SPLINE
  5
CA5A
330
1F
100
AcDbEntity
  8
AM_0
100
AcDbSpline
210
0.0
220
0.0
230
1.0
 70
     8
 71
     3
 72
    11
 73
     7
 74
     5
 42
0.0000000001
 43
0.0000000001
 44
0.0000000001
 40
0.0
 40
0.0
 40
0.0
 40
0.0
 40
0.5100140591916271
 40
1.037431047867026
 40
1.589691966038861
 40
2.176736560505231
 40
2.176736560505231
 40
2.176736560505231
 40
2.176736560505231
 10
-13.88969993591274
 20
-12.93260955810987
 30
0.0
 10
-13.97623635960337
 20
-13.07937105614373
 30
0.0
 10
-14.15226204181756
 20
-13.37790191416188
 30
0.0
 10
-14.32779882291274
 20
-13.88077442493864
 30
0.0
 10
-14.43985024532237
 20
-14.42796513526399
 30
0.0
 10
-14.43895312340602
 20
-14.80867703504333
 30
0.0
 10
-14.43849086761446
 20
-15.00484466552987
 30
0.0
 11
-13.88969993591274
 21
-12.93260955810987
 31
0.0
 11
-14.13445281982396
 21
-13.38005828856987
 31
0.0
 11
-14.31392717361416
 21
-13.87599945067987
 31
0.0
 11
-14.41930389404265
 21
-14.41811370849987
 31
0.0
 11
-14.43849086761446
 21
-15.00484466552987
 31
0.0
  0
SPLINE
  5
CA5B
330
1F
100
AcDbEntity
  8
AM_0
100
AcDbSpline
210
0.0
220
0.0
230
1.0
 70
     8
 71
     3
 72
    11
 73
     7
 74
     5
 42
0.0000000001
 43
0.0000000001
 44
0.0000000001
 40
0.0
 40
0.0
 40
0.0
 40
0.0
 40
0.5641386165299074
 40
1.123617195568147
 40
1.674191830896774
 40
2.212325769955208
 40
2.212325769955208
 40
2.212325769955208
 40
2.212325769955208
 10
-11.13429403305025
 20
-11.48555755614987
 30
0.0
 10
-11.32255154806746
 20
-11.49534872615812
 30
0.0
 10
-11.69751148676021
 20
-11.51485018672763
 30
0.0
 10
-12.2399259053797
 20
-11.65908162714566
 30
0.0
 10
-12.74874801464849
 20
-11.87453245708191
 30
0.0
 10
-13.04741505198762
 20
-12.0822137846178
 30
0.0
 10
-13.19504213333095
 20
-12.18486785888987
 30
0.0
 11
-11.13429403305025
 21
-11.48555755614987
 31
0.0
 11
-11.69631290435754
 21
-11.53441619872987
 31
0.0
 11
-12.23850488662685
 21
-11.67241668700987
 31
0.0
 11
-12.74301481246914
 21
-11.89287567138987
 31
0.0
 11
-13.19504213333095
 21
-12.18486785888987
 31
0.0
  0
SPLINE
  5
CA5C
330
1F
100
AcDbEntity
  8
AM_0
100
AcDbSpline
210
0.0
220
0.0
230
1.0
 70
     8
 71
     3
 72
    11
 73
     7
 74
     5
 42
0.0000000001
 43
0.0000000001
 44
0.0000000001
 40
0.0
 40
0.0
 40
0.0
 40
0.0
 40
0.2113554876875174
 40
0.4226699889027122
 40
0.6339584237811829
 40
0.8451316391345054
 40
0.8451316391345054
 40
0.8451316391345054
 40
0.8451316391345054
 10
-2.399999618530245
 20
-17.90038299560984
 30
0.0
 10
-2.403846397605807
 20
-17.97095960169622
 30
0.0
 10
-2.41153920978196
 20
-18.11209912751455
 30
0.0
 10
-2.473086787125413
 20
-18.31592826941187
 30
0.0
 10
-2.567427038104765
 20
-18.50691083064432
 30
0.0
 10
-2.659378264841568
 20
-18.61422641165283
 30
0.0
 10
-2.705341339111242
 20
-18.66786956786984
 30
0.0
 11
-2.399999618530245
 21
-17.90038299560984
 31
0.0
 11
-2.419877052307242
 21
-18.11080169677984
 31
0.0
 11
-2.478559494018242
 21
-18.31380462645984
 31
0.0
 11
-2.574714660644247
 21
-18.50194549560984
 31
0.0
 11
-2.705341339111242
 21
-18.66786956786984
 31
0.0
  0
SPLINE
  5
CA5D
330
1F
100
AcDbEntity
  8
AM_0
100
AcDbSpline
210
0.0
220
0.0
230
1.0
 70
     8
 71
     3
 72
    11
 73
     7
 74
     5
 42
0.0000000001
 43
0.0000000001
 44
0.0000000001
 40
0.0
 40
0.0
 40
0.0
 40
0.0
 40
0.3826999829067586
 40
0.7574018463120103
 40
1.118766586768916
 40
1.464920625999615
 40
1.464920625999615
 40
1.464920625999615
 40
1.464920625999615
 10
-10.92655611038173
 20
-17.88445281981987
 30
0.0
 10
-10.79890775749439
 20
-17.87900511071868
 30
0.0
 10
-10.54627879884843
 20
-17.86822354522168
 30
0.0
 10
-10.18000648221563
 20
-17.79130113310463
 30
0.0
 10
-9.836142080999241
 20
-17.67818362182481
 30
0.0
 10
-9.626402013842884
 20
-17.56961812350434
 30
0.0
 10
-9.523786544799435
 20
-17.51650238036984
 30
0.0
 11
-10.92655611038173
 21
-17.88445281981987
 31
0.0
 11
-10.54480171203584
 21
-17.85756683349984
 31
0.0
 11
-10.17748069763155
 21
-17.78356170653984
 31
0.0
 11
-9.835239410400049
 21
-17.66756439208984
 31
0.0
 11
-9.523786544799435
 21
-17.51650238036984
 31
0.0
  0
SPLINE
  5
CA5E
330
1F
100
AcDbEntity
  8
AM_0
100
AcDbSpline
210
0.0
220
0.0
230
1.0
 70
     8
 71
     3
 72
    11
 73
     7
 74
     5
 42
0.0000000001
 43
0.0000000001
 44
0.0000000001
 40
0.0
 40
0.0
 40
0.0
 40
0.0
 40
0.2008904576633002
 40
0.4018710719268627
 40
0.603010665682985
 40
0.8043337308819456
 40
0.8043337308819456
 40
0.8043337308819456
 40
0.8043337308819456
 10
-13.19504213333095
 20
-17.69063568114987
 30
0.0
 10
-13.26241619959765
 20
-17.68850302160307
 30
0.0
 10
-13.3971945685934
 20
-17.6842367454041
 30
0.0
 10
-13.5873103870737
 20
-17.60960196247662
 30
0.0
 10
-13.75616154885012
 20
-17.49690343501784
 30
0.0
 10
-13.84517361419018
 20
-17.39584901235858
 30
0.0
 10
-13.88969993591274
 20
-17.34529876708987
 30
0.0
 11
-13.19504213333095
 21
-17.69063568114987
 31
0.0
 11
-13.39514589309664
 21
-17.67287445067987
 31
0.0
 11
-13.58369779586766
 21
-17.60329437255987
 31
0.0
 11
-13.75021505355803
 21
-17.49047088622987
 31
0.0
 11
-13.88969993591274
 21
-17.34529876708987
 31
0.0
  0
SPLINE
  5
CA5F
330
1F
100
AcDbEntity
  8
AM_0
100
AcDbSpline
210
0.0
220
0.0
230
1.0
 70
     8
 71
     3
 72
    11
 73
     7
 74
     5
 42
0.0000000001
 43
0.0000000001
 44
0.0000000001
 40
0.0
 40
0.0
 40
0.0
 40
0.0
 40
0.1918974944375965
 40
0.3838089470690138
 40
0.5757628961270964
 40
0.7677544326841797
 40
0.7677544326841797
 40
0.7677544326841797
 40
0.7677544326841797
 10
-13.19504213333092
 20
-23.01641082763987
 30
0.0
 10
-13.25918227168525
 20
-23.01359877722584
 30
0.0
 10
-13.38746721380388
 20
-23.00797447185553
 30
0.0
 10
-13.57250320545137
 20
-22.95108645051306
 30
0.0
 10
-13.74502091612332
 20
-22.86330968872897
 30
0.0
 10
-13.84147044857715
 20
-22.77849023411484
 30
0.0
 10
-13.88969993591271
 20
-22.73607635497987
 30
0.0
 11
-13.19504213333092
 21
-23.01641082763987
 31
0.0
 11
-13.38622808456381
 21
-22.99990081786987
 31
0.0
 11
-13.57039880752532
 21
-22.94594573974987
 31
0.0
 11
-13.74036693572961
 21
-22.85674285888987
 31
0.0
 11
-13.88969993591271
 21
-22.73607635497987
 31
0.0
  0
ELLIPSE
  5
CA60
330
1F
100
AcDbEntity
  8
AM_0
100
AcDbEllipse
 10
-124.2974395751862
 20
-0.0001220703100842
 30
0.0
 11
-452.98791498361
 21
0.0070884470490999
 31
0.0
210
0.0
220
0.0
230
1.0
 40
0.05240673229
 41
1.818596774928852
 42
1.832115927490388
  0
ELLIPSE
  5
CA61
330
1F
100
AcDbEntity
  8
AM_0
100
AcDbEllipse
 10
-6.607410430908288
 20
0.0000076293901543
 30
0.0
 11
-0.1384913839570465
 21
23.739742679336
 31
0.0
210
0.0
220
0.0
230
1.0
 40
0.0524069221223
 41
2.252690207142205
 42
2.393450430003819
  0
ELLIPSE
  5
CA62
330
1F
100
AcDbEntity
  8
AM_0
100
AcDbEllipse
 10
-13.55327177047698
 20
-0.1336288452098699
 30
0.0
 11
-0.1389284723889473
 21
23.753505696104
 31
0.0
210
0.0
220
0.0
230
1.0
 40
0.0524732942901
 41
2.247200410596713
 42
2.345686980535313
  0
LINE
  5
CA8C
330
1F
100
AcDbEntity
  8
AM_0
100
AcDbLine
 10
-7.578502655029211
 20
-23.29697418212984
 30
0.0
 11
-6.325957298279206
 21
-22.76889801024984
 31
0.0
  0
LINE
  5
CA8D
330
1F
100
AcDbEntity
  8
AM_0
100
AcDbLine
 10
-14.25891542434661
 20
-22.81502532958987
 30
0.0
 11
-13.00030374526943
 21
-23.32851409911987
 31
0.0
  0
LINE
  5
CA8E
330
1F
100
AcDbEntity
  8
AM_0
100
AcDbLine
 10
-1.716447830200223
 20
-20.48535919188984
 30
0.0
 11
-4.454939842224234
 21
-23.25971221923984
 31
0.0
  0
LINE
  5
CA8F
330
1F
100
AcDbEntity
  8
AM_0
100
AcDbLine
 10
-4.454943656921216
 20
-23.25969696044984
 30
0.0
 11
-6.325956344604207
 21
-22.76888275145984
 31
0.0
  0
LINE
  5
CA90
330
1F
100
AcDbEntity
  8
AM_0
100
AcDbLine
 10
-14.25891208648653
 20
-22.81502532958987
 30
0.0
 11
-15.54840779304473
 21
-23.32424163817987
 31
0.0
  0
LINE
  5
CA91
330
1F
100
AcDbEntity
  8
AM_0
100
AcDbLine
 10
-4.291695594787228
 20
-23.42354583739984
 30
0.0
 11
-1.498918533325223
 21
-20.59420013427984
 31
0.0
  0
LINE
  5
CA99
330
1F
100
AcDbEntity
  8
AM_0
100
AcDbLine
 10
-7.95315074920623
 20
-24.96727752685984
 30
0.0
 11
-4.29168987274221
 21
-23.42354583739984
 31
0.0
  0
LINE
  5
CA9A
330
1F
100
AcDbEntity
  8
AM_0
100
AcDbLine
 10
-13.00030136108361
 20
-23.32851409911987
 30
0.0
 11
-7.578505516052217
 21
-23.29695892333984
 31
0.0
  0
LINE
  5
CA9B
330
1F
100
AcDbEntity
  8
AM_0
100
AcDbLine
 10
-8.045233726501209
 20
-24.77344512938984
 30
0.0
 11
-11.94074010848962
 21
-24.79611968993987
 31
0.0
  0
LINE
  5
CA9C
330
1F
100
AcDbEntity
  8
AM_0
100
AcDbLine
 10
-11.92588520050011
 20
-24.99037933349987
 30
0.0
 11
-7.953157424927212
 21
-24.96727752685984
 31
0.0
  0
LINE
  5
CA9D
330
1F
100
AcDbEntity
  8
AM_0
100
AcDbLine
 10
-11.94074344634972
 20
-24.79610443114987
 30
0.0
 11
-13.00030231475793
 21
-23.32851409911987
 31
0.0
  0
LINE
  5
CA9E
330
1F
100
AcDbEntity
  8
AM_0
100
AcDbLine
 10
-11.94073963165251
 20
-24.79610443114987
 30
0.0
 11
-11.92588376998872
 21
-24.99039459227986
 31
0.0
  0
LINE
  5
CA9F
330
1F
100
AcDbEntity
  8
AM_0
100
AcDbLine
 10
-15.60506868362392
 20
-23.48935699462987
 30
0.0
 11
-11.92589139938323
 21
-24.99039459227986
 31
0.0
  0
LINE
  5
CAA0
330
1F
100
AcDbEntity
  8
AM_0
100
AcDbLine
 10
-15.54840135574301
 20
-23.32422637938987
 30
0.0
 11
-15.60506558418242
 21
-23.48934173583987
 31
0.0
  0
LINE
  5
CAA1
330
1F
100
AcDbEntity
  8
AM_0
100
AcDbLine
 10
-7.953145980835216
 20
-24.96729278563984
 30
0.0
 11
-8.045234680176235
 21
-24.77342987060984
 31
0.0
  0
LINE
  5
CAA2
330
1F
100
AcDbEntity
  8
AM_0
100
AcDbLine
 10
-7.578512191772233
 20
-23.29697418212984
 30
0.0
 11
-8.045233726501209
 21
-24.77341461181984
 31
0.0
  0
LINE
  5
CAA3
330
1F
100
AcDbEntity
  8
AM_0
100
AcDbLine
 10
-4.45494079589821
 20
-23.25971221923984
 30
0.0
 11
-4.291692733765216
 21
-23.42354583739984
 31
0.0
  0
LINE
  5
CAB1
330
1F
100
AcDbEntity
  8
AM_0
100
AcDbLine
 10
-4.291703224182327
 20
23.42355346679315
 30
0.0
 11
-1.498926162720294
 21
20.59420776367017
 31
0.0
  0
LINE
  5
CAB2
330
1F
100
AcDbEntity
  8
AM_0
100
AcDbLine
 10
-13.19504213333095
 20
-12.18486785888987
 30
0.0
 11
-13.19504213333098
 21
2.787445068360142
 31
0.0
  0
LINE
  5
CAB3
330
1F
100
AcDbEntity
  8
AM_0
100
AcDbLine
 10
-13.88969993591274
 20
-12.93260955810987
 30
0.0
 11
-13.88969993591277
 21
2.791503906250142
 31
0.0
  0
LINE
  5
CAB4
330
1F
100
AcDbEntity
  8
AM_0
100
AcDbLine
 10
-7.268138885498217
 20
-22.93569183349984
 30
0.0
 11
-7.268138885498274
 21
2.752990722660143
 31
0.0
  0
LINE
  5
CAB5
330
1F
100
AcDbEntity
  8
AM_0
100
AcDbLine
 10
-6.573479652405211
 20
-22.63515472411984
 30
0.0
 11
-6.573479652405268
 21
2.748931884770144
 31
0.0
  0
LINE
  5
CAB6
330
1F
100
AcDbEntity
  8
AM_0
100
AcDbLine
 10
-2.705341339111242
 20
-18.66786956786984
 30
0.0
 11
-2.705341339111271
 21
2.726440429690171
 31
0.0
  0
LINE
  5
CAB7
330
1F
100
AcDbEntity
  8
AM_0
100
AcDbLine
 10
-2.399999618530245
 20
-17.90038299560984
 30
0.0
 11
-2.399999618530273
 21
2.724670410160172
 31
0.0
  0
ARC
  5
CAB8
330
1F
100
AcDbEntity
  8
AM_0
100
AcDbCircle
 10
-10.86122703552214
 20
-14.98403167724987
 30
0.0
 40
3.499989748001099
100
AcDbArc
 50
92.91664354423355
 51
180.3333455612087
  0
ARC
  5
CAB9
330
1F
100
AcDbEntity
  8
AM_0
100
AcDbCircle
 10
-10.96166992187465
 20
-14.88460540770986
 30
0.0
 40
2.999999761581399
100
AcDbArc
 50
90.33332939635032
 51
246.7883404493867
  0
ARC
  5
CABA
330
1F
100
AcDbEntity
  8
AM_0
100
AcDbCircle
 10
-10.96166992187465
 20
-14.88460540770986
 30
0.0
 40
2.999073505401599
100
AcDbArc
 50
298.6489937427068
 51
90.33332939635032
  0
LINE
  5
CABB
330
1F
100
AcDbEntity
  8
AM_0
100
AcDbLine
 10
-2.033329010010248
 20
-12.21796417235984
 30
0.0
 11
-2.399996757507238
 21
-11.34592437743984
 31
0.0
  0
LINE
  5
CABC
330
1F
100
AcDbEntity
  8
AM_0
100
AcDbLine
 10
-0.0231437683102342
 20
-12.93183135985984
 30
0.0
 11
-1.564826965332258
 21
-9.265312194819841
 31
0.0
  0
ARC
  5
CABD
330
1F
100
AcDbEntity
  8
AM_0
100
AcDbCircle
 10
-10.43832015991174
 20
-14.88155364989984
 30
0.0
 40
2.9999651908875
100
AcDbArc
 50
95.55865633784176
 51
265.233102378464
  0
LINE
  5
CABE
330
1F
100
AcDbEntity
  8
AM_0
100
AcDbLine
 10
-14.34611892700164
 20
-16.76676177977987
 30
0.0
 11
-13.88970375061004
 21
-17.34531402587987
 31
0.0
  0
LINE
  5
CABF
330
1F
100
AcDbEntity
  8
AM_0
100
AcDbLine
 10
-15.1251893043514
 20
-21.52010345458987
 30
0.0
 11
-13.88969516754113
 21
-22.73607635497987
 31
0.0
  0
LINE
  5
CAC0
330
1F
100
AcDbEntity
  8
AM_0
100
AcDbLine
 10
-13.19504213333092
 20
-23.01641082763987
 30
0.0
 11
-13.19504213333095
 21
-17.69063568114987
 31
0.0
  0
LINE
  5
CAC1
330
1F
100
AcDbEntity
  8
AM_0
100
AcDbLine
 10
-13.88969993591271
 20
-22.73607635497987
 30
0.0
 11
-13.88969993591274
 21
-17.34529876708987
 31
0.0
  0
LINE
  5
CAC2
330
1F
100
AcDbEntity
  8
AM_0
100
AcDbLine
 10
-14.43849086761446
 20
-15.00484466552987
 30
0.0
 11
-14.35637092590303
 21
-15.00435638427987
 31
0.0
  0
LINE
  5
CAC3
330
1F
100
AcDbEntity
  8
AM_0
100
AcDbLine
 10
-14.35637092590303
 20
-15.00435638427987
 30
0.0
 11
-14.34611797332735
 21
-16.76674652099987
 31
0.0
  0
LINE
  5
CAC4
330
1F
100
AcDbEntity
  8
AM_0
100
AcDbLine
 10
-2.001743316650248
 20
-17.64717864989984
 30
0.0
 11
-2.033330917358256
 21
-12.21794891356984
 31
0.0
  0
LINE
  5
CAC5
330
1F
100
AcDbEntity
  8
AM_0
100
AcDbLine
 10
-0.2466735839842613
 20
-16.87276458739984
 30
0.0
 11
-2.00174903869626
 21
-17.64717864989984
 31
0.0
  0
LINE
  5
CAC6
330
1F
100
AcDbEntity
  8
AM_0
100
AcDbLine
 10
-1.49890899658223
 20
-20.59420013427984
 30
0.0
 11
0.0000057220457563
 21
-16.90999603270984
 31
0.0
  0
LINE
  5
CAC7
330
1F
100
AcDbEntity
  8
AM_0
100
AcDbLine
 10
-6.325954437256228
 20
-22.76889801024984
 30
0.0
 11
-2.514500617981241
 21
-18.90753936767984
 31
0.0
  0
LINE
  5
CAC8
330
1F
100
AcDbEntity
  8
AM_0
100
AcDbLine
 10
-2.514502525329248
 20
-18.90752410888984
 30
0.0
 11
-2.00174140930224
 21
-17.64717864989984
 31
0.0
  0
LINE
  5
CAC9
330
1F
100
AcDbEntity
  8
AM_0
100
AcDbLine
 10
-1.716453552246207
 20
-20.48535919188984
 30
0.0
 11
-1.498914718628213
 21
-20.59421539306984
 31
0.0
  0
LINE
  5
CACA
330
1F
100
AcDbEntity
  8
AM_0
100
AcDbLine
 10
-2.51451301574724
 20
-18.90752410888984
 30
0.0
 11
-1.716445922851221
 21
-20.48535919188984
 31
0.0
  0
LINE
  5
CACB
330
1F
100
AcDbEntity
  8
AM_0
100
AcDbLine
 10
-0.0000000000002558
 20
-16.90999603270984
 30
0.0
 11
-0.2466716766362538
 21
-16.87276458739984
 31
0.0
  0
LINE
  5
CACC
330
1F
100
AcDbEntity
  8
AM_0
100
AcDbLine
 10
-0.2693634033202557
 20
-12.97193145751984
 30
0.0
 11
-0.023145675659265
 21
-12.93183135985984
 31
0.0
  0
LINE
  5
CACD
330
1F
100
AcDbEntity
  8
AM_0
100
AcDbLine
 10
-2.033329010010248
 20
-12.21794891356984
 30
0.0
 11
-0.2693634033202557
 21
-12.97191619872984
 31
0.0
  0
LINE
  5
CACE
330
1F
100
AcDbEntity
  8
AM_0
100
AcDbLine
 10
-0.2693634033202557
 20
-12.97193145751984
 30
0.0
 11
-0.2466697692872515
 21
-16.87276458739984
 31
0.0
  0
LINE
  5
CACF
330
1F
100
AcDbEntity
  8
AM_0
100
AcDbLine
 10
-0.0000000000002558
 20
-16.90999603270984
 30
0.0
 11
-0.0231437683102342
 21
-12.93183135985984
 31
0.0
  0
LINE
  5
CAD0
330
1F
100
AcDbEntity
  8
AM_0
100
AcDbLine
 10
-1.781091690063249
 20
-9.376686096189843
 30
0.0
 11
-2.400005340576257
 21
-10.63652801513984
 31
0.0
  0
LINE
  5
CAD1
330
1F
100
AcDbEntity
  8
AM_0
100
AcDbLine
 10
-1.781082153320255
 20
-9.376686096189843
 30
0.0
 11
-1.56482887268126
 21
-9.265327453609842
 31
0.0
  0
LINE
  5
CAD2
330
1F
100
AcDbEntity
  8
AM_0
100
AcDbLine
 10
-2.400005340576257
 20
-8.764060974119843
 30
0.0
 11
-1.781072616577262
 21
-9.376670837399842
 31
0.0
  0
LINE
  5
CAD3
330
1F
100
AcDbEntity
  8
AM_0
100
AcDbLine
 10
-1.564811706543252
 20
-9.265312194819841
 30
0.0
 11
-2.399986267090241
 21
-8.438667297359842
 31
0.0
  0
ARC
  5
CAD4
330
1F
100
AcDbEntity
  8
AM_0
100
AcDbCircle
 10
-9.997698783874199
 20
14.97900390625014
 30
0.0
 40
4.9000010490417
100
AcDbArc
 50
269.6666774338339
 51
359.6666645170271
  0
ARC
  5
CAD5
330
1F
100
AcDbEntity
  8
AM_0
100
AcDbCircle
 10
-9.997698783874199
 20
14.97900390625014
 30
0.0
 40
4.900000095367399
100
AcDbArc
 50
89.66666195222842
 51
269.6666874517496
  0
LINE
  5
CAD6
330
1F
100
AcDbEntity
  8
AM_0
100
AcDbLine
 10
-0.0231437683102911
 20
12.93182373047017
 30
0.0
 11
-1.564826965332315
 21
9.265312194820154
 31
0.0
  0
LINE
  5
CAD7
330
1F
100
AcDbEntity
  8
AM_0
100
AcDbLine
 10
-4.390334129333268
 20
6.468673706060172
 30
0.0
 11
-8.069516181946283
 21
4.967628479000154
 31
0.0
  0
LINE
  5
CAD8
330
1F
100
AcDbEntity
  8
AM_0
100
AcDbLine
 10
-7.268139839172278
 20
2.752998352050155
 30
0.0
 11
-13.19504213333098
 21
2.787452697750126
 31
0.0
  0
LINE
  5
CAD9
330
1F
100
AcDbEntity
  8
AM_0
100
AcDbLine
 10
-8.069512367248279
 20
4.967636108400142
 30
0.0
 11
-12.04224014282198
 21
4.990737915040142
 31
0.0
  0
LINE
  5
CADA
330
1F
100
AcDbEntity
  8
AM_0
100
AcDbLine
 10
-13.88970041274999
 20
2.791511535640125
 30
0.0
 11
-13.19504261016817
 21
2.787452697750126
 31
0.0
  0
LINE
  5
CADB
330
1F
100
AcDbEntity
  8
AM_0
100
AcDbLine
 10
-2.757211685181289
 20
8.08508300781014
 30
0.0
 11
-2.757211685181289
 21
2.726745605470171
 31
0.0
  0
LINE
  5
CADC
330
1F
100
AcDbEntity
  8
AM_0
100
AcDbLine
 10
-2.399999618530273
 20
8.438659667970142
 30
0.0
 11
-2.399999618530273
 21
2.724822998050171
 31
0.0
  0
LINE
  5
CADD
330
1F
100
AcDbEntity
  8
AM_0
100
AcDbLine
 10
-6.573479652405268
 20
2.748931884770144
 30
0.0
 11
-2.705341339111271
 21
2.726440429690171
 31
0.0
  0
LINE
  5
CADE
330
1F
100
AcDbEntity
  8
AM_0
100
AcDbLine
 10
-7.090250015259272
 20
5.367118835450156
 30
0.0
 11
-7.000000953674287
 21
5.366600036620155
 31
0.0
  0
LINE
  5
CADF
330
1F
100
AcDbEntity
  8
AM_0
100
AcDbLine
 10
-7.000000000000284
 20
3.751434326170141
 30
0.0
 11
-7.000000000000284
 21
5.366607666020144
 31
0.0
  0
LINE
  5
CAE0
330
1F
100
AcDbEntity
  8
AM_0
100
AcDbLine
 10
-7.000000000000284
 20
5.403961181640141
 30
0.0
 11
-7.000000000000284
 21
5.366607666020144
 31
0.0
  0
LINE
  5
CAE1
330
1F
100
AcDbEntity
  8
AM_0
100
AcDbLine
 10
-7.000000000000284
 20
3.751434326170141
 30
0.0
 11
-7.000000000000284
 21
2.75140380859014
 31
0.0
  0
LINE
  5
CAE2
330
1F
100
AcDbEntity
  8
AM_0
100
AcDbLine
 10
-7.268138885498274
 20
2.753005981450144
 30
0.0
 11
-6.573479652405268
 21
2.748947143560144
 31
0.0
  0
LINE
  5
CAE3
330
1F
100
AcDbEntity
  8
AM_0
100
AcDbLine
 10
-2.705342292786269
 20
2.726448059080155
 30
0.0
 11
-2.399999618530273
 21
2.724678039550155
 31
0.0
  0
LINE
  5
CAE4
330
1F
100
AcDbEntity
  8
AM_0
100
AcDbLine
 10
-1.564828872681317
 20
9.265319824220171
 30
0.0
 11
-4.390336990356274
 21
6.468658447270144
 31
0.0
  0
ARC
  5
CAE5
330
1F
100
AcDbEntity
  8
AM_0
100
AcDbCircle
 10
-9.997698783874199
 20
14.97900390625014
 30
0.0
 40
4.893284797668499
100
AcDbArc
 50
359.6666645170271
 51
89.66666195222842
  0
LINE
  5
CAE6
330
1F
100
AcDbEntity
  8
AM_0
100
AcDbLine
 10
-1.498918533325308
 20
20.59420013428015
 30
0.0
 11
-0.000003814697294
 21
16.90999603272016
 31
0.0
  0
LINE
  5
CAE7
330
1F
100
AcDbEntity
  8
AM_0
100
AcDbLine
 10
-0.0000000000003126
 20
16.90999603272016
 30
0.0
 11
-0.0231437683102911
 21
12.93182373047017
 31
0.0
  0
LINE
  5
CAE9
330
1F
100
AcDbEntity
  8
AM_0
100
AcDbLine
 10
-7.953166007995321
 20
24.96726989745715
 30
0.0
 11
-4.291706085205333
 21
23.42353820800414
 31
0.0
  0
LINE
  5
CAEA
330
1F
100
AcDbEntity
  8
AM_0
100
AcDbLine
 10
-11.92588520050023
 20
24.99039459228114
 30
0.0
 11
-7.953156471252327
 21
24.96729278564015
 31
0.0
  0
LINE
  5
CAEB
330
1F
100
AcDbEntity
  8
AM_0
100
AcDbLine
 10
-15.60506272315953
 20
23.48936462401914
 30
0.0
 11
-11.92588758468602
 21
24.99040222167613
 31
0.0
  0
LINE
  5
CBDC
330
1F
100
AcDbEntity
  8
AM_11
100
AcDbLine
 10
-0.0000000000003411
 20
25.00000000000014
 30
0.0
 11
-0.000000000000199
 21
-24.99999999999983
 31
0.0
  0
LINE
  5
CBE4
330
1F
100
AcDbEntity
  8
AM_11
100
AcDbLine
 10
-10.00000000000037
 20
25.00000000000014
 30
0.0
 11
-10.00000000000019
 21
-24.99999999999985
 31
0.0
  0
LINE
  5
CBEC
330
1F
100
AcDbEntity
  8
AM_11
100
AcDbLine
 10
-10.00000000000031
 20
25.00000000000011
 30
0.0
 11
-0.0000000000003411
 21
25.00000000000017
 31
0.0
  0
LINE
  5
CBF0
330
1F
100
AcDbEntity
  8
AM_11
100
AcDbLine
 10
-10.00000000000019
 20
-24.99999999999985
 30
0.0
 11
-0.0000000000002274
 21
-24.99999999999983
 31
0.0
  0
DIMENSION
  5
CBF8
330
1F
100
AcDbEntity
  8
AM_5
100
AcDbDimension
  2
*D5
 10
-0.0000000000003438
 20
39.00000000000014
 30
0.0
 11
-5.000000000000354
 21
41.60000000000015
 31
0.0
 70
    32
  1
<>
 51
359.9999999999998
  3
AM_JIS$0
100
AcDbAlignedDimension
 13
-10.00000000000039
 23
25.00000000000014
 33
0.0
 14
-0.0000000000003695
 24
25.00000000000019
 34
0.0
 50
180.0
100
AcDbRotatedDimension
1001
GENIUS_GENDTOL_13
1000

1000
h7
1000

1040
0.0
1001
ACAD
1000
DSTYLE
1002
{
1070
   287
1070
     3
1070
    42
1040
1.0
1070
    43
1040
12.0
1070
    48
1040
0.1
1070
    78
1070
     8
1070
   140
1040
3.2
1070
   147
1040
1.0
1070
   176
1070
   256
1070
   177
1070
   256
1070
   271
1070
     1
1070
   272
1070
     3
1070
   275
1070
     0
1070
   284
1070
     0
1070
   289
1070
     3
1070
   340
1005
6B
1070
   371
1070
    -1
1070
   372
1070
    -1
1002
}
  0
DIMENSION
  5
CCC1
330
1F
100
AcDbEntity
  8
AM_5
100
AcDbDimension
  2
*D6
 10
13.99999999999977
 20
-24.9999999999998
 30
0.0
 11
11.39999999999977
 21
0.0000000000001842
 31
0.0
 70
    32
  1
%%c<>
 51
359.9999999999998
  3
AM_JIS$0
100
AcDbAlignedDimension
 13
-0.0000000000003695
 23
25.00000000000017
 33
0.0
 14
-0.0000000000002274
 24
-24.9999999999998
 34
0.0
 50
90.0
100
AcDbRotatedDimension
1001
GENIUS_GENDTOL_13
1000

1000
h7
1000

1040
0.0
1001
ACAD
1000
DSTYLE
1002
{
1070
   287
1070
     3
1070
    42
1040
1.0
1070
    43
1040
12.0
1070
    48
1040
0.1
1070
    78
1070
     8
1070
   140
1040
3.2
1070
   147
1040
1.0
1070
   176
1070
   256
1070
   177
1070
   256
1070
   271
1070
     1
1070
   272
1070
     3
1070
   275
1070
     0
1070
   284
1070
     0
1070
   289
1070
     3
1070
   340
1005
6B
1070
   371
1070
    -1
1070
   372
1070
    -1
1002
}
  0
DIMENSION
  5
CD4D
330
1F
100
AcDbEntity
  8
AM_5
100
AcDbDimension
  2
*D7
 10
-49.99999999999926
 20
-38.99999999999982
 30
0.0
 11
-24.99999999999974
 21
-36.39999999999982
 31
0.0
 70
    32
  1
<>
 51
359.9999999999998
  3
AM_JIS$0
100
AcDbAlignedDimension
 13
-0.0000000000002274
 23
-24.99999999999983
 33
0.0
 14
-49.99999999999926
 24
-20.99999237060993
 34
0.0
100
AcDbRotatedDimension
1001
GENIUS_GENDTOL_13
1000

1000
h7
1000

1040
0.0
1001
ACAD
1000
DSTYLE
1002
{
1070
   287
1070
     3
1070
    42
1040
1.0
1070
    43
1040
12.0
1070
    48
1040
0.1
1070
    78
1070
     8
1070
   140
1040
3.2
1070
   147
1040
1.0
1070
   176
1070
   256
1070
   177
1070
   256
1070
   271
1070
     1
1070
   272
1070
     3
1070
   275
1070
     0
1070
   284
1070
     0
1070
   289
1070
     3
1070
   340
1005
6B
1070
   371
1070
    -1
1070
   372
1070
    -1
1002
}
  0
DIMENSION
  5
CDD9
330
1F
100
AcDbEntity
  8
AM_5
100
AcDbDimension
  2
*D8
 10
-169.9999999999962
 20
-38.99999999999982
 30
0.0
 11
-109.9999999999977
 21
-36.39999999999982
 31
0.0
 70
    32
  1
<>
 51
359.9999999999998
  3
AM_JIS$0
100
AcDbAlignedDimension
 13
-49.99999999999926
 23
-20.99999237060993
 33
0.0
 14
-169.9999999999962
 24
-20.19615936279018
 34
0.0
100
AcDbRotatedDimension
1001
GENIUS_GENDTOL_13
1000

1000
h7
1000

1040
0.0
1001
ACAD
1000
DSTYLE
1002
{
1070
   287
1070
     3
1070
    42
1040
1.0
1070
    43
1040
12.0
1070
    48
1040
0.1
1070
    78
1070
     8
1070
   140
1040
3.2
1070
   147
1040
1.0
1070
   176
1070
   256
1070
   177
1070
   256
1070
   271
1070
     1
1070
   272
1070
     3
1070
   275
1070
     0
1070
   284
1070
     0
1070
   289
1070
     3
1070
   340
1005
6B
1070
   371
1070
    -1
1070
   372
1070
    -1
1002
}
  0
DIMENSION
  5
CE65
330
1F
100
AcDbEntity
  8
AM_5
100
AcDbDimension
  2
*D9
 10
-169.9999999999962
 20
-48.99999999999983
 30
0.0
 11
-84.99999999999824
 21
-46.39999999999982
 31
0.0
 70
    32
  1
<>
 51
359.9999999999998
  3
AM_JIS$0
100
AcDbAlignedDimension
 13
-0.0000000000002274
 23
-24.99999999999983
 33
0.0
 14
-169.9999999999962
 24
-20.19615936279018
 34
0.0
100
AcDbRotatedDimension
1001
GENIUS_GENDTOL_13
1000

1000
h7
1000

1040
0.0
1001
ACAD
1000
DSTYLE
1002
{
1070
   287
1070
     3
1070
   147
1040
1.0
1070
    41
1040
2.5
1070
    40
1040
1.0
1070
    42
1040
1.0
1070
    43
1040
12.0
1070
    48
1040
0.1
1070
    78
1070
     8
1070
   140
1040
3.2
1070
   176
1070
   256
1070
   177
1070
   256
1070
   271
1070
     1
1070
   272
1070
     3
1070
   275
1070
     0
1070
   284
1070
     0
1070
   289
1070
     3
1070
   340
1005
6B
1070
   371
1070
    -1
1070
   372
1070
    -1
1002
}
  0
DIMENSION
  5
CF27
330
1F
100
AcDbEntity
  8
AM_5
100
AcDbDimension
  2
*D10
 10
-41.29999923706029
 20
-19.29062342643624
 30
0.0
 11
-41.29999923706029
 21
4.637535380320628
 31
0.0
 70
   160
  1
%%c<>
 51
359.9999999999998
  3
AM_JIS$0
100
AcDbAlignedDimension
 13
-48.29999923706029
 23
19.29063105582838
 33
0.0
 14
-48.2999992370602
 24
-19.29062342643624
 34
0.0
 50
90.0
100
AcDbRotatedDimension
1001
GENIUS_GENDTOL_13
1000

1000
h7
1000

1040
0.0
1001
ACAD
1000
DSTYLE
1002
{
1070
   287
1070
     3
1070
    42
1040
1.0
1070
    43
1040
12.0
1070
    48
1040
0.1
1070
    78
1070
     8
1070
   140
1040
3.2
1070
   147
1040
1.0
1070
   176
1070
   256
1070
   177
1070
   256
1070
   271
1070
     1
1070
   272
1070
     3
1070
   275
1070
     0
1070
   284
1070
     0
1070
   289
1070
     3
1070
   340
1005
6B
1070
   371
1070
    -1
1070
   372
1070
    -1
1002
}
  0
DIMENSION
  5
CFD2
330
1F
100
AcDbEntity
  8
AM_5
100
AcDbDimension
  2
*D11
 10
-183.9999999999962
 20
-20.99999237061018
 30
0.0
 11
-186.5999999999962
 21
-0.0000000000047135
 31
0.0
 70
    32
  1
%%c<>
 51
359.9999999999998
  3
AM_JIS$0
100
AcDbAlignedDimension
 13
-166.9999847412063
 23
20.9999923706008
 33
0.0
 14
-166.9999847412062
 24
-20.99999237061018
 34
0.0
 50
270.0
100
AcDbRotatedDimension
1001
GENIUS_GENDTOL_13
1000

1000
h7
1000

1040
0.0
1001
ACAD
1000
DSTYLE
1002
{
1070
   287
1070
     3
1070
    42
1040
1.0
1070
    43
1040
12.0
1070
    48
1040
0.1
1070
    78
1070
     8
1070
   140
1040
3.2
1070
   147
1040
1.0
1070
   176
1070
   256
1070
   177
1070
   256
1070
   271
1070
     1
1070
   272
1070
     3
1070
   275
1070
     0
1070
   284
1070
     0
1070
   289
1070
     3
1070
   340
1005
6B
1070
   371
1070
    -1
1070
   372
1070
    -1
1002
}
  0
VIEWPORT
  5
110
330
101
100
AcDbEntity
 67
     1
  8
0
100
AcDbViewport
 10
420.5
 20
297.0
 30
0.0
 40
948.9782706766916
 41
628.452
 68
     1
 69
     1
1001
ACAD
1000
MVIEW
1002
{
1070
    16
1010
0.0
1020
0.0
1030
0.0
1010
0.0
1020
0.0
1030
1.0
1040
0.0
1040
628.452
1040
420.5
1040
297.0
1040
50.0
1040
0.0
1040
0.0
1070
     0
1070
   100
1070
     1
1070
     1
1070
     0
1070
     0
1070
     0
1070
     0
1040
0.0
1040
0.0
1040
0.0
1040
10.0
1040
10.0
1040
10.0
1040
10.0
1070
     0
1002
{
1002
}
1002
}
  0
ENDSEC
  0
SECTION
  2
OBJECTS
  0
DICTIONARY
  5
C
330
0
100
AcDbDictionary
  3
ACAD_GROUP
350
D
  3
ACAD_LAYOUT
350
1A
  3
ACAD_MLINESTYLE
350
17
  3
ACAD_PLOTSETTINGS
350
19
  3
ACAD_PLOTSTYLENAME
350
E
  3
ACDBVARIABLEDICTIONARY
350
34
  3
ACMDICTIONARY
350
43
  3
AMG
350
2B
  3
AMGSNAPSETTINGS
350
6E
  3
DWGPROPS
350
D3DC
  3
ACDBHEADERROUNDTRIPXREC
350
D3E8
  0
DICTIONARY
  5
74
330
1F
100
AcDbDictionary
280
     1
  3
ACAD_INDEX
360
D3DE
  3
ACAD_LAYOUTSELFREF
360
D40B
  0
DICTIONARY
  5
D410
330
101
100
AcDbDictionary
280
     1
  3
ACAD_LAYOUTSELFREF
360
D411
  0
DICTIONARY
  5
D
102
{ACAD_REACTORS
330
C
102
}
330
C
100
AcDbDictionary
  0
DICTIONARY
  5
1A
102
{ACAD_REACTORS
330
C
102
}
330
C
100
AcDbDictionary
  0
DICTIONARY
  5
17
102
{ACAD_REACTORS
330
C
102
}
330
C
100
AcDbDictionary
  3
STANDARD
350
18
  0
DICTIONARY
  5
19
102
{ACAD_REACTORS
330
C
102
}
330
C
100
AcDbDictionary
  3
ASAMI
350
399D
  0
ACDBDICTIONARYWDFLT
  5
E
102
{ACAD_REACTORS
330
C
102
}
330
C
100
AcDbDictionary
281
     1
  3
Normal
350
F
100
AcDbDictionaryWithDefault
340
F
  0
DICTIONARY
  5
34
102
{ACAD_REACTORS
330
C
102
}
330
C
100
AcDbDictionary
  3
INDEXCTL
350
35
  3
SORTENTS
350
B5E
  0
DICTIONARY
  5
43
102
{ACAD_REACTORS
330
C
102
}
330
C
100
AcDbDictionary
  3
ACMSTDDICTIONARY
350
260
  0
DICTIONARY
  5
2B
102
{ACAD_REACTORS
330
C
102
}
330
C
100
AcDbDictionary
  3
ACMGSETTINGS
350
2C
  0
DICTIONARY
  5
6E
102
{ACAD_REACTORS
330
C
102
}
330
C
100
AcDbDictionary
  0
XRECORD
  5
D3DC
102
{ACAD_REACTORS
330
C
102
}
330
C
100
AcDbXrecord
  1
DWGPROPS COOKIE
  2

  3

  4

  6

  7

  8

  9

300
AmdtFileType=82
301
=
302
=
303
=
304
=
305
=
306
=
307
=
308
=
309
=
 40
0.941294236111111
 41
2452802.716478761
 42
2453075.697725867
  1

 90
        1
  0
DICTIONARY
  5
D3E8
102
{ACAD_REACTORS
330
C
102
}
330
C
100
AcDbDictionary
  3
TSTACKALIGN
350
D3E9
  3
TSTACKSIZE
350
D3EA
  3
HYPERLINKBASE
350
D3EB
  3
STYLESHEET
350
D3EC
  3
LAYOUTDICT
350
D3ED
  3
PLOTSETDICT
350
D3EE
  3
PLOTSTYLNAMDICT
350
D3EF
  3
LWETCUNION
350
D3F0
  3
INSUNITS
350
D3F1
  3
CEPSNTYPE
350
D3F2
  3
FINGERPRINTGUID
350
D3F3
  3
VERSIONGUID
350
D3F4
  3
PSVPSCALE
350
D3F5
  3
DIMSTYLEDATA
350
D3F6
  3
PUCSORTHOREF
350
D3F7
  3
PUCSORTHOVIEW
350
D3F8
  3
PUCSBASE
350
D3F9
  3
PUCSORGTOP
350
D3FA
  3
PUCSORGBOTTOM
350
D3FB
  3
PUCSORGLEFT
350
D3FC
  3
PUCSORGRIGHT
350
D3FD
  3
PUCSORGFRONT
350
D3FE
  3
PUCSORGBACK
350
D3FF
  3
UCSORTHOREF
350
D400
  3
UCSORTHOVIEW
350
D401
  3
UCSBASE
350
D402
  3
UCSORGTOP
350
D403
  3
UCSORGBOTTOM
350
D404
  3
UCSORGLEFT
350
D405
  3
UCSORGRIGHT
350
D406
  3
UCSORGFRONT
350
D407
  3
UCSORGBACK
350
D408
  0
DICTIONARY
  5
D3DE
102
{ACAD_REACTORS
330
74
102
}
330
74
100
AcDbDictionary
  3
*A1
350
D3DF
  0
XRECORD
  5
D40B
102
{ACAD_REACTORS
330
74
102
}
330
74
100
AcDbXrecord
340
1F
  0
XRECORD
  5
D411
102
{ACAD_REACTORS
330
D410
102
}
330
D410
100
AcDbXrecord
340
101
  0
MLINESTYLE
  5
18
102
{ACAD_REACTORS
330
17
102
}
330
17
100
AcDbMlineStyle
  2
STANDARD
 70
     0
  3

 62
   256
 51
90.0
 52
90.0
 71
     2
 49
0.5
 62
   256
  6
BYLAYER
 49
-0.5
 62
   256
  6
BYLAYER
  0
PLOTSETTINGS
  5
399D
102
{ACAD_REACTORS
330
19
102
}
330
19
100
AcDbPlotSettings
  1
asami
  2
RICOH imagio MF1540
  4
A4
  6

 40
5.831416606903076
 41
7.651742935180664
 42
4.90008544921875
 43
5.789077758789062
 44
296.9683227539062
 45
209.9733276367187
 46
0.0
 47
0.0
 48
-156.6707931774246
 49
-74.57609991074048
140
58.59973180214831
141
60.61068161925596
142
1.0
143
1.095343097833084
 70
  1712
 72
     1
 73
     1
 74
     4
  7
asami.ctb
 75
     0
147
0.9129559514076438
148
156.6707931774246
149
74.57609991074048
  0
ACDBPLACEHOLDER
  5
F
102
{ACAD_REACTORS
330
E
102
}
330
E
100
AcDbPlaceHolder
280
     0
  0
DICTIONARYVAR
  5
35
102
{ACAD_REACTORS
330
34
102
}
330
34
100
DictionaryVariables
280
     0
  1
1
  0
DICTIONARYVAR
  5
B5E
102
{ACAD_REACTORS
330
34
102
}
330
34
100
DictionaryVariables
280
     0
  1
96
  0
DICTIONARY
  5
260
102
{ACAD_REACTORS
330
43
102
}
330
43
100
AcDbDictionary
  0
DICTIONARY
  5
2C
102
{ACAD_REACTORS
330
2B
102
}
330
2B
100
AcDbDictionary
  3
DWGSETTINGS
350
2D
  0
XRECORD
  5
D3E9
102
{ACAD_REACTORS
330
D3E8
102
}
330
D3E8
100
AcDbXrecord
 90
        1
  0
XRECORD
  5
D3EA
102
{ACAD_REACTORS
330
D3E8
102
}
330
D3E8
100
AcDbXrecord
 90
       70
  0
XRECORD
  5
D3EB
102
{ACAD_REACTORS
330
D3E8
102
}
330
D3E8
100
AcDbXrecord
  1

  0
XRECORD
  5
D3EC
102
{ACAD_REACTORS
330
D3E8
102
}
330
D3E8
100
AcDbXrecord
  1
ASAMI.ctb
  0
XRECORD
  5
D3ED
102
{ACAD_REACTORS
330
D3E8
102
}
330
D3E8
100
AcDbXrecord
340
1A
  0
XRECORD
  5
D3EE
102
{ACAD_REACTORS
330
D3E8
102
}
330
D3E8
100
AcDbXrecord
340
19
  0
XRECORD
  5
D3EF
102
{ACAD_REACTORS
330
D3E8
102
}
330
D3E8
100
AcDbXrecord
340
E
  0
XRECORD
  5
D3F0
102
{ACAD_REACTORS
330
D3E8
102
}
330
D3E8
100
AcDbXrecord
 90
    10781
  0
XRECORD
  5
D3F1
102
{ACAD_REACTORS
330
D3E8
102
}
330
D3E8
100
AcDbXrecord
 90
        4
  0
XRECORD
  5
D3F2
102
{ACAD_REACTORS
330
D3E8
102
}
330
D3E8
100
AcDbXrecord
 90
        0
  0
XRECORD
  5
D3F3
102
{ACAD_REACTORS
330
D3E8
102
}
330
D3E8
100
AcDbXrecord
  1
{AFB28963-8C59-40AE-9337-C84526B81ACE}
  0
XRECORD
  5
D3F4
102
{ACAD_REACTORS
330
D3E8
102
}
330
D3E8
100
AcDbXrecord
  1
{4467CE11-317A-4173-97AE-D484ED49B8A3}
  0
XRECORD
  5
D3F5
102
{ACAD_REACTORS
330
D3E8
102
}
330
D3E8
100
AcDbXrecord
 40
0.0
  0
XRECORD
  5
D3F6
102
{ACAD_REACTORS
330
D3E8
102
}
330
D3E8
100
AcDbXrecord
1000
DSTYLE
1002
{
1070
    79
 70
     2
1070
   341
340
59
1070
   342
340
59
1070
   371
 70
    -1
1070
   372
 70
    -1
1002
}
  0
XRECORD
  5
D3F7
102
{ACAD_REACTORS
330
D3E8
102
}
330
D3E8
100
AcDbXrecord
340
0
  0
XRECORD
  5
D3F8
102
{ACAD_REACTORS
330
D3E8
102
}
330
D3E8
100
AcDbXrecord
 70
     0
  0
XRECORD
  5
D3F9
102
{ACAD_REACTORS
330
D3E8
102
}
330
D3E8
100
AcDbXrecord
340
0
  0
XRECORD
  5
D3FA
102
{ACAD_REACTORS
330
D3E8
102
}
330
D3E8
100
AcDbXrecord
 10
0.0
 20
0.0
 30
0.0
  0
XRECORD
  5
D3FB
102
{ACAD_REACTORS
330
D3E8
102
}
330
D3E8
100
AcDbXrecord
 10
0.0
 20
0.0
 30
0.0
  0
XRECORD
  5
D3FC
102
{ACAD_REACTORS
330
D3E8
102
}
330
D3E8
100
AcDbXrecord
 10
0.0
 20
0.0
 30
0.0
  0
XRECORD
  5
D3FD
102
{ACAD_REACTORS
330
D3E8
102
}
330
D3E8
100
AcDbXrecord
 10
0.0
 20
0.0
 30
0.0
  0
XRECORD
  5
D3FE
102
{ACAD_REACTORS
330
D3E8
102
}
330
D3E8
100
AcDbXrecord
 10
0.0
 20
0.0
 30
0.0
  0
XRECORD
  5
D3FF
102
{ACAD_REACTORS
330
D3E8
102
}
330
D3E8
100
AcDbXrecord
 10
0.0
 20
0.0
 30
0.0
  0
XRECORD
  5
D400
102
{ACAD_REACTORS
330
D3E8
102
}
330
D3E8
100
AcDbXrecord
340
0
  0
XRECORD
  5
D401
102
{ACAD_REACTORS
330
D3E8
102
}
330
D3E8
100
AcDbXrecord
 70
     0
  0
XRECORD
  5
D402
102
{ACAD_REACTORS
330
D3E8
102
}
330
D3E8
100
AcDbXrecord
340
0
  0
XRECORD
  5
D403
102
{ACAD_REACTORS
330
D3E8
102
}
330
D3E8
100
AcDbXrecord
 10
0.0
 20
0.0
 30
0.0
  0
XRECORD
  5
D404
102
{ACAD_REACTORS
330
D3E8
102
}
330
D3E8
100
AcDbXrecord
 10
0.0
 20
0.0
 30
0.0
  0
XRECORD
  5
D405
102
{ACAD_REACTORS
330
D3E8
102
}
330
D3E8
100
AcDbXrecord
 10
0.0
 20
0.0
 30
0.0
  0
XRECORD
  5
D406
102
{ACAD_REACTORS
330
D3E8
102
}
330
D3E8
100
AcDbXrecord
 10
0.0
 20
0.0
 30
0.0
  0
XRECORD
  5
D407
102
{ACAD_REACTORS
330
D3E8
102
}
330
D3E8
100
AcDbXrecord
 10
0.0
 20
0.0
 30
0.0
  0
XRECORD
  5
D408
102
{ACAD_REACTORS
330
D3E8
102
}
330
D3E8
100
AcDbXrecord
 10
0.0
 20
0.0
 30
0.0
  0
LAYER_INDEX
  5
D3DF
102
{ACAD_REACTORS
330
D3DE
102
}
330
D3DE
100
AcDbIndex
 40
2453152.375802766
100
AcDbLayerIndex
  8
0
360
D3E0
 90
        0
  8
AM_0
360
D3E1
 90
      153
  8
AM_5
360
D3E2
 90
        7
  8
AM_7
360
D3E3
 90
        1
  8
AM_6
360
D3E4
 90
        1
  8
Defpoints
360
D3E5
 90
        0
  8
AM_11
360
D3E6
 90
        4
  0
XRECORD
  5
2D
102
{ACAD_REACTORS
330
2C
102
}
330
2C
100
AcDbXrecord
  1
VERSION
140
15.0
  1
PRODUCT
  2
AutoCAD Mechanical 2000
  0
IDBUFFER
  5
D3E0
330
0
100
AcDbIdBuffer
  0
IDBUFFER
  5
D3E1
330
0
100
AcDbIdBuffer
330
CAC2
330
CAC3
330
CAC4
330
CAC5
330
CAC6
330
CAC7
330
CAC8
330
CAC9
330
CACA
330
CACB
330
CACC
330
CACD
330
CACE
330
CACF
330
CAD0
330
CAD1
330
CAD2
330
CAD3
330
CAD4
330
CAD5
330
CAD6
330
CAD7
330
CAD8
330
CAD9
330
CADA
330
CADB
330
CADC
330
CADD
330
CADE
330
CADF
330
CAE0
330
CAE1
330
CAE2
330
CAE3
330
CAE4
330
CAE5
330
CAE6
330
CAE7
330
CAE9
330
CAEA
330
CAEB
330
CA10
330
CA11
330
CA12
330
CA13
330
CA14
330
CA15
330
CA16
330
CA17
330
CA18
330
CA19
330
CA1C
330
CA1D
330
CA1E
330
CA1F
330
CA20
330
CA21
330
CA22
330
CA23
330
CA24
330
CA25
330
CA26
330
CA27
330
CA28
330
CA29
330
CA2A
330
CA2B
330
CA2C
330
CA2F
330
CA30
330
CA31
330
CA32
330
CA33
330
CA34
330
CA35
330
CA36
330
CA37
330
CA39
330
CA3A
330
CA3B
330
CA3C
330
CA3D
330
CA3E
330
CA3F
330
CA40
330
CA41
330
CA42
330
CA43
330
CA44
330
CA45
330
CA46
330
CA47
330
CA48
330
CA49
330
CA4A
330
CA4B
330
CA4C
330
CA4D
330
CA4E
330
CA4F
330
CA50
330
CA51
330
CA52
330
CA53
330
CA54
330
CA55
330
CA56
330
CA57
330
CA58
330
CA59
330
CA5A
330
CA5B
330
CA5C
330
CA5D
330
CA5E
330
CA5F
330
CA60
330
CA61
330
CA62
330
CA8C
330
CA8D
330
CA8E
330
CA8F
330
CA90
330
CA91
330
CA99
330
CA9A
330
CA9B
330
CA9C
330
CA9D
330
CA9E
330
CA9F
330
CAA0
330
CAA1
330
CAA2
330
CAA3
330
CAB1
330
CAB2
330
CAB3
330
CAB4
330
CAB5
330
CAB6
330
CAB7
330
CAB8
330
CAB9
330
CABA
330
CABB
330
CABC
330
CABD
330
CABE
330
CABF
330
CAC0
330
CAC1
  0
IDBUFFER
  5
D3E2
330
0
100
AcDbIdBuffer
330
CBF8
330
CCC1
330
CD4D
330
CDD9
330
CE65
330
CF27
330
CFD2
  0
IDBUFFER
  5
D3E3
330
0
100
AcDbIdBuffer
330
CA1A
  0
IDBUFFER
  5
D3E4
330
0
100
AcDbIdBuffer
330
388D
  0
IDBUFFER
  5
D3E5
330
0
100
AcDbIdBuffer
  0
IDBUFFER
  5
D3E6
330
0
100
AcDbIdBuffer
330
CBDC
330
CBE4
330
CBEC
330
CBF0
  0
ENDSEC
  0
EOF
