  0
SECTION
  2
HEADER
  9
$ACADVER
  1
AC1015
  9
$ACADMAINTVER
 70
    20
  9
$DWGCODEPAGE
  3
ANSI_932
  9
$INSBASE
 10
0.0
 20
0.0
 30
0.0
  9
$EXTMIN
 10
-131.2395212875057
 20
-33.24999952316237
 30
0.0
  9
$EXTMAX
 10
8.866607354713131
 20
19.35000290734896
 30
0.0
  9
$LIMMIN
 10
-142.1672445544134
 20
-60.29359472826929
  9
$LIMMAX
 10
50.98038925130265
 20
41.44180437186355
  9
$ORTHOMODE
 70
     0
  9
$REGENMODE
 70
     1
  9
$FILLMODE
 70
     1
  9
$QTEXTMODE
 70
     0
  9
$MIRRTEXT
 70
     0
  9
$LTSCALE
 40
1.0
  9
$ATTMODE
 70
     1
  9
$TEXTSIZE
 40
2.5
  9
$TRACEWID
 40
1.0
  9
$TEXTSTYLE
  7
STANDARD
  9
$CLAYER
  8
AM_0
  9
$CELTYPE
  6
BYLAYER
  9
$CECOLOR
 62
   256
  9
$CELTSCALE
 40
1.0
  9
$DISPSILH
 70
     0
  9
$DIMSCALE
 40
0.5
  9
$DIMASZ
 40
2.5
  9
$DIMEXO
 40
1.0
  9
$DIMDLI
 40
12.0
  9
$DIMRND
 40
0.0
  9
$DIMDLE
 40
0.0
  9
$DIMEXE
 40
1.0
  9
$DIMTP
 40
0.1
  9
$DIMTM
 40
0.1
  9
$DIMTXT
 40
3.2
  9
$DIMCEN
 40
0.0
  9
$DIMTSZ
 40
0.0
  9
$DIMTOL
 70
     0
  9
$DIMLIM
 70
     0
  9
$DIMTIH
 70
     0
  9
$DIMTOH
 70
     0
  9
$DIMSE1
 70
     0
  9
$DIMSE2
 70
     0
  9
$DIMTAD
 70
     3
  9
$DIMZIN
 70
     8
  9
$DIMBLK
  1
Open30
  9
$DIMASO
 70
     1
  9
$DIMSHO
 70
     1
  9
$DIMPOST
  1

  9
$DIMAPOST
  1
"
  9
$DIMALT
 70
     0
  9
$DIMALTD
 70
     2
  9
$DIMALTF
 40
0.0393701
  9
$DIMLFAC
 40
1.0
  9
$DIMTOFL
 70
     1
  9
$DIMTVP
 40
0.0
  9
$DIMTIX
 70
     0
  9
$DIMSOXD
 70
     0
  9
$DIMSAH
 70
     0
  9
$DIMBLK1
  1

  9
$DIMBLK2
  1

  9
$DIMSTYLE
  2
AM_JIS
  9
$DIMCLRD
 70
   256
  9
$DIMCLRE
 70
   256
  9
$DIMCLRT
 70
     2
  9
$DIMTFAC
 40
0.71
  9
$DIMGAP
 40
1.5
  9
$DIMJUST
 70
     0
  9
$DIMSD1
 70
     0
  9
$DIMSD2
 70
     0
  9
$DIMTOLJ
 70
     0
  9
$DIMTZIN
 70
     0
  9
$DIMALTZ
 70
     0
  9
$DIMALTTZ
 70
     0
  9
$DIMUPT
 70
     0
  9
$DIMDEC
 70
     3
  9
$DIMTDEC
 70
     3
  9
$DIMALTU
 70
     2
  9
$DIMALTTD
 70
     2
  9
$DIMTXSTY
  7
ASAMI
  9
$DIMAUNIT
 70
     0
  9
$DIMADEC
 70
     0
  9
$DIMALTRND
 40
0.0
  9
$DIMAZIN
 70
     2
  9
$DIMDSEP
 70
    46
  9
$DIMATFIT
 70
     3
  9
$DIMFRAC
 70
     0
  9
$DIMLDRBLK
  1
Open30
  9
$DIMLUNIT
 70
     2
  9
$DIMLWD
 70
    -1
  9
$DIMLWE
 70
    -1
  9
$DIMTMOVE
 70
     0
  9
$LUNITS
 70
     2
  9
$LUPREC
 70
     2
  9
$SKETCHINC
 40
1.0
  9
$FILLETRAD
 40
0.4
  9
$AUNITS
 70
     0
  9
$AUPREC
 70
     0
  9
$MENU
  1
.
  9
$ELEVATION
 40
0.0
  9
$PELEVATION
 40
0.0
  9
$THICKNESS
 40
0.0
  9
$LIMCHECK
 70
     1
  9
$CHAMFERA
 40
1.0
  9
$CHAMFERB
 40
1.0
  9
$CHAMFERC
 40
20.0
  9
$CHAMFERD
 40
0.0
  9
$SKPOLY
 70
     0
  9
$TDCREATE
 40
2452802.716478762
  9
$TDUCREATE
 40
2452802.341478762
  9
$TDUPDATE
 40
2453691.775893368
  9
$TDUUPDATE
 40
2453691.400893368
  9
$TDINDWG
 40
0.8187021296
  9
$TDUSRTIMER
 40
0.8187021296
  9
$USRTIMER
 70
     1
  9
$ANGBASE
 50
0.0
  9
$ANGDIR
 70
     0
  9
$PDMODE
 70
     0
  9
$PDSIZE
 40
0.0
  9
$PLINEWID
 40
0.0
  9
$SPLFRAME
 70
     0
  9
$SPLINETYPE
 70
     6
  9
$SPLINESEGS
 70
     8
  9
$HANDSEED
  5
7B40
  9
$SURFTAB1
 70
     6
  9
$SURFTAB2
 70
     6
  9
$SURFTYPE
 70
     6
  9
$SURFU
 70
     6
  9
$SURFV
 70
     6
  9
$UCSBASE
  2

  9
$UCSNAME
  2

  9
$UCSORG
 10
-0.0000000000002682
 20
0.000000000000161
 30
0.0
  9
$UCSXDIR
 10
1.0
 20
0.000000000000002
 30
0.0
  9
$UCSYDIR
 10
-0.000000000000002
 20
1.0
 30
0.0
  9
$UCSORTHOREF
  2

  9
$UCSORTHOVIEW
 70
     0
  9
$UCSORGTOP
 10
0.0
 20
0.0
 30
0.0
  9
$UCSORGBOTTOM
 10
0.0
 20
0.0
 30
0.0
  9
$UCSORGLEFT
 10
0.0
 20
0.0
 30
0.0
  9
$UCSORGRIGHT
 10
0.0
 20
0.0
 30
0.0
  9
$UCSORGFRONT
 10
0.0
 20
0.0
 30
0.0
  9
$UCSORGBACK
 10
0.0
 20
0.0
 30
0.0
  9
$PUCSBASE
  2

  9
$PUCSNAME
  2

  9
$PUCSORG
 10
0.0
 20
0.0
 30
0.0
  9
$PUCSXDIR
 10
1.0
 20
0.0
 30
0.0
  9
$PUCSYDIR
 10
0.0
 20
1.0
 30
0.0
  9
$PUCSORTHOREF
  2

  9
$PUCSORTHOVIEW
 70
     0
  9
$PUCSORGTOP
 10
0.0
 20
0.0
 30
0.0
  9
$PUCSORGBOTTOM
 10
0.0
 20
0.0
 30
0.0
  9
$PUCSORGLEFT
 10
0.0
 20
0.0
 30
0.0
  9
$PUCSORGRIGHT
 10
0.0
 20
0.0
 30
0.0
  9
$PUCSORGFRONT
 10
0.0
 20
0.0
 30
0.0
  9
$PUCSORGBACK
 10
0.0
 20
0.0
 30
0.0
  9
$USERI1
 70
     0
  9
$USERI2
 70
     0
  9
$USERI3
 70
     0
  9
$USERI4
 70
     0
  9
$USERI5
 70
     0
  9
$USERR1
 40
0.0
  9
$USERR2
 40
0.0
  9
$USERR3
 40
0.0
  9
$USERR4
 40
0.0
  9
$USERR5
 40
0.0
  9
$WORLDVIEW
 70
     1
  9
$SHADEDGE
 70
     3
  9
$SHADEDIF
 70
    70
  9
$TILEMODE
 70
     1
  9
$MAXACTVP
 70
    64
  9
$PINSBASE
 10
0.0
 20
0.0
 30
0.0
  9
$PLIMCHECK
 70
     0
  9
$PEXTMIN
 10
1.000000000000000E+20
 20
1.000000000000000E+20
 30
1.000000000000000E+20
  9
$PEXTMAX
 10
-1.000000000000000E+20
 20
-1.000000000000000E+20
 30
-1.000000000000000E+20
  9
$PLIMMIN
 10
0.0
 20
0.0
  9
$PLIMMAX
 10
841.0
 20
594.0
  9
$UNITMODE
 70
     0
  9
$VISRETAIN
 70
     1
  9
$PLINEGEN
 70
     0
  9
$PSLTSCALE
 70
     0
  9
$TREEDEPTH
 70
  3020
  9
$CMLSTYLE
  2
STANDARD
  9
$CMLJUST
 70
     0
  9
$CMLSCALE
 40
20.0
  9
$PROXYGRAPHICS
 70
     1
  9
$MEASUREMENT
 70
     1
  9
$CELWEIGHT
370
    -1
  9
$ENDCAPS
280
     0
  9
$JOINSTYLE
280
     0
  9
$LWDISPLAY
290
     0
  9
$INSUNITS
 70
     4
  9
$HYPERLINKBASE
  1

  9
$STYLESHEET
  1
ASAMI.ctb
  9
$XEDIT
290
     1
  9
$CEPSNTYPE
380
     0
  9
$PSTYLEMODE
290
     1
  9
$FINGERPRINTGUID
  2
{AFB28963-8C59-40AE-9337-C84526B81ACE}
  9
$VERSIONGUID
  2
{280077B5-65F7-4879-BB47-B36F03716094}
  9
$EXTNAMES
290
     1
  9
$PSVPSCALE
 40
0.0
  9
$OLESTARTUP
290
     0
  0
ENDSEC
  0
SECTION
  2
CLASSES
  0
CLASS
  1
ACDBDICTIONARYWDFLT
  2
AcDbDictionaryWithDefault
  3
ObjectDBX Classes
 90
        0
280
     0
281
     0
  0
CLASS
  1
ACDBPLACEHOLDER
  2
AcDbPlaceHolder
  3
ObjectDBX Classes
 90
        0
280
     0
281
     0
  0
CLASS
  1
LAYOUT
  2
AcDbLayout
  3
ObjectDBX Classes
 90
        0
280
     0
281
     0
  0
CLASS
  1
AMGSETTINGSOBJ
  2
AmgSettingsObj
  3
"AcadM|Product Description: AutoCAD Mechanical 2000|Company: Autodesk"
 90
        0
280
     0
281
     0
  0
CLASS
  1
ACME_DOCUMENT
  2
AcMeDbDoc
  3
AcMeServices
 90
        0
280
     0
281
     0
  0
CLASS
  1
ACMESCOPE
  2
AcMeScope
  3
AcMeServices
 90
        0
280
     0
281
     0
  0
CLASS
  1
ACMECOMMANDHISTORY
  2
AcMeCommandHistory
  3
AcMeServices
 90
        0
280
     0
281
     0
  0
CLASS
  1
DICTIONARYVAR
  2
AcDbDictionaryVar
  3
ObjectDBX Classes
 90
        0
280
     0
281
     0
  0
CLASS
  1
ACIMSYSVARMAN
  2
AcImSysVarManager
  3
AcMeServices
 90
        0
280
     0
281
     0
  0
CLASS
  1
ACIMREALSYSVAR
  2
AcImRealSysVar
  3
AcMeServices
 90
        0
280
     0
281
     0
  0
CLASS
  1
ACIMINTSYSVAR
  2
AcImIntSysVar
  3
AcMeServices
 90
        0
280
     0
281
     0
  0
CLASS
  1
ACMEDRAWINGMAN
  2
AcMeDrawingMan
  3
AcMeServices
 90
        0
280
     0
281
     0
  0
CLASS
  1
ACMEVIEW
  2
AcMeView
  3
AcMeServices
 90
        0
280
     0
281
     0
  0
CLASS
  1
ACDBENTITYCACHE
  2
AcMeEntityCache
  3
AcMeServices
 90
        0
280
     0
281
     0
  0
CLASS
  1
GSMANAGER
  2
AcMeGSManager
  3
AcMeServices
 90
        0
280
     0
281
     0
  0
CLASS
  1
AMDTINTERNALREACTOR
  2
AmdtInternalReactor
  3
AcMeServices
 90
        0
280
     0
281
     0
  0
CLASS
  1
ACMESTATEMGR
  2
AcMeStateMgr
  3
AcMeServices
 90
        0
280
     0
281
     0
  0
CLASS
  1
ACME_DATABASE
  2
AcMeDbDatabase
  3
AcMeServices
 90
        0
280
     0
281
     0
  0
CLASS
  1
ACRFINSADJUSTERMGR
  2
AcRfInsAdjusterMgr
  3
AcMeServices
 90
        0
280
     0
281
     0
  0
CLASS
  1
ACMDATADICTIONARY
  2
AcmDataDictionary
  3
"AcmSymBB|Product Description: AutoCAD Mechanical 2004 DX|Company: Autodesk"
 90
        0
280
     0
281
     0
  0
CLASS
  1
ACMDATAENTRYBLOCK
  2
AcmDataEntryBlock
  3
"AcmSymBB|Product Description: AutoCAD Mechanical 2004 DX|Company: Autodesk"
 90
    32768
280
     0
281
     0
  0
CLASS
  1
AMGOBJPROPCFG
  2
AmgObjPropCfg
  3
"AmgLay|Product Description: AutoCAD Mechanical 2000|Company: Autodesk"
 90
        1
280
     0
281
     0
  0
CLASS
  1
ACAMGFILTERDAT
  2
AcAmgFilterDat
  3
"AcadM|Product Description: AutoCAD Mechanical 2000|Company: Autodesk"
 90
    32768
280
     0
281
     0
  0
CLASS
  1
LAYER_INDEX
  2
AcDbLayerIndex
  3
ObjectDBX Classes
 90
        0
280
     0
281
     0
  0
CLASS
  1
IDBUFFER
  2
AcDbIdBuffer
  3
ObjectDBX Classes
 90
        0
280
     0
281
     0
  0
CLASS
  1
ACIMSTRSYSVAR
  2
AcImStrSysVar
  3
AcMeServices
 90
        0
280
     0
281
     0
  0
CLASS
  1
ACMSTANDARDJIS
  2
AcmStandardJIS
  3
"Amdt_StdImp|Product Description: AutoCAD Mechanical 2004 DX|Company: Autodesk"
 90
        0
280
     0
281
     0
  0
CLASS
  1
ACMSURFSTANDARDJIS
  2
AcmSurfTextStdJIS
  3
"Amdt_StdImp|Product Description: AutoCAD Mechanical 2004 DX|Company: Autodesk"
 90
        0
280
     0
281
     0
  0
CLASS
  1
ACMFCFSTANDARDJIS
  2
AcmFCFStdJIS
  3
"Amdt_StdImp|Product Description: AutoCAD Mechanical 2004 DX|Company: Autodesk"
 90
    32768
280
     0
281
     0
  0
CLASS
  1
ACMWELDSTANDARDJIS
  2
AcmWeldingStdJIS
  3
"Amdt_StdImp|Product Description: AutoCAD Mechanical 2004 DX|Company: Autodesk"
 90
        0
280
     0
281
     0
  0
CLASS
  1
ACMIDSTANDARDJIS
  2
AcmIdStdJIS
  3
"Amdt_StdImp|Product Description: AutoCAD Mechanical 2004 DX|Company: Autodesk"
 90
        0
280
     0
281
     0
  0
CLASS
  1
ACMDATUMSTANDARDJIS
  2
AcmDatumStdJIS
  3
"Amdt_StdImp|Product Description: AutoCAD Mechanical 2004 DX|Company: Autodesk"
 90
        0
280
     0
281
     0
  0
CLASS
  1
ACMBOMSTANDARDJIS
  2
AcmBOMStdJIS
  3
"Amdt_StdImp|Product Description: AutoCAD Mechanical 2004 DX|Company: Autodesk"
 90
        0
280
     0
281
     0
  0
CLASS
  1
ACMSTANDARDANSI
  2
AcmStandardANSI
  3
"Amdt_StdImp|Product Description: AutoCAD Mechanical 2004 DX|Company: Autodesk"
 90
    32768
280
     0
281
     0
  0
CLASS
  1
ACMSURFSTANDARDANSI
  2
AcmSurfTextStdANSI
  3
"Amdt_StdImp|Product Description: AutoCAD Mechanical 2004 DX|Company: Autodesk"
 90
    32768
280
     0
281
     0
  0
CLASS
  1
ACMFCFSTANDARDANSI
  2
AcmFCFStdANSI
  3
"Amdt_StdImp|Product Description: AutoCAD Mechanical 2004 DX|Company: Autodesk"
 90
    32768
280
     0
281
     0
  0
CLASS
  1
ACMWELDSTANDARDANSI
  2
AcmWeldingStdANSI
  3
"Amdt_StdImp|Product Description: AutoCAD Mechanical 2004 DX|Company: Autodesk"
 90
    32768
280
     0
281
     0
  0
CLASS
  1
ACMIDSTANDARDANSI
  2
AcmIdStdANSI
  3
"Amdt_StdImp|Product Description: AutoCAD Mechanical 2004 DX|Company: Autodesk"
 90
    32768
280
     0
281
     0
  0
CLASS
  1
ACMDATUMSTANDARDANSI
  2
AcmDatumStdANSI
  3
"Amdt_StdImp|Product Description: AutoCAD Mechanical 2004 DX|Company: Autodesk"
 90
    32768
280
     0
281
     0
  0
CLASS
  1
ACMBOMSTANDARDANSI
  2
AcmBOMStdANSI
  3
"Amdt_StdImp|Product Description: AutoCAD Mechanical 2004 DX|Company: Autodesk"
 90
    32768
280
     0
281
     0
  0
CLASS
  1
ACMSTANDARDBSI
  2
AcmStandardBSI
  3
"Amdt_StdImp|Product Description: AutoCAD Mechanical 2004 DX|Company: Autodesk"
 90
    32768
280
     0
281
     0
  0
CLASS
  1
ACMSURFSTANDARDBSI
  2
AcmSurfTextStdBSI
  3
"Amdt_StdImp|Product Description: AutoCAD Mechanical 2004 DX|Company: Autodesk"
 90
    32768
280
     0
281
     0
  0
CLASS
  1
ACMFCFSTANDARDBSI
  2
AcmFCFStdBSI
  3
"Amdt_StdImp|Product Description: AutoCAD Mechanical 2004 DX|Company: Autodesk"
 90
    32768
280
     0
281
     0
  0
CLASS
  1
ACMWELDSTANDARDBSI
  2
AcmWeldingStdBSI
  3
"Amdt_StdImp|Product Description: AutoCAD Mechanical 2004 DX|Company: Autodesk"
 90
    32768
280
     0
281
     0
  0
CLASS
  1
ACMIDSTANDARDBSI
  2
AcmIdStdBSI
  3
"Amdt_StdImp|Product Description: AutoCAD Mechanical 2004 DX|Company: Autodesk"
 90
    32768
280
     0
281
     0
  0
CLASS
  1
ACMDATUMSTANDARDBSI
  2
AcmDatumStdBSI
  3
"Amdt_StdImp|Product Description: AutoCAD Mechanical 2004 DX|Company: Autodesk"
 90
    32768
280
     0
281
     0
  0
CLASS
  1
ACMBOMSTANDARDBSI
  2
AcmBOMStdBSI
  3
"Amdt_StdImp|Product Description: AutoCAD Mechanical 2004 DX|Company: Autodesk"
 90
    32768
280
     0
281
     0
  0
CLASS
  1
STDPART2D
  2
AmgStdPart
  3
"AmgStdPart|Product Description: AutoCAD Mechanical 2000|Company: Autodesk"
 90
    33791
280
     0
281
     1
  0
CLASS
  1
PLOTSETTINGS
  2
AcDbPlotSettings
  3
ObjectDBX Classes
 90
        0
280
     0
281
     0
  0
CLASS
  1
TABLESTYLE
  2
AcDbTableStyle
  3
ObjectDBX Classes
 90
     2047
280
     0
281
     0
  0
CLASS
  1
ACGREFMASTER
  2
AcGrefMaster
  3
AcAttribServices
 90
        0
280
     0
281
     0
  0
CLASS
  1
AM_DRAWING_MGR
  2
AcDmDwgMgr
  3
AcMechDwgViewMgmt
 90
        0
280
     0
281
     0
  0
CLASS
  1
AM_DWG_DOCUMENT
  2
AcDmDwgDocument
  3
AcMechDwgViewMgmt
 90
        0
280
     0
281
     0
  0
CLASS
  1
AM_DWG_SHEET
  2
AcDmSheet
  3
AcMechDwgViewMgmt
 90
        0
280
     0
281
     0
  0
CLASS
  1
AM_VIEWDIMPARMAP
  2
AcDmViewDimParMap
  3
AcMechDwgViewMgmt
 90
        0
280
     0
281
     0
  0
CLASS
  1
AM_DWGMGR_NAME
  2
AcDmDwgMgrName
  3
AcMechDwgViewMgmt
 90
        0
280
     0
281
     0
  0
CLASS
  1
ACGREFACADMASTER
  2
AcGrefacadMaster
  3
AcGrefServices
 90
        0
280
     0
281
     0
  0
CLASS
  1
AMDTMENUSTATEMGR
  2
AmdtMenuStateMgr
  3
McadcomServices
 90
        0
280
     0
281
     0
  0
CLASS
  1
AMDTMCOMMENUSTATE
  2
AmdtMcomMenuState
  3
McadcomServices
 90
        0
280
     0
281
     0
  0
CLASS
  1
AMIMASTER
  2
AmiMaster
  3
AmiServices
 90
        0
280
     0
281
     0
  0
CLASS
  1
MAPIAMMOUDLE
  2
MApiAmModule
  3
MApiAmServices
 90
        0
280
     0
281
     0
  0
CLASS
  1
AMDTADMENUSTATE
  2
AmdtAdMenuState
  3
DesignerServices
 90
        0
280
     0
281
     0
  0
CLASS
  1
ADAPPL
  2
AcAdAppl
  3
DesignerServices
 90
        0
280
     0
281
     0
  0
CLASS
  1
DEPMGR
  2
AcAdDepMgr
  3
DesignerServices
 90
        0
280
     0
281
     0
  0
CLASS
  1
PARAMMGR
  2
AcAdParamMgr
  3
DesignerServices
 90
        0
280
     0
281
     0
  0
CLASS
  1
PARAMSCOPE
  2
AcAdParamScope
  3
DesignerServices
 90
        0
280
     0
281
     0
  0
CLASS
  1
NAMEDAPPL
  2
AcAdNamedAppl
  3
DesignerServices
 90
        0
280
     0
281
     0
  0
CLASS
  1
AMDTDMMENUSTATE
  2
AmdtDmMenuState
  3
AcMechDwgViewMgmt
 90
        0
280
     0
281
     0
  0
CLASS
  1
AMDTAMMENUSTATE
  2
AmdtAmMenuState
  3
DesignerAssemblies
 90
        0
280
     0
281
     0
  0
CLASS
  1
ACAMPROJECT
  2
AcAmProject
  3
DesignerAssemblies
 90
        0
280
     0
281
     0
  0
CLASS
  1
ACAMGRCOMPDEF
  2
AcAmGrCompDef
  3
DesignerAssemblies
 90
        0
280
     0
281
     0
  0
CLASS
  1
ACCMCONTEXT
  2
AcCmContext
  3
DesignerAssemblies
 90
        0
280
     0
281
     0
  0
CLASS
  1
ACAMCOMPDEF
  2
AcAmCompDef
  3
DesignerAssemblies
 90
        0
280
     0
281
     0
  0
CLASS
  1
ACAMCOMPDEFMGR
  2
AcAmCompDefMgr
  3
DesignerAssemblies
 90
        0
280
     0
281
     0
  0
CLASS
  1
AMCONTEXTMGR
  2
AcAmContextMgr
  3
DesignerAssemblies
 90
        0
280
     0
281
     0
  0
CLASS
  1
ACAMCONTEXTMODELER
  2
AcAmContextModeler
  3
DesignerAssemblies
 90
        0
280
     0
281
     0
  0
CLASS
  1
CATALOGSTATE
  2
AcAmCatalogState
  3
DesignerAssemblies
 90
        0
280
     0
281
     0
  0
CLASS
  1
ACAMGRCOMPDEFSET
  2
AcAmGrCompDefSet
  3
DesignerAssemblies
 90
        0
280
     0
281
     0
  0
CLASS
  1
AMDTBROWSERDBTAB
  2
AmdtBrowserDbTab
  3
McadcomServices
 90
        0
280
     0
281
     0
  0
CLASS
  1
CBROWSERAPPOBJECT
  2
CBrowserAppObject
  3
McadcomServices
 90
        0
280
     0
281
     0
  0
CLASS
  1
DM_PLACEHOLDER
  2
AcDmSelsetPlaceholder
  3
AcMechDwgViewMgmt
 90
        0
280
     0
281
     0
  0
CLASS
  1
ACMSTANDARDISO
  2
AcmStandardISO
  3
"Amdt_StdImp|Product Description: AutoCAD Mechanical 2004 DX|Company: Autodesk"
 90
        0
280
     0
281
     0
  0
CLASS
  1
AMDTEDGESTANDARDISO
  2
AmdtEdgeStdISO
  3
"Amdt_StdImp|Product Description: AutoCAD Mechanical 2004 DX|Company: Autodesk"
 90
        0
280
     0
281
     0
  0
CLASS
  1
ACMSURFSTANDARDISO
  2
AcmSurfTextStdISO
  3
"Amdt_StdImp|Product Description: AutoCAD Mechanical 2004 DX|Company: Autodesk"
 90
        0
280
     0
281
     0
  0
CLASS
  1
ACMFCFSTANDARDISO
  2
AcmFCFStdISO
  3
"Amdt_StdImp|Product Description: AutoCAD Mechanical 2004 DX|Company: Autodesk"
 90
        0
280
     0
281
     0
  0
CLASS
  1
ACMWELDSTANDARDISO
  2
AcmWeldingStdISO
  3
"Amdt_StdImp|Product Description: AutoCAD Mechanical 2004 DX|Company: Autodesk"
 90
        0
280
     0
281
     0
  0
CLASS
  1
ACMIDSTANDARDISO
  2
AcmIdStdISO
  3
"Amdt_StdImp|Product Description: AutoCAD Mechanical 2004 DX|Company: Autodesk"
 90
        0
280
     0
281
     0
  0
CLASS
  1
ACMDATUMSTANDARDISO
  2
AcmDatumStdISO
  3
"Amdt_StdImp|Product Description: AutoCAD Mechanical 2004 DX|Company: Autodesk"
 90
        0
280
     0
281
     0
  0
CLASS
  1
ACMBOMSTANDARDISO
  2
AcmBOMStdISO
  3
"Amdt_StdImp|Product Description: AutoCAD Mechanical 2004 DX|Company: Autodesk"
 90
        0
280
     0
281
     0
  0
CLASS
  1
ACMDETAILSTANDARDISO
  2
AmdtDetailSymStdISO
  3
"Amdt_StdImp|Product Description: AutoCAD Mechanical 2004 DX|Company: Autodesk"
 90
        0
280
     0
281
     0
  0
CLASS
  1
ACMSECTIONSTANDARDISO
  2
AmdtSectionSymStdISO
  3
"Amdt_StdImp|Product Description: AutoCAD Mechanical 2004 DX|Company: Autodesk"
 90
        0
280
     0
281
     0
  0
CLASS
  1
ACMCENTERLINESTANDARDISO
  2
AmdtCenterLineStdISO
  3
"Amdt_StdImp|Product Description: AutoCAD Mechanical 2004 DX|Company: Autodesk"
 90
        0
280
     0
281
     0
  0
CLASS
  1
ACMNOTESTANDARDISO
  2
AmdtNoteStdISO
  3
"Amdt_StdImp|Product Description: AutoCAD Mechanical 2004 DX|Company: Autodesk"
 90
        0
280
     0
281
     0
  0
CLASS
  1
AMDTNOTETEMPLATEDB
  2
AmdtNoteTemplateDB
  3
AMDT_STDIMP_MODULE_NAME
 90
        0
280
     0
281
     0
  0
CLASS
  1
ACAMGLAYSTD
  2
AcAmgLayStd
  3
"AcAmgLayStd|Product Description: AutoCAD Mechanical 2000|Company: Autodesk"
 90
        0
280
     0
281
     0
  0
CLASS
  1
ACAMGDIMSTD
  2
AcAmgDimStd
  3
"AcAmgDimStd|Product Description: AutoCAD Mechanical 2000|Company: Autodesk"
 90
        0
280
     0
281
     0
  0
CLASS
  1
ACAMGHOLECHARTSTDISO
  2
AcAmgHoleChartStdISO
  3
ACMSYMBB_MODULE_NAME
 90
        0
280
     0
281
     0
  0
CLASS
  1
ACAMGTITLESTD
  2
AcAmgTitleStd
  3
"TITLEAPP"
 90
        0
280
     0
281
     0
  0
CLASS
  1
ACMTHREADLINESTANDARDISO
  2
AmdtThreadLineStdISO
  3
"Amdt_StdImp|Product Description: AutoCAD Mechanical 2004 DX|Company: Autodesk"
 90
        0
280
     0
281
     0
  0
CLASS
  1
ACMFCFSTANDARDJIS98
  2
AcmFCFStdJIS98
  3
"Amdt_StdImp|Product Description: AutoCAD Mechanical 2004 DX|Company: Autodesk"
 90
        0
280
     0
281
     0
  0
CLASS
  1
ACMDETAILSTANDARDJIS
  2
AmdtDetailSymStdJIS
  3
"Amdt_StdImp|Product Description: AutoCAD Mechanical 2004 DX|Company: Autodesk"
 90
        0
280
     0
281
     0
  0
CLASS
  1
ACMSECTIONSTANDARDJIS
  2
AmdtSectionSymStdJIS
  3
"Amdt_StdImp|Product Description: AutoCAD Mechanical 2004 DX|Company: Autodesk"
 90
        0
280
     0
281
     0
  0
CLASS
  1
ACMCENTERLINESTANDARDJIS
  2
AmdtCenterLineStdJIS
  3
"Amdt_StdImp|Product Description: AutoCAD Mechanical 2004 DX|Company: Autodesk"
 90
        0
280
     0
281
     0
  0
CLASS
  1
ACMTHREADLINESTANDARDJIS
  2
AmdtThreadLineStdJIS
  3
"Amdt_StdImp|Product Description: AutoCAD Mechanical 2004 DX|Company: Autodesk"
 90
        0
280
     0
281
     0
  0
CLASS
  1
ACMNOTESTANDARDJIS
  2
AmdtNoteStdJIS
  3
"Amdt_StdImp|Product Description: AutoCAD Mechanical 2004 DX|Company: Autodesk"
 90
        0
280
     0
281
     0
  0
CLASS
  1
ACAMGHOLECHARTSTDJIS
  2
AcAmgHoleChartStdJIS
  3
ACMSYMBB_MODULE_NAME
 90
        0
280
     0
281
     0
  0
ENDSEC
  0
SECTION
  2
TABLES
  0
TABLE
  2
VPORT
  5
8
330
0
100
AcDbSymbolTable
 70
     3
  0
VPORT
  5
7B35
330
8
100
AcDbSymbolTableRecord
100
AcDbViewportTableRecord
  2
*Active
 70
     0
 10
0.0
 20
0.0
 11
1.0
 21
1.0
 12
-61.33642212345169
 22
-2.710121591581412
 13
0.0
 23
0.0
 14
2.5
 24
2.5
 15
10.0
 25
10.0
 16
0.0
 26
0.0
 36
1.0
 17
0.0
 27
0.0
 37
0.0
 40
96.86437579650226
 41
1.552631578947368
 42
50.0
 43
0.0
 44
0.0
 50
0.0
 51
0.0
 71
     0
 72
   100
 73
     1
 74
     3
 75
     0
 76
     0
 77
     0
 78
     0
281
     0
 65
     1
110
-0.0000000000002682
120
0.000000000000161
130
0.0
111
1.0
121
0.000000000000002
131
0.0
112
-0.000000000000002
122
1.0
132
0.0
 79
     0
146
0.0
  0
ENDTAB
  0
TABLE
  2
LTYPE
  5
5
330
0
100
AcDbSymbolTable
 70
    17
  0
LTYPE
  5
14
330
5
100
AcDbSymbolTableRecord
100
AcDbLinetypeTableRecord
  2
BYBLOCK
 70
     0
  3

 72
    65
 73
     0
 40
0.0
  0
LTYPE
  5
15
330
5
100
AcDbSymbolTableRecord
100
AcDbLinetypeTableRecord
  2
BYLAYER
 70
     0
  3

 72
    65
 73
     0
 40
0.0
  0
LTYPE
  5
16
330
5
100
AcDbSymbolTableRecord
100
AcDbLinetypeTableRecord
  2
CONTINUOUS
 70
     0
  3
Solid line
 72
    65
 73
     0
 40
0.0
  0
LTYPE
  5
4B
330
5
100
AcDbSymbolTableRecord
100
AcDbLinetypeTableRecord
  2
AM_ISO02W050
 70
     0
  3
__ __ __ __ __ __ __ __ __ __ __ __ __ __ __
 72
    65
 73
     2
 40
7.5
 49
6.0
 74
     0
 49
-1.5
 74
     0
  0
LTYPE
  5
4C
330
5
100
AcDbSymbolTableRecord
100
AcDbLinetypeTableRecord
  2
AM_ISO08W050
 70
     0
  3
____ . ____ . ____ . ____ . ____ . ____ . ____
 72
    65
 73
     4
 40
18.0
 49
12.0
 74
     0
 49
-1.5
 74
     0
 49
3.0
 74
     0
 49
-1.5
 74
     0
  0
LTYPE
  5
4D
330
5
100
AcDbSymbolTableRecord
100
AcDbLinetypeTableRecord
  2
AM_ISO09W050
 70
     0
  3
_____ . . _____ . . _____ . . ____ .. ____
 72
    65
 73
     6
 40
22.5
 49
12.0
 74
     0
 49
-1.5
 74
     0
 49
3.0
 74
     0
 49
-1.5
 74
     0
 49
3.0
 74
     0
 49
-1.5
 74
     0
  0
LTYPE
  5
4E
330
5
100
AcDbSymbolTableRecord
100
AcDbLinetypeTableRecord
  2
Amconstr
 70
     0
  3
_______________________
 72
    65
 73
     2
 40
9999.0
 49
9999.0
 74
     0
 49
0.0
 74
     0
  0
LTYPE
  5
4F
330
5
100
AcDbSymbolTableRecord
100
AcDbLinetypeTableRecord
  2
AM_ISO02W050x2
 70
     0
  3
 _ _ _ _ _ _ _ _ _ _ _ _
 72
    65
 73
     2
 40
3.75
 49
3.0
 74
     0
 49
-0.75
 74
     0
  0
LTYPE
  5
50
330
5
100
AcDbSymbolTableRecord
100
AcDbLinetypeTableRecord
  2
AM_ISO08W050x2
 70
     0
  3
__ . __ . __ . __ . __ . __
 72
    65
 73
     4
 40
9.0
 49
6.0
 74
     0
 49
-0.75
 74
     0
 49
1.5
 74
     0
 49
-0.75
 74
     0
  0
LTYPE
  5
53
330
5
100
AcDbSymbolTableRecord
100
AcDbLinetypeTableRecord
  2
Amzigzag
 70
     0
  3
/\/-/\/-/\/-/\/-/\/-/\/
 72
    65
 73
     2
 40
11.0001
 49
0.0001
 74
     4
 75
   135
340
52
 46
0.04
 50
0.0
 44
0.0
 45
0.0
 49
-11.0
 74
     0
  0
LTYPE
  5
166
330
5
100
AcDbSymbolTableRecord
100
AcDbLinetypeTableRecord
  2
ACJISTGL
 70
     0
  3
_ _ _ _ _
 72
    65
 73
     2
 40
3.0
 49
2.0
 74
     0
 49
-1.0
 74
     0
  0
LTYPE
  5
26A
330
5
100
AcDbSymbolTableRecord
100
AcDbLinetypeTableRecord
  2
ACJISTGB
 70
     0
  3
__ . . __ . .
 72
    65
 73
     6
 40
9.0
 49
4.0
 74
     0
 49
-1.0
 74
     0
 49
1.0
 74
     0
 49
-1.0
 74
     0
 49
1.0
 74
     0
 49
-1.0
 74
     0
  0
LTYPE
  5
7AAD
330
5
100
AcDbSymbolTableRecord
100
AcDbLinetypeTableRecord
  2
HIDDEN
 70
     0
  3
Hidden __ __ __ __ __ __ __ __ __ __ __ __ __ _
 72
    65
 73
     2
 40
9.524999999999998
 49
6.349999999999999
 74
     0
 49
-3.174999999999999
 74
     0
  0
LTYPE
  5
7AAE
330
5
100
AcDbSymbolTableRecord
100
AcDbLinetypeTableRecord
  2
PHANTOM2
 70
     0
  3
Phantom (.5x) ___ _ _ ___ _ _ ___ _ _ ___ _ _
 72
    65
 73
     6
 40
31.75
 49
15.875
 74
     0
 49
-3.174999999999999
 74
     0
 49
3.174999999999999
 74
     0
 49
-3.174999999999999
 74
     0
 49
3.174999999999999
 74
     0
 49
-3.174999999999999
 74
     0
  0
LTYPE
  5
7AAF
330
5
100
AcDbSymbolTableRecord
100
AcDbLinetypeTableRecord
  2
CENTER
 70
     0
  3
__ . __
 72
    65
 73
     4
 40
7.0
 49
4.0
 74
     0
 49
-1.0
 74
     0
 49
1.0
 74
     0
 49
-1.0
 74
     0
  0
LTYPE
  5
7AE0
330
5
100
AcDbSymbolTableRecord
100
AcDbLinetypeTableRecord
  2
ACISOWELD
 70
     0
  3
_ _ _ _ _
 72
    65
 73
     2
 40
2.0
 49
2.0
 74
     0
 49
-1.0
 74
     0
  0
LTYPE
  5
7AE3
330
5
100
AcDbSymbolTableRecord
100
AcDbLinetypeTableRecord
  2
ACISOTGB
 70
     0
  3
__ . . __ . .
 72
    65
 73
     6
 40
9.0
 49
4.0
 74
     0
 49
-1.0
 74
     0
 49
1.0
 74
     0
 49
-1.0
 74
     0
 49
1.0
 74
     0
 49
-1.0
 74
     0
  0
LTYPE
  5
7AE4
330
5
100
AcDbSymbolTableRecord
100
AcDbLinetypeTableRecord
  2
ACISOTGL
 70
     0
  3
_ _ _ _ _
 72
    65
 73
     2
 40
3.0
 49
2.0
 74
     0
 49
-1.0
 74
     0
  0
LTYPE
  5
7B0D
330
5
100
AcDbSymbolTableRecord
100
AcDbLinetypeTableRecord
  2
ACJISWELD
 70
     0
  3
_ _ _ _ _
 72
    65
 73
     2
 40
2.0
 49
2.0
 74
     0
 49
-1.0
 74
     0
  0
ENDTAB
  0
TABLE
  2
LAYER
  5
2
330
0
100
AcDbSymbolTable
 70
     7
  0
LAYER
  5
10
330
2
100
AcDbSymbolTableRecord
100
AcDbLayerTableRecord
  2
0
 70
     0
 62
     7
  6
CONTINUOUS
370
    -3
390
F
  0
LAYER
  5
3F9
330
2
100
AcDbSymbolTableRecord
100
AcDbLayerTableRecord
  2
AM_0
 70
     0
 62
     7
  6
CONTINUOUS
370
    -3
390
F
  0
LAYER
  5
BA4
330
2
100
AcDbSymbolTableRecord
100
AcDbLayerTableRecord
  2
AM_5
 70
     0
 62
     3
  6
CONTINUOUS
370
    -3
390
F
  0
LAYER
  5
BA6
330
2
100
AcDbSymbolTableRecord
100
AcDbLayerTableRecord
  2
AM_7
 70
     0
 62
     4
  6
AM_ISO08W050
370
    -3
390
F
  0
LAYER
  5
E64
330
2
100
AcDbSymbolTableRecord
100
AcDbLayerTableRecord
  2
AM_6
 70
     0
 62
     2
  6
CONTINUOUS
370
    -3
390
F
  0
LAYER
  5
F4D
330
2
100
AcDbSymbolTableRecord
100
AcDbLayerTableRecord
  2
DEFPOINTS
 70
     0
 62
     7
  6
CONTINUOUS
290
     0
370
    -3
390
F
  0
LAYER
  5
4E80
330
2
100
AcDbSymbolTableRecord
100
AcDbLayerTableRecord
  2
AM_11
 70
     0
 62
     3
  6
AM_ISO09W050
370
    -3
390
F
  0
ENDTAB
  0
TABLE
  2
STYLE
  5
3
330
0
100
AcDbSymbolTable
 70
     7
  0
STYLE
  5
11
330
3
100
AcDbSymbolTableRecord
100
AcDbTextStyleTableRecord
  2
STANDARD
 70
     0
 40
0.0
 41
1.0
 50
0.0
 71
     0
 42
2.5
  3
simplex.shx
  4
EXTFONT.SHX
  0
STYLE
  5
52
330
3
100
AcDbSymbolTableRecord
100
AcDbTextStyleTableRecord
  2

 70
     1
 40
0.0
 41
1.0
 50
0.0
 71
     0
 42
2.5
  3
ltypeshp.shx
  4

  0
STYLE
  5
6B
330
3
100
AcDbSymbolTableRecord
100
AcDbTextStyleTableRecord
  2
ASAMI
 70
     0
 40
0.0
 41
1.0
 50
0.0
 71
     0
 42
2.5
  3
simplex.shx
  4
EXTFONT.SHX
  0
STYLE
  5
262
330
3
100
AcDbSymbolTableRecord
100
AcDbTextStyleTableRecord
  2
ACJISTS
 70
     0
 40
1.0
 41
1.0
 50
0.0
 71
     0
 42
1.0
  3
isocp.shx
  4
extfont.shx
  0
STYLE
  5
269
330
3
100
AcDbSymbolTableRecord
100
AcDbTextStyleTableRecord
  2
ACJISGDT
 70
     0
 40
0.0
 41
1.0
 50
0.0
 71
     0
 42
1.0
  3
amgdt.shx
  4

  0
STYLE
  5
7ADA
330
3
100
AcDbSymbolTableRecord
100
AcDbTextStyleTableRecord
  2
ACISOTS
 70
     0
 40
3.799999999999999
 41
1.0
 50
0.0
 71
     0
 42
3.799999999999999
  3
isocp.shx
  4
extfont.shx
  0
STYLE
  5
7ADE
330
3
100
AcDbSymbolTableRecord
100
AcDbTextStyleTableRecord
  2
ACISOGDT
 70
     0
 40
0.0
 41
1.0
 50
0.0
 71
     0
 42
2.5
  3
amgdt.shx
  4
extfont.shx
  0
ENDTAB
  0
TABLE
  2
VIEW
  5
6
330
0
100
AcDbSymbolTable
 70
     0
  0
ENDTAB
  0
TABLE
  2
UCS
  5
7
330
0
100
AcDbSymbolTable
 70
     0
  0
ENDTAB
  0
TABLE
  2
APPID
  5
9
330
0
100
AcDbSymbolTable
 70
    33
  0
APPID
  5
12
330
9
100
AcDbSymbolTableRecord
100
AcDbRegAppTableRecord
  2
ACAD
 70
     0
  0
APPID
  5
30
330
9
100
AcDbSymbolTableRecord
100
AcDbRegAppTableRecord
  2
MCAD_NO_VIS
 70
     0
  0
APPID
  5
31
330
9
100
AcDbSymbolTableRecord
100
AcDbRegAppTableRecord
  2
ACAD_TEMP_GRAPHIC
 70
     0
  0
APPID
  5
2C2
330
9
100
AcDbSymbolTableRecord
100
AcDbRegAppTableRecord
  2
GENIUS_GENDTOL_13
 70
     0
  0
APPID
  5
339
330
9
100
AcDbSymbolTableRecord
100
AcDbRegAppTableRecord
  2
GENIUS_GENODEF_13
 70
     0
  0
APPID
  5
33A
330
9
100
AcDbSymbolTableRecord
100
AcDbRegAppTableRecord
  2
GENIUS_GENOBJ-N-RSBK_13
 70
     0
  0
APPID
  5
33B
330
9
100
AcDbSymbolTableRecord
100
AcDbRegAppTableRecord
  2
GENIUS_GENOBJ-N-LIB_13
 70
     0
  0
APPID
  5
33C
330
9
100
AcDbSymbolTableRecord
100
AcDbRegAppTableRecord
  2
GENIUS_GENSCALE_13
 70
     0
  0
APPID
  5
378
330
9
100
AcDbSymbolTableRecord
100
AcDbRegAppTableRecord
  2
GENIUS_GENDIMSH_14
 70
     0
  0
APPID
  5
BB0
330
9
100
AcDbSymbolTableRecord
100
AcDbRegAppTableRecord
  2
GENIUS_GENOBJ-N-CEN_13
 70
     0
  0
APPID
  5
BB1
330
9
100
AcDbSymbolTableRecord
100
AcDbRegAppTableRecord
  2
GENIUS_GENFIL_13
 70
     0
  0
APPID
  5
BB2
330
9
100
AcDbSymbolTableRecord
100
AcDbRegAppTableRecord
  2
GENIUS_GENOBJ-N-CHA_13
 70
     0
  0
APPID
  5
1FAF
330
9
100
AcDbSymbolTableRecord
100
AcDbRegAppTableRecord
  2
GENIUS_GENOBJ-N-CRS_13
 70
     0
  0
APPID
  5
1FB0
330
9
100
AcDbSymbolTableRecord
100
AcDbRegAppTableRecord
  2
GENIUS_GENOENT_13
 70
     0
  0
APPID
  5
1FB1
330
9
100
AcDbSymbolTableRecord
100
AcDbRegAppTableRecord
  2
GENIUS_GENOREF_13
 70
     0
  0
APPID
  5
1FB2
330
9
100
AcDbSymbolTableRecord
100
AcDbRegAppTableRecord
  2
GENIUS_GENOLIS_13
 70
     0
  0
APPID
  5
1FB7
330
9
100
AcDbSymbolTableRecord
100
AcDbRegAppTableRecord
  2
GENIUS_GENOBJ-N-FIL_13
 70
     0
  0
APPID
  5
22A8
330
9
100
AcDbSymbolTableRecord
100
AcDbRegAppTableRecord
  2
GEVID1056506048
 70
     0
  0
APPID
  5
22A9
330
9
100
AcDbSymbolTableRecord
100
AcDbRegAppTableRecord
  2
GEVDC
 70
     0
  0
APPID
  5
22AC
330
9
100
AcDbSymbolTableRecord
100
AcDbRegAppTableRecord
  2
GENIUS_GENBH_13
 70
     0
  0
APPID
  5
22B8
330
9
100
AcDbSymbolTableRecord
100
AcDbRegAppTableRecord
  2
GENIUS_GENOBJ-NBEHI-BHF_13
 70
     0
  0
APPID
  5
22BA
330
9
100
AcDbSymbolTableRecord
100
AcDbRegAppTableRecord
  2
GENIUS_GENOBJ-NBEHI-BHB_13
 70
     0
  0
APPID
  5
35C9
330
9
100
AcDbSymbolTableRecord
100
AcDbRegAppTableRecord
  2
GENIUS_GENREC_14
 70
     0
  0
APPID
  5
35CA
330
9
100
AcDbSymbolTableRecord
100
AcDbRegAppTableRecord
  2
GENIUS_GENOBJ-N-REC_13
 70
     0
  0
APPID
  5
7A76
330
9
100
AcDbSymbolTableRecord
100
AcDbRegAppTableRecord
  2
ACATTRIBSERVICES
 70
     0
  0
APPID
  5
7A77
330
9
100
AcDbSymbolTableRecord
100
AcDbRegAppTableRecord
  2
AD_DRAW
 70
     0
  0
APPID
  5
7A78
330
9
100
AcDbSymbolTableRecord
100
AcDbRegAppTableRecord
  2
DESIGNERASSEMBLIES
 70
     0
  0
APPID
  5
7A79
330
9
100
AcDbSymbolTableRecord
100
AcDbRegAppTableRecord
  2
ACADM_DIM_EDIT
 70
     0
  0
APPID
  5
7A7A
330
9
100
AcDbSymbolTableRecord
100
AcDbRegAppTableRecord
  2
AMDT_DM_ADJ
 70
     0
  0
APPID
  5
7A7B
330
9
100
AcDbSymbolTableRecord
100
AcDbRegAppTableRecord
  2
ACAD_DSTYLE_DIMTEXT_FILL
 70
     0
  0
APPID
  5
7A7C
330
9
100
AcDbSymbolTableRecord
100
AcDbRegAppTableRecord
  2
ACAD_PSEXT
 70
     0
  0
APPID
  5
7B2F
330
9
100
AcDbSymbolTableRecord
100
AcDbRegAppTableRecord
  2
GENIUS_GENSCREG_15
 70
     0
  0
APPID
  5
7B30
330
9
100
AcDbSymbolTableRecord
100
AcDbRegAppTableRecord
  2
GENIUS_GENOBJ-N-SDF_13
 70
     0
  0
ENDTAB
  0
TABLE
  2
DIMSTYLE
  5
A
330
0
100
AcDbSymbolTable
 70
    16
100
AcDbDimStyleTable
 71
     0
  0
DIMSTYLE
105
58
330
A
100
AcDbSymbolTableRecord
100
AcDbDimStyleTableRecord
  2
AM_JIS
 70
     0
  4
"
 41
2.5
 42
1.0
 43
10.0
 44
1.0
 47
0.1
 48
0.1000000001
 73
     0
 74
     0
 77
     3
 78
     8
 79
     2
140
3.799999999999999
141
0.0
143
0.0393701
146
0.71
147
1.5
172
     1
176
   256
177
   256
178
     2
271
     2
272
     2
275
     1
283
     0
284
     8
340
11
341
59
342
59
371
    -1
372
    -1
  0
DIMSTYLE
105
5F
330
A
100
AcDbSymbolTableRecord
100
AcDbDimStyleTableRecord
  2
AM_JIS$3
 70
     0
  4
"
 41
2.5
 42
1.0
 43
10.0
 44
1.0
 47
0.1
 48
0.1000000001
 73
     0
 77
     3
 78
     8
 79
     2
140
3.799999999999999
141
0.0
143
0.0393701
146
0.71
147
1.5
176
   256
177
   256
178
     2
271
     2
272
     2
275
     1
283
     0
284
     8
288
     1
289
     0
340
11
341
59
342
59
371
    -1
372
    -1
  0
DIMSTYLE
105
60
330
A
100
AcDbSymbolTableRecord
100
AcDbDimStyleTableRecord
  2
AM_JIS$4
 70
     0
  4
"
 41
2.5
 42
1.0
 43
10.0
 44
1.0
 47
0.1
 48
0.1000000001
 73
     0
 77
     3
 78
     8
 79
     2
140
3.799999999999999
141
0.0
143
0.0393701
146
0.71
147
1.5
176
   256
177
   256
178
     2
271
     2
272
     2
275
     1
283
     0
284
     8
288
     1
289
     0
340
11
341
59
342
59
371
    -1
372
    -1
  0
DIMSTYLE
105
61
330
A
100
AcDbSymbolTableRecord
100
AcDbDimStyleTableRecord
  2
AM_JIS$6
 70
     0
  4
"
 41
2.5
 42
1.0
 43
10.0
 44
1.0
 47
0.1
 48
0.1000000001
 73
     0
 74
     0
 78
     8
 79
     2
140
3.799999999999999
141
0.0
143
0.0393701
146
0.71
147
1.5
172
     1
176
   256
177
   256
178
     2
271
     2
272
     2
275
     1
283
     0
284
     8
340
11
341
59
342
59
371
    -1
372
    -1
  0
DIMSTYLE
105
62
330
A
100
AcDbSymbolTableRecord
100
AcDbDimStyleTableRecord
  2
AM_JIS$7
 70
     0
  4
"
 41
2.5
 42
1.0
 43
10.0
 44
1.0
 47
0.1
 48
0.1000000001
 73
     0
 74
     0
 77
     3
 78
     8
 79
     2
140
5.0
141
0.0
143
0.0393701
146
0.71
147
1.5
172
     1
176
   256
177
   256
178
     2
271
     2
272
     2
275
     1
283
     0
284
     8
340
11
341
59
342
59
371
    -1
372
    -1
  0
DIMSTYLE
105
63
330
A
100
AcDbSymbolTableRecord
100
AcDbDimStyleTableRecord
  2
AM_JIS$SF
 70
     0
  4
"
 41
2.5
 42
1.0
 43
10.0
 44
1.0
 47
0.1
 48
0.1
 73
     0
 74
     0
 75
     1
 76
     1
 77
     3
 78
     8
 79
     2
140
3.5
141
0.0
143
0.0393701
146
0.71
147
1.5
172
     1
176
   256
177
   256
178
     2
271
     2
272
     3
274
     4
283
     0
284
     8
340
11
341
59
342
59
343
59
344
59
371
    -1
372
    -1
  0
DIMSTYLE
105
68
330
A
100
AcDbSymbolTableRecord
100
AcDbDimStyleTableRecord
  2
AM_JIS$SH
 70
     0
  4
"
 41
2.5
 42
1.0
 43
10.0
 44
1.0
 47
0.1
 48
0.1
 73
     0
 74
     0
 75
     1
 76
     1
 77
     3
 78
     8
 79
     2
140
3.5
141
0.0
143
0.0393701
144
2.0
146
0.71
147
1.5
172
     1
173
     1
176
   256
177
   256
178
     2
271
     2
272
     3
274
     4
283
     0
284
     8
340
11
341
59
342
59
343
64
344
59
371
    -1
372
    -1
  0
DIMSTYLE
105
B34
330
A
100
AcDbSymbolTableRecord
100
AcDbDimStyleTableRecord
  2
AM_JIS$2
 70
     0
  4
"
 40
0.5
 41
2.5
 42
1.0
 43
12.0
 44
1.0
 47
0.1
 48
0.1
 73
     0
 74
     0
 77
     3
 78
     8
140
3.2
141
0.0
143
0.0393701
146
0.71
147
1.5
172
     1
176
   256
177
   256
178
     2
271
     3
272
     3
283
     0
340
6B
341
59
342
59
  0
DIMSTYLE
105
3B48
102
{ACAD_REACTORS
330
73AE
330
7443
330
7511
330
7674
330
7709
330
75E8
102
}
330
A
100
AcDbSymbolTableRecord
100
AcDbDimStyleTableRecord
  2
AM_JIS$0
 70
     0
  4
"
 41
2.5
 42
0.0
 43
10.0
 44
1.0
 47
0.1
 48
0.1000000001
 73
     0
 74
     0
 77
     3
 78
     1
140
3.799999999999998
141
0.0
143
0.0393701
146
0.71
147
1.5
172
     1
176
     3
177
     3
178
     2
271
     2
272
     2
275
     1
283
     0
284
     8
340
11
341
59
342
59
  0
DIMSTYLE
105
7AF9
330
A
100
AcDbSymbolTableRecord
100
AcDbDimStyleTableRecord
  2
AM_ISO
 70
     0
  4
"
 41
2.5
 42
1.0
 43
10.0
 44
1.0
 47
0.1
 48
0.1
 73
     0
 74
     0
 77
     1
 78
     8
 79
     2
140
3.5
141
0.0
143
0.0393701
146
0.71
147
1.5
172
     1
176
   256
177
   256
178
     2
271
     2
272
     3
274
     4
283
     0
284
     8
340
11
371
    -1
372
    -1
  0
DIMSTYLE
105
7AFA
330
A
100
AcDbSymbolTableRecord
100
AcDbDimStyleTableRecord
  2
AM_ISO$3
 70
     0
  4
"
 41
2.5
 42
1.0
 43
10.0
 44
1.0
 47
0.1
 48
0.1
 73
     0
 77
     1
 78
     8
 79
     2
140
3.5
141
0.0
143
0.0393701
146
0.71
147
1.5
176
   256
177
   256
178
     2
271
     2
272
     3
274
     4
283
     0
284
     8
288
     1
289
     0
340
11
371
    -1
372
    -1
  0
DIMSTYLE
105
7AFB
330
A
100
AcDbSymbolTableRecord
100
AcDbDimStyleTableRecord
  2
AM_ISO$4
 70
     0
  4
"
 41
2.5
 42
1.0
 43
10.0
 44
1.0
 47
0.1
 48
0.1
 73
     0
 77
     1
 78
     8
 79
     2
140
3.5
141
0.0
143
0.0393701
146
0.71
147
1.5
176
   256
177
   256
178
     2
271
     2
272
     3
274
     4
283
     0
284
     8
288
     1
289
     0
340
11
371
    -1
372
    -1
  0
DIMSTYLE
105
7AFC
330
A
100
AcDbSymbolTableRecord
100
AcDbDimStyleTableRecord
  2
AM_ISO$6
 70
     0
  4
"
 41
2.5
 42
1.0
 43
10.0
 44
1.0
 47
0.1
 48
0.1
 73
     0
 74
     0
 78
     8
 79
     2
140
3.5
141
0.0
143
0.0393701
146
0.71
147
1.5
172
     1
176
   256
177
   256
178
     2
271
     2
272
     3
274
     4
283
     0
284
     8
340
11
371
    -1
372
    -1
  0
DIMSTYLE
105
7AFD
330
A
100
AcDbSymbolTableRecord
100
AcDbDimStyleTableRecord
  2
AM_ISO$7
 70
     0
  4
"
 41
2.5
 42
1.0
 43
10.0
 44
1.0
 47
0.1
 48
0.1
 73
     0
 74
     0
 77
     1
 78
     8
 79
     2
140
5.0
141
0.0
143
0.0393701
146
0.71
147
1.5
172
     1
176
   256
177
   256
178
     2
271
     2
272
     3
274
     4
283
     0
284
     8
340
11
371
    -1
372
    -1
  0
DIMSTYLE
105
7AFE
330
A
100
AcDbSymbolTableRecord
100
AcDbDimStyleTableRecord
  2
AM_ISO$SF
 70
     0
  4
"
 41
2.5
 42
1.0
 43
10.0
 44
1.0
 47
0.1
 48
0.1
 73
     0
 74
     0
 75
     1
 76
     1
 77
     1
 78
     8
 79
     2
140
3.5
141
0.0
143
0.0393701
146
0.71
147
1.5
172
     1
176
   256
177
   256
178
     2
271
     2
272
     3
274
     4
283
     0
284
     8
340
11
371
    -1
372
    -1
  0
DIMSTYLE
105
7AFF
330
A
100
AcDbSymbolTableRecord
100
AcDbDimStyleTableRecord
  2
AM_ISO$SH
 70
     0
  4
"
 41
2.5
 42
1.0
 43
10.0
 44
1.0
 47
0.1
 48
0.1
 73
     0
 74
     0
 75
     1
 76
     1
 77
     1
 78
     8
 79
     2
140
3.5
141
0.0
143
0.0393701
144
2.0
146
0.71
147
1.5
172
     1
173
     1
176
   256
177
   256
178
     2
271
     2
272
     3
274
     4
283
     0
284
     8
340
11
343
64
371
    -1
372
    -1
  0
ENDTAB
  0
TABLE
  2
BLOCK_RECORD
  5
1
330
0
100
AcDbSymbolTable
 70
     9
  0
BLOCK_RECORD
  5
1F
102
{ACAD_XDICTIONARY
360
74
102
}
330
1
100
AcDbSymbolTableRecord
100
AcDbBlockTableRecord
  2
*MODEL_SPACE
340
7A71
  0
BLOCK_RECORD
  5
101
102
{ACAD_XDICTIONARY
360
7A2F
102
}
330
1
100
AcDbSymbolTableRecord
100
AcDbBlockTableRecord
  2
*PAPER_SPACE
340
7A72
  0
BLOCK_RECORD
  5
59
330
1
100
AcDbSymbolTableRecord
100
AcDbBlockTableRecord
  2
_Open30
340
0
  0
BLOCK_RECORD
  5
64
330
1
100
AcDbSymbolTableRecord
100
AcDbBlockTableRecord
  2
GENAXEH
340
0
  0
BLOCK_RECORD
  5
73AF
330
1
100
AcDbSymbolTableRecord
100
AcDbBlockTableRecord
  2
*D2
340
0
  0
BLOCK_RECORD
  5
7444
330
1
100
AcDbSymbolTableRecord
100
AcDbBlockTableRecord
  2
*D3
340
0
  0
BLOCK_RECORD
  5
7512
330
1
100
AcDbSymbolTableRecord
100
AcDbBlockTableRecord
  2
*D4
340
0
  0
BLOCK_RECORD
  5
75E9
330
1
100
AcDbSymbolTableRecord
100
AcDbBlockTableRecord
  2
*D5
340
0
  0
BLOCK_RECORD
  5
7675
330
1
100
AcDbSymbolTableRecord
100
AcDbBlockTableRecord
  2
*D6
340
0
  0
BLOCK_RECORD
  5
770A
330
1
100
AcDbSymbolTableRecord
100
AcDbBlockTableRecord
  2
*D7
340
0
  0
ENDTAB
  0
ENDSEC
  0
SECTION
  2
BLOCKS
  0
BLOCK
  5
20
330
1F
100
AcDbEntity
  8
0
100
AcDbBlockBegin
  2
*MODEL_SPACE
 70
     0
 10
0.0
 20
0.0
 30
0.0
  3
*MODEL_SPACE
  1

  0
ENDBLK
  5
21
330
1F
100
AcDbEntity
  8
0
100
AcDbBlockEnd
  0
BLOCK
  5
103
330
101
100
AcDbEntity
 67
     1
  8
0
100
AcDbBlockBegin
  2
*PAPER_SPACE
 70
     0
 10
0.0
 20
0.0
 30
0.0
  3
*PAPER_SPACE
  1

  0
ENDBLK
  5
104
330
101
100
AcDbEntity
 67
     1
  8
0
100
AcDbBlockEnd
  0
BLOCK
  5
7B21
330
59
100
AcDbEntity
  8
0
100
AcDbBlockBegin
  2
_Open30
 70
     0
 10
0.0
 20
0.0
 30
0.0
  3
_Open30
  1

  0
LINE
  5
7B22
330
59
100
AcDbEntity
  8
0
  6
ByBlock
 62
     0
370
    -2
100
AcDbLine
 10
-1.0
 20
0.26794919
 30
0.0
 11
0.0
 21
0.0
 31
0.0
  0
LINE
  5
7B23
330
59
100
AcDbEntity
  8
0
  6
ByBlock
 62
     0
370
    -2
100
AcDbLine
 10
0.0
 20
0.0
 30
0.0
 11
-1.0
 21
-0.26794919
 31
0.0
  0
LINE
  5
7B24
330
59
100
AcDbEntity
  8
0
  6
ByBlock
 62
     0
370
    -2
100
AcDbLine
 10
0.0
 20
0.0
 30
0.0
 11
-1.0
 21
0.0
 31
0.0
  0
ENDBLK
  5
7B25
330
59
100
AcDbEntity
  8
0
100
AcDbBlockEnd
  0
BLOCK
  5
7B01
330
64
100
AcDbEntity
  8
0
100
AcDbBlockBegin
  2
GENAXEH
 70
     0
 10
0.0
 20
0.0
 30
0.0
  3
GENAXEH
  1

  0
LINE
  5
7B02
330
64
100
AcDbEntity
  8
0
100
AcDbLine
 10
-1.0
 20
0.0
 30
0.0
 11
1.0
 21
0.0
 31
0.0
  0
ENDBLK
  5
7B03
330
64
100
AcDbEntity
  8
0
100
AcDbBlockEnd
  0
BLOCK
  5
73B9
330
73AF
100
AcDbEntity
  8
0
100
AcDbBlockBegin
  2
*D2
 70
     1
 10
0.0
 20
0.0
 30
0.0
  3
*D2
  1

  0
LINE
  5
7A31
330
73AF
100
AcDbEntity
  8
AM_5
100
AcDbLine
 10
-26.00000088719812
 20
10.3738767226616
 30
0.0
 11
-26.00000088719815
 21
17.50000290734894
 31
0.0
  0
LINE
  5
7A32
330
73AF
100
AcDbEntity
  8
AM_5
100
AcDbLine
 10
-0.0000000000003103
 20
10.50000000000015
 30
0.0
 11
-0.000000000000324
 21
17.500002907349
 31
0.0
  0
LINE
  5
7A33
330
73AF
100
AcDbEntity
  8
AM_5
100
AcDbLine
 10
-24.75000088719815
 20
17.00000290734895
 30
0.0
 11
-1.250000000000323
 21
17.00000290734899
 31
0.0
  0
INSERT
  5
7A34
330
73AF
100
AcDbEntity
  8
AM_5
100
AcDbBlockReference
  2
_Open30
 10
-26.00000088719815
 20
17.00000290734894
 30
0.0
 41
1.25
 42
1.25
 43
1.25
 50
180.0000000000001
  0
INSERT
  5
7A35
330
73AF
100
AcDbEntity
  8
AM_5
100
AcDbBlockReference
  2
_Open30
 10
-0.000000000000323
 20
17.000002907349
 30
0.0
 41
1.25
 42
1.25
 43
1.25
 50
0.0000000000001018
  0
MTEXT
  5
7A36
330
73AF
100
AcDbEntity
  8
AM_5
 62
     2
100
AcDbMText
 10
-13.00000044359923
 20
18.55000290734897
 30
0.0
 40
1.6
 41
0.0
 71
     5
 72
     1
  1
26
  7
ASAMI
 73
     1
 44
1.0
1001
ACAD
1000
MTEXTBEGIN
1070
    73
1070
     1
1070
    44
1040
1.0
1070
    74
1070
     0
1000
MTEXTEND
  0
POINT
  5
7A37
330
73AF
100
AcDbEntity
  8
DEFPOINTS
 62
     0
100
AcDbPoint
 10
-26.0000008871981
 20
9.873876722661655
 30
0.0
  0
POINT
  5
7A38
330
73AF
100
AcDbEntity
  8
DEFPOINTS
 62
     0
100
AcDbPoint
 10
-0.0000000000002891
 20
10.00000000000015
 30
0.0
  0
POINT
  5
7A39
330
73AF
100
AcDbEntity
  8
DEFPOINTS
 62
     0
100
AcDbPoint
 10
-0.0000000000002887
 20
17.000002907349
 30
0.0
  0
ENDBLK
  5
73BA
330
73AF
100
AcDbEntity
  8
0
100
AcDbBlockEnd
  0
BLOCK
  5
744E
330
7444
100
AcDbEntity
  8
0
100
AcDbBlockBegin
  2
*D3
 70
     1
 10
0.0
 20
0.0
 30
0.0
  3
*D3
  1

  0
LINE
  5
7A3A
330
7444
100
AcDbEntity
  8
AM_5
100
AcDbLine
 10
0.4999999999996887
 20
10.00000000000015
 30
0.0
 11
8.866607354713091
 21
10.00000000000017
 31
0.0
  0
LINE
  5
7A3B
330
7444
100
AcDbEntity
  8
AM_5
100
AcDbLine
 10
0.4999999999997736
 20
-9.999999999999843
 30
0.0
 11
8.866607354713131
 21
-9.999999999999827
 31
0.0
  0
LINE
  5
7A3C
330
7444
100
AcDbEntity
  8
AM_5
100
AcDbLine
 10
8.366607354713092
 20
8.750000000000168
 30
0.0
 11
8.366607354713128
 21
-8.749999999999829
 31
0.0
  0
INSERT
  5
7A3D
330
7444
100
AcDbEntity
  8
AM_5
100
AcDbBlockReference
  2
_Open30
 10
8.366607354713091
 20
10.00000000000016
 30
0.0
 41
1.25
 42
1.25
 43
1.25
 50
90.0000000000001
  0
INSERT
  5
7A3E
330
7444
100
AcDbEntity
  8
AM_5
100
AcDbBlockReference
  2
_Open30
 10
8.36660735471313
 20
-9.999999999999827
 30
0.0
 41
1.25
 42
1.25
 43
1.25
 50
270.0000000000001
  0
MTEXT
  5
7A3F
330
7444
100
AcDbEntity
  8
AM_5
 62
     2
100
AcDbMText
 10
6.816607354713108
 20
0.0000000000001671
 30
0.0
 40
1.6
 41
0.0
 71
     5
 72
     1
  1
%%C20
  7
ASAMI
 11
-0.000000000000002
 21
1.0
 31
0.0
 73
     1
 44
1.0
1001
ACAD
1000
MTEXTBEGIN
1070
    73
1070
     1
1070
    44
1040
1.0
1070
    74
1070
     0
1000
MTEXTEND
  0
POINT
  5
7A40
330
7444
100
AcDbEntity
  8
DEFPOINTS
 62
     0
100
AcDbPoint
 10
-0.0000000000002891
 20
10.00000000000015
 30
0.0
  0
POINT
  5
7A41
330
7444
100
AcDbEntity
  8
DEFPOINTS
 62
     0
100
AcDbPoint
 10
-0.0000000000002487
 20
-9.999999999999843
 30
0.0
  0
POINT
  5
7A42
330
7444
100
AcDbEntity
  8
DEFPOINTS
 62
     0
100
AcDbPoint
 10
8.366607354713107
 20
-9.999999999999847
 30
0.0
  0
ENDBLK
  5
744F
330
7444
100
AcDbEntity
  8
0
100
AcDbBlockEnd
  0
BLOCK
  5
751C
330
7512
100
AcDbEntity
  8
0
100
AcDbBlockBegin
  2
*D4
 70
     1
 10
0.0
 20
0.0
 30
0.0
  3
*D4
  1

  0
LINE
  5
7A43
330
7512
100
AcDbEntity
  8
AM_5
100
AcDbLine
 10
-117.5000015497158
 20
9.999999999999737
 30
0.0
 11
-129.3895212875058
 21
9.999999999999712
 31
0.0
  0
LINE
  5
7A44
330
7512
100
AcDbEntity
  8
AM_5
100
AcDbLine
 10
-117.5000015497157
 20
-10.00000143051127
 30
0.0
 11
-129.3895212875057
 21
-10.00000143051129
 31
0.0
  0
LINE
  5
7A45
330
7512
100
AcDbEntity
  8
AM_5
100
AcDbLine
 10
-128.8895212875057
 20
8.749999999999715
 30
0.0
 11
-128.8895212875057
 21
-8.750001430511295
 31
0.0
  0
INSERT
  5
7A46
330
7512
100
AcDbEntity
  8
AM_5
100
AcDbBlockReference
  2
_Open30
 10
-128.8895212875057
 20
9.999999999999715
 30
0.0
 41
1.25
 42
1.25
 43
1.25
 50
90.0000000000001
  0
INSERT
  5
7A47
330
7512
100
AcDbEntity
  8
AM_5
100
AcDbBlockReference
  2
_Open30
 10
-128.8895212875057
 20
-10.00000143051129
 30
0.0
 41
1.25
 42
1.25
 43
1.25
 50
270.0000000000001
  0
MTEXT
  5
7A48
330
7512
100
AcDbEntity
  8
AM_5
 62
     2
100
AcDbMText
 10
-130.4395212875057
 20
-0.0000007152557886
 30
0.0
 40
1.6
 41
0.0
 71
     5
 72
     1
  1
%%c20
  7
ASAMI
 11
-0.000000000000002
 21
1.0
 31
0.0
 73
     1
 44
1.0
1001
ACAD
1000
MTEXTBEGIN
1070
    73
1070
     1
1070
    44
1040
1.0
1070
    74
1070
     0
1000
MTEXTEND
  0
POINT
  5
7A49
330
7512
100
AcDbEntity
  8
DEFPOINTS
 62
     0
100
AcDbPoint
 10
-117.0000015497157
 20
10.0
 30
0.0
  0
POINT
  5
7A4A
330
7512
100
AcDbEntity
  8
DEFPOINTS
 62
     0
100
AcDbPoint
 10
-117.0000015497157
 20
-10.00000143051101
 30
0.0
  0
POINT
  5
7A4B
330
7512
100
AcDbEntity
  8
DEFPOINTS
 62
     0
100
AcDbPoint
 10
-128.8895212875057
 20
-10.00000143051101
 30
0.0
  0
ENDBLK
  5
751D
330
7512
100
AcDbEntity
  8
0
100
AcDbBlockEnd
  0
BLOCK
  5
75F3
330
75E9
100
AcDbEntity
  8
0
100
AcDbBlockBegin
  2
*D5
 70
     1
 10
0.0
 20
0.0
 30
0.0
  3
*D5
  1

  0
LINE
  5
7A4C
330
75E9
100
AcDbEntity
  8
AM_5
100
AcDbLine
 10
-0.0000000000001991
 20
-10.49999999999986
 30
0.0
 11
-0.0000000000001854
 21
-17.49999952316217
 31
0.0
  0
LINE
  5
7A4D
330
75E9
100
AcDbEntity
  8
AM_5
100
AcDbLine
 10
-35.00000154972076
 20
-9.399999618529747
 30
0.0
 11
-35.00000154972074
 21
-17.49999952316225
 31
0.0
  0
LINE
  5
7A4E
330
75E9
100
AcDbEntity
  8
AM_5
100
AcDbLine
 10
-1.250000000000186
 20
-16.99999952316218
 30
0.0
 11
-33.75000154972074
 21
-16.99999952316225
 31
0.0
  0
INSERT
  5
7A4F
330
75E9
100
AcDbEntity
  8
AM_5
100
AcDbBlockReference
  2
_Open30
 10
-0.0000000000001863
 20
-16.99999952316218
 30
0.0
 41
1.25
 42
1.25
 43
1.25
 50
0.0000000000001018
  0
INSERT
  5
7A50
330
75E9
100
AcDbEntity
  8
AM_5
100
AcDbBlockReference
  2
_Open30
 10
-35.00000154972074
 20
-16.99999952316225
 30
0.0
 41
1.25
 42
1.25
 43
1.25
 50
180.0000000000001
  0
MTEXT
  5
7A51
330
75E9
100
AcDbEntity
  8
AM_5
 62
     2
100
AcDbMText
 10
-17.50000077486046
 20
-15.44999952316222
 30
0.0
 40
1.6
 41
0.0
 71
     5
 72
     1
  1
35
  7
ASAMI
 73
     1
 44
1.0
1001
ACAD
1000
MTEXTBEGIN
1070
    73
1070
     1
1070
    44
1040
1.0
1070
    74
1070
     0
1000
MTEXTEND
  0
POINT
  5
7A52
330
75E9
100
AcDbEntity
  8
DEFPOINTS
 62
     0
100
AcDbPoint
 10
-0.0000000000002203
 20
-9.999999999999859
 30
0.0
  0
POINT
  5
7A53
330
75E9
100
AcDbEntity
  8
DEFPOINTS
 62
     0
100
AcDbPoint
 10
-35.00000154972077
 20
-8.899999618529676
 30
0.0
  0
POINT
  5
7A54
330
75E9
100
AcDbEntity
  8
DEFPOINTS
 62
     0
100
AcDbPoint
 10
-35.00000154972077
 20
-16.99999952316218
 30
0.0
  0
ENDBLK
  5
75F4
330
75E9
100
AcDbEntity
  8
0
100
AcDbBlockEnd
  0
BLOCK
  5
767F
330
7675
100
AcDbEntity
  8
0
100
AcDbBlockBegin
  2
*D6
 70
     1
 10
0.0
 20
0.0
 30
0.0
  3
*D6
  1

  0
LINE
  5
7A55
330
7675
100
AcDbEntity
  8
AM_5
100
AcDbLine
 10
-34.99999773502374
 20
-9.399996757506768
 30
0.0
 11
-34.99999773502374
 21
-17.49999952316225
 31
0.0
  0
LINE
  5
7A56
330
7675
100
AcDbEntity
  8
AM_5
100
AcDbLine
 10
-120.0002385377833
 20
-8.160999298095461
 30
0.0
 11
-120.0002385377833
 21
-17.49999952316243
 31
0.0
  0
LINE
  5
7A57
330
7675
100
AcDbEntity
  8
AM_5
100
AcDbLine
 10
-36.24999773502373
 20
-16.99999952316226
 30
0.0
 11
-118.7502385377833
 21
-16.99999952316242
 31
0.0
  0
INSERT
  5
7A58
330
7675
100
AcDbEntity
  8
AM_5
100
AcDbBlockReference
  2
_Open30
 10
-34.99999773502374
 20
-16.99999952316225
 30
0.0
 41
1.25
 42
1.25
 43
1.25
 50
0.0000000000001018
  0
INSERT
  5
7A59
330
7675
100
AcDbEntity
  8
AM_5
100
AcDbBlockReference
  2
_Open30
 10
-120.0002385377833
 20
-16.99999952316242
 30
0.0
 41
1.25
 42
1.25
 43
1.25
 50
180.0000000000001
  0
MTEXT
  5
7A5A
330
7675
100
AcDbEntity
  8
AM_5
 62
     2
100
AcDbMText
 10
-77.50011813640355
 20
-15.44999952316234
 30
0.0
 40
1.6
 41
0.0
 71
     5
 72
     1
  1
85
  7
ASAMI
 73
     1
 44
1.0
1001
ACAD
1000
MTEXTBEGIN
1070
    73
1070
     1
1070
    44
1040
1.0
1070
    74
1070
     0
1000
MTEXTEND
  0
POINT
  5
7A5B
330
7675
100
AcDbEntity
  8
DEFPOINTS
 62
     0
100
AcDbPoint
 10
-34.99999773502377
 20
-8.899996757506697
 30
0.0
  0
POINT
  5
7A5C
330
7675
100
AcDbEntity
  8
DEFPOINTS
 62
     0
100
AcDbPoint
 10
-120.0002385377833
 20
-7.660999298095219
 30
0.0
  0
POINT
  5
7A5D
330
7675
100
AcDbEntity
  8
DEFPOINTS
 62
     0
100
AcDbPoint
 10
-120.0002385377833
 20
-16.99999952316218
 30
0.0
  0
ENDBLK
  5
7680
330
7675
100
AcDbEntity
  8
0
100
AcDbBlockEnd
  0
BLOCK
  5
7714
330
770A
100
AcDbEntity
  8
0
100
AcDbBlockBegin
  2
*D7
 70
     1
 10
0.0
 20
0.0
 30
0.0
  3
*D7
  1

  0
LINE
  5
7A5E
330
770A
100
AcDbEntity
  8
AM_5
100
AcDbLine
 10
-120.0000015497157
 20
-8.160999298095449
 30
0.0
 11
-120.0000015497157
 21
-22.49999952316243
 31
0.0
  0
LINE
  5
7A5F
330
770A
100
AcDbEntity
  8
AM_5
100
AcDbLine
 10
-0.0000000000001991
 20
-10.49999999999985
 30
0.0
 11
-0.0000000000001756
 21
-22.49999952316219
 31
0.0
  0
LINE
  5
7A60
330
770A
100
AcDbEntity
  8
AM_5
100
AcDbLine
 10
-118.7500015497157
 20
-21.99999952316243
 30
0.0
 11
-1.250000000000176
 21
-21.99999952316219
 31
0.0
  0
INSERT
  5
7A61
330
770A
100
AcDbEntity
  8
AM_5
100
AcDbBlockReference
  2
_Open30
 10
-120.0000015497157
 20
-21.99999952316243
 30
0.0
 41
1.25
 42
1.25
 43
1.25
 50
180.0000000000001
  0
INSERT
  5
7A62
330
770A
100
AcDbEntity
  8
AM_5
100
AcDbBlockReference
  2
_Open30
 10
-0.0000000000001765
 20
-21.99999952316218
 30
0.0
 41
1.25
 42
1.25
 43
1.25
 50
0.0000000000001018
  0
MTEXT
  5
7A63
330
770A
100
AcDbEntity
  8
AM_5
 62
     2
100
AcDbMText
 10
-60.00000077485796
 20
-20.4499995231623
 30
0.0
 40
1.6
 41
0.0
 71
     5
 72
     1
  1
120
  7
ASAMI
 73
     1
 44
1.0
1001
ACAD
1000
MTEXTBEGIN
1070
    73
1070
     1
1070
    44
1040
1.0
1070
    74
1070
     0
1000
MTEXTEND
  0
POINT
  5
7A64
330
770A
100
AcDbEntity
  8
DEFPOINTS
 62
     0
100
AcDbPoint
 10
-120.0000015497157
 20
-7.660999298095204
 30
0.0
  0
POINT
  5
7A65
330
770A
100
AcDbEntity
  8
DEFPOINTS
 62
     0
100
AcDbPoint
 10
-0.0000000000002203
 20
-9.99999999999985
 30
0.0
  0
POINT
  5
7A66
330
770A
100
AcDbEntity
  8
DEFPOINTS
 62
     0
100
AcDbPoint
 10
-0.000000000000221
 20
-21.99999952316218
 30
0.0
  0
ENDBLK
  5
7715
330
770A
100
AcDbEntity
  8
0
100
AcDbBlockEnd
  0
ENDSEC
  0
SECTION
  2
ENTITIES
  0
TEXT
  5
388D
330
1F
100
AcDbEntity
  8
AM_6
100
AcDbText
 10
-78.39285791771508
 20
-33.24999952316225
 30
0.0
 40
2.5
  1
WRM20R2026E-S20
 50
359.9999999999998
 51
359.9999999999998
 72
     4
 11
-60.00000077485793
 21
-31.99999952316231
 31
0.0
100
AcDbText
  0
SPLINE
  5
7152
330
1F
100
AcDbEntity
  8
AM_0
100
AcDbSpline
210
0.0
220
0.0
230
1.0
 70
     8
 71
     3
 72
    10
 73
     6
 74
     4
 42
0.0000000001
 43
0.0000000001
 44
0.0000000001
 40
0.0
 40
0.0
 40
0.0
 40
0.0
 40
0.2778942881164634
 40
0.7272189680244044
 40
1.141812606958542
 40
1.141812606958542
 40
1.141812606958542
 40
1.141812606958542
 10
-9.094007704121551
 20
-9.89606851323958
 30
0.0
 10
-9.186611677526615
 20
-9.888739337000968
 30
0.0
 10
-9.428946150937482
 20
-9.869559684130676
 30
0.0
 10
-9.779208851966508
 20
-9.645779099061117
 30
0.0
 10
-9.878403594480431
 20
-9.369605136053676
 30
0.0
 10
-9.9260070638884
 20
-9.23706949488845
 30
0.0
 11
-9.094007704121551
 21
-9.89606851323958
 31
0.0
 11
-9.369008250894816
 21
-9.856069330220917
 31
0.0
 11
-9.745007545174749
 21
-9.610066893900933
 31
0.0
 11
-9.9260070638884
 21
-9.23706949488845
 31
0.0
  0
SPLINE
  5
7153
330
1F
100
AcDbEntity
  8
AM_0
100
AcDbSpline
210
0.0
220
0.0
230
1.0
 70
     8
 71
     3
 72
    10
 73
     6
 74
     4
 42
0.0000000001
 43
0.0000000001
 44
0.0000000001
 40
0.0
 40
0.0
 40
0.0
 40
0.0
 40
0.4235187224099842
 40
0.8740343909658642
 40
1.141605241289604
 40
1.141605241289604
 40
1.141605241289604
 40
1.141605241289604
 10
-9.925995318433059
 20
9.236932389567405
 30
0.0
 10
-9.87690400439159
 20
9.372341687956584
 30
0.0
 10
-9.775592080031341
 20
9.651791868990446
 30
0.0
 10
-9.422276589452259
 20
9.870883183680446
 30
0.0
 10
-9.183111840655746
 20
9.889131631706653
 30
0.0
 10
-9.093995120705633
 20
9.895931303650195
 30
0.0
 11
-9.925995318433059
 21
9.236932389567405
 31
0.0
 11
-9.738995755852112
 21
9.616931431442933
 31
0.0
 11
-9.358995487552354
 21
9.858931769679195
 31
0.0
 11
-9.093995120705633
 21
9.895931303650195
 31
0.0
  0
SPLINE
  5
7157
330
1F
100
AcDbEntity
  8
AM_0
100
AcDbSpline
210
0.0
220
0.0
230
1.0
 70
     8
 71
     3
 72
    10
 73
     6
 74
     4
 42
0.0000000001
 43
0.0000000001
 44
0.0000000001
 40
0.0
 40
0.0
 40
0.0
 40
0.0
 40
4.755306966430482
 40
8.645343499135478
 40
8.728397890663531
 40
8.728397890663531
 40
8.728397890663531
 40
8.728397890663531
 10
-0.3659951734773193
 20
9.929926151265195
 30
0.0
 10
-1.950814151797659
 20
9.911838760466817
 30
0.0
 10
-4.832080187460761
 20
9.878955140637645
 30
0.0
 10
-7.742839586098671
 20
9.846640908856333
 30
0.0
 10
-9.066328606798826
 20
9.894922024290336
 30
0.0
 10
-9.093995120705633
 20
9.895931303650195
 30
0.0
 11
-0.3659951734773193
 21
9.929926151265195
 31
0.0
 11
-5.12099556066807
 21
9.875929273595424
 31
0.0
 11
-9.010994939507154
 21
9.892930991480598
 31
0.0
 11
-9.093995120705633
 21
9.895931303650195
 31
0.0
  0
SPLINE
  5
7158
330
1F
100
AcDbEntity
  8
AM_0
100
AcDbSpline
210
0.0
220
0.0
230
1.0
 70
     8
 71
     3
 72
    10
 73
     6
 74
     4
 42
0.0000000001
 43
0.0000000001
 44
0.0000000001
 40
0.0
 40
0.0
 40
0.0
 40
0.0
 40
0.0760594111678565
 40
3.967096334515386
 40
8.728402468900808
 40
8.728402468900808
 40
8.728402468900808
 40
8.728402468900808
 10
-9.094007704121551
 20
-9.89606851323958
 30
0.0
 10
-9.06867451230269
 20
-9.895059825826288
 30
0.0
 10
-7.747349368404435
 20
-9.842448846086785
 30
0.0
 10
-4.836339575598068
 20
-9.881426740452372
 30
0.0
 10
-1.952795839715431
 20
-9.912806474969942
 30
0.0
 10
-0.3660078001269987
 20
-9.930074459082101
 30
0.0
 11
-9.094007704121551
 21
-9.89606851323958
 31
0.0
 11
-9.018007488591063
 21
-9.893068302160235
 31
0.0
 11
-5.12700768377842
 21
-9.876072484975534
 31
0.0
 11
-0.3660078001269987
 21
-9.930074459082101
 31
0.0
  0
SPLINE
  5
7159
330
1F
100
AcDbEntity
  8
AM_0
100
AcDbSpline
210
0.0
220
0.0
230
1.0
 70
     8
 71
     3
 72
    11
 73
     7
 74
     5
 42
0.0000000001
 43
0.0000000001
 44
0.0000000001
 40
0.0
 40
0.0
 40
0.0
 40
0.0
 40
1.330670145457268
 40
2.672252079140127
 40
4.008651620379651
 40
5.35083341322097
 40
5.35083341322097
 40
5.35083341322097
 40
5.35083341322097
 10
-5.280993507725657
 20
8.364928742079408
 30
0.0
 10
-5.738415416439559
 20
8.272963310024039
 30
0.0
 10
-6.657010194249747
 20
8.088278309118326
 30
0.0
 10
-7.289278960918894
 20
6.703513711287464
 30
0.0
 10
-6.792254482691621
 20
5.256189232322086
 30
0.0
 10
-5.886733848680951
 20
4.997535261567455
 30
0.0
 10
-5.432996158304525
 20
4.867929098119705
 30
0.0
 11
-5.280993507725657
 21
8.364928742079408
 31
0.0
 11
-6.529994348865963
 21
7.905929902383627
 31
0.0
 11
-7.100998080910886
 21
6.691929563514231
 31
0.0
 11
-6.649998667103456
 21
5.433929856610225
 31
0.0
 11
-5.432996158304525
 21
4.867929098119705
 31
0.0
  0
SPLINE
  5
715A
330
1F
100
AcDbEntity
  8
AM_0
100
AcDbSpline
210
0.0
220
0.0
230
1.0
 70
     8
 71
     3
 72
    11
 73
     7
 74
     5
 42
0.0000000001
 43
0.0000000001
 44
0.0000000001
 40
0.0
 40
0.0
 40
0.0
 40
0.0
 40
1.340656084297147
 40
2.677662275318066
 40
4.020381042639691
 40
5.348122807057259
 40
5.348122807057259
 40
5.348122807057259
 40
5.348122807057259
 10
-5.432996158304525
 20
4.867929098119705
 30
0.0
 10
-4.970233875372227
 20
4.95769780117145
 30
0.0
 10
-4.045969165010287
 20
5.136990814854303
 30
0.0
 10
-3.426611324845043
 20
6.536362967478734
 30
0.0
 10
-3.935691397101352
 20
7.970605525128549
 30
0.0
 10
-4.834239275266739
 20
8.233980039376591
 30
0.0
 10
-5.280993507725657
 20
8.364928742079408
 30
0.0
 11
-5.432996158304525
 21
4.867929098119705
 31
0.0
 11
-4.172998022419986
 21
5.325928480139428
 31
0.0
 11
-3.61499859271784
 21
6.54092732428717
 31
0.0
 11
-4.078994678838094
 21
7.80092784816912
 31
0.0
 11
-5.280993507725657
 21
8.364928742079408
 31
0.0
  0
SPLINE
  5
715B
330
1F
100
AcDbEntity
  8
AM_0
100
AcDbSpline
210
0.0
220
0.0
230
1.0
 70
     8
 71
     3
 72
    11
 73
     7
 74
     5
 42
0.0000000001
 43
0.0000000001
 44
0.0000000001
 40
0.0
 40
0.0
 40
0.0
 40
0.0
 40
2.223631274984547
 40
4.446193907830201
 40
6.667670403467987
 40
8.889083479969581
 40
8.889083479969581
 40
8.889083479969581
 40
8.889083479969581
 10
-10.42599703631971
 20
3.534932089478221
 30
0.0
 10
-9.685001654285738
 20
3.51707645193076
 30
0.0
 10
-8.203367000917838
 20
3.481373757973778
 30
0.0
 10
-5.98137471731052
 20
3.431226289632125
 30
0.0
 10
-3.760029559496537
 20
3.385356044127684
 30
0.0
 10
-2.279336416099067
 20
3.357069246903357
 30
0.0
 10
-1.539000412328996
 20
3.3429260501783
 30
0.0
 11
-10.42599703631971
 21
3.534932089478221
 31
0.0
 11
-8.202997497262352
 21
3.481931179672987
 31
0.0
 11
-5.980997406982562
 21
3.431928622554253
 31
0.0
 11
-3.759997241679221
 21
3.385927683502198
 31
0.0
 11
-1.539000412328996
 21
3.3429260501783
 31
0.0
  0
SPLINE
  5
715C
330
1F
100
AcDbEntity
  8
AM_0
100
AcDbSpline
210
0.0
220
0.0
230
1.0
 70
     8
 71
     3
 72
    11
 73
     7
 74
     5
 42
0.0000000001
 43
0.0000000001
 44
0.0000000001
 40
0.0
 40
0.0
 40
0.0
 40
0.0
 40
0.2877931722142957
 40
0.5746283023828345
 40
0.8596741374007789
 40
1.143681513150505
 40
1.143681513150505
 40
1.143681513150505
 40
1.143681513150505
 10
-1.539000412328996
 20
3.3429260501783
 30
0.0
 10
-1.442126284026391
 20
3.349150735326053
 30
0.0
 10
-1.248700514182579
 20
3.361579384108094
 30
0.0
 10
-0.9928597791297969
 20
3.507366442191914
 30
0.0
 10
-0.7956771094309568
 20
3.725424065326614
 30
0.0
 10
-0.7465280798828511
 20
3.911204886611466
 30
0.0
 10
-0.7219984108844591
 20
4.003925782512503
 30
0.0
 11
-1.539000412328996
 21
3.3429260501783
 31
0.0
 11
-1.25400053948565
 21
3.382925830833249
 31
0.0
 11
-1.001997736318874
 21
3.519925754537206
 31
0.0
 11
-0.8160005897121559
 21
3.735926193229436
 31
0.0
 11
-0.7219984108844591
 21
4.003925782512503
 31
0.0
  0
SPLINE
  5
715D
330
1F
100
AcDbEntity
  8
AM_0
100
AcDbSpline
210
0.0
220
0.0
230
1.0
 70
     8
 71
     3
 72
    11
 73
     7
 74
     5
 42
0.0000000001
 43
0.0000000001
 44
0.0000000001
 40
0.0
 40
0.0
 40
0.0
 40
0.0
 40
1.051247836326583
 40
2.10249473009072
 40
3.153894204344174
 40
4.206130801060671
 40
4.206130801060671
 40
4.206130801060671
 40
4.206130801060671
 10
-0.7219984108844591
 20
4.003925782512503
 30
0.0
 10
-0.6686349807187632
 20
4.350254629745188
 30
0.0
 10
-0.5619081682337152
 20
5.042912013687621
 30
0.0
 10
-0.4023489486766162
 20
6.082031411704106
 30
0.0
 10
-0.2405831313038143
 20
7.121143475682509
 30
0.0
 10
-0.1342064393756103
 20
7.81423983257994
 30
0.0
 10
-0.0809969276025582
 20
8.160925916662005
 30
0.0
 11
-0.7219984108844591
 21
4.003925782512503
 31
0.0
 11
-0.5619979028935926
 21
5.042926191956112
 31
0.0
 11
-0.4019973949033183
 21
6.081925647726711
 31
0.0
 11
-0.2409974362294504
 21
7.120925102860087
 31
0.0
 11
-0.0809969276025582
 21
8.160925916662005
 31
0.0
  0
SPLINE
  5
715E
330
1F
100
AcDbEntity
  8
AM_0
100
AcDbSpline
210
0.0
220
0.0
230
1.0
 70
     8
 71
     3
 72
    11
 73
     7
 74
     5
 42
0.0000000001
 43
0.0000000001
 44
0.0000000001
 40
0.0
 40
0.0
 40
0.0
 40
0.0
 40
0.1142150280477435
 40
0.2293846004025792
 40
0.3448054825136495
 40
0.4607411299940534
 40
0.4607411299940534
 40
0.4607411299940534
 40
0.4607411299940534
 10
0.0000050700266916
 20
9.286924839008952
 30
0.0
 10
-0.0000037060329154
 20
9.325287920550474
 30
0.0
 10
-0.0000213314974489
 20
9.402334700471023
 30
0.0
 10
-0.0423289970845055
 20
9.511547403345206
 30
0.0
 10
-0.1131466931779856
 20
9.605986590481167
 30
0.0
 10
-0.1803293319181373
 20
9.645249899681545
 30
0.0
 10
-0.2139953915514444
 20
9.664925234466377
 30
0.0
 11
0.0000050700266916
 21
9.286924839008952
 31
0.0
 11
-0.0069948269762412
 21
9.400925163893994
 31
0.0
 11
-0.0469956738391166
 21
9.50892499096167
 31
0.0
 11
-0.1179947614903981
 21
9.599925593047499
 31
0.0
 11
-0.2139953915514444
 21
9.664925234466377
 31
0.0
  0
SPLINE
  5
715F
330
1F
100
AcDbEntity
  8
AM_0
100
AcDbSpline
210
0.0
220
0.0
230
1.0
 70
     8
 71
     3
 72
    11
 73
     7
 74
     5
 42
0.0000000001
 43
0.0000000001
 44
0.0000000001
 40
0.0
 40
0.0
 40
0.0
 40
0.0
 40
2.177407056232076
 40
4.35885013597248
 40
6.542376430324663
 40
8.729971526519921
 40
8.729971526519921
 40
8.729971526519921
 40
8.729971526519921
 10
-9.093996080101872
 20
9.886931002289705
 30
0.0
 10
-8.368326980207838
 20
9.873025222238217
 30
0.0
 10
-6.915643686245465
 20
9.84518788649764
 30
0.0
 10
-4.735284240440713
 20
9.801698297041797
 30
0.0
 10
-2.551627996553305
 20
9.753426676521673
 30
0.0
 10
-1.094991826016973
 20
9.719102897828623
 30
0.0
 10
-0.3659957952737419
 20
9.701925033559247
 30
0.0
 11
-9.093996080101872
 21
9.886931002289705
 31
0.0
 11
-6.91699415368008
 21
9.8449298012944
 31
0.0
 11
-4.735994902633663
 21
9.800927789041958
 31
0.0
 11
-2.552996275924687
 21
9.752927019109556
 31
0.0
 11
-0.3659957952737419
 21
9.701925033559247
 31
0.0
  0
SPLINE
  5
7160
330
1F
100
AcDbEntity
  8
AM_0
100
AcDbSpline
210
0.0
220
0.0
230
1.0
 70
     8
 71
     3
 72
    11
 73
     7
 74
     5
 42
0.0000000001
 43
0.0000000001
 44
0.0000000001
 40
0.0
 40
0.0
 40
0.0
 40
0.0
 40
0.2879339213331746
 40
0.57740347456065
 40
0.8657393054859888
 40
1.151203290502362
 40
1.151203290502362
 40
1.151203290502362
 40
1.151203290502362
 10
-9.093996080101872
 20
9.886931002289705
 30
0.0
 10
-9.190823056161589
 20
9.880180974603833
 30
0.0
 10
-9.384993413545032
 20
9.866644919452159
 30
0.0
 10
-9.643077915705621
 20
9.721236800209643
 30
0.0
 10
-9.844335180573059
 20
9.504122318520108
 30
0.0
 10
-9.898864978754943
 20
9.318351700911714
 30
0.0
 10
-9.925993418079368
 20
9.225931279489289
 30
0.0
 11
-9.093996080101872
 21
9.886931002289705
 31
0.0
 11
-9.378995953581146
 21
9.845930817276745
 31
0.0
 11
-9.633993294101408
 21
9.708930895476376
 31
0.0
 11
-9.824995323520232
 21
9.492931413640663
 31
0.0
 11
-9.925993418079368
 21
9.225931279489289
 31
0.0
  0
SPLINE
  5
7161
330
1F
100
AcDbEntity
  8
AM_0
100
AcDbSpline
210
0.0
220
0.0
230
1.0
 70
     8
 71
     3
 72
    11
 73
     7
 74
     5
 42
0.0000000001
 43
0.0000000001
 44
0.0000000001
 40
0.0
 40
0.0
 40
0.0
 40
0.0
 40
1.054709597258473
 40
2.109419663799453
 40
3.164129730339731
 40
4.218663052838872
 40
4.218663052838872
 40
4.218663052838872
 40
4.218663052838872
 10
-9.925993418079368
 20
9.225931279489289
 30
0.0
 10
-9.988332834436921
 20
8.879932479449704
 30
0.0
 10
-10.11301169488932
 20
8.187934725421817
 30
0.0
 10
-10.29992611254931
 20
7.149919351613192
 30
0.0
 10
-10.48724514234564
 20
6.11203637507787
 30
0.0
 10
-10.61108364366343
 20
5.419947329834621
 30
0.0
 10
-10.67299770579897
 20
5.07393180401235
 30
0.0
 11
-9.925993418079368
 21
9.225931279489289
 31
0.0
 11
-10.1129943526798
 21
8.187931768406699
 31
0.0
 11
-10.29999528728054
 21
7.149931780486983
 31
0.0
 11
-10.48699622188126
 21
6.11193179256798
 31
0.0
 11
-10.67299770579897
 21
5.07393180401235
 31
0.0
  0
SPLINE
  5
7162
330
1F
100
AcDbEntity
  8
AM_0
100
AcDbSpline
210
0.0
220
0.0
230
1.0
 70
     8
 71
     3
 72
    11
 73
     7
 74
     5
 42
0.0000000001
 43
0.0000000001
 44
0.0000000001
 40
0.0
 40
0.0
 40
0.0
 40
0.0
 40
0.1140695777310864
 40
0.2285598668824271
 40
0.342761274435839
 40
0.4570472237763852
 40
0.4570472237763852
 40
0.4570472237763852
 40
0.4570472237763852
 10
-10.7829990314058
 20
3.948931873949089
 30
0.0
 10
-10.78409209443121
 20
3.910604904084099
 30
0.0
 10
-10.78628225191712
 20
3.833809606822631
 30
0.0
 10
-10.74573110877862
 20
3.724552673938275
 30
0.0
 10
-10.67704489106042
 20
3.630013604167715
 30
0.0
 10
-10.61102140050999
 20
3.590631017250788
 30
0.0
 10
-10.57799744067734
 20
3.570932437887484
 30
0.0
 11
-10.7829990314058
 21
3.948931873949089
 31
0.0
 11
-10.77899748645363
 21
3.834932504644937
 31
0.0
 11
-10.74099935565568
 21
3.726931725176366
 31
0.0
 11
-10.67199916937069
 21
3.635932078035196
 31
0.0
 11
-10.57799744067734
 21
3.570932437887484
 31
0.0
  0
SPLINE
  5
7163
330
1F
100
AcDbEntity
  8
AM_0
100
AcDbSpline
210
0.0
220
0.0
230
1.0
 70
     8
 71
     3
 72
    11
 73
     7
 74
     5
 42
0.0000000001
 43
0.0000000001
 44
0.0000000001
 40
0.0
 40
0.0
 40
0.0
 40
0.0
 40
0.1142131242847312
 40
0.2293844852495429
 40
0.3448046154630993
 40
0.4607397282665783
 40
0.4607397282665783
 40
0.4607397282665783
 40
0.4607397282665783
 10
-0.0000067390056732
 20
-9.287075042731197
 30
0.0
 10
-0.0000157326025558
 20
-9.325437441439177
 30
0.0
 10
-0.0000337952516987
 20
-9.402484095540245
 30
0.0
 10
-0.0423403219085651
 20
-9.511696977885435
 30
0.0
 10
-0.1131590662855977
 20
-9.606135749899578
 30
0.0
 10
-0.1803416281635031
 20
-9.645398290446399
 30
0.0
 10
-0.2140076812348318
 20
-9.665073258724133
 30
0.0
 11
-0.0000067390056732
 21
-9.287075042731197
 31
0.0
 11
-0.007006780966312
 21
-9.401073451366707
 31
0.0
 11
-0.0470077651592352
 21
-9.509075134918791
 31
0.0
 11
-0.1180069685231285
 21
-9.600074693050723
 31
0.0
 11
-0.2140076812348318
 21
-9.665073258724133
 31
0.0
  0
SPLINE
  5
7164
330
1F
100
AcDbEntity
  8
AM_0
100
AcDbSpline
210
0.0
220
0.0
230
1.0
 70
     8
 71
     3
 72
    11
 73
     7
 74
     5
 42
0.0000000001
 43
0.0000000001
 44
0.0000000001
 40
0.0
 40
0.0
 40
0.0
 40
0.0
 40
2.177407056232064
 40
4.358850097501282
 40
6.542376412817825
 40
8.729971509013067
 40
8.729971509013067
 40
8.729971509013067
 40
8.729971509013067
 10
-9.094008652073014
 20
-9.887067735040977
 30
0.0
 10
-8.368339539455934
 20
-9.873162634473077
 30
0.0
 10
-6.915656232845256
 20
-9.845326659204841
 30
0.0
 10
-4.735296663000835
 20
-9.801843500879229
 30
0.0
 10
-2.551640416331264
 20
-9.753572187142717
 30
0.0
 10
-1.095004188117651
 20
-9.719250590406096
 30
0.0
 10
-0.366008132005281
 20
-9.702073818212832
 30
0.0
 11
-9.094008652073014
 21
-9.887067735040977
 31
0.0
 11
-6.917006672245688
 21
-9.845069302247717
 31
0.0
 11
-4.736007365250789
 21
-9.801071970627852
 31
0.0
 11
-2.553008677506844
 21
-9.753073022847191
 31
0.0
 11
-0.366008132005281
 21
-9.702073818212832
 31
0.0
  0
SPLINE
  5
7165
330
1F
100
AcDbEntity
  8
AM_0
100
AcDbSpline
210
0.0
220
0.0
230
1.0
 70
     8
 71
     3
 72
    11
 73
     7
 74
     5
 42
0.0000000001
 43
0.0000000001
 44
0.0000000001
 40
0.0
 40
0.0
 40
0.0
 40
0.0
 40
1.051248778891002
 40
2.102493787526415
 40
3.153895146634963
 40
4.206131743351168
 40
4.206131743351168
 40
4.206131743351168
 40
4.206131743351168
 10
-0.7220035022339183
 20
-4.004073637651893
 30
0.0
 10
-0.6686405662741223
 20
-4.350402878928138
 30
0.0
 10
-0.5619148857382558
 20
-5.043060119386668
 30
0.0
 10
-0.4023562747348667
 20
-6.082179928207781
 30
0.0
 10
-0.24059240809858
 20
-7.121292295188499
 30
0.0
 10
-0.1342164179306586
 20
-7.814389395327722
 30
0.0
 10
-0.0810073048526786
 20
-8.1610755405482
 30
0.0
 11
-0.7220035022339183
 21
-4.004073637651893
 31
0.0
 11
-0.5620043154012652
 21
-5.043075204220834
 31
0.0
 11
-0.4020051285661727
 21
-6.082072956091828
 31
0.0
 11
-0.241006491049912
 21
-7.121074523296233
 31
0.0
 11
-0.0810073048526786
 21
-8.1610755405482
 31
0.0
  0
SPLINE
  5
7166
330
1F
100
AcDbEntity
  8
AM_0
100
AcDbSpline
210
0.0
220
0.0
230
1.0
 70
     8
 71
     3
 72
    11
 73
     7
 74
     5
 42
0.0000000001
 43
0.0000000001
 44
0.0000000001
 40
0.0
 40
0.0
 40
0.0
 40
0.0
 40
0.1294969194671014
 40
0.2604206107549763
 40
0.3902863277530995
 40
0.5198077095090762
 40
0.5198077095090762
 40
0.5198077095090762
 40
0.5198077095090762
 10
-0.9630045837000576
 20
-3.554072721488413
 30
0.0
 10
-0.9323981707927696
 20
-3.584704522397605
 30
0.0
 10
-0.8708481294857262
 20
-3.646305619428513
 30
0.0
 10
-0.8017454607573068
 20
-3.757450262639606
 30
0.0
 10
-0.7471646605024837
 20
-3.876458895106361
 30
0.0
 10
-0.7303831291869
 20
-3.961573053027839
 30
0.0
 10
-0.7220035022339183
 20
-4.004073637651893
 30
0.0
 11
-0.9630045837000576
 21
-3.554072721488413
 31
0.0
 11
-0.875003392879528
 21
-3.649073998141086
 31
0.0
 11
-0.8040043173081565
 21
-3.759074653632103
 31
0.0
 11
-0.7520022014224855
 21
-3.878074167895187
 31
0.0
 11
-0.7220035022339183
 21
-4.004073637651893
 31
0.0
  0
SPLINE
  5
7167
330
1F
100
AcDbEntity
  8
AM_0
100
AcDbSpline
210
0.0
220
0.0
230
1.0
 70
     8
 71
     3
 72
    11
 73
     7
 74
     5
 42
0.0000000001
 43
0.0000000001
 44
0.0000000001
 40
0.0
 40
0.0
 40
0.0
 40
0.0
 40
0.2879339213331711
 40
0.5774030232071224
 40
0.8657388541320884
 40
1.151202839149224
 40
1.151202839149224
 40
1.151202839149224
 40
1.151202839149224
 10
-9.094008652073014
 20
-9.887067735040977
 30
0.0
 10
-9.19083557683639
 20
-9.880317506934817
 30
0.0
 10
-9.385005679571625
 20
-9.866781060455052
 30
0.0
 10
-9.643090532305404
 20
-9.721373952443741
 30
0.0
 10
-9.844347228750976
 20
-9.504258982378816
 30
0.0
 10
-9.898876815438979
 20
-9.318488341149581
 30
0.0
 10
-9.926005149545773
 20
-9.226067907975659
 30
0.0
 11
-9.094008652073014
 21
-9.887067735040977
 31
0.0
 11
-9.379008473417616
 21
-9.846067187631934
 31
0.0
 11
-9.634005639733869
 21
-9.709067895260064
 31
0.0
 11
-9.825007394494967
 21
-9.493068170553359
 31
0.0
 11
-9.926005149545773
 21
-9.226067907975659
 31
0.0
  0
SPLINE
  5
7168
330
1F
100
AcDbEntity
  8
AM_0
100
AcDbSpline
210
0.0
220
0.0
230
1.0
 70
     8
 71
     3
 72
    11
 73
     7
 74
     5
 42
0.0000000001
 43
0.0000000001
 44
0.0000000001
 40
0.0
 40
0.0
 40
0.0
 40
0.0
 40
0.0621277568594063
 40
0.124370150322473
 40
0.1871697273035831
 40
0.2502344161418582
 40
0.2502344161418582
 40
0.2502344161418582
 40
0.2502344161418582
 10
-0.799006601675686
 20
-9.032073466625655
 30
0.0
 10
-0.7811626873850251
 20
-9.021414212656001
 30
0.0
 10
-0.7454419336534373
 20
-9.000076036524331
 30
0.0
 10
-0.7009317204317985
 20
-8.95576528130844
 30
0.0
 10
-0.6619177552438476
 20
-8.906233993800475
 30
0.0
 10
-0.64398836154035
 20
-8.868154676266531
 30
0.0
 10
-0.6350047820659933
 20
-8.849074913668159
 30
0.0
 11
-0.799006601675686
 21
-9.032073466625655
 31
0.0
 11
-0.7470082032125105
 21
-8.998073102956329
 31
0.0
 11
-0.7020061922317406
 21
-8.955073863989833
 31
0.0
 11
-0.6640079609801673
 21
-8.905074651088444
 31
0.0
 11
-0.6350047820659933
 21
-8.849074913668159
 31
0.0
  0
SPLINE
  5
7169
330
1F
100
AcDbEntity
  8
AM_0
100
AcDbSpline
210
0.0
220
0.0
230
1.0
 70
     8
 71
     3
 72
    11
 73
     7
 74
     5
 42
0.0000000001
 43
0.0000000001
 44
0.0000000001
 40
0.0
 40
0.0
 40
0.0
 40
0.0
 40
0.0265717137732182
 40
0.0525328481745076
 40
0.0792153860194871
 40
0.105521910093961
 40
0.105521910093961
 40
0.105521910093961
 40
0.105521910093961
 10
-0.6350047820659933
 20
-8.849074913668159
 30
0.0
 10
-0.6318564095358094
 20
-8.84078893518629
 30
0.0
 10
-0.6256320095013771
 20
-8.824407377967956
 30
0.0
 10
-0.6188761373288782
 20
-8.798859012294043
 30
0.0
 10
-0.6125637449869087
 20
-8.773285802010304
 30
0.0
 10
-0.6101873308334511
 20
-8.755769662128507
 30
0.0
 10
-0.6090075553500905
 20
-8.747073740011737
 30
0.0
 11
-0.6350047820659933
 21
-8.849074913668159
 31
0.0
 11
-0.6260058953208421
 21
-8.8240733935105
 31
0.0
 11
-0.6190059099440052
 21
-8.799073779430962
 31
0.0
 11
-0.6130053746154421
 21
-8.773074714032002
 31
0.0
 11
-0.6090075553500905
 21
-8.747073740011737
 31
0.0
  0
SPLINE
  5
716A
330
1F
100
AcDbEntity
  8
AM_0
100
AcDbSpline
210
0.0
220
0.0
230
1.0
 70
     8
 71
     3
 72
    11
 73
     7
 74
     5
 42
0.0000000001
 43
0.0000000001
 44
0.0000000001
 40
0.0
 40
0.0
 40
0.0
 40
0.0
 40
0.0490914369315662
 40
0.0971448022756009
 40
0.1455298583350965
 40
0.1942831491312393
 40
0.1942831491312393
 40
0.1942831491312393
 40
0.1942831491312393
 10
-0.9850074568034859
 20
-9.081073134746475
 30
0.0
 10
-0.9686035701914502
 20
-9.080640134665298
 30
0.0
 10
-0.936142668228059
 20
-9.079783290582087
 30
0.0
 10
-0.888756806983833
 20
-9.068531045840655
 30
0.0
 10
-0.8423419174171396
 20
-9.05437016558274
 30
0.0
 10
-0.8134881667886123
 20
-9.039524458783571
 30
0.0
 10
-0.799006601675686
 20
-9.032073466625655
 30
0.0
 11
-0.9850074568034859
 21
-9.081073134746475
 31
0.0
 11
-0.9360076685202702
 21
-9.078074813848708
 31
0.0
 11
-0.8890067771512979
 21
-9.068072707500078
 31
0.0
 11
-0.8430053332887508
 21
-9.053073347098997
 31
0.0
 11
-0.799006601675686
 21
-9.032073466625655
 31
0.0
  0
SPLINE
  5
716B
330
1F
100
AcDbEntity
  8
AM_0
100
AcDbSpline
210
0.0
220
0.0
230
1.0
 70
     8
 71
     3
 72
    11
 73
     7
 74
     5
 42
0.0000000001
 43
0.0000000001
 44
0.0000000001
 40
0.0
 40
0.0
 40
0.0
 40
0.0
 40
0.0526123229764928
 40
0.1050050138518674
 40
0.1562502595399459
 40
0.2084508129016046
 40
0.2084508129016046
 40
0.2084508129016046
 40
0.2084508129016046
 10
-0.9130021219496486
 20
-4.482074157087324
 30
0.0
 10
-0.9153723627699509
 20
-4.464686850538436
 30
0.0
 10
-0.9201029497520023
 20
-4.429984821399209
 30
0.0
 10
-0.9324321689238585
 20
-4.379306719498898
 30
0.0
 10
-0.94755192953694
 20
-4.329579687763043
 30
0.0
 10
-0.9598151587465235
 20
-4.297341740097738
 30
0.0
 10
-0.9660033979657239
 20
-4.281073909766957
 30
0.0
 11
-0.9130021219496486
 21
-4.482074157087324
 31
0.0
 11
-0.921005323752186
 21
-4.430074106223016
 31
0.0
 11
-0.9330025142272944
 21
-4.379073503502396
 31
0.0
 11
-0.9480056874197659
 21
-4.330073707586614
 31
0.0
 11
-0.9660033979657239
 21
-4.281073909766957
 31
0.0
  0
SPLINE
  5
716C
330
1F
100
AcDbEntity
  8
AM_0
100
AcDbSpline
210
0.0
220
0.0
230
1.0
 70
     8
 71
     3
 72
    11
 73
     7
 74
     5
 42
0.0000000001
 43
0.0000000001
 44
0.0000000001
 40
0.0
 40
0.0
 40
0.0
 40
0.0
 40
0.0440119751402052
 40
0.0870228564833322
 40
0.1310348316245111
 40
0.1750468935564051
 40
0.1750468935564051
 40
0.1750468935564051
 40
0.1750468935564051
 10
-8.514006385507185
 20
-9.202068637854416
 30
0.0
 10
-8.514336871444518
 20
-9.216735574279503
 30
0.0
 10
-8.5149903261055
 20
-9.245735833856679
 30
0.0
 10
-8.51602148372609
 20
-9.289401944920253
 30
0.0
 10
-8.517001705132642
 20
-9.333069255056766
 30
0.0
 10
-8.517672644291637
 20
-9.362402928524183
 30
0.0
 10
-8.518008114201908
 20
-9.377069779719228
 30
0.0
 11
-8.514006385507185
 21
-9.202068637854416
 31
0.0
 11
-8.515005864166022
 21
-9.246069262828985
 31
0.0
 11
-8.516005342188213
 21
-9.289068529771522
 31
0.0
 11
-8.517004820846059
 21
-9.333069154747088
 31
0.0
 11
-8.518008114201908
 21
-9.377069779719228
 31
0.0
  0
SPLINE
  5
716D
330
1F
100
AcDbEntity
  8
AM_0
100
AcDbSpline
210
0.0
220
0.0
230
1.0
 70
     8
 71
     3
 72
    11
 73
     7
 74
     5
 42
0.0000000001
 43
0.0000000001
 44
0.0000000001
 40
0.0
 40
0.0
 40
0.0
 40
0.0
 40
0.0863315885942748
 40
0.1714784980276399
 40
0.2559589838504434
 40
0.3419575190074323
 40
0.3419575190074323
 40
0.3419575190074323
 40
0.3419575190074323
 10
-8.882006513936444
 20
-9.356069639848215
 30
0.0
 10
-8.854828975724439
 20
-9.365577989063286
 30
0.0
 10
-8.800846841159707
 20
-9.384464209839153
 30
0.0
 10
-8.717513264743301
 20
-9.403676741479408
 30
0.0
 10
-8.632549685735913
 20
-9.412951057022073
 30
0.0
 10
-8.575690308408608
 20
-9.411700835260063
 30
0.0
 10
-8.547007464431771
 20
-9.411070158009946
 30
0.0
 11
-8.882006513936444
 21
-9.356069639848215
 31
0.0
 11
-8.800005798680881
 21
-9.383070119228912
 31
0.0
 11
-8.717005627655188
 21
-9.402069271730001
 31
0.0
 11
-8.633005999588743
 21
-9.411070103333544
 31
0.0
 11
-8.547007464431771
 21
-9.411070158009946
 31
0.0
  0
SPLINE
  5
716E
330
1F
100
AcDbEntity
  8
AM_0
100
AcDbSpline
210
0.0
220
0.0
230
1.0
 70
     8
 71
     3
 72
    11
 73
     7
 74
     5
 42
0.0000000001
 43
0.0000000001
 44
0.0000000001
 40
0.0
 40
0.0
 40
0.0
 40
0.0
 40
0.0641953467498267
 40
0.1287318765919701
 40
0.1921192962107676
 40
0.2561184722367551
 40
0.2561184722367551
 40
0.2561184722367551
 40
0.2561184722367551
 10
-8.765005810125003
 20
-9.161070019410267
 30
0.0
 10
-8.744795787158597
 20
-9.168155863746628
 30
0.0
 10
-8.704268329731329
 20
-9.182365212006919
 30
0.0
 10
-8.641560241546166
 20
-9.196015845666083
 30
0.0
 10
-8.577855786044114
 20
-9.20358736351037
 30
0.0
 10
-8.535357549642553
 20
-9.202576497920196
 30
0.0
 10
-8.514006385507185
 20
-9.202068637854416
 30
0.0
 11
-8.765005810125003
 21
-9.161070019410267
 31
0.0
 11
-8.704004998864746
 21
-9.181068608608532
 31
0.0
 11
-8.641005282424679
 21
-9.195068587627691
 31
0.0
 11
-8.578005561533158
 21
-9.202068597164831
 31
0.0
 11
-8.514006385507185
 21
-9.202068637854416
 31
0.0
  0
SPLINE
  5
716F
330
1F
100
AcDbEntity
  8
AM_0
100
AcDbSpline
210
0.0
220
0.0
230
1.0
 70
     8
 71
     3
 72
    11
 73
     7
 74
     5
 42
0.0000000001
 43
0.0000000001
 44
0.0000000001
 40
0.0
 40
0.0
 40
0.0
 40
0.0
 40
0.0680296054795782
 40
0.1349178135799757
 40
0.2013186378295932
 40
0.2684983625861448
 40
0.2684983625861448
 40
0.2684983625861448
 40
0.2684983625861448
 10
-8.765005810125003
 20
-9.161070019410267
 30
0.0
 10
-8.785980853133233
 20
-9.152330718872168
 30
0.0
 10
-8.827579020908375
 20
-9.134998745351127
 30
0.0
 10
-8.884222051589906
 20
-9.098678221621767
 30
0.0
 10
-8.938512177699045
 20
-9.059393602979094
 30
0.0
 10
-8.969448553462804
 20
-9.027239266794182
 30
0.0
 10
-8.985006935459557
 20
-9.011068353658227
 30
0.0
 11
-8.765005810125003
 21
-9.161070019410267
 31
0.0
 11
-8.82700606698115
 21
-9.133070102062552
 31
0.0
 11
-8.884005251270615
 21
-9.098068311062409
 31
0.0
 11
-8.937006629648911
 21
-9.058069269186018
 31
0.0
 11
-8.985006935459557
 21
-9.011068353658227
 31
0.0
  0
SPLINE
  5
7170
330
1F
100
AcDbEntity
  8
AM_0
100
AcDbSpline
210
0.0
220
0.0
230
1.0
 70
     8
 71
     3
 72
    11
 73
     7
 74
     5
 42
0.0000000001
 43
0.0000000001
 44
0.0000000001
 40
0.0
 40
0.0
 40
0.0
 40
0.0
 40
0.0940700053194524
 40
0.1857484878207515
 40
0.2778616845103226
 40
0.3699980163156665
 40
0.3699980163156665
 40
0.3699980163156665
 40
0.3699980163156665
 10
-9.179007262252977
 20
-9.141069298432153
 30
0.0
 10
-9.15791583299474
 20
-9.164329737415705
 30
0.0
 10
-9.116269177640663
 20
-9.210259269922579
 30
0.0
 10
-9.043890697769858
 20
-9.268569674729054
 30
0.0
 10
-8.965993157061062
 20
-9.317969050170415
 30
0.0
 10
-8.91000440503601
 20
-9.343368380208088
 30
0.0
 10
-8.882006513936444
 20
-9.356069639848215
 30
0.0
 11
-9.179007262252977
 21
-9.141069298432153
 31
0.0
 11
-9.114004864078504
 21
-9.209068225867586
 31
0.0
 11
-9.043005755447298
 21
-9.26706883558262
 31
0.0
 11
-8.965006671609542
 21
-9.316068671550119
 31
0.0
 11
-8.882006513936444
 21
-9.356069639848215
 31
0.0
  0
SPLINE
  5
7171
330
1F
100
AcDbEntity
  8
AM_0
100
AcDbSpline
210
0.0
220
0.0
230
1.0
 70
     8
 71
     3
 72
    11
 73
     7
 74
     5
 42
0.0000000001
 43
0.0000000001
 44
0.0000000001
 40
0.0
 40
0.0
 40
0.0
 40
0.0
 40
0.0460968120174544
 40
0.0918999831159541
 40
0.1368472043190859
 40
0.1824968752650877
 40
0.1824968752650877
 40
0.1824968752650877
 40
0.1824968752650877
 10
-8.985006935459557
 20
-9.011068353658227
 30
0.0
 10
-8.995212406388688
 20
-8.99956868800776
 30
0.0
 10
-9.015558338461438
 20
-8.976642610631371
 30
0.0
 10
-9.04219965305543
 20
-8.939539271200265
 30
0.0
 10
-9.066628684839397
 20
-8.901155988909314
 30
0.0
 10
-9.080844474526401
 20
-8.874500002455894
 30
0.0
 10
-9.088007480961337
 20
-8.861068669642216
 30
0.0
 11
-8.985006935459557
 21
-9.011068353658227
 31
0.0
 11
-9.015005692504237
 21
-8.976068487173526
 31
0.0
 11
-9.042006096227064
 21
-8.939069721228124
 31
0.0
 11
-9.066008147261028
 21
-8.901067691808023
 31
0.0
 11
-9.088007480961337
 21
-8.861068669642216
 31
0.0
  0
SPLINE
  5
7172
330
1F
100
AcDbEntity
  8
AM_0
100
AcDbSpline
210
0.0
220
0.0
230
1.0
 70
     8
 71
     3
 72
    11
 73
     7
 74
     5
 42
0.0000000001
 43
0.0000000001
 44
0.0000000001
 40
0.0
 40
0.0
 40
0.0
 40
0.0
 40
0.0617415859737842
 40
0.1221560518327041
 40
0.1834511387277237
 40
0.2440559210303243
 40
0.2440559210303243
 40
0.2440559210303243
 40
0.2440559210303243
 10
-9.30500658069298
 20
-8.933069035217901
 30
0.0
 10
-9.296577845492464
 20
-8.951849296500187
 30
0.0
 10
-9.27990154866919
 20
-8.989006141994966
 30
0.0
 10
-9.250655770455365
 20
-9.042802737508081
 30
0.0
 10
-9.21678959293037
 20
-9.093371090324023
 30
0.0
 10
-9.19155373658536
 20
-9.125230033542987
 30
0.0
 10
-9.179007262252977
 20
-9.141069298432153
 30
0.0
 11
-9.30500658069298
 21
-8.933069035217901
 31
0.0
 11
-9.279005639734657
 21
-8.989068807608868
 31
0.0
 11
-9.250006344817844
 21
-9.042068322506139
 31
0.0
 11
-9.216005980514159
 21
-9.093068939215006
 31
0.0
 11
-9.179007262252977
 21
-9.141069298432153
 31
0.0
  0
SPLINE
  5
7173
330
1F
100
AcDbEntity
  8
AM_0
100
AcDbSpline
210
0.0
220
0.0
230
1.0
 70
     8
 71
     3
 72
    11
 73
     7
 74
     5
 42
0.0000000001
 43
0.0000000001
 44
0.0000000001
 40
0.0
 40
0.0
 40
0.0
 40
0.0
 40
0.0456935807897818
 40
0.0902914093137956
 40
0.1358993029014171
 40
0.1808088440397504
 40
0.1808088440397504
 40
0.1808088440397504
 40
0.1808088440397504
 10
-9.088007480961337
 20
-8.861068669642216
 30
0.0
 10
-9.094181544718574
 20
-8.847140887222648
 30
0.0
 10
-9.106381615454958
 20
-8.81961931676258
 30
0.0
 10
-9.121661842068595
 20
-8.776923829835258
 30
0.0
 10
-9.133522094880529
 20
-8.733419765751891
 30
0.0
 10
-9.139191552735461
 20
-8.703776794035919
 30
0.0
 10
-9.14200441140229
 20
-8.689069657650851
 30
0.0
 11
-9.088007480961337
 21
-8.861068669642216
 31
0.0
 11
-9.106005195957559
 21
-8.819068841305577
 31
0.0
 11
-9.121004558903791
 21
-8.777069014874216
 31
0.0
 11
-9.133005568526941
 21
-8.733068381634172
 31
0.0
 11
-9.14200441140229
 21
-8.689069657650851
 31
0.0
  0
SPLINE
  5
7174
330
1F
100
AcDbEntity
  8
AM_0
100
AcDbSpline
210
0.0
220
0.0
230
1.0
 70
     8
 71
     3
 72
    11
 73
     7
 74
     5
 42
0.0000000001
 43
0.0000000001
 44
0.0000000001
 40
0.0
 40
0.0
 40
0.0
 40
0.0
 40
0.0526098576586649
 40
0.1050025485339505
 40
0.1569266540460697
 40
0.2091285227645883
 40
0.2091285227645883
 40
0.2091285227645883
 40
0.2091285227645883
 10
-9.357004590693017
 20
-8.73106933785241
 30
0.0
 10
-9.354672733106518
 20
-8.748466848739067
 30
0.0
 10
-9.35001864354427
 20
-8.783190055806043
 30
0.0
 10
-9.337087021059542
 20
-8.833926733953012
 30
0.0
 10
-9.323948751605495
 20
-8.884471127890883
 30
0.0
 10
-9.311331856476005
 20
-8.916840949865857
 30
0.0
 10
-9.30500658069298
 20
-8.933069035217901
 30
0.0
 11
-9.357004590693017
 21
-8.73106933785241
 31
0.0
 11
-9.349005203586562
 21
-8.783067481365289
 31
0.0
 11
-9.33700801311185
 21
-8.834068084085911
 31
0.0
 11
-9.323008105936743
 21
-8.884069237395831
 31
0.0
 11
-9.30500658069298
 21
-8.933069035217901
 31
0.0
  0
ELLIPSE
  5
7175
330
1F
100
AcDbEntity
  8
AM_0
100
AcDbEllipse
 10
-7.054001450561012
 20
-0.0000699017917819
 30
0.0
 11
0.3936746102244653
 21
-8.900298218047399
 31
0.0
210
0.0
220
0.0
230
1.0
 40
0.0785724128227
 41
0.5108209821132408
 42
0.7426665364974935
  0
ELLIPSE
  5
7176
330
1F
100
AcDbEntity
  8
AM_0
100
AcDbEllipse
 10
16.95300138947549
 20
0.014914224613239
 30
0.0
 11
113.2979765831569
 21
-0.0672148196662523
 31
0.0
210
0.0
220
0.0
230
0.9999999999999998
 40
0.0786863068128
 41
4.477439097461405
 42
4.479718561979276
  0
ELLIPSE
  5
7177
330
1F
100
AcDbEntity
  8
AM_0
100
AcDbEllipse
 10
16.90799939629613
 20
-0.0000851364232612
 30
0.0
 11
113.1939803246091
 21
-0.0671531231562026
 31
0.0
210
0.0
220
0.0
230
0.9999999999999998
 40
0.0786260720474
 41
4.47988978432591
 42
4.552099787997089
  0
ELLIPSE
  5
7178
330
1F
100
AcDbEntity
  8
AM_0
100
AcDbEllipse
 10
-10.76800215246427
 20
-0.0000675404934683
 30
0.0
 11
1.183461853125041
 21
-8.89965709594866
 31
0.0
210
0.0
220
0.0
230
1.0
 40
0.0777456643561
 41
0.1534633132955572
 42
0.2277900967987146
  0
ELLIPSE
  5
7179
330
1F
100
AcDbEntity
  8
AM_0
100
AcDbEllipse
 10
-11.06200087072621
 20
-0.0000673535740977
 30
0.0
 11
1.282285951545203
 21
-8.893028818628337
 31
0.0
210
0.0
220
0.0
230
1.0
 40
0.2741237420335
 41
6.257671586929517
 42
6.403370626934672
  0
ELLIPSE
  5
717A
330
1F
100
AcDbEntity
  8
AM_0
100
AcDbEllipse
 10
-8.508996605894736
 20
-0.0000689767306788
 30
0.0
 11
113.1939803246051
 21
-0.0671531231562026
 31
0.0
210
0.0
220
0.0
230
1.0
 40
0.0786260720474
 41
4.648737112582788
 42
4.700650787231255
  0
SPLINE
  5
717B
330
1F
100
AcDbEntity
  8
AM_0
100
AcDbSpline
210
0.0
220
0.0
230
1.0
 70
     8
 71
     3
 72
    11
 73
     7
 74
     5
 42
0.0000000001
 43
0.0000000001
 44
0.0000000001
 40
0.0
 40
0.0
 40
0.0
 40
0.0
 40
0.6270500138340726
 40
1.2097718028531
 40
1.748343625058321
 40
2.247310707736934
 40
2.247310707736934
 40
2.247310707736934
 40
2.247310707736934
 10
-22.87999398392313
 20
7.579940083811385
 30
0.0
 10
-23.08489224751593
 20
7.621532491054911
 30
0.0
 10
-23.48020384352799
 20
7.701777001677501
 30
0.0
 10
-24.04237926571156
 20
7.856600570233785
 30
0.0
 10
-24.55492324904909
 20
8.02913867784763
 30
0.0
 10
-24.87032050097909
 20
8.171484959814208
 30
0.0
 10
-25.02199948471606
 20
8.239941293074277
 30
0.0
 11
-22.87999398392313
 21
7.579940083811385
 31
0.0
 11
-23.49299286240168
 21
7.711940443028152
 31
0.0
 11
-24.05499685384682
 21
7.865941082628332
 31
0.0
 11
-24.56399942749614
 21
8.041941047661921
 31
0.0
 11
-25.02199948471606
 21
8.239941293074277
 31
0.0
  0
ELLIPSE
  5
717C
330
1F
100
AcDbEntity
  8
AM_0
100
AcDbEllipse
 10
-21.23300135137613
 20
-0.0000608870254712
 30
0.0
 11
7.602291482554579
 21
-8.457395717033977
 31
0.0
210
0.0
220
0.0
230
1.0
 40
0.3654587909872
 41
2.436397657827151
 42
2.823921615095534
  0
SPLINE
  5
717D
330
1F
100
AcDbEntity
  8
AM_0
100
AcDbSpline
210
0.0
220
0.0
230
1.0
 70
     8
 71
     3
 72
    11
 73
     7
 74
     5
 42
0.0000000001
 43
0.0000000001
 44
0.0000000001
 40
0.0
 40
0.0
 40
0.0
 40
0.0
 40
0.1370594104163477
 40
0.3662030560182829
 40
0.6472884608770974
 40
0.9492920677975835
 40
0.9492920677975835
 40
0.9492920677975835
 40
0.9492920677975835
 10
-16.66101032100203
 20
-8.900063412351189
 30
0.0
 10
-16.61534110396482
 20
-8.898793932648553
 30
0.0
 10
-16.49331951643439
 20
-8.895402065244148
 30
0.0
 10
-16.27772159656509
 20
-8.88699428966697
 30
0.0
 10
-16.00705079721733
 20
-8.879550887878767
 30
0.0
 10
-15.81267808077963
 20
-8.879888629125936
 30
0.0
 10
-15.7120051813333
 20
-8.880063557949476
 30
0.0
 11
-16.66101032100203
 21
-8.900063412351189
 31
0.0
 11
-16.52400928086111
 21
-8.896063789371121
 31
0.0
 11
-16.29500536952405
 21
-8.888062607453889
 31
0.0
 11
-16.01400713509367
 21
-8.881062816624782
 31
0.0
 11
-15.7120051813333
 21
-8.880063557949476
 31
0.0
  0
ELLIPSE
  5
717E
330
1F
100
AcDbEntity
  8
AM_0
100
AcDbEllipse
 10
-5.476000315688782
 20
3.176929140718664
 30
0.0
 11
1.4993855554871
 21
-0.0428838208617725
 31
0.0
210
0.0
220
0.0
230
0.9999999999999998
 40
0.1900001637142
 41
2.111494472624075
 42
3.063077204474581
  0
ELLIPSE
  5
717F
330
1F
100
AcDbEntity
  8
AM_0
100
AcDbEllipse
 10
-5.476000315688782
 20
3.176929140718664
 30
0.0
 11
1.4993855554871
 21
-0.0428838208617725
 31
0.0
210
0.0
220
0.0
230
0.9999999999999998
 40
0.1900001637142
 41
0.2132653073131677
 42
1.113573591789465
  0
SPLINE
  5
7180
330
1F
100
AcDbEntity
  8
AM_0
100
AcDbSpline
210
0.0
220
0.0
230
1.0
 70
     8
 71
     3
 72
    11
 73
     7
 74
     5
 42
0.0000000001
 43
0.0000000001
 44
0.0000000001
 40
0.0
 40
0.0
 40
0.0
 40
0.0
 40
0.385862327930302
 40
0.7644445135705251
 40
1.140149170343037
 40
1.520281238312893
 40
1.520281238312893
 40
1.520281238312893
 40
1.520281238312893
 10
-12.16899793849497
 20
2.163932907731168
 30
0.0
 10
-12.29522025485459
 20
2.138305108604865
 30
0.0
 10
-12.54528342569802
 20
2.087533035202226
 30
0.0
 10
-12.92605616634302
 20
2.069668621528011
 30
0.0
 10
-13.30480295187904
 20
2.089569069851153
 30
0.0
 10
-13.55178464806511
 20
2.14104526396989
 30
0.0
 10
-13.67599885974413
 20
2.166934125255695
 30
0.0
 11
-12.16899793849497
 21
2.163932907731168
 31
0.0
 11
-12.54899904920697
 21
2.09693371390439
 31
0.0
 11
-12.92699836828429
 21
2.07593404578291
 31
0.0
 11
-13.30199835366135
 21
2.098934047690535
 31
0.0
 11
-13.67599885974413
 21
2.166934125255695
 31
0.0
  0
SPLINE
  5
7181
330
1F
100
AcDbEntity
  8
AM_0
100
AcDbSpline
210
0.0
220
0.0
230
1.0
 70
     8
 71
     3
 72
    11
 73
     7
 74
     5
 42
0.0000000001
 43
0.0000000001
 44
0.0000000001
 40
0.0
 40
0.0
 40
0.0
 40
0.0
 40
0.2330789662814136
 40
0.459495483767202
 40
0.6810393602616344
 40
0.8988326215509621
 40
0.8988326215509621
 40
0.8988326215509621
 40
0.8988326215509621
 10
-13.67599885974413
 20
2.166934125255695
 30
0.0
 10
-13.75166165497217
 20
2.184755322844312
 30
0.0
 10
-13.90082446125693
 20
2.219888307763277
 30
0.0
 10
-14.11622189179669
 20
2.292333138249197
 30
0.0
 10
-14.32232775616541
 20
2.375271028395303
 30
0.0
 10
-14.452478461364
 20
2.442571641077145
 30
0.0
 10
-14.51699826655802
 20
2.47593467520781
 30
0.0
 11
-13.67599885974413
 21
2.166934125255695
 31
0.0
 11
-13.90200056300636
 21
2.22393442916173
 31
0.0
 11
-14.11699685575667
 21
2.294934665034709
 31
0.0
 11
-14.32199863340509
 21
2.378934429160364
 31
0.0
 11
-14.51699826655802
 21
2.47593467520781
 31
0.0
  0
SPLINE
  5
7182
330
1F
100
AcDbEntity
  8
AM_0
100
AcDbSpline
210
0.0
220
0.0
230
1.0
 70
     8
 71
     3
 72
    11
 73
     7
 74
     5
 42
0.0000000001
 43
0.0000000001
 44
0.0000000001
 40
0.0
 40
0.0
 40
0.0
 40
0.0
 40
0.2451792895811142
 40
0.4876023830303618
 40
0.7295640293646716
 40
0.9755818468909422
 40
0.9755818468909422
 40
0.9755818468909422
 40
0.9755818468909422
 10
-11.28799716347569
 20
2.566932225535997
 30
0.0
 10
-11.35499528611052
 20
2.519967086310611
 30
0.0
 10
-11.48823836839172
 20
2.426564768991005
 30
0.0
 10
-11.70540169909399
 20
2.315786524643741
 30
0.0
 10
-11.9316088100108
 20
2.224246719870436
 30
0.0
 10
-12.08943094720613
 20
2.184148612619279
 30
0.0
 10
-12.16899793849497
 20
2.163932907731168
 30
0.0
 11
-11.28799716347569
 21
2.566932225535997
 31
0.0
 11
-11.49199963031392
 21
2.430932675671248
 31
0.0
 11
-11.70699985410825
 21
2.318933300646703
 31
0.0
 11
-11.93199838481534
 21
2.22993274179192
 31
0.0
 11
-12.16899793849497
 21
2.163932907731168
 31
0.0
  0
SPLINE
  5
7183
330
1F
100
AcDbEntity
  8
AM_0
100
AcDbSpline
210
0.0
220
0.0
230
1.0
 70
     8
 71
     3
 72
    11
 73
     7
 74
     5
 42
0.0000000001
 43
0.0000000001
 44
0.0000000001
 40
0.0
 40
0.0
 40
0.0
 40
0.0
 40
0.061400193398493
 40
0.2344005290924768
 40
0.4935238584676235
 40
0.8007584972645629
 40
0.8007584972645629
 40
0.8007584972645629
 40
0.8007584972645629
 10
-1.265999068284142
 20
1.328925937643296
 30
0.0
 10
-1.268646161000886
 20
1.349239989554704
 30
0.0
 10
-1.278751665544409
 20
1.426790633168199
 30
0.0
 10
-1.271143205073056
 20
1.591842490143119
 30
0.0
 10
-1.265380802824357
 20
1.837895670559125
 30
0.0
 10
-1.257352966316409
 20
2.026573336522005
 30
0.0
 10
-1.252998071376375
 20
2.12892612011265
 30
0.0
 11
-1.265999068284142
 21
1.328925937643296
 31
0.0
 11
-1.272998998983856
 21
1.389925812393753
 31
0.0
 11
-1.272998888993208
 21
1.562926148087702
 31
0.0
 11
-1.264999304159537
 21
1.821925967525766
 31
0.0
 11
-1.252998071376375
 21
2.12892612011265
 31
0.0
  0
ELLIPSE
  5
7184
330
1F
100
AcDbEntity
  8
AM_0
100
AcDbEllipse
 10
-13.79499606802136
 20
8.741934010178614
 30
0.0
 11
0.2270899237908964
 21
-7.049343145984524
 31
0.0
210
0.0
220
0.0
230
1.0
 40
0.7067917283052
 41
0.4818778878939908
 42
0.7112849767872202
  0
ELLIPSE
  5
7185
330
1F
100
AcDbEntity
  8
AM_0
100
AcDbEllipse
 10
-12.35699565857752
 20
6.817932355870865
 30
0.0
 11
3.631608854720337
 21
-3.728733863353726
 31
0.0
210
0.0
220
0.0
230
1.0
 40
0.9243033804859999
 41
4.983166807744839
 42
5.025382103846803
  0
SPLINE
  5
7186
330
1F
100
AcDbEntity
  8
AM_0
100
AcDbSpline
210
0.0
220
0.0
230
1.0
 70
     8
 71
     3
 72
    11
 73
     7
 74
     5
 42
0.0000000001
 43
0.0000000001
 44
0.0000000001
 40
0.0
 40
0.0
 40
0.0
 40
0.0
 40
0.6559638935482632
 40
1.302335059432432
 40
1.949505833658069
 40
2.609211746446348
 40
2.609211746446348
 40
2.609211746446348
 40
2.609211746446348
 10
-12.88200035192665
 20
1.835933292381879
 30
0.0
 10
-13.10024373120578
 20
1.853971439018929
 30
0.0
 10
-13.53353892796848
 20
1.889783944865159
 30
0.0
 10
-14.1660451019926
 20
2.048931618982437
 30
0.0
 10
-14.77688854552004
 20
2.281366548093875
 30
0.0
 10
-15.15309483690403
 20
2.502372701944479
 30
0.0
 10
-15.34300220714049
 20
2.613935688649044
 30
0.0
 11
-12.88200035192665
 21
1.835933292381879
 31
0.0
 11
-13.53400073339584
 21
1.90793421045264
 31
0.0
 11
-14.16200280286899
 21
2.06093448765468
 31
0.0
 11
-14.76499947963209
 21
2.295934527706721
 31
0.0
 11
-15.34300220714049
 21
2.613935688649044
 31
0.0
  0
ELLIPSE
  5
7187
330
1F
100
AcDbEntity
  8
AM_0
100
AcDbEllipse
 10
-20.8859988972534
 20
6.667939113609619
 30
0.0
 11
5.389325909348534
 21
-3.256900121160158
 31
0.0
210
0.0
220
0.0
230
1.0
 40
0.04255972484
 41
4.357448102684256
 42
4.623299956464802
  0
ELLIPSE
  5
7188
330
1F
100
AcDbEntity
  8
AM_0
100
AcDbEllipse
 10
-10.60500109197829
 20
-0.0000676441267623
 30
0.0
 11
14.02165059022919
 21
-8.900507597386107
 31
0.0
210
0.0
220
0.0
230
1.0
 40
0.0210140033145
 41
3.675284896427838
 42
4.382367381611935
  0
SPLINE
  5
7189
330
1F
100
AcDbEntity
  8
AM_0
100
AcDbSpline
210
0.0
220
0.0
230
1.0
 70
     8
 71
     3
 72
    11
 73
     7
 74
     5
 42
0.0000000001
 43
0.0000000001
 44
0.0000000001
 40
0.0
 40
0.0
 40
0.0
 40
0.0
 40
0.4852399000406943
 40
1.02790368074058
 40
1.640128036291996
 40
2.301113457688301
 40
2.301113457688301
 40
2.301113457688301
 40
2.301113457688301
 10
-3.276006121659664
 20
-6.405072990424073
 30
0.0
 10
-3.28548377946924
 20
-6.241692491196573
 30
0.0
 10
-3.30556069265475
 20
-5.895596845510599
 30
0.0
 10
-3.592249761288252
 20
-5.408811985934097
 30
0.0
 10
-4.094192868069357
 20
-5.023794649009913
 30
0.0
 10
-4.525231539892862
 20
-4.987114327070692
 30
0.0
 10
-4.749004780793024
 20
-4.968071779257344
 30
0.0
 11
-3.276006121659664
 21
-6.405072990424073
 31
0.0
 11
-3.340004991872789
 21
-5.92407204946559
 31
0.0
 11
-3.606003531479777
 21
-5.451072307594155
 31
0.0
 11
-4.099003331207521
 21
-5.088071124402213
 31
0.0
 11
-4.749004780793024
 21
-4.968071779257344
 31
0.0
  0
SPLINE
  5
718A
330
1F
100
AcDbEntity
  8
AM_0
100
AcDbSpline
210
0.0
220
0.0
230
1.0
 70
     8
 71
     3
 72
    11
 73
     7
 74
     5
 42
0.0000000001
 43
0.0000000001
 44
0.0000000001
 40
0.0
 40
0.0
 40
0.0
 40
0.0
 40
0.6897202998353115
 40
1.325359118766767
 40
1.893078370540999
 40
2.398078891004019
 40
2.398078891004019
 40
2.398078891004019
 40
2.398078891004019
 10
-4.749004780793024
 20
-4.968071779257344
 30
0.0
 10
-4.979149030105763
 20
-5.009426335767973
 30
0.0
 10
-5.42139174723502
 20
-5.08889280730289
 30
0.0
 10
-5.918935356871493
 20
-5.513231204423127
 30
0.0
 10
-6.221490314428698
 20
-6.011234326755219
 30
0.0
 10
-6.270113740298677
 20
-6.368759956458619
 30
0.0
 10
-6.293004019760781
 20
-6.53707104175029
 30
0.0
 11
-4.749004780793024
 21
-4.968071779257344
 31
0.0
 11
-5.414005335830414
 21
-5.151070013688374
 31
0.0
 11
-5.908005071345661
 21
-5.55107122549084
 31
0.0
 11
-6.193005230926616
 21
-6.042070266094714
 31
0.0
 11
-6.293004019760781
 21
-6.53707104175029
 31
0.0
  0
ELLIPSE
  5
718B
330
1F
100
AcDbEntity
  8
AM_0
100
AcDbEllipse
 10
-4.042000889801321
 20
-0.0000718167703792
 30
0.0
 11
0.3936746102246651
 21
-8.900298218047399
 31
0.0
210
0.0
220
0.0
230
1.0
 40
0.0785724128227
 41
0.4814900459702595
 42
0.7620439921980593
  0
ELLIPSE
  5
718C
330
1F
100
AcDbEntity
  8
AM_0
100
AcDbEllipse
 10
48.80200040336972
 20
-0.0001054140851241
 30
0.0
 11
113.193987953999
 21
-0.0671531276820519
 31
0.0
210
0.0
220
0.0
230
1.0
 40
0.0786260667479
 41
4.202232213694988
 42
4.234325417283504
  0
SPLINE
  5
718D
330
1F
100
AcDbEntity
  8
AM_0
100
AcDbSpline
210
0.0
220
0.0
230
1.0
 70
     8
 71
     3
 72
    11
 73
     7
 74
     5
 42
0.0000000001
 43
0.0000000001
 44
0.0000000001
 40
0.0
 40
0.0
 40
0.0
 40
0.0
 40
1.961992016884331
 40
3.925103001154315
 40
5.887351790925185
 40
7.849857466595007
 40
7.849857466595007
 40
7.849857466595007
 40
7.849857466595007
 10
-17.8939941079022
 20
7.288936547586767
 30
0.0
 10
-17.24531971610359
 20
7.372207653206075
 30
0.0
 10
-15.94760097917216
 20
7.538797355795599
 30
0.0
 10
-14.00126625609631
 20
7.789782314877925
 30
0.0
 10
-12.05485065538371
 20
8.041481280694881
 30
0.0
 10
-10.75764284124693
 20
8.211111104320316
 30
0.0
 10
-10.10899648128137
 20
8.295931567500655
 30
0.0
 11
-17.8939941079022
 21
7.288936547586767
 31
0.0
 11
-15.94799480344886
 21
7.538935310353623
 31
0.0
 11
-14.00099604767548
 21
7.789934476842997
 31
0.0
 11
-12.05499578827667
 21
8.041933094650749
 31
0.0
 11
-10.10899648128137
 21
8.295931567500655
 31
0.0
  0
SPLINE
  5
718E
330
1F
100
AcDbEntity
  8
AM_0
100
AcDbSpline
210
0.0
220
0.0
230
1.0
 70
     8
 71
     3
 72
    11
 73
     7
 74
     5
 42
0.0000000001
 43
0.0000000001
 44
0.0000000001
 40
0.0
 40
0.0
 40
0.0
 40
0.0
 40
0.2888530438840553
 40
0.5620334156362326
 40
0.7988494178665128
 40
0.9906034677211057
 40
0.9906034677211057
 40
0.9906034677211057
 40
0.9906034677211057
 10
-17.8939941079022
 20
7.288936547586767
 30
0.0
 10
-17.99003360147646
 20
7.277257963393983
 30
0.0
 10
-18.1769016499613
 20
7.254534455012678
 30
0.0
 10
-18.4257465514108
 20
7.157856487438214
 30
0.0
 10
-18.62957837581613
 20
7.027283142271979
 30
0.0
 10
-18.69619086299294
 20
6.898540242841733
 30
0.0
 10
-18.72599512515476
 20
6.840937122335112
 30
0.0
 11
-17.8939941079022
 21
7.288936547586767
 31
0.0
 11
-18.17899779989292
 21
7.24193679745185
 31
0.0
 11
-18.4339951156173
 21
7.143937386820868
 31
0.0
 11
-18.6249970967171
 21
7.003937164934315
 31
0.0
 11
-18.72599512515476
 21
6.840937122335112
 31
0.0
  0
SPLINE
  5
718F
330
1F
100
AcDbEntity
  8
AM_0
100
AcDbSpline
210
0.0
220
0.0
230
1.0
 70
     8
 71
     3
 72
    11
 73
     7
 74
     5
 42
0.0000000001
 43
0.0000000001
 44
0.0000000001
 40
0.0
 40
0.0
 40
0.0
 40
0.0
 40
0.9767839640756548
 40
2.288086677349607
 40
3.569649263919651
 40
4.640592671604797
 40
4.640592671604797
 40
4.640592671604797
 40
4.640592671604797
 10
-15.899000199338
 20
5.387935256315653
 30
0.0
 10
-15.72344849377381
 20
5.097877121622607
 30
0.0
 10
-15.31222397181154
 20
4.418424777955108
 30
0.0
 10
-14.03419622015088
 20
4.215957224498589
 30
0.0
 10
-12.70839137118799
 20
4.591907487280632
 30
0.0
 10
-12.51021289937643
 20
5.404165351137635
 30
0.0
 10
-12.41999509400208
 20
5.773933677663612
 30
0.0
 11
-15.899000199338
 21
5.387935256315653
 31
0.0
 11
-15.29799513469168
 21
4.617935370117728
 31
0.0
 11
-14.02100252630346
 21
4.319934222533578
 31
0.0
 11
-12.82599872241499
 21
4.782933760317591
 31
0.0
 11
-12.41999509400208
 21
5.773933677663612
 31
0.0
  0
SPLINE
  5
7190
330
1F
100
AcDbEntity
  8
AM_0
100
AcDbSpline
210
0.0
220
0.0
230
1.0
 70
     8
 71
     3
 72
    11
 73
     7
 74
     5
 42
0.0000000001
 43
0.0000000001
 44
0.0000000001
 40
0.0
 40
0.0
 40
0.0
 40
0.0
 40
1.043569720883189
 40
2.310894706196997
 40
3.611853521975784
 40
4.559063019275829
 40
4.559063019275829
 40
4.559063019275829
 40
4.559063019275829
 10
-12.41999509400208
 20
5.773933677663612
 30
0.0
 10
-12.59037505887396
 20
6.106392688615261
 30
0.0
 10
-12.96766672514733
 20
6.842594355893851
 30
0.0
 10
-14.32271375829195
 20
6.833069272455583
 30
0.0
 10
-15.52863238346897
 20
6.440276801415028
 30
0.0
 10
-15.78921164427389
 20
5.699882063570768
 30
0.0
 10
-15.899000199338
 20
5.387935256315653
 30
0.0
 11
-12.41999509400208
 21
5.773933677663612
 31
0.0
 11
-13.03099557083877
 21
6.619933783839468
 31
0.0
 11
-14.28999816419731
 21
6.764934088380902
 31
0.0
 11
-15.47899386121838
 21
6.236934966394959
 31
0.0
 11
-15.899000199338
 21
5.387935256315653
 31
0.0
  0
SPLINE
  5
7191
330
1F
100
AcDbEntity
  8
AM_0
100
AcDbSpline
210
0.0
220
0.0
230
1.0
 70
     8
 71
     3
 72
    11
 73
     7
 74
     5
 42
0.0000000001
 43
0.0000000001
 44
0.0000000001
 40
0.0
 40
0.0
 40
0.0
 40
0.0
 40
1.287870676815705
 40
2.575944044070012
 40
3.865386870511316
 40
5.155319332089216
 40
5.155319332089216
 40
5.155319332089216
 40
5.155319332089216
 10
-15.93299806437876
 20
3.3699356288825
 30
0.0
 10
-15.50472601808304
 20
3.340322527252829
 30
0.0
 10
-14.64811452225736
 20
3.281091663360504
 30
0.0
 10
-13.36162855766445
 20
3.209248983441817
 30
0.0
 10
-12.07394374208784
 20
3.147336563450116
 30
0.0
 10
-11.21470126445526
 20
3.116402346844211
 30
0.0
 10
-10.78499847191744
 20
3.100932302466107
 30
0.0
 11
-15.93299806437876
 21
3.3699356288825
 31
0.0
 11
-14.64800208634264
 21
3.283934369398975
 31
0.0
 11
-13.36199901996202
 21
3.210933597557152
 31
0.0
 11
-12.07399990560697
 21
3.149932908368254
 31
0.0
 11
-10.78499847191744
 21
3.100932302466107
 31
0.0
  0
LINE
  5
7193
330
1F
100
AcDbEntity
  8
AM_7
100
AcDbLine
 10
1.366606354713113
 20
0.0000000000001563
 30
0.0
 11
-121.8895202875057
 21
-0.0000000000000284
 31
0.0
  0
LINE
  5
7194
330
1F
100
AcDbEntity
  8
AM_0
100
AcDbLine
 10
-36.90499397120482
 20
9.999948600124469
 30
0.0
 11
-116.9999951918865
 21
9.999999523160244
 31
0.0
  0
LINE
  5
7195
330
1F
100
AcDbEntity
  8
AM_0
100
AcDbLine
 10
-117.0000079075452
 20
-9.999999999998021
 30
0.0
 11
-36.90500668686345
 21
-10.00005092303376
 31
0.0
  0
LINE
  5
7196
330
1F
100
AcDbEntity
  8
AM_0
100
AcDbLine
 10
-35.00000720820533
 20
-8.900051752729734
 30
0.0
 11
-16.66101032100203
 21
-8.900063412351189
 31
0.0
  0
LINE
  5
7197
330
1F
100
AcDbEntity
  8
AM_0
100
AcDbLine
 10
-27.49299210709092
 20
8.899942711501495
 30
0.0
 11
-34.99999589126939
 21
8.89994748432646
 31
0.0
  0
ARC
  5
7198
330
1F
100
AcDbEntity
  8
AM_0
100
AcDbCircle
 10
-4.931004470531158
 20
-6.478071892427357
 30
0.0
 40
1.2492113113403
100
AcDbArc
 50
272.5233862958484
 51
92.47557998061344
  0
ARC
  5
7199
330
1F
100
AcDbEntity
  8
AM_0
100
AcDbCircle
 10
-4.931004470531158
 20
-6.478071892427357
 30
0.0
 40
1.250166773796099
100
AcDbArc
 50
92.47558362308295
 51
272.5233862958484
  0
ARC
  5
719A
330
1F
100
AcDbEntity
  8
AM_0
100
AcDbCircle
 10
-4.931004470531158
 20
-6.478071892427357
 30
0.0
 40
1.495457172393799
100
AcDbArc
 50
2.529464480962531
 51
89.57980198104925
  0
LINE
  5
719B
330
1F
100
AcDbEntity
  8
AM_0
100
AcDbLine
 10
-0.0810087353640963
 20
-8.16107554054729
 30
0.0
 11
-0.7350065463627132
 21
-5.774074087149134
 31
0.0
  0
LINE
  5
719C
330
1F
100
AcDbEntity
  8
AM_0
100
AcDbLine
 10
-0.6100059862390959
 20
-8.643075555172945
 30
0.0
 11
-0.7350041621781207
 21
-5.77407599449866
 31
0.0
  0
LINE
  5
719D
330
1F
100
AcDbEntity
  8
AM_0
100
AcDbLine
 10
-0.9480055666207663
 20
-5.640073173528969
 30
0.0
 11
-0.8160075121172999
 21
-8.652074295049704
 31
0.0
  0
LINE
  5
719E
330
1F
100
AcDbEntity
  8
AM_0
100
AcDbLine
 10
-0.9690020062365849
 20
1.315926214210621
 30
0.0
 11
-0.9690082985800001
 21
-8.581073144918377
 31
0.0
  0
LINE
  5
719F
330
1F
100
AcDbEntity
  8
AM_0
100
AcDbLine
 10
-1.160999529226851
 20
1.32392575644536
 30
0.0
 11
-1.161005953813234
 21
-8.781073785788581
 31
0.0
  0
ARC
  5
71A0
330
1F
100
AcDbEntity
  8
AM_0
100
AcDbCircle
 10
-12.01899727791695
 20
6.802932751329259
 30
0.0
 40
4.9962921142578
100
AcDbArc
 50
240.0018981855096
 51
267.5009501236511
  0
LINE
  5
71A1
330
1F
100
AcDbEntity
  8
AM_0
100
AcDbLine
 10
-14.23300176082097
 20
2.355934609088655
 30
0.0
 11
-12.81600001432594
 21
2.390933555595102
 31
0.0
  0
LINE
  5
71A2
330
1F
100
AcDbEntity
  8
AM_0
100
AcDbLine
 10
0.0000042644905987
 20
9.519926071156811
 30
0.0
 11
-0.2139954824678826
 21
9.896926062255774
 31
0.0
  0
LINE
  5
71A3
330
1F
100
AcDbEntity
  8
AM_0
100
AcDbLine
 10
-0.213995244048972
 20
9.896926539092723
 30
0.0
 11
-0.3649952459563211
 21
9.92992662746656
 31
0.0
  0
LINE
  5
71A4
330
1F
100
AcDbEntity
  8
AM_0
100
AcDbLine
 10
-0.0809952586730541
 20
8.160924962986655
 30
0.0
 11
0.0000067389564847
 21
9.286924362170795
 31
0.0
  0
LINE
  5
71A5
330
1F
100
AcDbEntity
  8
AM_0
100
AcDbLine
 10
-0.3659972257845391
 20
9.701925987234451
 30
0.0
 11
-0.2139949147139546
 21
9.664925711303167
 31
0.0
  0
LINE
  5
71A6
330
1F
100
AcDbEntity
  8
AM_0
100
AcDbLine
 10
-0.2139953915511412
 20
9.664925711303469
 30
0.0
 11
-0.3649963445898309
 21
9.701925509760906
 31
0.0
  0
LINE
  5
71A9
330
1F
100
AcDbEntity
  8
AM_0
100
AcDbLine
 10
-1.160997621878147
 20
1.323925756444148
 30
0.0
 11
-12.88200035192665
 21
1.835933292381879
 31
0.0
  0
LINE
  5
71AA
330
1F
100
AcDbEntity
  8
AM_0
100
AcDbLine
 10
-1.252999025050777
 20
2.128926120113242
 30
0.0
 11
-11.28799620980169
 21
2.566932225535391
 31
0.0
  0
LINE
  5
71AB
330
1F
100
AcDbEntity
  8
AM_0
100
AcDbLine
 10
-7.002996933323065
 20
3.168929737717049
 30
0.0
 11
-4.015999412241665
 21
3.03792827350995
 31
0.0
  0
LINE
  5
71AC
330
1F
100
AcDbEntity
  8
AM_0
100
AcDbLine
 10
-0.9690020024221636
 20
1.321925779335615
 30
0.0
 11
-0.9690005541086954
 21
3.59992565726416
 31
0.0
  0
LINE
  5
71AD
330
1F
100
AcDbEntity
  8
AM_0
100
AcDbLine
 10
-4.015998458567263
 20
3.037928273509344
 30
0.0
 11
-3.999999393168043
 21
3.391928354890473
 31
0.0
  0
LINE
  5
71AE
330
1F
100
AcDbEntity
  8
AM_0
100
AcDbLine
 10
-1.252998071376375
 20
2.128926120112635
 30
0.0
 11
-1.1980007639169
 21
3.413925932558541
 31
0.0
  0
LINE
  5
71AF
330
1F
100
AcDbEntity
  8
AM_0
100
AcDbLine
 10
-0.9690000988885868
 20
1.315925260535404
 30
0.0
 11
-1.16099905238965
 21
1.323925756445057
 31
0.0
  0
LINE
  5
71B0
330
1F
100
AcDbEntity
  8
AM_0
100
AcDbLine
 10
-0.7220025485608145
 20
-4.004075545001502
 30
0.0
 11
-0.9130016451137597
 21
-4.482076064436642
 31
0.0
  0
LINE
  5
71B1
330
1F
100
AcDbEntity
  8
AM_0
100
AcDbLine
 10
-0.7560046949631831
 20
-5.631074424750847
 30
0.0
 11
-0.9480050897847924
 21
-5.640075080878262
 31
0.0
  0
LINE
  5
71B2
330
1F
100
AcDbEntity
  8
AM_0
100
AcDbLine
 10
-0.756004218124869
 20
-5.63107251740215
 30
0.0
 11
-0.9080039358376755
 21
-4.515073198961097
 31
0.0
  0
LINE
  5
71B3
330
1F
100
AcDbEntity
  8
AM_0
100
AcDbLine
 10
-0.7350072616184078
 20
-5.774074087148679
 30
0.0
 11
-0.7560073175663689
 21
-5.63107251740018
 31
0.0
  0
LINE
  5
71B4
330
1F
100
AcDbEntity
  8
AM_0
100
AcDbLine
 10
-0.9660043516413384
 20
-4.281075817115368
 30
0.0
 11
-0.9690069907748689
 21
-4.274073938375341
 31
0.0
  0
LINE
  5
71B5
330
1F
100
AcDbEntity
  8
AM_0
100
AcDbLine
 10
-0.9080053663490648
 20
-4.515073198960187
 30
0.0
 11
-0.9130025987868352
 21
-4.482074157087034
 31
0.0
  0
LINE
  5
71B6
330
1F
100
AcDbEntity
  8
AM_0
100
AcDbLine
 10
-0.9660029211286229
 20
-4.281073909767274
 30
0.0
 11
-0.9690065190235488
 21
-4.282073358541659
 31
0.0
  0
LINE
  5
71B7
330
1F
100
AcDbEntity
  8
AM_0
100
AcDbLine
 10
-0.9080058431874785
 20
-4.515075106308874
 30
0.0
 11
-0.969005238558072
 21
-4.518075326926509
 31
0.0
  0
LINE
  5
71B8
330
1F
100
AcDbEntity
  8
AM_0
100
AcDbLine
 10
-0.9690077588007815
 20
-5.482074121480111
 30
0.0
 11
-0.9480079508065713
 21
-5.640073173527453
 31
0.0
  0
LINE
  5
71B9
330
1F
100
AcDbEntity
  8
AM_0
100
AcDbLine
 10
-6.969999755563957
 20
3.241929670962023
 30
0.0
 11
-7.002996933323065
 21
3.168929737717049
 31
0.0
  0
LINE
  5
71BA
330
1F
100
AcDbEntity
  8
AM_0
100
AcDbLine
 10
-6.969999755563957
 20
3.241929670962023
 30
0.0
 11
-6.963999101343005
 21
3.454929964692954
 31
0.0
  0
LINE
  5
71BB
330
1F
100
AcDbEntity
  8
AM_0
100
AcDbLine
 10
-6.9909995285896
 20
3.454929028185362
 30
0.0
 11
-7.002996933323065
 21
3.168929737717049
 31
0.0
  0
LINE
  5
71BC
330
1F
100
AcDbEntity
  8
AM_0
100
AcDbLine
 10
-10.67299675212437
 20
5.073932757685733
 30
0.0
 11
-10.78299807773178
 21
3.948931873948482
 31
0.0
  0
LINE
  5
71BD
330
1F
100
AcDbEntity
  8
AM_0
100
AcDbLine
 10
-10.42599703631971
 20
3.534932089478221
 30
0.0
 11
-10.57800030170033
 21
3.570932437889303
 31
0.0
  0
LINE
  5
71BE
330
1F
100
AcDbEntity
  8
AM_0
100
AcDbLine
 10
-10.57799648700354
 20
3.570930530537876
 30
0.0
 11
-10.42699744067832
 21
3.534931136440258
 31
0.0
  0
LINE
  5
71BF
330
1F
100
AcDbEntity
  8
AM_0
100
AcDbLine
 10
-12.81600192167494
 20
2.390933555596314
 30
0.0
 11
-12.7929990682813
 21
2.750933197649579
 31
0.0
  0
LINE
  5
71C0
330
1F
100
AcDbEntity
  8
AM_0
100
AcDbLine
 10
-12.7929990682813
 20
2.750933197649579
 30
0.0
 11
-11.02099777382743
 21
2.794931742977395
 31
0.0
  0
LINE
  5
71C1
330
1F
100
AcDbEntity
  8
AM_0
100
AcDbLine
 10
-14.70699873068129
 20
2.585932545335897
 30
0.0
 11
-21.50199617292482
 21
6.728937468202211
 31
0.0
  0
LINE
  5
71C2
330
1F
100
AcDbEntity
  8
AM_0
100
AcDbLine
 10
-18.72599321780516
 20
6.8409380760089
 30
0.0
 11
-19.18499382052739
 21
5.316938199986339
 31
0.0
  0
LINE
  5
71C6
330
1F
100
AcDbEntity
  8
AM_0
100
AcDbLine
 10
-1.029006176337247
 20
-9.083073915488871
 30
0.0
 11
-8.522007845265127
 21
-9.410068815872268
 31
0.0
  0
LINE
  5
71C7
330
1F
100
AcDbEntity
  8
AM_0
100
AcDbLine
 10
-8.514008292220738
 20
-9.201069187169212
 30
0.0
 11
-1.025008240724541
 21
-8.87407428424065
 31
0.0
  0
ARC
  5
71C8
330
1F
100
AcDbEntity
  8
AM_0
100
AcDbCircle
 10
-1.020007041001701
 20
-8.667073554999262
 30
0.0
 40
0.202484562993
100
AcDbArc
 50
302.9052015354706
 51
335.4622407804388
  0
LINE
  5
71C9
330
1F
100
AcDbEntity
  8
AM_0
100
AcDbLine
 10
-0.365008919739068
 20
-9.702071911499126
 30
0.0
 11
-0.9850060262931814
 21
-9.081075042095406
 31
0.0
  0
LINE
  5
71CA
330
1F
100
AcDbEntity
  8
AM_0
100
AcDbLine
 10
-0.7990061248396835
 20
-9.032075373973952
 30
0.0
 11
-0.9100065387333682
 21
-8.837073701229742
 31
0.0
  0
ARC
  5
71CB
330
1F
100
AcDbEntity
  8
AM_0
100
AcDbCircle
 10
-1.049006361986163
 20
-8.655074406312991
 30
0.0
 40
0.2336343228817
100
AcDbArc
 50
335.7386721965275
 51
348.6419240670597
  0
ARC
  5
71CC
330
1F
100
AcDbEntity
  8
AM_0
100
AcDbCircle
 10
-1.019007586504293
 20
-8.661074944183706
 30
0.0
 40
0.2029802948236
100
AcDbArc
 50
348.634670406161
 51
2.538504008962232
  0
LINE
  5
71CD
330
1F
100
AcDbEntity
  8
AM_0
100
AcDbLine
 10
-0.0000080792358686
 20
-9.520074844366391
 30
0.0
 11
-0.2140078287366979
 21
-9.897073609676077
 31
0.0
  0
LINE
  5
71CE
330
1F
100
AcDbEntity
  8
AM_0
100
AcDbLine
 10
-0.2140078287379106
 20
-9.897075517025081
 30
0.0
 11
-0.3650076341876963
 21
-9.930074459717989
 31
0.0
  0
LINE
  5
71CF
330
1F
100
AcDbEntity
  8
AM_0
100
AcDbLine
 10
-0.2140079196534252
 20
-9.66507325872398
 30
0.0
 11
-0.3650089197402807
 21
-9.702073818848115
 31
0.0
  0
LINE
  5
71D0
330
1F
100
AcDbEntity
  8
AM_0
100
AcDbLine
 10
-0.6080090151083382
 20
-8.679074854537583
 30
0.0
 11
-0.0000074542613679
 21
-9.287075042730743
 31
0.0
  0
LINE
  5
71D1
330
1F
100
AcDbEntity
  8
AM_0
100
AcDbLine
 10
-0.0810053975027763
 20
-8.161073633201405
 30
0.0
 11
-0.0000048316557567
 21
-9.287073135383407
 31
0.0
  0
LINE
  5
71D2
330
1F
100
AcDbEntity
  8
AM_0
100
AcDbLine
 10
-0.6350038283916769
 20
-8.849074913668781
 30
0.0
 11
-0.8360070791484851
 21
-8.751073305772322
 31
0.0
  0
LINE
  5
71D3
330
1F
100
AcDbEntity
  8
AM_0
100
AcDbLine
 10
-0.6090066016769868
 20
-8.747075647360354
 30
0.0
 11
-0.820008207029036
 21
-8.701075986232121
 31
0.0
  0
LINE
  5
71D4
330
1F
100
AcDbEntity
  8
AM_0
100
AcDbLine
 10
-0.6090070785141876
 20
-8.74707564736005
 30
0.0
 11
-0.6080075845956224
 21
-8.679072947190501
 31
0.0
  0
LINE
  5
71D5
330
1F
100
AcDbEntity
  8
AM_0
100
AcDbLine
 10
-0.6080071077596485
 20
-8.679074854538797
 30
0.0
 11
-0.6100059862378832
 21
-8.643073647823941
 31
0.0
  0
LINE
  5
71D6
330
1F
100
AcDbEntity
  8
AM_0
100
AcDbLine
 10
-0.6100064630750982
 20
-8.643073647823639
 30
0.0
 11
-0.8160094194671026
 21
-8.652076202397479
 31
0.0
  0
ARC
  5
71D7
330
1F
100
AcDbEntity
  8
AM_0
100
AcDbCircle
 10
-1.03500641729881
 20
-8.646073637014922
 30
0.0
 40
0.2282191962004
100
AcDbArc
 50
272.5113241817766
 51
303.2027109153347
  0
LINE
  5
71D8
330
1F
100
AcDbEntity
  8
AM_0
100
AcDbLine
 10
-1.029006653174433
 20
-9.083073915488569
 30
0.0
 11
-0.9850074568046846
 21
-9.081075042094497
 31
0.0
  0
LINE
  5
71D9
330
1F
100
AcDbEntity
  8
AM_0
100
AcDbLine
 10
-1.029008083685936
 20
-9.083073915487659
 30
0.0
 11
-1.025010148073131
 21
-8.874074284239437
 31
0.0
  0
LINE
  5
71DA
330
1F
100
AcDbEntity
  8
AM_0
100
AcDbLine
 10
-0.9690082985812129
 20
-8.581075052266387
 30
0.0
 11
-1.161005476976034
 21
-8.781073785788885
 31
0.0
  0
LINE
  5
71DB
330
1F
100
AcDbEntity
  8
AM_0
100
AcDbLine
 10
-3.4370068547172
 20
-6.41207285754455
 30
0.0
 11
-3.276007075333966
 21
-6.405072990423468
 31
0.0
  0
LINE
  5
71DC
330
1F
100
AcDbEntity
  8
AM_0
100
AcDbLine
 10
-3.437007331553173
 20
-6.412070950195257
 30
0.0
 11
-3.372009163879559
 21
-7.88407111359129
 31
0.0
  0
LINE
  5
71DE
330
1F
100
AcDbEntity
  8
AM_0
100
AcDbLine
 10
-8.547007464431771
 20
-9.411070158009946
 30
0.0
 11
-9.094010559423232
 21
-9.88706964238878
 31
0.0
  0
LINE
  5
71DF
330
1F
100
AcDbEntity
  8
AM_0
100
AcDbLine
 10
-9.179006308575536
 20
-9.14106548373477
 30
0.0
 11
-8.985007889132322
 21
-9.011066446309639
 31
0.0
  0
LINE
  5
71E0
330
1F
100
AcDbEntity
  8
AM_0
100
AcDbLine
 10
-8.547009371780774
 20
-9.411070158008733
 30
0.0
 11
-8.522004984242133
 21
-9.410068815874087
 31
0.0
  0
LINE
  5
71E1
330
1F
100
AcDbEntity
  8
AM_0
100
AcDbLine
 10
-8.882008421285448
 20
-9.356069639847014
 30
0.0
 11
-8.76500676379778
 21
-9.161068112061654
 31
0.0
  0
LINE
  5
71E2
330
1F
100
AcDbEntity
  8
AM_0
100
AcDbLine
 10
-8.518009067875912
 20
-9.377069779718622
 30
0.0
 11
-8.522006891591136
 21
-9.410068815872874
 31
0.0
  0
LINE
  5
71E4
330
1F
100
AcDbEntity
  8
AM_0
100
AcDbLine
 10
-9.926005149545773
 20
-9.226067907975677
 30
0.0
 11
-9.985006864251964
 21
-8.899068206157338
 31
0.0
  0
LINE
  5
71E5
330
1F
100
AcDbEntity
  8
AM_0
100
AcDbLine
 10
-9.926005149543348
 20
-9.226064093278679
 30
0.0
 11
-9.357006498039593
 21
-8.73106552315321
 31
0.0
  0
LINE
  5
71E6
330
1F
100
AcDbEntity
  8
AM_0
100
AcDbLine
 10
-9.361005233468574
 20
-8.698068389263873
 30
0.0
 11
-9.357003637017802
 21
-8.731067430504031
 31
0.0
  0
LINE
  5
71E7
330
1F
100
AcDbEntity
  8
AM_0
100
AcDbLine
 10
-9.305008488041968
 20
-8.933069035216702
 30
0.0
 11
-9.088007480961319
 21
-8.861068669642234
 31
0.0
  0
LINE
  5
71E8
330
1F
100
AcDbEntity
  8
AM_0
100
AcDbLine
 10
-9.142005365076293
 20
-8.689069657650259
 30
0.0
 11
-9.147006410939987
 21
-8.654069807058663
 31
0.0
  0
LINE
  5
71E9
330
1F
100
AcDbEntity
  8
AM_0
100
AcDbLine
 10
-9.368008986495345
 20
-8.649068598434011
 30
0.0
 11
-9.361008094492794
 21
-8.698070296610062
 31
0.0
  0
LINE
  5
71EA
330
1F
100
AcDbEntity
  8
AM_0
100
AcDbLine
 10
-9.361005233468574
 20
-8.698068389263873
 30
0.0
 11
-9.14200536507508
 21
-8.689067750301271
 31
0.0
  0
LINE
  5
71ED
330
1F
100
AcDbEntity
  8
AM_0
100
AcDbLine
 10
-36.90499397120482
 20
9.999948600124469
 30
0.0
 11
-36.90500668686345
 21
-10.00005092303376
 31
0.0
  0
LINE
  5
71EE
330
1F
100
AcDbEntity
  8
AM_0
100
AcDbLine
 10
-34.99999589126939
 20
8.89994748432646
 30
0.0
 11
-35.00000720820533
 21
-8.900051752729734
 31
0.0
  0
LINE
  5
71EF
330
1F
100
AcDbEntity
  8
AM_0
100
AcDbLine
 10
-34.99999207657421
 20
8.899944623301042
 30
0.0
 11
-36.90499015650924
 21
9.999944785424842
 31
0.0
  0
LINE
  5
71F0
330
1F
100
AcDbEntity
  8
AM_0
100
AcDbLine
 10
-36.90500287216424
 20
-10.00004901568722
 30
0.0
 11
-35.00000720820413
 21
-8.900049845381742
 31
0.0
  0
LINE
  5
71F1
330
1F
100
AcDbEntity
  8
AM_0
100
AcDbLine
 10
-116.9999951918865
 20
9.999999523160244
 30
0.0
 11
-117.0000079075452
 21
-9.999999999998021
 31
0.0
  0
LINE
  5
71F2
330
1F
100
AcDbEntity
  8
AM_0
100
AcDbLine
 10
-119.9999966789824
 20
7.661001205442445
 30
0.0
 11
-120.0000064204491
 21
-7.660999298093656
 31
0.0
  0
ARC
  5
71F3
330
1F
100
AcDbEntity
  8
AM_0
100
AcDbCircle
 10
-117.9999966789828
 20
7.660999933876572
 30
0.0
 40
2.000236988067599
100
AcDbArc
 50
105.0088782972166
 51
179.9999635723206
  0
LINE
  5
71F4
330
1F
100
AcDbEntity
  8
AM_0
100
AcDbLine
 10
-116.9999951918853
 20
10.00000143050894
 30
0.0
 11
-118.5179931923469
 21
9.593005191799209
 31
0.0
  0
ARC
  5
71F5
330
1F
100
AcDbEntity
  8
AM_0
100
AcDbCircle
 10
-118.0000064204495
 20
-7.66100056965953
 30
0.0
 40
2.0
100
AcDbArc
 50
179.9999635723206
 51
254.9910488474243
  0
LINE
  5
71F6
330
1F
100
AcDbEntity
  8
AM_0
100
AcDbLine
 10
-118.5180053904851
 20
-9.59300516891402
 30
0.0
 11
-117.0000079075464
 21
-10.00000190734702
 31
0.0
  0
DIMENSION
  5
73AE
330
1F
100
AcDbEntity
  8
AM_5
100
AcDbDimension
  2
*D2
 10
-0.0000000000002887
 20
17.000002907349
 30
0.0
 11
-13.00000044359919
 21
18.550002907349
 31
0.0
 70
    32
  1
<>
 71
     5
 42
-1.0
 51
359.9999999999998
  3
AM_JIS$0
100
AcDbAlignedDimension
 13
-26.0000008871981
 23
9.873876722661655
 33
0.0
 14
-0.0000000000002891
 24
10.00000000000015
 34
0.0
100
AcDbRotatedDimension
1001
GENIUS_GENDTOL_13
1000

1000
h7
1000

1040
0.0
1001
ACAD
1000
DSTYLE
1002
{
1070
   287
1070
     3
1070
    40
1040
0.5
1070
    42
1040
1.0
1070
    43
1040
12.0
1070
    48
1040
0.1
1070
    78
1070
     8
1070
   140
1040
3.2
1070
   176
1070
   256
1070
   177
1070
   256
1070
   271
1070
     0
1070
   272
1070
     3
1070
   275
1070
     0
1070
   284
1070
     0
1070
   289
1070
     3
1070
   340
1005
6B
1070
   371
1070
    -1
1070
   372
1070
    -1
1002
}
  0
DIMENSION
  5
7443
330
1F
100
AcDbEntity
  8
AM_5
100
AcDbDimension
  2
*D3
 10
8.366607354713107
 20
-9.999999999999847
 30
0.0
 11
6.816607354713108
 21
0.0000000000001533
 31
0.0
 70
    32
  1
%%C20
 71
     5
 42
-1.0
 51
359.9999999999998
  3
AM_JIS$0
100
AcDbAlignedDimension
 13
-0.0000000000002891
 23
10.00000000000015
 33
0.0
 14
-0.0000000000002487
 24
-9.999999999999843
 34
0.0
 50
270.0
100
AcDbRotatedDimension
1001
GENIUS_GENDTOL_13
1000

1000
h7
1000

1040
0.0
1001
ACAD
1000
DSTYLE
1002
{
1070
   287
1070
     3
1070
    40
1040
0.5
1070
    42
1040
1.0
1070
    43
1040
12.0
1070
    48
1040
0.1
1070
    78
1070
     8
1070
   140
1040
3.2
1070
   176
1070
   256
1070
   177
1070
   256
1070
   271
1070
     0
1070
   272
1070
     3
1070
   275
1070
     0
1070
   284
1070
     0
1070
   289
1070
     3
1070
   340
1005
6B
1070
   371
1070
    -1
1070
   372
1070
    -1
1002
}
  0
DIMENSION
  5
7511
330
1F
100
AcDbEntity
  8
AM_5
100
AcDbDimension
  2
*D4
 10
-128.8895212875057
 20
-10.00000143051101
 30
0.0
 11
-130.4395212875057
 21
-0.0000007152555249
 31
0.0
 70
    32
  1
%%c<>
 71
     5
 42
-1.0
 51
359.9999999999998
  3
AM_JIS$0
100
AcDbAlignedDimension
 13
-117.0000015497157
 23
10.0
 33
0.0
 14
-117.0000015497157
 24
-10.00000143051101
 34
0.0
 50
270.0
100
AcDbRotatedDimension
1001
GENIUS_GENDTOL_13
1000

1000
h7
1000

1040
0.0
1001
ACAD
1000
DSTYLE
1002
{
1070
   287
1070
     3
1070
    40
1040
0.5
1070
    42
1040
1.0
1070
    43
1040
12.0
1070
    48
1040
0.1
1070
    78
1070
     8
1070
   140
1040
3.2
1070
   176
1070
   256
1070
   177
1070
   256
1070
   271
1070
     0
1070
   272
1070
     3
1070
   275
1070
     0
1070
   284
1070
     0
1070
   289
1070
     3
1070
   340
1005
6B
1070
   371
1070
    -1
1070
   372
1070
    -1
1002
}
  0
DIMENSION
  5
75E8
330
1F
100
AcDbEntity
  8
AM_5
100
AcDbDimension
  2
*D5
 10
-35.00000154972077
 20
-16.99999952316218
 30
0.0
 11
-17.5000007748605
 21
-15.44999952316218
 31
0.0
 70
    32
  1
<>
 71
     5
 42
-1.0
 51
359.9999999999998
  3
AM_JIS$0
100
AcDbAlignedDimension
 13
-0.0000000000002203
 23
-9.999999999999859
 33
0.0
 14
-35.00000154972077
 24
-8.899999618529676
 34
0.0
100
AcDbRotatedDimension
1001
GENIUS_GENDTOL_13
1000

1000
h7
1000

1040
0.0
1001
ACAD
1000
DSTYLE
1002
{
1070
   287
1070
     3
1070
    40
1040
0.5
1070
    42
1040
1.0
1070
    43
1040
12.0
1070
    48
1040
0.1
1070
    78
1070
     8
1070
   140
1040
3.2
1070
   176
1070
   256
1070
   177
1070
   256
1070
   271
1070
     0
1070
   272
1070
     3
1070
   275
1070
     0
1070
   284
1070
     0
1070
   289
1070
     3
1070
   340
1005
6B
1070
   371
1070
    -1
1070
   372
1070
    -1
1002
}
  0
DIMENSION
  5
7674
330
1F
100
AcDbEntity
  8
AM_5
100
AcDbDimension
  2
*D6
 10
-120.0002385377833
 20
-16.99999952316218
 30
0.0
 11
-77.50011813640355
 21
-15.44999952316218
 31
0.0
 70
    32
  1
<>
 71
     5
 42
-1.0
 51
359.9999999999998
  3
AM_JIS$0
100
AcDbAlignedDimension
 13
-34.99999773502377
 23
-8.899996757506697
 33
0.0
 14
-120.0002385377833
 24
-7.660999298095219
 34
0.0
100
AcDbRotatedDimension
1001
GENIUS_GENDTOL_13
1000

1000
h7
1000

1040
0.0
1001
ACAD
1000
DSTYLE
1002
{
1070
   287
1070
     3
1070
    40
1040
0.5
1070
    42
1040
1.0
1070
    43
1040
12.0
1070
    48
1040
0.1
1070
    78
1070
     8
1070
   140
1040
3.2
1070
   176
1070
   256
1070
   177
1070
   256
1070
   271
1070
     0
1070
   272
1070
     3
1070
   275
1070
     0
1070
   284
1070
     0
1070
   289
1070
     3
1070
   340
1005
6B
1070
   371
1070
    -1
1070
   372
1070
    -1
1002
}
  0
DIMENSION
  5
7709
330
1F
100
AcDbEntity
  8
AM_5
100
AcDbDimension
  2
*D7
 10
-0.000000000000221
 20
-21.99999952316218
 30
0.0
 11
-60.00000077485799
 21
-20.44999952316219
 31
0.0
 70
    32
  1
<>
 71
     5
 42
-1.0
 51
359.9999999999998
  3
AM_JIS$0
100
AcDbAlignedDimension
 13
-120.0000015497157
 23
-7.660999298095204
 33
0.0
 14
-0.0000000000002203
 24
-9.99999999999985
 34
0.0
100
AcDbRotatedDimension
1001
GENIUS_GENDTOL_13
1000

1000
h7
1000

1040
0.0
1001
ACAD
1000
DSTYLE
1002
{
1070
   287
1070
     3
1070
    40
1040
0.5
1070
    42
1040
1.0
1070
    43
1040
12.0
1070
    48
1040
0.1
1070
    78
1070
     8
1070
   140
1040
3.2
1070
   176
1070
   256
1070
   177
1070
   256
1070
   271
1070
     0
1070
   272
1070
     3
1070
   275
1070
     0
1070
   284
1070
     0
1070
   289
1070
     3
1070
   340
1005
6B
1070
   371
1070
    -1
1070
   372
1070
    -1
1002
}
  0
LINE
  5
790B
330
1F
100
AcDbEntity
  8
AM_11
100
AcDbLine
 10
-25.99999999992471
 20
10.00000000000009
 30
0.0
 11
-25.99999999992457
 21
-9.999999999999896
 31
0.0
  0
LINE
  5
7910
330
1F
100
AcDbEntity
  8
AM_11
100
AcDbLine
 10
-0.0000000000002891
 20
10.00000000000015
 30
0.0
 11
-0.0000000000002509
 21
-9.999999999999847
 31
0.0
  0
LINE
  5
792B
330
1F
100
AcDbEntity
  8
AM_11
100
AcDbLine
 10
-25.99999999992457
 20
-9.999999999999896
 30
0.0
 11
-0.0000000000002487
 21
-9.999999999999843
 31
0.0
  0
LINE
  5
792F
330
1F
100
AcDbEntity
  8
AM_11
100
AcDbLine
 10
-0.0000000000002891
 20
10.00000000000015
 30
0.0
 11
-25.99999999992471
 21
10.0000000000001
 31
0.0
  0
VIEWPORT
  5
110
102
{ACAD_XDICTIONARY
360
7B38
102
}
330
101
100
AcDbEntity
 67
     1
  8
0
100
AcDbViewport
 10
420.5
 20
297.0
 30
0.0
 40
948.9782706766916
 41
628.452
 68
     1
 69
     1
 12
420.5
 22
297.0
 13
0.0
 23
0.0
 14
10.0
 24
10.0
 15
10.0
 25
10.0
 16
0.0
 26
0.0
 36
1.0
 17
0.0
 27
0.0
 37
0.0
 42
50.0
 43
0.0
 44
0.0
 45
628.452
 50
0.0
 51
0.0
 72
   100
 90
    32800
  1

281
     0
 71
     1
 74
     0
110
-0.0000000000002682
120
0.000000000000161
130
0.0
111
1.0
121
0.000000000000002
131
0.0
112
-0.000000000000002
122
1.0
132
0.0
 79
     0
146
0.0
1001
GENIUS_GENSCREG_15
1000
PF
1040
1.0
1000
DF
1040
1.0
1000
MIN
1011
-53.98913533834582
1021
-17.226
1031
0.0
1000
MAX
1011
894.9891353383458
1021
611.226
1031
0.0
1000
FLAGS
1070
     4
1001
GENIUS_GENODEF_13
1002
{
1000
HIER
1070
     0
1002
}
1002
{
1000
MANEDIT
1070
     0
1002
}
1002
{
1000
NOSEL
1070
     0
1002
}
1002
{
1000
BEHIND
1070
     0
1002
}
1002
{
1000
OTHER
1070
     0
1002
}
1002
{
1000
REACTOR
1002
}
1001
GENIUS_GENOBJ-N-SDF_13
1002
{
1000
OWNER
1000
GEN
1002
}
  0
ENDSEC
  0
SECTION
  2
OBJECTS
  0
DICTIONARY
  5
C
330
0
100
AcDbDictionary
281
     1
  3
ACAD_COLOR
350
7A6E
  3
ACAD_GROUP
350
D
  3
ACAD_LAYOUT
350
1A
  3
ACAD_MATERIAL
350
7A6D
  3
ACAD_MLINESTYLE
350
17
  3
ACAD_PLOTSETTINGS
350
19
  3
ACAD_PLOTSTYLENAME
350
E
  3
ACAD_TABLESTYLE
350
7A6F
  3
ACDBHEADERROUNDTRIPXREC
350
7B37
  3
ACDBVARIABLEDICTIONARY
350
34
  3
ACMDICTIONARY
350
43
  3
AMG
350
2B
  3
AMGSNAPSETTINGS
350
6E
  3
DWGPROPS
350
7B36
  0
DICTIONARY
  5
74
330
1F
100
AcDbDictionary
280
     1
281
     1
  3
ACAD_INDEX
360
79FD
  3
ACAD_LAYOUTSELFREF
360
7A2A
  0
DICTIONARY
  5
7A2F
330
101
100
AcDbDictionary
280
     1
281
     1
  3
ACAD_LAYOUTSELFREF
360
7A30
  0
DICTIONARY
  5
7B38
330
110
100
AcDbDictionary
280
     1
281
     1
  3
ACAD_XREC_ROUNDTRIP
360
7B39
  0
DICTIONARY
  5
7A6E
102
{ACAD_REACTORS
330
C
102
}
330
C
100
AcDbDictionary
281
     1
  0
DICTIONARY
  5
D
102
{ACAD_REACTORS
330
C
102
}
330
C
100
AcDbDictionary
281
     1
  0
DICTIONARY
  5
1A
102
{ACAD_REACTORS
330
C
102
}
330
C
100
AcDbDictionary
281
     1
  3
Model
350
7A71
  3
レイアウト1
350
7A72
  0
DICTIONARY
  5
7A6D
102
{ACAD_REACTORS
330
C
102
}
330
C
100
AcDbDictionary
281
     1
  0
DICTIONARY
  5
17
102
{ACAD_REACTORS
330
C
102
}
330
C
100
AcDbDictionary
281
     1
  3
STANDARD
350
18
  0
DICTIONARY
  5
19
102
{ACAD_REACTORS
330
C
102
}
330
C
100
AcDbDictionary
281
     1
  3
ASAMI
350
399D
  0
ACDBDICTIONARYWDFLT
  5
E
102
{ACAD_REACTORS
330
C
102
}
330
C
100
AcDbDictionary
281
     1
  3
Normal
350
F
100
AcDbDictionaryWithDefault
340
F
  0
DICTIONARY
  5
7A6F
102
{ACAD_REACTORS
330
C
102
}
330
C
100
AcDbDictionary
281
     1
  3
Standard
350
7A70
  0
DICTIONARY
  5
7B37
102
{ACAD_REACTORS
330
C
102
}
330
C
100
AcDbDictionary
281
     1
  0
DICTIONARY
  5
34
102
{ACAD_REACTORS
330
C
102
}
330
C
100
AcDbDictionary
281
     1
  3
CTABLESTYLE
350
7B32
  3
DIMASSOC
350
7B33
  3
INDEXCTL
350
35
  3
PROJECTNAME
350
7B34
  3
SORTENTS
350
B5E
  0
DICTIONARY
  5
43
102
{ACAD_REACTORS
330
C
102
}
330
C
100
AcDbDictionary
281
     1
  3
ACMSTDDICTIONARY
350
260
  0
DICTIONARY
  5
2B
102
{ACAD_REACTORS
330
C
102
}
330
C
100
AcDbDictionary
281
     1
  0
DICTIONARY
  5
6E
102
{ACAD_REACTORS
330
C
102
}
330
C
100
AcDbDictionary
281
     1
  0
XRECORD
  5
7B36
102
{ACAD_REACTORS
330
C
102
}
330
C
100
AcDbXrecord
280
     1
  1
DWGPROPS COOKIE
  2

  3

  4

  6

  7

  8

  9

300
AmdtFileType=82
301
=
302
=
303
=
304
=
305
=
306
=
307
=
308
=
309
=
 40
0.8186997685185184
 41
2452802.716478762
 42
2453691.775893368
  1

 90
        1
  0
DICTIONARY
  5
79FD
102
{ACAD_REACTORS
330
74
102
}
330
74
100
AcDbDictionary
281
     1
  3
*A1
350
79FE
  0
XRECORD
  5
7A2A
102
{ACAD_REACTORS
330
74
102
}
330
74
100
AcDbXrecord
280
     1
340
1F
  0
XRECORD
  5
7A30
102
{ACAD_REACTORS
330
7A2F
102
}
330
7A2F
100
AcDbXrecord
280
     1
340
101
  0
XRECORD
  5
7B39
102
{ACAD_REACTORS
330
7B38
102
}
330
7B38
100
AcDbXrecord
280
     1
102
SHADEPLOT
 70
     0
  0
LAYOUT
  5
7A71
102
{ACAD_XDICTIONARY
360
7B3C
102
}
102
{ACAD_REACTORS
330
1A
102
}
330
1A
100
AcDbPlotSettings
  1

  2
Canon LBP-1710 LIPS4
  4

  6

 40
0.0
 41
0.0
 42
0.0
 43
0.0
 44
0.0
 45
0.0
 46
0.0
 47
0.0
 48
0.0
 49
0.0
140
0.0
141
0.0
142
1.0
143
1.0
 70
  1712
 72
     0
 73
     0
 74
     0
  7
sei_cad.ctb
 75
     0
147
1.0
148
0.0
149
0.0
100
AcDbLayout
  1
Model
 70
     1
 71
     0
 10
0.0
 20
0.0
 11
12.0
 21
9.0
 12
0.0
 22
0.0
 32
0.0
 14
0.0
 24
0.0
 34
0.0
 15
0.0
 25
0.0
 35
0.0
146
0.0
 13
0.0
 23
0.0
 33
0.0
 16
1.0
 26
0.0
 36
0.0
 17
0.0
 27
1.0
 37
0.0
 76
     0
330
1F
  0
LAYOUT
  5
7A72
102
{ACAD_XDICTIONARY
360
7B3E
102
}
102
{ACAD_REACTORS
330
1A
102
}
330
1A
100
AcDbPlotSettings
  1

  2
Canon LBP-1710 LIPS4
  4

  6

 40
0.0
 41
0.0
 42
0.0
 43
0.0
 44
0.0
 45
0.0
 46
0.0
 47
0.0
 48
0.0
 49
0.0
140
0.0
141
0.0
142
1.0
143
1.0
 70
   688
 72
     0
 73
     0
 74
     5
  7
sei_cad.ctb
 75
    16
147
1.0
148
0.0
149
0.0
100
AcDbLayout
  1
レイアウト1
 70
     0
 71
     1
 10
0.0
 20
0.0
 11
841.0
 21
594.0
 12
0.0
 22
0.0
 32
0.0
 14
1.000000000000000E+20
 24
1.000000000000000E+20
 34
1.000000000000000E+20
 15
-1.000000000000000E+20
 25
-1.000000000000000E+20
 35
-1.000000000000000E+20
146
0.0
 13
0.0
 23
0.0
 33
0.0
 16
1.0
 26
0.0
 36
0.0
 17
0.0
 27
1.0
 37
0.0
 76
     0
330
101
331
110
  0
MLINESTYLE
  5
18
102
{ACAD_REACTORS
330
17
102
}
330
17
100
AcDbMlineStyle
  2
STANDARD
 70
     0
  3

 62
   256
 51
90.0
 52
90.0
 71
     2
 49
0.5
 62
   256
  6
BYLAYER
 49
-0.5
 62
   256
  6
BYLAYER
  0
PLOTSETTINGS
  5
399D
102
{ACAD_XDICTIONARY
360
7B3A
102
}
102
{ACAD_REACTORS
330
19
102
}
330
19
100
AcDbPlotSettings
  1
asami
  2
RICOH imagio MF1540
  4
A4
  6

 40
5.831416606903076
 41
7.651742935180664
 42
4.90008544921875
 43
5.789077758789062
 44
296.9683227539062
 45
209.9733276367186
 46
0.0
 47
0.0
 48
-156.6707931774246
 49
-74.57609991074048
140
58.59973180214831
141
60.61068161925597
142
1.0
143
1.095343097833084
 70
  1712
 72
     1
 73
     1
 74
     4
  7
asami.ctb
 75
     0
147
0.9129559514076438
148
156.6707931774246
149
74.57609991074048
  0
ACDBPLACEHOLDER
  5
F
102
{ACAD_REACTORS
330
E
102
}
330
E
  0
TABLESTYLE
  5
7A70
102
{ACAD_REACTORS
330
7A6F
102
}
330
7A6F
100
AcDbTableStyle
  3
Standard
 70
     0
 71
     0
 40
1.5
 41
1.5
280
     0
281
     0
  7
STANDARD
140
4.5
170
     2
 62
     0
 63
     7
283
     0
274
    -2
284
     1
 64
     0
275
    -2
285
     1
 65
     0
276
    -2
286
     1
 66
     0
277
    -2
287
     1
 67
     0
278
    -2
288
     1
 68
     0
279
    -2
289
     1
 69
     0
  7
STANDARD
140
6.0
170
     5
 62
     0
 63
     7
283
     0
274
    -2
284
     1
 64
     0
275
    -2
285
     1
 65
     0
276
    -2
286
     1
 66
     0
277
    -2
287
     1
 67
     0
278
    -2
288
     1
 68
     0
279
    -2
289
     1
 69
     0
  7
STANDARD
140
4.5
170
     5
 62
     0
 63
     7
283
     0
274
    -2
284
     1
 64
     0
275
    -2
285
     1
 65
     0
276
    -2
286
     1
 66
     0
277
    -2
287
     1
 67
     0
278
    -2
288
     1
 68
     0
279
    -2
289
     1
 69
     0
  0
DICTIONARYVAR
  5
7B32
102
{ACAD_REACTORS
330
34
102
}
330
34
100
DictionaryVariables
280
     0
  1
STANDARD
  0
DICTIONARYVAR
  5
7B33
102
{ACAD_REACTORS
330
34
102
}
330
34
100
DictionaryVariables
280
     0
  1
1
  0
DICTIONARYVAR
  5
35
102
{ACAD_REACTORS
330
34
102
}
330
34
100
DictionaryVariables
280
     0
  1
1
  0
DICTIONARYVAR
  5
7B34
102
{ACAD_REACTORS
330
34
102
}
330
34
100
DictionaryVariables
280
     0
  1

  0
DICTIONARYVAR
  5
B5E
102
{ACAD_REACTORS
330
34
102
}
330
34
100
DictionaryVariables
280
     0
  1
96
  0
DICTIONARY
  5
260
102
{ACAD_REACTORS
330
43
102
}
330
43
100
AcDbDictionary
281
     1
  0
LAYER_INDEX
  5
79FE
102
{ACAD_REACTORS
330
79FD
102
}
330
79FD
100
AcDbIndex
 40
2453691.775893368
100
AcDbLayerIndex
  8
0
360
79FF
 90
        0
  8
AM_0
360
7A00
 90
      151
  8
AM_5
360
7A01
 90
        6
  8
AM_7
360
7A02
 90
        1
  8
AM_6
360
7A03
 90
        1
  8
DEFPOINTS
360
7A04
 90
        0
  8
AM_11
360
7A05
 90
        4
  0
DICTIONARY
  5
7B3C
330
7A71
100
AcDbDictionary
280
     1
281
     1
  3
ACAD_XREC_ROUNDTRIP
360
7B3D
  0
DICTIONARY
  5
7B3E
330
7A72
100
AcDbDictionary
280
     1
281
     1
  3
ACAD_XREC_ROUNDTRIP
360
7B3F
  0
DICTIONARY
  5
7B3A
330
399D
100
AcDbDictionary
280
     1
281
     1
  3
ACAD_XREC_ROUNDTRIP
360
7B3B
  0
IDBUFFER
  5
79FF
330
0
100
AcDbIdBuffer
  0
IDBUFFER
  5
7A00
330
0
100
AcDbIdBuffer
330
7152
330
7153
330
7157
330
7158
330
7159
330
715A
330
715B
330
715C
330
715D
330
715E
330
715F
330
7160
330
7161
330
7162
330
7163
330
7164
330
7165
330
7166
330
7167
330
7168
330
7169
330
716A
330
716B
330
716C
330
716D
330
716E
330
716F
330
7170
330
7171
330
7172
330
7173
330
7174
330
7175
330
7176
330
7177
330
7178
330
7179
330
717A
330
717B
330
717C
330
717D
330
717E
330
717F
330
7180
330
7181
330
7182
330
7183
330
7184
330
7185
330
7186
330
7187
330
7188
330
7189
330
718A
330
718B
330
718C
330
718D
330
718E
330
718F
330
7190
330
7191
330
7194
330
7195
330
7196
330
7197
330
7198
330
7199
330
719A
330
719B
330
719C
330
719D
330
719E
330
719F
330
71A0
330
71A1
330
71A2
330
71A3
330
71A4
330
71A5
330
71A6
330
71A9
330
71AA
330
71AB
330
71AC
330
71AD
330
71AE
330
71AF
330
71B0
330
71B1
330
71B2
330
71B3
330
71B4
330
71B5
330
71B6
330
71B7
330
71B8
330
71B9
330
71BA
330
71BB
330
71BC
330
71BD
330
71BE
330
71BF
330
71C0
330
71C1
330
71C2
330
71C6
330
71C7
330
71C8
330
71C9
330
71CA
330
71CB
330
71CC
330
71CD
330
71CE
330
71CF
330
71D0
330
71D1
330
71D2
330
71D3
330
71D4
330
71D5
330
71D6
330
71D7
330
71D8
330
71D9
330
71DA
330
71DB
330
71DC
330
71DE
330
71DF
330
71E0
330
71E1
330
71E2
330
71E4
330
71E5
330
71E6
330
71E7
330
71E8
330
71E9
330
71EA
330
71ED
330
71EE
330
71EF
330
71F0
330
71F1
330
71F2
330
71F3
330
71F4
330
71F5
330
71F6
  0
IDBUFFER
  5
7A01
330
0
100
AcDbIdBuffer
330
73AE
330
7443
330
7511
330
75E8
330
7674
330
7709
  0
IDBUFFER
  5
7A02
330
0
100
AcDbIdBuffer
330
7193
  0
IDBUFFER
  5
7A03
330
0
100
AcDbIdBuffer
330
388D
  0
IDBUFFER
  5
7A04
330
0
100
AcDbIdBuffer
  0
IDBUFFER
  5
7A05
330
0
100
AcDbIdBuffer
330
790B
330
7910
330
792B
330
792F
  0
XRECORD
  5
7B3D
102
{ACAD_REACTORS
330
7B3C
102
}
330
7B3C
100
AcDbXrecord
280
     1
102
SHADEPLOT
 70
     0
102
SHADEPLOTRESLEVEL
 70
     2
102
SHADEPLOTCUSTOMDPI
 70
   300
  0
XRECORD
  5
7B3F
102
{ACAD_REACTORS
330
7B3E
102
}
330
7B3E
100
AcDbXrecord
280
     1
102
SHADEPLOT
 70
     0
102
SHADEPLOTRESLEVEL
 70
     2
102
SHADEPLOTCUSTOMDPI
 70
   300
  0
XRECORD
  5
7B3B
102
{ACAD_REACTORS
330
7B3A
102
}
330
7B3A
100
AcDbXrecord
280
     1
102
SHADEPLOT
 70
     0
102
SHADEPLOTRESLEVEL
 70
     2
102
SHADEPLOTCUSTOMDPI
 70
   300
  0
ENDSEC
  0
EOF
