  0
SECTION
  2
HEADER
  9
$ACADVER
  1
AC1015
  9
$ACADMAINTVER
 70
    20
  9
$DWGCODEPAGE
  3
ANSI_932
  9
$INSBASE
 10
0.0
 20
0.0
 30
0.0
  9
$EXTMIN
 10
-139.3500000000002
 20
-35.75000190734928
 30
0.0
  9
$EXTMAX
 10
7.49999999999977
 20
21.85000381469759
 30
0.0
  9
$LIMMIN
 10
-145.914031401524
 20
-62.19769825565425
  9
$LIMMAX
 10
55.80615793735171
 20
38.81601080948161
  9
$ORTHOMODE
 70
     0
  9
$REGENMODE
 70
     1
  9
$FILLMODE
 70
     1
  9
$QTEXTMODE
 70
     0
  9
$MIRRTEXT
 70
     0
  9
$LTSCALE
 40
1.0
  9
$ATTMODE
 70
     1
  9
$TEXTSIZE
 40
2.5
  9
$TRACEWID
 40
1.0
  9
$TEXTSTYLE
  7
STANDARD
  9
$CLAYER
  8
AM_0
  9
$CELTYPE
  6
BYLAYER
  9
$CECOLOR
 62
   256
  9
$CELTSCALE
 40
1.0
  9
$DISPSILH
 70
     0
  9
$DIMSCALE
 40
0.5
  9
$DIMASZ
 40
2.5
  9
$DIMEXO
 40
1.0
  9
$DIMDLI
 40
12.0
  9
$DIMRND
 40
0.0
  9
$DIMDLE
 40
0.0
  9
$DIMEXE
 40
1.0
  9
$DIMTP
 40
0.1
  9
$DIMTM
 40
0.1
  9
$DIMTXT
 40
3.2
  9
$DIMCEN
 40
0.0
  9
$DIMTSZ
 40
0.0
  9
$DIMTOL
 70
     0
  9
$DIMLIM
 70
     0
  9
$DIMTIH
 70
     0
  9
$DIMTOH
 70
     0
  9
$DIMSE1
 70
     0
  9
$DIMSE2
 70
     0
  9
$DIMTAD
 70
     3
  9
$DIMZIN
 70
     8
  9
$DIMBLK
  1
Open30
  9
$DIMASO
 70
     1
  9
$DIMSHO
 70
     1
  9
$DIMPOST
  1

  9
$DIMAPOST
  1
"
  9
$DIMALT
 70
     0
  9
$DIMALTD
 70
     2
  9
$DIMALTF
 40
0.0393701
  9
$DIMLFAC
 40
1.0
  9
$DIMTOFL
 70
     1
  9
$DIMTVP
 40
0.0
  9
$DIMTIX
 70
     0
  9
$DIMSOXD
 70
     0
  9
$DIMSAH
 70
     0
  9
$DIMBLK1
  1

  9
$DIMBLK2
  1

  9
$DIMSTYLE
  2
AM_JIS
  9
$DIMCLRD
 70
   256
  9
$DIMCLRE
 70
   256
  9
$DIMCLRT
 70
     2
  9
$DIMTFAC
 40
0.71
  9
$DIMGAP
 40
1.5
  9
$DIMJUST
 70
     0
  9
$DIMSD1
 70
     0
  9
$DIMSD2
 70
     0
  9
$DIMTOLJ
 70
     0
  9
$DIMTZIN
 70
     0
  9
$DIMALTZ
 70
     0
  9
$DIMALTTZ
 70
     0
  9
$DIMUPT
 70
     0
  9
$DIMDEC
 70
     3
  9
$DIMTDEC
 70
     3
  9
$DIMALTU
 70
     2
  9
$DIMALTTD
 70
     2
  9
$DIMTXSTY
  7
ASAMI
  9
$DIMAUNIT
 70
     0
  9
$DIMADEC
 70
     0
  9
$DIMALTRND
 40
0.0
  9
$DIMAZIN
 70
     2
  9
$DIMDSEP
 70
    46
  9
$DIMATFIT
 70
     3
  9
$DIMFRAC
 70
     0
  9
$DIMLDRBLK
  1
Open30
  9
$DIMLUNIT
 70
     2
  9
$DIMLWD
 70
    -1
  9
$DIMLWE
 70
    -1
  9
$DIMTMOVE
 70
     0
  9
$LUNITS
 70
     2
  9
$LUPREC
 70
     2
  9
$SKETCHINC
 40
1.0
  9
$FILLETRAD
 40
0.4
  9
$AUNITS
 70
     0
  9
$AUPREC
 70
     0
  9
$MENU
  1
.
  9
$ELEVATION
 40
0.0
  9
$PELEVATION
 40
0.0
  9
$THICKNESS
 40
0.0
  9
$LIMCHECK
 70
     1
  9
$CHAMFERA
 40
1.0
  9
$CHAMFERB
 40
1.0
  9
$CHAMFERC
 40
20.0
  9
$CHAMFERD
 40
0.0
  9
$SKPOLY
 70
     0
  9
$TDCREATE
 40
2452802.716478762
  9
$TDUCREATE
 40
2452802.341478762
  9
$TDUPDATE
 40
2453691.775646516
  9
$TDUUPDATE
 40
2453691.400646516
  9
$TDINDWG
 40
0.8236623032
  9
$TDUSRTIMER
 40
0.8236621181
  9
$USRTIMER
 70
     1
  9
$ANGBASE
 50
0.0
  9
$ANGDIR
 70
     0
  9
$PDMODE
 70
     0
  9
$PDSIZE
 40
0.0
  9
$PLINEWID
 40
0.0
  9
$SPLFRAME
 70
     0
  9
$SPLINETYPE
 70
     6
  9
$SPLINESEGS
 70
     8
  9
$HANDSEED
  5
87A5
  9
$SURFTAB1
 70
     6
  9
$SURFTAB2
 70
     6
  9
$SURFTYPE
 70
     6
  9
$SURFU
 70
     6
  9
$SURFV
 70
     6
  9
$UCSBASE
  2

  9
$UCSNAME
  2

  9
$UCSORG
 10
-0.0000000000002682
 20
0.000000000000161
 30
0.0
  9
$UCSXDIR
 10
1.0
 20
0.000000000000002
 30
0.0
  9
$UCSYDIR
 10
-0.000000000000002
 20
1.0
 30
0.0
  9
$UCSORTHOREF
  2

  9
$UCSORTHOVIEW
 70
     0
  9
$UCSORGTOP
 10
0.0
 20
0.0
 30
0.0
  9
$UCSORGBOTTOM
 10
0.0
 20
0.0
 30
0.0
  9
$UCSORGLEFT
 10
0.0
 20
0.0
 30
0.0
  9
$UCSORGRIGHT
 10
0.0
 20
0.0
 30
0.0
  9
$UCSORGFRONT
 10
0.0
 20
0.0
 30
0.0
  9
$UCSORGBACK
 10
0.0
 20
0.0
 30
0.0
  9
$PUCSBASE
  2

  9
$PUCSNAME
  2

  9
$PUCSORG
 10
0.0
 20
0.0
 30
0.0
  9
$PUCSXDIR
 10
1.0
 20
0.0
 30
0.0
  9
$PUCSYDIR
 10
0.0
 20
1.0
 30
0.0
  9
$PUCSORTHOREF
  2

  9
$PUCSORTHOVIEW
 70
     0
  9
$PUCSORGTOP
 10
0.0
 20
0.0
 30
0.0
  9
$PUCSORGBOTTOM
 10
0.0
 20
0.0
 30
0.0
  9
$PUCSORGLEFT
 10
0.0
 20
0.0
 30
0.0
  9
$PUCSORGRIGHT
 10
0.0
 20
0.0
 30
0.0
  9
$PUCSORGFRONT
 10
0.0
 20
0.0
 30
0.0
  9
$PUCSORGBACK
 10
0.0
 20
0.0
 30
0.0
  9
$USERI1
 70
     0
  9
$USERI2
 70
     0
  9
$USERI3
 70
     0
  9
$USERI4
 70
     0
  9
$USERI5
 70
     0
  9
$USERR1
 40
0.0
  9
$USERR2
 40
0.0
  9
$USERR3
 40
0.0
  9
$USERR4
 40
0.0
  9
$USERR5
 40
0.0
  9
$WORLDVIEW
 70
     1
  9
$SHADEDGE
 70
     3
  9
$SHADEDIF
 70
    70
  9
$TILEMODE
 70
     1
  9
$MAXACTVP
 70
    64
  9
$PINSBASE
 10
0.0
 20
0.0
 30
0.0
  9
$PLIMCHECK
 70
     0
  9
$PEXTMIN
 10
1.000000000000000E+20
 20
1.000000000000000E+20
 30
1.000000000000000E+20
  9
$PEXTMAX
 10
-1.000000000000000E+20
 20
-1.000000000000000E+20
 30
-1.000000000000000E+20
  9
$PLIMMIN
 10
0.0
 20
0.0
  9
$PLIMMAX
 10
841.0
 20
594.0
  9
$UNITMODE
 70
     0
  9
$VISRETAIN
 70
     1
  9
$PLINEGEN
 70
     0
  9
$PSLTSCALE
 70
     0
  9
$TREEDEPTH
 70
  3020
  9
$CMLSTYLE
  2
STANDARD
  9
$CMLJUST
 70
     0
  9
$CMLSCALE
 40
20.0
  9
$PROXYGRAPHICS
 70
     1
  9
$MEASUREMENT
 70
     1
  9
$CELWEIGHT
370
    -1
  9
$ENDCAPS
280
     0
  9
$JOINSTYLE
280
     0
  9
$LWDISPLAY
290
     0
  9
$INSUNITS
 70
     4
  9
$HYPERLINKBASE
  1

  9
$STYLESHEET
  1
ASAMI.ctb
  9
$XEDIT
290
     1
  9
$CEPSNTYPE
380
     0
  9
$PSTYLEMODE
290
     1
  9
$FINGERPRINTGUID
  2
{AFB28963-8C59-40AE-9337-C84526B81ACE}
  9
$VERSIONGUID
  2
{DFAF7584-1857-4A68-B79E-C6C8F279ECCB}
  9
$EXTNAMES
290
     1
  9
$PSVPSCALE
 40
0.0
  9
$OLESTARTUP
290
     0
  0
ENDSEC
  0
SECTION
  2
CLASSES
  0
CLASS
  1
ACDBDICTIONARYWDFLT
  2
AcDbDictionaryWithDefault
  3
ObjectDBX Classes
 90
        0
280
     0
281
     0
  0
CLASS
  1
ACDBPLACEHOLDER
  2
AcDbPlaceHolder
  3
ObjectDBX Classes
 90
        0
280
     0
281
     0
  0
CLASS
  1
LAYOUT
  2
AcDbLayout
  3
ObjectDBX Classes
 90
        0
280
     0
281
     0
  0
CLASS
  1
AMGSETTINGSOBJ
  2
AmgSettingsObj
  3
"AcadM|Product Description: AutoCAD Mechanical 2000|Company: Autodesk"
 90
        0
280
     0
281
     0
  0
CLASS
  1
ACME_DOCUMENT
  2
AcMeDbDoc
  3
AcMeServices
 90
        0
280
     0
281
     0
  0
CLASS
  1
ACMESCOPE
  2
AcMeScope
  3
AcMeServices
 90
        0
280
     0
281
     0
  0
CLASS
  1
ACMECOMMANDHISTORY
  2
AcMeCommandHistory
  3
AcMeServices
 90
        0
280
     0
281
     0
  0
CLASS
  1
DICTIONARYVAR
  2
AcDbDictionaryVar
  3
ObjectDBX Classes
 90
        0
280
     0
281
     0
  0
CLASS
  1
ACIMSYSVARMAN
  2
AcImSysVarManager
  3
AcMeServices
 90
        0
280
     0
281
     0
  0
CLASS
  1
ACIMREALSYSVAR
  2
AcImRealSysVar
  3
AcMeServices
 90
        0
280
     0
281
     0
  0
CLASS
  1
ACIMINTSYSVAR
  2
AcImIntSysVar
  3
AcMeServices
 90
        0
280
     0
281
     0
  0
CLASS
  1
ACMEDRAWINGMAN
  2
AcMeDrawingMan
  3
AcMeServices
 90
        0
280
     0
281
     0
  0
CLASS
  1
ACMEVIEW
  2
AcMeView
  3
AcMeServices
 90
        0
280
     0
281
     0
  0
CLASS
  1
ACDBENTITYCACHE
  2
AcMeEntityCache
  3
AcMeServices
 90
        0
280
     0
281
     0
  0
CLASS
  1
GSMANAGER
  2
AcMeGSManager
  3
AcMeServices
 90
        0
280
     0
281
     0
  0
CLASS
  1
AMDTINTERNALREACTOR
  2
AmdtInternalReactor
  3
AcMeServices
 90
        0
280
     0
281
     0
  0
CLASS
  1
ACMESTATEMGR
  2
AcMeStateMgr
  3
AcMeServices
 90
        0
280
     0
281
     0
  0
CLASS
  1
ACME_DATABASE
  2
AcMeDbDatabase
  3
AcMeServices
 90
        0
280
     0
281
     0
  0
CLASS
  1
ACRFINSADJUSTERMGR
  2
AcRfInsAdjusterMgr
  3
AcMeServices
 90
        0
280
     0
281
     0
  0
CLASS
  1
ACMDATADICTIONARY
  2
AcmDataDictionary
  3
"AcmSymBB|Product Description: AutoCAD Mechanical 2004 DX|Company: Autodesk"
 90
        0
280
     0
281
     0
  0
CLASS
  1
ACMDATAENTRYBLOCK
  2
AcmDataEntryBlock
  3
"AcmSymBB|Product Description: AutoCAD Mechanical 2004 DX|Company: Autodesk"
 90
    32768
280
     0
281
     0
  0
CLASS
  1
AMGOBJPROPCFG
  2
AmgObjPropCfg
  3
"AmgLay|Product Description: AutoCAD Mechanical 2000|Company: Autodesk"
 90
        1
280
     0
281
     0
  0
CLASS
  1
ACAMGFILTERDAT
  2
AcAmgFilterDat
  3
"AcadM|Product Description: AutoCAD Mechanical 2000|Company: Autodesk"
 90
    32768
280
     0
281
     0
  0
CLASS
  1
LAYER_INDEX
  2
AcDbLayerIndex
  3
ObjectDBX Classes
 90
        0
280
     0
281
     0
  0
CLASS
  1
IDBUFFER
  2
AcDbIdBuffer
  3
ObjectDBX Classes
 90
        0
280
     0
281
     0
  0
CLASS
  1
ACIMSTRSYSVAR
  2
AcImStrSysVar
  3
AcMeServices
 90
        0
280
     0
281
     0
  0
CLASS
  1
ACMSTANDARDJIS
  2
AcmStandardJIS
  3
"Amdt_StdImp|Product Description: AutoCAD Mechanical 2004 DX|Company: Autodesk"
 90
        0
280
     0
281
     0
  0
CLASS
  1
ACMSURFSTANDARDJIS
  2
AcmSurfTextStdJIS
  3
"Amdt_StdImp|Product Description: AutoCAD Mechanical 2004 DX|Company: Autodesk"
 90
        0
280
     0
281
     0
  0
CLASS
  1
ACMFCFSTANDARDJIS
  2
AcmFCFStdJIS
  3
"Amdt_StdImp|Product Description: AutoCAD Mechanical 2004 DX|Company: Autodesk"
 90
    32768
280
     0
281
     0
  0
CLASS
  1
ACMWELDSTANDARDJIS
  2
AcmWeldingStdJIS
  3
"Amdt_StdImp|Product Description: AutoCAD Mechanical 2004 DX|Company: Autodesk"
 90
        0
280
     0
281
     0
  0
CLASS
  1
ACMIDSTANDARDJIS
  2
AcmIdStdJIS
  3
"Amdt_StdImp|Product Description: AutoCAD Mechanical 2004 DX|Company: Autodesk"
 90
        0
280
     0
281
     0
  0
CLASS
  1
ACMDATUMSTANDARDJIS
  2
AcmDatumStdJIS
  3
"Amdt_StdImp|Product Description: AutoCAD Mechanical 2004 DX|Company: Autodesk"
 90
        0
280
     0
281
     0
  0
CLASS
  1
ACMBOMSTANDARDJIS
  2
AcmBOMStdJIS
  3
"Amdt_StdImp|Product Description: AutoCAD Mechanical 2004 DX|Company: Autodesk"
 90
        0
280
     0
281
     0
  0
CLASS
  1
ACMSTANDARDANSI
  2
AcmStandardANSI
  3
"Amdt_StdImp|Product Description: AutoCAD Mechanical 2004 DX|Company: Autodesk"
 90
    32768
280
     0
281
     0
  0
CLASS
  1
ACMSURFSTANDARDANSI
  2
AcmSurfTextStdANSI
  3
"Amdt_StdImp|Product Description: AutoCAD Mechanical 2004 DX|Company: Autodesk"
 90
    32768
280
     0
281
     0
  0
CLASS
  1
ACMFCFSTANDARDANSI
  2
AcmFCFStdANSI
  3
"Amdt_StdImp|Product Description: AutoCAD Mechanical 2004 DX|Company: Autodesk"
 90
    32768
280
     0
281
     0
  0
CLASS
  1
ACMWELDSTANDARDANSI
  2
AcmWeldingStdANSI
  3
"Amdt_StdImp|Product Description: AutoCAD Mechanical 2004 DX|Company: Autodesk"
 90
    32768
280
     0
281
     0
  0
CLASS
  1
ACMIDSTANDARDANSI
  2
AcmIdStdANSI
  3
"Amdt_StdImp|Product Description: AutoCAD Mechanical 2004 DX|Company: Autodesk"
 90
    32768
280
     0
281
     0
  0
CLASS
  1
ACMDATUMSTANDARDANSI
  2
AcmDatumStdANSI
  3
"Amdt_StdImp|Product Description: AutoCAD Mechanical 2004 DX|Company: Autodesk"
 90
    32768
280
     0
281
     0
  0
CLASS
  1
ACMBOMSTANDARDANSI
  2
AcmBOMStdANSI
  3
"Amdt_StdImp|Product Description: AutoCAD Mechanical 2004 DX|Company: Autodesk"
 90
    32768
280
     0
281
     0
  0
CLASS
  1
ACMSTANDARDBSI
  2
AcmStandardBSI
  3
"Amdt_StdImp|Product Description: AutoCAD Mechanical 2004 DX|Company: Autodesk"
 90
    32768
280
     0
281
     0
  0
CLASS
  1
ACMSURFSTANDARDBSI
  2
AcmSurfTextStdBSI
  3
"Amdt_StdImp|Product Description: AutoCAD Mechanical 2004 DX|Company: Autodesk"
 90
    32768
280
     0
281
     0
  0
CLASS
  1
ACMFCFSTANDARDBSI
  2
AcmFCFStdBSI
  3
"Amdt_StdImp|Product Description: AutoCAD Mechanical 2004 DX|Company: Autodesk"
 90
    32768
280
     0
281
     0
  0
CLASS
  1
ACMWELDSTANDARDBSI
  2
AcmWeldingStdBSI
  3
"Amdt_StdImp|Product Description: AutoCAD Mechanical 2004 DX|Company: Autodesk"
 90
    32768
280
     0
281
     0
  0
CLASS
  1
ACMIDSTANDARDBSI
  2
AcmIdStdBSI
  3
"Amdt_StdImp|Product Description: AutoCAD Mechanical 2004 DX|Company: Autodesk"
 90
    32768
280
     0
281
     0
  0
CLASS
  1
ACMDATUMSTANDARDBSI
  2
AcmDatumStdBSI
  3
"Amdt_StdImp|Product Description: AutoCAD Mechanical 2004 DX|Company: Autodesk"
 90
    32768
280
     0
281
     0
  0
CLASS
  1
ACMBOMSTANDARDBSI
  2
AcmBOMStdBSI
  3
"Amdt_StdImp|Product Description: AutoCAD Mechanical 2004 DX|Company: Autodesk"
 90
    32768
280
     0
281
     0
  0
CLASS
  1
STDPART2D
  2
AmgStdPart
  3
"AmgStdPart|Product Description: AutoCAD Mechanical 2000|Company: Autodesk"
 90
    33791
280
     0
281
     1
  0
CLASS
  1
PLOTSETTINGS
  2
AcDbPlotSettings
  3
ObjectDBX Classes
 90
        0
280
     0
281
     0
  0
CLASS
  1
TABLESTYLE
  2
AcDbTableStyle
  3
ObjectDBX Classes
 90
     2047
280
     0
281
     0
  0
CLASS
  1
ACGREFMASTER
  2
AcGrefMaster
  3
AcAttribServices
 90
        0
280
     0
281
     0
  0
CLASS
  1
AM_DRAWING_MGR
  2
AcDmDwgMgr
  3
AcMechDwgViewMgmt
 90
        0
280
     0
281
     0
  0
CLASS
  1
AM_DWG_DOCUMENT
  2
AcDmDwgDocument
  3
AcMechDwgViewMgmt
 90
        0
280
     0
281
     0
  0
CLASS
  1
AM_DWG_SHEET
  2
AcDmSheet
  3
AcMechDwgViewMgmt
 90
        0
280
     0
281
     0
  0
CLASS
  1
AM_VIEWDIMPARMAP
  2
AcDmViewDimParMap
  3
AcMechDwgViewMgmt
 90
        0
280
     0
281
     0
  0
CLASS
  1
AM_DWGMGR_NAME
  2
AcDmDwgMgrName
  3
AcMechDwgViewMgmt
 90
        0
280
     0
281
     0
  0
CLASS
  1
ACGREFACADMASTER
  2
AcGrefacadMaster
  3
AcGrefServices
 90
        0
280
     0
281
     0
  0
CLASS
  1
AMDTMENUSTATEMGR
  2
AmdtMenuStateMgr
  3
McadcomServices
 90
        0
280
     0
281
     0
  0
CLASS
  1
AMDTMCOMMENUSTATE
  2
AmdtMcomMenuState
  3
McadcomServices
 90
        0
280
     0
281
     0
  0
CLASS
  1
AMIMASTER
  2
AmiMaster
  3
AmiServices
 90
        0
280
     0
281
     0
  0
CLASS
  1
MAPIAMMOUDLE
  2
MApiAmModule
  3
MApiAmServices
 90
        0
280
     0
281
     0
  0
CLASS
  1
AMDTADMENUSTATE
  2
AmdtAdMenuState
  3
DesignerServices
 90
        0
280
     0
281
     0
  0
CLASS
  1
ADAPPL
  2
AcAdAppl
  3
DesignerServices
 90
        0
280
     0
281
     0
  0
CLASS
  1
DEPMGR
  2
AcAdDepMgr
  3
DesignerServices
 90
        0
280
     0
281
     0
  0
CLASS
  1
PARAMMGR
  2
AcAdParamMgr
  3
DesignerServices
 90
        0
280
     0
281
     0
  0
CLASS
  1
PARAMSCOPE
  2
AcAdParamScope
  3
DesignerServices
 90
        0
280
     0
281
     0
  0
CLASS
  1
NAMEDAPPL
  2
AcAdNamedAppl
  3
DesignerServices
 90
        0
280
     0
281
     0
  0
CLASS
  1
AMDTDMMENUSTATE
  2
AmdtDmMenuState
  3
AcMechDwgViewMgmt
 90
        0
280
     0
281
     0
  0
CLASS
  1
AMDTAMMENUSTATE
  2
AmdtAmMenuState
  3
DesignerAssemblies
 90
        0
280
     0
281
     0
  0
CLASS
  1
ACAMPROJECT
  2
AcAmProject
  3
DesignerAssemblies
 90
        0
280
     0
281
     0
  0
CLASS
  1
ACAMGRCOMPDEF
  2
AcAmGrCompDef
  3
DesignerAssemblies
 90
        0
280
     0
281
     0
  0
CLASS
  1
ACCMCONTEXT
  2
AcCmContext
  3
DesignerAssemblies
 90
        0
280
     0
281
     0
  0
CLASS
  1
ACAMCOMPDEF
  2
AcAmCompDef
  3
DesignerAssemblies
 90
        0
280
     0
281
     0
  0
CLASS
  1
ACAMCOMPDEFMGR
  2
AcAmCompDefMgr
  3
DesignerAssemblies
 90
        0
280
     0
281
     0
  0
CLASS
  1
AMCONTEXTMGR
  2
AcAmContextMgr
  3
DesignerAssemblies
 90
        0
280
     0
281
     0
  0
CLASS
  1
ACAMCONTEXTMODELER
  2
AcAmContextModeler
  3
DesignerAssemblies
 90
        0
280
     0
281
     0
  0
CLASS
  1
CATALOGSTATE
  2
AcAmCatalogState
  3
DesignerAssemblies
 90
        0
280
     0
281
     0
  0
CLASS
  1
ACAMGRCOMPDEFSET
  2
AcAmGrCompDefSet
  3
DesignerAssemblies
 90
        0
280
     0
281
     0
  0
CLASS
  1
AMDTBROWSERDBTAB
  2
AmdtBrowserDbTab
  3
McadcomServices
 90
        0
280
     0
281
     0
  0
CLASS
  1
CBROWSERAPPOBJECT
  2
CBrowserAppObject
  3
McadcomServices
 90
        0
280
     0
281
     0
  0
CLASS
  1
DM_PLACEHOLDER
  2
AcDmSelsetPlaceholder
  3
AcMechDwgViewMgmt
 90
        0
280
     0
281
     0
  0
CLASS
  1
ACMSTANDARDISO
  2
AcmStandardISO
  3
"Amdt_StdImp|Product Description: AutoCAD Mechanical 2004 DX|Company: Autodesk"
 90
        0
280
     0
281
     0
  0
CLASS
  1
AMDTEDGESTANDARDISO
  2
AmdtEdgeStdISO
  3
"Amdt_StdImp|Product Description: AutoCAD Mechanical 2004 DX|Company: Autodesk"
 90
        0
280
     0
281
     0
  0
CLASS
  1
ACMSURFSTANDARDISO
  2
AcmSurfTextStdISO
  3
"Amdt_StdImp|Product Description: AutoCAD Mechanical 2004 DX|Company: Autodesk"
 90
        0
280
     0
281
     0
  0
CLASS
  1
ACMFCFSTANDARDISO
  2
AcmFCFStdISO
  3
"Amdt_StdImp|Product Description: AutoCAD Mechanical 2004 DX|Company: Autodesk"
 90
        0
280
     0
281
     0
  0
CLASS
  1
ACMWELDSTANDARDISO
  2
AcmWeldingStdISO
  3
"Amdt_StdImp|Product Description: AutoCAD Mechanical 2004 DX|Company: Autodesk"
 90
        0
280
     0
281
     0
  0
CLASS
  1
ACMIDSTANDARDISO
  2
AcmIdStdISO
  3
"Amdt_StdImp|Product Description: AutoCAD Mechanical 2004 DX|Company: Autodesk"
 90
        0
280
     0
281
     0
  0
CLASS
  1
ACMDATUMSTANDARDISO
  2
AcmDatumStdISO
  3
"Amdt_StdImp|Product Description: AutoCAD Mechanical 2004 DX|Company: Autodesk"
 90
        0
280
     0
281
     0
  0
CLASS
  1
ACMBOMSTANDARDISO
  2
AcmBOMStdISO
  3
"Amdt_StdImp|Product Description: AutoCAD Mechanical 2004 DX|Company: Autodesk"
 90
        0
280
     0
281
     0
  0
CLASS
  1
ACMDETAILSTANDARDISO
  2
AmdtDetailSymStdISO
  3
"Amdt_StdImp|Product Description: AutoCAD Mechanical 2004 DX|Company: Autodesk"
 90
        0
280
     0
281
     0
  0
CLASS
  1
ACMSECTIONSTANDARDISO
  2
AmdtSectionSymStdISO
  3
"Amdt_StdImp|Product Description: AutoCAD Mechanical 2004 DX|Company: Autodesk"
 90
        0
280
     0
281
     0
  0
CLASS
  1
ACMCENTERLINESTANDARDISO
  2
AmdtCenterLineStdISO
  3
"Amdt_StdImp|Product Description: AutoCAD Mechanical 2004 DX|Company: Autodesk"
 90
        0
280
     0
281
     0
  0
CLASS
  1
ACMNOTESTANDARDISO
  2
AmdtNoteStdISO
  3
"Amdt_StdImp|Product Description: AutoCAD Mechanical 2004 DX|Company: Autodesk"
 90
        0
280
     0
281
     0
  0
CLASS
  1
AMDTNOTETEMPLATEDB
  2
AmdtNoteTemplateDB
  3
AMDT_STDIMP_MODULE_NAME
 90
        0
280
     0
281
     0
  0
CLASS
  1
ACAMGLAYSTD
  2
AcAmgLayStd
  3
"AcAmgLayStd|Product Description: AutoCAD Mechanical 2000|Company: Autodesk"
 90
        0
280
     0
281
     0
  0
CLASS
  1
ACAMGDIMSTD
  2
AcAmgDimStd
  3
"AcAmgDimStd|Product Description: AutoCAD Mechanical 2000|Company: Autodesk"
 90
        0
280
     0
281
     0
  0
CLASS
  1
ACAMGHOLECHARTSTDISO
  2
AcAmgHoleChartStdISO
  3
ACMSYMBB_MODULE_NAME
 90
        0
280
     0
281
     0
  0
CLASS
  1
ACAMGTITLESTD
  2
AcAmgTitleStd
  3
"TITLEAPP"
 90
        0
280
     0
281
     0
  0
CLASS
  1
ACMTHREADLINESTANDARDISO
  2
AmdtThreadLineStdISO
  3
"Amdt_StdImp|Product Description: AutoCAD Mechanical 2004 DX|Company: Autodesk"
 90
        0
280
     0
281
     0
  0
CLASS
  1
ACMFCFSTANDARDJIS98
  2
AcmFCFStdJIS98
  3
"Amdt_StdImp|Product Description: AutoCAD Mechanical 2004 DX|Company: Autodesk"
 90
        0
280
     0
281
     0
  0
CLASS
  1
ACMDETAILSTANDARDJIS
  2
AmdtDetailSymStdJIS
  3
"Amdt_StdImp|Product Description: AutoCAD Mechanical 2004 DX|Company: Autodesk"
 90
        0
280
     0
281
     0
  0
CLASS
  1
ACMSECTIONSTANDARDJIS
  2
AmdtSectionSymStdJIS
  3
"Amdt_StdImp|Product Description: AutoCAD Mechanical 2004 DX|Company: Autodesk"
 90
        0
280
     0
281
     0
  0
CLASS
  1
ACMCENTERLINESTANDARDJIS
  2
AmdtCenterLineStdJIS
  3
"Amdt_StdImp|Product Description: AutoCAD Mechanical 2004 DX|Company: Autodesk"
 90
        0
280
     0
281
     0
  0
CLASS
  1
ACMTHREADLINESTANDARDJIS
  2
AmdtThreadLineStdJIS
  3
"Amdt_StdImp|Product Description: AutoCAD Mechanical 2004 DX|Company: Autodesk"
 90
        0
280
     0
281
     0
  0
CLASS
  1
ACMNOTESTANDARDJIS
  2
AmdtNoteStdJIS
  3
"Amdt_StdImp|Product Description: AutoCAD Mechanical 2004 DX|Company: Autodesk"
 90
        0
280
     0
281
     0
  0
CLASS
  1
ACAMGHOLECHARTSTDJIS
  2
AcAmgHoleChartStdJIS
  3
ACMSYMBB_MODULE_NAME
 90
        0
280
     0
281
     0
  0
ENDSEC
  0
SECTION
  2
TABLES
  0
TABLE
  2
VPORT
  5
8
330
0
100
AcDbSymbolTable
 70
     3
  0
VPORT
  5
879A
330
8
100
AcDbSymbolTableRecord
100
AcDbViewportTableRecord
  2
*Active
 70
     0
 10
0.0
 20
0.0
 11
1.0
 21
1.0
 12
-68.45399477920977
 22
-3.520791469760396
 13
0.0
 23
0.0
 14
2.5
 24
2.5
 15
10.0
 25
10.0
 16
0.0
 26
0.0
 36
1.0
 17
0.0
 27
0.0
 37
0.0
 40
109.2231526482593
 41
1.552631578947368
 42
50.0
 43
0.0
 44
0.0
 50
0.0
 51
0.0
 71
     0
 72
   100
 73
     1
 74
     3
 75
     0
 76
     0
 77
     0
 78
     0
281
     0
 65
     1
110
-0.0000000000002682
120
0.000000000000161
130
0.0
111
1.0
121
0.000000000000002
131
0.0
112
-0.000000000000002
122
1.0
132
0.0
 79
     0
146
0.0
  0
ENDTAB
  0
TABLE
  2
LTYPE
  5
5
330
0
100
AcDbSymbolTable
 70
    17
  0
LTYPE
  5
14
330
5
100
AcDbSymbolTableRecord
100
AcDbLinetypeTableRecord
  2
BYBLOCK
 70
     0
  3

 72
    65
 73
     0
 40
0.0
  0
LTYPE
  5
15
330
5
100
AcDbSymbolTableRecord
100
AcDbLinetypeTableRecord
  2
BYLAYER
 70
     0
  3

 72
    65
 73
     0
 40
0.0
  0
LTYPE
  5
16
330
5
100
AcDbSymbolTableRecord
100
AcDbLinetypeTableRecord
  2
CONTINUOUS
 70
     0
  3
Solid line
 72
    65
 73
     0
 40
0.0
  0
LTYPE
  5
4B
330
5
100
AcDbSymbolTableRecord
100
AcDbLinetypeTableRecord
  2
AM_ISO02W050
 70
     0
  3
__ __ __ __ __ __ __ __ __ __ __ __ __ __ __
 72
    65
 73
     2
 40
7.5
 49
6.0
 74
     0
 49
-1.5
 74
     0
  0
LTYPE
  5
4C
330
5
100
AcDbSymbolTableRecord
100
AcDbLinetypeTableRecord
  2
AM_ISO08W050
 70
     0
  3
____ . ____ . ____ . ____ . ____ . ____ . ____
 72
    65
 73
     4
 40
18.0
 49
12.0
 74
     0
 49
-1.5
 74
     0
 49
3.0
 74
     0
 49
-1.5
 74
     0
  0
LTYPE
  5
4D
330
5
100
AcDbSymbolTableRecord
100
AcDbLinetypeTableRecord
  2
AM_ISO09W050
 70
     0
  3
_____ . . _____ . . _____ . . ____ .. ____
 72
    65
 73
     6
 40
22.5
 49
12.0
 74
     0
 49
-1.5
 74
     0
 49
3.0
 74
     0
 49
-1.5
 74
     0
 49
3.0
 74
     0
 49
-1.5
 74
     0
  0
LTYPE
  5
4E
330
5
100
AcDbSymbolTableRecord
100
AcDbLinetypeTableRecord
  2
Amconstr
 70
     0
  3
_______________________
 72
    65
 73
     2
 40
9999.0
 49
9999.0
 74
     0
 49
0.0
 74
     0
  0
LTYPE
  5
4F
330
5
100
AcDbSymbolTableRecord
100
AcDbLinetypeTableRecord
  2
AM_ISO02W050x2
 70
     0
  3
 _ _ _ _ _ _ _ _ _ _ _ _
 72
    65
 73
     2
 40
3.75
 49
3.0
 74
     0
 49
-0.75
 74
     0
  0
LTYPE
  5
50
330
5
100
AcDbSymbolTableRecord
100
AcDbLinetypeTableRecord
  2
AM_ISO08W050x2
 70
     0
  3
__ . __ . __ . __ . __ . __
 72
    65
 73
     4
 40
9.0
 49
6.0
 74
     0
 49
-0.75
 74
     0
 49
1.5
 74
     0
 49
-0.75
 74
     0
  0
LTYPE
  5
53
330
5
100
AcDbSymbolTableRecord
100
AcDbLinetypeTableRecord
  2
Amzigzag
 70
     0
  3
/\/-/\/-/\/-/\/-/\/-/\/
 72
    65
 73
     2
 40
11.0001
 49
0.0001
 74
     4
 75
   135
340
52
 46
0.04
 50
0.0
 44
0.0
 45
0.0
 49
-11.0
 74
     0
  0
LTYPE
  5
166
330
5
100
AcDbSymbolTableRecord
100
AcDbLinetypeTableRecord
  2
ACJISTGL
 70
     0
  3
_ _ _ _ _
 72
    65
 73
     2
 40
3.0
 49
2.0
 74
     0
 49
-1.0
 74
     0
  0
LTYPE
  5
26A
330
5
100
AcDbSymbolTableRecord
100
AcDbLinetypeTableRecord
  2
ACJISTGB
 70
     0
  3
__ . . __ . .
 72
    65
 73
     6
 40
9.0
 49
4.0
 74
     0
 49
-1.0
 74
     0
 49
1.0
 74
     0
 49
-1.0
 74
     0
 49
1.0
 74
     0
 49
-1.0
 74
     0
  0
LTYPE
  5
8712
330
5
100
AcDbSymbolTableRecord
100
AcDbLinetypeTableRecord
  2
HIDDEN
 70
     0
  3
Hidden __ __ __ __ __ __ __ __ __ __ __ __ __ _
 72
    65
 73
     2
 40
9.524999999999998
 49
6.349999999999999
 74
     0
 49
-3.174999999999999
 74
     0
  0
LTYPE
  5
8713
330
5
100
AcDbSymbolTableRecord
100
AcDbLinetypeTableRecord
  2
PHANTOM2
 70
     0
  3
Phantom (.5x) ___ _ _ ___ _ _ ___ _ _ ___ _ _
 72
    65
 73
     6
 40
31.75
 49
15.875
 74
     0
 49
-3.174999999999999
 74
     0
 49
3.174999999999999
 74
     0
 49
-3.174999999999999
 74
     0
 49
3.174999999999999
 74
     0
 49
-3.174999999999999
 74
     0
  0
LTYPE
  5
8714
330
5
100
AcDbSymbolTableRecord
100
AcDbLinetypeTableRecord
  2
CENTER
 70
     0
  3
__ . __
 72
    65
 73
     4
 40
7.0
 49
4.0
 74
     0
 49
-1.0
 74
     0
 49
1.0
 74
     0
 49
-1.0
 74
     0
  0
LTYPE
  5
8745
330
5
100
AcDbSymbolTableRecord
100
AcDbLinetypeTableRecord
  2
ACISOWELD
 70
     0
  3
_ _ _ _ _
 72
    65
 73
     2
 40
2.0
 49
2.0
 74
     0
 49
-1.0
 74
     0
  0
LTYPE
  5
8748
330
5
100
AcDbSymbolTableRecord
100
AcDbLinetypeTableRecord
  2
ACISOTGB
 70
     0
  3
__ . . __ . .
 72
    65
 73
     6
 40
9.0
 49
4.0
 74
     0
 49
-1.0
 74
     0
 49
1.0
 74
     0
 49
-1.0
 74
     0
 49
1.0
 74
     0
 49
-1.0
 74
     0
  0
LTYPE
  5
8749
330
5
100
AcDbSymbolTableRecord
100
AcDbLinetypeTableRecord
  2
ACISOTGL
 70
     0
  3
_ _ _ _ _
 72
    65
 73
     2
 40
3.0
 49
2.0
 74
     0
 49
-1.0
 74
     0
  0
LTYPE
  5
8772
330
5
100
AcDbSymbolTableRecord
100
AcDbLinetypeTableRecord
  2
ACJISWELD
 70
     0
  3
_ _ _ _ _
 72
    65
 73
     2
 40
2.0
 49
2.0
 74
     0
 49
-1.0
 74
     0
  0
ENDTAB
  0
TABLE
  2
LAYER
  5
2
330
0
100
AcDbSymbolTable
 70
     7
  0
LAYER
  5
10
330
2
100
AcDbSymbolTableRecord
100
AcDbLayerTableRecord
  2
0
 70
     0
 62
     7
  6
CONTINUOUS
370
    -3
390
F
  0
LAYER
  5
3F9
330
2
100
AcDbSymbolTableRecord
100
AcDbLayerTableRecord
  2
AM_0
 70
     0
 62
     7
  6
CONTINUOUS
370
    -3
390
F
  0
LAYER
  5
BA4
330
2
100
AcDbSymbolTableRecord
100
AcDbLayerTableRecord
  2
AM_5
 70
     0
 62
     3
  6
CONTINUOUS
370
    -3
390
F
  0
LAYER
  5
BA6
330
2
100
AcDbSymbolTableRecord
100
AcDbLayerTableRecord
  2
AM_7
 70
     0
 62
     4
  6
AM_ISO08W050
370
    -3
390
F
  0
LAYER
  5
E64
330
2
100
AcDbSymbolTableRecord
100
AcDbLayerTableRecord
  2
AM_6
 70
     0
 62
     2
  6
CONTINUOUS
370
    -3
390
F
  0
LAYER
  5
F4D
330
2
100
AcDbSymbolTableRecord
100
AcDbLayerTableRecord
  2
DEFPOINTS
 70
     0
 62
     7
  6
CONTINUOUS
290
     0
370
    -3
390
F
  0
LAYER
  5
4E80
330
2
100
AcDbSymbolTableRecord
100
AcDbLayerTableRecord
  2
AM_11
 70
     0
 62
     3
  6
AM_ISO09W050
370
    -3
390
F
  0
ENDTAB
  0
TABLE
  2
STYLE
  5
3
330
0
100
AcDbSymbolTable
 70
     7
  0
STYLE
  5
11
330
3
100
AcDbSymbolTableRecord
100
AcDbTextStyleTableRecord
  2
STANDARD
 70
     0
 40
0.0
 41
1.0
 50
0.0
 71
     0
 42
2.5
  3
simplex.shx
  4
EXTFONT.SHX
  0
STYLE
  5
52
330
3
100
AcDbSymbolTableRecord
100
AcDbTextStyleTableRecord
  2

 70
     1
 40
0.0
 41
1.0
 50
0.0
 71
     0
 42
2.5
  3
ltypeshp.shx
  4

  0
STYLE
  5
6B
330
3
100
AcDbSymbolTableRecord
100
AcDbTextStyleTableRecord
  2
ASAMI
 70
     0
 40
0.0
 41
1.0
 50
0.0
 71
     0
 42
2.5
  3
simplex.shx
  4
EXTFONT.SHX
  0
STYLE
  5
262
330
3
100
AcDbSymbolTableRecord
100
AcDbTextStyleTableRecord
  2
ACJISTS
 70
     0
 40
1.0
 41
1.0
 50
0.0
 71
     0
 42
1.0
  3
isocp.shx
  4
extfont.shx
  0
STYLE
  5
269
330
3
100
AcDbSymbolTableRecord
100
AcDbTextStyleTableRecord
  2
ACJISGDT
 70
     0
 40
0.0
 41
1.0
 50
0.0
 71
     0
 42
1.0
  3
amgdt.shx
  4

  0
STYLE
  5
873F
330
3
100
AcDbSymbolTableRecord
100
AcDbTextStyleTableRecord
  2
ACISOTS
 70
     0
 40
3.799999999999999
 41
1.0
 50
0.0
 71
     0
 42
3.799999999999999
  3
isocp.shx
  4
extfont.shx
  0
STYLE
  5
8743
330
3
100
AcDbSymbolTableRecord
100
AcDbTextStyleTableRecord
  2
ACISOGDT
 70
     0
 40
0.0
 41
1.0
 50
0.0
 71
     0
 42
2.5
  3
amgdt.shx
  4
extfont.shx
  0
ENDTAB
  0
TABLE
  2
VIEW
  5
6
330
0
100
AcDbSymbolTable
 70
     0
  0
ENDTAB
  0
TABLE
  2
UCS
  5
7
330
0
100
AcDbSymbolTable
 70
     0
  0
ENDTAB
  0
TABLE
  2
APPID
  5
9
330
0
100
AcDbSymbolTable
 70
    33
  0
APPID
  5
12
330
9
100
AcDbSymbolTableRecord
100
AcDbRegAppTableRecord
  2
ACAD
 70
     0
  0
APPID
  5
30
330
9
100
AcDbSymbolTableRecord
100
AcDbRegAppTableRecord
  2
MCAD_NO_VIS
 70
     0
  0
APPID
  5
31
330
9
100
AcDbSymbolTableRecord
100
AcDbRegAppTableRecord
  2
ACAD_TEMP_GRAPHIC
 70
     0
  0
APPID
  5
2C2
330
9
100
AcDbSymbolTableRecord
100
AcDbRegAppTableRecord
  2
GENIUS_GENDTOL_13
 70
     0
  0
APPID
  5
339
330
9
100
AcDbSymbolTableRecord
100
AcDbRegAppTableRecord
  2
GENIUS_GENODEF_13
 70
     0
  0
APPID
  5
33A
330
9
100
AcDbSymbolTableRecord
100
AcDbRegAppTableRecord
  2
GENIUS_GENOBJ-N-RSBK_13
 70
     0
  0
APPID
  5
33B
330
9
100
AcDbSymbolTableRecord
100
AcDbRegAppTableRecord
  2
GENIUS_GENOBJ-N-LIB_13
 70
     0
  0
APPID
  5
33C
330
9
100
AcDbSymbolTableRecord
100
AcDbRegAppTableRecord
  2
GENIUS_GENSCALE_13
 70
     0
  0
APPID
  5
378
330
9
100
AcDbSymbolTableRecord
100
AcDbRegAppTableRecord
  2
GENIUS_GENDIMSH_14
 70
     0
  0
APPID
  5
BB0
330
9
100
AcDbSymbolTableRecord
100
AcDbRegAppTableRecord
  2
GENIUS_GENOBJ-N-CEN_13
 70
     0
  0
APPID
  5
BB1
330
9
100
AcDbSymbolTableRecord
100
AcDbRegAppTableRecord
  2
GENIUS_GENFIL_13
 70
     0
  0
APPID
  5
BB2
330
9
100
AcDbSymbolTableRecord
100
AcDbRegAppTableRecord
  2
GENIUS_GENOBJ-N-CHA_13
 70
     0
  0
APPID
  5
1FAF
330
9
100
AcDbSymbolTableRecord
100
AcDbRegAppTableRecord
  2
GENIUS_GENOBJ-N-CRS_13
 70
     0
  0
APPID
  5
1FB0
330
9
100
AcDbSymbolTableRecord
100
AcDbRegAppTableRecord
  2
GENIUS_GENOENT_13
 70
     0
  0
APPID
  5
1FB1
330
9
100
AcDbSymbolTableRecord
100
AcDbRegAppTableRecord
  2
GENIUS_GENOREF_13
 70
     0
  0
APPID
  5
1FB2
330
9
100
AcDbSymbolTableRecord
100
AcDbRegAppTableRecord
  2
GENIUS_GENOLIS_13
 70
     0
  0
APPID
  5
1FB7
330
9
100
AcDbSymbolTableRecord
100
AcDbRegAppTableRecord
  2
GENIUS_GENOBJ-N-FIL_13
 70
     0
  0
APPID
  5
22A8
330
9
100
AcDbSymbolTableRecord
100
AcDbRegAppTableRecord
  2
GEVID1056506048
 70
     0
  0
APPID
  5
22A9
330
9
100
AcDbSymbolTableRecord
100
AcDbRegAppTableRecord
  2
GEVDC
 70
     0
  0
APPID
  5
22AC
330
9
100
AcDbSymbolTableRecord
100
AcDbRegAppTableRecord
  2
GENIUS_GENBH_13
 70
     0
  0
APPID
  5
22B8
330
9
100
AcDbSymbolTableRecord
100
AcDbRegAppTableRecord
  2
GENIUS_GENOBJ-NBEHI-BHF_13
 70
     0
  0
APPID
  5
22BA
330
9
100
AcDbSymbolTableRecord
100
AcDbRegAppTableRecord
  2
GENIUS_GENOBJ-NBEHI-BHB_13
 70
     0
  0
APPID
  5
35C9
330
9
100
AcDbSymbolTableRecord
100
AcDbRegAppTableRecord
  2
GENIUS_GENREC_14
 70
     0
  0
APPID
  5
35CA
330
9
100
AcDbSymbolTableRecord
100
AcDbRegAppTableRecord
  2
GENIUS_GENOBJ-N-REC_13
 70
     0
  0
APPID
  5
86DB
330
9
100
AcDbSymbolTableRecord
100
AcDbRegAppTableRecord
  2
ACATTRIBSERVICES
 70
     0
  0
APPID
  5
86DC
330
9
100
AcDbSymbolTableRecord
100
AcDbRegAppTableRecord
  2
AD_DRAW
 70
     0
  0
APPID
  5
86DD
330
9
100
AcDbSymbolTableRecord
100
AcDbRegAppTableRecord
  2
DESIGNERASSEMBLIES
 70
     0
  0
APPID
  5
86DE
330
9
100
AcDbSymbolTableRecord
100
AcDbRegAppTableRecord
  2
ACADM_DIM_EDIT
 70
     0
  0
APPID
  5
86DF
330
9
100
AcDbSymbolTableRecord
100
AcDbRegAppTableRecord
  2
AMDT_DM_ADJ
 70
     0
  0
APPID
  5
86E0
330
9
100
AcDbSymbolTableRecord
100
AcDbRegAppTableRecord
  2
ACAD_DSTYLE_DIMTEXT_FILL
 70
     0
  0
APPID
  5
86E1
330
9
100
AcDbSymbolTableRecord
100
AcDbRegAppTableRecord
  2
ACAD_PSEXT
 70
     0
  0
APPID
  5
8794
330
9
100
AcDbSymbolTableRecord
100
AcDbRegAppTableRecord
  2
GENIUS_GENSCREG_15
 70
     0
  0
APPID
  5
8795
330
9
100
AcDbSymbolTableRecord
100
AcDbRegAppTableRecord
  2
GENIUS_GENOBJ-N-SDF_13
 70
     0
  0
ENDTAB
  0
TABLE
  2
DIMSTYLE
  5
A
330
0
100
AcDbSymbolTable
 70
    16
100
AcDbDimStyleTable
 71
     0
  0
DIMSTYLE
105
58
330
A
100
AcDbSymbolTableRecord
100
AcDbDimStyleTableRecord
  2
AM_JIS
 70
     0
  4
"
 41
2.5
 42
1.0
 43
10.0
 44
1.0
 47
0.1
 48
0.1000000001
 73
     0
 74
     0
 77
     3
 78
     8
 79
     2
140
3.799999999999999
141
0.0
143
0.0393701
146
0.71
147
1.5
172
     1
176
   256
177
   256
178
     2
271
     2
272
     2
275
     1
283
     0
284
     8
340
11
341
59
342
59
371
    -1
372
    -1
  0
DIMSTYLE
105
5F
330
A
100
AcDbSymbolTableRecord
100
AcDbDimStyleTableRecord
  2
AM_JIS$3
 70
     0
  4
"
 41
2.5
 42
1.0
 43
10.0
 44
1.0
 47
0.1
 48
0.1000000001
 73
     0
 77
     3
 78
     8
 79
     2
140
3.799999999999999
141
0.0
143
0.0393701
146
0.71
147
1.5
176
   256
177
   256
178
     2
271
     2
272
     2
275
     1
283
     0
284
     8
288
     1
289
     0
340
11
341
59
342
59
371
    -1
372
    -1
  0
DIMSTYLE
105
60
330
A
100
AcDbSymbolTableRecord
100
AcDbDimStyleTableRecord
  2
AM_JIS$4
 70
     0
  4
"
 41
2.5
 42
1.0
 43
10.0
 44
1.0
 47
0.1
 48
0.1000000001
 73
     0
 77
     3
 78
     8
 79
     2
140
3.799999999999999
141
0.0
143
0.0393701
146
0.71
147
1.5
176
   256
177
   256
178
     2
271
     2
272
     2
275
     1
283
     0
284
     8
288
     1
289
     0
340
11
341
59
342
59
371
    -1
372
    -1
  0
DIMSTYLE
105
61
330
A
100
AcDbSymbolTableRecord
100
AcDbDimStyleTableRecord
  2
AM_JIS$6
 70
     0
  4
"
 41
2.5
 42
1.0
 43
10.0
 44
1.0
 47
0.1
 48
0.1000000001
 73
     0
 74
     0
 78
     8
 79
     2
140
3.799999999999999
141
0.0
143
0.0393701
146
0.71
147
1.5
172
     1
176
   256
177
   256
178
     2
271
     2
272
     2
275
     1
283
     0
284
     8
340
11
341
59
342
59
371
    -1
372
    -1
  0
DIMSTYLE
105
62
330
A
100
AcDbSymbolTableRecord
100
AcDbDimStyleTableRecord
  2
AM_JIS$7
 70
     0
  4
"
 41
2.5
 42
1.0
 43
10.0
 44
1.0
 47
0.1
 48
0.1000000001
 73
     0
 74
     0
 77
     3
 78
     8
 79
     2
140
5.0
141
0.0
143
0.0393701
146
0.71
147
1.5
172
     1
176
   256
177
   256
178
     2
271
     2
272
     2
275
     1
283
     0
284
     8
340
11
341
59
342
59
371
    -1
372
    -1
  0
DIMSTYLE
105
63
330
A
100
AcDbSymbolTableRecord
100
AcDbDimStyleTableRecord
  2
AM_JIS$SF
 70
     0
  4
"
 41
2.5
 42
1.0
 43
10.0
 44
1.0
 47
0.1
 48
0.1
 73
     0
 74
     0
 75
     1
 76
     1
 77
     3
 78
     8
 79
     2
140
3.5
141
0.0
143
0.0393701
146
0.71
147
1.5
172
     1
176
   256
177
   256
178
     2
271
     2
272
     3
274
     4
283
     0
284
     8
340
11
341
59
342
59
343
59
344
59
371
    -1
372
    -1
  0
DIMSTYLE
105
68
330
A
100
AcDbSymbolTableRecord
100
AcDbDimStyleTableRecord
  2
AM_JIS$SH
 70
     0
  4
"
 41
2.5
 42
1.0
 43
10.0
 44
1.0
 47
0.1
 48
0.1
 73
     0
 74
     0
 75
     1
 76
     1
 77
     3
 78
     8
 79
     2
140
3.5
141
0.0
143
0.0393701
144
2.0
146
0.71
147
1.5
172
     1
173
     1
176
   256
177
   256
178
     2
271
     2
272
     3
274
     4
283
     0
284
     8
340
11
341
59
342
59
343
64
344
59
371
    -1
372
    -1
  0
DIMSTYLE
105
B34
330
A
100
AcDbSymbolTableRecord
100
AcDbDimStyleTableRecord
  2
AM_JIS$2
 70
     0
  4
"
 40
0.5
 41
2.5
 42
1.0
 43
12.0
 44
1.0
 47
0.1
 48
0.1
 73
     0
 74
     0
 77
     3
 78
     8
140
3.2
141
0.0
143
0.0393701
146
0.71
147
1.5
172
     1
176
   256
177
   256
178
     2
271
     3
272
     3
283
     0
340
6B
341
59
342
59
  0
DIMSTYLE
105
3B48
102
{ACAD_REACTORS
330
8092
330
8154
330
820D
330
82B4
330
834D
330
83EB
102
}
330
A
100
AcDbSymbolTableRecord
100
AcDbDimStyleTableRecord
  2
AM_JIS$0
 70
     0
  4
"
 41
2.5
 42
0.0
 43
10.0
 44
1.0
 47
0.1
 48
0.1000000001
 73
     0
 74
     0
 77
     3
 78
     1
140
3.799999999999998
141
0.0
143
0.0393701
146
0.71
147
1.5
172
     1
176
     3
177
     3
178
     2
271
     2
272
     2
275
     1
283
     0
284
     8
340
11
341
59
342
59
  0
DIMSTYLE
105
875E
330
A
100
AcDbSymbolTableRecord
100
AcDbDimStyleTableRecord
  2
AM_ISO
 70
     0
  4
"
 41
2.5
 42
1.0
 43
10.0
 44
1.0
 47
0.1
 48
0.1
 73
     0
 74
     0
 77
     1
 78
     8
 79
     2
140
3.5
141
0.0
143
0.0393701
146
0.71
147
1.5
172
     1
176
   256
177
   256
178
     2
271
     2
272
     3
274
     4
283
     0
284
     8
340
11
371
    -1
372
    -1
  0
DIMSTYLE
105
875F
330
A
100
AcDbSymbolTableRecord
100
AcDbDimStyleTableRecord
  2
AM_ISO$3
 70
     0
  4
"
 41
2.5
 42
1.0
 43
10.0
 44
1.0
 47
0.1
 48
0.1
 73
     0
 77
     1
 78
     8
 79
     2
140
3.5
141
0.0
143
0.0393701
146
0.71
147
1.5
176
   256
177
   256
178
     2
271
     2
272
     3
274
     4
283
     0
284
     8
288
     1
289
     0
340
11
371
    -1
372
    -1
  0
DIMSTYLE
105
8760
330
A
100
AcDbSymbolTableRecord
100
AcDbDimStyleTableRecord
  2
AM_ISO$4
 70
     0
  4
"
 41
2.5
 42
1.0
 43
10.0
 44
1.0
 47
0.1
 48
0.1
 73
     0
 77
     1
 78
     8
 79
     2
140
3.5
141
0.0
143
0.0393701
146
0.71
147
1.5
176
   256
177
   256
178
     2
271
     2
272
     3
274
     4
283
     0
284
     8
288
     1
289
     0
340
11
371
    -1
372
    -1
  0
DIMSTYLE
105
8761
330
A
100
AcDbSymbolTableRecord
100
AcDbDimStyleTableRecord
  2
AM_ISO$6
 70
     0
  4
"
 41
2.5
 42
1.0
 43
10.0
 44
1.0
 47
0.1
 48
0.1
 73
     0
 74
     0
 78
     8
 79
     2
140
3.5
141
0.0
143
0.0393701
146
0.71
147
1.5
172
     1
176
   256
177
   256
178
     2
271
     2
272
     3
274
     4
283
     0
284
     8
340
11
371
    -1
372
    -1
  0
DIMSTYLE
105
8762
330
A
100
AcDbSymbolTableRecord
100
AcDbDimStyleTableRecord
  2
AM_ISO$7
 70
     0
  4
"
 41
2.5
 42
1.0
 43
10.0
 44
1.0
 47
0.1
 48
0.1
 73
     0
 74
     0
 77
     1
 78
     8
 79
     2
140
5.0
141
0.0
143
0.0393701
146
0.71
147
1.5
172
     1
176
   256
177
   256
178
     2
271
     2
272
     3
274
     4
283
     0
284
     8
340
11
371
    -1
372
    -1
  0
DIMSTYLE
105
8763
330
A
100
AcDbSymbolTableRecord
100
AcDbDimStyleTableRecord
  2
AM_ISO$SF
 70
     0
  4
"
 41
2.5
 42
1.0
 43
10.0
 44
1.0
 47
0.1
 48
0.1
 73
     0
 74
     0
 75
     1
 76
     1
 77
     1
 78
     8
 79
     2
140
3.5
141
0.0
143
0.0393701
146
0.71
147
1.5
172
     1
176
   256
177
   256
178
     2
271
     2
272
     3
274
     4
283
     0
284
     8
340
11
371
    -1
372
    -1
  0
DIMSTYLE
105
8764
330
A
100
AcDbSymbolTableRecord
100
AcDbDimStyleTableRecord
  2
AM_ISO$SH
 70
     0
  4
"
 41
2.5
 42
1.0
 43
10.0
 44
1.0
 47
0.1
 48
0.1
 73
     0
 74
     0
 75
     1
 76
     1
 77
     1
 78
     8
 79
     2
140
3.5
141
0.0
143
0.0393701
144
2.0
146
0.71
147
1.5
172
     1
173
     1
176
   256
177
   256
178
     2
271
     2
272
     3
274
     4
283
     0
284
     8
340
11
343
64
371
    -1
372
    -1
  0
ENDTAB
  0
TABLE
  2
BLOCK_RECORD
  5
1
330
0
100
AcDbSymbolTable
 70
     9
  0
BLOCK_RECORD
  5
1F
102
{ACAD_XDICTIONARY
360
74
102
}
330
1
100
AcDbSymbolTableRecord
100
AcDbBlockTableRecord
  2
*MODEL_SPACE
340
86D6
  0
BLOCK_RECORD
  5
101
102
{ACAD_XDICTIONARY
360
8694
102
}
330
1
100
AcDbSymbolTableRecord
100
AcDbBlockTableRecord
  2
*PAPER_SPACE
340
86D7
  0
BLOCK_RECORD
  5
59
330
1
100
AcDbSymbolTableRecord
100
AcDbBlockTableRecord
  2
_Open30
340
0
  0
BLOCK_RECORD
  5
64
330
1
100
AcDbSymbolTableRecord
100
AcDbBlockTableRecord
  2
GENAXEH
340
0
  0
BLOCK_RECORD
  5
8093
330
1
100
AcDbSymbolTableRecord
100
AcDbBlockTableRecord
  2
*D2
340
0
  0
BLOCK_RECORD
  5
8155
330
1
100
AcDbSymbolTableRecord
100
AcDbBlockTableRecord
  2
*D3
340
0
  0
BLOCK_RECORD
  5
820E
330
1
100
AcDbSymbolTableRecord
100
AcDbBlockTableRecord
  2
*D4
340
0
  0
BLOCK_RECORD
  5
82B5
330
1
100
AcDbSymbolTableRecord
100
AcDbBlockTableRecord
  2
*D5
340
0
  0
BLOCK_RECORD
  5
834E
330
1
100
AcDbSymbolTableRecord
100
AcDbBlockTableRecord
  2
*D6
340
0
  0
BLOCK_RECORD
  5
83EC
330
1
100
AcDbSymbolTableRecord
100
AcDbBlockTableRecord
  2
*D7
340
0
  0
ENDTAB
  0
ENDSEC
  0
SECTION
  2
BLOCKS
  0
BLOCK
  5
20
330
1F
100
AcDbEntity
  8
0
100
AcDbBlockBegin
  2
*MODEL_SPACE
 70
     0
 10
0.0
 20
0.0
 30
0.0
  3
*MODEL_SPACE
  1

  0
ENDBLK
  5
21
330
1F
100
AcDbEntity
  8
0
100
AcDbBlockEnd
  0
BLOCK
  5
103
330
101
100
AcDbEntity
 67
     1
  8
0
100
AcDbBlockBegin
  2
*PAPER_SPACE
 70
     0
 10
0.0
 20
0.0
 30
0.0
  3
*PAPER_SPACE
  1

  0
ENDBLK
  5
104
330
101
100
AcDbEntity
 67
     1
  8
0
100
AcDbBlockEnd
  0
BLOCK
  5
8786
330
59
100
AcDbEntity
  8
0
100
AcDbBlockBegin
  2
_Open30
 70
     0
 10
0.0
 20
0.0
 30
0.0
  3
_Open30
  1

  0
LINE
  5
8787
330
59
100
AcDbEntity
  8
0
  6
ByBlock
 62
     0
370
    -2
100
AcDbLine
 10
-1.0
 20
0.26794919
 30
0.0
 11
0.0
 21
0.0
 31
0.0
  0
LINE
  5
8788
330
59
100
AcDbEntity
  8
0
  6
ByBlock
 62
     0
370
    -2
100
AcDbLine
 10
0.0
 20
0.0
 30
0.0
 11
-1.0
 21
-0.26794919
 31
0.0
  0
LINE
  5
8789
330
59
100
AcDbEntity
  8
0
  6
ByBlock
 62
     0
370
    -2
100
AcDbLine
 10
0.0
 20
0.0
 30
0.0
 11
-1.0
 21
0.0
 31
0.0
  0
ENDBLK
  5
878A
330
59
100
AcDbEntity
  8
0
100
AcDbBlockEnd
  0
BLOCK
  5
8766
330
64
100
AcDbEntity
  8
0
100
AcDbBlockBegin
  2
GENAXEH
 70
     0
 10
0.0
 20
0.0
 30
0.0
  3
GENAXEH
  1

  0
LINE
  5
8767
330
64
100
AcDbEntity
  8
0
100
AcDbLine
 10
-1.0
 20
0.0
 30
0.0
 11
1.0
 21
0.0
 31
0.0
  0
ENDBLK
  5
8768
330
64
100
AcDbEntity
  8
0
100
AcDbBlockEnd
  0
BLOCK
  5
809D
330
8093
100
AcDbEntity
  8
0
100
AcDbBlockBegin
  2
*D2
 70
     1
 10
0.0
 20
0.0
 30
0.0
  3
*D2
  1

  0
LINE
  5
8696
330
8093
100
AcDbEntity
  8
AM_5
100
AcDbLine
 10
-35.00000000000031
 20
12.86091035588192
 30
0.0
 11
-35.00000000000032
 21
20.00000381469758
 31
0.0
  0
LINE
  5
8697
330
8093
100
AcDbEntity
  8
AM_5
100
AcDbLine
 10
-0.0000000000003363
 20
12.93000030517517
 30
0.0
 11
-0.0000000000003376
 21
20.00000381469759
 31
0.0
  0
LINE
  5
8698
330
8093
100
AcDbEntity
  8
AM_5
100
AcDbLine
 10
-33.75000000000032
 20
19.50000381469759
 30
0.0
 11
-1.250000000000336
 21
19.50000381469759
 31
0.0
  0
INSERT
  5
8699
330
8093
100
AcDbEntity
  8
AM_5
100
AcDbBlockReference
  2
_Open30
 10
-35.00000000000032
 20
19.50000381469759
 30
0.0
 41
1.25
 42
1.25
 43
1.25
 50
180.0
  0
INSERT
  5
869A
330
8093
100
AcDbEntity
  8
AM_5
100
AcDbBlockReference
  2
_Open30
 10
-0.0000000000003375
 20
19.50000381469759
 30
0.0
 41
1.25
 42
1.25
 43
1.25
  0
MTEXT
  5
869B
330
8093
100
AcDbEntity
  8
AM_5
 62
     2
100
AcDbMText
 10
-17.50000000000033
 20
21.05000381469759
 30
0.0
 40
1.6
 41
0.0
 71
     5
 72
     1
  1
35
  7
ASAMI
 73
     1
 44
1.0
1001
ACAD
1000
MTEXTBEGIN
1070
    73
1070
     1
1070
    44
1040
1.0
1070
    74
1070
     0
1000
MTEXTEND
  0
POINT
  5
869C
330
8093
100
AcDbEntity
  8
DEFPOINTS
 62
     0
100
AcDbPoint
 10
-35.0000000000003
 20
12.36091035588199
 30
0.0
  0
POINT
  5
869D
330
8093
100
AcDbEntity
  8
DEFPOINTS
 62
     0
100
AcDbPoint
 10
-0.0000000000003111
 20
12.43000030517517
 30
0.0
  0
POINT
  5
869E
330
8093
100
AcDbEntity
  8
DEFPOINTS
 62
     0
100
AcDbPoint
 10
-0.0000000000002981
 20
19.50000381469759
 30
0.0
  0
ENDBLK
  5
809E
330
8093
100
AcDbEntity
  8
0
100
AcDbBlockEnd
  0
BLOCK
  5
815F
330
8155
100
AcDbEntity
  8
0
100
AcDbBlockBegin
  2
*D3
 70
     1
 10
0.0
 20
0.0
 30
0.0
  3
*D3
  1

  0
LINE
  5
869F
330
8155
100
AcDbEntity
  8
AM_5
100
AcDbLine
 10
-0.0000000000002252
 20
-12.99999999999983
 30
0.0
 11
-0.0000000000002114
 21
-20.00000190734848
 31
0.0
  0
LINE
  5
86A0
330
8155
100
AcDbEntity
  8
AM_5
100
AcDbLine
 10
-45.00000000000022
 20
-11.75
 30
0.0
 11
-45.0000000000002
 21
-20.00000190734857
 31
0.0
  0
LINE
  5
86A1
330
8155
100
AcDbEntity
  8
AM_5
100
AcDbLine
 10
-1.250000000000211
 20
-19.50000190734848
 30
0.0
 11
-43.7500000000002
 21
-19.50000190734857
 31
0.0
  0
INSERT
  5
86A2
330
8155
100
AcDbEntity
  8
AM_5
100
AcDbBlockReference
  2
_Open30
 10
-0.0000000000002124
 20
-19.50000190734848
 30
0.0
 41
1.25
 42
1.25
 43
1.25
 50
0.0000000000001018
  0
INSERT
  5
86A3
330
8155
100
AcDbEntity
  8
AM_5
100
AcDbBlockReference
  2
_Open30
 10
-45.0000000000002
 20
-19.50000190734857
 30
0.0
 41
1.25
 42
1.25
 43
1.25
 50
180.0000000000001
  0
MTEXT
  5
86A4
330
8155
100
AcDbEntity
  8
AM_5
 62
     2
100
AcDbMText
 10
-22.5000000000002
 20
-17.95000190734852
 30
0.0
 40
1.6
 41
0.0
 71
     5
 72
     1
  1
45
  7
ASAMI
 73
     1
 44
1.0
1001
ACAD
1000
MTEXTBEGIN
1070
    73
1070
     1
1070
    44
1040
1.0
1070
    74
1070
     0
1000
MTEXTEND
  0
POINT
  5
86A5
330
8155
100
AcDbEntity
  8
DEFPOINTS
 62
     0
100
AcDbPoint
 10
-0.0000000000002514
 20
-12.49999999999984
 30
0.0
  0
POINT
  5
86A6
330
8155
100
AcDbEntity
  8
DEFPOINTS
 62
     0
100
AcDbPoint
 10
-45.00000000000023
 20
-11.24999999999991
 30
0.0
  0
POINT
  5
86A7
330
8155
100
AcDbEntity
  8
DEFPOINTS
 62
     0
100
AcDbPoint
 10
-45.00000000000023
 20
-19.50000190734848
 30
0.0
  0
ENDBLK
  5
8160
330
8155
100
AcDbEntity
  8
0
100
AcDbBlockEnd
  0
BLOCK
  5
8218
330
820E
100
AcDbEntity
  8
0
100
AcDbBlockBegin
  2
*D4
 70
     1
 10
0.0
 20
0.0
 30
0.0
  3
*D4
  1

  0
LINE
  5
86A8
330
820E
100
AcDbEntity
  8
AM_5
100
AcDbLine
 10
-45.00000000000022
 20
-11.75
 30
0.0
 11
-45.0000000000002
 21
-20.00000190734918
 31
0.0
  0
LINE
  5
86A9
330
820E
100
AcDbEntity
  8
AM_5
100
AcDbLine
 10
-130.0000000000002
 20
-10.66099929809632
 30
0.0
 11
-130.0000000000002
 21
-20.00000190734934
 31
0.0
  0
LINE
  5
86AA
330
820E
100
AcDbEntity
  8
AM_5
100
AcDbLine
 10
-46.2500000000002
 20
-19.50000190734917
 30
0.0
 11
-128.7500000000002
 21
-19.50000190734934
 31
0.0
  0
INSERT
  5
86AB
330
820E
100
AcDbEntity
  8
AM_5
100
AcDbBlockReference
  2
_Open30
 10
-45.0000000000002
 20
-19.50000190734917
 30
0.0
 41
1.25
 42
1.25
 43
1.25
 50
0.0000000000001018
  0
INSERT
  5
86AC
330
820E
100
AcDbEntity
  8
AM_5
100
AcDbBlockReference
  2
_Open30
 10
-130.0000000000002
 20
-19.50000190734935
 30
0.0
 41
1.25
 42
1.25
 43
1.25
 50
180.0000000000001
  0
MTEXT
  5
86AD
330
820E
100
AcDbEntity
  8
AM_5
 62
     2
100
AcDbMText
 10
-87.50000000000019
 20
-17.95000190734926
 30
0.0
 40
1.6
 41
0.0
 71
     5
 72
     1
  1
85
  7
ASAMI
 73
     1
 44
1.0
1001
ACAD
1000
MTEXTBEGIN
1070
    73
1070
     1
1070
    44
1040
1.0
1070
    74
1070
     0
1000
MTEXTEND
  0
POINT
  5
86AE
330
820E
100
AcDbEntity
  8
DEFPOINTS
 62
     0
100
AcDbPoint
 10
-45.00000000000023
 20
-11.24999999999991
 30
0.0
  0
POINT
  5
86AF
330
820E
100
AcDbEntity
  8
DEFPOINTS
 62
     0
100
AcDbPoint
 10
-130.0000000000002
 20
-10.16099929809606
 30
0.0
  0
POINT
  5
86B0
330
820E
100
AcDbEntity
  8
DEFPOINTS
 62
     0
100
AcDbPoint
 10
-130.0000000000002
 20
-19.50000190734908
 30
0.0
  0
ENDBLK
  5
8219
330
820E
100
AcDbEntity
  8
0
100
AcDbBlockEnd
  0
BLOCK
  5
82BF
330
82B5
100
AcDbEntity
  8
0
100
AcDbBlockBegin
  2
*D5
 70
     1
 10
0.0
 20
0.0
 30
0.0
  3
*D5
  1

  0
LINE
  5
86B1
330
82B5
100
AcDbEntity
  8
AM_5
100
AcDbLine
 10
-0.0000000000002252
 20
-12.99999999999983
 30
0.0
 11
-0.0000000000002016
 21
-25.00000190734908
 31
0.0
  0
LINE
  5
86B2
330
82B5
100
AcDbEntity
  8
AM_5
100
AcDbLine
 10
-130.0000000000002
 20
-10.66099929809632
 30
0.0
 11
-130.0000000000001
 21
-25.00000190734935
 31
0.0
  0
LINE
  5
86B3
330
82B5
100
AcDbEntity
  8
AM_5
100
AcDbLine
 10
-1.250000000000202
 20
-24.50000190734909
 30
0.0
 11
-128.7500000000001
 21
-24.50000190734934
 31
0.0
  0
INSERT
  5
86B4
330
82B5
100
AcDbEntity
  8
AM_5
100
AcDbBlockReference
  2
_Open30
 10
-0.0000000000002026
 20
-24.50000190734908
 30
0.0
 41
1.25
 42
1.25
 43
1.25
 50
0.0000000000001018
  0
INSERT
  5
86B5
330
82B5
100
AcDbEntity
  8
AM_5
100
AcDbBlockReference
  2
_Open30
 10
-130.0000000000001
 20
-24.50000190734936
 30
0.0
 41
1.25
 42
1.25
 43
1.25
 50
180.0000000000001
  0
MTEXT
  5
86B6
330
82B5
100
AcDbEntity
  8
AM_5
 62
     2
100
AcDbMText
 10
-65.0000000000002
 20
-22.95000190734922
 30
0.0
 40
1.6
 41
0.0
 71
     5
 72
     1
  1
130
  7
ASAMI
 73
     1
 44
1.0
1001
ACAD
1000
MTEXTBEGIN
1070
    73
1070
     1
1070
    44
1040
1.0
1070
    74
1070
     0
1000
MTEXTEND
  0
POINT
  5
86B7
330
82B5
100
AcDbEntity
  8
DEFPOINTS
 62
     0
100
AcDbPoint
 10
-0.0000000000002514
 20
-12.49999999999984
 30
0.0
  0
POINT
  5
86B8
330
82B5
100
AcDbEntity
  8
DEFPOINTS
 62
     0
100
AcDbPoint
 10
-130.0000000000002
 20
-10.16099929809606
 30
0.0
  0
POINT
  5
86B9
330
82B5
100
AcDbEntity
  8
DEFPOINTS
 62
     0
100
AcDbPoint
 10
-130.0000000000002
 20
-24.50000190734908
 30
0.0
  0
ENDBLK
  5
82C0
330
82B5
100
AcDbEntity
  8
0
100
AcDbBlockEnd
  0
BLOCK
  5
8358
330
834E
100
AcDbEntity
  8
0
100
AcDbBlockBegin
  2
*D6
 70
     1
 10
0.0
 20
0.0
 30
0.0
  3
*D6
  1

  0
LINE
  5
86BA
330
834E
100
AcDbEntity
  8
AM_5
100
AcDbLine
 10
0.499999999999673
 20
12.50000000000016
 30
0.0
 11
7.499999999999722
 21
12.50000000000017
 31
0.0
  0
LINE
  5
86BB
330
834E
100
AcDbEntity
  8
AM_5
100
AcDbLine
 10
0.4999999999997764
 20
-12.49999999999983
 30
0.0
 11
7.49999999999977
 21
-12.49999999999982
 31
0.0
  0
LINE
  5
86BC
330
834E
100
AcDbEntity
  8
AM_5
100
AcDbLine
 10
6.999999999999723
 20
11.25000000000017
 30
0.0
 11
6.999999999999769
 21
-11.24999999999982
 31
0.0
  0
INSERT
  5
86BD
330
834E
100
AcDbEntity
  8
AM_5
100
AcDbBlockReference
  2
_Open30
 10
6.999999999999722
 20
12.50000000000017
 30
0.0
 41
1.25
 42
1.25
 43
1.25
 50
90.0000000000001
  0
INSERT
  5
86BE
330
834E
100
AcDbEntity
  8
AM_5
100
AcDbBlockReference
  2
_Open30
 10
6.99999999999977
 20
-12.49999999999982
 30
0.0
 41
1.25
 42
1.25
 43
1.25
 50
270.0000000000001
  0
MTEXT
  5
86BF
330
834E
100
AcDbEntity
  8
AM_5
 62
     2
100
AcDbMText
 10
5.449999999999747
 20
0.0000000000001724
 30
0.0
 40
1.6
 41
0.0
 71
     5
 72
     1
  1
%%c25
  7
ASAMI
 11
-0.000000000000002
 21
1.0
 31
0.0
 73
     1
 44
1.0
1001
ACAD
1000
MTEXTBEGIN
1070
    73
1070
     1
1070
    44
1040
1.0
1070
    74
1070
     0
1000
MTEXTEND
  0
POINT
  5
86C0
330
834E
100
AcDbEntity
  8
DEFPOINTS
 62
     0
100
AcDbPoint
 10
-0.0000000000002993
 20
12.50000000000016
 30
0.0
  0
POINT
  5
86C1
330
834E
100
AcDbEntity
  8
DEFPOINTS
 62
     0
100
AcDbPoint
 10
-0.0000000000002514
 20
-12.49999999999984
 30
0.0
  0
POINT
  5
86C2
330
834E
100
AcDbEntity
  8
DEFPOINTS
 62
     0
100
AcDbPoint
 10
6.999999999999743
 20
-12.49999999999984
 30
0.0
  0
ENDBLK
  5
8359
330
834E
100
AcDbEntity
  8
0
100
AcDbBlockEnd
  0
BLOCK
  5
83F6
330
83EC
100
AcDbEntity
  8
0
100
AcDbBlockBegin
  2
*D7
 70
     1
 10
0.0
 20
0.0
 30
0.0
  3
*D7
  1

  0
LINE
  5
86C3
330
83EC
100
AcDbEntity
  8
AM_5
100
AcDbLine
 10
-127.4999961853023
 20
12.50000381469666
 30
0.0
 11
-137.5000000000002
 21
12.50000381469664
 31
0.0
  0
LINE
  5
86C4
330
83EC
100
AcDbEntity
  8
AM_5
100
AcDbLine
 10
-127.4999961853022
 20
-12.50000190734934
 30
0.0
 11
-137.5000000000001
 21
-12.50000190734937
 31
0.0
  0
LINE
  5
86C5
330
83EC
100
AcDbEntity
  8
AM_5
100
AcDbLine
 10
-137.0000000000002
 20
11.25000381469664
 30
0.0
 11
-137.0
 21
-11.25000190734936
 31
0.0
  0
INSERT
  5
86C6
330
83EC
100
AcDbEntity
  8
AM_5
100
AcDbBlockReference
  2
_Open30
 10
-137.0000000000002
 20
12.50000381469664
 30
0.0
 41
1.25
 42
1.25
 43
1.25
 50
90.0000000000001
  0
INSERT
  5
86C7
330
83EC
100
AcDbEntity
  8
AM_5
100
AcDbBlockReference
  2
_Open30
 10
-137.0
 20
-12.50000190734936
 30
0.0
 41
1.25
 42
1.25
 43
1.25
 50
270.0000000000001
  0
MTEXT
  5
86C8
330
83EC
100
AcDbEntity
  8
AM_5
 62
     2
100
AcDbMText
 10
-138.5500000000002
 20
0.0000009536736399
 30
0.0
 40
1.6
 41
0.0
 71
     5
 72
     1
  1
%%c25
  7
ASAMI
 11
-0.000000000000002
 21
1.0
 31
0.0
 73
     1
 44
1.0
1001
ACAD
1000
MTEXTBEGIN
1070
    73
1070
     1
1070
    44
1040
1.0
1070
    74
1070
     0
1000
MTEXTEND
  0
POINT
  5
86C9
330
83EC
100
AcDbEntity
  8
DEFPOINTS
 62
     0
100
AcDbPoint
 10
-126.9999961853022
 20
12.50000381469694
 30
0.0
  0
POINT
  5
86CA
330
83EC
100
AcDbEntity
  8
DEFPOINTS
 62
     0
100
AcDbPoint
 10
-126.9999961853022
 20
-12.50000190734906
 30
0.0
  0
POINT
  5
86CB
330
83EC
100
AcDbEntity
  8
DEFPOINTS
 62
     0
100
AcDbPoint
 10
-137.0000000000002
 20
-12.50000190734906
 30
0.0
  0
ENDBLK
  5
83F7
330
83EC
100
AcDbEntity
  8
0
100
AcDbBlockEnd
  0
ENDSEC
  0
SECTION
  2
ENTITIES
  0
TEXT
  5
388D
330
1F
100
AcDbEntity
  8
AM_6
100
AcDbText
 10
-83.39285714285731
 20
-35.75000190734915
 30
0.0
 40
2.5
  1
WRM20R2535E-S25
 50
359.9999999999998
 51
359.9999999999998
 72
     4
 11
-65.00000000000017
 21
-34.50000190734921
 31
0.0
100
AcDbText
  0
LINE
  5
7C19
330
1F
100
AcDbEntity
  8
AM_7
100
AcDbLine
 10
-134.2168884277342
 20
-0.0000000000000782
 30
0.0
 11
4.614662170409731
 21
0.0000000000001705
 31
0.0
  0
LINE
  5
7C1A
330
1F
100
AcDbEntity
  8
AM_0
100
AcDbLine
 10
-47.16500091552843
 20
12.50000000000007
 30
0.0
 11
-127.0000000000004
 21
12.49999999999895
 31
0.0
  0
LINE
  5
7C1B
330
1F
100
AcDbEntity
  8
AM_0
100
AcDbLine
 10
-127.0
 20
-12.50000000000104
 30
0.0
 11
-47.16500091552806
 21
-12.49999999999991
 31
0.0
  0
SPLINE
  5
7C20
330
1F
100
AcDbEntity
  8
AM_0
100
AcDbSpline
210
0.0
220
0.0
230
1.0
 70
     8
 71
     3
 72
    10
 73
     6
 74
     4
 42
0.0000000001
 43
0.0000000001
 44
0.0000000001
 40
0.0
 40
0.0
 40
0.0
 40
0.0
 40
3.889999389647996
 40
7.393717176961183
 40
8.728737367598501
 40
8.728737367598501
 40
8.728737367598501
 40
8.728737367598501
 10
-9.094001770020437
 20
12.36499977111962
 30
0.0
 10
-7.797232320766334
 20
12.35409481158151
 30
0.0
 10
-5.332464183006765
 20
12.33336776805923
 30
0.0
 10
-2.423971665659652
 20
12.44842594295718
 30
0.0
 10
-0.8110159296395387
 20
12.433984685159
 30
0.0
 10
-0.3659973144544298
 20
12.43000030517673
 30
0.0
 11
-9.094001770020437
 21
12.36499977111962
 31
0.0
 11
-5.20400238037244
 21
12.36499977111966
 31
0.0
 11
-1.701004028321432
 21
12.43599891662672
 31
0.0
 11
-0.3659973144544298
 21
12.43000030517673
 31
0.0
  0
SPLINE
  5
7C21
330
1F
100
AcDbEntity
  8
AM_0
100
AcDbSpline
210
0.0
220
0.0
230
1.0
 70
     8
 71
     3
 72
    10
 73
     6
 74
     4
 42
0.0000000001
 43
0.0000000001
 44
0.0000000001
 40
0.0
 40
0.0
 40
0.0
 40
0.0
 40
3.889999389647996
 40
7.39371725426409
 40
8.728737453473012
 40
8.728737453473012
 40
8.728737453473012
 40
8.728737453473012
 10
-9.094001770020085
 20
-12.36499786376835
 30
0.0
 10
-7.797232310424088
 20
-12.3540921582514
 30
0.0
 10
-5.332464127238009
 20
-12.33336369663129
 30
0.0
 10
-2.42397169040781
 20
-12.44842974493897
 30
0.0
 10
-0.811015931040216
 20
-12.43398550726636
 30
0.0
 10
-0.3659973144540762
 20
-12.43000030517425
 30
0.0
 11
-9.094001770020085
 21
-12.36499786376835
 31
0.0
 11
-5.204002380372088
 21
-12.36499786376831
 31
0.0
 11
-1.701004028321078
 21
-12.43600082397325
 31
0.0
 11
-0.3659973144540762
 21
-12.43000030517425
 31
0.0
  0
SPLINE
  5
7C26
330
1F
100
AcDbEntity
  8
AM_0
100
AcDbSpline
210
0.0
220
0.0
230
1.0
 70
     8
 71
     3
 72
    10
 73
     6
 74
     4
 42
0.0000000001
 43
0.0000000001
 44
0.0000000001
 40
0.0
 40
0.0
 40
0.0
 40
0.0
 40
0.294458907733036
 40
0.7454665935699527
 40
1.140445650622196
 40
1.140445650622196
 40
1.140445650622196
 40
1.140445650622196
 10
-9.094001770020085
 20
-12.36499786376835
 30
0.0
 10
-9.192217054727287
 20
-12.35679583514779
 30
0.0
 10
-9.440863680128618
 20
-12.33603117775227
 30
0.0
 10
-9.78550909411936
 20
-12.10431750602648
 30
0.0
 10
-9.881283154715443
 20
-11.83414148571613
 30
0.0
 10
-9.925998687745089
 20
-11.70800018310439
 30
0.0
 11
-9.094001770020085
 21
-12.36499786376835
 31
0.0
 11
-9.385002136231078
 21
-12.31999969482338
 31
0.0
 11
-9.75699996948308
 21
-12.06499862670838
 31
0.0
 11
-9.925998687745089
 21
-11.70800018310439
 31
0.0
  0
SPLINE
  5
7C27
330
1F
100
AcDbEntity
  8
AM_0
100
AcDbSpline
210
0.0
220
0.0
230
1.0
 70
     8
 71
     3
 72
    10
 73
     6
 74
     4
 42
0.0000000001
 43
0.0000000001
 44
0.0000000001
 40
0.0
 40
0.0
 40
0.0
 40
0.0
 40
0.4141346619029667
 40
0.8642949825348875
 40
1.140065386394227
 40
1.140065386394227
 40
1.140065386394227
 40
1.140065386394227
 10
-9.925998687745403
 20
11.7080001831066
 30
0.0
 10
-9.877950872860969
 20
11.84013811654275
 30
0.0
 10
-9.777675553872798
 20
12.11590868920288
 30
0.0
 10
-9.427914766829159
 20
12.33940454975467
 30
0.0
 10
-9.185928712476266
 20
12.35795335344781
 30
0.0
 10
-9.094001770020437
 20
12.36499977111962
 30
0.0
 11
-9.925998687745403
 21
11.7080001831066
 31
0.0
 11
-9.743999481202427
 21
12.0799999237076
 31
0.0
 11
-9.367000579834435
 21
12.32600021362361
 31
0.0
 11
-9.094001770020437
 21
12.36499977111962
 31
0.0
  0
ELLIPSE
  5
7C62
330
1F
100
AcDbEntity
  8
AM_0
100
AcDbEllipse
 10
-143.0730056762692
 20
-0.0000000000012688
 30
0.0
 11
-143.0820007324139
 21
-0.0000000000020202
 31
0.0
210
0.0
220
0.0
230
1.0
 40
0.0786262418921
 41
3.510766188949037
 42
3.616472793264993
  0
ELLIPSE
  5
7C63
330
1F
100
AcDbEntity
  8
AM_0
100
AcDbEllipse
 10
-24.63700103759826
 20
0.000000000000398
 30
0.0
 11
-0.5268246747978417
 21
-11.24967117974101
 31
0.0
210
0.0
220
0.0
230
1.0
 40
0.0770733725868
 41
1.396757845060313
 42
1.694132921989856
  0
ELLIPSE
  5
7C64
330
1F
100
AcDbEntity
  8
AM_0
100
AcDbEllipse
 10
-33.43699645996127
 20
0.000000000000272
 30
0.0
 11
-0.8882981746388452
 21
-11.249984351501
 31
0.0
210
0.0
220
0.0
230
1.0
 40
0.0434204710822
 41
1.919774011843918
 42
2.216769819330329
  0
ELLIPSE
  5
7C65
330
1F
100
AcDbEntity
  8
AM_0
100
AcDbEllipse
 10
-15.83699798584026
 20
0.000000000000524
 30
0.0
 11
-0.020209940590836
 21
-11.24998089334501
 31
0.0
210
0.0
220
0.0
230
1.0
 40
0.0900446438296999
 41
0.8680881335526859
 42
1.167543555697853
  0
ELLIPSE
  5
7C66
330
1F
100
AcDbEntity
  8
AM_0
100
AcDbEllipse
 10
-38.08699798584025
 20
0.0000000000002121
 30
0.0
 11
-0.8882981746388416
 21
-11.249984351501
 31
0.0
210
0.0
220
0.0
230
1.0
 40
0.0434204710822
 41
1.547707902236458
 42
1.591409218718836
  0
ELLIPSE
  5
7C67
330
1F
100
AcDbEntity
  8
AM_0
100
AcDbEllipse
 10
-7.681003570557264
 20
0.0000000000006327
 30
0.0
 11
143.077744756474
 21
-9.82950938054798
 31
0.0
210
0.0
220
0.0
230
1.0
 40
0.0389010897084
 41
4.585781749405184
 42
4.629645268672247
  0
ELLIPSE
  5
7C68
330
1F
100
AcDbEntity
  8
AM_0
100
AcDbEllipse
 10
1.118995666502728
 20
0.0000000000007658
 30
0.0
 11
143.081780995954
 21
-5.667949624185977
 31
0.0
210
0.0
220
0.0
230
0.9999999999999998
 40
0.067852002086
 41
4.585736551493619
 42
4.629626394504033
  0
ELLIPSE
  5
7C69
330
1F
100
AcDbEntity
  8
AM_0
100
AcDbEllipse
 10
-7.118000030518271
 20
0.0000000000006488
 30
0.0
 11
0.4976155662951623
 21
-11.24999966805999
 31
0.0
210
0.0
220
0.0
230
1.0
 40
0.0785898881895
 41
0.3424155781155544
 42
0.6453735647908975
  0
ELLIPSE
  5
7C6A
330
1F
100
AcDbEntity
  8
AM_0
100
AcDbEllipse
 10
-10.53200149536226
 20
0.0000000000006015
 30
0.0
 11
1.921920359315154
 21
-11.25001401506197
 31
0.0
210
0.0
220
0.0
230
1.0
 40
0.0334706266374
 41
5.789739777660501
 42
5.861934660809798
  0
ELLIPSE
  5
7C6B
330
1F
100
AcDbEntity
  8
AM_0
100
AcDbEllipse
 10
9.918998718260739
 20
0.0000000000008847
 30
0.0
 11
143.0819756072259
 21
-0.0847934169799819
 31
0.0
210
0.0
220
0.0
230
1.0
 40
0.0786262418921
 41
4.583012597477514
 42
4.634887485790491
  0
ELLIPSE
  5
7C6C
330
1F
100
AcDbEntity
  8
AM_0
100
AcDbEllipse
 10
-18.94899749755926
 20
0.0000000000004744
 30
0.0
 11
10.08375804580815
 21
-11.01689759965486
 31
0.0
210
0.0
220
0.0
230
1.0
 40
0.2237025654766
 41
2.443473751931163
 42
2.795115779160181
  0
SPLINE
  5
7C72
330
1F
100
AcDbEntity
  8
AM_0
100
AcDbSpline
210
0.0
220
0.0
230
1.0
 70
     8
 71
     3
 72
    11
 73
     7
 74
     5
 42
0.0000000001
 43
0.0000000001
 44
0.0000000001
 40
0.0
 40
0.0
 40
0.0
 40
0.0
 40
0.7714269768457648
 40
1.652522102602061
 40
2.605852093590632
 40
3.594332875604099
 40
3.594332875604099
 40
3.594332875604099
 40
3.594332875604099
 10
-25.08799743652439
 20
9.893999099732393
 30
0.0
 10
-24.86506421655788
 20
9.765029885961334
 30
0.0
 10
-24.38750498612333
 20
9.488756845597468
 30
0.0
 10
-23.56791476216216
 20
9.189921817196166
 30
0.0
 10
-22.64913660530607
 20
8.971542072808745
 30
0.0
 10
-22.00227969837972
 20
8.928109522154414
 30
0.0
 10
-21.67299652099738
 20
8.906000137330442
 30
0.0
 11
-25.08799743652439
 21
9.893999099732393
 31
0.0
 11
-24.41000366211039
 21
9.525999069214394
 31
0.0
 11
-23.58599853515737
 21
9.213998794556417
 31
0.0
 11
-22.65699768066538
 21
9.000000000000424
 31
0.0
 11
-21.67299652099738
 21
8.906000137330442
 31
0.0
  0
ELLIPSE
  5
7C73
330
1F
100
AcDbEntity
  8
AM_0
100
AcDbEllipse
 10
67.46900177001673
 20
0.0000000000016951
 30
0.0
 11
257.6679166265699
 21
-5.564628411158357
 31
0.0
210
0.0
220
0.0
230
1.0
 40
0.0377917763588
 41
1.949863671687833
 42
1.961138145406554
  0
SPLINE
  5
7C74
330
1F
100
AcDbEntity
  8
AM_0
100
AcDbSpline
210
0.0
220
0.0
230
1.0
 70
     8
 71
     3
 72
    11
 73
     7
 74
     5
 42
0.0000000001
 43
0.0000000001
 44
0.0000000001
 40
0.0
 40
0.0
 40
0.0
 40
0.0
 40
0.6591983871105757
 40
1.429990070805591
 40
2.277632842984099
 40
3.164778154413894
 40
3.164778154413894
 40
3.164778154413894
 40
3.164778154413894
 10
-33.6360015869151
 20
-11.24999999999972
 30
0.0
 10
-33.416291680127
 20
-11.24583533782063
 30
0.0
 10
-32.93967797580386
 20
-11.23680099295447
 30
0.0
 10
-32.18148683018262
 20
-11.19614178289405
 30
0.0
 10
-31.34694641348754
 20
-11.16156700698947
 30
0.0
 10
-30.76870420188877
 20
-11.15391476881595
 30
0.0
 10
-30.47299957275409
 20
-11.15000152587767
 30
0.0
 11
-33.6360015869151
 21
-11.24999999999972
 31
0.0
 11
-32.97699737548909
 21
-11.23400115966771
 31
0.0
 11
-32.20700073242208
 21
-11.19900131225471
 31
0.0
 11
-31.36000061035207
 21
-11.16600036620969
 31
0.0
 11
-30.47299957275409
 21
-11.15000152587767
 31
0.0
  0
SPLINE
  5
7C75
330
1F
100
AcDbEntity
  8
AM_0
100
AcDbSpline
210
0.0
220
0.0
230
1.0
 70
     8
 71
     3
 72
    11
 73
     7
 74
     5
 42
0.0000000001
 43
0.0000000001
 44
0.0000000001
 40
0.0
 40
0.0
 40
0.0
 40
0.0
 40
0.6591984334049456
 40
1.42999011709988
 40
2.277632815022519
 40
3.164778160851631
 40
3.164778160851631
 40
3.164778160851631
 40
3.164778160851631
 10
-33.63600158691539
 20
11.25000000000026
 30
0.0
 10
-33.4162916823023
 20
11.24583459087059
 30
0.0
 10
-32.93967800073932
 20
11.23679862599678
 30
0.0
 10
-32.1814868762454
 20
11.19613933913949
 30
0.0
 10
-31.3469463428911
 20
11.16156813074357
 30
0.0
 10
-30.76870419008377
 20
11.15391388721871
 30
0.0
 10
-30.47299957275438
 20
11.14999961853132
 30
0.0
 11
-33.63600158691539
 21
11.25000000000026
 31
0.0
 11
-32.97699737548938
 21
11.23399925232027
 31
0.0
 11
-32.20700073242241
 21
11.1989994049083
 31
0.0
 11
-31.36000061035238
 21
11.1660003662113
 31
0.0
 11
-30.47299957275438
 21
11.14999961853132
 31
0.0
  0
SPLINE
  5
7C76
330
1F
100
AcDbEntity
  8
AM_0
100
AcDbSpline
210
0.0
220
0.0
230
1.0
 70
     8
 71
     3
 72
    11
 73
     7
 74
     5
 42
0.0000000001
 43
0.0000000001
 44
0.0000000001
 40
0.0
 40
0.0
 40
0.0
 40
0.0
 40
0.7714269768457453
 40
1.652522102602049
 40
2.605852521744459
 40
3.594333485139744
 40
3.594333485139744
 40
3.594333485139744
 40
3.594333485139744
 10
-25.08799743652411
 20
-9.8940010070796
 30
0.0
 10
-24.86506422490726
 20
-9.765031761647085
 30
0.0
 10
-24.38750501235903
 20
-9.488758653459225
 30
0.0
 10
-23.56791450068213
 20
-9.189924156327627
 30
0.0
 10
-22.6491367900399
 20
-8.971541917715596
 30
0.0
 10
-22.00227973224107
 20
-8.928108203985292
 30
0.0
 10
-21.67299652099714
 20
-8.905998229979552
 30
0.0
 11
-25.08799743652411
 21
-9.8940010070796
 31
0.0
 11
-24.41000366211013
 21
-9.526000976561601
 31
0.0
 11
-23.58599853515713
 21
-9.214000701903584
 31
0.0
 11
-22.65699768066514
 21
-8.999999999999568
 31
0.0
 11
-21.67299652099714
 21
-8.905998229979552
 31
0.0
  0
ELLIPSE
  5
7C7B
330
1F
100
AcDbEntity
  8
AM_0
100
AcDbEllipse
 10
-18.94899749755926
 20
0.0000000000004744
 30
0.0
 11
-10.07926930017483
 21
-11.02100446521314
 31
0.0
210
0.0
220
0.0
230
1.0
 40
0.2237029166791
 41
0.3481050299962052
 42
0.6968603566002152
  0
ELLIPSE
  5
7C7C
330
1F
100
AcDbEntity
  8
AM_0
100
AcDbEllipse
 10
-14.26200103759834
 20
5.527999877930549
 30
0.0
 11
1.499343859928998
 21
-0.0443821792339777
 31
0.0
210
0.0
220
0.0
230
1.0
 40
0.3259990708036999
 41
5.631139066847019
 42
6.051303310322668
  0
ELLIPSE
  5
7C7D
330
1F
100
AcDbEntity
  8
AM_0
100
AcDbEllipse
 10
-14.25700378418034
 20
5.715999603272543
 30
0.0
 11
1.497924796217007
 21
-0.0788525750949776
 31
0.0
210
0.0
220
0.0
230
1.0
 40
0.5086668401296
 41
5.625043791928463
 42
5.64196895334626
  0
ELLIPSE
  5
7C7E
330
1F
100
AcDbEntity
  8
AM_0
100
AcDbEllipse
 10
67.46901702880672
 20
0.0000000000016951
 30
0.0
 11
-257.6656291671698
 21
-5.669558529246636
 31
0.0
210
0.0
220
0.0
230
1.0
 40
0.0377917800591
 41
1.178154144928152
 42
1.193222098367744
  0
ELLIPSE
  5
7C7F
330
1F
100
AcDbEntity
  8
AM_0
100
AcDbEllipse
 10
-5.476001739502338
 20
5.618000030518671
 30
0.0
 11
1.499385821071997
 21
-0.0428828743949802
 31
0.0
210
0.0
220
0.0
230
1.0
 40
0.1900001335145
 41
2.122369341243498
 42
3.063077192046116
  0
ELLIPSE
  5
7C80
330
1F
100
AcDbEntity
  8
AM_0
100
AcDbEllipse
 10
-5.476001739502338
 20
5.618000030518671
 30
0.0
 11
1.499385821071997
 21
-0.0428828743949802
 31
0.0
210
0.0
220
0.0
230
1.0
 40
0.1900001335145
 41
0.2132653026718248
 42
1.140863553562872
  0
ELLIPSE
  5
7C81
330
1F
100
AcDbEntity
  8
AM_0
100
AcDbEllipse
 10
-12.20199966430733
 20
5.048000335694573
 30
0.0
 11
-0.0350265948249871
 21
-0.7992334517550011
 31
0.0
210
0.0
220
0.0
230
1.0
 40
0.0787488517733
 41
0.9441528762408347
 42
1.383768705295437
  0
SPLINE
  5
7C82
330
1F
100
AcDbEntity
  8
AM_0
100
AcDbSpline
210
0.0
220
0.0
230
1.0
 70
     8
 71
     3
 72
    11
 73
     7
 74
     5
 42
0.0000000001
 43
0.0000000001
 44
0.0000000001
 40
0.0
 40
0.0
 40
0.0
 40
0.0
 40
0.0601325065181335
 40
0.2331588232012068
 40
0.4933148674626342
 40
0.7995498678939948
 40
0.7995498678939948
 40
0.7995498678939948
 40
0.7995498678939948
 10
-1.268005371094305
 20
3.770000457764726
 30
0.0
 10
-1.269563564445596
 20
3.789994241369012
 30
0.0
 10
-1.275605330357971
 20
3.867518484518752
 30
0.0
 10
-1.266860454080405
 20
4.032119657471546
 30
0.0
 10
-1.260170555530449
 20
4.278329270034135
 30
0.0
 10
-1.252271786700639
 20
4.46699363274319
 30
0.0
 10
-1.248001098633323
 20
4.569000244141729
 30
0.0
 11
-1.268005371094305
 21
3.770000457764726
 31
0.0
 11
-1.272003173829306
 21
3.829999923707727
 31
0.0
 11
-1.269004821778314
 21
4.003000259400724
 31
0.0
 11
-1.260002136231302
 21
4.263000488282729
 31
0.0
 11
-1.248001098633323
 21
4.569000244141729
 31
0.0
  0
ELLIPSE
  5
7C83
330
1F
100
AcDbEntity
  8
AM_0
100
AcDbEllipse
 10
-13.70600128173939
 20
10.37599945068455
 30
0.0
 11
0.1165273429660833
 21
-5.766823894669997
 31
0.0
210
0.0
220
0.0
230
1.0
 40
0.8642508189436998
 41
0.3683888593605245
 42
0.6811984077980038
  0
ELLIPSE
  5
7C84
330
1F
100
AcDbEntity
  8
AM_0
100
AcDbEllipse
 10
-27.74900054931727
 20
0.0000000000003555
 30
0.0
 11
-8.89660688538386
 21
-10.25069332700412
 31
0.0
210
0.0
220
0.0
230
1.0
 40
0.520960845321
 41
0.0459983315131669
 42
0.3969410767066309
  0
ELLIPSE
  5
7C85
330
1F
100
AcDbEntity
  8
AM_0
100
AcDbEllipse
 10
-14.26899719238334
 20
5.701000213623553
 30
0.0
 11
-0.4308929002629871
 21
-0.6740398403140082
 31
0.0
210
0.0
220
0.0
230
1.0
 40
0.0674961234581
 41
0.0307912609828091
 42
0.1552686979340798
  0
ELLIPSE
  5
7C86
330
1F
100
AcDbEntity
  8
AM_0
100
AcDbEllipse
 10
-13.27899932861432
 20
5.069000244141558
 30
0.0
 11
1.690397287143003
 21
-0.2375116164629791
 31
0.0
210
0.0
220
0.0
230
1.0
 40
0.2372585333375
 41
3.660021476566263
 42
3.761227407983301
  0
ELLIPSE
  5
7C87
330
1F
100
AcDbEntity
  8
AM_0
100
AcDbEllipse
 10
-6.722000122071262
 20
0.0000000000006551
 30
0.0
 11
17.72462590210615
 21
-11.25102532044575
 31
0.0
210
0.0
220
0.0
230
1.0
 40
0.0210059565699
 41
3.775390040845153
 42
4.201434503488503
  0
ELLIPSE
  5
7C88
330
1F
100
AcDbEntity
  8
AM_0
100
AcDbEllipse
 10
-8.659999847413256
 20
0.0000000000006242
 30
0.0
 11
-0.0202099405898412
 21
-11.24998089334499
 31
0.0
210
0.0
220
0.0
230
1.0
 40
0.0900443047455
 41
0.1326904023331609
 42
0.3416171214861522
  0
SPLINE
  5
7C89
330
1F
100
AcDbEntity
  8
AM_0
100
AcDbSpline
210
0.0
220
0.0
230
1.0
 70
     8
 71
     3
 72
    11
 73
     7
 74
     5
 42
0.0000000001
 43
0.0000000001
 44
0.0000000001
 40
0.0
 40
0.0
 40
0.0
 40
0.0
 40
0.1075178435637513
 40
0.203559729345039
 40
0.2938079933387762
 40
0.3858124760028368
 40
0.3858124760028368
 40
0.3858124760028368
 40
0.3858124760028368
 10
-9.016998291016102
 20
-9.94100189208836
 30
0.0
 10
-8.991152488144624
 20
-9.916018340094828
 30
0.0
 10
-8.942219543966817
 20
-9.868717864998654
 30
0.0
 10
-8.889906313542216
 20
-9.784655411800235
 30
0.0
 10
-8.863549933319697
 20
-9.69379312307409
 30
0.0
 10
-8.867835500211214
 20
-9.63279443242318
 30
0.0
 10
-8.869998931885122
 20
-9.60200119018437
 30
0.0
 11
-9.016998291016102
 21
-9.94100189208836
 31
0.0
 11
-8.943000793458109
 21
-9.862998962401366
 31
0.0
 11
-8.89300155639712
 21
-9.780998229979363
 31
0.0
 11
-8.868999481202122
 21
-9.694000244139363
 31
0.0
 11
-8.869998931885122
 21
-9.60200119018437
 31
0.0
  0
SPLINE
  5
7C8A
330
1F
100
AcDbEntity
  8
AM_0
100
AcDbSpline
210
0.0
220
0.0
230
1.0
 70
     8
 71
     3
 72
    11
 73
     7
 74
     5
 42
0.0000000001
 43
0.0000000001
 44
0.0000000001
 40
0.0
 40
0.0
 40
0.0
 40
0.0
 40
0.4596579959813058
 40
1.109604078059607
 40
1.841700892929135
 40
2.499942823355057
 40
2.499942823355057
 40
2.499942823355057
 40
2.499942823355057
 10
-8.869998931885122
 20
-9.60200119018437
 30
0.0
 10
-8.949170012699021
 20
-9.465465025400163
 30
0.0
 10
-9.140287223546064
 20
-9.135869790308605
 30
0.0
 10
-9.771717359637865
 20
-8.952547983972737
 30
0.0
 10
-10.46087745372242
 20
-8.911499875141526
 30
0.0
 10
-10.88785290757894
 20
-9.110694930508634
 30
0.0
 10
-11.09000015258813
 20
-9.205001831053419
 30
0.0
 11
-8.869998931885122
 21
-9.60200119018437
 31
0.0
 11
-9.139999389649139
 21
-9.22999954223537
 31
0.0
 11
-9.742000579834135
 21
-8.985000610350386
 31
0.0
 11
-10.47399902343814
 21
-8.972999572752399
 31
0.0
 11
-11.09000015258813
 21
-9.205001831053419
 31
0.0
  0
SPLINE
  5
7C8B
330
1F
100
AcDbEntity
  8
AM_0
100
AcDbSpline
210
0.0
220
0.0
230
1.0
 70
     8
 71
     3
 72
    11
 73
     7
 74
     5
 42
0.0000000001
 43
0.0000000001
 44
0.0000000001
 40
0.0
 40
0.0
 40
0.0
 40
0.0
 40
0.1019693779617491
 40
0.2536952757154007
 40
0.4583216223115092
 40
0.7000017963555563
 40
0.7000017963555563
 40
0.7000017963555563
 40
0.7000017963555563
 10
-8.333000183106094
 20
-10.56600189208836
 30
0.0
 10
-8.345785153335535
 20
-10.53361122420586
 30
0.0
 10
-8.37759359045857
 20
-10.45302468358637
 30
0.0
 10
-8.520566271669281
 20
-10.37641928248372
 30
0.0
 10
-8.706543428653287
 20
-10.3110724524991
 30
0.0
 10
-8.854747269180615
 20
-10.29026617174025
 30
0.0
 10
-8.935001373291093
 20
-10.27899932861236
 30
0.0
 11
-8.333000183106094
 21
-10.56600189208836
 31
0.0
 11
-8.379001617432097
 21
-10.47499847412037
 31
0.0
 11
-8.504001617432098
 21
-10.38899993896336
 31
0.0
 11
-8.696998596192106
 21
-10.32099914550638
 31
0.0
 11
-8.935001373291093
 21
-10.27899932861236
 31
0.0
  0
ELLIPSE
  5
7C8C
330
1F
100
AcDbEntity
  8
AM_0
100
AcDbEllipse
 10
-29.51899719238317
 20
-5.530998229979665
 30
0.0
 11
4.979499726127007
 21
-0.4523448420309329
 31
0.0
210
0.0
220
0.0
230
1.0
 40
0.4954000503730002
 41
1.659296395305453
 42
2.203280360853511
  0
SPLINE
  5
7C8D
330
1F
100
AcDbEntity
  8
AM_0
100
AcDbSpline
210
0.0
220
0.0
230
1.0
 70
     8
 71
     3
 72
    11
 73
     7
 74
     5
 42
0.0000000001
 43
0.0000000001
 44
0.0000000001
 40
0.0
 40
0.0
 40
0.0
 40
0.0
 40
0.2127412673811607
 40
0.4247822492520223
 40
0.6379696964490276
 40
0.8530108282703615
 40
0.8530108282703615
 40
0.8530108282703615
 40
0.8530108282703615
 10
-29.64499664306721
 20
-2.693000793456677
 30
0.0
 10
-29.7148673597363
 20
-2.680722091526373
 30
0.0
 10
-29.85437879796783
 20
-2.656205105762136
 30
0.0
 10
-30.06627003768163
 20
-2.63636315435174
 30
0.0
 10
-30.27960718918457
 20
-2.626148527711693
 30
0.0
 10
-30.42233198809611
 20
-2.630709208699997
 30
0.0
 10
-30.49400329589923
 20
-2.632999420165681
 30
0.0
 11
-29.64499664306721
 21
-2.693000793456677
 31
0.0
 11
-29.85500335693421
 21
-2.659000396727674
 31
0.0
 11
-30.06600189209021
 21
-2.638000488280682
 31
0.0
 11
-30.27899932861422
 21
-2.629001617430685
 31
0.0
 11
-30.49400329589923
 21
-2.632999420165681
 31
0.0
  0
ELLIPSE
  5
7C8E
330
1F
100
AcDbEntity
  8
AM_0
100
AcDbEllipse
 10
41.81299591063672
 20
0.000000000001336
 30
0.0
 11
143.08197560724
 21
-0.0847934169799819
 31
0.0
210
0.0
220
0.0
230
1.0
 40
0.0786262418921
 41
4.369222145341676
 42
4.390574725033718
  0
ELLIPSE
  5
7C8F
330
1F
100
AcDbEntity
  8
AM_0
100
AcDbEllipse
 10
-4.105998992920274
 20
0.0000000000006896
 30
0.0
 11
0.4976155662941605
 21
-11.24999966805999
 31
0.0
210
0.0
220
0.0
230
1.0
 40
0.0785898881895
 41
0.3194851319230483
 42
0.6612307003794231
  0
SPLINE
  5
7C90
330
1F
100
AcDbEntity
  8
AM_0
100
AcDbSpline
210
0.0
220
0.0
230
1.0
 70
     8
 71
     3
 72
    11
 73
     7
 74
     5
 42
0.0000000001
 43
0.0000000001
 44
0.0000000001
 40
0.0
 40
0.0
 40
0.0
 40
0.0
 40
0.486804136400954
 40
1.039136084995764
 40
1.682140650478403
 40
2.412352928114304
 40
2.412352928114304
 40
2.412352928114304
 40
2.412352928114304
 10
-6.192001342774144
 20
-8.972999572752332
 30
0.0
 10
-6.167510141830385
 20
-8.811211456350072
 30
0.0
 10
-6.115231024291044
 20
-8.465857221852338
 30
0.0
 10
-5.820180180428311
 20
-7.975889645967784
 30
0.0
 10
-5.323348802460519
 20
-7.533455280277098
 30
0.0
 10
-4.864821620893185
 20
-7.448287896211939
 30
0.0
 10
-4.620998382569163
 20
-7.40299987792833
 30
0.0
 11
-6.192001342774144
 21
-8.972999572752332
 31
0.0
 11
-6.090000152588151
 21
-8.497001647948327
 31
0.0
 11
-5.814998626709153
 21
-8.017997741698321
 31
0.0
 11
-5.323001861573166
 21
-7.604000091551315
 31
0.0
 11
-4.620998382569163
 21
-7.40299987792833
 31
0.0
  0
SPLINE
  5
7C91
330
1F
100
AcDbEntity
  8
AM_0
100
AcDbSpline
210
0.0
220
0.0
230
1.0
 70
     8
 71
     3
 72
    11
 73
     7
 74
     5
 42
0.0000000001
 43
0.0000000001
 44
0.0000000001
 40
0.0
 40
0.0
 40
0.0
 40
0.0
 40
0.6952326909116336
 40
1.308060602386452
 40
1.82953942024316
 40
2.291147092280163
 40
2.291147092280163
 40
2.291147092280163
 40
2.291147092280163
 10
-4.620998382569163
 20
-7.40299987792833
 30
0.0
 10
-4.385053835634799
 20
-7.424334611988238
 30
0.0
 10
-3.941130858152155
 20
-7.464475309413677
 30
0.0
 10
-3.448142139068938
 20
-7.872142720912782
 30
0.0
 10
-3.189089762526414
 20
-8.355492707114589
 30
0.0
 10
-3.177461111247549
 20
-8.686550884982825
 30
0.0
 10
-3.172000885010133
 20
-8.841999053954294
 30
0.0
 11
-4.620998382569163
 21
-7.40299987792833
 31
0.0
 11
-3.938999176026148
 21
-7.538002014159314
 31
0.0
 11
-3.458999633790155
 21
-7.918998718260314
 31
0.0
 11
-3.221000671387151
 21
-8.382999420165305
 31
0.0
 11
-3.172000885010133
 21
-8.841999053954294
 31
0.0
  0
ELLIPSE
  5
7C92
330
1F
100
AcDbEntity
  8
AM_0
100
AcDbEllipse
 10
-31.30599975586019
 20
-5.278999328612691
 30
0.0
 11
4.977691518780011
 21
-0.4823077899169313
 31
0.0
210
0.0
220
0.0
230
1.0
 40
0.5714852423716002
 41
0.8481023582171735
 42
1.235361804814267
  0
ELLIPSE
  5
7C93
330
1F
100
AcDbEntity
  8
AM_0
100
AcDbEllipse
 10
58.71099853514675
 20
0.0050010681175786
 30
0.0
 11
-257.7319946288899
 21
-0.000000000003639
 31
0.0
210
0.0
220
0.0
230
1.0
 40
0.0436693980672
 41
1.187761320237427
 42
1.19428017598282
  0
ELLIPSE
  5
7C94
330
1F
100
AcDbEntity
  8
AM_0
100
AcDbEllipse
 10
-30.08899688720808
 20
-11.81600189208866
 30
0.0
 11
-0.6595304841478587
 21
-10.009294845072
 31
0.0
210
0.0
220
0.0
230
1.0
 40
0.4979563646707999
 41
3.723223855355963
 42
3.965466508177037
  0
SPLINE
  5
7C95
330
1F
100
AcDbEntity
  8
AM_0
100
AcDbSpline
210
0.0
220
0.0
230
1.0
 70
     8
 71
     3
 72
    11
 73
     7
 74
     5
 42
0.0000000001
 43
0.0000000001
 44
0.0000000001
 40
0.0
 40
0.0
 40
0.0
 40
0.0
 40
0.2716735379791848
 40
0.5491386451592227
 40
0.8245667244021454
 40
1.098541897831216
 40
1.098541897831216
 40
1.098541897831216
 40
1.098541897831216
 10
-31.32599639892621
 20
-2.757999420165694
 30
0.0
 10
-31.41283205017503
 20
-2.783903903910533
 30
0.0
 10
-31.58835452554379
 20
-2.836265106304416
 30
0.0
 10
-31.84268407002339
 20
-2.941191177023946
 30
0.0
 10
-32.08401231366863
 20
-3.079356954513356
 30
0.0
 10
-32.21478523445779
 20
-3.208565422676924
 30
0.0
 10
-32.27999877929718
 20
-3.272998809813699
 30
0.0
 11
-31.32599639892621
 21
-2.757999420165694
 31
0.0
 11
-31.58499908447318
 21
-2.8400001525867
 31
0.0
 11
-31.84100341796922
 21
-2.946998596190702
 31
0.0
 11
-32.07700347900421
 21
-3.089000701903704
 31
0.0
 11
-32.27999877929718
 21
-3.272998809813699
 31
0.0
  0
SPLINE
  5
7C96
330
1F
100
AcDbEntity
  8
AM_0
100
AcDbSpline
210
0.0
220
0.0
230
1.0
 70
     8
 71
     3
 72
    11
 73
     7
 74
     5
 42
0.0000000001
 43
0.0000000001
 44
0.0000000001
 40
0.0
 40
0.0
 40
0.0
 40
0.0
 40
0.9313343771160734
 40
1.991228414791045
 40
3.219945611924977
 40
4.556759173956497
 40
4.556759173956497
 40
4.556759173956497
 40
4.556759173956497
 10
-41.38099670410214
 20
-8.908000946043838
 30
0.0
 10
-41.18607457434478
 20
-9.155087805296671
 30
0.0
 10
-40.76932362755132
 20
-9.683368933057943
 30
0.0
 10
-39.75367864456895
 20
-10.12176922737216
 30
0.0
 10
-38.57374266689035
 20
-10.38063332639766
 30
0.0
 10
-37.71727881945722
 20
-10.420321626409
 30
0.0
 10
-37.27100372314509
 20
-10.44100189208876
 30
0.0
 11
-41.38099670410214
 21
-8.908000946043838
 31
0.0
 11
-40.75000000000009
 21
-9.59300231933483
 31
0.0
 11
-39.80200195312511
 21
-10.0670013427728
 31
0.0
 11
-38.60399627685609
 21
-10.34000015258681
 31
0.0
 11
-37.27100372314509
 21
-10.44100189208876
 31
0.0
  0
ELLIPSE
  5
7C97
330
1F
100
AcDbEntity
  8
AM_0
100
AcDbEllipse
 10
-36.32700347900424
 20
-1.208999633788765
 30
0.0
 11
4.984565919667002
 21
-0.3925590305819291
 31
0.0
210
0.0
220
0.0
230
1.0
 40
0.0034002415836
 41
3.518526263215781
 42
4.584842943048533
  0
ELLIPSE
  5
7C98
330
1F
100
AcDbEntity
  8
AM_0
100
AcDbEllipse
 10
-19.33200073242225
 20
0.0000000000004754
 30
0.0
 11
1.864013345070157
 21
-11.24961794748797
 31
0.0
210
0.0
220
0.0
230
1.0
 40
0.0540206956828
 41
0.9349350369388258
 42
1.001185379760324
  0
ELLIPSE
  5
7C99
330
1F
100
AcDbEntity
  8
AM_0
100
AcDbEllipse
 10
-22.32599639892615
 20
-7.049999237059573
 30
0.0
 11
3.554832566034045
 21
-3.613574970632952
 31
0.0
210
0.0
220
0.0
230
1.0
 40
0.9670543042199
 41
0.7757382278804809
 42
0.8695858671617454
  0
ELLIPSE
  5
7C9A
330
1F
100
AcDbEntity
  8
AM_0
100
AcDbEllipse
 10
-13.64900207519616
 20
-5.898002624510449
 30
0.0
 11
1.235094048510997
 21
-0.192472521588979
 31
0.0
210
0.0
220
0.0
230
1.0
 40
0.8616003402706999
 41
3.14159255212418
 42
6.283185307179585
  0
ELLIPSE
  5
7C9B
330
1F
100
AcDbEntity
  8
AM_0
100
AcDbEllipse
 10
-41.89699935913127
 20
0.0000000000001585
 30
0.0
 11
143.0809698796481
 21
-11.26832862398898
 31
0.0
210
0.0
220
0.0
230
1.0
 40
0.000271733168
 41
1.53994341857885
 42
1.572075998286985
  0
SPLINE
  5
7C9C
330
1F
100
AcDbEntity
  8
AM_0
100
AcDbSpline
210
0.0
220
0.0
230
1.0
 70
     8
 71
     3
 72
    11
 73
     7
 74
     5
 42
0.0000000001
 43
0.0000000001
 44
0.0000000001
 40
0.0
 40
0.0
 40
0.0
 40
0.0
 40
0.6344178361716857
 40
1.309378810656974
 40
1.998591450647498
 40
2.668987202692166
 40
2.668987202692166
 40
2.668987202692166
 40
2.668987202692166
 10
-17.69699859619219
 20
-5.225997924803496
 30
0.0
 10
-17.79033388648256
 20
-5.02997467483579
 30
0.0
 10
-17.98296915684352
 20
-4.625401103177297
 30
0.0
 10
-18.6215634601026
 20
-4.320436030390419
 30
0.0
 10
-19.33859999168871
 20
-4.316977063252772
 30
0.0
 10
-19.70790330124921
 20
-4.598959200571372
 30
0.0
 10
-19.88999938964919
 20
-4.737998962401535
 30
0.0
 11
-17.69699859619219
 21
-5.225997924803496
 31
0.0
 11
-18.02999877929719
 21
-4.686000823973501
 31
0.0
 11
-18.62799835205119
 21
-4.373001098631521
 31
0.0
 11
-19.3170013427742
 21
-4.38999938964752
 31
0.0
 11
-19.88999938964919
 21
-4.737998962401535
 31
0.0
  0
ELLIPSE
  5
7C9D
330
1F
100
AcDbEntity
  8
AM_0
100
AcDbEllipse
 10
-28.13200378418027
 20
0.0000000000003494
 30
0.0
 11
1.313163346152161
 21
-11.24961796986598
 31
0.0
210
0.0
220
0.0
230
1.0
 40
0.1288184017697
 41
1.450697042814358
 42
1.519435964317001
  0
SPLINE
  5
7C9E
330
1F
100
AcDbEntity
  8
AM_0
100
AcDbSpline
210
0.0
220
0.0
230
1.0
 70
     8
 71
     3
 72
    11
 73
     7
 74
     5
 42
0.0000000001
 43
0.0000000001
 44
0.0000000001
 40
0.0
 40
0.0
 40
0.0
 40
0.0
 40
0.1945497372197698
 40
0.3890873256823232
 40
0.5833992646902193
 40
0.7797052031792981
 40
0.7797052031792981
 40
0.7797052031792981
 40
0.7797052031792981
 10
-17.81700134277417
 20
-5.974998474120515
 30
0.0
 10
-17.78453739560081
 20
-5.918514110905837
 30
0.0
 10
-17.71961152848177
 20
-5.805548911671251
 30
0.0
 10
-17.67256222265043
 20
-5.614917570314387
 30
0.0
 10
-17.65818307350892
 20
-5.418629369775551
 30
0.0
 10
-17.68401613168701
 20
-5.290426553456462
 30
0.0
 10
-17.69699859619219
 20
-5.225997924803496
 30
0.0
 11
-17.81700134277417
 21
-5.974998474120515
 31
0.0
 11
-17.72799682617215
 21
-5.802001953124506
 31
0.0
 11
-17.67800140380917
 21
-5.613998413084503
 31
0.0
 11
-17.66699981689518
 21
-5.419998168944497
 31
0.0
 11
-17.69699859619219
 21
-5.225997924803496
 31
0.0
  0
ELLIPSE
  5
7C9F
330
1F
100
AcDbEntity
  8
AM_0
100
AcDbEllipse
 10
-13.64900207519616
 20
-5.898002624510449
 30
0.0
 11
1.235094048510997
 21
-0.192472521588979
 31
0.0
210
0.0
220
0.0
230
1.0
 40
0.8616003402706999
 41
0.0
 42
3.141592755055405
  0
ELLIPSE
  5
7CA0
330
1F
100
AcDbEntity
  8
AM_0
100
AcDbEllipse
 10
-17.45999908447326
 20
0.0000000000005053
 30
0.0
 11
-0.5268246747978417
 21
-11.24967117974101
 31
0.0
210
0.0
220
0.0
230
1.0
 40
0.0770733725868
 41
0.6626551240133668
 42
0.868813605257579
  0
SPLINE
  5
7CA1
330
1F
100
AcDbEntity
  8
AM_0
100
AcDbSpline
210
0.0
220
0.0
230
1.0
 70
     8
 71
     3
 72
    11
 73
     7
 74
     5
 42
0.0000000001
 43
0.0000000001
 44
0.0000000001
 40
0.0
 40
0.0
 40
0.0
 40
0.0
 40
0.6264703257269666
 40
1.252701704011144
 40
1.878509636031124
 40
2.505425839973433
 40
2.505425839973433
 40
2.505425839973433
 40
2.505425839973433
 10
-26.61699676513727
 20
-0.4090003967276235
 30
0.0
 10
-26.54357782604195
 20
-0.2080841079732739
 30
0.0
 10
-26.39676795120125
 20
0.1936718363232187
 30
0.0
 10
-26.59191906264172
 20
0.8276275654814281
 30
0.0
 10
-27.04529960383022
 20
1.307130557223438
 30
0.0
 10
-27.46364084790259
 20
1.39101788581239
 30
0.0
 10
-27.67299652099728
 20
1.432998657227359
 30
0.0
 11
-26.61699676513727
 21
-0.4090003967276235
 31
0.0
 11
-26.46600341796927
 21
0.1990013122563703
 31
0.0
 11
-26.63500213623127
 21
0.8019981384283704
 31
0.0
 11
-27.07399749755927
 21
1.248001098633362
 31
0.0
 11
-27.67299652099728
 21
1.432998657227359
 31
0.0
  0
SPLINE
  5
7CA2
330
1F
100
AcDbEntity
  8
AM_0
100
AcDbSpline
210
0.0
220
0.0
230
1.0
 70
     8
 71
     3
 72
    11
 73
     7
 74
     5
 42
0.0000000001
 43
0.0000000001
 44
0.0000000001
 40
0.0
 40
0.0
 40
0.0
 40
0.0
 40
0.2855101212093869
 40
0.5724769474338829
 40
0.857757892991804
 40
1.142187446481054
 40
1.142187446481054
 40
1.142187446481054
 40
1.142187446481054
 10
-27.67299652099728
 20
1.432998657227359
 30
0.0
 10
-27.76864302597289
 20
1.431988330527456
 30
0.0
 10
-27.96042403523877
 20
1.429962522326257
 30
0.0
 10
-28.23611333884164
 20
1.342789135290697
 30
0.0
 10
-28.48970604736083
 20
1.204421371007143
 30
0.0
 10
-28.62263689485408
 20
1.067405903236907
 30
0.0
 10
-28.68900299072327
 20
0.9990005493173507
 30
0.0
 11
-27.67299652099728
 21
1.432998657227359
 31
0.0
 11
-27.95800018310627
 21
1.416000366211352
 31
0.0
 11
-28.23300170898527
 21
1.333999633790347
 31
0.0
 11
-28.48100280761827
 21
1.193000793457353
 31
0.0
 11
-28.68900299072327
 21
0.9990005493173507
 31
0.0
  0
ELLIPSE
  5
7CA3
330
1F
100
AcDbEntity
  8
AM_0
100
AcDbEllipse
 10
-36.26499938964926
 20
-0.4109992980947586
 30
0.0
 11
4.187034628391007
 21
-0.3297505315439413
 31
0.0
210
0.0
220
0.0
230
1.0
 40
0.0033336069323
 41
3.518565682116656
 42
4.614276456864018
  0
ELLIPSE
  5
7CA4
330
1F
100
AcDbEntity
  8
AM_0
100
AcDbEllipse
 10
-31.01899719238326
 20
-1.626998901366692
 30
0.0
 11
4.984565919667002
 21
-0.3925590305819291
 31
0.0
210
0.0
220
0.0
230
1.0
 40
0.0033994808793
 41
5.767624616762849
 42
6.283185307179585
  0
ELLIPSE
  5
7CA5
330
1F
100
AcDbEntity
  8
AM_0
100
AcDbEllipse
 10
-31.12599945068419
 20
-2.987998962401693
 30
0.0
 11
4.977691878403005
 21
-0.4823090226779252
 31
0.0
210
0.0
220
0.0
230
1.0
 40
0.5714855692746001
 41
0.0544021453668056
 42
0.4105888921980362
  0
SPLINE
  5
7CA6
330
1F
100
AcDbEntity
  8
AM_0
100
AcDbSpline
210
0.0
220
0.0
230
1.0
 70
     8
 71
     3
 72
    11
 73
     7
 74
     5
 42
0.0000000001
 43
0.0000000001
 44
0.0000000001
 40
0.0
 40
0.0
 40
0.0
 40
0.0
 40
0.5556355496007099
 40
1.111392287867098
 40
1.667006658153644
 40
2.223238529969014
 40
2.223238529969014
 40
2.223238529969014
 40
2.223238529969014
 10
-36.0879974365243
 20
1.575000762940243
 30
0.0
 10
-36.274451549788
 20
1.554713297163802
 30
0.0
 10
-36.64740044348513
 20
1.514133940748421
 30
0.0
 10
-37.12664025000692
 20
1.200395687876591
 30
0.0
 10
-37.4759752630158
 20
0.7463335406031507
 30
0.0
 10
-37.54531347193327
 20
0.3775133214460495
 30
0.0
 10
-37.58000183105528
 20
0.1930007934572159
 30
0.0
 11
-36.0879974365243
 21
1.575000762940243
 31
0.0
 11
-36.63400268554728
 21
1.472000122071229
 31
0.0
 11
-37.10500335693428
 21
1.177001953125219
 31
0.0
 11
-37.43499755859429
 21
0.7299995422372187
 31
0.0
 11
-37.58000183105528
 21
0.1930007934572159
 31
0.0
  0
SPLINE
  5
7CA7
330
1F
100
AcDbEntity
  8
AM_0
100
AcDbSpline
210
0.0
220
0.0
230
1.0
 70
     8
 71
     3
 72
    11
 73
     7
 74
     5
 42
0.0000000001
 43
0.0000000001
 44
0.0000000001
 40
0.0
 40
0.0
 40
0.0
 40
0.0
 40
0.0240851659812726
 40
0.0481042294225855
 40
0.0721063046175854
 40
0.0961876690640682
 40
0.0961876690640682
 40
0.0961876690640682
 40
0.0961876690640682
 10
-17.13600158691516
 20
-7.283000946043493
 30
0.0
 10
-17.13525818001161
 20
-7.275004825693319
 30
0.0
 10
-17.13377340650951
 20
-7.259034530611505
 30
0.0
 10
-17.13293094038905
 20
-7.235013698505428
 30
0.0
 10
-17.13252359605043
 20
-7.210949547471503
 30
0.0
 10
-17.13417504842649
 20
-7.194992136814559
 30
0.0
 10
-17.13500213623115
 20
-7.1870002746575
 30
0.0
 11
-17.13600158691516
 21
-7.283000946043493
 31
0.0
 11
-17.13400268554715
 21
-7.258998870848493
 31
0.0
 11
-17.13300323486416
 21
-7.235000610350489
 31
0.0
 11
-17.13300323486416
 21
-7.210998535155489
 31
0.0
 11
-17.13500213623115
 21
-7.1870002746575
 31
0.0
  0
ELLIPSE
  5
7CA8
330
1F
100
AcDbEntity
  8
AM_0
100
AcDbEllipse
 10
-18.07099914550817
 20
-5.661003112792509
 30
0.0
 11
1.202384810354061
 21
-4.608736156642987
 31
0.0
210
0.0
220
0.0
230
1.0
 40
0.0180557455612
 41
1.355379156797063
 42
1.522771745430475
  0
SPLINE
  5
7CA9
330
1F
100
AcDbEntity
  8
AM_0
100
AcDbSpline
210
0.0
220
0.0
230
1.0
 70
     8
 71
     3
 72
    11
 73
     7
 74
     5
 42
0.0000000001
 43
0.0000000001
 44
0.0000000001
 40
0.0
 40
0.0
 40
0.0
 40
0.0
 40
0.1977991701720765
 40
0.4100004788178562
 40
0.6397099787566165
 40
0.8829019144359453
 40
0.8829019144359453
 40
0.8829019144359453
 40
0.8829019144359453
 10
-17.13500213623115
 20
-7.1870002746575
 30
0.0
 10
-17.14870254046092
 20
-7.121675607077449
 30
0.0
 10
-17.17710090173471
 20
-6.986269857077896
 30
0.0
 10
-17.31458611306075
 20
-6.815058308576554
 30
0.0
 10
-17.50336509215314
 20
-6.680479924158435
 30
0.0
 10
-17.65633504479771
 20
-6.637898724626587
 30
0.0
 10
-17.73500061035215
 20
-6.616001129149499
 30
0.0
 11
-17.13500213623115
 21
-7.1870002746575
 31
0.0
 11
-17.19000244140714
 21
-6.997001647948487
 31
0.0
 11
-17.31700134277416
 21
-6.826999664305501
 31
0.0
 11
-17.50499725341815
 21
-6.694999694823493
 31
0.0
 11
-17.73500061035215
 21
-6.616001129149499
 31
0.0
  0
SPLINE
  5
7CAA
330
1F
100
AcDbEntity
  8
AM_0
100
AcDbSpline
210
0.0
220
0.0
230
1.0
 70
     8
 71
     3
 72
    11
 73
     7
 74
     5
 42
0.0000000001
 43
0.0000000001
 44
0.0000000001
 40
0.0
 40
0.0
 40
0.0
 40
0.0
 40
0.3322695153547955
 40
0.6638166304195048
 40
0.9957203215463469
 40
1.325120103448699
 40
1.325120103448699
 40
1.325120103448699
 40
1.325120103448699
 10
-42.07499694824328
 20
0.0530014038091545
 30
0.0
 10
-42.18691842194544
 20
0.0511359686593073
 30
0.0
 10
-42.41051803644882
 20
0.0474091540759249
 30
0.0
 10
-42.7173992974548
 20
-0.0983162457977295
 30
0.0
 10
-42.96174210293385
 20
-0.3439204636902351
 30
0.0
 10
-43.00396834564312
 20
-0.5649185694153505
 30
0.0
 10
-43.02500152587924
 20
-0.6749992370598594
 30
0.0
 11
-42.07499694824328
 21
0.0530014038091545
 31
0.0
 11
-42.40599822998126
 21
0.0239982604981476
 31
0.0
 11
-42.70700073242226
 21
-0.1150016784658554
 31
0.0
 11
-42.93199920654325
 21
-0.3590011596678551
 31
0.0
 11
-43.02500152587924
 21
-0.6749992370598594
 31
0.0
  0
ELLIPSE
  5
7CAB
330
1F
100
AcDbEntity
  8
AM_0
100
AcDbEllipse
 10
-37.10800170898527
 20
0.0000000000002206
 30
0.0
 11
-1.181510814852839
 21
-11.23303331137001
 31
0.0
210
0.0
220
0.0
230
1.0
 40
0.5181052064543002
 41
4.827105578984244
 42
5.68125178837809
  0
ELLIPSE
  5
7CAC
330
1F
100
AcDbEntity
  8
AM_0
100
AcDbEllipse
 10
-13.64899826049916
 20
-5.898002624510449
 30
0.0
 11
1.482112913280008
 21
-0.2309666725439787
 31
0.0
210
0.0
220
0.0
230
1.0
 40
0.8613340587608997
 41
0.1768014601093828
 42
2.755753085417044
  0
SPLINE
  5
7CAD
330
1F
100
AcDbEntity
  8
AM_0
100
AcDbSpline
210
0.0
220
0.0
230
1.0
 70
     8
 71
     3
 72
    11
 73
     7
 74
     5
 42
0.0000000001
 43
0.0000000001
 44
0.0000000001
 40
0.0
 40
0.0
 40
0.0
 40
0.0
 40
1.302669825614101
 40
2.616201992005223
 40
3.916410017988491
 40
5.206855290190924
 40
5.206855290190924
 40
5.206855290190924
 40
5.206855290190924
 10
-14.87300109863319
 20
-4.019001007079467
 30
0.0
 10
-14.76651879378699
 20
-3.590859409109471
 30
0.0
 10
-14.55266627907121
 20
-2.73100614510885
 30
0.0
 10
-13.20275172857774
 20
-1.91130429948923
 30
0.0
 10
-11.95074423653027
 20
-2.89501424053
 30
0.0
 10
-11.91153101513407
 20
-3.780117017010511
 30
0.0
 10
-11.89199829101619
 20
-4.221000671385421
 30
0.0
 11
-14.87300109863319
 21
-4.019001007079467
 31
0.0
 11
-14.38300323486419
 21
-2.812000274657449
 31
0.0
 11
-13.21400070190523
 21
-2.21300125121944
 31
0.0
 11
-12.1469993591312
 21
-2.956001281737421
 31
0.0
 11
-11.89199829101619
 21
-4.221000671385421
 31
0.0
  0
ELLIPSE
  5
7CAE
330
1F
100
AcDbEntity
  8
AM_0
100
AcDbEllipse
 10
33.01299285888573
 20
0.0000000000012171
 30
0.0
 11
143.0817809959611
 21
-5.667949624185978
 31
0.0
210
0.0
220
0.0
230
1.0
 40
0.067852002086
 41
4.372549114384812
 42
4.394854477117347
  0
SPLINE
  5
7CAF
330
1F
100
AcDbEntity
  8
AM_0
100
AcDbSpline
210
0.0
220
0.0
230
1.0
 70
     8
 71
     3
 72
    11
 73
     7
 74
     5
 42
0.0000000001
 43
0.0000000001
 44
0.0000000001
 40
0.0
 40
0.0
 40
0.0
 40
0.0
 40
1.118806256712728
 40
2.39071884599366
 40
3.670534959762544
 40
4.763808791886505
 40
4.763808791886505
 40
4.763808791886505
 40
4.763808791886505
 10
-32.50700378418035
 20
6.83499908447329
 30
0.0
 10
-32.42374061658555
 20
7.215118091716522
 30
0.0
 10
-32.24581988835253
 20
8.027374609665313
 30
0.0
 10
-30.99666717393662
 20
8.633995316837195
 30
0.0
 10
-29.62190503511053
 20
8.151560315770582
 30
0.0
 10
-29.53296918500826
 20
7.308428028098636
 30
0.0
 10
-29.49199676513737
 20
6.920000076294329
 30
0.0
 11
-32.50700378418035
 21
6.83499908447329
 31
0.0
 11
-32.1179962158214
 21
7.883998870850292
 31
0.0
 11
-30.97599792480538
 21
8.444000244141312
 31
0.0
 11
-29.78600311279337
 21
7.97299957275432
 31
0.0
 11
-29.49199676513737
 21
6.920000076294329
 31
0.0
  0
ELLIPSE
  5
7CB0
330
1F
100
AcDbEntity
  8
AM_0
100
AcDbEllipse
 10
-22.44899749755924
 20
-1.269001007079573
 30
0.0
 11
1.244873096801002
 21
-0.1130866423379794
 31
0.0
210
0.0
220
0.0
230
1.0
 40
0.4952012025461002
 41
0.0
 42
3.141592830129765
  0
ELLIPSE
  5
7CB1
330
1F
100
AcDbEntity
  8
AM_0
100
AcDbEllipse
 10
-22.44899749755924
 20
-1.269001007079573
 30
0.0
 11
1.244873096801002
 21
-0.1130866423379794
 31
0.0
210
0.0
220
0.0
230
1.0
 40
0.4952012025461002
 41
3.141592477049819
 42
6.283185307179585
  0
ELLIPSE
  5
7CB2
330
1F
100
AcDbEntity
  8
AM_0
100
AcDbEllipse
 10
-12.82500076294026
 20
0.0000000000005649
 30
0.0
 11
-0.020209940590836
 21
-11.24998089334501
 31
0.0
210
0.0
220
0.0
230
1.0
 40
0.0900443047454999
 41
0.8486599864738229
 42
1.186130449745725
  0
ELLIPSE
  5
7CB3
330
1F
100
AcDbEntity
  8
AM_0
100
AcDbEllipse
 10
-22.44899749755924
 20
-1.268997192381576
 30
0.0
 11
1.493850712088999
 21
-0.1357020883569791
 31
0.0
210
0.0
220
0.0
230
1.0
 40
0.4953331204523
 41
0.0878770743455593
 42
2.760718079378315
  0
SPLINE
  5
7CB4
330
1F
100
AcDbEntity
  8
AM_0
100
AcDbSpline
210
0.0
220
0.0
230
1.0
 70
     8
 71
     3
 72
    11
 73
     7
 74
     5
 42
0.0000000001
 43
0.0000000001
 44
0.0000000001
 40
0.0
 40
0.0
 40
0.0
 40
0.0
 40
1.386766119352786
 40
2.745897842936904
 40
4.084619302458973
 40
5.468450554320752
 40
5.468450554320752
 40
5.468450554320752
 40
5.468450554320752
 10
-23.69799804687527
 20
1.561000823975412
 30
0.0
 10
-23.61973135121729
 20
2.023295474323117
 30
0.0
 10
-23.46475759768964
 20
2.938672527076235
 30
0.0
 10
-22.1424657321435
 20
3.916077179324667
 30
0.0
 10
-20.73852074444718
 20
2.979464159898329
 30
0.0
 10
-20.70767815293843
 20
2.037025558668164
 30
0.0
 10
-20.69200134277429
 20
1.557998657227456
 30
0.0
 11
-23.69799804687527
 21
1.561000823975412
 31
0.0
 11
-23.2760009765633
 21
2.881999969483423
 31
0.0
 11
-22.12200164795031
 21
3.600000381470426
 31
0.0
 11
-20.97299957275428
 21
2.913000106812455
 31
0.0
 11
-20.69200134277429
 21
1.557998657227456
 31
0.0
  0
ELLIPSE
  5
7CB5
330
1F
100
AcDbEntity
  8
AM_0
100
AcDbEllipse
 10
24.21298980712772
 20
0.000000000001084
 30
0.0
 11
143.0777447564691
 21
-9.829509380547982
 31
0.0
210
0.0
220
0.0
230
0.9999999999999998
 40
0.0389010897084
 41
4.372572689493225
 42
4.394285609120928
  0
SPLINE
  5
7CB6
330
1F
100
AcDbEntity
  8
AM_0
100
AcDbSpline
210
0.0
220
0.0
230
1.0
 70
     8
 71
     3
 72
    11
 73
     7
 74
     5
 42
0.0000000001
 43
0.0000000001
 44
0.0000000001
 40
0.0
 40
0.0
 40
0.0
 40
0.0
 40
0.2770426658069021
 40
0.5557274890840266
 40
0.8357559514146105
 40
1.116402931516658
 40
1.116402931516658
 40
1.116402931516658
 40
1.116402931516658
 10
-25.93599700927823
 20
-2.019001007079622
 30
0.0
 10
-25.93716257568095
 20
-1.925596783089213
 30
0.0
 10
-25.93950061732684
 20
-1.738234685930463
 30
0.0
 10
-26.06710078555743
 20
-1.481947905920887
 30
0.0
 10
-26.26835469616761
 20
-1.276733496809061
 30
0.0
 10
-26.44605532906372
 20
-1.212268407605618
 30
0.0
 10
-26.53500366211025
 20
-1.180000305174631
 30
0.0
 11
-25.93599700927823
 21
-2.019001007079622
 31
0.0
 11
-25.95999908447324
 21
-1.743000030516625
 31
0.0
 11
-26.07900238037225
 21
-1.491001129149624
 31
0.0
 11
-26.27899932861424
 21
-1.294998168944627
 31
0.0
 11
-26.53500366211025
 21
-1.180000305174631
 31
0.0
  0
ELLIPSE
  5
7CB7
330
1F
100
AcDbEntity
  8
AM_0
100
AcDbEllipse
 10
-26.87100219726624
 20
-1.95700073242063
 30
0.0
 11
-1.203727767575001
 21
-0.055410386101019
 31
0.0
210
0.0
220
0.0
230
0.9999999999999998
 40
0.6630693233764
 41
4.400584567627269
 42
4.514246497828167
  0
ELLIPSE
  5
7CB8
330
1F
100
AcDbEntity
  8
AM_0
100
AcDbEllipse
 10
-26.26000213623126
 20
0.0000000000003722
 30
0.0
 11
-0.8882981746388452
 21
-11.249984351501
 31
0.0
210
0.0
220
0.0
230
1.0
 40
0.0434204710822
 41
1.183130749637518
 42
1.393730712941736
  0
ELLIPSE
  5
7CB9
330
1F
100
AcDbEntity
  8
AM_0
100
AcDbEllipse
 10
-30.42500305175828
 20
0.00000000000032
 30
0.0
 11
-0.8882981746388381
 21
-11.249984351501
 31
0.0
210
0.0
220
0.0
230
1.0
 40
0.0434204710822
 41
1.899614137133426
 42
2.233737763325614
  0
ELLIPSE
  5
7CBA
330
1F
100
AcDbEntity
  8
AM_0
100
AcDbEllipse
 10
-21.62500000000028
 20
0.000000000000446
 30
0.0
 11
-0.5268246747978417
 21
-11.24967117974101
 31
0.0
210
0.0
220
0.0
230
1.0
 40
0.0770733725868
 41
1.374746601248686
 42
1.713537340139921
  0
SPLINE
  5
7CE9
330
1F
100
AcDbEntity
  8
AM_0
100
AcDbSpline
210
0.0
220
0.0
230
1.0
 70
     8
 71
     3
 72
    11
 73
     7
 74
     5
 42
0.0000000001
 43
0.0000000001
 44
0.0000000001
 40
0.0
 40
0.0
 40
0.0
 40
0.0
 40
0.1142133581459008
 40
0.2293847191109643
 40
0.3448048493231756
 40
0.4607399621268968
 40
0.4607399621268968
 40
0.4607399621268968
 40
0.4607399621268968
 10
-0.0000000000000955
 20
-11.72800064086825
 30
0.0
 10
-0.0000105717674692
 20
-11.76636301991305
 30
0.0
 10
-0.0000318039764585
 20
-11.84340955531375
 30
0.0
 10
-0.0423369771636157
 20
-11.95262262018502
 30
0.0
 10
-0.1131560089551594
 20
-12.0470614156379
 30
0.0
 10
-0.1803384993510818
 20
-12.086324001788
 30
0.0
 10
-0.2140045166020926
 20
-12.10599899291825
 30
0.0
 11
-0.0000000000000955
 21
-11.72800064086825
 31
0.0
 11
-0.0070037841800939
 21
-11.84199905395423
 31
0.0
 11
-0.0470046997080896
 21
-11.95000076293825
 31
0.0
 11
-0.1180038452150906
 21
-12.04100036620925
 31
0.0
 11
-0.2140045166020926
 21
-12.10599899291825
 31
0.0
  0
SPLINE
  5
7CEA
330
1F
100
AcDbEntity
  8
AM_0
100
AcDbSpline
210
0.0
220
0.0
230
1.0
 70
     8
 71
     3
 72
    11
 73
     7
 74
     5
 42
0.0000000001
 43
0.0000000001
 44
0.0000000001
 40
0.0
 40
0.0
 40
0.0
 40
0.0
 40
2.17738800720944
 40
4.358851912541235
 40
6.542378227858167
 40
8.729969316507338
 40
8.729969316507338
 40
8.729969316507338
 40
8.729969316507338
 10
-9.094001770020085
 20
-12.32699966430536
 30
0.0
 10
-8.368328668466784
 20
-12.31362904619361
 30
0.0
 10
-6.915624062713398
 20
-12.2868627812306
 30
0.0
 10
-4.735304968773164
 20
-12.2413438000284
 30
0.0
 10
-2.551632296261894
 20
-12.19360801447429
 30
0.0
 10
-1.094998910363254
 20
-12.15921219391235
 30
0.0
 10
-0.3660049438480862
 20
-12.14199829101425
 30
0.0
 11
-9.094001770020085
 21
-12.32699966430536
 31
0.0
 11
-6.916999816895087
 21
-12.28599929809434
 31
0.0
 11
-4.736000061036081
 21
-12.24100112914931
 31
0.0
 11
-2.553001403809079
 21
-12.19300079345629
 31
0.0
 11
-0.3660049438480862
 21
-12.14199829101425
 31
0.0
  0
SPLINE
  5
7CEB
330
1F
100
AcDbEntity
  8
AM_0
100
AcDbSpline
210
0.0
220
0.0
230
1.0
 70
     8
 71
     3
 72
    11
 73
     7
 74
     5
 42
0.0000000001
 43
0.0000000001
 44
0.0000000001
 40
0.0
 40
0.0
 40
0.0
 40
0.0
 40
1.051248198301679
 40
2.102493787541987
 40
3.15389456251929
 40
4.20514015175959
 40
4.20514015175959
 40
4.20514015175959
 40
4.20514015175959
 10
-0.7220001220711602
 20
-6.444999694823253
 30
0.0
 10
-0.6686400179951113
 20
-6.791329176398511
 30
0.0
 10
-0.5619199422758559
 20
-7.48398728000428
 30
0.0
 10
-0.4023377183679661
 20
-8.523103255283302
 30
0.0
 10
-0.2406845120299144
 20
-9.561898433736109
 30
0.0
 10
-0.1342264061238449
 20
-10.2546484705778
 30
0.0
 10
-0.0810012817390911
 20
-10.60099792480325
 30
0.0
 11
-0.7220001220711602
 21
-6.444999694823253
 31
0.0
 11
-0.5620040893561578
 21
-7.484001159667258
 31
0.0
 11
-0.4020004272471499
 21
-8.522998809813257
 31
0.0
 11
-0.2410049438481273
 21
-9.562000274657261
 31
0.0
 11
-0.0810012817390911
 21
-10.60099792480325
 31
0.0
  0
SPLINE
  5
7CEC
330
1F
100
AcDbEntity
  8
AM_0
100
AcDbSpline
210
0.0
220
0.0
230
1.0
 70
     8
 71
     3
 72
    11
 73
     7
 74
     5
 42
0.0000000001
 43
0.0000000001
 44
0.0000000001
 40
0.0
 40
0.0
 40
0.0
 40
0.0
 40
0.1301807816485052
 40
0.2611044729359076
 40
0.3918865312709624
 40
0.5214079130269402
 40
0.5214079130269402
 40
0.5214079130269402
 40
0.5214079130269402
 10
-0.9640045166021756
 20
-5.993999481200267
 30
0.0
 10
-0.9330155882350847
 20
-6.024582778396758
 30
0.0
 10
-0.8708608853236759
 20
-6.085923904129837
 30
0.0
 10
-0.8014976275658941
 20
-6.197620557949496
 30
0.0
 10
-0.747353052938993
 20
-6.317135635165591
 30
0.0
 10
-0.7304237689338893
 20
-6.40251617721316
 30
0.0
 10
-0.7220001220711602
 20
-6.444999694823253
 30
0.0
 11
-0.9640045166021756
 21
-5.993999481200267
 31
0.0
 11
-0.8750000000001712
 21
-6.089000701903263
 31
0.0
 11
-0.8040008544931669
 21
-6.199001312254271
 31
0.0
 11
-0.7519989013681651
 21
-6.319000244139262
 31
0.0
 11
-0.7220001220711602
 21
-6.444999694823253
 31
0.0
  0
SPLINE
  5
7CED
330
1F
100
AcDbEntity
  8
AM_0
100
AcDbSpline
210
0.0
220
0.0
230
1.0
 70
     8
 71
     3
 72
    11
 73
     7
 74
     5
 42
0.0000000001
 43
0.0000000001
 44
0.0000000001
 40
0.0
 40
0.0
 40
0.0
 40
0.0
 40
0.2465937342854249
 40
0.4950507561782241
 40
0.7423629081007266
 40
0.9877795036421241
 40
0.9877795036421241
 40
0.9877795036421241
 40
0.9877795036421241
 10
-9.094001770020085
 20
-12.32699966430536
 30
0.0
 10
-9.176818746564878
 20
-12.32290324877776
 30
0.0
 10
-9.343078473243254
 20
-12.31467946478569
 30
0.0
 10
-9.57153366088624
 20
-12.20739720264615
 30
0.0
 10
-9.764601165121611
 20
-12.04532083611285
 30
0.0
 10
-9.840966060071359
 20
-11.89825219343277
 30
0.0
 10
-9.879001617432088
 20
-11.82500076293838
 30
0.0
 11
-9.094001770020085
 21
-12.32699966430536
 31
0.0
 11
-9.339000701905092
 21
-12.2989997863764
 31
0.0
 11
-9.56600189209009
 21
-12.19799804687438
 31
0.0
 11
-9.751998901368088
 21
-12.03499984741138
 31
0.0
 11
-9.879001617432088
 21
-11.82500076293838
 31
0.0
  0
SPLINE
  5
7CEE
330
1F
100
AcDbEntity
  8
AM_0
100
AcDbSpline
210
0.0
220
0.0
230
1.0
 70
     8
 71
     3
 72
    11
 73
     7
 74
     5
 42
0.0000000001
 43
0.0000000001
 44
0.0000000001
 40
0.0
 40
0.0
 40
0.0
 40
0.0
 40
0.0626832708757074
 40
0.1242366609336266
 40
0.1878371265909453
 40
0.2500142496303535
 40
0.2500142496303535
 40
0.2500142496303535
 40
0.2500142496303535
 10
-0.7990036010751
 20
-11.47299957275225
 30
0.0
 10
-0.7812626770627357
 20
-11.46188581015791
 30
0.0
 10
-0.7461006133991512
 20
-11.43985861317472
 30
0.0
 10
-0.7001887237416169
 20
-11.39670451834475
 30
0.0
 10
-0.6625340541366619
 20
-11.3463963750945
 30
0.0
 10
-0.6441099443371713
 20
-11.3086570449526
 30
0.0
 10
-0.6350021362310972
 20
-11.29000091552626
 30
0.0
 11
-0.7990036010751
 21
-11.47299957275225
 31
0.0
 11
-0.7470016479501006
 21
-11.43799972534026
 31
0.0
 11
-0.7020034790040924
 21
-11.39599990844627
 31
0.0
 11
-0.6640014648440934
 21
-11.34500122070226
 31
0.0
 11
-0.6350021362310972
 21
-11.29000091552626
 31
0.0
  0
SPLINE
  5
7CEF
330
1F
100
AcDbEntity
  8
AM_0
100
AcDbSpline
210
0.0
220
0.0
230
1.0
 70
     8
 71
     3
 72
    11
 73
     7
 74
     5
 42
0.0000000001
 43
0.0000000001
 44
0.0000000001
 40
0.0
 40
0.0
 40
0.0
 40
0.0
 40
0.0265730059145845
 40
0.0525349487936245
 40
0.0792164863386306
 40
0.1055230104141827
 40
0.1055230104141827
 40
0.1055230104141827
 40
0.1055230104141827
 10
-0.6350021362310972
 20
-11.29000091552626
 30
0.0
 10
-0.6318515950431529
 20
-11.28171520652739
 30
0.0
 10
-0.6256229613495137
 20
-11.26533432363543
 30
0.0
 10
-0.6188767912196321
 20
-11.23978285767381
 30
0.0
 10
-0.612555498354499
 20
-11.21421189748699
 30
0.0
 10
-0.6101803359687978
 20
-11.19669579369848
 30
0.0
 10
-0.6090011596681015
 20
-11.18799972534026
 30
0.0
 11
-0.6350021362310972
 21
-11.29000091552626
 31
0.0
 11
-0.6259994506840946
 21
-11.26499938964726
 31
0.0
 11
-0.6190032958990951
 21
-11.23999786376825
 31
0.0
 11
-0.6129989624031013
 21
-11.21400070190325
 31
0.0
 11
-0.6090011596681015
 21
-11.18799972534026
 31
0.0
  0
SPLINE
  5
7CF0
330
1F
100
AcDbEntity
  8
AM_0
100
AcDbSpline
210
0.0
220
0.0
230
1.0
 70
     8
 71
     3
 72
    11
 73
     7
 74
     5
 42
0.0000000001
 43
0.0000000001
 44
0.0000000001
 40
0.0
 40
0.0
 40
0.0
 40
0.0
 40
0.0491591108842667
 40
0.0970174588616077
 40
0.1453988881640508
 40
0.1941521789600067
 40
0.1941521789600067
 40
0.1941521789600067
 40
0.1941521789600067
 10
-0.9850006103521018
 20
-11.52199935912927
 30
0.0
 10
-0.9686270058550642
 20
-11.52103083530376
 30
0.0
 10
-0.9363130467102903
 20
-11.519119415046
 30
0.0
 10
-0.8886132321930711
 20
-11.50985697729847
 30
0.0
 10
-0.8423570441475135
 20
-11.49518947656132
 30
0.0
 10
-0.8134915840433913
 20
-11.48041506101963
 30
0.0
 10
-0.7990036010751
 20
-11.47299957275225
 30
0.0
 11
-0.9850006103521018
 21
-11.52199935912927
 31
0.0
 11
-0.9360046386721016
 21
-11.51799774169825
 31
0.0
 11
-0.8889999389650991
 21
-11.50899887084826
 31
0.0
 11
-0.8430023193360934
 21
-11.49399948120026
 31
0.0
 11
-0.7990036010751
 21
-11.47299957275225
 31
0.0
  0
SPLINE
  5
7CF1
330
1F
100
AcDbEntity
  8
AM_0
100
AcDbSpline
210
0.0
220
0.0
230
1.0
 70
     8
 71
     3
 72
    11
 73
     7
 74
     5
 42
0.0000000001
 43
0.0000000001
 44
0.0000000001
 40
0.0
 40
0.0
 40
0.0
 40
0.0
 40
0.0526142081294301
 40
0.1050041689228295
 40
0.1572069880731305
 40
0.209407541434694
 40
0.209407541434694
 40
0.209407541434694
 40
0.209407541434694
 10
-0.9130020141611524
 20
-6.923000335692254
 30
0.0
 10
-0.9153637596384356
 20
-6.905609797573863
 30
0.0
 10
-0.9200771845832587
 20
-6.870902841655222
 30
0.0
 10
-0.9326080078007723
 20
-6.819953031128925
 30
0.0
 10
-0.9473508363122034
 20
-6.769778484492948
 30
0.0
 10
-0.9597859807070662
 20
-6.737259707177553
 30
0.0
 10
-0.9660034179691527
 20
-6.721000671385274
 30
0.0
 11
-0.9130020141611524
 21
-6.923000335692254
 31
0.0
 11
-0.9210052490241505
 21
-6.870998382567255
 31
0.0
 11
-0.9329986572271625
 21
-6.819999694823256
 31
0.0
 11
-0.9480056762701604
 21
-6.770000457762256
 31
0.0
 11
-0.9660034179691527
 21
-6.721000671385274
 31
0.0
  0
SPLINE
  5
7CF2
330
1F
100
AcDbEntity
  8
AM_0
100
AcDbSpline
210
0.0
220
0.0
230
1.0
 70
     8
 71
     3
 72
    11
 73
     7
 74
     5
 42
0.0000000001
 43
0.0000000001
 44
0.0000000001
 40
0.0
 40
0.0
 40
0.0
 40
0.0
 40
0.0430146950101958
 40
0.087024763294275
 40
0.1310386452916048
 40
0.1740496154465439
 40
0.1740496154465439
 40
0.1740496154465439
 40
0.1740496154465439
 10
-8.513999938965097
 20
-11.64299774169836
 30
0.0
 10
-8.514334925586242
 20
-11.65733206026581
 30
0.0
 10
-8.51501265052199
 20
-11.68633239794161
 30
0.0
 10
-8.515999189118891
 20
-11.73000080571322
 30
0.0
 10
-8.516983793624053
 20
-11.7736680164627
 30
0.0
 10
-8.517664918665431
 20
-11.80266830460219
 30
0.0
 10
-8.518001556397088
 20
-11.81700134277236
 30
0.0
 11
-8.513999938965097
 21
-11.64299774169836
 31
0.0
 11
-8.5149993896491
 21
-11.68600082397336
 31
0.0
 11
-8.515998840333093
 21
-11.72999954223537
 31
0.0
 11
-8.516998291016086
 21
-11.77400207519436
 31
0.0
 11
-8.518001556397088
 21
-11.81700134277236
 31
0.0
  0
SPLINE
  5
7CF3
330
1F
100
AcDbEntity
  8
AM_0
100
AcDbSpline
210
0.0
220
0.0
230
1.0
 70
     8
 71
     3
 72
    11
 73
     7
 74
     5
 42
0.0000000001
 43
0.0000000001
 44
0.0000000001
 40
0.0
 40
0.0
 40
0.0
 40
0.0
 40
0.0866506025281454
 40
0.1717979375746421
 40
0.2562782202057349
 40
0.3422767553617273
 40
0.3422767553617273
 40
0.3422767553617273
 40
0.3422767553617273
 10
-8.881999969483084
 20
-11.79599761962736
 30
0.0
 10
-8.854850493173284
 20
-11.80592418931914
 30
0.0
 10
-8.801022546221155
 20
-11.82560511651969
 30
0.0
 10
-8.717486478510675
 20
-11.84454960382247
 30
0.0
 10
-8.632548181072309
 20
-11.85389696977541
 30
0.0
 10
-8.575685453310118
 20
-11.85263685748964
 30
0.0
 10
-8.547000885010087
 20
-11.85200119018437
 30
0.0
 11
-8.881999969483084
 21
-11.79599761962736
 31
0.0
 11
-8.799999237061095
 21
-11.82400131225437
 31
0.0
 11
-8.716999053956079
 21
-11.84300231933437
 31
0.0
 11
-8.632999420166079
 21
-11.85200119018437
 31
0.0
 11
-8.547000885010087
 21
-11.85200119018437
 31
0.0
  0
SPLINE
  5
7CF4
330
1F
100
AcDbEntity
  8
AM_0
100
AcDbSpline
210
0.0
220
0.0
230
1.0
 70
     8
 71
     3
 72
    11
 73
     7
 74
     5
 42
0.0000000001
 43
0.0000000001
 44
0.0000000001
 40
0.0
 40
0.0
 40
0.0
 40
0.0
 40
0.064195940965135
 40
0.1285230587972454
 40
0.1919100572665095
 40
0.255917036836529
 40
0.255917036836529
 40
0.255917036836529
 40
0.255917036836529
 10
-8.764999389649101
 20
-11.60200119018437
 30
0.0
 10
-8.744812658751444
 20
-11.60919027032416
 30
0.0
 10
-8.704397947742023
 20
-11.6235831206448
 30
0.0
 10
-8.6414137066422
 20
-11.63569727715327
 30
0.0
 10
-8.577862345587822
 20
-11.64333502120526
 30
0.0
 10
-8.535356361665641
 20
-11.64311053236972
 30
0.0
 10
-8.513999938965097
 20
-11.64299774169836
 30
0.0
 11
-8.764999389649101
 21
-11.60200119018437
 31
0.0
 11
-8.703998565674096
 21
-11.62200164794837
 31
0.0
 11
-8.640998840333095
 21
-11.63500213622937
 31
0.0
 11
-8.577999114991099
 21
-11.64199829101437
 31
0.0
 11
-8.513999938965097
 21
-11.64299774169836
 31
0.0
  0
SPLINE
  5
7CF5
330
1F
100
AcDbEntity
  8
AM_0
100
AcDbSpline
210
0.0
220
0.0
230
1.0
 70
     8
 71
     3
 72
    11
 73
     7
 74
     5
 42
0.0000000001
 43
0.0000000001
 44
0.0000000001
 40
0.0
 40
0.0
 40
0.0
 40
0.0
 40
1.203738760657664
 40
2.497474148797556
 40
3.819984185224871
 40
4.953713256635396
 40
4.953713256635396
 40
4.953713256635396
 40
4.953713256635396
 10
-12.43099975586038
 20
9.027000427247571
 30
0.0
 10
-12.61289036674912
 20
9.415800694990645
 30
0.0
 10
-12.99027050391064
 20
10.22246959149055
 30
0.0
 10
-14.42557647474227
 20
10.33435029161443
 30
0.0
 10
-15.67183731669317
 20
9.726093465908192
 30
0.0
 10
-15.8204189472126
 20
8.877627472247118
 30
0.0
 10
-15.88899993896536
 20
8.486000061036515
 30
0.0
 11
-12.43099975586038
 21
9.027000427247571
 31
0.0
 11
-13.10699844360439
 21
10.02299880981555
 31
0.0
 11
-14.38700103759839
 21
10.21100044250554
 31
0.0
 11
-15.54100036621138
 21
9.564998626709527
 31
0.0
 11
-15.88899993896536
 21
8.486000061036515
 31
0.0
  0
SPLINE
  5
7CF6
330
1F
100
AcDbEntity
  8
AM_0
100
AcDbSpline
210
0.0
220
0.0
230
1.0
 70
     8
 71
     3
 72
    11
 73
     7
 74
     5
 42
0.0000000001
 43
0.0000000001
 44
0.0000000001
 40
0.0
 40
0.0
 40
0.0
 40
0.0
 40
1.413736607908665
 40
2.828183514073316
 40
4.244372567548244
 40
5.660324826672166
 40
5.660324826672166
 40
5.660324826672166
 40
5.660324826672166
 10
-16.40200042724735
 20
6.04899978637751
 30
0.0
 10
-15.93135359258425
 20
6.025237096067823
 30
0.0
 10
-14.98982345797591
 20
5.977699776451193
 30
0.0
 10
-13.57645731722184
 20
5.914096509376435
 30
0.0
 10
-12.16212635320196
 20
5.855725658201576
 30
0.0
 10
-11.21868358939367
 20
5.821907813685515
 30
0.0
 10
-10.74700164795034
 20
5.805000305176598
 30
0.0
 11
-16.40200042724735
 21
6.04899978637751
 31
0.0
 11
-14.98999786377034
 21
5.979000091553534
 31
0.0
 11
-13.57699966430733
 21
5.914999008179554
 31
0.0
 11
-12.16199874878035
 21
5.857000350953575
 31
0.0
 11
-10.74700164795034
 21
5.805000305176598
 31
0.0
  0
SPLINE
  5
7CF7
330
1F
100
AcDbEntity
  8
AM_0
100
AcDbSpline
210
0.0
220
0.0
230
1.0
 70
     8
 71
     3
 72
    11
 73
     7
 74
     5
 42
0.0000000001
 43
0.0000000001
 44
0.0000000001
 40
0.0
 40
0.0
 40
0.0
 40
0.0
 40
0.0085464544278979
 40
0.0207134497457878
 40
0.035030865924899
 40
0.0532766550631932
 40
0.0532766550631932
 40
0.0532766550631932
 40
0.0532766550631932
 10
-35.7570037841803
 20
1.382999420166242
 30
0.0
 10
-35.75436925666159
 20
1.381873601358592
 30
0.0
 10
-35.74798413475831
 20
1.379145032278648
 30
0.0
 10
-35.7361955679659
 20
1.378296524591533
 30
0.0
 10
-35.72178546852869
 20
1.374410139024274
 30
0.0
 10
-35.71102892750925
 20
1.372866550331189
 30
0.0
 10
-35.7050018310553
 20
1.372001647950242
 30
0.0
 11
-35.7570037841803
 21
1.382999420166242
 31
0.0
 11
-35.7490005493173
 21
1.380001068116244
 31
0.0
 11
-35.7369995117193
 21
1.377998352051244
 31
0.0
 11
-35.72299957275428
 21
1.375000000000242
 31
0.0
 11
-35.7050018310553
 21
1.372001647950242
 31
0.0
  0
SPLINE
  5
7CF8
330
1F
100
AcDbEntity
  8
AM_0
100
AcDbSpline
210
0.0
220
0.0
230
1.0
 70
     8
 71
     3
 72
    11
 73
     7
 74
     5
 42
0.0000000001
 43
0.0000000001
 44
0.0000000001
 40
0.0
 40
0.0
 40
0.0
 40
0.0
 40
0.0090026855470029
 40
0.0160774219032049
 40
0.0221568430716097
 40
0.0262776838083674
 40
0.0262776838083674
 40
0.0262776838083674
 40
0.0262776838083674
 10
-27.03500366211026
 20
0.6720008850103671
 30
0.0
 10
-27.03199344096574
 20
0.6718740968856727
 30
0.0
 10
-27.0266176455867
 20
0.6716476726523273
 30
0.0
 10
-27.0193320475862
 20
0.6730074129177645
 30
0.0
 10
-27.01361729749347
 20
0.6737581166108927
 30
0.0
 10
-27.01033052191347
 20
0.6746421095524456
 30
0.0
 10
-27.00900268554725
 20
0.674999237061369
 30
0.0
 11
-27.03500366211026
 21
0.6720008850103671
 31
0.0
 11
-27.02600097656326
 21
0.6720008850103673
 31
0.0
 11
-27.01899719238326
 21
0.6730003356943661
 31
0.0
 11
-27.01300048828225
 21
0.6739997863773702
 31
0.0
 11
-27.00900268554725
 21
0.674999237061369
 31
0.0
  0
SPLINE
  5
7CF9
330
1F
100
AcDbEntity
  8
AM_0
100
AcDbSpline
210
0.0
220
0.0
230
1.0
 70
     8
 71
     3
 72
    11
 73
     7
 74
     5
 42
0.0000000001
 43
0.0000000001
 44
0.0000000001
 40
0.0
 40
0.0
 40
0.0
 40
0.0
 40
2.223607677902087
 40
4.44617031074862
 40
6.667647283120674
 40
8.889079949775453
 40
8.889079949775453
 40
8.889079949775453
 40
8.889079949775453
 10
-10.42599868774533
 20
5.975000381470597
 30
0.0
 10
-9.685001070749223
 20
5.957573537093319
 30
0.0
 10
-8.203354088790627
 20
5.922728038559426
 30
0.0
 10
-5.981379226711598
 20
5.872154122073313
 30
0.0
 10
-3.760018602049647
 20
5.826713575171949
 30
0.0
 10
-2.279335588675531
 20
5.797570453981828
 30
0.0
 10
-1.539001464844337
 20
5.782999038697722
 30
0.0
 11
-10.42599868774533
 21
5.975000381470597
 31
0.0
 11
-8.202999114991348
 21
5.923000335694628
 31
0.0
 11
-5.980998992920355
 21
5.872999191285669
 31
0.0
 11
-3.759998321534344
 21
5.82699966430769
 31
0.0
 11
-1.539001464844337
 21
5.782999038697722
 31
0.0
  0
SPLINE
  5
7CFA
330
1F
100
AcDbEntity
  8
AM_0
100
AcDbSpline
210
0.0
220
0.0
230
1.0
 70
     8
 71
     3
 72
    11
 73
     7
 74
     5
 42
0.0000000001
 43
0.0000000001
 44
0.0000000001
 40
0.0
 40
0.0
 40
0.0
 40
0.0
 40
1.340656532446351
 40
2.677663590115093
 40
4.019442732946296
 40
5.347185334146233
 40
5.347185334146233
 40
5.347185334146233
 40
5.347185334146233
 10
-5.432998657227358
 20
7.30900001525967
 30
0.0
 10
-4.970252561200444
 20
7.398764147135551
 30
0.0
 10
-4.046020035709243
 20
7.57804805901397
 30
0.0
 10
-3.426563707397171
 20
8.977166533663844
 30
0.0
 10
-3.936058977373285
 20
10.41078517748596
 30
0.0
 10
-4.834259413759689
 20
10.67405669628153
 30
0.0
 10
-5.280998229981405
 20
10.80500030517667
 30
0.0
 11
-5.432998657227358
 21
7.30900001525967
 31
0.0
 11
-4.173000335694375
 21
7.767000198365684
 31
0.0
 11
-3.615001678467378
 21
8.982000350953697
 31
0.0
 11
-4.078998565674401
 21
10.24099922180268
 31
0.0
 11
-5.280998229981405
 21
10.80500030517667
 31
0.0
  0
SPLINE
  5
7CFB
330
1F
100
AcDbEntity
  8
AM_0
100
AcDbSpline
210
0.0
220
0.0
230
1.0
 70
     8
 71
     3
 72
    11
 73
     7
 74
     5
 42
0.0000000001
 43
0.0000000001
 44
0.0000000001
 40
0.0
 40
0.0
 40
0.0
 40
0.0
 40
1.053726465232839
 40
2.108436531773315
 40
3.163146598314765
 40
4.217679920812941
 40
4.217679920812941
 40
4.217679920812941
 40
4.217679920812941
 10
-9.925998687745403
 20
11.66600036621161
 30
0.0
 10
-9.988353432863428
 20
11.32033732034871
 30
0.0
 10
-10.11312112815635
 20
10.62868856934165
 30
0.0
 10
-10.29991759140735
 20
9.59098492667031
 30
0.0
 10
-10.48725154936924
 20
8.55310464064604
 30
0.0
 10
-10.61108753253127
 20
7.861015142102614
 30
0.0
 10
-10.67300033569437
 20
7.514999389649597
 30
0.0
 11
-9.925998687745403
 21
11.66600036621161
 31
0.0
 11
-10.1129989624034
 21
10.6289997100836
 31
0.0
 11
-10.29999923706139
 21
9.590999603272599
 31
0.0
 11
-10.48699951171937
 21
8.552999496460605
 31
0.0
 11
-10.67300033569437
 21
7.514999389649597
 31
0.0
  0
SPLINE
  5
7CFC
330
1F
100
AcDbEntity
  8
AM_0
100
AcDbSpline
210
0.0
220
0.0
230
1.0
 70
     8
 71
     3
 72
    11
 73
     7
 74
     5
 42
0.0000000001
 43
0.0000000001
 44
0.0000000001
 40
0.0
 40
0.0
 40
0.0
 40
0.0
 40
0.1142152619054061
 40
0.2293848342597375
 40
0.3448064682710651
 40
0.4607415810747842
 40
0.4607415810747842
 40
0.4607415810747842
 40
0.4607415810747842
 10
-0.0000000000004125
 20
11.72799873352175
 30
0.0
 10
-0.0000103849840574
 20
11.76636181122063
 30
0.0
 10
-0.0000312417216986
 20
11.84340850421809
 30
0.0
 10
-0.0423380585580611
 20
11.95262133380298
 30
0.0
 10
-0.1131552538085851
 20
12.0470613810746
 30
0.0
 10
-0.1803383930399322
 20
12.08632407544566
 30
0.0
 10
-0.2140045166024357
 20
12.10599899292074
 30
0.0
 11
-0.0000000000004125
 21
11.72799873352175
 31
0.0
 11
-0.0070037841804286
 21
11.84199905395674
 31
0.0
 11
-0.0470046997084278
 21
11.94999885559175
 31
0.0
 11
-0.1180038452154317
 21
12.04100036621174
 31
0.0
 11
-0.2140045166024357
 21
12.10599899292074
 31
0.0
  0
SPLINE
  5
7CFD
330
1F
100
AcDbEntity
  8
AM_0
100
AcDbSpline
210
0.0
220
0.0
230
1.0
 70
     8
 71
     3
 72
    11
 73
     7
 74
     5
 42
0.0000000001
 43
0.0000000001
 44
0.0000000001
 40
0.0
 40
0.0
 40
0.0
 40
0.0
 40
1.051246313172776
 40
2.102493787539819
 40
3.153894562517114
 40
4.205142036884158
 40
4.205142036884158
 40
4.205142036884158
 40
4.205142036884158
 10
-0.7220001220713515
 20
6.444999694825735
 30
0.0
 10
-0.6686399582999406
 20
6.791328531425264
 30
0.0
 10
-0.5619195718161118
 20
7.483986587175069
 30
0.0
 10
-0.4023379581224886
 20
8.523102656424601
 30
0.0
 10
-0.2406843081790956
 20
9.561899038128698
 30
0.0
 10
-0.1342263699951646
 20
10.25464973658239
 30
0.0
 10
-0.0810012817394005
 20
10.60099983215474
 30
0.0
 11
-0.7220001220713515
 21
6.444999694825735
 31
0.0
 11
-0.5620040893563678
 21
7.483999252320742
 31
0.0
 11
-0.4020004272473789
 21
8.522998809815739
 31
0.0
 11
-0.2410049438483894
 21
9.562000274659743
 31
0.0
 11
-0.0810012817394005
 21
10.60099983215474
 31
0.0
  0
SPLINE
  5
7CFE
330
1F
100
AcDbEntity
  8
AM_0
100
AcDbSpline
210
0.0
220
0.0
230
1.0
 70
     8
 71
     3
 72
    11
 73
     7
 74
     5
 42
0.0000000001
 43
0.0000000001
 44
0.0000000001
 40
0.0
 40
0.0
 40
0.0
 40
0.0
 40
0.2879301455088119
 40
0.5747690826300549
 40
0.8598141949789994
 40
1.143821491815819
 40
1.143821491815819
 40
1.143821491815819
 40
1.143821491815819
 10
-1.539001464844337
 20
5.782999038697722
 30
0.0
 10
-1.44213983942014
 20
5.789640235663227
 30
0.0
 10
-1.248783678366773
 20
5.802897460538668
 30
0.0
 10
-0.9928518867564498
 20
5.948369330802716
 30
0.0
 10
-0.7956806736959269
 20
6.166515562157025
 30
0.0
 10
-0.7465304265138256
 20
6.352284583359561
 30
0.0
 10
-0.7220001220713515
 20
6.444999694825735
 30
0.0
 11
-1.539001464844337
 21
5.782999038697722
 31
0.0
 11
-1.254005432129337
 21
5.82399940490873
 31
0.0
 11
-1.001998901368346
 21
5.961000442505726
 31
0.0
 11
-0.8160018920903523
 21
6.177000045777733
 31
0.0
 11
-0.7220001220713515
 21
6.444999694825735
 31
0.0
  0
SPLINE
  5
7D04
330
1F
100
AcDbEntity
  8
AM_0
100
AcDbSpline
210
0.0
220
0.0
230
1.0
 70
     8
 71
     3
 72
    11
 73
     7
 74
     5
 42
0.0000000001
 43
0.0000000001
 44
0.0000000001
 40
0.0
 40
0.0
 40
0.0
 40
0.0
 40
0.0170276480789299
 40
0.0310632169200588
 40
0.0431057999111007
 40
0.052163793548088
 40
0.052163793548088
 40
0.052163793548088
 40
0.052163793548088
 10
-35.4879989624033
 20
1.533000946045245
 30
0.0
 10
-35.49366634110218
 20
1.533315184272739
 30
0.0
 10
-35.50400523306632
 20
1.533888443138553
 30
0.0
 10
-35.51833454766246
 20
1.534945961154448
 30
0.0
 10
-35.53001519016598
 20
1.535831178939102
 30
0.0
 10
-35.53700174693383
 20
1.536648074325226
 30
0.0
 10
-35.54000091552828
 20
1.536998748780244
 30
0.0
 11
-35.4879989624033
 21
1.533000946045245
 31
0.0
 11
-35.50499725341828
 21
1.534000396729244
 31
0.0
 11
-35.5189971923833
 21
1.534999847413243
 31
0.0
 11
-35.5309982299813
 21
1.535999298096246
 31
0.0
 11
-35.54000091552828
 21
1.536998748780244
 31
0.0
  0
SPLINE
  5
7D06
330
1F
100
AcDbEntity
  8
AM_0
100
AcDbSpline
210
0.0
220
0.0
230
1.0
 70
     8
 71
     3
 72
    11
 73
     7
 74
     5
 42
0.0000000001
 43
0.0000000001
 44
0.0000000001
 40
0.0
 40
0.0
 40
0.0
 40
0.0
 40
0.2861796454073265
 40
0.541194570962489
 40
0.7332407661674316
 40
0.8404639210617736
 40
0.8404639210617736
 40
0.8404639210617736
 40
0.8404639210617736
 10
-35.49400329589925
 20
-0.9630012512197533
 30
0.0
 10
-35.58898731664777
 20
-0.9525308695121546
 30
0.0
 10
-35.76861167911463
 20
-0.9327303217548463
 30
0.0
 10
-36.01218989348588
 20
-0.9321174320023766
 30
0.0
 10
-36.19970668938034
 20
-0.9390207679022928
 30
0.0
 10
-36.29268414612488
 20
-0.9765541142355544
 30
0.0
 10
-36.32599639892624
 20
-0.9900016784657678
 30
0.0
 11
-35.49400329589925
 21
-0.9630012512197533
 31
0.0
 11
-35.77899932861425
 21
-0.9370002746577551
 31
0.0
 11
-36.03399658203225
 21
-0.9339981079097551
 31
0.0
 11
-36.22499847412226
 21
-0.953998565672755
 31
0.0
 11
-36.32599639892624
 21
-0.9900016784657678
 31
0.0
  0
SPLINE
  5
7D07
330
1F
100
AcDbEntity
  8
AM_0
100
AcDbSpline
210
0.0
220
0.0
230
1.0
 70
     8
 71
     3
 72
    11
 73
     7
 74
     5
 42
0.0000000001
 43
0.0000000001
 44
0.0000000001
 40
0.0
 40
0.0
 40
0.0
 40
0.0
 40
1.330325726999166
 40
2.671907660683693
 40
4.00924806218476
 40
5.351008691281112
 40
5.351008691281112
 40
5.351008691281112
 40
5.351008691281112
 10
-5.280998229981405
 20
10.80500030517667
 30
0.0
 10
-5.738452050792704
 20
10.71341287501595
 30
0.0
 10
-6.657230319474195
 20
10.52946307136843
 30
0.0
 10
-7.28917483135385
 20
9.144309766697551
 30
0.0
 10
-6.792804920599704
 20
7.696289085362985
 30
0.0
 10
-5.886765700665154
 20
7.438238290615688
 30
0.0
 10
-5.432998657227358
 20
7.30900001525967
 30
0.0
 11
-5.280998229981405
 21
10.80500030517667
 31
0.0
 11
-6.529998779297392
 21
10.34700012207165
 31
0.0
 11
-7.101001739502381
 21
9.132999420166648
 31
0.0
 11
-6.650001525879369
 21
7.874000549317657
 31
0.0
 11
-5.432998657227358
 21
7.30900001525967
 31
0.0
  0
SPLINE
  5
7D08
330
1F
100
AcDbEntity
  8
AM_0
100
AcDbSpline
210
0.0
220
0.0
230
1.0
 70
     8
 71
     3
 72
    11
 73
     7
 74
     5
 42
0.0000000001
 43
0.0000000001
 44
0.0000000001
 40
0.0
 40
0.0
 40
0.0
 40
0.0
 40
0.1140705308190839
 40
0.228559920352038
 40
0.3427613279054464
 40
0.4570478196467201
 40
0.4570478196467201
 40
0.4570478196467201
 40
0.4570478196467201
 10
-10.78300094604536
 20
6.389999389649595
 30
0.0
 10
-10.78409405845534
 20
6.351672087430309
 30
0.0
 10
-10.78628429710477
 20
6.274876747918459
 30
0.0
 10
-10.74573266249082
 20
6.165619940743292
 30
0.0
 10
-10.67704638040783
 20
6.071081218994719
 30
0.0
 10
-10.61102306537108
 20
6.031698048325184
 30
0.0
 10
-10.57799911499134
 20
6.011999130249595
 30
0.0
 11
-10.78300094604536
 21
6.389999389649595
 31
0.0
 11
-10.77899932861434
 21
6.275999069214592
 31
0.0
 11
-10.74100112915133
 21
6.167999267579596
 31
0.0
 11
-10.67200088501033
 21
6.076999664307594
 31
0.0
 11
-10.57799911499134
 21
6.011999130249595
 31
0.0
  0
SPLINE
  5
7D09
330
1F
100
AcDbEntity
  8
AM_0
100
AcDbSpline
210
0.0
220
0.0
230
1.0
 70
     8
 71
     3
 72
    11
 73
     7
 74
     5
 42
0.0000000001
 43
0.0000000001
 44
0.0000000001
 40
0.0
 40
0.0
 40
0.0
 40
0.0
 40
0.0612089738618811
 40
0.1244030830832683
 40
0.1876047977731274
 40
0.2517952717844633
 40
0.2517952717844633
 40
0.2517952717844633
 40
0.2517952717844633
 10
-35.16500091552829
 20
1.508998870850251
 30
0.0
 10
-35.14466715644707
 20
1.507319216943463
 30
0.0
 10
-35.10334017184372
 20
1.503905434431951
 30
0.0
 10
-35.04099649554708
 20
1.49901713151377
 30
0.0
 10
-34.97767012813652
 20
1.493949920000388
 30
0.0
 10
-34.93533388406497
 20
1.490657433643692
 30
0.0
 10
-34.91400146484429
 20
1.488998413086255
 30
0.0
 11
-35.16500091552829
 21
1.508998870850251
 31
0.0
 11
-35.10399627685629
 21
1.504001617432255
 31
0.0
 11
-35.04100036621129
 21
1.499000549317256
 31
0.0
 11
-34.97799682617227
 21
1.493999481202257
 31
0.0
 11
-34.91400146484429
 21
1.488998413086255
 31
0.0
  0
SPLINE
  5
7D0A
330
1F
100
AcDbEntity
  8
AM_0
100
AcDbSpline
210
0.0
220
0.0
230
1.0
 70
     8
 71
     3
 72
    11
 73
     7
 74
     5
 42
0.0000000001
 43
0.0000000001
 44
0.0000000001
 40
0.0
 40
0.0
 40
0.0
 40
0.0
 40
0.0524634088950258
 40
0.0978674627898002
 40
0.1360715947711167
 40
0.1650881411141008
 40
0.1650881411141008
 40
0.1650881411141008
 40
0.1650881411141008
 10
-27.19899749755925
 20
0.689998626709363
 30
0.0
 10
-27.18166415199777
 20
0.6876699759200494
 30
0.0
 10
-27.14932979577712
 20
0.6833260122075583
 30
0.0
 10
-27.10440084658213
 20
0.6772184936649301
 30
0.0
 10
-27.06709424953374
 20
0.6726329802952373
 30
0.0
 10
-27.04467931537609
 20
0.6721914684586122
 30
0.0
 10
-27.03500366211026
 20
0.6720008850103671
 30
0.0
 11
-27.19899749755925
 21
0.689998626709363
 31
0.0
 11
-27.14700317382927
 21
0.6829986572273682
 31
0.0
 11
-27.10199737548925
 21
0.6769981384283632
 31
0.0
 11
-27.06400299072326
 21
0.6730003356943654
 31
0.0
 11
-27.03500366211026
 21
0.6720008850103671
 31
0.0
  0
SPLINE
  5
7D0B
330
1F
100
AcDbEntity
  8
AM_0
100
AcDbSpline
210
0.0
220
0.0
230
1.0
 70
     8
 71
     3
 72
    11
 73
     7
 74
     5
 42
0.0000000001
 43
0.0000000001
 44
0.0000000001
 40
0.0
 40
0.0
 40
0.0
 40
0.0
 40
0.0496522269511974
 40
0.0975030816413469
 40
0.1440378268369342
 40
0.1887585041237148
 40
0.1887585041237148
 40
0.1887585041237148
 40
0.1887585041237148
 10
-27.38500213623126
 20
0.7220001220713633
 30
0.0
 10
-27.36863665501113
 20
0.719510134756578
 30
0.0
 10
-27.33649942875793
 20
0.7146204963385861
 30
0.0
 10
-27.28955313916697
 20
0.7043810841998074
 30
0.0
 10
-27.24351052175638
 20
0.6985882287212727
 30
0.0
 10
-27.2136372216987
 20
0.6928236291932454
 30
0.0
 10
-27.19899749755925
 20
0.689998626709363
 30
0.0
 11
-27.38500213623126
 21
0.7220001220713633
 31
0.0
 11
-27.33599853515725
 21
0.7140007019053626
 31
0.0
 11
-27.28900146484428
 21
0.7050018310553631
 31
0.0
 11
-27.24299621582126
 21
0.6980018615733611
 31
0.0
 11
-27.19899749755925
 21
0.689998626709363
 31
0.0
  0
ELLIPSE
  5
7D0C
330
1F
100
AcDbEntity
  8
AM_0
100
AcDbEllipse
 10
-27.43499755859428
 20
0.8990020751963621
 30
0.0
 11
0.2282943744840014
 21
-0.0179805621129997
 31
0.0
210
0.0
220
0.0
230
1.0
 40
0.0043687803272
 41
0.3769524107113724
 42
1.566657558999987
  0
SPLINE
  5
7D0D
330
1F
100
AcDbEntity
  8
AM_0
100
AcDbSpline
210
0.0
220
0.0
230
1.0
 70
     8
 71
     3
 72
    11
 73
     7
 74
     5
 42
0.0000000001
 43
0.0000000001
 44
0.0000000001
 40
0.0
 40
0.0
 40
0.0
 40
0.0
 40
0.2877933047655199
 40
0.5772624066394755
 40
0.8655982375651642
 40
1.151997247173723
 40
1.151997247173723
 40
1.151997247173723
 40
1.151997247173723
 10
-9.094001770020437
 20
12.3269996643076
 30
0.0
 10
-9.190840998183768
 20
12.32066526869078
 30
0.0
 10
-9.385083341494077
 20
12.30795959278441
 30
0.0
 10
-9.643058743615643
 20
12.16222975860433
 30
0.0
 10
-9.844615629341024
 20
11.94498895368962
 30
0.0
 10
-9.898932015912603
 20
11.75878739941504
 30
0.0
 10
-9.925998687745403
 20
11.66600036621161
 30
0.0
 11
-9.094001770020437
 21
12.3269996643076
 31
0.0
 11
-9.379001617432432
 21
12.28699874878061
 31
0.0
 11
-9.633998870850442
 21
12.1499996185316
 31
0.0
 11
-9.825000762940423
 21
11.93400001525961
 31
0.0
 11
-9.925998687745403
 21
11.66600036621161
 31
0.0
  0
SPLINE
  5
7D0E
330
1F
100
AcDbEntity
  8
AM_0
100
AcDbSpline
210
0.0
220
0.0
230
1.0
 70
     8
 71
     3
 72
    11
 73
     7
 74
     5
 42
0.0000000001
 43
0.0000000001
 44
0.0000000001
 40
0.0
 40
0.0
 40
0.0
 40
0.0
 40
2.17738800720944
 40
4.358851951885931
 40
6.542378267202863
 40
8.72996926691774
 40
8.72996926691774
 40
8.72996926691774
 40
8.72996926691774
 10
-9.094001770020437
 20
12.3269996643076
 30
0.0
 10
-8.368328664556756
 20
12.31362923865788
 30
0.0
 10
-6.915624037862616
 20
12.2868633587376
 30
0.0
 10
-4.735304989624641
 20
12.2413414825216
 30
0.0
 10
-2.551632346140934
 20
12.19360525949839
 30
0.0
 10
-1.094998917133542
 20
12.15921254595858
 30
0.0
 10
-0.3660049438484306
 20
12.14200019836573
 30
0.0
 11
-9.094001770020437
 21
12.3269996643076
 31
0.0
 11
-6.916999816895436
 21
12.28599929809665
 31
0.0
 11
-4.736000061036429
 21
12.24099922180267
 31
0.0
 11
-2.553001403809425
 21
12.1929988861097
 31
0.0
 11
-0.3660049438484306
 21
12.14200019836573
 31
0.0
  0
SPLINE
  5
7D0F
330
1F
100
AcDbEntity
  8
AM_0
100
AcDbSpline
210
0.0
220
0.0
230
1.0
 70
     8
 71
     3
 72
    11
 73
     7
 74
     5
 42
0.0000000001
 43
0.0000000001
 44
0.0000000001
 40
0.0
 40
0.0
 40
0.0
 40
0.0
 40
0.0300653016945451
 40
0.0571396193801675
 40
0.0812251022547909
 40
0.1032433418895972
 40
0.1032433418895972
 40
0.1032433418895972
 40
0.1032433418895972
 10
-35.3850021362313
 20
1.526000976563244
 30
0.0
 10
-35.39500209819405
 20
1.5266618062257
 30
0.0
 10
-35.41400719670174
 20
1.527917724286045
 30
0.0
 10
-35.4410176394061
 20
1.529787305755781
 30
0.0
 10
-35.46530004189983
 20
1.532200373861529
 30
0.0
 10
-35.48066226429059
 20
1.532742186760703
 30
0.0
 10
-35.4879989624033
 20
1.533000946045245
 30
0.0
 11
-35.3850021362313
 21
1.526000976563244
 31
0.0
 11
-35.41500091552828
 21
1.527999877930247
 31
0.0
 11
-35.44200134277429
 21
1.529998779297249
 31
0.0
 11
-35.4660034179693
 21
1.532001495362249
 31
0.0
 11
-35.4879989624033
 21
1.533000946045245
 31
0.0
  0
ELLIPSE
  5
7D10
330
1F
100
AcDbEntity
  8
AM_0
100
AcDbEllipse
 10
-27.41999816894626
 20
0.897998809815361
 30
0.0
 11
0.2023696860909967
 21
-0.0159378002079976
 31
0.0
210
0.0
220
0.0
230
1.0
 40
0.0049378157241
 41
0.0
 42
0.3764835676348321
  0
SPLINE
  5
7D11
330
1F
100
AcDbEntity
  8
AM_0
100
AcDbSpline
210
0.0
220
0.0
230
1.0
 70
     8
 71
     3
 72
    11
 73
     7
 74
     5
 42
0.0000000001
 43
0.0000000001
 44
0.0000000001
 40
0.0
 40
0.0
 40
0.0
 40
0.0
 40
0.0261737232231148
 40
0.0554473203162618
 40
0.0895838022647276
 40
0.1267941176951524
 40
0.1267941176951524
 40
0.1267941176951524
 40
0.1267941176951524
 10
-35.7050018310553
 20
1.372001647950242
 30
0.0
 10
-35.69632550485575
 20
1.37107804331567
 30
0.0
 10
-35.67794527542281
 20
1.369121447321199
 30
0.0
 10
-35.64845217924884
 20
1.364282794417998
 30
0.0
 10
-35.61494117112324
 20
1.36224485157328
 30
0.0
 10
-35.59132118386129
 20
1.359456138547998
 30
0.0
 10
-35.57900238037229
 20
1.358001708985244
 30
0.0
 11
-35.7050018310553
 21
1.372001647950242
 31
0.0
 11
-35.67900085449331
 21
1.368999481202246
 31
0.0
 11
-35.65000152587928
 21
1.365001678467246
 31
0.0
 11
-35.6159973144543
 21
1.361999511719242
 31
0.0
 11
-35.57900238037229
 21
1.358001708985244
 31
0.0
  0
SPLINE
  5
7D12
330
1F
100
AcDbEntity
  8
AM_0
100
AcDbSpline
210
0.0
220
0.0
230
1.0
 70
     8
 71
     3
 72
    11
 73
     7
 74
     5
 42
0.0000000001
 43
0.0000000001
 44
0.0000000001
 40
0.0
 40
0.0
 40
0.0
 40
0.0
 40
0.0621978434512487
 40
0.1193373436993481
 40
0.172489307278489
 40
0.2206599559853174
 40
0.2206599559853174
 40
0.2206599559853174
 40
0.2206599559853174
 10
-35.16500091552829
 20
1.508998870850251
 30
0.0
 10
-35.18566153277329
 20
1.510730906360972
 30
0.0
 10
-35.22530250815758
 20
1.514054116709969
 30
0.0
 10
-35.28267700798242
 20
1.517819673593307
 30
0.0
 10
-35.33534936722077
 20
1.52178664102877
 30
0.0
 10
-35.36900271206031
 20
1.524643007145655
 30
0.0
 10
-35.3850021362313
 20
1.526000976563244
 30
0.0
 11
-35.16500091552829
 21
1.508998870850251
 31
0.0
 11
-35.22699737548928
 21
1.513999938965249
 31
0.0
 11
-35.28399658203227
 21
1.518001556397252
 31
0.0
 11
-35.33699798584027
 21
1.52199935913125
 31
0.0
 11
-35.3850021362313
 21
1.526000976563244
 31
0.0
  0
SPLINE
  5
7D13
330
1F
100
AcDbEntity
  8
AM_0
100
AcDbSpline
210
0.0
220
0.0
230
1.0
 70
     8
 71
     3
 72
    11
 73
     7
 74
     5
 42
0.0000000001
 43
0.0000000001
 44
0.0000000001
 40
0.0
 40
0.0
 40
0.0
 40
0.0
 40
0.0651945401944405
 40
0.1363696014520282
 40
0.2146029911635559
 40
0.2977534748493916
 40
0.2977534748493916
 40
0.2977534748493916
 40
0.2977534748493916
 10
-35.57900238037229
 20
1.358001708985244
 30
0.0
 10
-35.55733860393248
 20
1.356284022474105
 30
0.0
 10
-35.51202375777769
 20
1.352691080116587
 30
0.0
 10
-35.44063588787185
 20
1.348083441329299
 30
0.0
 10
-35.36339119202148
 20
1.341475601243734
 30
0.0
 10
-35.3096744043735
 20
1.338523053817387
 30
0.0
 10
-35.28199768066529
 20
1.337001800538246
 30
0.0
 11
-35.57900238037229
 21
1.358001708985244
 31
0.0
 11
-35.51399993896527
 21
1.353000640870245
 31
0.0
 11
-35.4430007934583
 21
1.347999572754245
 31
0.0
 11
-35.3649978637703
 21
1.341999053956249
 31
0.0
 11
-35.28199768066529
 21
1.337001800538246
 31
0.0
  0
SPLINE
  5
7D14
330
1F
100
AcDbEntity
  8
AM_0
100
AcDbSpline
210
0.0
220
0.0
230
1.0
 70
     8
 71
     3
 72
    11
 73
     7
 74
     5
 42
0.0000000001
 43
0.0000000001
 44
0.0000000001
 40
0.0
 40
0.0
 40
0.0
 40
0.0
 40
0.0360131693273773
 40
0.0720263386557293
 40
0.1080395079841084
 40
0.1430536225742668
 40
0.1430536225742668
 40
0.1430536225742668
 40
0.1430536225742668
 10
-34.91400146484429
 20
1.488998413086255
 30
0.0
 10
-34.91433444276621
 20
1.476998642202544
 30
0.0
 10
-34.91500039861004
 20
1.452999100434795
 30
0.0
 10
-34.91600243388533
 20
1.41699987511982
 30
0.0
 10
-34.91698291189202
 20
1.381333192991577
 30
0.0
 10
-34.91766367416956
 20
1.35766721839259
 30
0.0
 10
-34.91799926757929
 20
1.346000671387257
 30
0.0
 11
-34.91400146484429
 21
1.488998413086255
 31
0.0
 11
-34.91500091552829
 21
1.452999114991256
 31
0.0
 11
-34.91600036621129
 21
1.416999816895254
 31
0.0
 11
-34.9169998168953
 21
1.381000518799253
 31
0.0
 11
-34.91799926757929
 21
1.346000671387257
 31
0.0
  0
SPLINE
  5
7D15
330
1F
100
AcDbEntity
  8
AM_0
100
AcDbSpline
210
0.0
220
0.0
230
1.0
 70
     8
 71
     3
 72
    11
 73
     7
 74
     5
 42
0.0000000001
 43
0.0000000001
 44
0.0000000001
 40
0.0
 40
0.0
 40
0.0
 40
0.0
 40
0.0821530936729921
 40
0.1652496840825574
 40
0.2493443979675349
 40
0.3354359828701308
 40
0.3354359828701308
 40
0.3354359828701308
 40
0.3354359828701308
 10
-35.28199768066529
 20
1.337001800538246
 30
0.0
 10
-35.25466913415762
 20
1.335242708499847
 30
0.0
 10
-35.19969818327894
 20
1.331704321926424
 30
0.0
 10
-35.11666065479044
 20
1.328051544638609
 30
0.0
 10
-35.03233428006647
 20
1.323929861128437
 30
0.0
 10
-34.97566546423291
 20
1.321319957975159
 30
0.0
 10
-34.94699859619229
 20
1.319999694825254
 30
0.0
 11
-35.28199768066529
 21
1.337001800538246
 31
0.0
 11
-35.1999969482433
 21
1.332000732422253
 31
0.0
 11
-35.1169967651373
 21
1.327999114991253
 31
0.0
 11
-35.03299713134828
 21
1.324001312256255
 31
0.0
 11
-34.94699859619229
 21
1.319999694825254
 31
0.0
  0
SPLINE
  5
7D21
330
1F
100
AcDbEntity
  8
AM_0
100
AcDbSpline
210
0.0
220
0.0
230
1.0
 70
     8
 71
     3
 72
    11
 73
     7
 74
     5
 42
0.0000000001
 43
0.0000000001
 44
0.0000000001
 40
0.0
 40
0.0
 40
0.0
 40
0.0
 40
1.163801516610069
 40
2.496471355358002
 40
3.80713060037908
 40
5.037067654899059
 40
5.037067654899059
 40
5.037067654899059
 40
5.037067654899059
 10
-15.88899993896536
 20
8.486000061036515
 30
0.0
 10
-15.70350556069293
 20
8.125473884850203
 30
0.0
 10
-15.30560145477121
 20
7.352108960625376
 30
0.0
 10
-13.91625999709411
 20
7.074983424814117
 30
0.0
 10
-12.58794508003657
 20
7.701676890431121
 30
0.0
 10
-12.48219486583866
 20
8.594683729822689
 30
0.0
 10
-12.43099975586038
 20
9.027000427247571
 30
0.0
 11
-15.88899993896536
 21
8.486000061036515
 31
0.0
 11
-15.22100067138737
 21
7.532999038697526
 31
0.0
 11
-13.92300033569436
 21
7.230998992920554
 31
0.0
 11
-12.76399993896537
 21
7.843000411988565
 31
0.0
 11
-12.43099975586038
 21
9.027000427247571
 31
0.0
  0
SPLINE
  5
7D22
330
1F
100
AcDbEntity
  8
AM_0
100
AcDbSpline
210
0.0
220
0.0
230
1.0
 70
     8
 71
     3
 72
    11
 73
     7
 74
     5
 42
0.0000000001
 43
0.0000000001
 44
0.0000000001
 40
0.0
 40
0.0
 40
0.0
 40
0.0
 40
0.7190288390517388
 40
1.438055980391837
 40
2.15828200811839
 40
2.878283576985902
 40
2.878283576985902
 40
2.878283576985902
 40
2.878283576985902
 10
-18.72599792480541
 20
10.59799957275447
 30
0.0
 10
-18.7793563932647
 20
10.36433830508634
 30
0.0
 10
-18.88607320419768
 20
9.897016321451825
 30
0.0
 10
-19.04580662819342
 20
9.195545504134392
 30
0.0
 10
-19.20729345769698
 20
8.49414316627584
 30
0.0
 10
-19.31376786065407
 20
8.026023281260531
 30
0.0
 10
-19.36699676513737
 20
7.791999816895475
 30
0.0
 11
-18.72599792480541
 21
10.59799957275447
 31
0.0
 11
-18.88600158691539
 21
9.896999359131479
 31
0.0
 11
-19.04599761962937
 21
9.195999145508471
 31
0.0
 11
-19.20700073242236
 21
8.493999481202472
 31
0.0
 11
-19.36699676513737
 21
7.791999816895475
 31
0.0
  0
SPLINE
  5
7D23
330
1F
100
AcDbEntity
  8
AM_0
100
AcDbSpline
210
0.0
220
0.0
230
1.0
 70
     8
 71
     3
 72
    11
 73
     7
 74
     5
 42
0.0000000001
 43
0.0000000001
 44
0.0000000001
 40
0.0
 40
0.0
 40
0.0
 40
0.0
 40
0.2890175075021439
 40
0.5708389809641031
 40
0.8312439328876138
 40
1.067880534517092
 40
1.067880534517092
 40
1.067880534517092
 40
1.067880534517092
 10
-17.8939971923834
 20
11.15699958801349
 30
0.0
 10
-17.99046601543163
 20
11.14638274212521
 30
0.0
 10
-18.1810017553582
 20
11.12541339137445
 30
0.0
 10
-18.43344540163229
 20
11.00313779808336
 30
0.0
 10
-18.63833595145848
 20
10.83014528401114
 30
0.0
 10
-18.69772390394432
 20
10.67287460045783
 30
0.0
 10
-18.72599792480541
 20
10.59799957275447
 30
0.0
 11
-17.8939971923834
 21
11.15699958801349
 31
0.0
 11
-18.1790008544934
 21
11.10899925232049
 31
0.0
 11
-18.4339981079114
 21
10.98900032043547
 31
0.0
 11
-18.62500000000041
 21
10.81200027465947
 31
0.0
 11
-18.72599792480541
 21
10.59799957275447
 31
0.0
  0
SPLINE
  5
7D24
330
1F
100
AcDbEntity
  8
AM_0
100
AcDbSpline
210
0.0
220
0.0
230
1.0
 70
     8
 71
     3
 72
    11
 73
     7
 74
     5
 42
0.0000000001
 43
0.0000000001
 44
0.0000000001
 40
0.0
 40
0.0
 40
0.0
 40
0.0
 40
2.012107153625344
 40
4.02513021244235
 40
6.037905257881505
 40
8.051594591508536
 40
8.051594591508536
 40
8.051594591508536
 40
8.051594591508536
 10
-17.8939971923834
 20
11.15699958801349
 30
0.0
 10
-17.22566750126103
 20
11.21336487944162
 30
0.0
 10
-15.88870389732871
 20
11.32612111961088
 30
0.0
 10
-13.88313965489664
 20
11.49468958880818
 30
0.0
 10
-11.87670274504638
 20
11.65912000747749
 30
0.0
 10
-10.53900145343038
 20
11.76836503656241
 30
0.0
 10
-9.869998931885421
 20
11.82299995422461
 30
0.0
 11
-17.8939971923834
 21
11.15699958801349
 31
0.0
 11
-15.88899993896541
 21
11.32600021362351
 31
0.0
 11
-13.8829994201664
 21
11.49399948120255
 31
0.0
 11
-11.8769989013684
 21
11.65900039672957
 31
0.0
 11
-9.869998931885421
 21
11.82299995422461
 31
0.0
  0
SPLINE
  5
7D2C
330
1F
100
AcDbEntity
  8
AM_0
100
AcDbSpline
210
0.0
220
0.0
230
1.0
 70
     8
 71
     3
 72
    11
 73
     7
 74
     5
 42
0.0000000001
 43
0.0000000001
 44
0.0000000001
 40
0.0
 40
0.0
 40
0.0
 40
0.0
 40
0.053007012302602
 40
0.1060178386251032
 40
0.1580255813337127
 40
0.2110364076552182
 40
0.2110364076552182
 40
0.2110364076552182
 40
0.2110364076552182
 10
-26.11399841308619
 20
-4.532001495360626
 30
0.0
 10
-26.1143321473687
 20
-4.54966734727899
 30
0.0
 10
-26.11499963994693
 20
-4.585000322228876
 30
0.0
 10
-26.11598412781939
 20
-4.637666317546072
 30
0.0
 10
-26.11700961055325
 20
-4.690332803938622
 30
0.0
 10
-26.11766525992282
 20
-4.725332854136247
 30
0.0
 10
-26.11799621582119
 20
-4.743000030516628
 30
0.0
 11
-26.11399841308619
 21
-4.532001495360626
 31
0.0
 11
-26.1149978637702
 21
-4.584999084471626
 31
0.0
 11
-26.1159973144542
 21
-4.638000488280627
 31
0.0
 11
-26.1169967651372
 21
-4.689998626708624
 31
0.0
 11
-26.11799621582119
 21
-4.743000030516628
 31
0.0
  0
ELLIPSE
  5
7D2D
330
1F
100
AcDbEntity
  8
AM_0
100
AcDbEllipse
 10
-18.63500213623118
 20
-4.763999938963517
 30
0.0
 11
0.2280578655209953
 21
-0.0207175944779973
 31
0.0
210
0.0
220
0.0
230
1.0
 40
0.4934598001032002
 41
4.804111203007972
 42
5.331066175577449
  0
SPLINE
  5
7D2E
330
1F
100
AcDbEntity
  8
AM_0
100
AcDbSpline
210
0.0
220
0.0
230
1.0
 70
     8
 71
     3
 72
    11
 73
     7
 74
     5
 42
0.0000000001
 43
0.0000000001
 44
0.0000000001
 40
0.0
 40
0.0
 40
0.0
 40
0.0
 40
0.0411439681785341
 40
0.0810710441255812
 40
0.1209193573377975
 40
0.1609463807974148
 40
0.1609463807974148
 40
0.1609463807974148
 40
0.1609463807974148
 10
-17.88800048828212
 20
-9.020999908446517
 30
0.0
 10
-17.89417464762243
 20
-9.008747938640997
 30
0.0
 10
-17.90634035663096
 20
-8.984606368717095
 30
0.0
 10
-17.92144707816898
 20
-8.947192384107248
 30
0.0
 10
-17.93366069730516
 20
-8.909108313026775
 30
0.0
 10
-17.93921698380498
 20
-8.883054822649931
 30
0.0
 10
-17.94200134277415
 20
-8.869998931883507
 30
0.0
 11
-17.88800048828212
 21
-9.020999908446517
 31
0.0
 11
-17.90599822998112
 21
-8.984001159667508
 31
0.0
 11
-17.92099761962912
 21
-8.946998596190518
 31
0.0
 11
-17.93299865722713
 21
-8.909000396727513
 31
0.0
 11
-17.94200134277415
 21
-8.869998931883507
 31
0.0
  0
SPLINE
  5
7D2F
330
1F
100
AcDbEntity
  8
AM_0
100
AcDbSpline
210
0.0
220
0.0
230
1.0
 70
     8
 71
     3
 72
    11
 73
     7
 74
     5
 42
0.0000000001
 43
0.0000000001
 44
0.0000000001
 40
0.0
 40
0.0
 40
0.0
 40
0.0
 40
0.0199996948820041
 40
0.0627203565442944
 40
0.1328984724914082
 40
0.2248937117484035
 40
0.2248937117484035
 40
0.2248937117484035
 40
0.2248937117484035
 10
-26.39900207519622
 20
-2.639999389647626
 30
0.0
 10
-26.40260037363946
 20
-2.645879965767492
 30
0.0
 10
-26.41388487386031
 20
-2.66432183866105
 30
0.0
 10
-26.46293073886609
 20
-2.669161884662111
 30
0.0
 10
-26.5284806403737
 20
-2.674562500816033
 30
0.0
 10
-26.58304561981097
 20
-2.673565754699608
 30
0.0
 10
-26.61399841308621
 20
-2.673000335692622
 30
0.0
 11
-26.39900207519622
 21
-2.639999389647626
 31
0.0
 11
-26.41100311279321
 21
-2.655998229979629
 31
0.0
 11
-26.4520034790042
 21
-2.667999267577626
 31
0.0
 11
-26.52200317382922
 21
-2.673000335692628
 31
0.0
 11
-26.61399841308621
 21
-2.673000335692622
 31
0.0
  0
SPLINE
  5
7D30
330
1F
100
AcDbEntity
  8
AM_0
100
AcDbSpline
210
0.0
220
0.0
230
1.0
 70
     8
 71
     3
 72
    11
 73
     7
 74
     5
 42
0.0000000001
 43
0.0000000001
 44
0.0000000001
 40
0.0
 40
0.0
 40
0.0
 40
0.0
 40
0.0625830123257266
 40
0.1265398803859465
 40
0.1900416558019614
 40
0.2542397360207608
 40
0.2542397360207608
 40
0.2542397360207608
 40
0.2542397360207608
 10
-26.3649978637702
 20
-4.49399948120063
 30
0.0
 10
-26.34471481261643
 20
-4.498901638427597
 30
0.0
 10
-26.30370344592956
 20
-4.508813567656968
 30
0.0
 10
-26.24120343438047
 20
-4.51936156105737
 30
0.0
 10
-26.17783514101731
 20
-4.52769512415139
 30
0.0
 10
-26.13535453326747
 20
-4.530560829711396
 30
0.0
 10
-26.11399841308619
 20
-4.532001495360626
 30
0.0
 11
-26.3649978637702
 21
-4.49399948120063
 31
0.0
 11
-26.3040008544932
 21
-4.50799942016563
 31
0.0
 11
-26.2409973144542
 21
-4.519001007079626
 31
0.0
 11
-26.17800140380919
 21
-4.527000427245628
 31
0.0
 11
-26.11399841308619
 21
-4.532001495360626
 31
0.0
  0
SPLINE
  5
7D31
330
1F
100
AcDbEntity
  8
AM_0
100
AcDbSpline
210
0.0
220
0.0
230
1.0
 70
     8
 71
     3
 72
    11
 73
     7
 74
     5
 42
0.0000000001
 43
0.0000000001
 44
0.0000000001
 40
0.0
 40
0.0
 40
0.0
 40
0.0
 40
0.0839534165502442
 40
0.1679655769260336
 40
0.2524458595560225
 40
0.3384967808419725
 40
0.3384967808419725
 40
0.3384967808419725
 40
0.3384967808419725
 10
-26.48200225830119
 20
-4.739997863768629
 30
0.0
 10
-26.45474253780183
 20
-4.746384769555922
 30
0.0
 10
-26.40020402265066
 20
-4.759163050171729
 30
0.0
 10
-26.31690173045896
 20
-4.771394742884902
 30
0.0
 10
-26.23257394753125
 20
-4.78146665705374
 30
0.0
 10
-26.17570136902272
 20
-4.782486385721097
 30
0.0
 10
-26.14700317382919
 20
-4.783000946043623
 30
0.0
 11
-26.48200225830119
 21
-4.739997863768629
 31
0.0
 11
-26.40000152587919
 21
-4.757999420165631
 31
0.0
 11
-26.3170013427742
 21
-4.770999908446631
 31
0.0
 11
-26.2330017089852
 21
-4.779998779295627
 31
0.0
 11
-26.14700317382919
 21
-4.783000946043623
 31
0.0
  0
SPLINE
  5
7D32
330
1F
100
AcDbEntity
  8
AM_0
100
AcDbSpline
210
0.0
220
0.0
230
1.0
 70
     8
 71
     3
 72
    11
 73
     7
 74
     5
 42
0.0000000001
 43
0.0000000001
 44
0.0000000001
 40
0.0
 40
0.0
 40
0.0
 40
0.0
 40
0.0492501551529615
 40
0.0963506307315402
 40
0.1423591072669781
 40
0.1865394213307206
 40
0.1865394213307206
 40
0.1865394213307206
 40
0.1865394213307206
 10
-18.58499908447318
 20
-5.136001586913517
 30
0.0
 10
-18.5686777656861
 20
-5.137754475142747
 30
0.0
 10
-18.5367475239514
 20
-5.141183741222492
 30
0.0
 10
-18.48938920040886
 20
-5.144772265730979
 30
0.0
 10
-18.44355891282334
 20
-5.143630346870895
 30
0.0
 10
-18.41365228132052
 20
-5.140522408552817
 30
0.0
 10
-18.39900207519618
 20
-5.138999938963514
 30
0.0
 11
-18.58499908447318
 21
-5.136001586913517
 31
0.0
 11
-18.53600311279318
 21
-5.140998840331521
 31
0.0
 11
-18.48899841308618
 21
-5.144001007079516
 31
0.0
 11
-18.44300079345818
 21
-5.143001556395519
 31
0.0
 11
-18.39900207519618
 21
-5.138999938963514
 31
0.0
  0
SPLINE
  5
7D33
330
1F
100
AcDbEntity
  8
AM_0
100
AcDbSpline
210
0.0
220
0.0
230
1.0
 70
     8
 71
     3
 72
    11
 73
     7
 74
     5
 42
0.0000000001
 43
0.0000000001
 44
0.0000000001
 40
0.0
 40
0.0
 40
0.0
 40
0.0
 40
0.4235191705300763
 40
0.8470417097225322
 40
1.270560880252618
 40
1.694540975224782
 40
1.694540975224782
 40
1.694540975224782
 40
1.694540975224782
 10
-27.52600097656316
 20
-6.691001892088625
 30
0.0
 10
-27.58833953846858
 20
-6.564338009165682
 30
0.0
 10
-27.71301715811901
 20
-6.311009235837996
 30
0.0
 10
-27.89991798437869
 20
-5.930960063135768
 30
0.0
 10
-28.08738506503868
 20
-5.55101730752641
 30
0.0
 10
-28.21110767525818
 20
-5.297050589600407
 30
0.0
 10
-28.27300262451219
 20
-5.169998168944652
 30
0.0
 11
-27.52600097656316
 21
-6.691001892088625
 31
0.0
 11
-27.71299743652417
 21
-6.311000823973634
 31
0.0
 11
-27.90000152587917
 21
-5.930999755858646
 31
0.0
 11
-28.08699798584018
 21
-5.550998687743642
 31
0.0
 11
-28.27300262451219
 21
-5.169998168944652
 31
0.0
  0
SPLINE
  5
7D34
330
1F
100
AcDbEntity
  8
AM_0
100
AcDbSpline
210
0.0
220
0.0
230
1.0
 70
     8
 71
     3
 72
    11
 73
     7
 74
     5
 42
0.0000000001
 43
0.0000000001
 44
0.0000000001
 40
0.0
 40
0.0
 40
0.0
 40
0.0
 40
0.0431371883792184
 40
0.0857762023374657
 40
0.1273906278045923
 40
0.1687322409488253
 40
0.1687322409488253
 40
0.1687322409488253
 40
0.1687322409488253
 10
-17.78500366211013
 20
-9.153999328612504
 30
0.0
 10
-17.79519670495215
 20
-9.143843874865565
 30
0.0
 10
-17.81546507519375
 20
-9.123650248712451
 30
0.0
 10
-17.84215874405632
 20
-9.090536423016818
 30
0.0
 10
-17.86631933616779
 20
-9.056318206259659
 30
0.0
 10
-17.88078929973132
 20
-9.032746835154149
 30
0.0
 10
-17.88800048828212
 20
-9.020999908446517
 30
0.0
 11
-17.78500366211013
 21
-9.153999328612504
 31
0.0
 11
-17.81500244140712
 21
-9.123001098631508
 31
0.0
 11
-17.84200286865313
 21
-9.090000152586517
 31
0.0
 11
-17.86599731445414
 21
-9.055999755858513
 31
0.0
 11
-17.88800048828212
 21
-9.020999908446517
 31
0.0
  0
SPLINE
  5
7D35
330
1F
100
AcDbEntity
  8
AM_0
100
AcDbSpline
210
0.0
220
0.0
230
1.0
 70
     8
 71
     3
 72
    11
 73
     7
 74
     5
 42
0.0000000001
 43
0.0000000001
 44
0.0000000001
 40
0.0
 40
0.0
 40
0.0
 40
0.0
 40
0.04668737214984
 40
0.093262080256639
 40
0.1403878004042042
 40
0.1879287471035721
 40
0.1879287471035721
 40
0.1879287471035721
 40
0.1879287471035721
 10
-18.15699768066514
 20
-8.984001159667512
 30
0.0
 10
-18.15467180961416
 20
-8.999408408756815
 30
0.0
 10
-18.15002568020839
 20
-9.03018572679667
 30
0.0
 10
-18.13691707239017
 20
-9.075168686213556
 30
0.0
 10
-18.12392713686138
 20
-9.120477809115229
 30
0.0
 10
-18.1113297018494
 20
-9.149451218582884
 30
0.0
 10
-18.10500335693412
 20
-9.164001464842508
 30
0.0
 11
-18.15699768066514
 21
-8.984001159667512
 31
0.0
 11
-18.14900207519612
 21
-9.029998779295505
 31
0.0
 11
-18.13700103759813
 21
-9.075000762938509
 31
0.0
 11
-18.12300109863313
 21
-9.119998931883511
 31
0.0
 11
-18.10500335693412
 21
-9.164001464842508
 31
0.0
  0
SPLINE
  5
7D36
330
1F
100
AcDbEntity
  8
AM_0
100
AcDbSpline
210
0.0
220
0.0
230
1.0
 70
     8
 71
     3
 72
    11
 73
     7
 74
     5
 42
0.0000000001
 43
0.0000000001
 44
0.0000000001
 40
0.0
 40
0.0
 40
0.0
 40
0.0
 40
0.0228517993372409
 40
0.0459379721456028
 40
0.0697066801188512
 40
0.0940394161017655
 40
0.0940394161017655
 40
0.0940394161017655
 40
0.0940394161017655
 10
-9.435001373291116
 20
-9.44100189208838
 30
0.0
 10
-9.431831835466743
 20
-9.434063855524378
 30
0.0
 10
-9.425460252286722
 20
-9.42011662424869
 30
0.0
 10
-9.418894329730036
 20
-9.397790255266102
 30
0.0
 10
-9.412439857769436
 20
-9.374926630914242
 30
0.0
 10
-9.410155811168664
 20
-9.359036269252074
 30
0.0
 10
-9.40900039672913
 20
-9.350997924803392
 30
0.0
 11
-9.435001373291116
 21
-9.44100189208838
 31
0.0
 11
-9.425998687745126
 21
-9.419998168944387
 31
0.0
 11
-9.418998718262132
 21
-9.397998809813385
 31
0.0
 11
-9.412998199463137
 21
-9.374999999999387
 31
0.0
 11
-9.40900039672913
 21
-9.350997924803392
 31
0.0
  0
ELLIPSE
  5
7D37
330
1F
100
AcDbEntity
  8
AM_0
100
AcDbEllipse
 10
-9.848999023438134
 20
-9.159000396727396
 30
0.0
 11
0.2312087987870021
 21
-0.0360298268570001
 31
0.0
210
0.0
220
0.0
230
1.0
 40
0.8632421271155997
 41
5.998225384129687
 42
6.21862800514373
  0
SPLINE
  5
7D38
330
1F
100
AcDbEntity
  8
AM_0
100
AcDbSpline
210
0.0
220
0.0
230
1.0
 70
     8
 71
     3
 72
    11
 73
     7
 74
     5
 42
0.0000000001
 43
0.0000000001
 44
0.0000000001
 40
0.0
 40
0.0
 40
0.0
 40
0.0
 40
0.2467616328023315
 40
0.4935174838481774
 40
0.7389796104484893
 40
0.9843259750676821
 40
0.9843259750676821
 40
0.9843259750676821
 40
0.9843259750676821
 10
-36.32599639892624
 20
-0.9900016784657678
 30
0.0
 10
-36.38836061455601
 20
-1.043633609281638
 30
0.0
 10
-36.51308758458878
 20
-1.150896214288675
 30
0.0
 10
-36.69931994316297
 20
-1.3121282430501
 30
0.0
 10
-36.88728826540359
 20
-1.470605488569095
 30
0.0
 10
-37.01110452080947
 20
-1.577543916212768
 30
0.0
 10
-37.07299804687524
 20
-1.631000518797775
 30
0.0
 11
-36.32599639892624
 21
-0.9900016784657678
 31
0.0
 11
-36.51300048828223
 21
-1.151000976561772
 31
0.0
 11
-36.69999694824326
 21
-1.312000274657769
 31
0.0
 11
-36.88700103759824
 21
-1.471000671385776
 31
0.0
 11
-37.07299804687524
 21
-1.631000518797775
 31
0.0
  0
SPLINE
  5
7D39
330
1F
100
AcDbEntity
  8
AM_0
100
AcDbSpline
210
0.0
220
0.0
230
1.0
 70
     8
 71
     3
 72
    11
 73
     7
 74
     5
 42
0.0000000001
 43
0.0000000001
 44
0.0000000001
 40
0.0
 40
0.0
 40
0.0
 40
0.0
 40
1.304853867979145
 40
2.610404263068548
 40
3.914051334658236
 40
5.218660924516434
 40
5.218660924516434
 40
5.218660924516434
 40
5.218660924516434
 10
-35.49400329589925
 20
-0.9630012512197533
 30
0.0
 10
-35.06493257088879
 20
-1.034433729711972
 30
0.0
 10
-34.20656208419217
 20
-1.177336817140779
 30
0.0
 10
-32.92677306303843
 20
-1.431808333202767
 30
0.0
 10
-31.65216383786907
 20
-1.710640936624764
 30
0.0
 10
-30.80882570932429
 20
-1.922187541993573
 30
0.0
 10
-30.38700103759823
 20
-2.027999877928676
 30
0.0
 11
-35.49400329589925
 21
-0.9630012512197533
 31
0.0
 11
-34.20800018310625
 21
-1.183998107909733
 31
0.0
 11
-32.92700195312525
 21
-1.436000823973717
 31
0.0
 11
-31.65399932861423
 21
-1.716999053954698
 31
0.0
 11
-30.38700103759823
 21
-2.027999877928676
 31
0.0
  0
SPLINE
  5
7D3A
330
1F
100
AcDbEntity
  8
AM_0
100
AcDbSpline
210
0.0
220
0.0
230
1.0
 70
     8
 71
     3
 72
    11
 73
     7
 74
     5
 42
0.0000000001
 43
0.0000000001
 44
0.0000000001
 40
0.0
 40
0.0
 40
0.0
 40
0.0
 40
0.0355080283562274
 40
0.0691115101424979
 40
0.1010009373312237
 40
0.1314196165342948
 40
0.1314196165342948
 40
0.1314196165342948
 40
0.1314196165342948
 10
-26.5849990844732
 20
-4.403999328612622
 30
0.0
 10
-26.59509472885797
 20
-4.39781440178787
 30
0.0
 10
-26.61474451685221
 20
-4.385776289485743
 30
0.0
 10
-26.64186579094392
 20
-4.365734210137026
 30
0.0
 10
-26.66579713468124
 20
-4.344497931524047
 30
0.0
 10
-26.68071881085938
 20
-4.330051004548704
 30
0.0
 10
-26.6880035400402
 20
-4.322998046874627
 30
0.0
 11
-26.5849990844732
 21
-4.403999328612622
 31
0.0
 11
-26.6149978637702
 21
-4.385002136229625
 31
0.0
 11
-26.64199829101619
 21
-4.364997863768625
 31
0.0
 11
-26.66600036621119
 21
-4.344001770018625
 31
0.0
 11
-26.6880035400402
 21
-4.322998046874627
 31
0.0
  0
ELLIPSE
  5
7D3B
330
1F
100
AcDbEntity
  8
AM_0
100
AcDbEllipse
 10
-18.64900207519619
 20
-4.767997741698518
 30
0.0
 11
0.233039850238001
 21
-0.0211696716619979
 31
0.0
210
0.0
220
0.0
230
1.0
 40
0.4957209362155001
 41
5.90621836401968
 42
6.129325468935879
  0
SPLINE
  5
7D3C
330
1F
100
AcDbEntity
  8
AM_0
100
AcDbSpline
210
0.0
220
0.0
230
1.0
 70
     8
 71
     3
 72
    11
 73
     7
 74
     5
 42
0.0000000001
 43
0.0000000001
 44
0.0000000001
 40
0.0
 40
0.0
 40
0.0
 40
0.0
 40
0.0863315885933273
 40
0.1712606713737921
 40
0.255853704218404
 40
0.341875466904674
 40
0.341875466904674
 40
0.341875466904674
 40
0.341875466904674
 10
-17.68199920654313
 20
-9.547000885008504
 30
0.0
 10
-17.65484978515376
 20
-9.556638840850686
 30
0.0
 10
-17.60099200018404
 20
-9.575758178454657
 30
0.0
 10
-17.5172835231681
 20
-9.593072099745768
 30
0.0
 10
-17.43262366286735
 20
-9.603783856146051
 30
0.0
 10
-17.37570019488186
 20
-9.603927611812599
 30
0.0
 10
-17.34700012207111
 20
-9.604000091551496
 30
0.0
 11
-17.68199920654313
 21
-9.547000885008504
 31
0.0
 11
-17.59999847412213
 21
-9.574001312254509
 31
0.0
 11
-17.51699829101611
 21
-9.591999053954495
 31
0.0
 11
-17.43299865722711
 21
-9.602001190184505
 31
0.0
 11
-17.34700012207111
 21
-9.604000091551496
 31
0.0
  0
SPLINE
  5
7D3D
330
1F
100
AcDbEntity
  8
AM_0
100
AcDbSpline
210
0.0
220
0.0
230
1.0
 70
     8
 71
     3
 72
    11
 73
     7
 74
     5
 42
0.0000000001
 43
0.0000000001
 44
0.0000000001
 40
0.0
 40
0.0
 40
0.0
 40
0.0
 40
0.0150024414833865
 40
0.0306531434740131
 40
0.0449697612652448
 40
0.0604964662391863
 40
0.0604964662391863
 40
0.0604964662391863
 40
0.0604964662391863
 10
-18.23500061035217
 20
-5.062999725340507
 30
0.0
 10
-18.2317940576593
 20
-5.059124211235093
 30
0.0
 10
-18.22524239606072
 20
-5.051205720765365
 30
0.0
 10
-18.21940942421342
 20
-5.037295279939782
 30
0.0
 10
-18.21220262738982
 20
-5.02386908879111
 30
0.0
 10
-18.21009577454948
 20
-5.014087813888625
 30
0.0
 10
-18.20899963379019
 20
-5.008998870848505
 30
0.0
 11
-18.23500061035217
 21
-5.062999725340507
 31
0.0
 11
-18.22599792480519
 21
-5.050998687743504
 31
0.0
 11
-18.21900177002019
 21
-5.036998748778504
 31
0.0
 11
-18.21299743652419
 21
-5.024002075194506
 31
0.0
 11
-18.20899963379019
 21
-5.008998870848505
 31
0.0
  0
SPLINE
  5
7D3E
330
1F
100
AcDbEntity
  8
AM_0
100
AcDbSpline
210
0.0
220
0.0
230
1.0
 70
     8
 71
     3
 72
    11
 73
     7
 74
     5
 42
0.0000000001
 43
0.0000000001
 44
0.0000000001
 40
0.0
 40
0.0
 40
0.0
 40
0.0
 40
0.0490099782356528
 40
0.0961809029011296
 40
0.1430505165979624
 40
0.1892264973437065
 40
0.1892264973437065
 40
0.1892264973437065
 40
0.1892264973437065
 10
-9.78499984741312
 20
-9.617000579833394
 30
0.0
 10
-9.768660788586412
 20
-9.617708099777329
 30
0.0
 10
-9.736595778825522
 20
-9.619096590641396
 30
0.0
 10
-9.689004881816064
 20
-9.614728440817609
 30
0.0
 10
-9.642917042076838
 20
-9.606175170421797
 30
0.0
 10
-9.613565426528374
 20
-9.596032922967005
 30
0.0
 10
-9.598999023438127
 20
-9.590999603270391
 30
0.0
 11
-9.78499984741312
 21
-9.617000579833394
 31
0.0
 11
-9.736000061036122
 21
-9.618000030516402
 31
0.0
 11
-9.688999176026115
 21
-9.613998413084392
 31
0.0
 11
-9.643001556397123
 21
-9.604999542235391
 31
0.0
 11
-9.598999023438127
 21
-9.590999603270391
 31
0.0
  0
SPLINE
  5
7D3F
330
1F
100
AcDbEntity
  8
AM_0
100
AcDbSpline
210
0.0
220
0.0
230
1.0
 70
     8
 71
     3
 72
    11
 73
     7
 74
     5
 42
0.0000000001
 43
0.0000000001
 44
0.0000000001
 40
0.0
 40
0.0
 40
0.0
 40
0.0
 40
0.0201203812449361
 40
0.0630758266819614
 40
0.1334190135834685
 40
0.2254930075940685
 40
0.2254930075940685
 40
0.2254930075940685
 40
0.2254930075940685
 10
-37.18499755859425
 20
-1.811000823973777
 30
0.0
 10
-37.18251624406381
 20
-1.817513586324616
 30
0.0
 10
-37.17473751644626
 20
-1.837930588580261
 30
0.0
 10
-37.12603962732212
 20
-1.849092434321383
 30
0.0
 10
-37.06324646328388
 20
-1.868782756090045
 30
0.0
 10
-37.00883983901622
 20
-1.875304470061453
 30
0.0
 10
-36.97799682617223
 20
-1.879001617430777
 30
0.0
 11
-37.18499755859425
 21
-1.811000823973777
 31
0.0
 11
-37.17600250244224
 21
-1.828998565672776
 31
0.0
 11
-37.13700103759823
 21
-1.847000122069779
 31
0.0
 11
-37.06900024414123
 21
-1.865001678465779
 31
0.0
 11
-36.97799682617223
 21
-1.879001617430777
 31
0.0
  0
SPLINE
  5
7D40
330
1F
100
AcDbEntity
  8
AM_0
100
AcDbSpline
210
0.0
220
0.0
230
1.0
 70
     8
 71
     3
 72
    11
 73
     7
 74
     5
 42
0.0000000001
 43
0.0000000001
 44
0.0000000001
 40
0.0
 40
0.0
 40
0.0
 40
0.0
 40
0.0891371197319169
 40
0.1777375004787813
 40
0.2677910155215346
 40
0.3586642118273901
 40
0.3586642118273901
 40
0.3586642118273901
 40
0.3586642118273901
 10
-17.97899627685613
 20
-9.350997924803515
 30
0.0
 10
-17.95779507165428
 20
-9.371859429788983
 30
0.0
 10
-17.91552032426454
 20
-9.413456822250111
 30
0.0
 10
-17.84349254527556
 20
-9.46664320401563
 30
0.0
 10
-17.76559329604562
 20
-9.511866242667419
 30
0.0
 10
-17.70994793607334
 20
-9.535254018432466
 30
0.0
 10
-17.68199920654313
 20
-9.547000885008504
 30
0.0
 11
-17.97899627685613
 21
-9.350997924803515
 31
0.0
 11
-17.91400146484414
 21
-9.411998748778506
 31
0.0
 11
-17.84300231933612
 21
-9.465000152586517
 31
0.0
 11
-17.76499938964914
 21
-9.510002136229504
 31
0.0
 11
-17.68199920654313
 21
-9.547000885008504
 31
0.0
  0
SPLINE
  5
7D41
330
1F
100
AcDbEntity
  8
AM_0
100
AcDbSpline
210
0.0
220
0.0
230
1.0
 70
     8
 71
     3
 72
    11
 73
     7
 74
     5
 42
0.0000000001
 43
0.0000000001
 44
0.0000000001
 40
0.0
 40
0.0
 40
0.0
 40
0.0
 40
0.1680260218600138
 40
0.3420478916514468
 40
0.5180957922141483
 40
0.6961225114526182
 40
0.6961225114526182
 40
0.6961225114526182
 40
0.6961225114526182
 10
-32.39099884033323
 20
-1.793998718260704
 30
0.0
 10
-32.33499977695724
 20
-1.792963495807485
 30
0.0
 10
-32.22100337717237
 20
-1.790856109977634
 30
0.0
 10
-32.04832137335829
 20
-1.788337683642772
 30
0.0
 10
-31.87234854531364
 20
-1.783638094214112
 30
0.0
 10
-31.75433582442443
 20
-1.781881457166715
 30
0.0
 10
-31.69499969482522
 20
-1.780998229979699
 30
0.0
 11
-32.39099884033323
 21
-1.793998718260704
 31
0.0
 11
-32.22299957275423
 21
-1.791000366209701
 31
0.0
 11
-32.04900360107522
 21
-1.787998199461708
 31
0.0
 11
-31.87300109863326
 21
-1.784000396727699
 31
0.0
 11
-31.69499969482522
 21
-1.780998229979699
 31
0.0
  0
SPLINE
  5
7D42
330
1F
100
AcDbEntity
  8
AM_0
100
AcDbSpline
210
0.0
220
0.0
230
1.0
 70
     8
 71
     3
 72
    11
 73
     7
 74
     5
 42
0.0000000001
 43
0.0000000001
 44
0.0000000001
 40
0.0
 40
0.0
 40
0.0
 40
0.0
 40
0.8541002462622911
 40
1.680006903237349
 40
2.273447420519685
 40
2.499745199602873
 40
2.499745199602873
 40
2.499745199602873
 40
2.499745199602873
 10
-31.03199768066524
 20
-1.897998809813687
 30
0.0
 10
-31.31237942070854
 20
-1.845329963414396
 30
0.0
 10
-31.86388758485648
 20
-1.741730853212075
 30
0.0
 10
-32.60946637211073
 20
-1.648701737555206
 30
0.0
 10
-33.16729869338202
 20
-1.567011469658062
 30
0.0
 10
-33.43037362238955
 20
-1.646934959280248
 30
0.0
 10
-33.50299835205122
 20
-1.668998718260729
 30
0.0
 11
-31.03199768066524
 21
-1.897998809813687
 31
0.0
 11
-31.87300109863326
 21
-1.749000549315703
 31
0.0
 11
-32.69100189209022
 21
-1.634998321532712
 31
0.0
 11
-33.28399658203223
 21
-1.611999511717721
 31
0.0
 11
-33.50299835205122
 21
-1.668998718260729
 31
0.0
  0
SPLINE
  5
7D43
330
1F
100
AcDbEntity
  8
AM_0
100
AcDbSpline
210
0.0
220
0.0
230
1.0
 70
     8
 71
     3
 72
    11
 73
     7
 74
     5
 42
0.0000000001
 43
0.0000000001
 44
0.0000000001
 40
0.0
 40
0.0
 40
0.0
 40
0.0
 40
0.0284234147920054
 40
0.0550495953665392
 40
0.0809912637079373
 40
0.1047585276924261
 40
0.1047585276924261
 40
0.1047585276924261
 40
0.1047585276924261
 10
-26.6880035400402
 20
-4.322998046874627
 30
0.0
 10
-26.69412985732714
 20
-4.315766142531852
 30
0.0
 10
-26.70599512018174
 20
-4.301759612679174
 30
0.0
 10
-26.72134799129335
 20
-4.279476877635167
 30
0.0
 10
-26.73311790989044
 20
-4.256838128501803
 30
0.0
 10
-26.73912473164709
 20
-4.241388208727632
 30
0.0
 10
-26.74199676513721
 20
-4.234001159667625
 30
0.0
 11
-26.6880035400402
 21
-4.322998046874627
 31
0.0
 11
-26.7060012817392
 21
-4.300998687743626
 31
0.0
 11
-26.72100067138721
 21
-4.278999328612623
 31
0.0
 11
-26.7330017089852
 21
-4.256000518797624
 31
0.0
 11
-26.74199676513721
 21
-4.234001159667625
 31
0.0
  0
SPLINE
  5
7D44
330
1F
100
AcDbEntity
  8
AM_0
100
AcDbSpline
210
0.0
220
0.0
230
1.0
 70
     8
 71
     3
 72
    11
 73
     7
 74
     5
 42
0.0000000001
 43
0.0000000001
 44
0.0000000001
 40
0.0
 40
0.0
 40
0.0
 40
0.0
 40
0.1653818691070527
 40
0.3303241540047598
 40
0.4948781855772616
 40
0.6581228501416923
 40
0.6581228501416923
 40
0.6581228501416923
 40
0.6581228501416923
 10
-31.03199768066524
 20
-1.897998809813687
 30
0.0
 10
-30.97762657323857
 20
-1.907110156201192
 30
0.0
 10
-30.86902887652617
 20
-1.925308631061509
 30
0.0
 10
-30.7070430891965
 20
-1.956552375766082
 30
0.0
 10
-30.54626249112584
 20
-1.990190556903213
 30
0.0
 10
-30.43994663189773
 20
-2.01543037710212
 30
0.0
 10
-30.38700103759823
 20
-2.027999877928676
 30
0.0
 11
-31.03199768066524
 21
-1.897998809813687
 31
0.0
 11
-30.86900329589924
 21
-1.925998687743685
 31
0.0
 11
-30.70700073242223
 21
-1.957000732420684
 31
0.0
 11
-30.54599761962923
 21
-1.991001129149681
 31
0.0
 11
-30.38700103759823
 21
-2.027999877928676
 31
0.0
  0
SPLINE
  5
7D45
330
1F
100
AcDbEntity
  8
AM_0
100
AcDbSpline
210
0.0
220
0.0
230
1.0
 70
     8
 71
     3
 72
    11
 73
     7
 74
     5
 42
0.0000000001
 43
0.0000000001
 44
0.0000000001
 40
0.0
 40
0.0
 40
0.0
 40
0.0
 40
0.0887502603367043
 40
0.3178213812621032
 40
0.6758429302240158
 40
1.131883690652905
 40
1.131883690652905
 40
1.131883690652905
 40
1.131883690652905
 10
-33.50299835205122
 20
-1.668998718260729
 30
0.0
 10
-33.47898228305449
 20
-1.686867588951891
 30
0.0
 10
-33.39297892721003
 20
-1.750857363664814
 30
0.0
 10
-33.15693623583795
 20
-1.761301334809955
 30
0.0
 10
-32.81629916878572
 20
-1.797179521669288
 30
0.0
 10
-32.54370635660249
 20
-1.795140811402351
 30
0.0
 10
-32.39099884033323
 20
-1.793998718260704
 30
0.0
 11
-33.50299835205122
 21
-1.668998718260729
 31
0.0
 11
-33.42900085449326
 21
-1.717998504637724
 31
0.0
 11
-33.20400238037225
 21
-1.761001586913723
 31
0.0
 11
-32.84700012207124
 21
-1.787998199461721
 31
0.0
 11
-32.39099884033323
 21
-1.793998718260704
 31
0.0
  0
ELLIPSE
  5
7D46
330
1F
100
AcDbEntity
  8
AM_0
100
AcDbEllipse
 10
-18.61900329589919
 20
-4.772998809813518
 30
0.0
 11
0.2031631509600021
 21
-0.0184554832659998
 31
0.0
210
0.0
220
0.0
230
1.0
 40
0.4951005052013002
 41
6.120136676090242
 42
6.378980956757557
  0
SPLINE
  5
7D47
330
1F
100
AcDbEntity
  8
AM_0
100
AcDbSpline
210
0.0
220
0.0
230
1.0
 70
     8
 71
     3
 72
    11
 73
     7
 74
     5
 42
0.0000000001
 43
0.0000000001
 44
0.0000000001
 40
0.0
 40
0.0
 40
0.0
 40
0.0
 40
0.0291212110388168
 40
0.0586685962851503
 40
0.0890827601313239
 40
0.1215318244902083
 40
0.1215318244902083
 40
0.1215318244902083
 40
0.1215318244902083
 10
-26.95700073242219
 20
-4.388999938963629
 30
0.0
 10
-26.95465058010168
 20
-4.398447748909799
 30
0.0
 10
-26.94991588216906
 20
-4.417481632726365
 30
0.0
 10
-26.93685487505443
 20
-4.444265546331074
 30
0.0
 10
-26.92339798372449
 20
-4.472020233044148
 30
0.0
 10
-26.91126278735485
 20
-4.489155914480993
 30
0.0
 10
-26.90499877929719
 20
-4.498001098631633
 30
0.0
 11
-26.95700073242219
 21
-4.388999938963629
 31
0.0
 11
-26.94899749755919
 21
-4.416999816893629
 31
0.0
 11
-26.93699645996119
 21
-4.444000244139631
 31
0.0
 11
-26.9229965209972
 21
-4.47100067138563
 31
0.0
 11
-26.90499877929719
 21
-4.498001098631633
 31
0.0
  0
SPLINE
  5
7D48
330
1F
100
AcDbEntity
  8
AM_0
100
AcDbSpline
210
0.0
220
0.0
230
1.0
 70
     8
 71
     3
 72
    11
 73
     7
 74
     5
 42
0.0000000001
 43
0.0000000001
 44
0.0000000001
 40
0.0
 40
0.0
 40
0.0
 40
0.0
 40
0.1072309789848258
 40
0.2149331984132496
 40
0.3233997775076698
 40
0.4345397863386121
 40
0.4345397863386121
 40
0.4345397863386121
 40
0.4345397863386121
 10
-8.799999237061101
 20
-11.47499847412037
 30
0.0
 10
-8.799995755382242
 20
-11.51104919020801
 30
0.0
 10
-8.799988776723836
 20
-11.58330905193046
 30
0.0
 10
-8.842356853720914
 20
-11.68508384779153
 30
0.0
 10
-8.914169927317793
 20
-11.77074098161546
 30
0.0
 10
-8.980454292585401
 20
-11.80344740411313
 30
0.0
 10
-9.013999938965095
 20
-11.81999969482335
 30
0.0
 11
-8.799999237061101
 21
-11.47499847412037
 31
0.0
 11
-8.806999206543094
 21
-11.58200073242035
 31
0.0
 11
-8.84700012207109
 21
-11.68199920654236
 31
0.0
 11
-8.917999267579098
 21
-11.76399993896335
 31
0.0
 11
-9.013999938965095
 21
-11.81999969482335
 31
0.0
  0
SPLINE
  5
7D49
330
1F
100
AcDbEntity
  8
AM_0
100
AcDbSpline
210
0.0
220
0.0
230
1.0
 70
     8
 71
     3
 72
    11
 73
     7
 74
     5
 42
0.0000000001
 43
0.0000000001
 44
0.0000000001
 40
0.0
 40
0.0
 40
0.0
 40
0.0
 40
0.2880741628166257
 40
0.5527794907113258
 40
0.7643513474821065
 40
0.907892440628164
 40
0.907892440628164
 40
0.907892440628164
 40
0.907892440628164
 10
-26.69400024414116
 20
-6.997001647948627
 30
0.0
 10
-26.78968830314238
 20
-6.985672322205142
 30
0.0
 10
-26.97330211982306
 20
-6.963932715801867
 30
0.0
 10
-27.21666290378291
 20
-6.89308105377195
 30
0.0
 10
-27.41578038786608
 20
-6.818113304717765
 30
0.0
 10
-27.49427320054514
 20
-6.727591811239897
 30
0.0
 10
-27.52600097656316
 20
-6.691001892088625
 30
0.0
 11
-26.69400024414116
 21
-6.997001647948627
 31
0.0
 11
-26.97899627685615
 21
-6.955001831053644
 31
0.0
 11
-27.23400115966816
 21
-6.883998870848642
 31
0.0
 11
-27.42500305175815
 21
-6.792999267577642
 31
0.0
 11
-27.52600097656316
 21
-6.691001892088625
 31
0.0
  0
ELLIPSE
  5
7D4A
330
1F
100
AcDbEntity
  8
AM_0
100
AcDbEllipse
 10
-9.819999694825137
 20
-9.170997619627389
 30
0.0
 11
0.2005805931170035
 21
-0.0312576451870015
 31
0.0
210
0.0
220
0.0
230
0.9999999999999998
 40
0.8620612732646002
 41
5.424281375000139
 42
5.998024893416969
  0
SPLINE
  5
7D4B
330
1F
100
AcDbEntity
  8
AM_0
100
AcDbSpline
210
0.0
220
0.0
230
1.0
 70
     8
 71
     3
 72
    11
 73
     7
 74
     5
 42
0.0000000001
 43
0.0000000001
 44
0.0000000001
 40
0.0
 40
0.0
 40
0.0
 40
0.0
 40
0.0581365391312178
 40
0.1151467825147365
 40
0.1710475266230676
 40
0.2271245012898968
 40
0.2271245012898968
 40
0.2271245012898968
 40
0.2271245012898968
 10
-9.598999023438127
 20
-9.590999603270391
 30
0.0
 10
-9.58121309315274
 20
-9.583080766391191
 30
0.0
 10
-9.54598580448027
 20
-9.56739650651736
 30
0.0
 10
-9.501579745839499
 20
-9.531018686666534
 30
0.0
 10
-9.461860071691102
 20
-9.490476634688903
 30
0.0
 10
-9.443963661216031
 20
-9.457510766851912
 30
0.0
 10
-9.435001373291116
 20
-9.44100189208838
 30
0.0
 11
-9.598999023438127
 21
-9.590999603270391
 31
0.0
 11
-9.547000885010122
 21
-9.564998626708391
 31
0.0
 11
-9.501998901368128
 21
-9.529998779295384
 31
0.0
 11
-9.464000701905137
 21
-9.488998413084388
 31
0.0
 11
-9.435001373291116
 21
-9.44100189208838
 31
0.0
  0
ELLIPSE
  5
7D4C
330
1F
100
AcDbEntity
  8
AM_0
100
AcDbEllipse
 10
-9.834999084473134
 20
-9.1520004272454
 30
0.0
 11
0.2262687764830039
 21
-0.0352630503459931
 31
0.0
210
0.0
220
0.0
230
1.0
 40
0.8602540380179
 41
4.887713386798334
 42
5.423341336478079
  0
SPLINE
  5
7D4D
330
1F
100
AcDbEntity
  8
AM_0
100
AcDbSpline
210
0.0
220
0.0
230
1.0
 70
     8
 71
     3
 72
    11
 73
     7
 74
     5
 42
0.0000000001
 43
0.0000000001
 44
0.0000000001
 40
0.0
 40
0.0
 40
0.0
 40
0.0
 40
0.056355784874839
 40
0.1124360245917284
 40
0.1696380123733559
 40
0.2263665476630577
 40
0.2263665476630577
 40
0.2263665476630577
 40
0.2263665476630577
 10
-18.10500335693412
 20
-9.164001464842508
 30
0.0
 10
-18.09653355552472
 20
-9.180771989660069
 30
0.0
 10
-18.07963536483022
 20
-9.214231041734164
 30
0.0
 10
-18.05058748759058
 20
-9.262836681325605
 30
0.0
 10
-18.01672057068418
 20
-9.308400074689119
 30
0.0
 10
-17.99153615580692
 20
-9.336838033927003
 30
0.0
 10
-17.97899627685613
 20
-9.350997924803515
 30
0.0
 11
-18.10500335693412
 21
-9.164001464842508
 31
0.0
 11
-18.07900238037213
 21
-9.214000701903508
 31
0.0
 11
-18.05000305175813
 21
-9.262001037596512
 31
0.0
 11
-18.01599884033313
 21
-9.307998657225503
 31
0.0
 11
-17.97899627685613
 21
-9.350997924803515
 31
0.0
  0
SPLINE
  5
7D4E
330
1F
100
AcDbEntity
  8
AM_0
100
AcDbSpline
210
0.0
220
0.0
230
1.0
 70
     8
 71
     3
 72
    11
 73
     7
 74
     5
 42
0.0000000001
 43
0.0000000001
 44
0.0000000001
 40
0.0
 40
0.0
 40
0.0
 40
0.0
 40
0.0676208852290755
 40
0.1329872459538941
 40
0.1976273148700718
 40
0.2620736915487205
 40
0.2620736915487205
 40
0.2620736915487205
 40
0.2620736915487205
 10
-17.56500244140712
 20
-9.292999267577503
 30
0.0
 10
-17.58588825181795
 20
-9.284455255924918
 30
0.0
 10
-17.62696352607149
 20
-9.267652095551818
 30
0.0
 10
-17.68420486234719
 20
-9.23481642516044
 30
0.0
 10
-17.73805880488575
 20
-9.198398588407851
 30
0.0
 10
-17.76937103754409
 20
-9.168784269933622
 30
0.0
 10
-17.78500366211013
 20
-9.153999328612504
 30
0.0
 11
-17.56500244140712
 21
-9.292999267577503
 31
0.0
 11
-17.62699890136813
 21
-9.265998840331505
 31
0.0
 11
-17.68399810791114
 21
-9.234001159667505
 31
0.0
 11
-17.73699951171914
 21
-9.196998596190514
 31
0.0
 11
-17.78500366211013
 21
-9.153999328612504
 31
0.0
  0
SPLINE
  5
7D4F
330
1F
100
AcDbEntity
  8
AM_0
100
AcDbSpline
210
0.0
220
0.0
230
1.0
 70
     8
 71
     3
 72
    11
 73
     7
 74
     5
 42
0.0000000001
 43
0.0000000001
 44
0.0000000001
 40
0.0
 40
0.0
 40
0.0
 40
0.0
 40
0.0560086739536776
 40
0.1120173479063414
 40
0.1680260218590247
 40
0.2230354071593754
 40
0.2230354071593754
 40
0.2230354071593754
 40
0.2230354071593754
 10
-17.31400299072313
 20
-9.338001251219491
 30
0.0
 10
-17.31433603183805
 20
-9.356667838471238
 30
0.0
 10
-17.3150021140679
 20
-9.394001012974394
 30
0.0
 10
-17.31600320144795
 20
-9.450000739357527
 30
0.0
 10
-17.31699052571086
 20
-9.505667563380491
 30
0.0
 10
-17.31766606441429
 20
-9.542667417348626
 30
0.0
 10
-17.31800079345812
 20
-9.561000823973497
 30
0.0
 11
-17.31400299072313
 21
-9.338001251219491
 31
0.0
 11
-17.31500244140712
 21
-9.394001007079491
 31
0.0
 11
-17.31600189209013
 21
-9.450000762938495
 31
0.0
 11
-17.31700134277414
 21
-9.506000518797501
 31
0.0
 11
-17.31800079345812
 21
-9.561000823973497
 31
0.0
  0
SPLINE
  5
7D50
330
1F
100
AcDbEntity
  8
AM_0
100
AcDbSpline
210
0.0
220
0.0
230
1.0
 70
     8
 71
     3
 72
    11
 73
     7
 74
     5
 42
0.0000000001
 43
0.0000000001
 44
0.0000000001
 40
0.0
 40
0.0
 40
0.0
 40
0.0
 40
0.2890168739776826
 40
0.5708399717503592
 40
0.8312436272319846
 40
1.067880228861472
 40
1.067880228861472
 40
1.067880228861472
 40
1.067880228861472
 10
-17.8939971923831
 20
-11.15699768066351
 30
0.0
 10
-17.99046626738705
 20
-11.14638281196391
 30
0.0
 10
-18.18100325331504
 20
-11.12541728401662
 30
0.0
 10
-18.43344369273783
 20
-11.00313476879578
 30
0.0
 10
-18.63833655349068
 20
-10.8301454968731
 30
0.0
 10
-18.69772404815914
 20
-10.67287480141971
 30
0.0
 10
-18.7259979248051
 20
-10.59799957275252
 30
0.0
 11
-17.8939971923831
 21
-11.15699768066351
 31
0.0
 11
-18.1790008544931
 21
-11.10900115966751
 31
0.0
 11
-18.43399810791111
 21
-10.98899841308451
 31
0.0
 11
-18.6250000000001
 21
-10.81200027465752
 31
0.0
 11
-18.7259979248051
 21
-10.59799957275252
 31
0.0
  0
ELLIPSE
  5
7D51
330
1F
100
AcDbEntity
  8
AM_0
100
AcDbEllipse
 10
-9.819000244141129
 20
-9.165000915526396
 30
0.0
 11
0.201568599433998
 21
-0.0314102336889917
 31
0.0
210
0.0
220
0.0
230
1.0
 40
0.8578366960935998
 41
6.218229108331692
 42
6.460804523948161
  0
SPLINE
  5
7D52
330
1F
100
AcDbEntity
  8
AM_0
100
AcDbSpline
210
0.0
220
0.0
230
1.0
 70
     8
 71
     3
 72
    11
 73
     7
 74
     5
 42
0.0000000001
 43
0.0000000001
 44
0.0000000001
 40
0.0
 40
0.0
 40
0.0
 40
0.0
 40
0.0641995658102916
 40
0.1287323718008584
 40
0.1922417158412304
 40
0.2563074576747885
 40
0.2563074576747885
 40
0.2563074576747885
 40
0.2563074576747885
 10
-17.56500244140712
 20
-9.292999267577503
 30
0.0
 10
-17.54479429613478
 20
-9.300097718790917
 30
0.0
 10
-17.50427311132969
 20
-9.31433146709252
 30
0.0
 10
-17.44147814440507
 20
-9.327812248231992
 30
0.0
 10
-17.37788849290077
 20
-9.336060129870158
 30
0.0
 10
-17.33535998515057
 20
-9.337352332193614
 30
0.0
 10
-17.31400299072313
 20
-9.338001251219491
 30
0.0
 11
-17.56500244140712
 21
-9.292999267577503
 31
0.0
 11
-17.50399780273513
 21
-9.312999725340503
 31
0.0
 11
-17.44100189209013
 21
-9.326999664305501
 31
0.0
 11
-17.37799835205113
 21
-9.334999084471501
 31
0.0
 11
-17.31400299072313
 21
-9.338001251219491
 31
0.0
  0
SPLINE
  5
7D53
330
1F
100
AcDbEntity
  8
AM_0
100
AcDbSpline
210
0.0
220
0.0
230
1.0
 70
     8
 71
     3
 72
    11
 73
     7
 74
     5
 42
0.0000000001
 43
0.0000000001
 44
0.0000000001
 40
0.0
 40
0.0
 40
0.0
 40
0.0
 40
0.072342243306761
 40
0.1486632411850296
 40
0.2360803151141628
 40
0.336962700499196
 40
0.336962700499196
 40
0.336962700499196
 40
0.336962700499196
 10
-17.59999847412215
 20
-8.1479988098135
 30
0.0
 10
-17.60005339485875
 20
-8.172581981887761
 30
0.0
 10
-17.60016625692021
 20
-8.223100377117384
 30
0.0
 10
-17.64620964257324
 20
-8.291608121352735
 30
0.0
 10
-17.71981959578744
 20
-8.343193864415283
 30
0.0
 10
-17.78114669037464
 20
-8.358695500231876
 30
0.0
 10
-17.81400299072315
 20
-8.367000579833506
 30
0.0
 11
-17.59999847412215
 21
-8.1479988098135
 31
0.0
 11
-17.60700225830114
 21
-8.220001220702503
 31
0.0
 11
-17.64700317382915
 21
-8.284999847411498
 31
0.0
 11
-17.71800231933613
 21
-8.3359985351555
 31
0.0
 11
-17.81400299072315
 21
-8.367000579833506
 31
0.0
  0
ELLIPSE
  5
7D54
330
1F
100
AcDbEntity
  8
AM_0
100
AcDbEllipse
 10
-18.62000274658318
 20
-4.776000976561522
 30
0.0
 11
0.202171324028001
 21
-0.0183639756359966
 31
0.0
210
0.0
220
0.0
230
1.0
 40
0.4926045323380002
 41
5.330334596600302
 42
5.906224889058696
  0
SPLINE
  5
7D55
330
1F
100
AcDbEntity
  8
AM_0
100
AcDbSpline
210
0.0
220
0.0
230
1.0
 70
     8
 71
     3
 72
    11
 73
     7
 74
     5
 42
0.0000000001
 43
0.0000000001
 44
0.0000000001
 40
0.0
 40
0.0
 40
0.0
 40
0.0
 40
2.207885576466291
 40
4.417108239067182
 40
6.625966168183499
 40
8.8363946260393
 40
8.8363946260393
 40
8.8363946260393
 40
8.8363946260393
 10
-26.69400024414116
 20
-6.997001647948627
 30
0.0
 10
-25.96853035278784
 20
-7.120854805380263
 30
0.0
 10
-24.51715122859399
 20
-7.368636125190029
 30
0.0
 10
-22.33642672630518
 20
-7.718931678265522
 30
0.0
 10
-20.15301632924682
 20
-8.057649706504019
 30
0.0
 10
-18.69518041727216
 20
-8.269191509548585
 30
0.0
 10
-17.96600341796915
 20
-8.374999999999509
 30
0.0
 11
-26.69400024414116
 21
-6.997001647948627
 31
0.0
 11
-24.51699829101615
 21
-7.364997863768592
 31
0.0
 11
-22.33599853515714
 21
-7.716999053954557
 31
0.0
 11
-20.15299987793016
 21
-8.054000854491532
 31
0.0
 11
-17.96600341796915
 21
-8.374999999999509
 31
0.0
  0
SPLINE
  5
7D56
330
1F
100
AcDbEntity
  8
AM_0
100
AcDbSpline
210
0.0
220
0.0
230
1.0
 70
     8
 71
     3
 72
    11
 73
     7
 74
     5
 42
0.0000000001
 43
0.0000000001
 44
0.0000000001
 40
0.0
 40
0.0
 40
0.0
 40
0.0
 40
0.0531529683408271
 40
0.1012547053772648
 40
0.1446730106763127
 40
0.1842960359453743
 40
0.1842960359453743
 40
0.1842960359453743
 40
0.1842960359453743
 10
-18.39900207519618
 20
-5.138999938963514
 30
0.0
 10
-18.38148628135281
 20
-5.135952426346161
 30
0.0
 10
-18.34811925406496
 20
-5.13014701223975
 30
0.0
 10
-18.30327238998572
 20
-5.112213074496025
 30
0.0
 10
-18.2635604589711
 20
-5.092675654330403
 30
0.0
 10
-18.24422600917145
 20
-5.072585640305162
 30
0.0
 10
-18.23500061035217
 20
-5.062999725340507
 30
0.0
 11
-18.39900207519618
 21
-5.138999938963514
 31
0.0
 11
-18.34700012207118
 21
-5.127998352049514
 31
0.0
 11
-18.30200195312519
 21
-5.111000061034513
 31
0.0
 11
-18.26399993896519
 21
-5.09000015258651
 31
0.0
 11
-18.23500061035217
 21
-5.062999725340507
 31
0.0
  0
SPLINE
  5
7D57
330
1F
100
AcDbEntity
  8
AM_0
100
AcDbSpline
210
0.0
220
0.0
230
1.0
 70
     8
 71
     3
 72
    11
 73
     7
 74
     5
 42
0.0000000001
 43
0.0000000001
 44
0.0000000001
 40
0.0
 40
0.0
 40
0.0
 40
0.0
 40
2.185097164114192
 40
4.373352111900603
 40
6.562729209682867
 40
8.755286355871289
 40
8.755286355871289
 40
8.755286355871289
 40
8.755286355871289
 10
-17.8939971923831
 20
-11.15699768066351
 30
0.0
 10
-17.16839343108133
 20
-11.22038453113092
 30
0.0
 10
-15.71613730535495
 20
-11.34724983529728
 30
0.0
 10
-13.53575590411959
 20
-11.5246600306741
 30
0.0
 10
-11.35211862539786
 20
-11.69247598044229
 30
0.0
 10
-9.895058924074216
 20
-11.79480102136416
 30
0.0
 10
-9.166000366211086
 20
-11.84600067138537
 30
0.0
 11
-17.8939971923831
 21
-11.15699768066351
 31
0.0
 11
-15.71700286865309
 21
-11.34500122070247
 31
0.0
 11
-13.53599929809609
 21
-11.52299880981343
 31
0.0
 11
-11.35300064087008
 21
-11.68999862670841
 31
0.0
 11
-9.166000366211086
 21
-11.84600067138537
 31
0.0
  0
SPLINE
  5
7D58
330
1F
100
AcDbEntity
  8
AM_0
100
AcDbSpline
210
0.0
220
0.0
230
1.0
 70
     8
 71
     3
 72
    11
 73
     7
 74
     5
 42
0.0000000001
 43
0.0000000001
 44
0.0000000001
 40
0.0
 40
0.0
 40
0.0
 40
0.0
 40
0.0412298720596168
 40
0.082241115884541
 40
0.1269283613995573
 40
0.1727323655140069
 40
0.1727323655140069
 40
0.1727323655140069
 40
0.1727323655140069
 10
-26.90499877929719
 20
-4.498001098631633
 30
0.0
 10
-26.89657361724202
 20
-4.508879984599009
 30
0.0
 10
-26.87976796895083
 20
-4.530580069436621
 30
0.0
 10
-26.84937557944165
 20
-4.560147480402524
 30
0.0
 10
-26.81616387821806
 20
-4.588816768098909
 30
0.0
 10
-26.79148901652487
 20
-4.606199325442196
 30
0.0
 10
-26.77899932861419
 20
-4.614997863768627
 30
0.0
 11
-26.90499877929719
 21
-4.498001098631633
 31
0.0
 11
-26.8789978027352
 21
-4.529998779295629
 31
0.0
 11
-26.8499984741222
 21
-4.55899810790963
 31
0.0
 11
-26.81600189209019
 21
-4.588001251219629
 31
0.0
 11
-26.77899932861419
 21
-4.614997863768627
 31
0.0
  0
SPLINE
  5
7D59
330
1F
100
AcDbEntity
  8
AM_0
100
AcDbSpline
210
0.0
220
0.0
230
1.0
 70
     8
 71
     3
 72
    11
 73
     7
 74
     5
 42
0.0000000001
 43
0.0000000001
 44
0.0000000001
 40
0.0
 40
0.0
 40
0.0
 40
0.0
 40
0.0645644107032483
 40
0.1253076860453701
 40
0.1834905737305808
 40
0.2385604302692417
 40
0.2385604302692417
 40
0.2385604302692417
 40
0.2385604302692417
 10
-26.3649978637702
 20
-4.49399948120063
 30
0.0
 10
-26.38576840549608
 20
-4.488319875187766
 30
0.0
 10
-26.42608021959349
 20
-4.477296801030201
 30
0.0
 10
-26.48341332986506
 20
-4.455845260700532
 30
0.0
 10
-26.53658982861422
 20
-4.432452314485534
 30
0.0
 10
-26.56916109977465
 20
-4.413308249951881
 30
0.0
 10
-26.5849990844732
 20
-4.403999328612622
 30
0.0
 11
-26.3649978637702
 21
-4.49399948120063
 31
0.0
 11
-26.4270019531252
 21
-4.475997924803628
 31
0.0
 11
-26.48400115966819
 21
-4.455001831053629
 31
0.0
 11
-26.53700256347718
 21
-4.43099975585863
 31
0.0
 11
-26.5849990844732
 21
-4.403999328612622
 31
0.0
  0
SPLINE
  5
7D5A
330
1F
100
AcDbEntity
  8
AM_0
100
AcDbSpline
210
0.0
220
0.0
230
1.0
 70
     8
 71
     3
 72
    11
 73
     7
 74
     5
 42
0.0000000001
 43
0.0000000001
 44
0.0000000001
 40
0.0
 40
0.0
 40
0.0
 40
0.0
 40
0.0752958861356716
 40
0.1540163132216324
 40
0.2372282590455396
 40
0.3236281832501324
 40
0.3236281832501324
 40
0.3236281832501324
 40
0.3236281832501324
 10
-26.77899932861419
 20
-4.614997863768627
 30
0.0
 10
-26.75753505151157
 20
-4.62803087718257
 30
0.0
 10
-26.71363027802426
 20
-4.654689660008592
 30
0.0
 10
-26.64207598494592
 20
-4.688681844426674
 30
0.0
 10
-26.56436256880191
 20
-4.717529410354239
 30
0.0
 10
-26.50979755814683
 20
-4.732415116740068
 30
0.0
 10
-26.48200225830119
 20
-4.739997863768629
 30
0.0
 11
-26.77899932861419
 21
-4.614997863768627
 31
0.0
 11
-26.7139968872082
 21
-4.652999877928625
 31
0.0
 11
-26.64299774170019
 21
-4.687000274657623
 31
0.0
 11
-26.56500244140719
 21
-4.715999603270625
 31
0.0
 11
-26.48200225830119
 21
-4.739997863768629
 31
0.0
  0
ARC
  5
7D60
330
1F
100
AcDbEntity
  8
AM_0
100
AcDbCircle
 10
-1.035003662110105
 20
-11.08699798583825
 30
0.0
 40
0.2282191962004
100
AcDbArc
 50
272.5113606094579
 51
303.2027473430148
  0
LINE
  5
7D61
330
1F
100
AcDbEntity
  8
AM_0
100
AcDbLine
 10
-0.3650054931650895
 20
-12.14199829101425
 30
0.0
 11
-0.9850006103521018
 21
-11.52199935912927
 31
0.0
  0
LINE
  5
7D62
330
1F
100
AcDbEntity
  8
AM_0
100
AcDbLine
 10
-0.9660034179691527
 20
-6.720996856688264
 30
0.0
 11
-0.9700012207041531
 21
-6.713001251219259
 31
0.0
  0
LINE
  5
7D63
330
1F
100
AcDbEntity
  8
AM_0
100
AcDbLine
 10
-0.9660034179691527
 20
-6.721000671385274
 30
0.0
 11
-0.9700012207041528
 21
-6.722999572752264
 31
0.0
  0
LINE
  5
7D64
330
1F
100
AcDbEntity
  8
AM_0
100
AcDbLine
 10
-0.9079971313481548
 20
-6.956001281737262
 30
0.0
 11
-0.970001220704149
 21
-6.958000183104266
 31
0.0
  0
LINE
  5
7D65
330
1F
100
AcDbEntity
  8
AM_0
100
AcDbLine
 10
-0.9700012207041483
 20
-7.915000915526269
 30
0.0
 11
-0.9480056762701538
 21
-8.080001831053271
 31
0.0
  0
LINE
  5
7D6E
330
1F
100
AcDbEntity
  8
AM_0
100
AcDbLine
 10
-0.6080017089851057
 20
-11.11900329589725
 30
0.0
 11
-0.0000000000000955
 21
-11.72800445556526
 31
0.0
  0
LINE
  5
7D6F
330
1F
100
AcDbEntity
  8
AM_0
100
AcDbLine
 10
-0.0810012817390911
 20
-10.60099792480325
 30
0.0
 11
-0.0000000000000955
 21
-11.72800064086825
 31
0.0
  0
LINE
  5
7D70
330
1F
100
AcDbEntity
  8
AM_0
100
AcDbLine
 10
-0.7990036010751
 20
-11.47299957275225
 30
0.0
 11
-0.9100036621101031
 21
-11.27799987792827
 31
0.0
  0
LINE
  5
7E4D
330
1F
100
AcDbEntity
  8
AM_0
100
AcDbLine
 10
-0.0810012817394005
 20
10.60099983215474
 30
0.0
 11
-0.0000000000004125
 21
11.72800064087074
 31
0.0
  0
LINE
  5
7E4E
330
1F
100
AcDbEntity
  8
AM_0
100
AcDbLine
 10
-0.2140045166024403
 20
12.39700126648075
 30
0.0
 11
-0.3650054931654383
 21
12.43000030517673
 31
0.0
  0
LINE
  5
7E4F
330
1F
100
AcDbEntity
  8
AM_0
100
AcDbLine
 10
-0.0000000000004313
 20
12.01999855041574
 30
0.0
 11
-0.2140045166024403
 21
12.39699935913174
 31
0.0
  0
LINE
  5
7E50
330
1F
100
AcDbEntity
  8
AM_0
100
AcDbLine
 10
-0.2139968872084303
 20
12.10599899292074
 30
0.0
 11
-0.3650054931654337
 21
12.14200019836573
 31
0.0
  0
LINE
  5
7E51
330
1F
100
AcDbEntity
  8
AM_0
100
AcDbLine
 10
-0.3660049438484306
 20
12.14200019836573
 30
0.0
 11
-0.2139968872084303
 21
12.10599899292074
 31
0.0
  0
ARC
  5
7E52
330
1F
100
AcDbEntity
  8
AM_0
100
AcDbCircle
 10
-1.020004272461098
 20
-11.10800170898326
 30
0.0
 40
0.202484562993
100
AcDbArc
 50
302.905237963151
 51
335.7204856795036
  0
ARC
  5
7E53
330
1F
100
AcDbEntity
  8
AM_0
100
AcDbCircle
 10
-1.049003601075105
 20
-11.09500122070226
 30
0.0
 40
0.2336343228817
100
AcDbArc
 50
335.738708624208
 51
348.4016744397386
  0
ARC
  5
7E54
330
1F
100
AcDbEntity
  8
AM_0
100
AcDbCircle
 10
-1.019004821778102
 20
-11.10099792480327
 30
0.0
 40
0.2031797170639
100
AcDbArc
 50
348.3582480969935
 51
2.256795133377549
  0
LINE
  5
7E55
330
1F
100
AcDbEntity
  8
AM_0
100
AcDbLine
 10
-0.0810012817390911
 20
-10.60100173950126
 30
0.0
 11
-0.7350006103521546
 21
-8.215000152586274
 31
0.0
  0
LINE
  5
7E56
330
1F
100
AcDbEntity
  8
AM_0
100
AcDbLine
 10
-0.7220001220711602
 20
-6.444999694823253
 30
0.0
 11
-0.9130020141611524
 21
-6.923000335692254
 31
0.0
  0
LINE
  5
7E57
330
1F
100
AcDbEntity
  8
AM_0
100
AcDbLine
 10
-0.6350021362310972
 20
-11.29000091552626
 30
0.0
 11
-0.8359985351571072
 21
-11.19099807739127
 31
0.0
  0
LINE
  5
7E58
330
1F
100
AcDbEntity
  8
AM_0
100
AcDbLine
 10
-0.6090011596681015
 20
-11.18799972534026
 30
0.0
 11
-0.8200073242190965
 21
-11.14199829101426
 31
0.0
  0
LINE
  5
7E59
330
1F
100
AcDbEntity
  8
AM_0
100
AcDbLine
 10
-0.6090011596681015
 20
-11.18799972534026
 30
0.0
 11
-0.6080017089851057
 21
-11.11899948120026
 31
0.0
  0
LINE
  5
7E5A
330
1F
100
AcDbEntity
  8
AM_0
100
AcDbLine
 10
-0.6080017089851057
 20
-11.11899948120026
 30
0.0
 11
-0.6100006103521089
 21
-11.08300018310426
 31
0.0
  0
LINE
  5
7E5B
330
1F
100
AcDbEntity
  8
AM_0
100
AcDbLine
 10
-0.6100006103521089
 20
-11.08300018310426
 30
0.0
 11
-0.8160018920901057
 21
-11.09300231933426
 31
0.0
  0
LINE
  5
7E5C
330
1F
100
AcDbEntity
  8
AM_0
100
AcDbLine
 10
-0.6100006103521089
 20
-11.08300018310426
 30
0.0
 11
-0.7350006103521546
 21
-8.215000152586274
 31
0.0
  0
LINE
  5
7E5D
330
1F
100
AcDbEntity
  8
AM_0
100
AcDbLine
 10
-0.7350006103521546
 20
-8.215000152586274
 30
0.0
 11
-0.7559967041021569
 21
-8.071998596190272
 31
0.0
  0
LINE
  5
7E5E
330
1F
100
AcDbEntity
  8
AM_0
100
AcDbLine
 10
-0.9080047607431549
 20
-6.956001281737262
 30
0.0
 11
-0.9130020141611524
 21
-6.923000335692254
 31
0.0
  0
LINE
  5
7E5F
330
1F
100
AcDbEntity
  8
AM_0
100
AcDbLine
 10
-0.7559967041021569
 20
-8.071998596190272
 30
0.0
 11
-0.9479980468751536
 21
-8.079998016356261
 31
0.0
  0
LINE
  5
7E60
330
1F
100
AcDbEntity
  8
AM_0
100
AcDbLine
 10
-0.7559967041021569
 20
-8.071998596190272
 30
0.0
 11
-0.9079971313481548
 21
-6.955997467040267
 31
0.0
  0
LINE
  5
7E61
330
1F
100
AcDbEntity
  8
AM_0
100
AcDbLine
 10
-0.9480056762701538
 20
-8.079998016356261
 30
0.0
 11
-0.8160018920901057
 21
-11.09300231933426
 31
0.0
  0
LINE
  5
7E6E
330
1F
100
AcDbEntity
  8
AM_0
100
AcDbLine
 10
-0.2139968872080824
 20
-12.39699935912926
 30
0.0
 11
-0.3649978637700845
 21
-12.43000030517425
 31
0.0
  0
LINE
  5
7E6F
330
1F
100
AcDbEntity
  8
AM_0
100
AcDbLine
 10
-0.0000000000000909
 20
-12.02000045776224
 30
0.0
 11
-0.2139968872080824
 21
-12.39700317382725
 31
0.0
  0
LINE
  5
7E70
330
1F
100
AcDbEntity
  8
AM_0
100
AcDbLine
 10
-0.2140045166020926
 20
-12.10599899291825
 30
0.0
 11
-0.3650054931650895
 21
-12.14199829101425
 31
0.0
  0
LINE
  5
7E71
330
1F
100
AcDbEntity
  8
AM_0
100
AcDbLine
 10
-47.16500091552843
 20
12.50000000000007
 30
0.0
 11
-47.16500091552806
 21
-12.49999999999991
 31
0.0
  0
LINE
  5
7E72
330
1F
100
AcDbEntity
  8
AM_0
100
AcDbLine
 10
-47.16500282287607
 20
-12.50000381469692
 30
0.0
 11
-45.00000190734909
 21
-11.25000381469688
 31
0.0
  0
LINE
  5
7E73
330
1F
100
AcDbEntity
  8
AM_0
100
AcDbLine
 10
-1.02899932861409
 20
-11.52399826049725
 30
0.0
 11
-1.025001525879092
 21
-11.31499862670826
 31
0.0
  0
LINE
  5
7E74
330
1F
100
AcDbEntity
  8
AM_0
100
AcDbLine
 10
-8.513996124268102
 20
-11.64199829101436
 30
0.0
 11
-1.025001525879092
 21
-11.31499862670826
 31
0.0
  0
LINE
  5
7E75
330
1F
100
AcDbEntity
  8
AM_0
100
AcDbLine
 10
-8.881000518799099
 20
-10.40700149536036
 30
0.0
 11
-8.799999237061101
 21
-11.47500228881734
 31
0.0
  0
LINE
  5
7E76
330
1F
100
AcDbEntity
  8
AM_0
100
AcDbLine
 10
-9.408004760743132
 20
-9.288997650145388
 30
0.0
 11
-8.799999237061101
 21
-11.47500228881734
 31
0.0
  0
LINE
  5
7E77
330
1F
100
AcDbEntity
  8
AM_0
100
AcDbLine
 10
-9.165000915528091
 20
-11.84599685668836
 30
0.0
 11
-9.78499984741312
 21
-9.617000579833394
 31
0.0
  0
LINE
  5
7E78
330
1F
100
AcDbEntity
  8
AM_0
100
AcDbLine
 10
-33.30100250244219
 20
-4.776000976561727
 30
0.0
 11
-36.38500213623109
 21
-10.45700073242074
 31
0.0
  0
LINE
  5
7E79
330
1F
100
AcDbEntity
  8
AM_0
100
AcDbLine
 10
-34.91400527954127
 20
1.488998413086255
 30
0.0
 11
-27.42500305175826
 21
0.8989982604983579
 31
0.0
  0
LINE
  5
7E7A
330
1F
100
AcDbEntity
  8
AM_0
100
AcDbLine
 10
-27.42899703979527
 20
0.7280006408703611
 30
0.0
 11
-34.92199325561629
 21
1.318000793457257
 31
0.0
  0
LINE
  5
7E7B
330
1F
100
AcDbEntity
  8
AM_0
100
AcDbLine
 10
-36.82599449157824
 20
-1.891002655028772
 30
0.0
 11
-33.03299331665124
 21
-1.823001861571724
 31
0.0
  0
LINE
  5
7E85
330
1F
100
AcDbEntity
  8
AM_0
100
AcDbLine
 10
-14.77500152587932
 20
5.076002120972532
 30
0.0
 11
-21.22800064087037
 21
8.893003463746449
 31
0.0
  0
LINE
  5
7E86
330
1F
100
AcDbEntity
  8
AM_0
100
AcDbLine
 10
-9.828998565674126
 20
-9.616001129149385
 30
0.0
 11
-17.32199859619212
 21
-9.604000091551494
 31
0.0
  0
LINE
  5
7E87
330
1F
100
AcDbEntity
  8
AM_0
100
AcDbLine
 10
-17.31400299072313
 20
-9.338001251219491
 30
0.0
 11
-9.825000762940126
 21
-9.348999023436396
 31
0.0
  0
LINE
  5
7E88
330
1F
100
AcDbEntity
  8
AM_0
100
AcDbLine
 10
-1.162002563477317
 20
3.764999389649727
 30
0.0
 11
-1.162002563477106
 21
-11.21300125121925
 31
0.0
  0
LINE
  5
7E89
330
1F
100
AcDbEntity
  8
AM_0
100
AcDbLine
 10
-0.9700012207043055
 20
3.756999969483737
 30
0.0
 11
-0.9700012207040987
 21
-11.01399993896325
 31
0.0
  0
LINE
  5
7E8A
330
1F
100
AcDbEntity
  8
AM_0
100
AcDbLine
 10
-9.880001068116305
 20
4.145999908448615
 30
0.0
 11
-1.162002563477317
 21
3.765001296998729
 31
0.0
  0
LINE
  5
7E8B
330
1F
100
AcDbEntity
  8
AM_0
100
AcDbLine
 10
-1.248001098633323
 20
4.568998336792726
 30
0.0
 11
-11.80699920654333
 21
5.029998779297582
 31
0.0
  0
LINE
  5
7E8C
330
1F
100
AcDbEntity
  8
AM_0
100
AcDbLine
 10
-0.9700012207043055
 20
3.759000778199726
 30
0.0
 11
-0.9700012207043414
 21
6.007999420166734
 31
0.0
  0
ARC
  5
7E8D
330
1F
100
AcDbEntity
  8
AM_0
100
AcDbCircle
 10
-5.126998901368379
 20
8.927000045777671
 30
0.0
 40
1.249259829521199
100
AcDbArc
 50
295.5599705674483
 51
296.585564452461
  0
LINE
  5
7E8E
330
1F
100
AcDbEntity
  8
AM_0
100
AcDbLine
 10
-7.002998352051337
 20
5.608999252320653
 30
0.0
 11
-4.015995025635334
 21
5.479000091553686
 31
0.0
  0
LINE
  5
7E8F
330
1F
100
AcDbEntity
  8
AM_0
100
AcDbLine
 10
-4.015995025635334
 20
5.479000091553686
 30
0.0
 11
-3.999996185303336
 21
5.837999343873685
 31
0.0
  0
LINE
  5
7E90
330
1F
100
AcDbEntity
  8
AM_0
100
AcDbLine
 10
-1.248001098633323
 20
4.569000244141729
 30
0.0
 11
-1.193000793458344
 21
5.857999801636726
 31
0.0
  0
LINE
  5
7E91
330
1F
100
AcDbEntity
  8
AM_0
100
AcDbLine
 10
-1.162002563477317
 20
3.765001296998729
 30
0.0
 11
-0.9700012207043055
 21
3.756999969483737
 31
0.0
  0
LINE
  5
7E92
330
1F
100
AcDbEntity
  8
AM_0
100
AcDbLine
 10
-6.97000122070435
 20
5.683000564576649
 30
0.0
 11
-7.002998352051337
 21
5.608999252320653
 31
0.0
  0
LINE
  5
7E93
330
1F
100
AcDbEntity
  8
AM_0
100
AcDbLine
 10
-6.97000122070435
 20
5.682998657227652
 30
0.0
 11
-6.964000701905355
 21
5.885000228882649
 31
0.0
  0
LINE
  5
7E94
330
1F
100
AcDbEntity
  8
AM_0
100
AcDbLine
 10
-6.991001129151335
 20
5.885999679566648
 30
0.0
 11
-7.002998352051337
 21
5.608999252320653
 31
0.0
  0
LINE
  5
7E95
330
1F
100
AcDbEntity
  8
AM_0
100
AcDbLine
 10
-10.67300033569437
 20
7.515001296998599
 30
0.0
 11
-10.78300094604536
 21
6.390001296998597
 31
0.0
  0
LINE
  5
7E96
330
1F
100
AcDbEntity
  8
AM_0
100
AcDbLine
 10
-10.57799530029334
 20
6.012001037598597
 30
0.0
 11
-10.42699432373133
 21
5.975000381470597
 31
0.0
  0
LINE
  5
7E97
330
1F
100
AcDbEntity
  8
AM_0
100
AcDbLine
 10
-10.42600250244234
 20
5.975000381470597
 30
0.0
 11
-10.57799911499134
 21
6.012001037598597
 31
0.0
  0
LINE
  5
7E98
330
1F
100
AcDbEntity
  8
AM_0
100
AcDbLine
 10
-14.95700073242232
 20
5.182998657227534
 30
0.0
 11
-12.81600189209033
 21
5.18699836731056
 31
0.0
  0
LINE
  5
7E99
330
1F
100
AcDbEntity
  8
AM_0
100
AcDbLine
 10
-12.81600189209033
 20
5.187000274659563
 30
0.0
 11
-12.79299926757935
 21
5.628000259400561
 31
0.0
  0
LINE
  5
7E9A
330
1F
100
AcDbEntity
  8
AM_0
100
AcDbLine
 10
-12.79299926757935
 20
5.627998352051566
 30
0.0
 11
-10.84900283813533
 21
5.630998611451595
 31
0.0
  0
LINE
  5
7E9B
330
1F
100
AcDbEntity
  8
AM_0
100
AcDbLine
 10
-12.14700317382934
 20
4.89599990844858
 30
0.0
 11
-13.13000488281332
 21
4.729000091553563
 31
0.0
  0
LINE
  5
7E9C
330
1F
100
AcDbEntity
  8
AM_0
100
AcDbLine
 10
-11.80699920654333
 20
5.030000686646586
 30
0.0
 11
-12.14699935913133
 21
4.896001815796573
 31
0.0
  0
ARC
  5
7E9D
330
1F
100
AcDbEntity
  8
AM_0
100
AcDbCircle
 10
-12.01900100708137
 20
9.243999481202571
 30
0.0
 40
4.996855735778798
100
AcDbArc
 50
237.5789318353137
 51
238.2693068660507
  0
LINE
  5
7E9E
330
1F
100
AcDbEntity
  8
AM_0
100
AcDbLine
 10
-14.52800369262733
 20
4.960000991822542
 30
0.0
 11
-14.68900299072333
 21
5.030000686646539
 31
0.0
  0
LINE
  5
7E9F
330
1F
100
AcDbEntity
  8
AM_0
100
AcDbLine
 10
-14.77500534057733
 20
5.076000213623538
 30
0.0
 11
-14.69800186157334
 21
5.025999069214528
 31
0.0
  0
LINE
  5
7EA0
330
1F
100
AcDbEntity
  8
AM_0
100
AcDbLine
 10
-14.69799804687533
 20
5.025999069214528
 30
0.0
 11
-14.90600204467832
 21
5.035999298096532
 31
0.0
  0
ARC
  5
7EA1
330
1F
100
AcDbEntity
  8
AM_0
100
AcDbCircle
 10
-4.930999755860139
 20
-8.917999267577325
 30
0.0
 40
1.245411157608
100
AcDbArc
 50
178.5276615840694
 51
272.5214009875347
  0
ARC
  5
7EA2
330
1F
100
AcDbEntity
  8
AM_0
100
AcDbCircle
 10
-4.930999755860139
 20
-8.917999267577325
 30
0.0
 40
1.249167680740399
100
AcDbArc
 50
92.4776008056183
 51
147.380758222258
  0
ARC
  5
7EA3
330
1F
100
AcDbEntity
  8
AM_0
100
AcDbCircle
 10
-4.930999755860139
 20
-8.917999267577325
 30
0.0
 40
1.250210404396099
100
AcDbArc
 50
272.5214009875347
 51
92.47761082353511
  0
ARC
  5
7EA4
330
1F
100
AcDbEntity
  8
AM_0
100
AcDbCircle
 10
-4.930999755860139
 20
-8.917999267577325
 30
0.0
 40
1.495413303375198
100
AcDbArc
 50
2.491210868157141
 51
88.08957309410375
  0
LINE
  5
7EA5
330
1F
100
AcDbEntity
  8
AM_0
100
AcDbLine
 10
-0.9700012207040987
 20
-11.01399993896325
 30
0.0
 11
-1.162002563477106
 21
-11.21300125121925
 31
0.0
  0
LINE
  5
7EA6
330
1F
100
AcDbEntity
  8
AM_0
100
AcDbLine
 10
-3.43700027465914
 20
-8.853000640868305
 30
0.0
 11
-3.358001708985097
 21
-10.6619987487783
 31
0.0
  0
ARC
  5
7EA7
330
1F
100
AcDbEntity
  8
AM_0
100
AcDbCircle
 10
-4.930999755860139
 20
-8.917999267577325
 30
0.0
 40
1.2457082271576
100
AcDbArc
 50
178.0678630675414
 51
178.5276615840694
  0
LINE
  5
7EA8
330
1F
100
AcDbEntity
  8
AM_0
100
AcDbLine
 10
-8.542999267579109
 20
-11.15099716186437
 30
0.0
 11
-8.541999816895103
 21
-10.37299728393437
 31
0.0
  0
LINE
  5
7EA9
330
1F
100
AcDbEntity
  8
AM_0
100
AcDbLine
 10
-9.119998931885128
 20
-9.259998321532375
 30
0.0
 11
-9.016998291016102
 21
-9.940998077391377
 31
0.0
  0
LINE
  5
7EAA
330
1F
100
AcDbEntity
  8
AM_0
100
AcDbLine
 10
-8.335998535157088
 20
-10.59399795532137
 30
0.0
 11
-8.333000183106094
 21
-10.56599807739138
 31
0.0
  0
LINE
  5
7EAB
330
1F
100
AcDbEntity
  8
AM_0
100
AcDbLine
 10
-8.338001251221086
 20
-10.54800033569235
 30
0.0
 11
-8.335998535157088
 21
-10.59400177001836
 31
0.0
  0
LINE
  5
7EAC
330
1F
100
AcDbEntity
  8
AM_0
100
AcDbLine
 10
-8.901000976563102
 20
-10.28400039672736
 30
0.0
 11
-8.881000518799099
 21
-10.40700149536036
 31
0.0
  0
LINE
  5
7EAD
330
1F
100
AcDbEntity
  8
AM_0
100
AcDbLine
 10
-8.881000518799099
 20
-10.40700149536036
 30
0.0
 11
-8.903999328614096
 21
-10.28400039672736
 31
0.0
  0
LINE
  5
7EAE
330
1F
100
AcDbEntity
  8
AM_0
100
AcDbLine
 10
-14.91200637817419
 20
-4.422000885008466
 30
0.0
 11
-14.87300491333118
 21
-4.019001007079467
 31
0.0
  0
LINE
  5
7EAF
330
1F
100
AcDbEntity
  8
AM_0
100
AcDbLine
 10
-12.15499877929715
 20
-5.899997711180432
 30
0.0
 11
-12.07699966430715
 21
-7.444999694823421
 31
0.0
  0
LINE
  5
7EB0
330
1F
100
AcDbEntity
  8
AM_0
100
AcDbLine
 10
-9.409004211426127
 20
-9.351001739501398
 30
0.0
 11
-9.408004760743132
 21
-9.289001464842383
 31
0.0
  0
LINE
  5
7EB1
330
1F
100
AcDbEntity
  8
AM_0
100
AcDbLine
 10
-9.408000946045138
 20
-9.288997650145388
 30
0.0
 11
-9.409999847413125
 21
-9.256999969481382
 31
0.0
  0
LINE
  5
7EB2
330
1F
100
AcDbEntity
  8
AM_0
100
AcDbLine
 10
-9.409004211426127
 20
-9.350997924803392
 30
0.0
 11
-9.620002746583132
 21
-9.208000183104388
 31
0.0
  0
LINE
  5
7EB3
330
1F
100
AcDbEntity
  8
AM_0
100
AcDbLine
 10
-9.409999847413125
 20
-9.256999969481382
 30
0.0
 11
-9.616004943848134
 21
-9.164997100829383
 31
0.0
  0
LINE
  5
7EB4
330
1F
100
AcDbEntity
  8
AM_0
100
AcDbLine
 10
-9.828998565674126
 20
-9.616001129149385
 30
0.0
 11
-9.78499984741312
 21
-9.617000579833394
 31
0.0
  0
LINE
  5
7EB5
330
1F
100
AcDbEntity
  8
AM_0
100
AcDbLine
 10
-9.624000549317139
 20
-9.0170021057114
 30
0.0
 11
-9.616001129151122
 21
-9.165000915526393
 31
0.0
  0
LINE
  5
7EB6
330
1F
100
AcDbEntity
  8
AM_0
100
AcDbLine
 10
-9.409999847413125
 20
-9.256999969481382
 30
0.0
 11
-9.417999267579141
 21
-9.09199905395438
 31
0.0
  0
LINE
  5
7EB7
330
1F
100
AcDbEntity
  8
AM_0
100
AcDbLine
 10
-9.434997558594137
 20
-9.440998077391398
 30
0.0
 11
-9.635997772217129
 21
-9.24999999999939
 31
0.0
  0
LINE
  5
7EB8
330
1F
100
AcDbEntity
  8
AM_0
100
AcDbLine
 10
-9.598999023438127
 20
-9.590999603270391
 30
0.0
 11
-9.70999908447313
 21
-9.32200241088738
 31
0.0
  0
LINE
  5
7EB9
330
1F
100
AcDbEntity
  8
AM_0
100
AcDbLine
 10
-9.829002380372131
 20
-9.616001129149385
 30
0.0
 11
-9.825004577637132
 21
-9.349002838133392
 31
0.0
  0
LINE
  5
7EBA
330
1F
100
AcDbEntity
  8
AM_0
100
AcDbLine
 10
-17.14799880981515
 20
-7.14400100707949
 30
0.0
 11
-17.13599777221716
 21
-7.282997131346498
 31
0.0
  0
LINE
  5
7EBB
330
1F
100
AcDbEntity
  8
AM_0
100
AcDbLine
 10
-26.7650032043462
 20
-2.660999298094628
 30
0.0
 11
-27.38500595092825
 21
0.7220001220713633
 31
0.0
  0
LINE
  5
7EBC
330
1F
100
AcDbEntity
  8
AM_0
100
AcDbLine
 10
-26.39899826049922
 20
-2.639999389647626
 30
0.0
 11
-27.00699996948325
 21
0.6790008544933651
 31
0.0
  0
LINE
  5
7EBD
330
1F
100
AcDbEntity
  8
AM_0
100
AcDbLine
 10
-19.92400360107537
 20
8.157999038697463
 30
0.0
 11
-19.27100372314537
 21
8.244998931885476
 31
0.0
  0
LINE
  5
7EBE
330
1F
100
AcDbEntity
  8
AM_0
100
AcDbLine
 10
-23.71200180053826
 20
1.34299850463941
 30
0.0
 11
-23.69800186157329
 21
1.561000823975412
 31
0.0
  0
LINE
  5
7EBF
330
1F
100
AcDbEntity
  8
AM_0
100
AcDbLine
 10
-32.51199722290133
 20
6.74800109863329
 30
0.0
 11
-32.50699996948337
 21
6.835000991822294
 31
0.0
  0
ARC
  5
7EC0
330
1F
100
AcDbEntity
  8
AM_0
100
AcDbCircle
 10
-28.40899658203225
 20
0.220001220704344
 30
0.0
 40
1.243205904960599
100
AcDbArc
 50
32.88476037277042
 51
71.08650700446358
  0
LINE
  5
7EC1
330
1F
100
AcDbEntity
  8
AM_0
100
AcDbLine
 10
-27.00900650024526
 20
0.6750030517583646
 30
0.0
 11
-27.22000122070427
 21
0.8830032348643628
 31
0.0
  0
LINE
  5
7EC2
330
1F
100
AcDbEntity
  8
AM_0
100
AcDbLine
 10
-27.03500366211026
 20
0.6719970703133643
 30
0.0
 11
-27.23600006103626
 21
0.8839988708503637
 31
0.0
  0
LINE
  5
7EC3
330
1F
100
AcDbEntity
  8
AM_0
100
AcDbLine
 10
-27.19899749755925
 20
0.689998626709363
 30
0.0
 11
-27.30999755859428
 21
0.8900032043463641
 31
0.0
  0
LINE
  5
7EC4
330
1F
100
AcDbEntity
  8
AM_0
100
AcDbLine
 10
-27.42900085449326
 20
0.7279968261723636
 30
0.0
 11
-27.42500305175826
 21
0.8989982604983579
 31
0.0
  0
LINE
  5
7EC5
330
1F
100
AcDbEntity
  8
AM_0
100
AcDbLine
 10
-27.42900466919025
 20
0.7280006408703611
 30
0.0
 11
-27.38499832153426
 21
0.7220001220713633
 31
0.0
  0
LINE
  5
7EC6
330
1F
100
AcDbEntity
  8
AM_0
100
AcDbLine
 10
-27.00900268554725
 20
0.674999237061369
 30
0.0
 11
-27.00700378418026
 21
0.6790008544933651
 31
0.0
  0
LINE
  5
7EC7
330
1F
100
AcDbEntity
  8
AM_0
100
AcDbLine
 10
-27.00699996948325
 20
0.6790008544933651
 30
0.0
 11
-27.00799942016625
 21
0.6809997558603677
 31
0.0
  0
LINE
  5
7EC8
330
1F
100
AcDbEntity
  8
AM_0
100
AcDbLine
 10
-27.00800323486425
 20
0.6809997558603677
 30
0.0
 11
-27.00900650024526
 21
0.6819992065433646
 31
0.0
  0
LINE
  5
7EC9
330
1F
100
AcDbEntity
  8
AM_0
100
AcDbLine
 10
-27.00900268554725
 20
0.6819953918463689
 30
0.0
 11
-27.21600341796928
 21
0.8819999694833613
 31
0.0
  0
LINE
  5
7ECA
330
1F
100
AcDbEntity
  8
AM_0
100
AcDbLine
 10
-29.67584228515729
 20
3.596387863160328
 30
0.0
 11
-32.67422103881931
 21
3.810541152955281
 31
0.0
  0
LINE
  5
7ECB
330
1F
100
AcDbEntity
  8
AM_0
100
AcDbLine
 10
-25.16900253295917
 20
-7.222999572752606
 30
0.0
 11
-27.58500289917011
 21
-11.13100051879764
 31
0.0
  0
LINE
  5
7ECC
330
1F
100
AcDbEntity
  8
AM_0
100
AcDbLine
 10
-18.62899398803818
 20
-5.130996704100522
 30
0.0
 11
-26.12200164795019
 21
-4.783996582030627
 31
0.0
  0
LINE
  5
7ECD
330
1F
100
AcDbEntity
  8
AM_0
100
AcDbLine
 10
-26.11399841308619
 20
-4.530998229979624
 30
0.0
 11
-18.62500000000019
 21
-4.878997802733518
 31
0.0
  0
LINE
  5
7ECE
330
1F
100
AcDbEntity
  8
AM_0
100
AcDbLine
 10
-17.81699752807717
 20
-5.974998474120515
 30
0.0
 11
-18.11699295044018
 21
-4.819999694823502
 31
0.0
  0
LINE
  5
7ECF
330
1F
100
AcDbEntity
  8
AM_0
100
AcDbLine
 10
-17.96499633789113
 20
-8.374999999999509
 30
0.0
 11
-18.58499908447318
 21
-5.136001586913517
 31
0.0
  0
LINE
  5
7ED0
330
1F
100
AcDbEntity
  8
AM_0
100
AcDbLine
 10
-17.68099975586016
 20
-7.424999237059512
 30
0.0
 11
-18.15299987793019
 21
-4.604000091551508
 31
0.0
  0
LINE
  5
7ED1
330
1F
100
AcDbEntity
  8
AM_0
100
AcDbLine
 10
-18.20800018310618
 20
-4.969997406004505
 30
0.0
 11
-17.59999847412215
 21
-8.1479988098135
 31
0.0
  0
LINE
  5
7ED2
330
1F
100
AcDbEntity
  8
AM_0
100
AcDbLine
 10
-20.95500183105525
 20
-1.339000701903541
 30
0.0
 11
-20.87699508667023
 21
-2.230003356932545
 31
0.0
  0
LINE
  5
7ED3
330
1F
100
AcDbEntity
  8
AM_0
100
AcDbLine
 10
-18.62899780273519
 20
-5.131000518797516
 30
0.0
 11
-18.58499908447318
 21
-5.13599777221552
 31
0.0
  0
LINE
  5
7ED4
330
1F
100
AcDbEntity
  8
AM_0
100
AcDbLine
 10
-18.39899826049919
 20
-5.138999938963514
 30
0.0
 11
-18.51000213623118
 21
-4.86800003051652
 31
0.0
  0
LINE
  5
7ED5
330
1F
100
AcDbEntity
  8
AM_0
100
AcDbLine
 10
-18.62899398803818
 20
-5.131000518797516
 30
0.0
 11
-18.62499618530318
 21
-4.879001617430522
 31
0.0
  0
LINE
  5
7ED6
330
1F
100
AcDbEntity
  8
AM_0
100
AcDbLine
 10
-18.20899963379019
 20
-5.008998870848505
 30
0.0
 11
-18.20800018310618
 21
-4.970001220702504
 31
0.0
  0
LINE
  5
7ED7
330
1F
100
AcDbEntity
  8
AM_0
100
AcDbLine
 10
-18.20800018310618
 20
-4.970001220702504
 30
0.0
 11
-18.20999908447318
 21
-4.951000213622504
 31
0.0
  0
LINE
  5
7ED8
330
1F
100
AcDbEntity
  8
AM_0
100
AcDbLine
 10
-18.21000289917019
 20
-4.951000213622504
 30
0.0
 11
-18.41600418090919
 21
-4.781997680663514
 31
0.0
  0
LINE
  5
7ED9
330
1F
100
AcDbEntity
  8
AM_0
100
AcDbLine
 10
-18.44599914550819
 20
-4.437999725340518
 30
0.0
 11
-18.41600036621118
 21
-4.782001495360518
 31
0.0
  0
LINE
  5
7EDA
330
1F
100
AcDbEntity
  8
AM_0
100
AcDbLine
 10
-18.20999526977617
 20
-4.951000213622504
 30
0.0
 11
-18.24499893188519
 21
-4.544002532958505
 31
0.0
  0
LINE
  5
7EDB
330
1F
100
AcDbEntity
  8
AM_0
100
AcDbLine
 10
-18.20899963379019
 20
-5.009002685545507
 30
0.0
 11
-18.42000198364319
 21
-4.806003570555518
 31
0.0
  0
LINE
  5
7EDC
330
1F
100
AcDbEntity
  8
AM_0
100
AcDbLine
 10
-18.23500061035217
 20
-5.062999725340507
 30
0.0
 11
-18.43600082397519
 21
-4.830001831053515
 31
0.0
  0
LINE
  5
7EDD
330
1F
100
AcDbEntity
  8
AM_0
100
AcDbLine
 10
-19.91699981689515
 20
-8.118000030516549
 30
0.0
 11
-21.22799301147515
 21
-8.89299774169854
 31
0.0
  0
LINE
  5
7EDE
330
1F
100
AcDbEntity
  8
AM_0
100
AcDbLine
 10
-17.93000030517617
 20
-5.860000610350502
 30
0.0
 11
-17.96600341796917
 21
-5.722999572752506
 31
0.0
  0
LINE
  5
7EDF
330
1F
100
AcDbEntity
  8
AM_0
100
AcDbLine
 10
-17.30700302124116
 20
-6.848999023436501
 30
0.0
 11
-17.34100723266615
 21
-7.224998474120507
 31
0.0
  0
LINE
  5
7EE0
330
1F
100
AcDbEntity
  8
AM_0
100
AcDbLine
 10
-17.34300613403414
 20
-8.911998748778497
 30
0.0
 11
-17.34100723266615
 21
-7.224998474120507
 31
0.0
  0
LINE
  5
7EE1
330
1F
100
AcDbEntity
  8
AM_0
100
AcDbLine
 10
-18.7259979248051
 20
-10.59799957275252
 30
0.0
 11
-19.26799774170015
 21
-8.226001739501539
 31
0.0
  0
LINE
  5
7EE2
330
1F
100
AcDbEntity
  8
AM_0
100
AcDbLine
 10
-17.96600341796915
 20
-8.374999999999509
 30
0.0
 11
-17.96499633789113
 21
-8.374999999999509
 31
0.0
  0
LINE
  5
7EE3
330
1F
100
AcDbEntity
  8
AM_0
100
AcDbLine
 10
-18.16099929809613
 20
-8.955001831053518
 30
0.0
 11
-17.94200134277415
 21
-8.869998931883507
 31
0.0
  0
LINE
  5
7EE4
330
1F
100
AcDbEntity
  8
AM_0
100
AcDbLine
 10
-18.10500335693412
 20
-9.163997650145512
 30
0.0
 11
-17.88800048828212
 21
-9.020996093749509
 31
0.0
  0
LINE
  5
7EE5
330
1F
100
AcDbEntity
  8
AM_0
100
AcDbLine
 10
-18.16100692749114
 20
-8.955001831053518
 30
0.0
 11
-18.15700149536214
 21
-8.984001159667512
 31
0.0
  0
LINE
  5
7EE6
330
1F
100
AcDbEntity
  8
AM_0
100
AcDbLine
 10
-17.81399917602614
 20
-8.367000579833506
 30
0.0
 11
-17.96499252319415
 21
-8.374999999999509
 31
0.0
  0
LINE
  5
7EE7
330
1F
100
AcDbEntity
  8
AM_0
100
AcDbLine
 10
-17.34700012207111
 20
-9.604000091551496
 30
0.0
 11
-17.32199859619212
 21
-9.604000091551494
 31
0.0
  0
LINE
  5
7EE8
330
1F
100
AcDbEntity
  8
AM_0
100
AcDbLine
 10
-17.97899627685613
 20
-9.351001739501519
 30
0.0
 11
-17.78500366211013
 21
-9.154003143309513
 31
0.0
  0
LINE
  5
7EE9
330
1F
100
AcDbEntity
  8
AM_0
100
AcDbLine
 10
-18.25699996948314
 20
-8.347999572752511
 30
0.0
 11
-18.16099929809613
 21
-8.954998016356508
 31
0.0
  0
LINE
  5
7EEA
330
1F
100
AcDbEntity
  8
AM_0
100
AcDbLine
 10
-17.68199920654313
 20
-9.547000885008504
 30
0.0
 11
-17.56500244140712
 21
-9.293003082274497
 31
0.0
  0
LINE
  5
7EEB
330
1F
100
AcDbEntity
  8
AM_0
100
AcDbLine
 10
-17.68099975586016
 20
-7.424999237059512
 30
0.0
 11
-17.59999847412215
 21
-8.1479988098135
 31
0.0
  0
LINE
  5
7EEC
330
1F
100
AcDbEntity
  8
AM_0
100
AcDbLine
 10
-18.7259979248051
 20
-10.59799957275252
 30
0.0
 11
-18.15699768066514
 21
-8.984001159667512
 31
0.0
  0
LINE
  5
7EED
330
1F
100
AcDbEntity
  8
AM_0
100
AcDbLine
 10
-17.34700012207111
 20
-9.604000091551496
 30
0.0
 11
-17.8939971923831
 21
-11.15699768066351
 31
0.0
  0
LINE
  5
7EEE
330
1F
100
AcDbEntity
  8
AM_0
100
AcDbLine
 10
-17.31800460815513
 20
-9.561000823973497
 30
0.0
 11
-17.32200241088913
 21
-9.604000091551494
 31
0.0
  0
LINE
  5
7EEF
330
1F
100
AcDbEntity
  8
AM_0
100
AcDbLine
 10
-17.94200134277415
 20
-8.869998931883507
 30
0.0
 11
-18.02100372314514
 21
-8.369998931883509
 31
0.0
  0
LINE
  5
7EF0
330
1F
100
AcDbEntity
  8
AM_0
100
AcDbLine
 10
-27.52600479126016
 20
-6.690998077391644
 30
0.0
 11
-26.95700454712019
 21
-4.388999938963629
 31
0.0
  0
LINE
  5
7EF1
330
1F
100
AcDbEntity
  8
AM_0
100
AcDbLine
 10
-26.14700698852619
 20
-4.782997131346627
 30
0.0
 11
-26.69400405883816
 21
-6.996997833251644
 31
0.0
  0
LINE
  5
7EF2
330
1F
100
AcDbEntity
  8
AM_0
100
AcDbLine
 10
-29.7379989624032
 20
-3.033000946043673
 30
0.0
 11
-28.5019989013682
 21
-3.090000152586651
 31
0.0
  0
LINE
  5
7EF3
330
1F
100
AcDbEntity
  8
AM_0
100
AcDbLine
 10
-29.40699386596721
 20
-2.752002716063668
 30
0.0
 11
-29.64500045776421
 21
-2.693000793456677
 31
0.0
  0
LINE
  5
7EF4
330
1F
100
AcDbEntity
  8
AM_0
100
AcDbLine
 10
-30.38700485229525
 20
-2.027999877928676
 30
0.0
 11
-26.76600265503022
 21
-2.65999984741163
 31
0.0
  0
ARC
  5
7EF5
330
1F
100
AcDbEntity
  8
AM_0
100
AcDbCircle
 10
-26.83599853515723
 20
-1.95700073242063
 30
0.0
 40
0.7994078993797002
100
AcDbArc
 50
355.5518169912314
 51
77.21478814195094
  0
LINE
  5
7EF6
330
1F
100
AcDbEntity
  8
AM_0
100
AcDbLine
 10
-26.80999374389726
 20
-0.3990020751946293
 30
0.0
 11
-26.61699295044026
 21
-0.4090003967276235
 31
0.0
  0
LINE
  5
7EF7
330
1F
100
AcDbEntity
  8
AM_0
100
AcDbLine
 10
-26.03900146484424
 20
-2.019001007079623
 30
0.0
 11
-25.93599700927823
 21
-2.019001007079622
 31
0.0
  0
LINE
  5
7EF8
330
1F
100
AcDbEntity
  8
AM_0
100
AcDbLine
 10
-26.03899765014723
 20
-2.019001007079623
 30
0.0
 11
-26.14099502563519
 21
-3.314998626708623
 31
0.0
  0
LINE
  5
7EF9
330
1F
100
AcDbEntity
  8
AM_0
100
AcDbLine
 10
-26.1429977417002
 20
-4.284999847411627
 30
0.0
 11
-26.1409988403332
 21
-3.314998626708623
 31
0.0
  0
LINE
  5
7EFA
330
1F
100
AcDbEntity
  8
AM_0
100
AcDbLine
 10
-26.61399841308621
 20
-2.673000335692622
 30
0.0
 11
-26.76499557495221
 21
-2.660999298094628
 31
0.0
  0
LINE
  5
7EFB
330
1F
100
AcDbEntity
  8
AM_0
100
AcDbLine
 10
-26.76499557495221
 20
-2.660999298094628
 30
0.0
 11
-26.61399841308621
 21
-2.673000335692622
 31
0.0
  0
LINE
  5
7EFC
330
1F
100
AcDbEntity
  8
AM_0
100
AcDbLine
 10
-26.76599884033321
 20
-2.660003662108626
 30
0.0
 11
-26.76499938964922
 21
-2.661003112792624
 31
0.0
  0
LINE
  5
7EFD
330
1F
100
AcDbEntity
  8
AM_0
100
AcDbLine
 10
-27.39900588989323
 20
-2.561000823973635
 30
0.0
 11
-28.3800010681162
 21
-4.722999572752651
 31
0.0
  0
LINE
  5
7EFE
330
1F
100
AcDbEntity
  8
AM_0
100
AcDbLine
 10
-26.48200225830119
 20
-4.739997863768629
 30
0.0
 11
-26.3649978637702
 21
-4.49399948120063
 31
0.0
  0
LINE
  5
7EFF
330
1F
100
AcDbEntity
  8
AM_0
100
AcDbLine
 10
-27.38600158691523
 20
-2.562999725340639
 30
0.0
 11
-28.38300323486419
 21
-4.761001586913653
 31
0.0
  0
LINE
  5
7F00
330
1F
100
AcDbEntity
  8
AM_0
100
AcDbLine
 10
-26.14700317382919
 20
-4.782997131346627
 30
0.0
 11
-26.12199783325219
 21
-4.784000396727623
 31
0.0
  0
LINE
  5
7F01
330
1F
100
AcDbEntity
  8
AM_0
100
AcDbLine
 10
-26.11799621582119
 20
-4.743000030516628
 30
0.0
 11
-26.12200164795019
 21
-4.783996582030627
 31
0.0
  0
LINE
  5
7F02
330
1F
100
AcDbEntity
  8
AM_0
100
AcDbLine
 10
-27.11399459838921
 20
-3.805999755858632
 30
0.0
 11
-26.96099853515718
 21
-4.370998382567628
 31
0.0
  0
LINE
  5
7F03
330
1F
100
AcDbEntity
  8
AM_0
100
AcDbLine
 10
-26.74199676513721
 20
-4.234001159667625
 30
0.0
 11
-26.89499664306721
 21
-3.667999267577627
 31
0.0
  0
LINE
  5
7F04
330
1F
100
AcDbEntity
  8
AM_0
100
AcDbLine
 10
-27.11399459838921
 20
-3.806003570555634
 30
0.0
 11
-26.89499664306721
 21
-3.668006896971633
 31
0.0
  0
LINE
  5
7F05
330
1F
100
AcDbEntity
  8
AM_0
100
AcDbLine
 10
-28.27300643920918
 20
-5.169998168944652
 30
0.0
 11
-28.3830070495612
 21
-4.761001586913653
 31
0.0
  0
LINE
  5
7F06
330
1F
100
AcDbEntity
  8
AM_0
100
AcDbLine
 10
-28.27300262451219
 20
-5.169998168944652
 30
0.0
 11
-27.1370010375982
 21
-3.744998931883632
 31
0.0
  0
LINE
  5
7F07
330
1F
100
AcDbEntity
  8
AM_0
100
AcDbLine
 10
-26.90499877929719
 20
-4.498001098631633
 30
0.0
 11
-26.6880035400402
 21
-4.322998046874627
 31
0.0
  0
LINE
  5
7F08
330
1F
100
AcDbEntity
  8
AM_0
100
AcDbLine
 10
-26.77899932861419
 20
-4.614997863768627
 30
0.0
 11
-26.5850028991702
 21
-4.403999328612622
 31
0.0
  0
LINE
  5
7F09
330
1F
100
AcDbEntity
  8
AM_0
100
AcDbLine
 10
-26.9610023498542
 20
-4.370998382567628
 30
0.0
 11
-26.7420005798342
 21
-4.234001159667625
 31
0.0
  0
LINE
  5
7F0A
330
1F
100
AcDbEntity
  8
AM_0
100
AcDbLine
 10
-26.96099853515718
 20
-4.370998382567628
 30
0.0
 11
-26.95700073242219
 21
-4.388999938963629
 31
0.0
  0
LINE
  5
7F0B
330
1F
100
AcDbEntity
  8
AM_0
100
AcDbLine
 10
-27.1370010375982
 20
-3.744998931883632
 30
0.0
 11
-27.1139984130862
 21
-3.805999755858632
 31
0.0
  0
LINE
  5
7F0C
330
1F
100
AcDbEntity
  8
AM_0
100
AcDbLine
 10
-26.89499664306721
 20
-3.667999267577627
 30
0.0
 11
-26.9850006103522
 21
-2.634998321532628
 31
0.0
  0
LINE
  5
7F0D
330
1F
100
AcDbEntity
  8
AM_0
100
AcDbLine
 10
-27.23799514770621
 20
-2.590000152586638
 30
0.0
 11
-27.13699722290121
 21
-3.744998931883632
 31
0.0
  0
LINE
  5
7F0E
330
1F
100
AcDbEntity
  8
AM_0
100
AcDbLine
 10
-28.3830070495612
 20
-4.760997772215653
 30
0.0
 11
-28.3800010681162
 21
-4.723003387450655
 31
0.0
  0
LINE
  5
7F0F
330
1F
100
AcDbEntity
  8
AM_0
100
AcDbLine
 10
-30.49400711059621
 20
-2.633003234862677
 30
0.0
 11
-31.32599258422922
 21
-2.757999420165694
 31
0.0
  0
LINE
  5
7F10
330
1F
100
AcDbEntity
  8
AM_0
100
AcDbLine
 10
-33.03299713134823
 20
-1.822998046874721
 30
0.0
 11
-32.39099502563524
 21
-1.793998718260704
 31
0.0
  0
LINE
  5
7F11
330
1F
100
AcDbEntity
  8
AM_0
100
AcDbLine
 10
-45.00000190734939
 20
11.2500000000001
 30
0.0
 11
-47.16500282287645
 21
12.50000190734907
 31
0.0
  0
LINE
  5
7F12
330
1F
100
AcDbEntity
  8
AM_0
100
AcDbLine
 10
-45.0000000000004
 20
11.2500000000001
 30
0.0
 11
-45.00000000000009
 21
-11.24999999999987
 31
0.0
  0
LINE
  5
7F13
330
1F
100
AcDbEntity
  8
AM_0
100
AcDbLine
 10
-36.32599830627527
 20
-0.9899978637687652
 30
0.0
 11
-35.75700569152929
 21
1.382999420166242
 31
0.0
  0
LINE
  5
7F14
330
1F
100
AcDbEntity
  8
AM_0
100
AcDbLine
 10
-34.94699859619229
 20
1.319999694825254
 30
0.0
 11
-35.49400329589925
 21
-0.9630012512197533
 31
0.0
  0
LINE
  5
7F15
330
1F
100
AcDbEntity
  8
AM_0
100
AcDbLine
 10
-36.06400299072328
 20
1.377998352051245
 30
0.0
 11
-37.18299865722722
 21
-1.807998657225781
 31
0.0
  0
LINE
  5
7F16
330
1F
100
AcDbEntity
  8
AM_0
100
AcDbLine
 10
-36.06500053405828
 20
1.376998901368241
 30
0.0
 11
-37.18499565124624
 21
-1.811000823973777
 31
0.0
  0
LINE
  5
7F17
330
1F
100
AcDbEntity
  8
AM_0
100
AcDbLine
 10
-37.07299995422424
 20
-1.631000518797775
 30
0.0
 11
-35.93699836731028
 21
1.380001068116247
 31
0.0
  0
LINE
  5
7F18
330
1F
100
AcDbEntity
  8
AM_0
100
AcDbLine
 10
-33.63600158691539
 20
11.25000000000026
 30
0.0
 11
-45.0000000000004
 21
11.2500000000001
 31
0.0
  0
LINE
  5
7F19
330
1F
100
AcDbEntity
  8
AM_0
100
AcDbLine
 10
-36.24199676513729
 20
0.8740005493172446
 30
0.0
 11
-37.28899765014727
 21
0.9559974670412191
 31
0.0
  0
LINE
  5
7F1A
330
1F
100
AcDbEntity
  8
AM_0
100
AcDbLine
 10
-36.14900207519629
 20
1.569000244141244
 30
0.0
 11
-35.82900238037229
 21
1.543998718262243
 31
0.0
  0
LINE
  5
7F1B
330
1F
100
AcDbEntity
  8
AM_0
100
AcDbLine
 10
-35.9699993133553
 20
1.571002960206247
 30
0.0
 11
-36.0879974365243
 21
1.575000762940243
 31
0.0
  0
LINE
  5
7F1C
330
1F
100
AcDbEntity
  8
AM_0
100
AcDbLine
 10
-36.13099670410229
 20
1.570999145508239
 30
0.0
 11
-35.97000122070431
 21
1.570999145508242
 31
0.0
  0
LINE
  5
7F1D
330
1F
100
AcDbEntity
  8
AM_0
100
AcDbLine
 10
-36.1729965209973
 20
1.570999145508238
 30
0.0
 11
-36.13099670410229
 21
1.570999145508239
 31
0.0
  0
LINE
  5
7F1E
330
1F
100
AcDbEntity
  8
AM_0
100
AcDbLine
 10
-35.76100158691529
 20
1.383998870850241
 30
0.0
 11
-35.7570037841803
 21
1.382999420166242
 31
0.0
  0
LINE
  5
7F1F
330
1F
100
AcDbEntity
  8
AM_0
100
AcDbLine
 10
-35.76100158691529
 20
1.384002685547244
 30
0.0
 11
-35.5419998168953
 21
1.537002563477248
 31
0.0
  0
LINE
  5
7F20
330
1F
100
AcDbEntity
  8
AM_0
100
AcDbLine
 10
-34.94700241088927
 20
1.319999694825254
 30
0.0
 11
-34.92199707031327
 21
1.318000793457257
 31
0.0
  0
LINE
  5
7F21
330
1F
100
AcDbEntity
  8
AM_0
100
AcDbLine
 10
-35.7050018310553
 20
1.371997833252245
 30
0.0
 11
-35.48800277710027
 21
1.532997131348242
 31
0.0
  0
LINE
  5
7F22
330
1F
100
AcDbEntity
  8
AM_0
100
AcDbLine
 10
-34.91800117492731
 20
1.346000671387257
 30
0.0
 11
-34.9219989776623
 21
1.318000793457257
 31
0.0
  0
LINE
  5
7F23
330
1F
100
AcDbEntity
  8
AM_0
100
AcDbLine
 10
-35.57900238037229
 20
1.357997894288242
 30
0.0
 11
-35.3850021362313
 21
1.525997161866249
 31
0.0
  0
LINE
  5
7F24
330
1F
100
AcDbEntity
  8
AM_0
100
AcDbLine
 10
-35.28200149536227
 20
1.337005615235248
 30
0.0
 11
-35.16500473022527
 21
1.509002685547254
 31
0.0
  0
LINE
  5
7F25
330
1F
100
AcDbEntity
  8
AM_0
100
AcDbLine
 10
-35.54000091552828
 20
1.536998748780244
 30
0.0
 11
-35.5419998168953
 21
1.536998748780244
 31
0.0
  0
LINE
  5
7F26
330
1F
100
AcDbEntity
  8
AM_0
100
AcDbLine
 10
-36.06400489807229
 20
1.37800216674824
 30
0.0
 11
-36.06300544738829
 21
1.380001068116245
 31
0.0
  0
LINE
  5
7F27
330
1F
100
AcDbEntity
  8
AM_0
100
AcDbLine
 10
-35.82700538635328
 20
1.544998168946242
 30
0.0
 11
-36.0630016326913
 21
1.380001068116245
 31
0.0
  0
LINE
  5
7F28
330
1F
100
AcDbEntity
  8
AM_0
100
AcDbLine
 10
-35.54200172424428
 20
1.536998748780244
 30
0.0
 11
-35.6949977874763
 21
1.545001983643239
 31
0.0
  0
LINE
  5
7F29
330
1F
100
AcDbEntity
  8
AM_0
100
AcDbLine
 10
-35.91399955749629
 20
1.392002105713235
 30
0.0
 11
-35.69499969482527
 21
1.545001983643239
 31
0.0
  0
LINE
  5
7F2A
330
1F
100
AcDbEntity
  8
AM_0
100
AcDbLine
 10
-35.91400337219327
 20
1.392002105713235
 30
0.0
 11
-35.76099777221728
 21
1.383998870850241
 31
0.0
  0
LINE
  5
7F2B
330
1F
100
AcDbEntity
  8
AM_0
100
AcDbLine
 10
-36.0650062561043
 20
1.376998901368241
 30
0.0
 11
-36.06400489807229
 21
1.37800216674824
 31
0.0
  0
LINE
  5
7F2C
330
1F
100
AcDbEntity
  8
AM_0
100
AcDbLine
 10
-35.93700027465928
 20
1.380001068116247
 30
0.0
 11
-35.91400337219327
 21
1.392002105713235
 31
0.0
  0
LINE
  5
7F2D
330
1F
100
AcDbEntity
  8
AM_0
100
AcDbLine
 10
-36.06300354004029
 20
1.380001068116245
 30
0.0
 11
-36.06199645996128
 21
1.380001068116245
 31
0.0
  0
LINE
  5
7F2E
330
1F
100
AcDbEntity
  8
AM_0
100
AcDbLine
 10
-35.69499969482527
 20
1.544998168946244
 30
0.0
 11
-35.82599639892627
 21
1.544998168946242
 31
0.0
  0
LINE
  5
7F2F
330
1F
100
AcDbEntity
  8
AM_0
100
AcDbLine
 10
-36.06199645996128
 20
1.380001068116245
 30
0.0
 11
-35.93699645996128
 21
1.380001068116247
 31
0.0
  0
LINE
  5
7F30
330
1F
100
AcDbEntity
  8
AM_0
100
AcDbLine
 10
-36.06199645996128
 20
1.380001068116245
 30
0.0
 11
-35.82600021362427
 21
1.544998168946242
 31
0.0
  0
LINE
  5
7F31
330
1F
100
AcDbEntity
  8
AM_0
100
AcDbLine
 10
-45.00000000000009
 20
-11.24999999999987
 30
0.0
 11
-33.6360015869151
 21
-11.24999999999972
 31
0.0
  0
LINE
  5
7F32
330
1F
100
AcDbEntity
  8
AM_0
100
AcDbLine
 10
-39.97899627685628
 20
-0.1259994506828149
 30
0.0
 11
-42.07499694824328
 21
0.0529975891121589
 31
0.0
  0
LINE
  5
7F33
330
1F
100
AcDbEntity
  8
AM_0
100
AcDbLine
 10
-43.02500534057727
 20
-0.675003051756862
 30
0.0
 11
-40.74900245666626
 21
-0.8690032958978271
 31
0.0
  0
LINE
  5
7F34
330
1F
100
AcDbEntity
  8
AM_0
100
AcDbLine
 10
-37.83399772644127
 20
-0.2980003356927808
 30
0.0
 11
-36.68499565124625
 21
-0.3880004882807739
 31
0.0
  0
LINE
  5
7F35
330
1F
100
AcDbEntity
  8
AM_0
100
AcDbLine
 10
-37.61900329589926
 20
-0.2980003356927845
 30
0.0
 11
-37.83399963379026
 21
-0.2980003356927808
 31
0.0
  0
LINE
  5
7F36
330
1F
100
AcDbEntity
  8
AM_0
100
AcDbLine
 10
-36.97799873352123
 20
-1.878997802733774
 30
0.0
 11
-36.82700157165623
 21
-1.890998840331777
 31
0.0
  0
LINE
  5
7F37
330
1F
100
AcDbEntity
  8
AM_0
100
AcDbLine
 10
-37.07299995422424
 20
-1.630996704100779
 30
0.0
 11
-37.18300056457624
 21
-1.807998657225781
 31
0.0
  0
LINE
  5
7F38
330
1F
100
AcDbEntity
  8
AM_0
100
AcDbLine
 10
-37.18300056457624
 20
-1.807998657225781
 30
0.0
 11
-37.18499946594322
 21
-1.810997009276782
 31
0.0
  0
LINE
  5
7F39
330
1F
100
AcDbEntity
  8
AM_0
100
AcDbLine
 10
-36.82599639892622
 20
-1.890998840331777
 30
0.0
 11
-36.97799682617223
 21
-1.879001617430777
 31
0.0
  0
LINE
  5
7F3A
330
1F
100
AcDbEntity
  8
AM_0
100
AcDbLine
 10
-33.88800048828208
 20
-11.24599838256772
 30
0.0
 11
-33.6360015869151
 21
-11.24999999999972
 31
0.0
  0
LINE
  5
7F3B
330
1F
100
AcDbEntity
  8
AM_11
100
AcDbLine
 10
-9.013999938965087
 20
-12.39699935912937
 30
0.0
 11
-9.165000915528082
 21
-12.43000030517436
 31
0.0
  0
LINE
  5
7F3C
330
1F
100
AcDbEntity
  8
AM_0
100
AcDbLine
 10
-9.013999938965095
 20
-11.81999969482335
 30
0.0
 11
-9.165004730225099
 21
-11.84600067138537
 31
0.0
  0
LINE
  5
7F3D
330
1F
100
AcDbEntity
  8
AM_0
100
AcDbLine
 10
-1.02899932861409
 20
-11.52399826049725
 30
0.0
 11
-8.521999359131093
 21
-11.85099792480337
 31
0.0
  0
LINE
  5
7F3E
330
1F
100
AcDbEntity
  8
AM_0
100
AcDbLine
 10
-1.02899932861409
 20
-11.52399826049725
 30
0.0
 11
-0.9850006103521018
 21
-11.52199935912927
 31
0.0
  0
LINE
  5
7F3F
330
1F
100
AcDbEntity
  8
AM_11
100
AcDbLine
 10
-8.799999237061092
 20
-12.02000045776235
 30
0.0
 11
-9.013999938965087
 21
-12.39700317382736
 31
0.0
  0
LINE
  5
7F40
330
1F
100
AcDbEntity
  8
AM_0
100
AcDbLine
 10
-8.546997070313089
 20
-11.85200500488137
 30
0.0
 11
-9.094001770020085
 21
-12.32700347900236
 31
0.0
  0
LINE
  5
7F41
330
1F
100
AcDbEntity
  8
AM_0
100
AcDbLine
 10
-8.547004699708091
 20
-11.85200119018437
 30
0.0
 11
-8.521999359131093
 21
-11.85100173950138
 31
0.0
  0
LINE
  5
7F42
330
1F
100
AcDbEntity
  8
AM_0
100
AcDbLine
 10
-8.765003204346083
 20
-11.60200119018437
 30
0.0
 11
-8.812000274659096
 21
-11.58100128173736
 31
0.0
  0
LINE
  5
7F43
330
1F
100
AcDbEntity
  8
AM_0
100
AcDbLine
 10
-8.933998107911088
 20
-11.77299880981336
 30
0.0
 11
-8.881996154786088
 21
-11.79600143432536
 31
0.0
  0
LINE
  5
7F44
330
1F
100
AcDbEntity
  8
AM_0
100
AcDbLine
 10
-8.881999969483084
 20
-11.79600143432536
 30
0.0
 11
-8.764999389649101
 21
-11.60200119018437
 31
0.0
  0
LINE
  5
7F45
330
1F
100
AcDbEntity
  8
AM_0
100
AcDbLine
 10
-8.518001556397088
 20
-11.81699752807537
 30
0.0
 11
-8.521999359131093
 21
-11.85100173950138
 31
0.0
  0
ARC
  5
7F4B
330
1F
100
AcDbEntity
  8
AM_0
100
AcDbCircle
 10
-128.0
 20
-10.16099929809604
 30
0.0
 40
2.0
100
AcDbArc
 50
180.0000000000008
 51
254.991085275105
  0
LINE
  5
7F4C
330
1F
100
AcDbEntity
  8
AM_0
100
AcDbLine
 10
-127.0000000000004
 20
12.49999999999895
 30
0.0
 11
-127.0
 21
-12.50000000000104
 31
0.0
  0
ARC
  5
7F4D
330
1F
100
AcDbEntity
  8
AM_0
100
AcDbCircle
 10
-128.0000000000004
 20
10.16099929809494
 30
0.0
 40
2.000236988067599
100
AcDbArc
 50
105.0089147248966
 51
180.0000000000008
  0
LINE
  5
7F4E
330
1F
100
AcDbEntity
  8
AM_0
100
AcDbLine
 10
-126.9999961853024
 20
12.50000190734795
 30
0.0
 11
-128.5180053710934
 21
12.09300041198693
 31
0.0
  0
LINE
  5
7F4F
330
1F
100
AcDbEntity
  8
AM_0
100
AcDbLine
 10
-130.0000000000004
 20
10.16099929809491
 30
0.0
 11
-130.0
 21
-10.16099929809607
 31
0.0
  0
LINE
  5
7F50
330
1F
100
AcDbEntity
  8
AM_0
100
AcDbLine
 10
-128.518005371093
 20
-12.09300231933606
 30
0.0
 11
-126.999996185302
 21
-12.50000381469805
 31
0.0
  0
DIMENSION
  5
8092
330
1F
100
AcDbEntity
  8
AM_5
100
AcDbDimension
  2
*D2
 10
-0.0000000000002981
 20
19.50000381469759
 30
0.0
 11
-17.50000000000028
 21
21.05000381469762
 31
0.0
 70
    32
  1
<>
 71
     5
 42
-1.0
 51
359.9999999999998
  3
AM_JIS$0
100
AcDbAlignedDimension
 13
-35.0000000000003
 23
12.36091035588199
 33
0.0
 14
-0.0000000000003111
 24
12.43000030517517
 34
0.0
 50
180.0
100
AcDbRotatedDimension
1001
GENIUS_GENDTOL_13
1000

1000
h7
1000

1040
0.0
1001
ACAD
1000
DSTYLE
1002
{
1070
   287
1070
     3
1070
    40
1040
0.5
1070
    42
1040
1.0
1070
    43
1040
12.0
1070
    48
1040
0.1
1070
    78
1070
     8
1070
   140
1040
3.2
1070
   176
1070
   256
1070
   177
1070
   256
1070
   271
1070
     0
1070
   272
1070
     3
1070
   275
1070
     0
1070
   284
1070
     0
1070
   289
1070
     3
1070
   340
1005
6B
1070
   371
1070
    -1
1070
   372
1070
    -1
1002
}
  0
DIMENSION
  5
8154
330
1F
100
AcDbEntity
  8
AM_5
100
AcDbDimension
  2
*D3
 10
-45.00000000000023
 20
-19.50000190734848
 30
0.0
 11
-22.50000000000024
 21
-17.95000190734848
 31
0.0
 70
    32
  1
<>
 71
     5
 42
-1.0
 51
359.9999999999998
  3
AM_JIS$0
100
AcDbAlignedDimension
 13
-0.0000000000002514
 23
-12.49999999999984
 33
0.0
 14
-45.00000000000023
 24
-11.24999999999991
 34
0.0
 50
0.0000000000004071
100
AcDbRotatedDimension
1001
GENIUS_GENDTOL_13
1000

1000
h7
1000

1040
0.0
1001
ACAD
1000
DSTYLE
1002
{
1070
   287
1070
     3
1070
    40
1040
0.5
1070
    42
1040
1.0
1070
    43
1040
12.0
1070
    48
1040
0.1
1070
    78
1070
     8
1070
   140
1040
3.2
1070
   176
1070
   256
1070
   177
1070
   256
1070
   271
1070
     0
1070
   272
1070
     3
1070
   275
1070
     0
1070
   284
1070
     0
1070
   289
1070
     3
1070
   340
1005
6B
1070
   371
1070
    -1
1070
   372
1070
    -1
1002
}
  0
DIMENSION
  5
820D
330
1F
100
AcDbEntity
  8
AM_5
100
AcDbDimension
  2
*D4
 10
-130.0000000000002
 20
-19.50000190734908
 30
0.0
 11
-87.50000000000023
 21
-17.95000190734908
 31
0.0
 70
    32
  1
<>
 71
     5
 42
-1.0
 51
359.9999999999998
  3
AM_JIS$0
100
AcDbAlignedDimension
 13
-45.00000000000023
 23
-11.24999999999991
 33
0.0
 14
-130.0000000000002
 24
-10.16099929809606
 34
0.0
 50
0.0000000000004071
100
AcDbRotatedDimension
1001
GENIUS_GENDTOL_13
1000

1000
h7
1000

1040
0.0
1001
ACAD
1000
DSTYLE
1002
{
1070
   287
1070
     3
1070
    40
1040
0.5
1070
    42
1040
1.0
1070
    43
1040
12.0
1070
    48
1040
0.1
1070
    78
1070
     8
1070
   140
1040
3.2
1070
   176
1070
   256
1070
   177
1070
   256
1070
   271
1070
     0
1070
   272
1070
     3
1070
   275
1070
     0
1070
   284
1070
     0
1070
   289
1070
     3
1070
   340
1005
6B
1070
   371
1070
    -1
1070
   372
1070
    -1
1002
}
  0
DIMENSION
  5
82B4
330
1F
100
AcDbEntity
  8
AM_5
100
AcDbDimension
  2
*D5
 10
-130.0000000000002
 20
-24.50000190734908
 30
0.0
 11
-65.00000000000024
 21
-22.95000190734908
 31
0.0
 70
    32
  1
<>
 71
     5
 42
-1.0
 51
359.9999999999998
  3
AM_JIS$0
100
AcDbAlignedDimension
 13
-0.0000000000002514
 23
-12.49999999999984
 33
0.0
 14
-130.0000000000002
 24
-10.16099929809606
 34
0.0
 50
0.0000000000004071
100
AcDbRotatedDimension
1001
GENIUS_GENDTOL_13
1000

1000
h7
1000

1040
0.0
1001
ACAD
1000
DSTYLE
1002
{
1070
   287
1070
     3
1070
    40
1040
0.5
1070
    42
1040
1.0
1070
    43
1040
12.0
1070
    48
1040
0.1
1070
    78
1070
     8
1070
   140
1040
3.2
1070
   176
1070
   256
1070
   177
1070
   256
1070
   271
1070
     0
1070
   272
1070
     3
1070
   275
1070
     0
1070
   284
1070
     0
1070
   289
1070
     3
1070
   340
1005
6B
1070
   371
1070
    -1
1070
   372
1070
    -1
1002
}
  0
DIMENSION
  5
834D
330
1F
100
AcDbEntity
  8
AM_5
100
AcDbDimension
  2
*D6
 10
6.999999999999743
 20
-12.49999999999984
 30
0.0
 11
5.449999999999747
 21
0.0000000000001614
 31
0.0
 70
    32
  1
%%c<>
 71
     5
 42
-1.0
 51
359.9999999999998
  3
AM_JIS$0
100
AcDbAlignedDimension
 13
-0.0000000000002993
 23
12.50000000000016
 33
0.0
 14
-0.0000000000002514
 24
-12.49999999999984
 34
0.0
 50
90.0000000000001
100
AcDbRotatedDimension
1001
GENIUS_GENDTOL_13
1000

1000
h7
1000

1040
0.0
1001
ACAD
1000
DSTYLE
1002
{
1070
   287
1070
     3
1070
    40
1040
0.5
1070
    42
1040
1.0
1070
    43
1040
12.0
1070
    48
1040
0.1
1070
    78
1070
     8
1070
   140
1040
3.2
1070
   176
1070
   256
1070
   177
1070
   256
1070
   271
1070
     0
1070
   272
1070
     3
1070
   275
1070
     0
1070
   284
1070
     0
1070
   289
1070
     3
1070
   340
1005
6B
1070
   371
1070
    -1
1070
   372
1070
    -1
1002
}
  0
DIMENSION
  5
83EB
330
1F
100
AcDbEntity
  8
AM_5
100
AcDbDimension
  2
*D7
 10
-137.0000000000002
 20
-12.50000190734906
 30
0.0
 11
-138.5500000000002
 21
0.00000095367392
 31
0.0
 70
    32
  1
%%c<>
 71
     5
 42
-1.0
 51
359.9999999999998
  3
AM_JIS$0
100
AcDbAlignedDimension
 13
-126.9999961853022
 23
12.50000381469694
 33
0.0
 14
-126.9999961853022
 24
-12.50000190734906
 34
0.0
 50
270.0000000000002
100
AcDbRotatedDimension
1001
GENIUS_GENDTOL_13
1000

1000
h7
1000

1040
0.0
1001
ACAD
1000
DSTYLE
1002
{
1070
   287
1070
     3
1070
    40
1040
0.5
1070
    42
1040
1.0
1070
    43
1040
12.0
1070
    48
1040
0.1
1070
    78
1070
     8
1070
   140
1040
3.2
1070
   176
1070
   256
1070
   177
1070
   256
1070
   271
1070
     0
1070
   272
1070
     3
1070
   275
1070
     0
1070
   284
1070
     0
1070
   289
1070
     3
1070
   340
1005
6B
1070
   371
1070
    -1
1070
   372
1070
    -1
1002
}
  0
LINE
  5
85B8
330
1F
100
AcDbEntity
  8
AM_11
100
AcDbLine
 10
-35.00000000000027
 20
-12.4999999999999
 30
0.0
 11
-0.0000000000002487
 21
-12.49999999999984
 31
0.0
  0
LINE
  5
85BC
330
1F
100
AcDbEntity
  8
AM_11
100
AcDbLine
 10
-0.0000000000002984
 20
12.50000000000016
 30
0.0
 11
-35.00000000000027
 21
12.50000000000009
 31
0.0
  0
LINE
  5
85C2
330
1F
100
AcDbEntity
  8
AM_11
100
AcDbLine
 10
-35.00000000000027
 20
12.50000000000009
 30
0.0
 11
-35.00000000000027
 21
-12.4999999999999
 31
0.0
  0
LINE
  5
85C7
330
1F
100
AcDbEntity
  8
AM_11
100
AcDbLine
 10
-0.0000000000002993
 20
12.50000000000016
 30
0.0
 11
-0.0000000000002514
 21
-12.49999999999984
 31
0.0
  0
VIEWPORT
  5
110
102
{ACAD_XDICTIONARY
360
879D
102
}
330
101
100
AcDbEntity
 67
     1
  8
0
100
AcDbViewport
 10
420.5
 20
297.0
 30
0.0
 40
948.9782706766916
 41
628.452
 68
     1
 69
     1
 12
420.5
 22
297.0
 13
0.0
 23
0.0
 14
10.0
 24
10.0
 15
10.0
 25
10.0
 16
0.0
 26
0.0
 36
1.0
 17
0.0
 27
0.0
 37
0.0
 42
50.0
 43
0.0
 44
0.0
 45
628.452
 50
0.0
 51
0.0
 72
   100
 90
    32800
  1

281
     0
 71
     1
 74
     0
110
-0.0000000000002682
120
0.000000000000161
130
0.0
111
1.0
121
0.000000000000002
131
0.0
112
-0.000000000000002
122
1.0
132
0.0
 79
     0
146
0.0
1001
GENIUS_GENSCREG_15
1000
PF
1040
1.0
1000
DF
1040
1.0
1000
MIN
1011
-53.98913533834582
1021
-17.226
1031
0.0
1000
MAX
1011
894.9891353383458
1021
611.226
1031
0.0
1000
FLAGS
1070
     4
1001
GENIUS_GENODEF_13
1002
{
1000
HIER
1070
     0
1002
}
1002
{
1000
MANEDIT
1070
     0
1002
}
1002
{
1000
NOSEL
1070
     0
1002
}
1002
{
1000
BEHIND
1070
     0
1002
}
1002
{
1000
OTHER
1070
     0
1002
}
1002
{
1000
REACTOR
1002
}
1001
GENIUS_GENOBJ-N-SDF_13
1002
{
1000
OWNER
1000
GEN
1002
}
  0
ENDSEC
  0
SECTION
  2
OBJECTS
  0
DICTIONARY
  5
C
330
0
100
AcDbDictionary
281
     1
  3
ACAD_COLOR
350
86D3
  3
ACAD_GROUP
350
D
  3
ACAD_LAYOUT
350
1A
  3
ACAD_MATERIAL
350
86D2
  3
ACAD_MLINESTYLE
350
17
  3
ACAD_PLOTSETTINGS
350
19
  3
ACAD_PLOTSTYLENAME
350
E
  3
ACAD_TABLESTYLE
350
86D4
  3
ACDBHEADERROUNDTRIPXREC
350
879C
  3
ACDBVARIABLEDICTIONARY
350
34
  3
ACMDICTIONARY
350
43
  3
AMG
350
2B
  3
AMGSNAPSETTINGS
350
6E
  3
DWGPROPS
350
879B
  0
DICTIONARY
  5
74
330
1F
100
AcDbDictionary
280
     1
281
     1
  3
ACAD_INDEX
360
8662
  3
ACAD_LAYOUTSELFREF
360
868F
  0
DICTIONARY
  5
8694
330
101
100
AcDbDictionary
280
     1
281
     1
  3
ACAD_LAYOUTSELFREF
360
8695
  0
DICTIONARY
  5
879D
330
110
100
AcDbDictionary
280
     1
281
     1
  3
ACAD_XREC_ROUNDTRIP
360
879E
  0
DICTIONARY
  5
86D3
102
{ACAD_REACTORS
330
C
102
}
330
C
100
AcDbDictionary
281
     1
  0
DICTIONARY
  5
D
102
{ACAD_REACTORS
330
C
102
}
330
C
100
AcDbDictionary
281
     1
  0
DICTIONARY
  5
1A
102
{ACAD_REACTORS
330
C
102
}
330
C
100
AcDbDictionary
281
     1
  3
Model
350
86D6
  3
レイアウト1
350
86D7
  0
DICTIONARY
  5
86D2
102
{ACAD_REACTORS
330
C
102
}
330
C
100
AcDbDictionary
281
     1
  0
DICTIONARY
  5
17
102
{ACAD_REACTORS
330
C
102
}
330
C
100
AcDbDictionary
281
     1
  3
STANDARD
350
18
  0
DICTIONARY
  5
19
102
{ACAD_REACTORS
330
C
102
}
330
C
100
AcDbDictionary
281
     1
  3
ASAMI
350
399D
  0
ACDBDICTIONARYWDFLT
  5
E
102
{ACAD_REACTORS
330
C
102
}
330
C
100
AcDbDictionary
281
     1
  3
Normal
350
F
100
AcDbDictionaryWithDefault
340
F
  0
DICTIONARY
  5
86D4
102
{ACAD_REACTORS
330
C
102
}
330
C
100
AcDbDictionary
281
     1
  3
Standard
350
86D5
  0
DICTIONARY
  5
879C
102
{ACAD_REACTORS
330
C
102
}
330
C
100
AcDbDictionary
281
     1
  0
DICTIONARY
  5
34
102
{ACAD_REACTORS
330
C
102
}
330
C
100
AcDbDictionary
281
     1
  3
CTABLESTYLE
350
8797
  3
DIMASSOC
350
8798
  3
INDEXCTL
350
35
  3
PROJECTNAME
350
8799
  3
SORTENTS
350
B5E
  0
DICTIONARY
  5
43
102
{ACAD_REACTORS
330
C
102
}
330
C
100
AcDbDictionary
281
     1
  3
ACMSTDDICTIONARY
350
260
  0
DICTIONARY
  5
2B
102
{ACAD_REACTORS
330
C
102
}
330
C
100
AcDbDictionary
281
     1
  0
DICTIONARY
  5
6E
102
{ACAD_REACTORS
330
C
102
}
330
C
100
AcDbDictionary
281
     1
  0
XRECORD
  5
879B
102
{ACAD_REACTORS
330
C
102
}
330
C
100
AcDbXrecord
280
     1
  1
DWGPROPS COOKIE
  2

  3

  4

  6

  7

  8

  9

300
AmdtFileType=82
301
=
302
=
303
=
304
=
305
=
306
=
307
=
308
=
309
=
 40
0.8236576041666666
 41
2452802.716478762
 42
2453691.775646516
  1

 90
        1
  0
DICTIONARY
  5
8662
102
{ACAD_REACTORS
330
74
102
}
330
74
100
AcDbDictionary
281
     1
  3
*A1
350
8663
  0
XRECORD
  5
868F
102
{ACAD_REACTORS
330
74
102
}
330
74
100
AcDbXrecord
280
     1
340
1F
  0
XRECORD
  5
8695
102
{ACAD_REACTORS
330
8694
102
}
330
8694
100
AcDbXrecord
280
     1
340
101
  0
XRECORD
  5
879E
102
{ACAD_REACTORS
330
879D
102
}
330
879D
100
AcDbXrecord
280
     1
102
SHADEPLOT
 70
     0
  0
LAYOUT
  5
86D6
102
{ACAD_XDICTIONARY
360
87A1
102
}
102
{ACAD_REACTORS
330
1A
102
}
330
1A
100
AcDbPlotSettings
  1

  2
Canon LBP-1710 LIPS4
  4

  6

 40
0.0
 41
0.0
 42
0.0
 43
0.0
 44
0.0
 45
0.0
 46
0.0
 47
0.0
 48
0.0
 49
0.0
140
0.0
141
0.0
142
1.0
143
1.0
 70
  1712
 72
     0
 73
     0
 74
     0
  7
sei_cad.ctb
 75
     0
147
1.0
148
0.0
149
0.0
100
AcDbLayout
  1
Model
 70
     1
 71
     0
 10
0.0
 20
0.0
 11
12.0
 21
9.0
 12
0.0
 22
0.0
 32
0.0
 14
0.0
 24
0.0
 34
0.0
 15
0.0
 25
0.0
 35
0.0
146
0.0
 13
0.0
 23
0.0
 33
0.0
 16
1.0
 26
0.0
 36
0.0
 17
0.0
 27
1.0
 37
0.0
 76
     0
330
1F
  0
LAYOUT
  5
86D7
102
{ACAD_XDICTIONARY
360
87A3
102
}
102
{ACAD_REACTORS
330
1A
102
}
330
1A
100
AcDbPlotSettings
  1

  2
Canon LBP-1710 LIPS4
  4

  6

 40
0.0
 41
0.0
 42
0.0
 43
0.0
 44
0.0
 45
0.0
 46
0.0
 47
0.0
 48
0.0
 49
0.0
140
0.0
141
0.0
142
1.0
143
1.0
 70
   688
 72
     0
 73
     0
 74
     5
  7
sei_cad.ctb
 75
    16
147
1.0
148
0.0
149
0.0
100
AcDbLayout
  1
レイアウト1
 70
     0
 71
     1
 10
0.0
 20
0.0
 11
841.0
 21
594.0
 12
0.0
 22
0.0
 32
0.0
 14
1.000000000000000E+20
 24
1.000000000000000E+20
 34
1.000000000000000E+20
 15
-1.000000000000000E+20
 25
-1.000000000000000E+20
 35
-1.000000000000000E+20
146
0.0
 13
0.0
 23
0.0
 33
0.0
 16
1.0
 26
0.0
 36
0.0
 17
0.0
 27
1.0
 37
0.0
 76
     0
330
101
331
110
  0
MLINESTYLE
  5
18
102
{ACAD_REACTORS
330
17
102
}
330
17
100
AcDbMlineStyle
  2
STANDARD
 70
     0
  3

 62
   256
 51
90.0
 52
90.0
 71
     2
 49
0.5
 62
   256
  6
BYLAYER
 49
-0.5
 62
   256
  6
BYLAYER
  0
PLOTSETTINGS
  5
399D
102
{ACAD_XDICTIONARY
360
879F
102
}
102
{ACAD_REACTORS
330
19
102
}
330
19
100
AcDbPlotSettings
  1
asami
  2
RICOH imagio MF1540
  4
A4
  6

 40
5.831416606903076
 41
7.651742935180664
 42
4.90008544921875
 43
5.789077758789062
 44
296.9683227539062
 45
209.9733276367186
 46
0.0
 47
0.0
 48
-156.6707931774246
 49
-74.57609991074048
140
58.59973180214831
141
60.61068161925597
142
1.0
143
1.095343097833084
 70
  1712
 72
     1
 73
     1
 74
     4
  7
asami.ctb
 75
     0
147
0.9129559514076438
148
156.6707931774246
149
74.57609991074048
  0
ACDBPLACEHOLDER
  5
F
102
{ACAD_REACTORS
330
E
102
}
330
E
  0
TABLESTYLE
  5
86D5
102
{ACAD_REACTORS
330
86D4
102
}
330
86D4
100
AcDbTableStyle
  3
Standard
 70
     0
 71
     0
 40
1.5
 41
1.5
280
     0
281
     0
  7
STANDARD
140
4.5
170
     2
 62
     0
 63
     7
283
     0
274
    -2
284
     1
 64
     0
275
    -2
285
     1
 65
     0
276
    -2
286
     1
 66
     0
277
    -2
287
     1
 67
     0
278
    -2
288
     1
 68
     0
279
    -2
289
     1
 69
     0
  7
STANDARD
140
6.0
170
     5
 62
     0
 63
     7
283
     0
274
    -2
284
     1
 64
     0
275
    -2
285
     1
 65
     0
276
    -2
286
     1
 66
     0
277
    -2
287
     1
 67
     0
278
    -2
288
     1
 68
     0
279
    -2
289
     1
 69
     0
  7
STANDARD
140
4.5
170
     5
 62
     0
 63
     7
283
     0
274
    -2
284
     1
 64
     0
275
    -2
285
     1
 65
     0
276
    -2
286
     1
 66
     0
277
    -2
287
     1
 67
     0
278
    -2
288
     1
 68
     0
279
    -2
289
     1
 69
     0
  0
DICTIONARYVAR
  5
8797
102
{ACAD_REACTORS
330
34
102
}
330
34
100
DictionaryVariables
280
     0
  1
STANDARD
  0
DICTIONARYVAR
  5
8798
102
{ACAD_REACTORS
330
34
102
}
330
34
100
DictionaryVariables
280
     0
  1
1
  0
DICTIONARYVAR
  5
35
102
{ACAD_REACTORS
330
34
102
}
330
34
100
DictionaryVariables
280
     0
  1
1
  0
DICTIONARYVAR
  5
8799
102
{ACAD_REACTORS
330
34
102
}
330
34
100
DictionaryVariables
280
     0
  1

  0
DICTIONARYVAR
  5
B5E
102
{ACAD_REACTORS
330
34
102
}
330
34
100
DictionaryVariables
280
     0
  1
96
  0
DICTIONARY
  5
260
102
{ACAD_REACTORS
330
43
102
}
330
43
100
AcDbDictionary
281
     1
  0
LAYER_INDEX
  5
8663
102
{ACAD_REACTORS
330
8662
102
}
330
8662
100
AcDbIndex
 40
2453691.775646516
100
AcDbLayerIndex
  8
0
360
8664
 90
        0
  8
AM_0
360
8665
 90
      417
  8
AM_5
360
8666
 90
        6
  8
AM_7
360
8667
 90
        1
  8
AM_6
360
8668
 90
        1
  8
DEFPOINTS
360
8669
 90
        0
  8
AM_11
360
866A
 90
        6
  0
DICTIONARY
  5
87A1
330
86D6
100
AcDbDictionary
280
     1
281
     1
  3
ACAD_XREC_ROUNDTRIP
360
87A2
  0
DICTIONARY
  5
87A3
330
86D7
100
AcDbDictionary
280
     1
281
     1
  3
ACAD_XREC_ROUNDTRIP
360
87A4
  0
DICTIONARY
  5
879F
330
399D
100
AcDbDictionary
280
     1
281
     1
  3
ACAD_XREC_ROUNDTRIP
360
87A0
  0
IDBUFFER
  5
8664
330
0
100
AcDbIdBuffer
  0
IDBUFFER
  5
8665
330
0
100
AcDbIdBuffer
330
7C1A
330
7C1B
330
7C20
330
7C21
330
7C26
330
7C27
330
7C62
330
7C63
330
7C64
330
7C65
330
7C66
330
7C67
330
7C68
330
7C69
330
7C6A
330
7C6B
330
7C6C
330
7C72
330
7C73
330
7C74
330
7C75
330
7C76
330
7C7B
330
7C7C
330
7C7D
330
7C7E
330
7C7F
330
7C80
330
7C81
330
7C82
330
7C83
330
7C84
330
7C85
330
7C86
330
7C87
330
7C88
330
7C89
330
7C8A
330
7C8B
330
7C8C
330
7C8D
330
7C8E
330
7C8F
330
7C90
330
7C91
330
7C92
330
7C93
330
7C94
330
7C95
330
7C96
330
7C97
330
7C98
330
7C99
330
7C9A
330
7C9B
330
7C9C
330
7C9D
330
7C9E
330
7C9F
330
7CA0
330
7CA1
330
7CA2
330
7CA3
330
7CA4
330
7CA5
330
7CA6
330
7CA7
330
7CA8
330
7CA9
330
7CAA
330
7CAB
330
7CAC
330
7CAD
330
7CAE
330
7CAF
330
7CB0
330
7CB1
330
7CB2
330
7CB3
330
7CB4
330
7CB5
330
7CB6
330
7CB7
330
7CB8
330
7CB9
330
7CBA
330
7CE9
330
7CEA
330
7CEB
330
7CEC
330
7CED
330
7CEE
330
7CEF
330
7CF0
330
7CF1
330
7CF2
330
7CF3
330
7CF4
330
7CF5
330
7CF6
330
7CF7
330
7CF8
330
7CF9
330
7CFA
330
7CFB
330
7CFC
330
7CFD
330
7CFE
330
7D04
330
7D06
330
7D07
330
7D08
330
7D09
330
7D0A
330
7D0B
330
7D0C
330
7D0D
330
7D0E
330
7D0F
330
7D10
330
7D11
330
7D12
330
7D13
330
7D14
330
7D15
330
7D21
330
7D22
330
7D23
330
7D24
330
7D2C
330
7D2D
330
7D2E
330
7D2F
330
7D30
330
7D31
330
7D32
330
7D33
330
7D34
330
7D35
330
7D36
330
7D37
330
7D38
330
7D39
330
7D3A
330
7D3B
330
7D3C
330
7D3D
330
7D3E
330
7D3F
330
7D40
330
7D41
330
7D42
330
7D43
330
7D44
330
7D45
330
7D46
330
7D47
330
7D48
330
7D49
330
7D4A
330
7D4B
330
7D4C
330
7D4D
330
7D4E
330
7D4F
330
7D50
330
7D51
330
7D52
330
7D53
330
7D54
330
7D55
330
7D56
330
7D57
330
7D58
330
7D59
330
7D5A
330
7D60
330
7D61
330
7D62
330
7D63
330
7D64
330
7D65
330
7D6E
330
7D6F
330
7D70
330
7E4D
330
7E4E
330
7E4F
330
7E50
330
7E51
330
7E52
330
7E53
330
7E54
330
7E55
330
7E56
330
7E57
330
7E58
330
7E59
330
7E5A
330
7E5B
330
7E5C
330
7E5D
330
7E5E
330
7E5F
330
7E60
330
7E61
330
7E6E
330
7E6F
330
7E70
330
7E71
330
7E72
330
7E73
330
7E74
330
7E75
330
7E76
330
7E77
330
7E78
330
7E79
330
7E7A
330
7E7B
330
7E85
330
7E86
330
7E87
330
7E88
330
7E89
330
7E8A
330
7E8B
330
7E8C
330
7E8D
330
7E8E
330
7E8F
330
7E90
330
7E91
330
7E92
330
7E93
330
7E94
330
7E95
330
7E96
330
7E97
330
7E98
330
7E99
330
7E9A
330
7E9B
330
7E9C
330
7E9D
330
7E9E
330
7E9F
330
7EA0
330
7EA1
330
7EA2
330
7EA3
330
7EA4
330
7EA5
330
7EA6
330
7EA7
330
7EA8
330
7EA9
330
7EAA
330
7EAB
330
7EAC
330
7EAD
330
7EAE
330
7EAF
330
7EB0
330
7EB1
330
7EB2
330
7EB3
330
7EB4
330
7EB5
330
7EB6
330
7EB7
330
7EB8
330
7EB9
330
7EBA
330
7EBB
330
7EBC
330
7EBD
330
7EBE
330
7EBF
330
7EC0
330
7EC1
330
7EC2
330
7EC3
330
7EC4
330
7EC5
330
7EC6
330
7EC7
330
7EC8
330
7EC9
330
7ECA
330
7ECB
330
7ECC
330
7ECD
330
7ECE
330
7ECF
330
7ED0
330
7ED1
330
7ED2
330
7ED3
330
7ED4
330
7ED5
330
7ED6
330
7ED7
330
7ED8
330
7ED9
330
7EDA
330
7EDB
330
7EDC
330
7EDD
330
7EDE
330
7EDF
330
7EE0
330
7EE1
330
7EE2
330
7EE3
330
7EE4
330
7EE5
330
7EE6
330
7EE7
330
7EE8
330
7EE9
330
7EEA
330
7EEB
330
7EEC
330
7EED
330
7EEE
330
7EEF
330
7EF0
330
7EF1
330
7EF2
330
7EF3
330
7EF4
330
7EF5
330
7EF6
330
7EF7
330
7EF8
330
7EF9
330
7EFA
330
7EFB
330
7EFC
330
7EFD
330
7EFE
330
7EFF
330
7F00
330
7F01
330
7F02
330
7F03
330
7F04
330
7F05
330
7F06
330
7F07
330
7F08
330
7F09
330
7F0A
330
7F0B
330
7F0C
330
7F0D
330
7F0E
330
7F0F
330
7F10
330
7F11
330
7F12
330
7F13
330
7F14
330
7F15
330
7F16
330
7F17
330
7F18
330
7F19
330
7F1A
330
7F1B
330
7F1C
330
7F1D
330
7F1E
330
7F1F
330
7F20
330
7F21
330
7F22
330
7F23
330
7F24
330
7F25
330
7F26
330
7F27
330
7F28
330
7F29
330
7F2A
330
7F2B
330
7F2C
330
7F2D
330
7F2E
330
7F2F
330
7F30
330
7F31
330
7F32
330
7F33
330
7F34
330
7F35
330
7F36
330
7F37
330
7F38
330
7F39
330
7F3A
330
7F3C
330
7F3D
330
7F3E
330
7F40
330
7F41
330
7F42
330
7F43
330
7F44
330
7F45
330
7F4B
330
7F4C
330
7F4D
330
7F4E
330
7F4F
330
7F50
  0
IDBUFFER
  5
8666
330
0
100
AcDbIdBuffer
330
8092
330
8154
330
820D
330
82B4
330
834D
330
83EB
  0
IDBUFFER
  5
8667
330
0
100
AcDbIdBuffer
330
7C19
  0
IDBUFFER
  5
8668
330
0
100
AcDbIdBuffer
330
388D
  0
IDBUFFER
  5
8669
330
0
100
AcDbIdBuffer
  0
IDBUFFER
  5
866A
330
0
100
AcDbIdBuffer
330
7F3B
330
7F3F
330
85B8
330
85BC
330
85C2
330
85C7
  0
XRECORD
  5
87A2
102
{ACAD_REACTORS
330
87A1
102
}
330
87A1
100
AcDbXrecord
280
     1
102
SHADEPLOT
 70
     0
102
SHADEPLOTRESLEVEL
 70
     2
102
SHADEPLOTCUSTOMDPI
 70
   300
  0
XRECORD
  5
87A4
102
{ACAD_REACTORS
330
87A3
102
}
330
87A3
100
AcDbXrecord
280
     1
102
SHADEPLOT
 70
     0
102
SHADEPLOTRESLEVEL
 70
     2
102
SHADEPLOTCUSTOMDPI
 70
   300
  0
XRECORD
  5
87A0
102
{ACAD_REACTORS
330
879F
102
}
330
879F
100
AcDbXrecord
280
     1
102
SHADEPLOT
 70
     0
102
SHADEPLOTRESLEVEL
 70
     2
102
SHADEPLOTCUSTOMDPI
 70
   300
  0
ENDSEC
  0
EOF
