  0
SECTION
  2
HEADER
  9
$ACADVER
  1
AC1015
  9
$ACADMAINTVER
 70
    20
  9
$DWGCODEPAGE
  3
ANSI_932
  9
$INSBASE
 10
0.0
 20
0.0
 30
0.0
  9
$EXTMIN
 10
-149.3502290629822
 20
-39.25000000000038
 30
0.0
  9
$EXTMAX
 10
7.500000000000101
 20
25.35000381469687
 30
0.0
  9
$LIMMIN
 10
-162.0442880461497
 20
-64.8199699728234
  9
$LIMMAX
 10
68.54802565275827
 20
37.43796710342798
  9
$ORTHOMODE
 70
     0
  9
$REGENMODE
 70
     1
  9
$FILLMODE
 70
     1
  9
$QTEXTMODE
 70
     0
  9
$MIRRTEXT
 70
     0
  9
$LTSCALE
 40
1.0
  9
$ATTMODE
 70
     1
  9
$TEXTSIZE
 40
2.5
  9
$TRACEWID
 40
1.0
  9
$TEXTSTYLE
  7
STANDARD
  9
$CLAYER
  8
AM_0
  9
$CELTYPE
  6
BYLAYER
  9
$CECOLOR
 62
   256
  9
$CELTSCALE
 40
1.0
  9
$DISPSILH
 70
     0
  9
$DIMSCALE
 40
0.5
  9
$DIMASZ
 40
2.5
  9
$DIMEXO
 40
1.0
  9
$DIMDLI
 40
12.0
  9
$DIMRND
 40
0.0
  9
$DIMDLE
 40
0.0
  9
$DIMEXE
 40
1.0
  9
$DIMTP
 40
0.1
  9
$DIMTM
 40
0.1
  9
$DIMTXT
 40
3.2
  9
$DIMCEN
 40
0.0
  9
$DIMTSZ
 40
0.0
  9
$DIMTOL
 70
     0
  9
$DIMLIM
 70
     0
  9
$DIMTIH
 70
     0
  9
$DIMTOH
 70
     0
  9
$DIMSE1
 70
     0
  9
$DIMSE2
 70
     0
  9
$DIMTAD
 70
     3
  9
$DIMZIN
 70
     8
  9
$DIMBLK
  1
Open30
  9
$DIMASO
 70
     1
  9
$DIMSHO
 70
     1
  9
$DIMPOST
  1

  9
$DIMAPOST
  1
"
  9
$DIMALT
 70
     0
  9
$DIMALTD
 70
     2
  9
$DIMALTF
 40
0.0393701
  9
$DIMLFAC
 40
1.0
  9
$DIMTOFL
 70
     1
  9
$DIMTVP
 40
0.0
  9
$DIMTIX
 70
     0
  9
$DIMSOXD
 70
     0
  9
$DIMSAH
 70
     0
  9
$DIMBLK1
  1

  9
$DIMBLK2
  1

  9
$DIMSTYLE
  2
AM_JIS
  9
$DIMCLRD
 70
   256
  9
$DIMCLRE
 70
   256
  9
$DIMCLRT
 70
     2
  9
$DIMTFAC
 40
0.71
  9
$DIMGAP
 40
1.5
  9
$DIMJUST
 70
     0
  9
$DIMSD1
 70
     0
  9
$DIMSD2
 70
     0
  9
$DIMTOLJ
 70
     0
  9
$DIMTZIN
 70
     0
  9
$DIMALTZ
 70
     0
  9
$DIMALTTZ
 70
     0
  9
$DIMUPT
 70
     0
  9
$DIMDEC
 70
     3
  9
$DIMTDEC
 70
     3
  9
$DIMALTU
 70
     2
  9
$DIMALTTD
 70
     2
  9
$DIMTXSTY
  7
ASAMI
  9
$DIMAUNIT
 70
     0
  9
$DIMADEC
 70
     0
  9
$DIMALTRND
 40
0.0
  9
$DIMAZIN
 70
     2
  9
$DIMDSEP
 70
    46
  9
$DIMATFIT
 70
     3
  9
$DIMFRAC
 70
     0
  9
$DIMLDRBLK
  1
Open30
  9
$DIMLUNIT
 70
     2
  9
$DIMLWD
 70
    -1
  9
$DIMLWE
 70
    -1
  9
$DIMTMOVE
 70
     0
  9
$LUNITS
 70
     2
  9
$LUPREC
 70
     2
  9
$SKETCHINC
 40
1.0
  9
$FILLETRAD
 40
0.4
  9
$AUNITS
 70
     0
  9
$AUPREC
 70
     0
  9
$MENU
  1
.
  9
$ELEVATION
 40
0.0
  9
$PELEVATION
 40
0.0
  9
$THICKNESS
 40
0.0
  9
$LIMCHECK
 70
     1
  9
$CHAMFERA
 40
1.0
  9
$CHAMFERB
 40
1.0
  9
$CHAMFERC
 40
20.0
  9
$CHAMFERD
 40
0.0
  9
$SKPOLY
 70
     0
  9
$TDCREATE
 40
2452802.716478762
  9
$TDUCREATE
 40
2452802.341478762
  9
$TDUPDATE
 40
2453691.775370903
  9
$TDUUPDATE
 40
2453691.400370903
  9
$TDINDWG
 40
0.8281439352
  9
$TDUSRTIMER
 40
0.8281437500
  9
$USRTIMER
 70
     1
  9
$ANGBASE
 50
0.0
  9
$ANGDIR
 70
     0
  9
$PDMODE
 70
     0
  9
$PDSIZE
 40
0.0
  9
$PLINEWID
 40
0.0
  9
$SPLFRAME
 70
     0
  9
$SPLINETYPE
 70
     6
  9
$SPLINESEGS
 70
     8
  9
$HANDSEED
  5
958E
  9
$SURFTAB1
 70
     6
  9
$SURFTAB2
 70
     6
  9
$SURFTYPE
 70
     6
  9
$SURFU
 70
     6
  9
$SURFV
 70
     6
  9
$UCSBASE
  2

  9
$UCSNAME
  2

  9
$UCSORG
 10
-0.0000000000002682
 20
0.000000000000161
 30
0.0
  9
$UCSXDIR
 10
1.0
 20
0.000000000000002
 30
0.0
  9
$UCSYDIR
 10
-0.000000000000002
 20
1.0
 30
0.0
  9
$UCSORTHOREF
  2

  9
$UCSORTHOVIEW
 70
     0
  9
$UCSORGTOP
 10
0.0
 20
0.0
 30
0.0
  9
$UCSORGBOTTOM
 10
0.0
 20
0.0
 30
0.0
  9
$UCSORGLEFT
 10
0.0
 20
0.0
 30
0.0
  9
$UCSORGRIGHT
 10
0.0
 20
0.0
 30
0.0
  9
$UCSORGFRONT
 10
0.0
 20
0.0
 30
0.0
  9
$UCSORGBACK
 10
0.0
 20
0.0
 30
0.0
  9
$PUCSBASE
  2

  9
$PUCSNAME
  2

  9
$PUCSORG
 10
0.0
 20
0.0
 30
0.0
  9
$PUCSXDIR
 10
1.0
 20
0.0
 30
0.0
  9
$PUCSYDIR
 10
0.0
 20
1.0
 30
0.0
  9
$PUCSORTHOREF
  2

  9
$PUCSORTHOVIEW
 70
     0
  9
$PUCSORGTOP
 10
0.0
 20
0.0
 30
0.0
  9
$PUCSORGBOTTOM
 10
0.0
 20
0.0
 30
0.0
  9
$PUCSORGLEFT
 10
0.0
 20
0.0
 30
0.0
  9
$PUCSORGRIGHT
 10
0.0
 20
0.0
 30
0.0
  9
$PUCSORGFRONT
 10
0.0
 20
0.0
 30
0.0
  9
$PUCSORGBACK
 10
0.0
 20
0.0
 30
0.0
  9
$USERI1
 70
     0
  9
$USERI2
 70
     0
  9
$USERI3
 70
     0
  9
$USERI4
 70
     0
  9
$USERI5
 70
     0
  9
$USERR1
 40
0.0
  9
$USERR2
 40
0.0
  9
$USERR3
 40
0.0
  9
$USERR4
 40
0.0
  9
$USERR5
 40
0.0
  9
$WORLDVIEW
 70
     1
  9
$SHADEDGE
 70
     3
  9
$SHADEDIF
 70
    70
  9
$TILEMODE
 70
     1
  9
$MAXACTVP
 70
    64
  9
$PINSBASE
 10
0.0
 20
0.0
 30
0.0
  9
$PLIMCHECK
 70
     0
  9
$PEXTMIN
 10
1.000000000000000E+20
 20
1.000000000000000E+20
 30
1.000000000000000E+20
  9
$PEXTMAX
 10
-1.000000000000000E+20
 20
-1.000000000000000E+20
 30
-1.000000000000000E+20
  9
$PLIMMIN
 10
0.0
 20
0.0
  9
$PLIMMAX
 10
841.0
 20
594.0
  9
$UNITMODE
 70
     0
  9
$VISRETAIN
 70
     1
  9
$PLINEGEN
 70
     0
  9
$PSLTSCALE
 70
     0
  9
$TREEDEPTH
 70
  3020
  9
$CMLSTYLE
  2
STANDARD
  9
$CMLJUST
 70
     0
  9
$CMLSCALE
 40
20.0
  9
$PROXYGRAPHICS
 70
     1
  9
$MEASUREMENT
 70
     1
  9
$CELWEIGHT
370
    -1
  9
$ENDCAPS
280
     0
  9
$JOINSTYLE
280
     0
  9
$LWDISPLAY
290
     0
  9
$INSUNITS
 70
     4
  9
$HYPERLINKBASE
  1

  9
$STYLESHEET
  1
ASAMI.ctb
  9
$XEDIT
290
     1
  9
$CEPSNTYPE
380
     0
  9
$PSTYLEMODE
290
     1
  9
$FINGERPRINTGUID
  2
{AFB28963-8C59-40AE-9337-C84526B81ACE}
  9
$VERSIONGUID
  2
{79E328F4-4A40-42B9-8278-E308F7F70E79}
  9
$EXTNAMES
290
     1
  9
$PSVPSCALE
 40
0.0
  9
$OLESTARTUP
290
     0
  0
ENDSEC
  0
SECTION
  2
CLASSES
  0
CLASS
  1
ACDBDICTIONARYWDFLT
  2
AcDbDictionaryWithDefault
  3
ObjectDBX Classes
 90
        0
280
     0
281
     0
  0
CLASS
  1
ACDBPLACEHOLDER
  2
AcDbPlaceHolder
  3
ObjectDBX Classes
 90
        0
280
     0
281
     0
  0
CLASS
  1
LAYOUT
  2
AcDbLayout
  3
ObjectDBX Classes
 90
        0
280
     0
281
     0
  0
CLASS
  1
AMGSETTINGSOBJ
  2
AmgSettingsObj
  3
"AcadM|Product Description: AutoCAD Mechanical 2000|Company: Autodesk"
 90
        0
280
     0
281
     0
  0
CLASS
  1
ACME_DOCUMENT
  2
AcMeDbDoc
  3
AcMeServices
 90
        0
280
     0
281
     0
  0
CLASS
  1
ACMESCOPE
  2
AcMeScope
  3
AcMeServices
 90
        0
280
     0
281
     0
  0
CLASS
  1
ACMECOMMANDHISTORY
  2
AcMeCommandHistory
  3
AcMeServices
 90
        0
280
     0
281
     0
  0
CLASS
  1
DICTIONARYVAR
  2
AcDbDictionaryVar
  3
ObjectDBX Classes
 90
        0
280
     0
281
     0
  0
CLASS
  1
ACIMSYSVARMAN
  2
AcImSysVarManager
  3
AcMeServices
 90
        0
280
     0
281
     0
  0
CLASS
  1
ACIMREALSYSVAR
  2
AcImRealSysVar
  3
AcMeServices
 90
        0
280
     0
281
     0
  0
CLASS
  1
ACIMINTSYSVAR
  2
AcImIntSysVar
  3
AcMeServices
 90
        0
280
     0
281
     0
  0
CLASS
  1
ACMEDRAWINGMAN
  2
AcMeDrawingMan
  3
AcMeServices
 90
        0
280
     0
281
     0
  0
CLASS
  1
ACMEVIEW
  2
AcMeView
  3
AcMeServices
 90
        0
280
     0
281
     0
  0
CLASS
  1
ACDBENTITYCACHE
  2
AcMeEntityCache
  3
AcMeServices
 90
        0
280
     0
281
     0
  0
CLASS
  1
GSMANAGER
  2
AcMeGSManager
  3
AcMeServices
 90
        0
280
     0
281
     0
  0
CLASS
  1
AMDTINTERNALREACTOR
  2
AmdtInternalReactor
  3
AcMeServices
 90
        0
280
     0
281
     0
  0
CLASS
  1
ACMESTATEMGR
  2
AcMeStateMgr
  3
AcMeServices
 90
        0
280
     0
281
     0
  0
CLASS
  1
ACME_DATABASE
  2
AcMeDbDatabase
  3
AcMeServices
 90
        0
280
     0
281
     0
  0
CLASS
  1
ACRFINSADJUSTERMGR
  2
AcRfInsAdjusterMgr
  3
AcMeServices
 90
        0
280
     0
281
     0
  0
CLASS
  1
ACMDATADICTIONARY
  2
AcmDataDictionary
  3
"AcmSymBB|Product Description: AutoCAD Mechanical 2004 DX|Company: Autodesk"
 90
        0
280
     0
281
     0
  0
CLASS
  1
ACMDATAENTRYBLOCK
  2
AcmDataEntryBlock
  3
"AcmSymBB|Product Description: AutoCAD Mechanical 2004 DX|Company: Autodesk"
 90
    32768
280
     0
281
     0
  0
CLASS
  1
AMGOBJPROPCFG
  2
AmgObjPropCfg
  3
"AmgLay|Product Description: AutoCAD Mechanical 2000|Company: Autodesk"
 90
        1
280
     0
281
     0
  0
CLASS
  1
ACAMGFILTERDAT
  2
AcAmgFilterDat
  3
"AcadM|Product Description: AutoCAD Mechanical 2000|Company: Autodesk"
 90
    32768
280
     0
281
     0
  0
CLASS
  1
LAYER_INDEX
  2
AcDbLayerIndex
  3
ObjectDBX Classes
 90
        0
280
     0
281
     0
  0
CLASS
  1
IDBUFFER
  2
AcDbIdBuffer
  3
ObjectDBX Classes
 90
        0
280
     0
281
     0
  0
CLASS
  1
ACIMSTRSYSVAR
  2
AcImStrSysVar
  3
AcMeServices
 90
        0
280
     0
281
     0
  0
CLASS
  1
ACMSTANDARDJIS
  2
AcmStandardJIS
  3
"Amdt_StdImp|Product Description: AutoCAD Mechanical 2004 DX|Company: Autodesk"
 90
        0
280
     0
281
     0
  0
CLASS
  1
ACMSURFSTANDARDJIS
  2
AcmSurfTextStdJIS
  3
"Amdt_StdImp|Product Description: AutoCAD Mechanical 2004 DX|Company: Autodesk"
 90
        0
280
     0
281
     0
  0
CLASS
  1
ACMFCFSTANDARDJIS
  2
AcmFCFStdJIS
  3
"Amdt_StdImp|Product Description: AutoCAD Mechanical 2004 DX|Company: Autodesk"
 90
    32768
280
     0
281
     0
  0
CLASS
  1
ACMWELDSTANDARDJIS
  2
AcmWeldingStdJIS
  3
"Amdt_StdImp|Product Description: AutoCAD Mechanical 2004 DX|Company: Autodesk"
 90
        0
280
     0
281
     0
  0
CLASS
  1
ACMIDSTANDARDJIS
  2
AcmIdStdJIS
  3
"Amdt_StdImp|Product Description: AutoCAD Mechanical 2004 DX|Company: Autodesk"
 90
        0
280
     0
281
     0
  0
CLASS
  1
ACMDATUMSTANDARDJIS
  2
AcmDatumStdJIS
  3
"Amdt_StdImp|Product Description: AutoCAD Mechanical 2004 DX|Company: Autodesk"
 90
        0
280
     0
281
     0
  0
CLASS
  1
ACMBOMSTANDARDJIS
  2
AcmBOMStdJIS
  3
"Amdt_StdImp|Product Description: AutoCAD Mechanical 2004 DX|Company: Autodesk"
 90
        0
280
     0
281
     0
  0
CLASS
  1
ACMSTANDARDANSI
  2
AcmStandardANSI
  3
"Amdt_StdImp|Product Description: AutoCAD Mechanical 2004 DX|Company: Autodesk"
 90
    32768
280
     0
281
     0
  0
CLASS
  1
ACMSURFSTANDARDANSI
  2
AcmSurfTextStdANSI
  3
"Amdt_StdImp|Product Description: AutoCAD Mechanical 2004 DX|Company: Autodesk"
 90
    32768
280
     0
281
     0
  0
CLASS
  1
ACMFCFSTANDARDANSI
  2
AcmFCFStdANSI
  3
"Amdt_StdImp|Product Description: AutoCAD Mechanical 2004 DX|Company: Autodesk"
 90
    32768
280
     0
281
     0
  0
CLASS
  1
ACMWELDSTANDARDANSI
  2
AcmWeldingStdANSI
  3
"Amdt_StdImp|Product Description: AutoCAD Mechanical 2004 DX|Company: Autodesk"
 90
    32768
280
     0
281
     0
  0
CLASS
  1
ACMIDSTANDARDANSI
  2
AcmIdStdANSI
  3
"Amdt_StdImp|Product Description: AutoCAD Mechanical 2004 DX|Company: Autodesk"
 90
    32768
280
     0
281
     0
  0
CLASS
  1
ACMDATUMSTANDARDANSI
  2
AcmDatumStdANSI
  3
"Amdt_StdImp|Product Description: AutoCAD Mechanical 2004 DX|Company: Autodesk"
 90
    32768
280
     0
281
     0
  0
CLASS
  1
ACMBOMSTANDARDANSI
  2
AcmBOMStdANSI
  3
"Amdt_StdImp|Product Description: AutoCAD Mechanical 2004 DX|Company: Autodesk"
 90
    32768
280
     0
281
     0
  0
CLASS
  1
ACMSTANDARDBSI
  2
AcmStandardBSI
  3
"Amdt_StdImp|Product Description: AutoCAD Mechanical 2004 DX|Company: Autodesk"
 90
    32768
280
     0
281
     0
  0
CLASS
  1
ACMSURFSTANDARDBSI
  2
AcmSurfTextStdBSI
  3
"Amdt_StdImp|Product Description: AutoCAD Mechanical 2004 DX|Company: Autodesk"
 90
    32768
280
     0
281
     0
  0
CLASS
  1
ACMFCFSTANDARDBSI
  2
AcmFCFStdBSI
  3
"Amdt_StdImp|Product Description: AutoCAD Mechanical 2004 DX|Company: Autodesk"
 90
    32768
280
     0
281
     0
  0
CLASS
  1
ACMWELDSTANDARDBSI
  2
AcmWeldingStdBSI
  3
"Amdt_StdImp|Product Description: AutoCAD Mechanical 2004 DX|Company: Autodesk"
 90
    32768
280
     0
281
     0
  0
CLASS
  1
ACMIDSTANDARDBSI
  2
AcmIdStdBSI
  3
"Amdt_StdImp|Product Description: AutoCAD Mechanical 2004 DX|Company: Autodesk"
 90
    32768
280
     0
281
     0
  0
CLASS
  1
ACMDATUMSTANDARDBSI
  2
AcmDatumStdBSI
  3
"Amdt_StdImp|Product Description: AutoCAD Mechanical 2004 DX|Company: Autodesk"
 90
    32768
280
     0
281
     0
  0
CLASS
  1
ACMBOMSTANDARDBSI
  2
AcmBOMStdBSI
  3
"Amdt_StdImp|Product Description: AutoCAD Mechanical 2004 DX|Company: Autodesk"
 90
    32768
280
     0
281
     0
  0
CLASS
  1
STDPART2D
  2
AmgStdPart
  3
"AmgStdPart|Product Description: AutoCAD Mechanical 2000|Company: Autodesk"
 90
    33791
280
     0
281
     1
  0
CLASS
  1
PLOTSETTINGS
  2
AcDbPlotSettings
  3
ObjectDBX Classes
 90
        0
280
     0
281
     0
  0
CLASS
  1
TABLESTYLE
  2
AcDbTableStyle
  3
ObjectDBX Classes
 90
     2047
280
     0
281
     0
  0
CLASS
  1
ACGREFMASTER
  2
AcGrefMaster
  3
AcAttribServices
 90
        0
280
     0
281
     0
  0
CLASS
  1
AM_DRAWING_MGR
  2
AcDmDwgMgr
  3
AcMechDwgViewMgmt
 90
        0
280
     0
281
     0
  0
CLASS
  1
AM_DWG_DOCUMENT
  2
AcDmDwgDocument
  3
AcMechDwgViewMgmt
 90
        0
280
     0
281
     0
  0
CLASS
  1
AM_DWG_SHEET
  2
AcDmSheet
  3
AcMechDwgViewMgmt
 90
        0
280
     0
281
     0
  0
CLASS
  1
AM_VIEWDIMPARMAP
  2
AcDmViewDimParMap
  3
AcMechDwgViewMgmt
 90
        0
280
     0
281
     0
  0
CLASS
  1
AM_DWGMGR_NAME
  2
AcDmDwgMgrName
  3
AcMechDwgViewMgmt
 90
        0
280
     0
281
     0
  0
CLASS
  1
ACGREFACADMASTER
  2
AcGrefacadMaster
  3
AcGrefServices
 90
        0
280
     0
281
     0
  0
CLASS
  1
AMDTMENUSTATEMGR
  2
AmdtMenuStateMgr
  3
McadcomServices
 90
        0
280
     0
281
     0
  0
CLASS
  1
AMDTMCOMMENUSTATE
  2
AmdtMcomMenuState
  3
McadcomServices
 90
        0
280
     0
281
     0
  0
CLASS
  1
AMIMASTER
  2
AmiMaster
  3
AmiServices
 90
        0
280
     0
281
     0
  0
CLASS
  1
MAPIAMMOUDLE
  2
MApiAmModule
  3
MApiAmServices
 90
        0
280
     0
281
     0
  0
CLASS
  1
AMDTADMENUSTATE
  2
AmdtAdMenuState
  3
DesignerServices
 90
        0
280
     0
281
     0
  0
CLASS
  1
ADAPPL
  2
AcAdAppl
  3
DesignerServices
 90
        0
280
     0
281
     0
  0
CLASS
  1
DEPMGR
  2
AcAdDepMgr
  3
DesignerServices
 90
        0
280
     0
281
     0
  0
CLASS
  1
PARAMMGR
  2
AcAdParamMgr
  3
DesignerServices
 90
        0
280
     0
281
     0
  0
CLASS
  1
PARAMSCOPE
  2
AcAdParamScope
  3
DesignerServices
 90
        0
280
     0
281
     0
  0
CLASS
  1
NAMEDAPPL
  2
AcAdNamedAppl
  3
DesignerServices
 90
        0
280
     0
281
     0
  0
CLASS
  1
AMDTDMMENUSTATE
  2
AmdtDmMenuState
  3
AcMechDwgViewMgmt
 90
        0
280
     0
281
     0
  0
CLASS
  1
AMDTAMMENUSTATE
  2
AmdtAmMenuState
  3
DesignerAssemblies
 90
        0
280
     0
281
     0
  0
CLASS
  1
ACAMPROJECT
  2
AcAmProject
  3
DesignerAssemblies
 90
        0
280
     0
281
     0
  0
CLASS
  1
ACAMGRCOMPDEF
  2
AcAmGrCompDef
  3
DesignerAssemblies
 90
        0
280
     0
281
     0
  0
CLASS
  1
ACCMCONTEXT
  2
AcCmContext
  3
DesignerAssemblies
 90
        0
280
     0
281
     0
  0
CLASS
  1
ACAMCOMPDEF
  2
AcAmCompDef
  3
DesignerAssemblies
 90
        0
280
     0
281
     0
  0
CLASS
  1
ACAMCOMPDEFMGR
  2
AcAmCompDefMgr
  3
DesignerAssemblies
 90
        0
280
     0
281
     0
  0
CLASS
  1
AMCONTEXTMGR
  2
AcAmContextMgr
  3
DesignerAssemblies
 90
        0
280
     0
281
     0
  0
CLASS
  1
ACAMCONTEXTMODELER
  2
AcAmContextModeler
  3
DesignerAssemblies
 90
        0
280
     0
281
     0
  0
CLASS
  1
CATALOGSTATE
  2
AcAmCatalogState
  3
DesignerAssemblies
 90
        0
280
     0
281
     0
  0
CLASS
  1
ACAMGRCOMPDEFSET
  2
AcAmGrCompDefSet
  3
DesignerAssemblies
 90
        0
280
     0
281
     0
  0
CLASS
  1
AMDTBROWSERDBTAB
  2
AmdtBrowserDbTab
  3
McadcomServices
 90
        0
280
     0
281
     0
  0
CLASS
  1
CBROWSERAPPOBJECT
  2
CBrowserAppObject
  3
McadcomServices
 90
        0
280
     0
281
     0
  0
CLASS
  1
DM_PLACEHOLDER
  2
AcDmSelsetPlaceholder
  3
AcMechDwgViewMgmt
 90
        0
280
     0
281
     0
  0
CLASS
  1
ACMSTANDARDISO
  2
AcmStandardISO
  3
"Amdt_StdImp|Product Description: AutoCAD Mechanical 2004 DX|Company: Autodesk"
 90
        0
280
     0
281
     0
  0
CLASS
  1
AMDTEDGESTANDARDISO
  2
AmdtEdgeStdISO
  3
"Amdt_StdImp|Product Description: AutoCAD Mechanical 2004 DX|Company: Autodesk"
 90
        0
280
     0
281
     0
  0
CLASS
  1
ACMSURFSTANDARDISO
  2
AcmSurfTextStdISO
  3
"Amdt_StdImp|Product Description: AutoCAD Mechanical 2004 DX|Company: Autodesk"
 90
        0
280
     0
281
     0
  0
CLASS
  1
ACMFCFSTANDARDISO
  2
AcmFCFStdISO
  3
"Amdt_StdImp|Product Description: AutoCAD Mechanical 2004 DX|Company: Autodesk"
 90
        0
280
     0
281
     0
  0
CLASS
  1
ACMWELDSTANDARDISO
  2
AcmWeldingStdISO
  3
"Amdt_StdImp|Product Description: AutoCAD Mechanical 2004 DX|Company: Autodesk"
 90
        0
280
     0
281
     0
  0
CLASS
  1
ACMIDSTANDARDISO
  2
AcmIdStdISO
  3
"Amdt_StdImp|Product Description: AutoCAD Mechanical 2004 DX|Company: Autodesk"
 90
        0
280
     0
281
     0
  0
CLASS
  1
ACMDATUMSTANDARDISO
  2
AcmDatumStdISO
  3
"Amdt_StdImp|Product Description: AutoCAD Mechanical 2004 DX|Company: Autodesk"
 90
        0
280
     0
281
     0
  0
CLASS
  1
ACMBOMSTANDARDISO
  2
AcmBOMStdISO
  3
"Amdt_StdImp|Product Description: AutoCAD Mechanical 2004 DX|Company: Autodesk"
 90
        0
280
     0
281
     0
  0
CLASS
  1
ACMDETAILSTANDARDISO
  2
AmdtDetailSymStdISO
  3
"Amdt_StdImp|Product Description: AutoCAD Mechanical 2004 DX|Company: Autodesk"
 90
        0
280
     0
281
     0
  0
CLASS
  1
ACMSECTIONSTANDARDISO
  2
AmdtSectionSymStdISO
  3
"Amdt_StdImp|Product Description: AutoCAD Mechanical 2004 DX|Company: Autodesk"
 90
        0
280
     0
281
     0
  0
CLASS
  1
ACMCENTERLINESTANDARDISO
  2
AmdtCenterLineStdISO
  3
"Amdt_StdImp|Product Description: AutoCAD Mechanical 2004 DX|Company: Autodesk"
 90
        0
280
     0
281
     0
  0
CLASS
  1
ACMNOTESTANDARDISO
  2
AmdtNoteStdISO
  3
"Amdt_StdImp|Product Description: AutoCAD Mechanical 2004 DX|Company: Autodesk"
 90
        0
280
     0
281
     0
  0
CLASS
  1
AMDTNOTETEMPLATEDB
  2
AmdtNoteTemplateDB
  3
AMDT_STDIMP_MODULE_NAME
 90
        0
280
     0
281
     0
  0
CLASS
  1
ACAMGLAYSTD
  2
AcAmgLayStd
  3
"AcAmgLayStd|Product Description: AutoCAD Mechanical 2000|Company: Autodesk"
 90
        0
280
     0
281
     0
  0
CLASS
  1
ACAMGDIMSTD
  2
AcAmgDimStd
  3
"AcAmgDimStd|Product Description: AutoCAD Mechanical 2000|Company: Autodesk"
 90
        0
280
     0
281
     0
  0
CLASS
  1
ACAMGHOLECHARTSTDISO
  2
AcAmgHoleChartStdISO
  3
ACMSYMBB_MODULE_NAME
 90
        0
280
     0
281
     0
  0
CLASS
  1
ACAMGTITLESTD
  2
AcAmgTitleStd
  3
"TITLEAPP"
 90
        0
280
     0
281
     0
  0
CLASS
  1
ACMTHREADLINESTANDARDISO
  2
AmdtThreadLineStdISO
  3
"Amdt_StdImp|Product Description: AutoCAD Mechanical 2004 DX|Company: Autodesk"
 90
        0
280
     0
281
     0
  0
CLASS
  1
ACMFCFSTANDARDJIS98
  2
AcmFCFStdJIS98
  3
"Amdt_StdImp|Product Description: AutoCAD Mechanical 2004 DX|Company: Autodesk"
 90
        0
280
     0
281
     0
  0
CLASS
  1
ACMDETAILSTANDARDJIS
  2
AmdtDetailSymStdJIS
  3
"Amdt_StdImp|Product Description: AutoCAD Mechanical 2004 DX|Company: Autodesk"
 90
        0
280
     0
281
     0
  0
CLASS
  1
ACMSECTIONSTANDARDJIS
  2
AmdtSectionSymStdJIS
  3
"Amdt_StdImp|Product Description: AutoCAD Mechanical 2004 DX|Company: Autodesk"
 90
        0
280
     0
281
     0
  0
CLASS
  1
ACMCENTERLINESTANDARDJIS
  2
AmdtCenterLineStdJIS
  3
"Amdt_StdImp|Product Description: AutoCAD Mechanical 2004 DX|Company: Autodesk"
 90
        0
280
     0
281
     0
  0
CLASS
  1
ACMTHREADLINESTANDARDJIS
  2
AmdtThreadLineStdJIS
  3
"Amdt_StdImp|Product Description: AutoCAD Mechanical 2004 DX|Company: Autodesk"
 90
        0
280
     0
281
     0
  0
CLASS
  1
ACMNOTESTANDARDJIS
  2
AmdtNoteStdJIS
  3
"Amdt_StdImp|Product Description: AutoCAD Mechanical 2004 DX|Company: Autodesk"
 90
        0
280
     0
281
     0
  0
CLASS
  1
ACAMGHOLECHARTSTDJIS
  2
AcAmgHoleChartStdJIS
  3
ACMSYMBB_MODULE_NAME
 90
        0
280
     0
281
     0
  0
ENDSEC
  0
SECTION
  2
TABLES
  0
TABLE
  2
VPORT
  5
8
330
0
100
AcDbSymbolTable
 70
     3
  0
VPORT
  5
9583
330
8
100
AcDbSymbolTableRecord
100
AcDbViewportTableRecord
  2
*Active
 70
     0
 10
0.0
 20
0.0
 11
1.0
 21
1.0
 12
-70.72280770238416
 22
-3.183034482206167
 13
0.0
 23
0.0
 14
2.5
 24
2.5
 15
10.0
 25
10.0
 16
0.0
 26
0.0
 36
1.0
 17
0.0
 27
0.0
 37
0.0
 40
116.7337573001009
 41
1.552631578947368
 42
50.0
 43
0.0
 44
0.0
 50
0.0
 51
0.0
 71
     0
 72
   100
 73
     1
 74
     3
 75
     0
 76
     0
 77
     0
 78
     0
281
     0
 65
     1
110
-0.0000000000002682
120
0.000000000000161
130
0.0
111
1.0
121
0.000000000000002
131
0.0
112
-0.000000000000002
122
1.0
132
0.0
 79
     0
146
0.0
  0
ENDTAB
  0
TABLE
  2
LTYPE
  5
5
330
0
100
AcDbSymbolTable
 70
    17
  0
LTYPE
  5
14
330
5
100
AcDbSymbolTableRecord
100
AcDbLinetypeTableRecord
  2
BYBLOCK
 70
     0
  3

 72
    65
 73
     0
 40
0.0
  0
LTYPE
  5
15
330
5
100
AcDbSymbolTableRecord
100
AcDbLinetypeTableRecord
  2
BYLAYER
 70
     0
  3

 72
    65
 73
     0
 40
0.0
  0
LTYPE
  5
16
330
5
100
AcDbSymbolTableRecord
100
AcDbLinetypeTableRecord
  2
CONTINUOUS
 70
     0
  3
Solid line
 72
    65
 73
     0
 40
0.0
  0
LTYPE
  5
4B
330
5
100
AcDbSymbolTableRecord
100
AcDbLinetypeTableRecord
  2
AM_ISO02W050
 70
     0
  3
__ __ __ __ __ __ __ __ __ __ __ __ __ __ __
 72
    65
 73
     2
 40
7.5
 49
6.0
 74
     0
 49
-1.5
 74
     0
  0
LTYPE
  5
4C
330
5
100
AcDbSymbolTableRecord
100
AcDbLinetypeTableRecord
  2
AM_ISO08W050
 70
     0
  3
____ . ____ . ____ . ____ . ____ . ____ . ____
 72
    65
 73
     4
 40
18.0
 49
12.0
 74
     0
 49
-1.5
 74
     0
 49
3.0
 74
     0
 49
-1.5
 74
     0
  0
LTYPE
  5
4D
330
5
100
AcDbSymbolTableRecord
100
AcDbLinetypeTableRecord
  2
AM_ISO09W050
 70
     0
  3
_____ . . _____ . . _____ . . ____ .. ____
 72
    65
 73
     6
 40
22.5
 49
12.0
 74
     0
 49
-1.5
 74
     0
 49
3.0
 74
     0
 49
-1.5
 74
     0
 49
3.0
 74
     0
 49
-1.5
 74
     0
  0
LTYPE
  5
4E
330
5
100
AcDbSymbolTableRecord
100
AcDbLinetypeTableRecord
  2
Amconstr
 70
     0
  3
_______________________
 72
    65
 73
     2
 40
9999.0
 49
9999.0
 74
     0
 49
0.0
 74
     0
  0
LTYPE
  5
4F
330
5
100
AcDbSymbolTableRecord
100
AcDbLinetypeTableRecord
  2
AM_ISO02W050x2
 70
     0
  3
 _ _ _ _ _ _ _ _ _ _ _ _
 72
    65
 73
     2
 40
3.75
 49
3.0
 74
     0
 49
-0.75
 74
     0
  0
LTYPE
  5
50
330
5
100
AcDbSymbolTableRecord
100
AcDbLinetypeTableRecord
  2
AM_ISO08W050x2
 70
     0
  3
__ . __ . __ . __ . __ . __
 72
    65
 73
     4
 40
9.0
 49
6.0
 74
     0
 49
-0.75
 74
     0
 49
1.5
 74
     0
 49
-0.75
 74
     0
  0
LTYPE
  5
53
330
5
100
AcDbSymbolTableRecord
100
AcDbLinetypeTableRecord
  2
Amzigzag
 70
     0
  3
/\/-/\/-/\/-/\/-/\/-/\/
 72
    65
 73
     2
 40
11.0001
 49
0.0001
 74
     4
 75
   135
340
52
 46
0.04
 50
0.0
 44
0.0
 45
0.0
 49
-11.0
 74
     0
  0
LTYPE
  5
166
330
5
100
AcDbSymbolTableRecord
100
AcDbLinetypeTableRecord
  2
ACJISTGL
 70
     0
  3
_ _ _ _ _
 72
    65
 73
     2
 40
3.0
 49
2.0
 74
     0
 49
-1.0
 74
     0
  0
LTYPE
  5
26A
330
5
100
AcDbSymbolTableRecord
100
AcDbLinetypeTableRecord
  2
ACJISTGB
 70
     0
  3
__ . . __ . .
 72
    65
 73
     6
 40
9.0
 49
4.0
 74
     0
 49
-1.0
 74
     0
 49
1.0
 74
     0
 49
-1.0
 74
     0
 49
1.0
 74
     0
 49
-1.0
 74
     0
  0
LTYPE
  5
94FB
330
5
100
AcDbSymbolTableRecord
100
AcDbLinetypeTableRecord
  2
HIDDEN
 70
     0
  3
Hidden __ __ __ __ __ __ __ __ __ __ __ __ __ _
 72
    65
 73
     2
 40
9.524999999999998
 49
6.349999999999999
 74
     0
 49
-3.174999999999999
 74
     0
  0
LTYPE
  5
94FC
330
5
100
AcDbSymbolTableRecord
100
AcDbLinetypeTableRecord
  2
PHANTOM2
 70
     0
  3
Phantom (.5x) ___ _ _ ___ _ _ ___ _ _ ___ _ _
 72
    65
 73
     6
 40
31.75
 49
15.875
 74
     0
 49
-3.174999999999999
 74
     0
 49
3.174999999999999
 74
     0
 49
-3.174999999999999
 74
     0
 49
3.174999999999999
 74
     0
 49
-3.174999999999999
 74
     0
  0
LTYPE
  5
94FD
330
5
100
AcDbSymbolTableRecord
100
AcDbLinetypeTableRecord
  2
CENTER
 70
     0
  3
__ . __
 72
    65
 73
     4
 40
7.0
 49
4.0
 74
     0
 49
-1.0
 74
     0
 49
1.0
 74
     0
 49
-1.0
 74
     0
  0
LTYPE
  5
952E
330
5
100
AcDbSymbolTableRecord
100
AcDbLinetypeTableRecord
  2
ACISOWELD
 70
     0
  3
_ _ _ _ _
 72
    65
 73
     2
 40
2.0
 49
2.0
 74
     0
 49
-1.0
 74
     0
  0
LTYPE
  5
9531
330
5
100
AcDbSymbolTableRecord
100
AcDbLinetypeTableRecord
  2
ACISOTGB
 70
     0
  3
__ . . __ . .
 72
    65
 73
     6
 40
9.0
 49
4.0
 74
     0
 49
-1.0
 74
     0
 49
1.0
 74
     0
 49
-1.0
 74
     0
 49
1.0
 74
     0
 49
-1.0
 74
     0
  0
LTYPE
  5
9532
330
5
100
AcDbSymbolTableRecord
100
AcDbLinetypeTableRecord
  2
ACISOTGL
 70
     0
  3
_ _ _ _ _
 72
    65
 73
     2
 40
3.0
 49
2.0
 74
     0
 49
-1.0
 74
     0
  0
LTYPE
  5
955B
330
5
100
AcDbSymbolTableRecord
100
AcDbLinetypeTableRecord
  2
ACJISWELD
 70
     0
  3
_ _ _ _ _
 72
    65
 73
     2
 40
2.0
 49
2.0
 74
     0
 49
-1.0
 74
     0
  0
ENDTAB
  0
TABLE
  2
LAYER
  5
2
330
0
100
AcDbSymbolTable
 70
     7
  0
LAYER
  5
10
330
2
100
AcDbSymbolTableRecord
100
AcDbLayerTableRecord
  2
0
 70
     0
 62
     7
  6
CONTINUOUS
370
    -3
390
F
  0
LAYER
  5
3F9
330
2
100
AcDbSymbolTableRecord
100
AcDbLayerTableRecord
  2
AM_0
 70
     0
 62
     7
  6
CONTINUOUS
370
    -3
390
F
  0
LAYER
  5
BA4
330
2
100
AcDbSymbolTableRecord
100
AcDbLayerTableRecord
  2
AM_5
 70
     0
 62
     3
  6
CONTINUOUS
370
    -3
390
F
  0
LAYER
  5
BA6
330
2
100
AcDbSymbolTableRecord
100
AcDbLayerTableRecord
  2
AM_7
 70
     0
 62
     4
  6
AM_ISO08W050
370
    -3
390
F
  0
LAYER
  5
E64
330
2
100
AcDbSymbolTableRecord
100
AcDbLayerTableRecord
  2
AM_6
 70
     0
 62
     2
  6
CONTINUOUS
370
    -3
390
F
  0
LAYER
  5
F4D
330
2
100
AcDbSymbolTableRecord
100
AcDbLayerTableRecord
  2
DEFPOINTS
 70
     0
 62
     7
  6
CONTINUOUS
290
     0
370
    -3
390
F
  0
LAYER
  5
4E80
330
2
100
AcDbSymbolTableRecord
100
AcDbLayerTableRecord
  2
AM_11
 70
     0
 62
     3
  6
AM_ISO09W050
370
    -3
390
F
  0
ENDTAB
  0
TABLE
  2
STYLE
  5
3
330
0
100
AcDbSymbolTable
 70
     7
  0
STYLE
  5
11
330
3
100
AcDbSymbolTableRecord
100
AcDbTextStyleTableRecord
  2
STANDARD
 70
     0
 40
0.0
 41
1.0
 50
0.0
 71
     0
 42
2.5
  3
simplex.shx
  4
EXTFONT.SHX
  0
STYLE
  5
52
330
3
100
AcDbSymbolTableRecord
100
AcDbTextStyleTableRecord
  2

 70
     1
 40
0.0
 41
1.0
 50
0.0
 71
     0
 42
2.5
  3
ltypeshp.shx
  4

  0
STYLE
  5
6B
330
3
100
AcDbSymbolTableRecord
100
AcDbTextStyleTableRecord
  2
ASAMI
 70
     0
 40
0.0
 41
1.0
 50
0.0
 71
     0
 42
2.5
  3
simplex.shx
  4
EXTFONT.SHX
  0
STYLE
  5
262
330
3
100
AcDbSymbolTableRecord
100
AcDbTextStyleTableRecord
  2
ACJISTS
 70
     0
 40
1.0
 41
1.0
 50
0.0
 71
     0
 42
1.0
  3
isocp.shx
  4
extfont.shx
  0
STYLE
  5
269
330
3
100
AcDbSymbolTableRecord
100
AcDbTextStyleTableRecord
  2
ACJISGDT
 70
     0
 40
0.0
 41
1.0
 50
0.0
 71
     0
 42
1.0
  3
amgdt.shx
  4

  0
STYLE
  5
9528
330
3
100
AcDbSymbolTableRecord
100
AcDbTextStyleTableRecord
  2
ACISOTS
 70
     0
 40
3.799999999999999
 41
1.0
 50
0.0
 71
     0
 42
3.799999999999999
  3
isocp.shx
  4
extfont.shx
  0
STYLE
  5
952C
330
3
100
AcDbSymbolTableRecord
100
AcDbTextStyleTableRecord
  2
ACISOGDT
 70
     0
 40
0.0
 41
1.0
 50
0.0
 71
     0
 42
2.5
  3
amgdt.shx
  4
extfont.shx
  0
ENDTAB
  0
TABLE
  2
VIEW
  5
6
330
0
100
AcDbSymbolTable
 70
     0
  0
ENDTAB
  0
TABLE
  2
UCS
  5
7
330
0
100
AcDbSymbolTable
 70
     0
  0
ENDTAB
  0
TABLE
  2
APPID
  5
9
330
0
100
AcDbSymbolTable
 70
    33
  0
APPID
  5
12
330
9
100
AcDbSymbolTableRecord
100
AcDbRegAppTableRecord
  2
ACAD
 70
     0
  0
APPID
  5
30
330
9
100
AcDbSymbolTableRecord
100
AcDbRegAppTableRecord
  2
MCAD_NO_VIS
 70
     0
  0
APPID
  5
31
330
9
100
AcDbSymbolTableRecord
100
AcDbRegAppTableRecord
  2
ACAD_TEMP_GRAPHIC
 70
     0
  0
APPID
  5
2C2
330
9
100
AcDbSymbolTableRecord
100
AcDbRegAppTableRecord
  2
GENIUS_GENDTOL_13
 70
     0
  0
APPID
  5
339
330
9
100
AcDbSymbolTableRecord
100
AcDbRegAppTableRecord
  2
GENIUS_GENODEF_13
 70
     0
  0
APPID
  5
33A
330
9
100
AcDbSymbolTableRecord
100
AcDbRegAppTableRecord
  2
GENIUS_GENOBJ-N-RSBK_13
 70
     0
  0
APPID
  5
33B
330
9
100
AcDbSymbolTableRecord
100
AcDbRegAppTableRecord
  2
GENIUS_GENOBJ-N-LIB_13
 70
     0
  0
APPID
  5
33C
330
9
100
AcDbSymbolTableRecord
100
AcDbRegAppTableRecord
  2
GENIUS_GENSCALE_13
 70
     0
  0
APPID
  5
378
330
9
100
AcDbSymbolTableRecord
100
AcDbRegAppTableRecord
  2
GENIUS_GENDIMSH_14
 70
     0
  0
APPID
  5
BB0
330
9
100
AcDbSymbolTableRecord
100
AcDbRegAppTableRecord
  2
GENIUS_GENOBJ-N-CEN_13
 70
     0
  0
APPID
  5
BB1
330
9
100
AcDbSymbolTableRecord
100
AcDbRegAppTableRecord
  2
GENIUS_GENFIL_13
 70
     0
  0
APPID
  5
BB2
330
9
100
AcDbSymbolTableRecord
100
AcDbRegAppTableRecord
  2
GENIUS_GENOBJ-N-CHA_13
 70
     0
  0
APPID
  5
1FAF
330
9
100
AcDbSymbolTableRecord
100
AcDbRegAppTableRecord
  2
GENIUS_GENOBJ-N-CRS_13
 70
     0
  0
APPID
  5
1FB0
330
9
100
AcDbSymbolTableRecord
100
AcDbRegAppTableRecord
  2
GENIUS_GENOENT_13
 70
     0
  0
APPID
  5
1FB1
330
9
100
AcDbSymbolTableRecord
100
AcDbRegAppTableRecord
  2
GENIUS_GENOREF_13
 70
     0
  0
APPID
  5
1FB2
330
9
100
AcDbSymbolTableRecord
100
AcDbRegAppTableRecord
  2
GENIUS_GENOLIS_13
 70
     0
  0
APPID
  5
1FB7
330
9
100
AcDbSymbolTableRecord
100
AcDbRegAppTableRecord
  2
GENIUS_GENOBJ-N-FIL_13
 70
     0
  0
APPID
  5
22A8
330
9
100
AcDbSymbolTableRecord
100
AcDbRegAppTableRecord
  2
GEVID1056506048
 70
     0
  0
APPID
  5
22A9
330
9
100
AcDbSymbolTableRecord
100
AcDbRegAppTableRecord
  2
GEVDC
 70
     0
  0
APPID
  5
22AC
330
9
100
AcDbSymbolTableRecord
100
AcDbRegAppTableRecord
  2
GENIUS_GENBH_13
 70
     0
  0
APPID
  5
22B8
330
9
100
AcDbSymbolTableRecord
100
AcDbRegAppTableRecord
  2
GENIUS_GENOBJ-NBEHI-BHF_13
 70
     0
  0
APPID
  5
22BA
330
9
100
AcDbSymbolTableRecord
100
AcDbRegAppTableRecord
  2
GENIUS_GENOBJ-NBEHI-BHB_13
 70
     0
  0
APPID
  5
35C9
330
9
100
AcDbSymbolTableRecord
100
AcDbRegAppTableRecord
  2
GENIUS_GENREC_14
 70
     0
  0
APPID
  5
35CA
330
9
100
AcDbSymbolTableRecord
100
AcDbRegAppTableRecord
  2
GENIUS_GENOBJ-N-REC_13
 70
     0
  0
APPID
  5
94C4
330
9
100
AcDbSymbolTableRecord
100
AcDbRegAppTableRecord
  2
ACATTRIBSERVICES
 70
     0
  0
APPID
  5
94C5
330
9
100
AcDbSymbolTableRecord
100
AcDbRegAppTableRecord
  2
AD_DRAW
 70
     0
  0
APPID
  5
94C6
330
9
100
AcDbSymbolTableRecord
100
AcDbRegAppTableRecord
  2
DESIGNERASSEMBLIES
 70
     0
  0
APPID
  5
94C7
330
9
100
AcDbSymbolTableRecord
100
AcDbRegAppTableRecord
  2
ACADM_DIM_EDIT
 70
     0
  0
APPID
  5
94C8
330
9
100
AcDbSymbolTableRecord
100
AcDbRegAppTableRecord
  2
AMDT_DM_ADJ
 70
     0
  0
APPID
  5
94C9
330
9
100
AcDbSymbolTableRecord
100
AcDbRegAppTableRecord
  2
ACAD_DSTYLE_DIMTEXT_FILL
 70
     0
  0
APPID
  5
94CA
330
9
100
AcDbSymbolTableRecord
100
AcDbRegAppTableRecord
  2
ACAD_PSEXT
 70
     0
  0
APPID
  5
957D
330
9
100
AcDbSymbolTableRecord
100
AcDbRegAppTableRecord
  2
GENIUS_GENSCREG_15
 70
     0
  0
APPID
  5
957E
330
9
100
AcDbSymbolTableRecord
100
AcDbRegAppTableRecord
  2
GENIUS_GENOBJ-N-SDF_13
 70
     0
  0
ENDTAB
  0
TABLE
  2
DIMSTYLE
  5
A
330
0
100
AcDbSymbolTable
 70
    16
100
AcDbDimStyleTable
 71
     0
  0
DIMSTYLE
105
58
330
A
100
AcDbSymbolTableRecord
100
AcDbDimStyleTableRecord
  2
AM_JIS
 70
     0
  4
"
 41
2.5
 42
1.0
 43
10.0
 44
1.0
 47
0.1
 48
0.1000000001
 73
     0
 74
     0
 77
     3
 78
     8
 79
     2
140
3.799999999999999
141
0.0
143
0.0393701
146
0.71
147
1.5
172
     1
176
   256
177
   256
178
     2
271
     2
272
     2
275
     1
283
     0
284
     8
340
11
341
59
342
59
371
    -1
372
    -1
  0
DIMSTYLE
105
5F
330
A
100
AcDbSymbolTableRecord
100
AcDbDimStyleTableRecord
  2
AM_JIS$3
 70
     0
  4
"
 41
2.5
 42
1.0
 43
10.0
 44
1.0
 47
0.1
 48
0.1000000001
 73
     0
 77
     3
 78
     8
 79
     2
140
3.799999999999999
141
0.0
143
0.0393701
146
0.71
147
1.5
176
   256
177
   256
178
     2
271
     2
272
     2
275
     1
283
     0
284
     8
288
     1
289
     0
340
11
341
59
342
59
371
    -1
372
    -1
  0
DIMSTYLE
105
60
330
A
100
AcDbSymbolTableRecord
100
AcDbDimStyleTableRecord
  2
AM_JIS$4
 70
     0
  4
"
 41
2.5
 42
1.0
 43
10.0
 44
1.0
 47
0.1
 48
0.1000000001
 73
     0
 77
     3
 78
     8
 79
     2
140
3.799999999999999
141
0.0
143
0.0393701
146
0.71
147
1.5
176
   256
177
   256
178
     2
271
     2
272
     2
275
     1
283
     0
284
     8
288
     1
289
     0
340
11
341
59
342
59
371
    -1
372
    -1
  0
DIMSTYLE
105
61
330
A
100
AcDbSymbolTableRecord
100
AcDbDimStyleTableRecord
  2
AM_JIS$6
 70
     0
  4
"
 41
2.5
 42
1.0
 43
10.0
 44
1.0
 47
0.1
 48
0.1000000001
 73
     0
 74
     0
 78
     8
 79
     2
140
3.799999999999999
141
0.0
143
0.0393701
146
0.71
147
1.5
172
     1
176
   256
177
   256
178
     2
271
     2
272
     2
275
     1
283
     0
284
     8
340
11
341
59
342
59
371
    -1
372
    -1
  0
DIMSTYLE
105
62
330
A
100
AcDbSymbolTableRecord
100
AcDbDimStyleTableRecord
  2
AM_JIS$7
 70
     0
  4
"
 41
2.5
 42
1.0
 43
10.0
 44
1.0
 47
0.1
 48
0.1000000001
 73
     0
 74
     0
 77
     3
 78
     8
 79
     2
140
5.0
141
0.0
143
0.0393701
146
0.71
147
1.5
172
     1
176
   256
177
   256
178
     2
271
     2
272
     2
275
     1
283
     0
284
     8
340
11
341
59
342
59
371
    -1
372
    -1
  0
DIMSTYLE
105
63
330
A
100
AcDbSymbolTableRecord
100
AcDbDimStyleTableRecord
  2
AM_JIS$SF
 70
     0
  4
"
 41
2.5
 42
1.0
 43
10.0
 44
1.0
 47
0.1
 48
0.1
 73
     0
 74
     0
 75
     1
 76
     1
 77
     3
 78
     8
 79
     2
140
3.5
141
0.0
143
0.0393701
146
0.71
147
1.5
172
     1
176
   256
177
   256
178
     2
271
     2
272
     3
274
     4
283
     0
284
     8
340
11
341
59
342
59
343
59
344
59
371
    -1
372
    -1
  0
DIMSTYLE
105
68
330
A
100
AcDbSymbolTableRecord
100
AcDbDimStyleTableRecord
  2
AM_JIS$SH
 70
     0
  4
"
 41
2.5
 42
1.0
 43
10.0
 44
1.0
 47
0.1
 48
0.1
 73
     0
 74
     0
 75
     1
 76
     1
 77
     3
 78
     8
 79
     2
140
3.5
141
0.0
143
0.0393701
144
2.0
146
0.71
147
1.5
172
     1
173
     1
176
   256
177
   256
178
     2
271
     2
272
     3
274
     4
283
     0
284
     8
340
11
341
59
342
59
343
64
344
59
371
    -1
372
    -1
  0
DIMSTYLE
105
B34
330
A
100
AcDbSymbolTableRecord
100
AcDbDimStyleTableRecord
  2
AM_JIS$2
 70
     0
  4
"
 40
0.5
 41
2.5
 42
1.0
 43
12.0
 44
1.0
 47
0.1
 48
0.1
 73
     0
 74
     0
 77
     3
 78
     8
140
3.2
141
0.0
143
0.0393701
146
0.71
147
1.5
172
     1
176
   256
177
   256
178
     2
271
     3
272
     3
283
     0
340
6B
341
59
342
59
  0
DIMSTYLE
105
3B48
102
{ACAD_REACTORS
330
8EB6
330
8F5C
330
8FF1
330
9086
330
911B
330
91BC
102
}
330
A
100
AcDbSymbolTableRecord
100
AcDbDimStyleTableRecord
  2
AM_JIS$0
 70
     0
  4
"
 41
2.5
 42
0.0
 43
10.0
 44
1.0
 47
0.1
 48
0.1000000001
 73
     0
 74
     0
 77
     3
 78
     1
140
3.799999999999998
141
0.0
143
0.0393701
146
0.71
147
1.5
172
     1
176
     3
177
     3
178
     2
271
     2
272
     2
275
     1
283
     0
284
     8
340
11
341
59
342
59
  0
DIMSTYLE
105
9547
330
A
100
AcDbSymbolTableRecord
100
AcDbDimStyleTableRecord
  2
AM_ISO
 70
     0
  4
"
 41
2.5
 42
1.0
 43
10.0
 44
1.0
 47
0.1
 48
0.1
 73
     0
 74
     0
 77
     1
 78
     8
 79
     2
140
3.5
141
0.0
143
0.0393701
146
0.71
147
1.5
172
     1
176
   256
177
   256
178
     2
271
     2
272
     3
274
     4
283
     0
284
     8
340
11
371
    -1
372
    -1
  0
DIMSTYLE
105
9548
330
A
100
AcDbSymbolTableRecord
100
AcDbDimStyleTableRecord
  2
AM_ISO$3
 70
     0
  4
"
 41
2.5
 42
1.0
 43
10.0
 44
1.0
 47
0.1
 48
0.1
 73
     0
 77
     1
 78
     8
 79
     2
140
3.5
141
0.0
143
0.0393701
146
0.71
147
1.5
176
   256
177
   256
178
     2
271
     2
272
     3
274
     4
283
     0
284
     8
288
     1
289
     0
340
11
371
    -1
372
    -1
  0
DIMSTYLE
105
9549
330
A
100
AcDbSymbolTableRecord
100
AcDbDimStyleTableRecord
  2
AM_ISO$4
 70
     0
  4
"
 41
2.5
 42
1.0
 43
10.0
 44
1.0
 47
0.1
 48
0.1
 73
     0
 77
     1
 78
     8
 79
     2
140
3.5
141
0.0
143
0.0393701
146
0.71
147
1.5
176
   256
177
   256
178
     2
271
     2
272
     3
274
     4
283
     0
284
     8
288
     1
289
     0
340
11
371
    -1
372
    -1
  0
DIMSTYLE
105
954A
330
A
100
AcDbSymbolTableRecord
100
AcDbDimStyleTableRecord
  2
AM_ISO$6
 70
     0
  4
"
 41
2.5
 42
1.0
 43
10.0
 44
1.0
 47
0.1
 48
0.1
 73
     0
 74
     0
 78
     8
 79
     2
140
3.5
141
0.0
143
0.0393701
146
0.71
147
1.5
172
     1
176
   256
177
   256
178
     2
271
     2
272
     3
274
     4
283
     0
284
     8
340
11
371
    -1
372
    -1
  0
DIMSTYLE
105
954B
330
A
100
AcDbSymbolTableRecord
100
AcDbDimStyleTableRecord
  2
AM_ISO$7
 70
     0
  4
"
 41
2.5
 42
1.0
 43
10.0
 44
1.0
 47
0.1
 48
0.1
 73
     0
 74
     0
 77
     1
 78
     8
 79
     2
140
5.0
141
0.0
143
0.0393701
146
0.71
147
1.5
172
     1
176
   256
177
   256
178
     2
271
     2
272
     3
274
     4
283
     0
284
     8
340
11
371
    -1
372
    -1
  0
DIMSTYLE
105
954C
330
A
100
AcDbSymbolTableRecord
100
AcDbDimStyleTableRecord
  2
AM_ISO$SF
 70
     0
  4
"
 41
2.5
 42
1.0
 43
10.0
 44
1.0
 47
0.1
 48
0.1
 73
     0
 74
     0
 75
     1
 76
     1
 77
     1
 78
     8
 79
     2
140
3.5
141
0.0
143
0.0393701
146
0.71
147
1.5
172
     1
176
   256
177
   256
178
     2
271
     2
272
     3
274
     4
283
     0
284
     8
340
11
371
    -1
372
    -1
  0
DIMSTYLE
105
954D
330
A
100
AcDbSymbolTableRecord
100
AcDbDimStyleTableRecord
  2
AM_ISO$SH
 70
     0
  4
"
 41
2.5
 42
1.0
 43
10.0
 44
1.0
 47
0.1
 48
0.1
 73
     0
 74
     0
 75
     1
 76
     1
 77
     1
 78
     8
 79
     2
140
3.5
141
0.0
143
0.0393701
144
2.0
146
0.71
147
1.5
172
     1
173
     1
176
   256
177
   256
178
     2
271
     2
272
     3
274
     4
283
     0
284
     8
340
11
343
64
371
    -1
372
    -1
  0
ENDTAB
  0
TABLE
  2
BLOCK_RECORD
  5
1
330
0
100
AcDbSymbolTable
 70
     9
  0
BLOCK_RECORD
  5
1F
102
{ACAD_XDICTIONARY
360
74
102
}
330
1
100
AcDbSymbolTableRecord
100
AcDbBlockTableRecord
  2
*MODEL_SPACE
340
94BF
  0
BLOCK_RECORD
  5
101
102
{ACAD_XDICTIONARY
360
947D
102
}
330
1
100
AcDbSymbolTableRecord
100
AcDbBlockTableRecord
  2
*PAPER_SPACE
340
94C0
  0
BLOCK_RECORD
  5
59
330
1
100
AcDbSymbolTableRecord
100
AcDbBlockTableRecord
  2
_Open30
340
0
  0
BLOCK_RECORD
  5
64
330
1
100
AcDbSymbolTableRecord
100
AcDbBlockTableRecord
  2
GENAXEH
340
0
  0
BLOCK_RECORD
  5
8EB7
330
1
100
AcDbSymbolTableRecord
100
AcDbBlockTableRecord
  2
*D2
340
0
  0
BLOCK_RECORD
  5
8F5D
330
1
100
AcDbSymbolTableRecord
100
AcDbBlockTableRecord
  2
*D3
340
0
  0
BLOCK_RECORD
  5
8FF2
330
1
100
AcDbSymbolTableRecord
100
AcDbBlockTableRecord
  2
*D4
340
0
  0
BLOCK_RECORD
  5
9087
330
1
100
AcDbSymbolTableRecord
100
AcDbBlockTableRecord
  2
*D5
340
0
  0
BLOCK_RECORD
  5
911C
330
1
100
AcDbSymbolTableRecord
100
AcDbBlockTableRecord
  2
*D6
340
0
  0
BLOCK_RECORD
  5
91BD
330
1
100
AcDbSymbolTableRecord
100
AcDbBlockTableRecord
  2
*D7
340
0
  0
ENDTAB
  0
ENDSEC
  0
SECTION
  2
BLOCKS
  0
BLOCK
  5
20
330
1F
100
AcDbEntity
  8
0
100
AcDbBlockBegin
  2
*MODEL_SPACE
 70
     0
 10
0.0
 20
0.0
 30
0.0
  3
*MODEL_SPACE
  1

  0
ENDBLK
  5
21
330
1F
100
AcDbEntity
  8
0
100
AcDbBlockEnd
  0
BLOCK
  5
103
330
101
100
AcDbEntity
 67
     1
  8
0
100
AcDbBlockBegin
  2
*PAPER_SPACE
 70
     0
 10
0.0
 20
0.0
 30
0.0
  3
*PAPER_SPACE
  1

  0
ENDBLK
  5
104
330
101
100
AcDbEntity
 67
     1
  8
0
100
AcDbBlockEnd
  0
BLOCK
  5
956F
330
59
100
AcDbEntity
  8
0
100
AcDbBlockBegin
  2
_Open30
 70
     0
 10
0.0
 20
0.0
 30
0.0
  3
_Open30
  1

  0
LINE
  5
9570
330
59
100
AcDbEntity
  8
0
  6
ByBlock
 62
     0
370
    -2
100
AcDbLine
 10
-1.0
 20
0.26794919
 30
0.0
 11
0.0
 21
0.0
 31
0.0
  0
LINE
  5
9571
330
59
100
AcDbEntity
  8
0
  6
ByBlock
 62
     0
370
    -2
100
AcDbLine
 10
0.0
 20
0.0
 30
0.0
 11
-1.0
 21
-0.26794919
 31
0.0
  0
LINE
  5
9572
330
59
100
AcDbEntity
  8
0
  6
ByBlock
 62
     0
370
    -2
100
AcDbLine
 10
0.0
 20
0.0
 30
0.0
 11
-1.0
 21
0.0
 31
0.0
  0
ENDBLK
  5
9573
330
59
100
AcDbEntity
  8
0
100
AcDbBlockEnd
  0
BLOCK
  5
954F
330
64
100
AcDbEntity
  8
0
100
AcDbBlockBegin
  2
GENAXEH
 70
     0
 10
0.0
 20
0.0
 30
0.0
  3
GENAXEH
  1

  0
LINE
  5
9550
330
64
100
AcDbEntity
  8
0
100
AcDbLine
 10
-1.0
 20
0.0
 30
0.0
 11
1.0
 21
0.0
 31
0.0
  0
ENDBLK
  5
9551
330
64
100
AcDbEntity
  8
0
100
AcDbBlockEnd
  0
BLOCK
  5
8EC1
330
8EB7
100
AcDbEntity
  8
0
100
AcDbBlockBegin
  2
*D2
 70
     1
 10
0.0
 20
0.0
 30
0.0
  3
*D2
  1

  0
LINE
  5
947F
330
8EB7
100
AcDbEntity
  8
AM_5
100
AcDbLine
 10
0.4999999999999673
 20
16.00000000000016
 30
0.0
 11
7.500000000000037
 21
16.00000000000017
 31
0.0
  0
LINE
  5
9480
330
8EB7
100
AcDbEntity
  8
AM_5
100
AcDbLine
 10
0.5000000000000995
 20
-15.99999999999983
 30
0.0
 11
7.500000000000101
 21
-15.99999999999982
 31
0.0
  0
LINE
  5
9481
330
8EB7
100
AcDbEntity
  8
AM_5
100
AcDbLine
 10
7.000000000000039
 20
14.75000000000017
 30
0.0
 11
7.000000000000097
 21
-14.74999999999982
 31
0.0
  0
INSERT
  5
9482
330
8EB7
100
AcDbEntity
  8
AM_5
100
AcDbBlockReference
  2
_Open30
 10
7.000000000000037
 20
16.00000000000017
 30
0.0
 41
1.25
 42
1.25
 43
1.25
 50
90.0000000000001
  0
INSERT
  5
9483
330
8EB7
100
AcDbEntity
  8
AM_5
100
AcDbBlockReference
  2
_Open30
 10
7.000000000000101
 20
-15.99999999999982
 30
0.0
 41
1.25
 42
1.25
 43
1.25
 50
270.0000000000001
  0
MTEXT
  5
9484
330
8EB7
100
AcDbEntity
  8
AM_5
 62
     2
100
AcDbMText
 10
5.450000000000067
 20
0.0000000000001715
 30
0.0
 40
1.6
 41
0.0
 71
     5
 72
     1
  1
%%c32
  7
ASAMI
 11
-0.000000000000002
 21
1.0
 31
0.0
 73
     1
 44
1.0
1001
ACAD
1000
MTEXTBEGIN
1070
    73
1070
     1
1070
    44
1040
1.0
1070
    74
1070
     0
1000
MTEXTEND
  0
POINT
  5
9485
330
8EB7
100
AcDbEntity
  8
DEFPOINTS
 62
     0
100
AcDbPoint
 10
0.0000000000000027
 20
16.00000000000016
 30
0.0
  0
POINT
  5
9486
330
8EB7
100
AcDbEntity
  8
DEFPOINTS
 62
     0
100
AcDbPoint
 10
0.0000000000000639
 20
-15.99999999999983
 30
0.0
  0
POINT
  5
9487
330
8EB7
100
AcDbEntity
  8
DEFPOINTS
 62
     0
100
AcDbPoint
 10
7.000000000000065
 20
-15.99999999999984
 30
0.0
  0
ENDBLK
  5
8EC2
330
8EB7
100
AcDbEntity
  8
0
100
AcDbBlockEnd
  0
BLOCK
  5
8F67
330
8F5D
100
AcDbEntity
  8
0
100
AcDbBlockBegin
  2
*D3
 70
     1
 10
0.0
 20
0.0
 30
0.0
  3
*D3
  1

  0
LINE
  5
9488
330
8F5D
100
AcDbEntity
  8
AM_5
100
AcDbLine
 10
-44.00000000000066
 20
16.47183637260767
 30
0.0
 11
-44.00000000000067
 21
23.50000381469683
 31
0.0
  0
LINE
  5
9489
330
8F5D
100
AcDbEntity
  8
AM_5
100
AcDbLine
 10
-0.0000000000000307
 20
16.50000000000016
 30
0.0
 11
-0.0000000000000444
 21
23.50000381469692
 31
0.0
  0
LINE
  5
948A
330
8F5D
100
AcDbEntity
  8
AM_5
100
AcDbLine
 10
-42.75000000000068
 20
23.00000381469683
 30
0.0
 11
-1.250000000000042
 21
23.00000381469691
 31
0.0
  0
INSERT
  5
948B
330
8F5D
100
AcDbEntity
  8
AM_5
100
AcDbBlockReference
  2
_Open30
 10
-44.00000000000067
 20
23.00000381469683
 30
0.0
 41
1.25
 42
1.25
 43
1.25
 50
180.0000000000001
  0
INSERT
  5
948C
330
8F5D
100
AcDbEntity
  8
AM_5
100
AcDbBlockReference
  2
_Open30
 10
-0.0000000000000434
 20
23.00000381469692
 30
0.0
 41
1.25
 42
1.25
 43
1.25
 50
0.0000000000001018
  0
MTEXT
  5
948D
330
8F5D
100
AcDbEntity
  8
AM_5
 62
     2
100
AcDbMText
 10
-22.00000000000036
 20
24.55000381469687
 30
0.0
 40
1.6
 41
0.0
 71
     5
 72
     1
  1
44
  7
ASAMI
 73
     1
 44
1.0
1001
ACAD
1000
MTEXTBEGIN
1070
    73
1070
     1
1070
    44
1040
1.0
1070
    74
1070
     0
1000
MTEXTEND
  0
POINT
  5
948E
330
8F5D
100
AcDbEntity
  8
DEFPOINTS
 62
     0
100
AcDbPoint
 10
-44.00000000000063
 20
15.97183637260776
 30
0.0
  0
POINT
  5
948F
330
8F5D
100
AcDbEntity
  8
DEFPOINTS
 62
     0
100
AcDbPoint
 10
0.0000000000000027
 20
16.00000000000016
 30
0.0
  0
POINT
  5
9490
330
8F5D
100
AcDbEntity
  8
DEFPOINTS
 62
     0
100
AcDbPoint
 10
0.0000000000000031
 20
23.00000381469692
 30
0.0
  0
ENDBLK
  5
8F68
330
8F5D
100
AcDbEntity
  8
0
100
AcDbBlockEnd
  0
BLOCK
  5
8FFC
330
8FF2
100
AcDbEntity
  8
0
100
AcDbBlockBegin
  2
*D4
 70
     1
 10
0.0
 20
0.0
 30
0.0
  3
*D4
  1

  0
LINE
  5
9491
330
8FF2
100
AcDbEntity
  8
AM_5
100
AcDbLine
 10
0.0000000000000964
 20
-16.49999999999983
 30
0.0
 11
0.0000000000000977
 21
-23.50000000000016
 31
0.0
  0
LINE
  5
9492
330
8FF2
100
AcDbEntity
  8
AM_5
100
AcDbLine
 10
-54.99999398226449
 20
-15.14999771118202
 30
0.0
 11
-54.99999398226449
 21
-23.50000000000017
 31
0.0
  0
LINE
  5
9493
330
8FF2
100
AcDbEntity
  8
AM_5
100
AcDbLine
 10
-1.249999999999902
 20
-23.00000000000016
 30
0.0
 11
-53.74999398226449
 21
-23.00000000000018
 31
0.0
  0
INSERT
  5
9494
330
8FF2
100
AcDbEntity
  8
AM_5
100
AcDbBlockReference
  2
_Open30
 10
0.0000000000000976
 20
-23.00000000000016
 30
0.0
 41
1.25
 42
1.25
 43
1.25
  0
INSERT
  5
9495
330
8FF2
100
AcDbEntity
  8
AM_5
100
AcDbBlockReference
  2
_Open30
 10
-54.99999398226449
 20
-23.00000000000018
 30
0.0
 41
1.25
 42
1.25
 43
1.25
 50
180.0
  0
MTEXT
  5
9496
330
8FF2
100
AcDbEntity
  8
AM_5
 62
     2
100
AcDbMText
 10
-27.4999969911322
 20
-21.45000000000016
 30
0.0
 40
1.6
 41
0.0
 71
     5
 72
     1
  1
55
  7
ASAMI
 73
     1
 44
1.0
1001
ACAD
1000
MTEXTBEGIN
1070
    73
1070
     1
1070
    44
1040
1.0
1070
    74
1070
     0
1000
MTEXTEND
  0
POINT
  5
9497
330
8FF2
100
AcDbEntity
  8
DEFPOINTS
 62
     0
100
AcDbPoint
 10
0.0000000000000639
 20
-15.99999999999983
 30
0.0
  0
POINT
  5
9498
330
8FF2
100
AcDbEntity
  8
DEFPOINTS
 62
     0
100
AcDbPoint
 10
-54.99999398226453
 20
-14.64999771118191
 30
0.0
  0
POINT
  5
9499
330
8FF2
100
AcDbEntity
  8
DEFPOINTS
 62
     0
100
AcDbPoint
 10
-54.99999398226455
 20
-23.00000000000006
 30
0.0
  0
ENDBLK
  5
8FFD
330
8FF2
100
AcDbEntity
  8
0
100
AcDbBlockEnd
  0
BLOCK
  5
9091
330
9087
100
AcDbEntity
  8
0
100
AcDbBlockBegin
  2
*D5
 70
     1
 10
0.0
 20
0.0
 30
0.0
  3
*D5
  1

  0
LINE
  5
949A
330
9087
100
AcDbEntity
  8
AM_5
100
AcDbLine
 10
0.0000000000000964
 20
-16.49999999999983
 30
0.0
 11
0.0000000000000986
 21
-28.50000000000031
 31
0.0
  0
LINE
  5
949B
330
9087
100
AcDbEntity
  8
AM_5
100
AcDbLine
 10
-140.0002290629821
 20
-14.16099929809629
 30
0.0
 11
-140.0002290629821
 21
-28.50000000000034
 31
0.0
  0
LINE
  5
949C
330
9087
100
AcDbEntity
  8
AM_5
100
AcDbLine
 10
-1.2499999999999
 20
-28.0000000000003
 30
0.0
 11
-138.7502290629821
 21
-28.00000000000034
 31
0.0
  0
INSERT
  5
949D
330
9087
100
AcDbEntity
  8
AM_5
100
AcDbBlockReference
  2
_Open30
 10
0.0000000000000985
 20
-28.0000000000003
 30
0.0
 41
1.25
 42
1.25
 43
1.25
  0
INSERT
  5
949E
330
9087
100
AcDbEntity
  8
AM_5
100
AcDbBlockReference
  2
_Open30
 10
-140.0002290629821
 20
-28.00000000000034
 30
0.0
 41
1.25
 42
1.25
 43
1.25
 50
180.0
  0
MTEXT
  5
949F
330
9087
100
AcDbEntity
  8
AM_5
 62
     2
100
AcDbMText
 10
-70.00011453149102
 20
-26.45000000000032
 30
0.0
 40
1.6
 41
0.0
 71
     5
 72
     1
  1
140
  7
ASAMI
 73
     1
 44
1.0
1001
ACAD
1000
MTEXTBEGIN
1070
    73
1070
     1
1070
    44
1040
1.0
1070
    74
1070
     0
1000
MTEXTEND
  0
POINT
  5
94A0
330
9087
100
AcDbEntity
  8
DEFPOINTS
 62
     0
100
AcDbPoint
 10
0.0000000000000639
 20
-15.99999999999983
 30
0.0
  0
POINT
  5
94A1
330
9087
100
AcDbEntity
  8
DEFPOINTS
 62
     0
100
AcDbPoint
 10
-140.0002290629821
 20
-13.66099929809601
 30
0.0
  0
POINT
  5
94A2
330
9087
100
AcDbEntity
  8
DEFPOINTS
 62
     0
100
AcDbPoint
 10
-140.0002290629822
 20
-28.00000000000006
 30
0.0
  0
ENDBLK
  5
9092
330
9087
100
AcDbEntity
  8
0
100
AcDbBlockEnd
  0
BLOCK
  5
9126
330
911C
100
AcDbEntity
  8
0
100
AcDbBlockBegin
  2
*D6
 70
     1
 10
0.0
 20
0.0
 30
0.0
  3
*D6
  1

  0
LINE
  5
94A3
330
911C
100
AcDbEntity
  8
AM_5
100
AcDbLine
 10
-54.99999398226449
 20
-15.14999771118202
 30
0.0
 11
-54.99999398226449
 21
-23.50000000000032
 31
0.0
  0
LINE
  5
94A4
330
911C
100
AcDbEntity
  8
AM_5
100
AcDbLine
 10
-139.9999920749145
 20
-14.16099929809631
 30
0.0
 11
-139.9999920749145
 21
-23.50000000000034
 31
0.0
  0
LINE
  5
94A5
330
911C
100
AcDbEntity
  8
AM_5
100
AcDbLine
 10
-56.24999398226449
 20
-23.00000000000032
 30
0.0
 11
-138.7499920749145
 21
-23.00000000000034
 31
0.0
  0
INSERT
  5
94A6
330
911C
100
AcDbEntity
  8
AM_5
100
AcDbBlockReference
  2
_Open30
 10
-54.99999398226449
 20
-23.00000000000032
 30
0.0
 41
1.25
 42
1.25
 43
1.25
  0
INSERT
  5
94A7
330
911C
100
AcDbEntity
  8
AM_5
100
AcDbBlockReference
  2
_Open30
 10
-139.9999920749145
 20
-23.00000000000034
 30
0.0
 41
1.25
 42
1.25
 43
1.25
 50
180.0
  0
MTEXT
  5
94A8
330
911C
100
AcDbEntity
  8
AM_5
 62
     2
100
AcDbMText
 10
-97.49999302858952
 20
-21.45000000000032
 30
0.0
 40
1.6
 41
0.0
 71
     5
 72
     1
  1
85
  7
ASAMI
 73
     1
 44
1.0
1001
ACAD
1000
MTEXTBEGIN
1070
    73
1070
     1
1070
    44
1040
1.0
1070
    74
1070
     0
1000
MTEXTEND
  0
POINT
  5
94A9
330
911C
100
AcDbEntity
  8
DEFPOINTS
 62
     0
100
AcDbPoint
 10
-54.99999398226453
 20
-14.64999771118191
 30
0.0
  0
POINT
  5
94AA
330
911C
100
AcDbEntity
  8
DEFPOINTS
 62
     0
100
AcDbPoint
 10
-139.9999920749145
 20
-13.66099929809603
 30
0.0
  0
POINT
  5
94AB
330
911C
100
AcDbEntity
  8
DEFPOINTS
 62
     0
100
AcDbPoint
 10
-139.9999920749145
 20
-23.00000000000006
 30
0.0
  0
ENDBLK
  5
9127
330
911C
100
AcDbEntity
  8
0
100
AcDbBlockEnd
  0
BLOCK
  5
91C7
330
91BD
100
AcDbEntity
  8
0
100
AcDbBlockBegin
  2
*D7
 70
     1
 10
0.0
 20
0.0
 30
0.0
  3
*D7
  1

  0
LINE
  5
94AC
330
91BD
100
AcDbEntity
  8
AM_5
100
AcDbLine
 10
-137.4999920749146
 20
16.00000381469663
 30
0.0
 11
-147.5002290629822
 21
16.00000381469661
 31
0.0
  0
LINE
  5
94AD
330
91BD
100
AcDbEntity
  8
AM_5
100
AcDbLine
 10
-137.4999958896115
 20
-16.00000000000036
 30
0.0
 11
-147.5002290629821
 21
-16.00000000000038
 31
0.0
  0
LINE
  5
94AE
330
91BD
100
AcDbEntity
  8
AM_5
100
AcDbLine
 10
-147.0002290629822
 20
14.75000381469661
 30
0.0
 11
-147.0002290629821
 21
-14.75000000000038
 31
0.0
  0
INSERT
  5
94AF
330
91BD
100
AcDbEntity
  8
AM_5
100
AcDbBlockReference
  2
_Open30
 10
-147.0002290629822
 20
16.00000381469661
 30
0.0
 41
1.25
 42
1.25
 43
1.25
 50
90.0000000000001
  0
INSERT
  5
94B0
330
91BD
100
AcDbEntity
  8
AM_5
100
AcDbBlockReference
  2
_Open30
 10
-147.0002290629821
 20
-16.00000000000038
 30
0.0
 41
1.25
 42
1.25
 43
1.25
 50
270.0000000000001
  0
MTEXT
  5
94B1
330
91BD
100
AcDbEntity
  8
AM_5
 62
     2
100
AcDbMText
 10
-148.5502290629822
 20
0.0000019073481179
 30
0.0
 40
1.6
 41
0.0
 71
     5
 72
     1
  1
%%c32
  7
ASAMI
 11
-0.000000000000002
 21
1.0
 31
0.0
 73
     1
 44
1.0
1001
ACAD
1000
MTEXTBEGIN
1070
    73
1070
     1
1070
    44
1040
1.0
1070
    74
1070
     0
1000
MTEXTEND
  0
POINT
  5
94B2
330
91BD
100
AcDbEntity
  8
DEFPOINTS
 62
     0
100
AcDbPoint
 10
-136.9999920749146
 20
16.00000381469692
 30
0.0
  0
POINT
  5
94B3
330
91BD
100
AcDbEntity
  8
DEFPOINTS
 62
     0
100
AcDbPoint
 10
-136.9999958896116
 20
-16.00000000000005
 30
0.0
  0
POINT
  5
94B4
330
91BD
100
AcDbEntity
  8
DEFPOINTS
 62
     0
100
AcDbPoint
 10
-147.0002290629821
 20
-16.00000000000005
 30
0.0
  0
ENDBLK
  5
91C8
330
91BD
100
AcDbEntity
  8
0
100
AcDbBlockEnd
  0
ENDSEC
  0
SECTION
  2
ENTITIES
  0
TEXT
  5
388D
330
1F
100
AcDbEntity
  8
AM_6
100
AcDbText
 10
-88.39297167434818
 20
-39.25000000000027
 30
0.0
 40
2.5
  1
WRM20R3244E-S32
 50
359.9999999999998
 51
359.9999999999998
 72
     4
 11
-70.00011453149102
 21
-38.00000000000032
 31
0.0
100
AcDbText
  0
LINE
  5
897D
330
1F
100
AcDbEntity
  8
AM_7
100
AcDbLine
 10
5.000007925084424
 20
0.0000000000001705
 30
0.0
 11
-144.9999920749146
 21
-0.0000000000000568
 31
0.0
  0
LINE
  5
897E
330
1F
100
AcDbEntity
  8
AM_0
100
AcDbLine
 10
-136.9999958896115
 20
-16.00000000000004
 30
0.0
 11
-57.33799332613658
 21
-15.99999999999993
 31
0.0
  0
LINE
  5
897F
330
1F
100
AcDbEntity
  8
AM_0
100
AcDbLine
 10
-57.33799332613662
 20
16.00000000000009
 30
0.0
 11
-136.9999958896116
 21
15.99999999999996
 31
0.0
  0
SPLINE
  5
898B
330
1F
100
AcDbEntity
  8
AM_0
100
AcDbSpline
210
0.0
220
0.0
230
1.0
 70
     8
 71
     3
 72
     9
 73
     5
 74
     3
 42
0.0000000001
 43
0.0000000001
 44
0.0000000001
 40
0.0
 40
0.0
 40
0.0
 40
0.0
 40
4.940456496441111
 40
8.728785993470337
 40
8.728785993470337
 40
8.728785993470337
 40
8.728785993470337
 10
-9.094497384974559
 20
-15.97030258178685
 30
0.0
 10
-7.447700325175816
 20
-15.9788816468783
 30
0.0
 10
-4.53814346134872
 20
-15.99403911729854
 30
0.0
 10
-1.628561654509929
 20
-16.00314916684149
 30
0.0
 10
-0.3657910251105545
 20
-16.00710296630785
 30
0.0
 11
-9.094497384974559
 21
-15.97030258178685
 31
0.0
 11
-4.154098215052542
 21
-15.99410247802684
 31
0.0
 11
-0.3657910251105545
 21
-16.00710296630785
 31
0.0
  0
SPLINE
  5
898C
330
1F
100
AcDbEntity
  8
AM_0
100
AcDbSpline
210
0.0
220
0.0
230
1.0
 70
     8
 71
     3
 72
    10
 73
     6
 74
     4
 42
0.0000000001
 43
0.0000000001
 44
0.0000000001
 40
0.0
 40
0.0
 40
0.0
 40
0.0
 40
0.3889635130426403
 40
0.8392609845878368
 40
1.138834172432851
 40
1.138834172432851
 40
1.138834172432851
 40
1.138834172432851
 10
-9.925899209925535
 20
-15.31440353393485
 30
0.0
 10
-9.882062169413876
 20
-15.4386575201706
 30
0.0
 10
-9.787475616825847
 20
-15.70675856134909
 30
0.0
 10
-9.444400417555934
 20
-15.93937933606141
 30
0.0
 10
-9.194380353637622
 20
-15.96147526308381
 30
0.0
 10
-9.094497384974559
 20
-15.97030258178685
 30
0.0
 11
-9.925899209925535
 21
-15.31440353393485
 31
0.0
 11
-9.760398569056565
 21
-15.66640090942284
 31
0.0
 11
-9.390296640345569
 21
-15.92290115356385
 31
0.0
 11
-9.094497384974559
 21
-15.97030258178685
 31
0.0
  0
SPLINE
  5
8995
330
1F
100
AcDbEntity
  8
AM_0
100
AcDbSpline
210
0.0
220
0.0
230
1.0
 70
     8
 71
     3
 72
     9
 73
     5
 74
     3
 42
0.0000000001
 43
0.0000000001
 44
0.0000000001
 40
0.0
 40
0.0
 40
0.0
 40
0.0
 40
4.940456496441125
 40
8.728785993470351
 40
8.728785993470351
 40
8.728785993470351
 40
8.728785993470351
 10
-9.094497384974626
 20
15.97030067443913
 30
0.0
 10
-7.44770032517588
 20
15.97887973953059
 30
0.0
 10
-4.53814346134878
 20
15.99403720995083
 30
0.0
 10
-1.628561654509983
 20
16.00314725949379
 30
0.0
 10
-0.365791025110609
 20
16.00710105896015
 30
0.0
 11
-9.094497384974626
 21
15.97030067443913
 31
0.0
 11
-4.154098215052597
 21
15.99410057067913
 31
0.0
 11
-0.365791025110609
 21
16.00710105896015
 31
0.0
  0
SPLINE
  5
8996
330
1F
100
AcDbEntity
  8
AM_0
100
AcDbSpline
210
0.0
220
0.0
230
1.0
 70
     8
 71
     3
 72
    10
 73
     6
 74
     4
 42
0.0000000001
 43
0.0000000001
 44
0.0000000001
 40
0.0
 40
0.0
 40
0.0
 40
0.0
 40
0.3889652391227523
 40
0.8392627106679428
 40
1.138835596719252
 40
1.138835596719252
 40
1.138835596719252
 40
1.138835596719252
 10
-9.925899209925628
 20
15.31440162658714
 30
0.0
 10
-9.882062296312797
 20
15.43865626127978
 30
0.0
 10
-9.787476242738975
 20
15.70675806328241
 30
0.0
 10
-9.444400614628824
 20
15.93938006736221
 30
0.0
 10
-9.194380366718192
 20
15.96147411277745
 30
0.0
 10
-9.094497384974626
 20
15.97030067443913
 30
0.0
 11
-9.925899209925628
 21
15.31440162658714
 31
0.0
 11
-9.760398569056604
 21
15.66640090942414
 31
0.0
 11
-9.390296640345608
 21
15.92290115356514
 31
0.0
 11
-9.094497384974626
 21
15.97030067443913
 31
0.0
  0
ELLIPSE
  5
89E9
330
1F
100
AcDbEntity
  8
AM_0
100
AcDbEllipse
 10
-33.53799790377258
 20
0.0000000000001105
 30
0.0
 11
-0.9506069716759736
 21
-14.65019113243699
 31
0.0
210
0.0
220
0.0
230
1.0
 40
0.0623253434878
 41
1.603308377799831
 42
1.869716027055273
  0
ELLIPSE
  5
89EA
330
1F
100
AcDbEntity
  8
AM_0
100
AcDbEllipse
 10
-24.73799485201559
 20
0.000000000000123
 30
0.0
 11
-0.4806443433439825
 21
-14.65011852339299
 31
0.0
210
0.0
220
0.0
230
1.0
 40
0.083981507711
 41
1.164968759586392
 42
1.431602169367623
  0
ELLIPSE
  5
89EB
330
1F
100
AcDbEntity
  8
AM_0
100
AcDbEllipse
 10
-42.33799332613656
 20
0.000000000000098
 30
0.0
 11
-1.245269494029979
 21
-14.65017211332799
 31
0.0
210
0.0
220
0.0
230
1.0
 40
0.0291095780178
 41
2.038941143953806
 42
2.299657223959665
  0
ELLIPSE
  5
89EC
330
1F
100
AcDbEntity
  8
AM_0
100
AcDbEllipse
 10
-24.53900116915358
 20
0.0000000000001236
 30
0.0
 11
186.3283654559569
 21
-14.11194841361572
 31
0.0
210
0.0
220
0.0
230
1.0
 40
0.0199719547422
 41
4.656801469420153
 42
4.691612945275997
  0
ELLIPSE
  5
89ED
330
1F
100
AcDbEntity
  8
AM_0
100
AcDbEllipse
 10
-15.93799942965157
 20
0.0000000000001212
 30
0.0
 11
0.0908818080050224
 21
-14.64971867520199
 31
0.0
210
0.0
220
0.0
230
1.0
 40
0.0898291191454
 41
0.7286607624234167
 42
0.9934265486418636
  0
ELLIPSE
  5
89EE
330
1F
100
AcDbEntity
  8
AM_0
100
AcDbEllipse
 10
-15.73899811739656
 20
-0.0000038146968596
 30
0.0
 11
186.3224316971399
 21
-11.30359080001772
 31
0.0
210
0.0
220
0.0
230
1.0
 40
0.0501486846084
 41
4.658354917769166
 42
4.693159941622153
  0
ELLIPSE
  5
89EF
330
1F
100
AcDbEntity
  8
AM_0
100
AcDbEllipse
 10
-6.938995065638572
 20
0.0000000000001485
 30
0.0
 11
186.3238215673918
 21
-6.261459584157719
 31
0.0
210
0.0
220
0.0
230
1.0
 40
0.071067261967
 41
4.657605974787617
 42
4.692478430676446
  0
ELLIPSE
  5
89F0
330
1F
100
AcDbEntity
  8
AM_0
100
AcDbEllipse
 10
-7.220000925013586
 20
0.0000000000001477
 30
0.0
 11
0.6479917526110272
 21
-14.64967636775999
 31
0.0
210
0.0
220
0.0
230
1.0
 40
0.078627986321
 41
0.2841387620805536
 42
0.5578461679153249
  0
ELLIPSE
  5
89F1
330
1F
100
AcDbEntity
  8
AM_0
100
AcDbEllipse
 10
-11.05399674410458
 20
0.000000000000136
 30
0.0
 11
2.457271162803024
 21
-14.64832282142099
 31
0.0
210
0.0
220
0.0
230
1.0
 40
0.0478691101549
 41
5.906226351885286
 42
5.96110786347823
  0
ELLIPSE
  5
89F2
330
1F
100
AcDbEntity
  8
AM_0
100
AcDbEllipse
 10
1.861007986119425
 20
0.000000000000161
 30
0.0
 11
186.323957149684
 21
-0.1104195334547234
 31
0.0
210
0.0
220
0.0
230
1.0
 40
0.078626475717
 41
4.655339371809407
 42
4.694791613030733
  0
SPLINE
  5
89F3
330
1F
100
AcDbEntity
  8
AM_0
100
AcDbSpline
210
0.0
220
0.0
230
1.0
 70
     8
 71
     3
 72
    11
 73
     7
 74
     5
 42
0.0000000001
 43
0.0000000001
 44
0.0000000001
 40
0.0
 40
0.0
 40
0.0
 40
0.0
 40
0.6304902083577791
 40
1.252653605681637
 40
1.854855361407349
 40
2.428140379045268
 40
2.428140379045268
 40
2.428140379045268
 40
2.428140379045268
 10
-19.08199662203459
 20
11.22999954223712
 30
0.0
 10
-19.29183389719044
 20
11.24450731039793
 30
0.0
 10
-19.70873715095395
 20
11.27333124430859
 30
0.0
 10
-20.31721657941145
 20
11.38893685113018
 30
0.0
 10
-20.89686325633782
 20
11.54542931318353
 30
0.0
 10
-21.25992641201916
 20
11.6936914038151
 30
0.0
 10
-21.4369923495736
 20
11.76599884033312
 30
0.0
 11
-19.08199662203459
 21
11.22999954223712
 31
0.0
 11
-19.70999497408559
 21
11.28599929809611
 31
0.0
 11
-20.32199448580457
 21
11.39799880981511
 31
0.0
 11
-20.90199631685859
 21
11.56000137329212
 31
0.0
 11
-21.4369923495736
 21
11.76599884033312
 31
0.0
  0
ELLIPSE
  5
89F4
330
1F
100
AcDbEntity
  8
AM_0
100
AcDbEllipse
 10
-9.512992563196583
 20
0.0000000000001549
 30
0.0
 11
22.95910076973301
 21
-14.06347952471296
 31
0.0
210
0.0
220
0.0
230
1.0
 40
0.1773510494881
 41
2.222118099142451
 42
2.59875497951829
  0
SPLINE
  5
89F5
330
1F
100
AcDbEntity
  8
AM_0
100
AcDbSpline
210
0.0
220
0.0
230
1.0
 70
     8
 71
     3
 72
    11
 73
     7
 74
     5
 42
0.0000000001
 43
0.0000000001
 44
0.0000000001
 40
0.0
 40
0.0
 40
0.0
 40
0.0
 40
0.6283835627870587
 40
1.241962781306047
 40
1.825059737171276
 40
2.364878991673012
 40
2.364878991673012
 40
2.364878991673012
 40
2.364878991673012
 10
-27.88199967379258
 20
14.15399932861411
 30
0.0
 10
-28.09141606630955
 20
14.15960859255821
 30
0.0
 10
-28.50531512526632
 20
14.17069496951276
 30
0.0
 10
-29.11209845100934
 20
14.2166728060401
 30
0.0
 10
-29.68813694771445
 20
14.27454188328095
 30
0.0
 10
-30.05880448189873
 20
14.32685217040251
 30
0.0
 10
-30.23699540133158
 20
14.35199928283711
 30
0.0
 11
-27.88199967379258
 21
14.15399932861411
 31
0.0
 11
-28.50999802584359
 21
14.17599868774511
 31
0.0
 11
-29.1219975375626
 21
14.2199993133551
 31
0.0
 11
-29.70199936861657
 21
14.27999877929711
 31
0.0
 11
-30.23699540133158
 21
14.35199928283711
 31
0.0
  0
ELLIPSE
  5
89F6
330
1F
100
AcDbEntity
  8
AM_0
100
AcDbEllipse
 10
-18.31299561495459
 20
-0.0000038146968674
 30
0.0
 11
22.64656172112102
 21
-11.83592509922697
 31
0.0
210
0.0
220
0.0
230
1.0
 40
0.3809336953611
 41
2.310314292577298
 42
2.512189605848554
  0
ELLIPSE
  5
89F7
330
1F
100
AcDbEntity
  8
AM_0
100
AcDbEllipse
 10
-18.31300324434957
 20
0.0000000000001282
 30
0.0
 11
-22.64173793617898
 21
-11.84515023004803
 31
0.0
210
0.0
220
0.0
230
1.0
 40
0.3809338446467
 41
0.4544923785210595
 42
0.6301593080974745
  0
ELLIPSE
  5
89F8
330
1F
100
AcDbEntity
  8
AM_0
100
AcDbEllipse
 10
-18.31300324434957
 20
0.0000000000001282
 30
0.0
 11
-22.64173793617898
 21
-11.84515023004803
 31
0.0
210
0.0
220
0.0
230
1.0
 40
0.3809338446467
 41
0.6301593080974745
 42
0.8319215944065639
  0
ELLIPSE
  5
89F9
330
1F
100
AcDbEntity
  8
AM_0
100
AcDbEllipse
 10
-9.512992563196583
 20
0.0000000000001549
 30
0.0
 11
-22.95337072085597
 21
-14.07282974556902
 31
0.0
210
0.0
220
0.0
230
1.0
 40
0.1773510140671
 41
0.5445544687148795
 42
0.8885808234826464
  0
ELLIPSE
  5
89FA
330
1F
100
AcDbEntity
  8
AM_0
100
AcDbEllipse
 10
-14.20700043673156
 20
9.191997528077148
 30
0.0
 11
1.499387727641
 21
-0.0428829289239992
 31
0.0
210
0.0
220
0.0
230
1.0
 40
0.2426667850282
 41
5.32740059963005
 42
6.168763734546128
  0
ELLIPSE
  5
89FB
330
1F
100
AcDbEntity
  8
AM_0
100
AcDbEllipse
 10
-14.19998902315758
 20
9.437000274659155
 30
0.0
 11
1.498155615141001
 21
-0.0743599031170042
 31
0.0
210
0.0
220
0.0
230
1.0
 40
0.4299999817212001
 41
4.292564561809201
 42
5.336929757823662
  0
ELLIPSE
  5
89FC
330
1F
100
AcDbEntity
  8
AM_0
100
AcDbEllipse
 10
-14.20700043673156
 20
9.191997528077148
 30
0.0
 11
1.499387727641
 21
-0.0428829289239992
 31
0.0
210
0.0
220
0.0
230
1.0
 40
0.2426667850282
 41
4.057394525167458
 42
4.282350824970611
  0
ELLIPSE
  5
89FD
330
1F
100
AcDbEntity
  8
AM_0
100
AcDbEllipse
 10
-26.70399826998358
 20
-8.867000579832874
 30
0.0
 11
-5.301277367285985
 21
-7.523971903422006
 31
0.0
210
0.0
220
0.0
230
1.0
 40
0.2694480721261
 41
0.9970494268312199
 42
1.014649378354939
  0
SPLINE
  5
89FE
330
1F
100
AcDbEntity
  8
AM_0
100
AcDbSpline
210
0.0
220
0.0
230
1.0
 70
     8
 71
     3
 72
    11
 73
     7
 74
     5
 42
0.0000000001
 43
0.0000000001
 44
0.0000000001
 40
0.0
 40
0.0
 40
0.0
 40
0.0
 40
0.6283835627870516
 40
1.24196291808766
 40
1.825059677693721
 40
2.364879186598904
 40
2.364879186598904
 40
2.364879186598904
 40
2.364879186598904
 10
-27.88199967379253
 20
-14.1539993286129
 30
0.0
 10
-28.0914160908306
 20
-14.15960829155506
 30
0.0
 10
-28.50531524383597
 20
-14.17069407481808
 30
0.0
 10
-29.11209819858734
 20
-14.2166762224368
 30
0.0
 10
-29.68813724090428
 20
-14.27454062923144
 30
0.0
 10
-30.05880452660289
 20
-14.32685304425494
 30
0.0
 10
-30.23699540133153
 20
-14.35200119018489
 30
0.0
 11
-27.88199967379253
 21
-14.1539993286129
 31
0.0
 11
-28.50999802584353
 21
-14.1759986877439
 31
0.0
 11
-29.12199753756254
 21
-14.22000122070287
 31
0.0
 11
-29.70199936861652
 21
-14.27999877929588
 31
0.0
 11
-30.23699540133153
 21
-14.35200119018489
 31
0.0
  0
ELLIPSE
  5
89FF
330
1F
100
AcDbEntity
  8
AM_0
100
AcDbEllipse
 10
-14.20499390597059
 20
9.273998260499137
 30
0.0
 11
-0.3547000703839882
 21
-7.117166292227004
 31
0.0
210
0.0
220
0.0
230
1.0
 40
0.2095142905284
 41
1.504079073778213
 42
1.568946788561706
  0
ELLIPSE
  5
8A00
330
1F
100
AcDbEntity
  8
AM_0
100
AcDbEllipse
 10
-5.420989694544594
 20
9.00899887085016
 30
0.0
 11
1.499385821072991
 21
-0.0428828743949957
 31
0.0
210
0.0
220
0.0
230
1.0
 40
0.1900000739098
 41
0.1475889316261714
 42
3.141593113709648
  0
SPLINE
  5
8A01
330
1F
100
AcDbEntity
  8
AM_0
100
AcDbSpline
210
0.0
220
0.0
230
1.0
 70
     8
 71
     3
 72
    11
 73
     7
 74
     5
 42
0.0000000001
 43
0.0000000001
 44
0.0000000001
 40
0.0
 40
0.0
 40
0.0
 40
0.0
 40
0.2445238706964873
 40
0.5506869269577721
 40
0.8994958573567338
 40
1.276146893215477
 40
1.276146893215477
 40
1.276146893215477
 40
1.276146893215477
 10
-12.75199479097957
 20
7.570999145508126
 30
0.0
 10
-12.67406166725465
 20
7.544791488766854
 30
0.0
 10
-12.49855016283564
 20
7.485769791161184
 30
0.0
 10
-12.19363704077653
 20
7.510512798144223
 30
0.0
 10
-11.85764363167614
 20
7.59409633223507
 30
0.0
 10
-11.64855393416125
 20
7.718442005672134
 30
0.0
 10
-11.53999680514058
 20
7.783000946045127
 30
0.0
 11
-12.75199479097957
 21
7.570999145508126
 31
0.0
 11
-12.51599472994459
 21
7.506999969483135
 31
0.0
 11
-12.20999497408558
 21
7.516998291016141
 31
0.0
 11
-11.8729969882456
 21
7.606998443604146
 31
0.0
 11
-11.53999680514058
 21
7.783000946045127
 31
0.0
  0
ELLIPSE
  5
8A02
330
1F
100
AcDbEntity
  8
AM_0
100
AcDbEllipse
 10
-10.14899415011056
 20
0.000000000000153
 30
0.0
 11
1.280707017937018
 21
-14.64912326012699
 31
0.0
210
0.0
220
0.0
230
1.0
 40
0.126487688165
 41
0.0474180762144125
 42
0.2479512041180376
  0
ELLIPSE
  5
8A03
330
1F
100
AcDbEntity
  8
AM_0
100
AcDbEllipse
 10
-5.404998483606598
 20
9.582000732422153
 30
0.0
 11
-0.3441732233099827
 21
-7.853461132409997
 31
0.0
210
0.0
220
0.0
230
1.0
 40
0.1901791612251
 41
1.49508060203262
 42
1.540944701375599
  0
ELLIPSE
  5
8A04
330
1F
100
AcDbEntity
  8
AM_0
100
AcDbEllipse
 10
-5.404998483606598
 20
9.582000732422153
 30
0.0
 11
-0.3441732233099827
 21
-7.853461132409997
 31
0.0
210
0.0
220
0.0
230
1.0
 40
0.1901791612251
 41
4.752473883517673
 42
4.788176853779751
  0
ELLIPSE
  5
8A05
330
1F
100
AcDbEntity
  8
AM_0
100
AcDbEllipse
 10
-14.20399826998359
 20
12.45299911499114
 30
0.0
 11
0.0838164108570121
 21
-5.512363303797996
 31
0.0
210
0.0
220
0.0
230
1.0
 40
0.9042264046498999
 41
0.5467083358315179
 42
0.9706504486121684
  0
ELLIPSE
  5
8A06
330
1F
100
AcDbEntity
  8
AM_0
100
AcDbEllipse
 10
-11.32999772066759
 20
7.610996246338139
 30
0.0
 11
-0.4308929002629958
 21
-0.6740398403140027
 31
0.0
210
0.0
220
0.0
230
1.0
 40
0.06750014212
 41
0.0307894944405937
 42
1.610511456213986
  0
ELLIPSE
  5
8A07
330
1F
100
AcDbEntity
  8
AM_0
100
AcDbEllipse
 10
-9.262992563196604
 20
6.958000183106149
 30
0.0
 11
-0.035026553069996
 21
-0.7992324989949965
 31
0.0
210
0.0
220
0.0
230
1.0
 40
0.0787441307095
 41
0.0
 42
1.570796461655353
  0
SPLINE
  5
8A08
330
1F
100
AcDbEntity
  8
AM_0
100
AcDbSpline
210
0.0
220
0.0
230
1.0
 70
     8
 71
     3
 72
    11
 73
     7
 74
     5
 42
0.0000000001
 43
0.0000000001
 44
0.0000000001
 40
0.0
 40
0.0
 40
0.0
 40
0.0
 40
0.306235000431328
 40
0.566392950899397
 40
0.7394192675824629
 40
0.8004490205511091
 40
0.8004490205511091
 40
0.8004490205511091
 40
0.8004490205511091
 10
-1.302993478724571
 20
6.610000610352168
 30
0.0
 10
-1.307142453994536
 20
6.508000019724767
 30
0.0
 10
-1.314816137091028
 20
6.319346157698666
 30
0.0
 10
-1.322842793074464
 20
6.073069785537141
 30
0.0
 10
-1.32886737056578
 20
5.908303935014232
 30
0.0
 10
-1.32579719580491
 20
5.830332343464866
 30
0.0
 10
-1.32499665255258
 20
5.81000137329216
 30
0.0
 11
-1.302993478724571
 21
6.610000610352168
 31
0.0
 11
-1.314994516321588
 21
6.304000854493163
 31
0.0
 11
-1.323997201868589
 21
6.043998718262153
 31
0.0
 11
-1.326995553919583
 21
5.870998382569164
 31
0.0
 11
-1.32499665255258
 21
5.81000137329216
 31
0.0
  0
ELLIPSE
  5
8A09
330
1F
100
AcDbEntity
  8
AM_0
100
AcDbEllipse
 10
-13.46699494356758
 20
8.463001251221141
 30
0.0
 11
5.673536454210005
 21
-3.222829349416987
 31
0.0
210
0.0
220
0.0
230
1.0
 40
0.0655937269803
 41
4.558681729148912
 42
4.876120876951988
  0
ELLIPSE
  5
8A0A
330
1F
100
AcDbEntity
  8
AM_0
100
AcDbEllipse
 10
-17.9039990329236
 20
11.04599761962913
 30
0.0
 11
5.672666656281005
 21
-3.222337053112992
 31
0.0
210
0.0
220
0.0
230
1.0
 40
0.0656039035804
 41
4.540610585728548
 42
4.558657753573525
  0
ELLIPSE
  5
8A0B
330
1F
100
AcDbEntity
  8
AM_0
100
AcDbEllipse
 10
-0.7129971408335721
 20
0.000000000000139
 30
0.0
 11
23.08068339903202
 21
-14.65087922136996
 31
0.0
210
0.0
220
0.0
230
0.9999999999999998
 40
0.0210329791736
 41
3.804548946743133
 42
4.18942199315215
  0
SPLINE
  5
8A0C
330
1F
100
AcDbEntity
  8
AM_0
100
AcDbSpline
210
0.0
220
0.0
230
1.0
 70
     8
 71
     3
 72
    11
 73
     7
 74
     5
 42
0.0000000001
 43
0.0000000001
 44
0.0000000001
 40
0.0
 40
0.0
 40
0.0
 40
0.0
 40
0.6558551497754614
 40
1.310214349193936
 40
1.958485199067458
 40
2.594192541387561
 40
2.594192541387561
 40
2.594192541387561
 40
2.594192541387561
 10
-10.19199723238659
 20
6.197998046875151
 30
0.0
 10
-10.4103152543331
 20
6.215352171025871
 30
0.0
 10
-10.846453333206
 20
6.250020836031777
 30
0.0
 10
-11.48076487927398
 20
6.414833000167245
 30
0.0
 10
-12.08649223883138
 20
6.646664077545219
 30
0.0
 10
-12.45469630239864
 20
6.86626994390843
 30
0.0
 10
-12.63699692721058
 20
6.974998474122134
 30
0.0
 11
-10.19199723238659
 21
6.197998046875151
 31
0.0
 11
-10.8439976596326
 21
6.269001007081137
 31
0.0
 11
-11.47899598116558
 21
6.426998138428139
 31
0.0
 11
-12.08199662203458
 21
6.665000915528144
 31
0.0
 11
-12.63699692721058
 21
6.974998474122134
 31
0.0
  0
SPLINE
  5
8A0D
330
1F
100
AcDbEntity
  8
AM_0
100
AcDbSpline
210
0.0
220
0.0
230
1.0
 70
     8
 71
     3
 72
    11
 73
     7
 74
     5
 42
0.0000000001
 43
0.0000000001
 44
0.0000000001
 40
0.0
 40
0.0
 40
0.0
 40
0.0
 40
0.1979416781761211
 40
0.3611577312577061
 40
0.4780011057090623
 40
0.5501137817085282
 40
0.5501137817085282
 40
0.5501137817085282
 40
0.5501137817085282
 10
-8.944991769739537
 20
-13.94599914550685
 30
0.0
 10
-8.879326567630966
 20
-13.95548239488023
 30
0.0
 10
-8.759516047508926
 20
-13.97278521286276
 30
0.0
 10
-8.609738013112403
 20
-14.02014245869616
 30
0.0
 10
-8.494894206579651
 20
-14.06711463285992
 30
0.0
 10
-8.463845064514524
 20
-14.12348675394799
 30
0.0
 10
-8.451995553919537
 20
-14.14500045776286
 30
0.0
 11
-8.944991769739537
 21
-13.94599914550685
 31
0.0
 11
-8.749992074915546
 21
-13.97999954223585
 31
0.0
 11
-8.593993844935559
 21
-14.02799987792886
 31
0.0
 11
-8.491996469446538
 21
-14.08499908447186
 31
0.0
 11
-8.451995553919537
 21
-14.14500045776286
 31
0.0
  0
SPLINE
  5
8A0E
330
1F
100
AcDbEntity
  8
AM_0
100
AcDbSpline
210
0.0
220
0.0
230
1.0
 70
     8
 71
     3
 72
    11
 73
     7
 74
     5
 42
0.0000000001
 43
0.0000000001
 44
0.0000000001
 40
0.0
 40
0.0
 40
0.0
 40
0.0
 40
0.0070709599371338
 40
0.0141419198732952
 40
0.022203534144763
 40
0.0298186301891092
 40
0.0298186301891092
 40
0.0298186301891092
 40
0.0298186301891092
 10
-8.451995553919537
 20
-14.14500045776286
 30
0.0
 10
-8.451471009738577
 20
-14.14733710959142
 30
0.0
 10
-8.450421921376729
 20
-14.15201041324821
 30
0.0
 10
-8.452380778237372
 20
-14.15928502376988
 30
0.0
 10
-8.452337159562507
 20
-14.1670129188097
 30
0.0
 10
-8.454797988137473
 20
-14.17171547803399
 30
0.0
 10
-8.455993356653543
 20
-14.17399978637585
 30
0.0
 11
-8.451995553919537
 21
-14.14500045776286
 31
0.0
 11
-8.450996103235546
 21
-14.15200042724585
 31
0.0
 11
-8.451995553919537
 21
-14.15900039672786
 31
0.0
 11
-8.452995004603529
 21
-14.16699981689386
 31
0.0
 11
-8.455993356653543
 21
-14.17399978637585
 31
0.0
  0
SPLINE
  5
8A0F
330
1F
100
AcDbEntity
  8
AM_0
100
AcDbSpline
210
0.0
220
0.0
230
1.0
 70
     8
 71
     3
 72
    11
 73
     7
 74
     5
 42
0.0000000001
 43
0.0000000001
 44
0.0000000001
 40
0.0
 40
0.0
 40
0.0
 40
0.0
 40
0.6281774525312062
 40
1.241066076005467
 40
1.823394102487042
 40
2.36376892697637
 40
2.36376892697637
 40
2.36376892697637
 40
2.36376892697637
 10
-36.68199509615552
 20
-14.42499923705991
 30
0.0
 10
-36.8913785364076
 20
-14.42135835187615
 30
0.0
 10
-37.30504936067405
 20
-14.41416519479932
 30
0.0
 10
-37.91194964822224
 20
-14.38021804333622
 30
0.0
 10
-38.48891594779185
 20
-14.33327011212756
 30
0.0
 10
-38.85891297219102
 20
-14.27638180208963
 30
0.0
 10
-39.03699845308952
 20
-14.24900054931588
 30
0.0
 11
-36.68199509615552
 21
-14.42499923705991
 31
0.0
 11
-37.30999344820653
 21
-14.40999984741189
 31
0.0
 11
-37.92199295992554
 21
-14.37699890136689
 31
0.0
 11
-38.5019947909795
 21
-14.3250007629389
 31
0.0
 11
-39.03699845308952
 21
-14.24900054931588
 31
0.0
  0
ELLIPSE
  5
8A10
330
1F
100
AcDbEntity
  8
AM_0
100
AcDbEllipse
 10
-35.50399369234756
 20
-5.026000976561897
 30
0.0
 11
-4.614898177558981
 21
-11.527557225187
 31
0.0
210
0.0
220
0.0
230
1.0
 40
0.2865427916554
 41
0.7402083994439659
 42
0.7582345373429104
  0
SPLINE
  5
8A11
330
1F
100
AcDbEntity
  8
AM_0
100
AcDbSpline
210
0.0
220
0.0
230
1.0
 70
     8
 71
     3
 72
    11
 73
     7
 74
     5
 42
0.0000000001
 43
0.0000000001
 44
0.0000000001
 40
0.0
 40
0.0
 40
0.0
 40
0.0
 40
0.6465594334759595
 40
1.38162804500133
 40
2.012858903847312
 40
2.401681385357379
 40
2.401681385357379
 40
2.401681385357379
 40
2.401681385357379
 10
-11.09099549288455
 20
-13.11400222778285
 30
0.0
 10
-10.88550695692478
 20
-13.04051663640609
 30
0.0
 10
-10.44640003262863
 20
-12.8834858226976
 30
0.0
 10
-9.776521806610054
 20
-12.92384993116971
 30
0.0
 10
-9.161492842228122
 20
-13.03923345058058
 30
0.0
 10
-8.954060746243506
 20
-13.31998534522325
 30
0.0
 10
-8.874992074915576
 20
-13.42700195312487
 30
0.0
 11
-11.09099549288455
 21
-13.11400222778285
 31
0.0
 11
-10.46999711031556
 21
-12.93400192260685
 31
0.0
 11
-9.734996499964548
 21
-12.94400024413985
 31
0.0
 11
-9.133994760462567
 21
-13.13700103759684
 31
0.0
 11
-8.874992074915576
 21
-13.42700195312487
 31
0.0
  0
SPLINE
  5
8A12
330
1F
100
AcDbEntity
  8
AM_0
100
AcDbSpline
210
0.0
220
0.0
230
1.0
 70
     8
 71
     3
 72
    11
 73
     7
 74
     5
 42
0.0000000001
 43
0.0000000001
 44
0.0000000001
 40
0.0
 40
0.0
 40
0.0
 40
0.0
 40
0.0680263531804164
 40
0.1393374521126607
 40
0.2189888126960298
 40
0.3116042778953952
 40
0.3116042778953952
 40
0.3116042778953952
 40
0.3116042778953952
 10
-8.874992074915576
 20
-13.42700195312487
 30
0.0
 10
-8.873907799104921
 20
-13.44994260175626
 30
0.0
 10
-8.871686891739168
 20
-13.49693161969806
 30
0.0
 10
-8.902825237941547
 20
-13.56534194444479
 30
0.0
 10
-8.954467611591969
 20
-13.62888309523701
 30
0.0
 10
-9.001634346077464
 20
-13.66212729388166
 30
0.0
 10
-9.026992502161554
 20
-13.68000030517484
 30
0.0
 11
-8.874992074915576
 21
-13.42700195312487
 31
0.0
 11
-8.876990976282538
 21
-13.49499893188387
 31
0.0
 11
-8.903991403528545
 21
-13.56100082397385
 31
0.0
 11
-8.953994455286556
 21
-13.62300109863185
 31
0.0
 11
-9.026992502161554
 21
-13.68000030517484
 31
0.0
  0
ELLIPSE
  5
8A13
330
1F
100
AcDbEntity
  8
AM_0
100
AcDbEllipse
 10
-27.11299866671257
 20
-0.0000038146968798
 30
0.0
 11
-22.769926309194
 21
-6.695764849588033
 31
0.0
210
0.0
220
0.0
230
1.0
 40
0.5721748675528
 41
0.4837215896792209
 42
0.8615235091410051
  0
ELLIPSE
  5
8A14
330
1F
100
AcDbEntity
  8
AM_0
100
AcDbEllipse
 10
-31.06699723238657
 20
0.524997711182114
 30
0.0
 11
-4.614898886443984
 21
-11.527558995911
 31
0.0
210
0.0
220
0.0
230
1.0
 40
0.2865428052432
 41
0.7582344548029978
 42
1.02981157598905
  0
SPLINE
  5
8A15
330
1F
100
AcDbEntity
  8
AM_0
100
AcDbSpline
210
0.0
220
0.0
230
1.0
 70
     8
 71
     3
 72
    11
 73
     7
 74
     5
 42
0.0000000001
 43
0.0000000001
 44
0.0000000001
 40
0.0
 40
0.0
 40
0.0
 40
0.0
 40
0.4384808595388851
 40
0.9352103881663039
 40
1.542182451119709
 40
2.27867846563628
 40
2.27867846563628
 40
2.27867846563628
 40
2.27867846563628
 10
-3.041991891810565
 20
-12.28300094604383
 30
0.0
 10
-3.044397972169559
 20
-12.13554697374698
 30
0.0
 10
-3.049529761385762
 20
-11.82105095033234
 30
0.0
 10
-3.273919764057985
 20
-11.34266006640093
 30
0.0
 10
-3.756652031543585
 20
-10.91293778714034
 30
0.0
 10
-4.2135324362382
 20
-10.8677658205465
 30
0.0
 10
-4.463996591517559
 20
-10.84300231933486
 30
0.0
 11
-3.041991891810565
 21
-12.28300094604383
 31
0.0
 11
-3.077995004603563
 21
-11.84600067138582
 31
0.0
 11
-3.283996286341562
 21
-11.39400100707984
 31
0.0
 11
-3.743995370813566
 21
-10.99800109863183
 31
0.0
 11
-4.463996591517559
 21
-10.84300231933486
 31
0.0
  0
SPLINE
  5
8A16
330
1F
100
AcDbEntity
  8
AM_0
100
AcDbSpline
210
0.0
220
0.0
230
1.0
 70
     8
 71
     3
 72
    11
 73
     7
 74
     5
 42
0.0000000001
 43
0.0000000001
 44
0.0000000001
 40
0.0
 40
0.0
 40
0.0
 40
0.0
 40
0.7744943898825438
 40
1.421718077432068
 40
1.961767098086989
 40
2.428504153373736
 40
2.428504153373736
 40
2.428504153373736
 40
2.428504153373736
 10
-4.463996591517559
 20
-10.84300231933486
 30
0.0
 10
-4.72240964800707
 20
-10.89334690851897
 30
0.0
 10
-5.196771397627141
 20
-10.98576308800196
 30
0.0
 10
-5.696755586719032
 20
-11.44323826579739
 30
0.0
 10
-5.981984493176379
 20
-11.92632000065548
 30
0.0
 10
-6.038701170162978
 20
-12.25952882326104
 30
0.0
 10
-6.06499451632156
 20
-12.41400146484284
 30
0.0
 11
-4.463996591517559
 21
-10.84300231933486
 31
0.0
 11
-5.205993356653565
 21
-11.06499862670783
 31
0.0
 11
-5.694991769739558
 21
-11.48900222778285
 31
0.0
 11
-5.960990610071561
 21
-11.95899963378885
 31
0.0
 11
-6.06499451632156
 21
-12.41400146484284
 31
0.0
  0
ELLIPSE
  5
8A17
330
1F
100
AcDbEntity
  8
AM_0
100
AcDbEllipse
 10
-4.207000436731568
 20
0.0000000000001426
 30
0.0
 11
0.6479917526100181
 21
-14.64967636775999
 31
0.0
210
0.0
220
0.0
230
1.0
 40
0.078627986321
 41
0.2722575232778408
 42
0.5759687417306269
  0
SPLINE
  5
8A18
330
1F
100
AcDbEntity
  8
AM_0
100
AcDbSpline
210
0.0
220
0.0
230
1.0
 70
     8
 71
     3
 72
    11
 73
     7
 74
     5
 42
0.0000000001
 43
0.0000000001
 44
0.0000000001
 40
0.0
 40
0.0
 40
0.0
 40
0.0
 40
0.2866999740599378
 40
0.5876851462174879
 40
0.896916217741049
 40
1.207517541425665
 40
1.207517541425665
 40
1.207517541425665
 40
1.207517541425665
 10
-38.17799729342155
 20
-2.883998870848886
 30
0.0
 10
-38.2725988068684
 20
-2.901255151618789
 30
0.0
 10
-38.46651547688099
 20
-2.936627529731771
 30
0.0
 10
-38.73165377083147
 20
-3.08188467446053
 30
0.0
 10
-38.97767165136129
 20
-3.271034747243324
 30
0.0
 10
-39.09380251889653
 20
-3.443550309610222
 30
0.0
 10
-39.15199631685858
 20
-3.529998779295899
 30
0.0
 11
-38.17799729342155
 21
-2.883998870848886
 31
0.0
 11
-38.45699662203456
 21
-2.950000762938902
 31
0.0
 11
-38.7249943637336
 21
-3.0870018005369
 31
0.0
 11
-38.96499222750359
 21
-3.282001495360892
 31
0.0
 11
-39.15199631685858
 21
-3.529998779295899
 31
0.0
  0
SPLINE
  5
8A19
330
1F
100
AcDbEntity
  8
AM_0
100
AcDbSpline
210
0.0
220
0.0
230
1.0
 70
     8
 71
     3
 72
    11
 73
     7
 74
     5
 42
0.0000000001
 43
0.0000000001
 44
0.0000000001
 40
0.0
 40
0.0
 40
0.0
 40
0.0
 40
0.0592272668915979
 40
0.1185297370155961
 40
0.1785605844518661
 40
0.2396388625425392
 40
0.2396388625425392
 40
0.2396388625425392
 40
0.2396388625425392
 10
-37.93999833101956
 20
-2.90100097656189
 30
0.0
 10
-37.95925538012318
 20
-2.896531196330909
 30
0.0
 10
-37.99779392977677
 20
-2.887585960410006
 30
0.0
 10
-38.0572234850582
 20
-2.882607300407673
 30
0.0
 10
-38.11735501689179
 20
-2.879853190409428
 30
0.0
 10
-38.15766698651564
 20
-2.88260903259592
 30
0.0
 10
-38.17799729342155
 20
-2.883998870848886
 30
0.0
 11
-37.93999833101956
 21
-2.90100097656189
 31
0.0
 11
-37.99799698824557
 21
-2.888999938963892
 31
0.0
 11
-38.05699509615559
 21
-2.882999420165889
 31
0.0
 11
-38.11699265474956
 21
-2.881000518797892
 31
0.0
 11
-38.17799729342155
 21
-2.883998870848886
 31
0.0
  0
ELLIPSE
  5
8A1A
330
1F
100
AcDbEntity
  8
AM_0
100
AcDbEllipse
 10
-40.49799698824557
 20
-1.003002166747914
 30
0.0
 11
-0.0677566416050002
 21
-0.7971248381210005
 31
0.0
210
0.0
220
0.0
230
1.0
 40
0.028751632051
 41
4.33452835887223
 42
4.883797102186886
  0
ELLIPSE
  5
8A1B
330
1F
100
AcDbEntity
  8
AM_0
100
AcDbEllipse
 10
-40.43199509615559
 20
-1.736000061034909
 30
0.0
 11
4.983368084357996
 21
-0.4075124263949874
 31
0.0
210
0.0
220
0.0
230
1.0
 40
0.2808000179291
 41
0.2581468635177023
 42
0.3142807175752591
  0
ELLIPSE
  5
8A1C
330
1F
100
AcDbEntity
  8
AM_0
100
AcDbEllipse
 10
-40.43199509615559
 20
-1.736000061034909
 30
0.0
 11
4.983368084357996
 21
-0.4075124263949874
 31
0.0
210
0.0
220
0.0
230
1.0
 40
0.2808000179291
 41
0.2032583092286603
 42
0.2581468635177023
  0
ELLIPSE
  5
8A1D
330
1F
100
AcDbEntity
  8
AM_0
100
AcDbEllipse
 10
-40.31499833101956
 20
-0.2739982604979142
 30
0.0
 11
4.984168995922996
 21
-0.3975428864919904
 31
0.0
210
0.0
220
0.0
230
1.0
 40
0.1764004664995001
 41
4.682865805970021
 42
6.076737391609894
  0
ELLIPSE
  5
8A1E
330
1F
100
AcDbEntity
  8
AM_0
100
AcDbEllipse
 10
-39.86699265474959
 20
5.331001281739096
 30
0.0
 11
-4.149467737336979
 21
-13.519545631458
 31
0.0
210
0.0
220
0.0
230
1.0
 40
0.2862394693412
 41
0.6306584170185829
 42
0.9476136218973778
  0
ELLIPSE
  5
8A1F
330
1F
100
AcDbEntity
  8
AM_0
100
AcDbEllipse
 10
-40.60399216646858
 20
-3.89200210571189
 30
0.0
 11
4.983367706265999
 21
-0.4075111994049932
 31
0.0
210
0.0
220
0.0
230
1.0
 40
0.2807996632387
 41
0.6586806763878496
 42
1.030745242885427
  0
ELLIPSE
  5
8A20
330
1F
100
AcDbEntity
  8
AM_0
100
AcDbEllipse
 10
-44.27999466890958
 20
0.0629997253420881
 30
0.0
 11
4.984168806358995
 21
-0.3975452631289897
 31
0.0
210
0.0
220
0.0
230
1.0
 40
0.1764000850296
 41
3.897435562011479
 42
4.376529046796288
  0
SPLINE
  5
8A21
330
1F
100
AcDbEntity
  8
AM_0
100
AcDbSpline
210
0.0
220
0.0
230
1.0
 70
     8
 71
     3
 72
    11
 73
     7
 74
     5
 42
0.0000000001
 43
0.0000000001
 44
0.0000000001
 40
0.0
 40
0.0
 40
0.0
 40
0.0
 40
0.9661872900211978
 40
1.896555143100171
 40
2.768335315308249
 40
3.577539799728669
 40
3.577539799728669
 40
3.577539799728669
 40
3.577539799728669
 10
-45.48199814791356
 20
-11.99399948120089
 30
0.0
 10
-45.80375079907453
 20
-11.96994867771205
 30
0.0
 10
-46.43532777350571
 20
-11.92273870556322
 30
0.0
 10
-47.33326276553324
 20
-11.69721584847845
 30
0.0
 10
-48.14619181864683
 20
-11.36247343086628
 30
0.0
 10
-48.58888906041405
 20
-11.01518147321172
 30
0.0
 10
-48.80199784273756
 20
-10.84799957275293
 30
0.0
 11
-45.48199814791356
 21
-11.99399948120089
 31
0.0
 11
-46.44299668306956
 21
-11.8940010070799
 31
0.0
 11
-47.34599656099956
 21
-11.6700019836419
 31
0.0
 11
-48.14399308199558
 21
-11.31900024413992
 31
0.0
 11
-48.80199784273756
 21
-10.84799957275293
 31
0.0
  0
ELLIPSE
  5
8A22
330
1F
100
AcDbEntity
  8
AM_0
100
AcDbEllipse
 10
-44.30399674410457
 20
-0.2430000305169034
 30
0.0
 11
-4.149467737337979
 21
-13.519545631457
 31
0.0
210
0.0
220
0.0
230
1.0
 40
0.2862394019056
 41
0.6114422119768081
 42
0.630658493778229
  0
ELLIPSE
  5
8A23
330
1F
100
AcDbEntity
  8
AM_0
100
AcDbEllipse
 10
-45.06799668306957
 20
0.950000762940097
 30
0.0
 11
-1.429397640794997
 21
-0.6590137616429979
 31
0.0
210
0.0
220
0.0
230
1.0
 40
0.8398981616551999
 41
5.353743713395664
 42
5.900330647789526
  0
ELLIPSE
  5
8A24
330
1F
100
AcDbEntity
  8
AM_0
100
AcDbEllipse
 10
-58.75499695772861
 20
0.0000000000000625
 30
0.0
 11
186.3197116510419
 21
-14.48614471349571
 31
0.0
210
0.0
220
0.0
230
1.0
 40
0.013837617225
 41
1.50539661516673
 42
1.541414429247356
  0
ELLIPSE
  5
8A25
330
1F
100
AcDbEntity
  8
AM_0
100
AcDbEllipse
 10
-44.21699875826557
 20
0.847999572754098
 30
0.0
 11
4.186706374742995
 21
-0.3339343679729946
 31
0.0
210
0.0
220
0.0
230
1.0
 40
0.1764286571457
 41
3.897354723705308
 42
4.365642197664078
  0
SPLINE
  5
8A26
330
1F
100
AcDbEntity
  8
AM_0
100
AcDbSpline
210
0.0
220
0.0
230
1.0
 70
     8
 71
     3
 72
    11
 73
     7
 74
     5
 42
0.0000000001
 43
0.0000000001
 44
0.0000000001
 40
0.0
 40
0.0
 40
0.0
 40
0.0
 40
0.3601889870488652
 40
0.724325476322508
 40
1.090840267181771
 40
1.458285884433877
 40
1.458285884433877
 40
1.458285884433877
 40
1.458285884433877
 10
-54.19699448580457
 20
1.443000793458087
 30
0.0
 10
-54.17111192915755
 20
1.564248615772678
 30
0.0
 10
-54.11906315519199
 20
1.808073079620511
 30
0.0
 10
-53.80711891005759
 20
2.036759297402353
 30
0.0
 10
-53.45799693389522
 20
2.156458827530409
 30
0.0
 10
-53.21143209522587
 20
2.154819854447999
 30
0.0
 10
-53.08799332613657
 20
2.153999328614085
 30
0.0
 11
-54.19699448580457
 21
1.443000793458087
 31
0.0
 11
-54.08099717135158
 21
1.784000396729088
 31
0.0
 11
-53.80199784273758
 21
2.017997741700078
 31
0.0
 11
-53.45499772066758
 21
2.135997772217088
 31
0.0
 11
-53.08799332613657
 21
2.153999328614085
 31
0.0
  0
ELLIPSE
  5
8A27
330
1F
100
AcDbEntity
  8
AM_0
100
AcDbEllipse
 10
-40.6859928988906
 20
0.0000000000000888
 30
0.0
 11
6.172729576826018
 21
-13.59529826087698
 31
0.0
210
0.0
220
0.0
230
1.0
 40
0.8841339584538998
 41
4.23216325264956
 42
5.164793963701839
  0
SPLINE
  5
8A28
330
1F
100
AcDbEntity
  8
AM_0
100
AcDbSpline
210
0.0
220
0.0
230
1.0
 70
     8
 71
     3
 72
    11
 73
     7
 74
     5
 42
0.0000000001
 43
0.0000000001
 44
0.0000000001
 40
0.0
 40
0.0
 40
0.0
 40
0.0
 40
1.26784705453354
 40
2.606446571041998
 40
3.972246229299009
 40
5.271173231598862
 40
5.271173231598862
 40
5.271173231598862
 40
5.271173231598862
 10
-11.76299637789456
 20
-7.800998687743863
 30
0.0
 10
-11.77116404081249
 20
-7.372752461620533
 30
0.0
 10
-11.78795516473376
 20
-6.492361641884396
 30
0.0
 10
-12.98256998315672
 20
-5.367952061384057
 30
0.0
 10
-14.38958081824475
 20
-6.230762804783434
 30
0.0
 10
-14.61776383962804
 20
-7.09750501737423
 30
0.0
 10
-14.72899216646857
 20
-7.520000457762864
 30
0.0
 11
-11.76299637789456
 21
-7.800998687743863
 31
0.0
 11
-11.96899765963253
 21
-6.549999237059857
 31
0.0
 11
-13.00799530977856
 21
-5.706001281737865
 31
0.0
 11
-14.22699326510157
 21
-6.321998596190854
 31
0.0
 11
-14.72899216646857
 21
-7.520000457762864
 31
0.0
  0
SPLINE
  5
8A29
330
1F
100
AcDbEntity
  8
AM_0
100
AcDbSpline
210
0.0
220
0.0
230
1.0
 70
     8
 71
     3
 72
    11
 73
     7
 74
     5
 42
0.0000000001
 43
0.0000000001
 44
0.0000000001
 40
0.0
 40
0.0
 40
0.0
 40
0.0
 40
0.1246171785173219
 40
0.2476595866949519
 40
0.3703519450463068
 40
0.4926120083803913
 40
0.4926120083803913
 40
0.4926120083803913
 40
0.4926120083803913
 10
-14.72899216646857
 20
-7.520000457762864
 30
0.0
 10
-14.73596001786126
 20
-7.560956631364683
 30
0.0
 10
-14.74980766885605
 20
-7.642351420971666
 30
0.0
 10
-14.76520413818413
 20
-7.764852822251373
 30
0.0
 10
-14.77916816114315
 20
-7.886758419483196
 30
0.0
 10
-14.78372473581759
 20
-7.968300022264887
 30
0.0
 10
-14.78599900240556
 20
-8.008998870848859
 30
0.0
 11
-14.72899216646857
 21
-7.520000457762864
 31
0.0
 11
-14.74899643892958
 21
-7.64300155639586
 31
0.0
 11
-14.76499527926157
 21
-7.764999389647856
 31
0.0
 11
-14.77799576754256
 21
-7.887001037596862
 31
0.0
 11
-14.78599900240556
 21
-8.008998870848859
 31
0.0
  0
ELLIPSE
  5
8A2A
330
1F
100
AcDbEntity
  8
AM_0
100
AcDbEllipse
 10
-13.56999939913456
 20
-9.506999969481867
 30
0.0
 11
1.475065253188993
 21
-0.2723692387759989
 31
0.0
210
0.0
220
0.0
230
1.0
 40
0.9020005612369999
 41
0.2086131440806734
 42
2.732713275932037
  0
ELLIPSE
  5
8A2B
330
1F
100
AcDbEntity
  8
AM_0
100
AcDbEllipse
 10
-28.65399521822659
 20
0.0000000000000969
 30
0.0
 11
2.142197217571025
 21
-14.64919975137099
 31
0.0
210
0.0
220
0.0
230
1.0
 40
0.0942924867669
 41
1.170078197804425
 42
1.224890291547026
  0
SPLINE
  5
8A2C
330
1F
100
AcDbEntity
  8
AM_0
100
AcDbSpline
210
0.0
220
0.0
230
1.0
 70
     8
 71
     3
 72
    11
 73
     7
 74
     5
 42
0.0000000001
 43
0.0000000001
 44
0.0000000001
 40
0.0
 40
0.0
 40
0.0
 40
0.0
 40
0.6152043330053494
 40
1.234943632488702
 40
1.852969686262474
 40
2.462761191481766
 40
2.462761191481766
 40
2.462761191481766
 40
2.462761191481766
 10
-28.69099778170257
 20
-3.427001953124902
 30
0.0
 10
-28.53075081689363
 20
-3.291912990117879
 30
0.0
 10
-28.20907562996883
 20
-3.020739258505729
 30
0.0
 10
-27.56158713326408
 20
-2.966144756230084
 30
0.0
 10
-26.95176699455661
 20
-3.185044386835403
 30
0.0
 10
-26.71205190870564
 20
-3.527782244829221
 30
0.0
 10
-26.59299820894855
 20
-3.698001861571863
 30
0.0
 11
-28.69099778170257
 21
-3.427001953124902
 31
0.0
 11
-28.18299454683958
 21
-3.080001831053892
 31
0.0
 11
-27.56699723238656
 21
-3.012001037596887
 31
0.0
 11
-26.99099320406557
 21
-3.236000061034882
 31
0.0
 11
-26.59299820894855
 21
-3.698001861571863
 31
0.0
  0
SPLINE
  5
8A2D
330
1F
100
AcDbEntity
  8
AM_0
100
AcDbSpline
210
0.0
220
0.0
230
1.0
 70
     8
 71
     3
 72
    11
 73
     7
 74
     5
 42
0.0000000001
 43
0.0000000001
 44
0.0000000001
 40
0.0
 40
0.0
 40
0.0
 40
0.0
 40
0.2827322387114779
 40
0.5640298382022769
 40
0.8435158419169855
 40
1.122148933819129
 40
1.122148933819129
 40
1.122148933819129
 40
1.122148933819129
 10
-26.59299820894855
 20
-3.698001861571863
 30
0.0
 10
-26.55741479581745
 20
-3.785773096312371
 30
0.0
 10
-26.48642852682142
 20
-3.960870197212925
 30
0.0
 10
-26.4620915804118
 20
-4.244660511869934
 30
0.0
 10
-26.50305056959739
 20
-4.525459144260408
 30
0.0
 10
-26.58572216314275
 20
-4.693238799293526
 30
0.0
 10
-26.62699479097958
 20
-4.777000427245861
 30
0.0
 11
-26.59299820894855
 21
-3.698001861571863
 31
0.0
 11
-26.49999588961256
 21
-3.965000152586863
 31
0.0
 11
-26.47299546236658
 21
-4.24499893188388
 31
0.0
 11
-26.51699418062858
 21
-4.520999908446862
 31
0.0
 11
-26.62699479097958
 21
-4.777000427245861
 31
0.0
  0
ELLIPSE
  5
8A2E
330
1F
100
AcDbEntity
  8
AM_0
100
AcDbEllipse
 10
-27.7489964389296
 20
0.0000000000001138
 30
0.0
 11
-0.6273345426159838
 21
-14.64957417483499
 31
0.0
210
0.0
220
0.0
230
1.0
 40
0.147650512804
 41
0.9388529621649247
 42
1.134962419837749
  0
ELLIPSE
  5
8A2F
330
1F
100
AcDbEntity
  8
AM_0
100
AcDbEllipse
 10
-12.92599457735659
 20
0.0000000000001304
 30
0.0
 11
0.0908853007700188
 21
-14.649718653533
 31
0.0
210
0.0
220
0.0
230
1.0
 40
0.0898293795343
 41
0.709666253321876
 42
1.009875195737734
  0
SPLINE
  5
8A30
330
1F
100
AcDbEntity
  8
AM_0
100
AcDbSpline
210
0.0
220
0.0
230
1.0
 70
     8
 71
     3
 72
    11
 73
     7
 74
     5
 42
0.0000000001
 43
0.0000000001
 44
0.0000000001
 40
0.0
 40
0.0
 40
0.0
 40
0.0
 40
1.108720660930928
 40
2.449951502698633
 40
3.771115021896121
 40
4.910818724771374
 40
4.910818724771374
 40
4.910818724771374
 40
4.910818724771374
 10
-38.16299790377257
 20
9.95899963379011
 30
0.0
 10
-38.18791231382019
 20
10.35374074818703
 30
0.0
 10
-38.24296594318412
 20
11.22600426818103
 30
0.0
 10
-39.68248528028999
 20
11.7777830324162
 30
0.0
 10
-40.94165694082906
 20
11.05831644243282
 30
0.0
 10
-41.10523676900288
 20
10.22495578886775
 30
0.0
 10
-41.18099564547259
 20
9.839000701905094
 30
0.0
 11
-38.16299790377257
 21
9.95899963379011
 31
0.0
 11
-38.41799515719058
 21
11.03799819946311
 31
0.0
 11
-39.65599411959359
 21
11.55400085449308
 31
0.0
 11
-40.8139988803356
 21
10.91799926757909
 31
0.0
 11
-41.18099564547259
 21
9.839000701905094
 31
0.0
  0
SPLINE
  5
8A31
330
1F
100
AcDbEntity
  8
AM_0
100
AcDbSpline
210
0.0
220
0.0
230
1.0
 70
     8
 71
     3
 72
    11
 73
     7
 74
     5
 42
0.0000000001
 43
0.0000000001
 44
0.0000000001
 40
0.0
 40
0.0
 40
0.0
 40
0.0
 40
0.1471624832187155
 40
0.2923719057391789
 40
0.4359575097686117
 40
0.5760910677755078
 40
0.5760910677755078
 40
0.5760910677755078
 40
0.5760910677755078
 10
-26.54499405855854
 20
-5.527000427245861
 30
0.0
 10
-26.49963406396967
 20
-5.546185780849103
 30
0.0
 10
-26.40951606804977
 20
-5.584301870443235
 30
0.0
 10
-26.29329378288039
 20
-5.673175852804457
 30
0.0
 10
-26.19147706655607
 20
-5.775255507400241
 30
0.0
 10
-26.14496875644612
 20
-5.858089168385091
 30
0.0
 10
-26.12199753756256
 20
-5.89900207519488
 30
0.0
 11
-26.54499405855854
 21
-5.527000427245861
 31
0.0
 11
-26.41199845308957
 21
-5.590000152586863
 31
0.0
 11
-26.29499405855854
 21
-5.67599868774388
 31
0.0
 11
-26.19599503512056
 21
-5.779998779295874
 31
0.0
 11
-26.12199753756256
 21
-5.89900207519488
 31
0.0
  0
SPLINE
  5
8A32
330
1F
100
AcDbEntity
  8
AM_0
100
AcDbSpline
210
0.0
220
0.0
230
1.0
 70
     8
 71
     3
 72
    11
 73
     7
 74
     5
 42
0.0000000001
 43
0.0000000001
 44
0.0000000001
 40
0.0
 40
0.0
 40
0.0
 40
0.0
 40
0.0973063745983869
 40
0.1931111351080529
 40
0.2886366400904707
 40
0.3837181292163009
 40
0.3837181292163009
 40
0.3837181292163009
 40
0.3837181292163009
 10
-26.12199753756256
 20
-5.89900207519488
 30
0.0
 10
-26.1086673642239
 20
-5.928652238986563
 30
0.0
 10
-26.08221272633157
 20
-5.987495010691741
 30
0.0
 10
-26.06026125707035
 20
-6.081601944019107
 30
0.0
 10
-26.04894103492724
 20
-6.176820795180663
 30
0.0
 10
-26.05364776337295
 20
-6.240322479856675
 30
0.0
 10
-26.05599564547255
 20
-6.271999359129873
 30
0.0
 11
-26.12199753756256
 21
-5.89900207519488
 31
0.0
 11
-26.08499497408555
 21
-5.988998413084881
 31
0.0
 11
-26.06199234957355
 21
-6.082000732420874
 31
0.0
 11
-26.05199784273755
 21
-6.17700195312488
 31
0.0
 11
-26.05599564547255
 21
-6.271999359129873
 31
0.0
  0
ELLIPSE
  5
8A33
330
1F
100
AcDbEntity
  8
AM_0
100
AcDbEllipse
 10
-22.36999863619459
 20
-4.841999053954874
 30
0.0
 11
1.243553125667993
 21
-0.1267720524969942
 31
0.0
210
0.0
220
0.0
230
1.0
 40
0.638401610949
 41
3.141592516649652
 42
6.283185307179585
  0
ELLIPSE
  5
8A34
330
1F
100
AcDbEntity
  8
AM_0
100
AcDbEllipse
 10
-22.36999863619459
 20
-4.841999053954874
 30
0.0
 11
1.243553125667993
 21
-0.1267720524969942
 31
0.0
210
0.0
220
0.0
230
1.0
 40
0.638401610949
 41
0.0
 42
3.141592790529933
  0
SPLINE
  5
8A35
330
1F
100
AcDbEntity
  8
AM_0
100
AcDbSpline
210
0.0
220
0.0
230
1.0
 70
     8
 71
     3
 72
    11
 73
     7
 74
     5
 42
0.0000000001
 43
0.0000000001
 44
0.0000000001
 40
0.0
 40
0.0
 40
0.0
 40
0.0
 40
0.8855064158731366
 40
1.773430790197938
 40
2.651977809493285
 40
3.533324761582758
 40
3.533324761582758
 40
3.533324761582758
 40
3.533324761582758
 10
-37.46399277681958
 20
2.944000244141107
 30
0.0
 10
-37.2093578277138
 20
3.116793389254966
 30
0.0
 10
-36.6993926248537
 20
3.462851507397343
 30
0.0
 10
-35.75029843542539
 20
3.21033144083951
 30
0.0
 10
-35.16488864094279
 20
2.409812845021528
 30
0.0
 10
-35.33953548969613
 20
1.818916853509214
 30
0.0
 10
-35.42699784273758
 20
1.522998809815097
 30
0.0
 11
-37.46399277681958
 21
2.944000244141107
 31
0.0
 11
-36.66899460787458
 21
3.333999633790101
 31
0.0
 11
-35.80799454683957
 21
3.117000579834116
 31
0.0
 11
-35.30599564547258
 21
2.395999908448109
 31
0.0
 11
-35.42699784273758
 21
1.522998809815097
 31
0.0
  0
ELLIPSE
  5
8A36
330
1F
100
AcDbEntity
  8
AM_0
100
AcDbEllipse
 10
-40.17199295992555
 20
1.51799774170009
 30
0.0
 11
-1.317604118948982
 21
-11.42728902029999
 31
0.0
210
0.0
220
0.0
230
1.0
 40
0.4336259935316001
 41
1.32917479120306
 42
1.336704193859877
  0
ELLIPSE
  5
8A37
330
1F
100
AcDbEntity
  8
AM_0
100
AcDbEllipse
 10
-37.4539982699836
 20
0.0000000000001128
 30
0.0
 11
1.354575345255021
 21
-14.64950546500998
 31
0.0
210
0.0
220
0.0
230
1.0
 40
0.1473626999203
 41
1.60656521399297
 42
1.661351925042487
  0
ELLIPSE
  5
8A38
330
1F
100
AcDbEntity
  8
AM_0
100
AcDbEllipse
 10
-18.94899338717156
 20
0.0000000000001263
 30
0.0
 11
0.3692931207060185
 21
-14.64934534079899
 31
0.0
210
0.0
220
0.0
230
1.0
 40
0.1518359044925
 41
0.4912783264310967
 42
0.6876280980296951
  0
SPLINE
  5
8A39
330
1F
100
AcDbEntity
  8
AM_0
100
AcDbSpline
210
0.0
220
0.0
230
1.0
 70
     8
 71
     3
 72
    11
 73
     7
 74
     5
 42
0.0000000001
 43
0.0000000001
 44
0.0000000001
 40
0.0
 40
0.0
 40
0.0
 40
0.0
 40
0.1927722582598965
 40
0.3711133210375923
 40
0.5291566348517755
 40
0.6708478635216535
 40
0.6708478635216535
 40
0.6708478635216535
 40
0.6708478635216535
 10
-17.74499863619457
 20
-10.74300003051684
 30
0.0
 10
-17.68376743631186
 20
-10.76337058201289
 30
0.0
 10
-17.56588888809799
 20
-10.80258671759851
 30
0.0
 10
-17.41732738186993
 20
-10.90019058431759
 30
0.0
 10
-17.30519016547124
 20
-11.0190402603126
 30
0.0
 10
-17.27314675974775
 20
-11.11475387766097
 30
0.0
 10
-17.25799912447655
 20
-11.15999984741185
 30
0.0
 11
-17.74499863619457
 21
-10.74300003051684
 31
0.0
 11
-17.56499833101955
 21
-10.81200027465786
 31
0.0
 11
-17.41599625582356
 21
-10.90999984741186
 31
0.0
 11
-17.31199234957356
 21
-11.02899932861287
 31
0.0
 11
-17.25799912447655
 21
-11.15999984741185
 31
0.0
  0
ELLIPSE
  5
8A3A
330
1F
100
AcDbEntity
  8
AM_0
100
AcDbEllipse
 10
-19.8539921664686
 20
0.0000000000001236
 30
0.0
 11
2.518051509039025
 21
-14.65119032075799
 31
0.0
210
0.0
220
0.0
230
1.0
 40
0.0252254724283
 41
0.7392885092571252
 42
0.8024172348154774
  0
SPLINE
  5
8A3B
330
1F
100
AcDbEntity
  8
AM_0
100
AcDbSpline
210
0.0
220
0.0
230
1.0
 70
     8
 71
     3
 72
    11
 73
     7
 74
     5
 42
0.0000000001
 43
0.0000000001
 44
0.0000000001
 40
0.0
 40
0.0
 40
0.0
 40
0.0
 40
0.1516485846093085
 40
0.3018577776143639
 40
0.4540174216065313
 40
0.6107907489296354
 40
0.6107907489296354
 40
0.6107907489296354
 40
0.6107907489296354
 10
-17.68699234957356
 20
-9.605998992918854
 30
0.0
 10
-17.67995933116994
 20
-9.656277084551145
 30
0.0
 10
-17.66596004914098
 20
-9.756356046988644
 30
0.0
 10
-17.6872100948431
 20
-9.90787597134928
 30
0.0
 10
-17.73871725987589
 20
-10.05358099282452
 30
0.0
 10
-17.79728046644401
 20
-10.13876906189443
 30
0.0
 10
-17.82699936861656
 20
-10.18199920654186
 30
0.0
 11
-17.68699234957356
 21
-9.605998992918854
 31
0.0
 11
-17.67299241060857
 21
-9.756999969481865
 31
0.0
 11
-17.69199723238657
 21
-9.906002044676865
 31
0.0
 11
-17.74399918551157
 21
-10.04899978637584
 31
0.0
 11
-17.82699936861656
 21
-10.18199920654186
 31
0.0
  0
ELLIPSE
  5
8A3C
330
1F
100
AcDbEntity
  8
AM_0
100
AcDbEllipse
 10
-35.47999924654655
 20
-4.724002838133907
 30
0.0
 11
4.983367706265999
 21
-0.4075111994049932
 31
0.0
210
0.0
220
0.0
230
1.0
 40
0.2548000317383
 41
1.822629943630061
 42
2.159581950536895
  0
SPLINE
  5
8A3D
330
1F
100
AcDbEntity
  8
AM_0
100
AcDbSpline
210
0.0
220
0.0
230
1.0
 70
     8
 71
     3
 72
    11
 73
     7
 74
     5
 42
0.0000000001
 43
0.0000000001
 44
0.0000000001
 40
0.0
 40
0.0
 40
0.0
 40
0.0
 40
0.0302650003434683
 40
0.0603341082967674
 40
0.0903328875937881
 40
0.1205968791672325
 40
0.1205968791672325
 40
0.1205968791672325
 40
0.1205968791672325
 10
-17.25799912447655
 20
-11.15999984741185
 30
0.0
 10
-17.2565097461568
 20
-11.16998477155858
 30
0.0
 10
-17.25354062962552
 20
-11.18988999171278
 30
0.0
 10
-17.25184838398976
 20
-11.21995415238604
 30
0.0
 10
-17.25104269004134
 20
-11.25015997831014
 30
0.0
 10
-17.25433779198508
 20
-11.27002337315943
 30
0.0
 10
-17.25599259371454
 20
-11.27999877929585
 30
0.0
 11
-17.25799912447655
 21
-11.15999984741185
 31
0.0
 11
-17.25399369234756
 21
-11.18999862670785
 31
0.0
 11
-17.25199479097954
 21
-11.22000122070284
 31
0.0
 11
-17.25199479097954
 21
-11.24999999999986
 31
0.0
 11
-17.25599259371454
 21
-11.27999877929585
 31
0.0
  0
SPLINE
  5
8A3E
330
1F
100
AcDbEntity
  8
AM_0
100
AcDbSpline
210
0.0
220
0.0
230
1.0
 70
     8
 71
     3
 72
    11
 73
     7
 74
     5
 42
0.0000000001
 43
0.0000000001
 44
0.0000000001
 40
0.0
 40
0.0
 40
0.0
 40
0.0
 40
0.6668192809869434
 40
1.37383131629608
 40
2.043768145215767
 40
2.621060096134535
 40
2.621060096134535
 40
2.621060096134535
 40
2.621060096134535
 10
-19.89099472994457
 20
-9.124999999999891
 30
0.0
 10
-19.69937091859412
 20
-9.003329397065797
 30
0.0
 10
-19.30457310682176
 20
-8.752654455069393
 30
0.0
 10
-18.59645436951785
 20
-8.771313582670261
 30
0.0
 10
-17.95371894716711
 20
-9.038660803791742
 30
0.0
 10
-17.77138663202318
 20
-9.426488963511854
 30
0.0
 10
-17.68699234957356
 20
-9.605998992918854
 30
0.0
 11
-19.89099472994457
 21
-9.124999999999891
 31
0.0
 11
-19.29699295992558
 21
-8.821998596190855
 31
0.0
 11
-18.58999222750356
 21
-8.818000793456862
 31
0.0
 11
-17.98899430269856
 21
-9.114002227782862
 31
0.0
 11
-17.68699234957356
 21
-9.605998992918854
 31
0.0
  0
ELLIPSE
  5
8A3F
330
1F
100
AcDbEntity
  8
AM_0
100
AcDbEllipse
 10
-13.56999176973957
 20
-9.506999969481867
 30
0.0
 11
1.229219485788
 21
-0.2269743809260003
 31
0.0
210
0.0
220
0.0
230
1.0
 40
0.9024010006721001
 41
0.0
 42
3.141592750467796
  0
ELLIPSE
  5
8A40
330
1F
100
AcDbEntity
  8
AM_0
100
AcDbEllipse
 10
-13.56999176973957
 20
-9.506999969481867
 30
0.0
 11
1.229219485788
 21
-0.2269743809260003
 31
0.0
210
0.0
220
0.0
230
1.0
 40
0.9024010006721001
 41
3.14159255671179
 42
6.283185307179585
  0
SPLINE
  5
8A41
330
1F
100
AcDbEntity
  8
AM_0
100
AcDbSpline
210
0.0
220
0.0
230
1.0
 70
     8
 71
     3
 72
    11
 73
     7
 74
     5
 42
0.0000000001
 43
0.0000000001
 44
0.0000000001
 40
0.0
 40
0.0
 40
0.0
 40
0.0
 40
0.1855261041284103
 40
0.3709163223789554
 40
0.5561878821196242
 40
0.7403526974639512
 40
0.7403526974639512
 40
0.7403526974639512
 40
0.7403526974639512
 10
-46.33899277681957
 20
1.626998901368097
 30
0.0
 10
-46.35275679283902
 20
1.687405301767145
 30
0.0
 10
-46.38027474362595
 20
1.808173858781945
 30
0.0
 10
-46.38983808826822
 20
1.993940974180359
 30
0.0
 10
-46.38236549038025
 20
2.179366358410221
 30
0.0
 10
-46.35609440209413
 20
2.299909566060924
 30
0.0
 10
-46.34299820894857
 20
2.360000610352102
 30
0.0
 11
-46.33899277681957
 21
1.626998901368097
 31
0.0
 11
-46.37499588961257
 21
1.808998107911094
 31
0.0
 11
-46.38699692721057
 21
1.993999481202094
 31
0.0
 11
-46.37699479097957
 21
2.179000854493097
 31
0.0
 11
-46.34299820894857
 21
2.360000610352102
 31
0.0
  0
ELLIPSE
  5
8A42
330
1F
100
AcDbEntity
  8
AM_0
100
AcDbEllipse
 10
-45.09099930758157
 20
1.187999725342099
 30
0.0
 11
1.454627942774
 21
-0.3661499331539966
 31
0.0
210
0.0
220
0.0
230
1.0
 40
0.9839977715851
 41
1.734536681324251
 42
2.884917315188581
  0
SPLINE
  5
8A43
330
1F
100
AcDbEntity
  8
AM_0
100
AcDbSpline
210
0.0
220
0.0
230
1.0
 70
     8
 71
     3
 72
    11
 73
     7
 74
     5
 42
0.0000000001
 43
0.0000000001
 44
0.0000000001
 40
0.0
 40
0.0
 40
0.0
 40
0.0
 40
0.5178371108184746
 40
1.037562664658338
 40
1.560068789047856
 40
2.084461044132803
 40
2.084461044132803
 40
2.084461044132803
 40
2.084461044132803
 10
-46.34299820894857
 20
2.360000610352102
 30
0.0
 10
-46.28332106005175
 20
2.524142513617249
 30
0.0
 10
-46.16374913224856
 20
2.853024911143172
 30
0.0
 10
-45.77888658873518
 20
3.224233938653291
 30
0.0
 10
-45.29824901650049
 20
3.460559194039777
 30
0.0
 10
-44.94562349454173
 20
3.468847802162056
 30
0.0
 10
-44.76899308199558
 20
3.472999572754096
 30
0.0
 11
-46.34299820894857
 21
2.360000610352102
 31
0.0
 11
-46.12999314303057
 21
2.832000732422102
 31
0.0
 11
-45.76399582857757
 21
3.2010002136241
 31
0.0
 11
-45.29099625582357
 21
3.423000335694101
 31
0.0
 11
-44.76899308199558
 21
3.472999572754096
 31
0.0
  0
SPLINE
  5
8A44
330
1F
100
AcDbEntity
  8
AM_0
100
AcDbSpline
210
0.0
220
0.0
230
1.0
 70
     8
 71
     3
 72
    11
 73
     7
 74
     5
 42
0.0000000001
 43
0.0000000001
 44
0.0000000001
 40
0.0
 40
0.0
 40
0.0
 40
0.0
 40
0.2534785610831852
 40
0.5075082741247532
 40
0.7615376568354073
 40
1.015924802636033
 40
1.015924802636033
 40
1.015924802636033
 40
1.015924802636033
 10
-35.34499711031555
 20
0.7249984741221083
 30
0.0
 10
-35.26909066129569
 20
0.6860207813206803
 30
0.0
 10
-35.11711271581428
 20
0.6079806444409153
 30
0.0
 10
-34.9535254264818
 20
0.4062592624954239
 30
0.0
 10
-34.85257687850873
 20
0.1667337446605876
 30
0.0
 10
-34.85485755603277
 20
-0.0043820498555799
 30
0.0
 10
-34.85599869722959
 20
-0.0900001525868888
 30
0.0
 11
-35.34499711031555
 21
0.7249984741221083
 31
0.0
 11
-35.12799424166355
 21
0.5939979553231103
 31
0.0
 11
-34.9639927768196
 21
0.400001525879112
 31
0.0
 11
-34.8699986361946
 21
0.1640014648441123
 31
0.0
 11
-34.85599869722959
 21
-0.0900001525868888
 31
0.0
  0
ELLIPSE
  5
8A45
330
1F
100
AcDbEntity
  8
AM_0
100
AcDbEllipse
 10
-36.54899949068758
 20
0.0000000000001014
 30
0.0
 11
-1.496360253532976
 21
-14.64877272080899
 31
0.0
210
0.0
220
0.0
230
1.0
 40
0.1149744463864
 41
1.381321247094869
 42
1.576448975327997
  0
ELLIPSE
  5
8A46
330
1F
100
AcDbEntity
  8
AM_0
100
AcDbEllipse
 10
-39.32599228853858
 20
0.0000000000001072
 30
0.0
 11
-1.245269494029976
 21
-14.65017211332799
 31
0.0
210
0.0
220
0.0
230
1.0
 40
0.0291095780178
 41
2.019015549305905
 42
2.31515901338244
  0
ELLIPSE
  5
8A47
330
1F
100
AcDbEntity
  8
AM_0
100
AcDbEllipse
 10
-31.16999405855854
 20
0.7290000915531221
 30
0.0
 11
1.245841948221005
 21
-0.1018789976939995
 31
0.0
210
0.0
220
0.0
230
1.0
 40
0.2543984392174
 41
3.141592309944575
 42
6.283185307179585
  0
ELLIPSE
  5
8A48
330
1F
100
AcDbEntity
  8
AM_0
100
AcDbEllipse
 10
-31.16999405855854
 20
0.7290000915531221
 30
0.0
 11
1.245841948221005
 21
-0.1018789976939995
 31
0.0
210
0.0
220
0.0
230
1.0
 40
0.2543984392174
 41
0.0
 42
3.141592997235008
  0
SPLINE
  5
8A49
330
1F
100
AcDbEntity
  8
AM_0
100
AcDbSpline
210
0.0
220
0.0
230
1.0
 70
     8
 71
     3
 72
    11
 73
     7
 74
     5
 42
0.0000000001
 43
0.0000000001
 44
0.0000000001
 40
0.0
 40
0.0
 40
0.0
 40
0.0
 40
1.511904744906422
 40
2.955124662562869
 40
4.421245300227116
 40
5.93501153938269
 40
5.93501153938269
 40
5.93501153938269
 40
5.93501153938269
 10
-20.56299942965156
 20
-1.828998565672882
 30
0.0
 10
-20.55697354063712
 20
-1.317982282782009
 30
0.0
 10
-20.54519551473935
 20
-0.3191648469418373
 30
0.0
 10
-21.9569193158522
 20
0.9519985061215306
 30
0.0
 10
-23.34074751054445
 20
-0.2995465885102048
 30
0.0
 10
-23.48879272229155
 20
-1.274652159604971
 30
0.0
 10
-23.56399888033556
 20
-1.770000457762876
 30
0.0
 11
-20.56299942965156
 21
-1.828998565672882
 31
0.0
 11
-20.79499405855856
 21
-0.3349990844718818
 31
0.0
 11
-21.94499558443758
 21
0.5369987487801247
 31
0.0
 11
-23.13599747652657
 21
-0.318000793456875
 31
0.0
 11
-23.56399888033556
 21
-1.770000457762876
 31
0.0
  0
ELLIPSE
  5
8A4A
330
1F
100
AcDbEntity
  8
AM_0
100
AcDbEllipse
 10
-22.36999863619459
 20
-4.841999053954874
 30
0.0
 11
1.492263806640998
 21
-0.1521282660939938
 31
0.0
210
0.0
220
0.0
230
1.0
 40
0.6380011008595
 41
0.1090867563717801
 42
2.733090478868859
  0
SPLINE
  5
8A4B
330
1F
100
AcDbEntity
  8
AM_0
100
AcDbSpline
210
0.0
220
0.0
230
1.0
 70
     8
 71
     3
 72
    11
 73
     7
 74
     5
 42
0.0000000001
 43
0.0000000001
 44
0.0000000001
 40
0.0
 40
0.0
 40
0.0
 40
0.0
 40
1.447877768635762
 40
2.865538673538027
 40
4.309451151886302
 40
5.768229086834745
 40
5.768229086834745
 40
5.768229086834745
 40
5.768229086834745
 10
-29.36299485201559
 20
4.485000610352125
 30
0.0
 10
-29.36000617884478
 20
4.984201213342367
 30
0.0
 10
-29.35409120539949
 20
5.972184221790579
 30
0.0
 10
-30.84124104950387
 20
7.042097999137678
 30
0.0
 10
-32.1710684465513
 20
5.865847710851434
 30
0.0
 10
-32.30678838917574
 20
4.906253873723779
 30
0.0
 10
-32.37499588961259
 20
4.423999786377109
 30
0.0
 11
-29.36299485201559
 21
4.485000610352125
 31
0.0
 11
-29.60799759859759
 21
5.911998748780114
 31
0.0
 11
-30.80599564547259
 21
6.669998168946112
 31
0.0
 11
-31.9789921664686
 21
5.827999114991101
 31
0.0
 11
-32.37499588961259
 21
4.423999786377109
 31
0.0
  0
ELLIPSE
  5
8A4C
330
1F
100
AcDbEntity
  8
AM_0
100
AcDbEllipse
 10
-31.16999405855854
 20
0.7290000915531221
 30
0.0
 11
1.495010335643001
 21
-0.1222533617640003
 31
0.0
210
0.0
220
0.0
230
1.0
 40
0.254667002095
 41
0.0629788880770866
 42
2.78399761542039
  0
ELLIPSE
  5
8A4D
330
1F
100
AcDbEntity
  8
AM_0
100
AcDbEllipse
 10
-21.72599381441759
 20
0.0000000000001321
 30
0.0
 11
-0.4806443433439754
 21
-14.65011852339299
 31
0.0
210
0.0
220
0.0
230
1.0
 40
0.083981507711
 41
1.148973009450835
 42
1.44840415014988
  0
ELLIPSE
  5
8A4E
330
1F
100
AcDbEntity
  8
AM_0
100
AcDbEllipse
 10
-30.52599686617558
 20
0.0000000000001054
 30
0.0
 11
-0.9506069716749788
 21
-14.65019113243699
 31
0.0
210
0.0
220
0.0
230
1.0
 40
0.0623253434878
 41
1.586611287974067
 42
1.886463151368593
  0
SPLINE
  5
8A4F
330
1F
100
AcDbEntity
  8
AM_0
100
AcDbSpline
210
0.0
220
0.0
230
1.0
 70
     8
 71
     3
 72
    11
 73
     7
 74
     5
 42
0.0000000001
 43
0.0000000001
 44
0.0000000001
 40
0.0
 40
0.0
 40
0.0
 40
0.0
 40
0.1142171656650383
 40
0.2293849494130171
 40
0.345594693374031
 40
0.4615319449176749
 40
0.4615319449176749
 40
0.4615319449176749
 40
0.4615319449176749
 10
0.0000079250844427
 20
-15.17399978637584
 30
0.0
 10
0.0000134640537648
 20
-15.21237562302418
 30
0.0
 10
0.0000245880926984
 20
-15.2894466945834
 30
0.0
 10
-0.0426196640902127
 20
-15.3987250647342
 30
0.0
 10
-0.1127749266007315
 20
-15.49403249983359
 30
0.0
 10
-0.1802824498215589
 20
-15.5333604901173
 30
0.0
 10
-0.213996591517545
 20
-15.55300140380785
 30
0.0
 11
0.0000079250844427
 21
-15.17399978637584
 31
0.0
 11
-0.0069958590955571
 21
-15.28800201415984
 31
0.0
 11
-0.0469967746225453
 21
-15.39599990844683
 31
0.0
 11
-0.1179959201305563
 21
-15.48799896240184
 31
0.0
 11
-0.213996591517545
 21
-15.55300140380785
 31
0.0
  0
SPLINE
  5
8A50
330
1F
100
AcDbEntity
  8
AM_0
100
AcDbSpline
210
0.0
220
0.0
230
1.0
 70
     8
 71
     3
 72
    11
 73
     7
 74
     5
 42
0.0000000001
 43
0.0000000001
 44
0.0000000001
 40
0.0
 40
0.0
 40
0.0
 40
0.0
 40
2.177388007209472
 40
4.358851991233315
 40
6.542378306549254
 40
8.729969306264129
 40
8.729969306264129
 40
8.729969306264129
 40
8.729969306264129
 10
-9.093993844935585
 20
-15.77400207519485
 30
0.0
 10
-8.368320735035807
 20
-15.76063186454239
 30
0.0
 10
-6.915616086347616
 20
-15.73386641477747
 30
0.0
 10
-4.735297091718176
 20
-15.6883413046096
 30
0.0
 10
-2.551624417530094
 20
-15.64060593390814
 30
0.0
 10
-1.094990990872726
 20
-15.6062131064892
 30
0.0
 10
-0.3659970187635533
 20
-15.58900070190383
 30
0.0
 11
-9.093993844935585
 21
-15.77400207519485
 31
0.0
 11
-6.916991891810553
 21
-15.73300170898385
 31
0.0
 11
-4.735992135950555
 21
-15.68799972534084
 31
0.0
 11
-2.552993478724546
 21
-15.63999938964783
 31
0.0
 11
-0.3659970187635533
 21
-15.58900070190383
 31
0.0
  0
SPLINE
  5
8A51
330
1F
100
AcDbEntity
  8
AM_0
100
AcDbSpline
210
0.0
220
0.0
230
1.0
 70
     8
 71
     3
 72
    11
 73
     7
 74
     5
 42
0.0000000001
 43
0.0000000001
 44
0.0000000001
 40
0.0
 40
0.0
 40
0.0
 40
0.0
 40
1.050256631767999
 40
2.102493808543116
 40
3.153890813809665
 40
4.205140173303695
 40
4.205140173303695
 40
4.205140173303695
 40
4.205140173303695
 10
-0.7219921969855733
 20
-9.89200210571184
 30
0.0
 10
-0.6686016234360489
 20
-10.23799247362366
 30
0.0
 10
-0.561719793865048
 20
-10.93062566854628
 30
0.0
 10
-0.4024455856680784
 20
-11.96978779815963
 30
0.0
 10
-0.2406597290583702
 20
-13.00889697744379
 30
0.0
 10
-0.1342129892598208
 20
-13.70164876439428
 30
0.0
 10
-0.0809933566535577
 20
-14.04800033569284
 30
0.0
 11
-0.7219921969855733
 21
-9.89200210571184
 31
0.0
 11
-0.5619961642715649
 21
-10.93000030517484
 31
0.0
 11
-0.4019925021615613
 21
-11.97000122070283
 31
0.0
 11
-0.2409970187635612
 21
-13.00899887084884
 31
0.0
 11
-0.0809933566535577
 21
-14.04800033569284
 31
0.0
  0
SPLINE
  5
8A52
330
1F
100
AcDbEntity
  8
AM_0
100
AcDbSpline
210
0.0
220
0.0
230
1.0
 70
     8
 71
     3
 72
    11
 73
     7
 74
     5
 42
0.0000000001
 43
0.0000000001
 44
0.0000000001
 40
0.0
 40
0.0
 40
0.0
 40
0.0
 40
0.1309119279603893
 40
0.2609970211564815
 40
0.3917790794915387
 40
0.5222766528289061
 40
0.5222766528289061
 40
0.5222766528289061
 40
0.5222766528289061
 10
-0.9639965915175491
 20
-9.439998626707852
 30
0.0
 10
-0.9330878388034815
 20
-9.470977684266182
 30
0.0
 10
-0.8714655518834161
 20
-9.532740136832044
 30
0.0
 10
-0.8011708798266916
 20
-9.64372922530117
 30
0.0
 10
-0.7472220119327466
 20
-9.763461729918855
 30
0.0
 10
-0.7303960285108776
 20
-9.849186426539187
 30
0.0
 10
-0.7219921969855733
 20
-9.89200210571184
 30
0.0
 11
-0.9639965915175491
 21
-9.439998626707852
 31
0.0
 11
-0.8749920749155743
 21
-9.535999298094852
 31
0.0
 11
-0.8039929294075626
 21
-9.645000457762849
 31
0.0
 11
-0.7519909762825624
 21
-9.764999389647844
 31
0.0
 11
-0.7219921969855733
 21
-9.89200210571184
 31
0.0
  0
SPLINE
  5
8A53
330
1F
100
AcDbEntity
  8
AM_0
100
AcDbSpline
210
0.0
220
0.0
230
1.0
 70
     8
 71
     3
 72
    11
 73
     7
 74
     5
 42
0.0000000001
 43
0.0000000001
 44
0.0000000001
 40
0.0
 40
0.0
 40
0.0
 40
0.0
 40
0.1764819921720962
 40
0.3527218584932005
 40
0.5294988775054868
 40
0.7045688855280048
 40
0.7045688855280048
 40
0.7045688855280048
 40
0.7045688855280048
 10
-9.093993844935585
 20
-15.77400207519485
 30
0.0
 10
-9.153051012323601
 20
-15.77233776449549
 30
0.0
 10
-9.271084323156424
 20
-15.76901142646086
 30
0.0
 10
-9.441263640652943
 20
-15.71600081918817
 30
0.0
 10
-9.598409443625657
 20
-15.63280823023669
 30
0.0
 10
-9.683606013032738
 20
-15.55147226560695
 30
0.0
 10
-9.72599762911456
 20
-15.51100158691384
 30
0.0
 11
-9.093993844935585
 21
-15.77400207519485
 31
0.0
 11
-9.269996347376565
 21
-15.76100158691384
 31
0.0
 11
-9.438995065638565
 21
-15.71100234985284
 31
0.0
 11
-9.593993844935585
 21
-15.62599945068285
 31
0.0
 11
-9.72599762911456
 21
-15.51100158691384
 31
0.0
  0
SPLINE
  5
8A54
330
1F
100
AcDbEntity
  8
AM_0
100
AcDbSpline
210
0.0
220
0.0
230
1.0
 70
     8
 71
     3
 72
    11
 73
     7
 74
     5
 42
0.0000000001
 43
0.0000000001
 44
0.0000000001
 40
0.0
 40
0.0
 40
0.0
 40
0.0
 40
0.0621286626172218
 40
0.1243709335715592
 40
0.1871728187892744
 40
0.2493499418286903
 40
0.2493499418286903
 40
0.2493499418286903
 40
0.2493499418286903
 10
-0.7989956759895495
 20
-14.91899871826084
 30
0.0
 10
-0.7811518868768496
 20
-14.90834056677841
 30
0.0
 10
-0.7454316795375507
 20
-14.88700477434098
 30
0.0
 10
-0.7008979782201129
 20
-14.84270021536974
 30
0.0
 10
-0.6621807181060742
 20
-14.79334664980827
 30
0.0
 10
-0.6440261289176878
 20
-14.7557191919853
 30
0.0
 10
-0.6349942111465534
 20
-14.73699951171784
 30
0.0
 11
-0.7989956759895495
 21
-14.91899871826084
 31
0.0
 11
-0.7469937228645496
 21
-14.88500213622985
 31
0.0
 11
-0.7019955539195499
 21
-14.84199905395485
 31
0.0
 11
-0.66399353975955
 21
-14.79199981689384
 31
0.0
 11
-0.6349942111465534
 21
-14.73699951171784
 31
0.0
  0
SPLINE
  5
8A55
330
1F
100
AcDbEntity
  8
AM_0
100
AcDbSpline
210
0.0
220
0.0
230
1.0
 70
     8
 71
     3
 72
    11
 73
     7
 74
     5
 42
0.0000000001
 43
0.0000000001
 44
0.0000000001
 40
0.0
 40
0.0
 40
0.0
 40
0.0
 40
0.0265694168424147
 40
0.0534951845012891
 40
0.0792076001211741
 40
0.1065023889675237
 40
0.1065023889675237
 40
0.1065023889675237
 40
0.1065023889675237
 10
-0.6349942111465534
 20
-14.73699951171784
 30
0.0
 10
-0.631810129680531
 20
-14.7287238381706
 30
0.0
 10
-0.6253992616324194
 20
-14.71206149718257
 30
0.0
 10
-0.6192056308134929
 20
-14.68636588059957
 30
0.0
 10
-0.6122856588186253
 20
-14.6606007247541
 30
0.0
 10
-0.6101123353752265
 20
-14.64304088780649
 30
0.0
 10
-0.6089932345835562
 20
-14.63399887084884
 30
0.0
 11
-0.6349942111465534
 21
-14.73699951171784
 31
0.0
 11
-0.6259915255995504
 21
-14.71200180053685
 31
0.0
 11
-0.6189953708135559
 21
-14.68600082397385
 31
0.0
 11
-0.6129910373175474
 21
-14.66099929809484
 31
0.0
 11
-0.6089932345835562
 21
-14.63399887084884
 31
0.0
  0
SPLINE
  5
8A56
330
1F
100
AcDbEntity
  8
AM_0
100
AcDbSpline
210
0.0
220
0.0
230
1.0
 70
     8
 71
     3
 72
    11
 73
     7
 74
     5
 42
0.0000000001
 43
0.0000000001
 44
0.0000000001
 40
0.0
 40
0.0
 40
0.0
 40
0.0
 40
0.0491591108843463
 40
0.097215413572144
 40
0.1455980256572988
 40
0.1943513164537347
 40
0.1943513164537347
 40
0.1943513164537347
 40
0.1943513164537347
 10
-0.9849926852675466
 20
-14.96900177001884
 30
0.0
 10
-0.9685965239165017
 20
-14.96814467671474
 30
0.0
 10
-0.9361720235937147
 20
-14.9664497176618
 30
0.0
 10
-0.8887379135637926
 20
-14.95553357497203
 30
0.0
 10
-0.8423320964932374
 20
-14.94127550743896
 30
0.0
 10
-0.8134778528912589
 20
-14.92644318178435
 30
0.0
 10
-0.7989956759895495
 20
-14.91899871826084
 30
0.0
 11
-0.9849926852675466
 21
-14.96900177001884
 31
0.0
 11
-0.9359967135875464
 21
-14.96500015258684
 31
0.0
 11
-0.888992013880558
 21
-14.95500183105385
 31
0.0
 11
-0.8429943942515523
 21
-14.93999862670784
 31
0.0
 11
-0.7989956759895495
 21
-14.91899871826084
 31
0.0
  0
SPLINE
  5
8A57
330
1F
100
AcDbEntity
  8
AM_0
100
AcDbSpline
210
0.0
220
0.0
230
1.0
 70
     8
 71
     3
 72
    11
 73
     7
 74
     5
 42
0.0000000001
 43
0.0000000001
 44
0.0000000001
 40
0.0
 40
0.0
 40
0.0
 40
0.0
 40
0.0516228430046461
 40
0.1040128037992538
 40
0.1562192766313608
 40
0.2084198299929527
 40
0.2084198299929527
 40
0.2084198299929527
 40
0.2084198299929527
 10
-0.9129940890755717
 20
-10.36899948120085
 30
0.0
 10
-0.9153775882290773
 20
-10.35194698839112
 30
0.0
 10
-0.9201800054416851
 20
-10.31758860195459
 30
0.0
 10
-0.9325922648804796
 20
-10.26695312768281
 30
0.0
 10
-0.9473442673713648
 20
-10.21677843178429
 30
0.0
 10
-0.9597786527071887
 20
-10.18425837439325
 30
0.0
 10
-0.9659954928845639
 20
-10.16799926757784
 30
0.0
 11
-0.9129940890755717
 21
-10.36899948120085
 31
0.0
 11
-0.9209973239385689
 21
-10.31800079345685
 31
0.0
 11
-0.932990732142561
 21
-10.26700210571184
 31
0.0
 11
-0.9479977511855723
 21
-10.21699905395485
 31
0.0
 11
-0.9659954928845639
 21
-10.16799926757784
 31
0.0
  0
SPLINE
  5
8A58
330
1F
100
AcDbEntity
  8
AM_0
100
AcDbSpline
210
0.0
220
0.0
230
1.0
 70
     8
 71
     3
 72
    11
 73
     7
 74
     5
 42
0.0000000001
 43
0.0000000001
 44
0.0000000001
 40
0.0
 40
0.0
 40
0.0
 40
0.0
 40
0.0430108813441239
 40
0.0870247633415011
 40
0.1300356446846299
 40
0.1740458868890885
 40
0.1740458868890885
 40
0.1740458868890885
 40
0.1740458868890885
 10
-8.513992013880528
 20
-15.09000015258685
 30
0.0
 10
-8.514327809206072
 20
-15.10433318099172
 30
0.0
 10
-8.515007230501876
 20
-15.13333347965851
 30
0.0
 10
-8.515973905803177
 20
-15.1766679222787
 30
0.0
 10
-8.51700424444443
 20
-15.22033410964847
 30
0.0
 10
-8.517663853810551
 20
-15.24933365113881
 30
0.0
 10
-8.517997446009548
 20
-15.26399993896386
 30
0.0
 11
-8.513992013880528
 21
-15.09000015258685
 31
0.0
 11
-8.514991464563554
 21
-15.13299942016585
 31
0.0
 11
-8.515990915247543
 21
-15.17700195312487
 31
0.0
 11
-8.516990365931535
 21
-15.22000122070285
 31
0.0
 11
-8.517997446009548
 21
-15.26399993896386
 31
0.0
  0
SPLINE
  5
8A59
330
1F
100
AcDbEntity
  8
AM_0
100
AcDbSpline
210
0.0
220
0.0
230
1.0
 70
     8
 71
     3
 72
    11
 73
     7
 74
     5
 42
0.0000000001
 43
0.0000000001
 44
0.0000000001
 40
0.0
 40
0.0
 40
0.0
 40
0.0
 40
0.06791327301368
 40
0.1358112179540063
 40
0.2029913364013648
 40
0.270992129858341
 40
0.270992129858341
 40
0.270992129858341
 40
0.270992129858341
 10
-8.814994516321535
 20
-15.26700210571185
 30
0.0
 10
-8.793068682247591
 20
-15.27266936229702
 30
0.0
 10
-8.749221962775832
 20
-15.28400259636358
 30
0.0
 10
-8.6823448667858
 20
-15.29494711334057
 30
0.0
 10
-8.614742209721404
 20
-15.30002285756741
 30
0.0
 10
-8.569669796938301
 20
-15.29934218754167
 30
0.0
 10
-8.546996774622543
 20
-15.29899978637585
 30
0.0
 11
-8.814994516321535
 21
-15.26700210571185
 31
0.0
 11
-8.748992624231521
 21
-15.28300094604385
 31
0.0
 11
-8.68199128145854
 21
-15.29399871826085
 31
0.0
 11
-8.61499756807952
 21
-15.29899978637585
 31
0.0
 11
-8.546996774622543
 21
-15.29899978637585
 31
0.0
  0
SPLINE
  5
8A5A
330
1F
100
AcDbEntity
  8
AM_0
100
AcDbSpline
210
0.0
220
0.0
230
1.0
 70
     8
 71
     3
 72
    11
 73
     7
 74
     5
 42
0.0000000001
 43
0.0000000001
 44
0.0000000001
 40
0.0
 40
0.0
 40
0.0
 40
0.0
 40
0.0641923161407031
 40
0.1287325698467645
 40
0.1921161981006907
 40
0.2561269919026412
 40
0.2561269919026412
 40
0.2561269919026412
 40
0.2561269919026412
 10
-8.764991464563554
 20
-15.04800033569286
 30
0.0
 10
-8.744782754043097
 20
-15.05508113777361
 30
0.0
 10
-8.704255797002236
 20
-15.06928112156035
 30
0.0
 10
-8.641548758064628
 20
-15.0830186952847
 30
0.0
 10
-8.577838089470043
 20
-15.09025544268019
 30
0.0
 10
-8.535343772563322
 20
-15.09008552811568
 30
0.0
 10
-8.513992013880528
 20
-15.09000015258685
 30
0.0
 11
-8.764991464563554
 21
-15.04800033569286
 31
0.0
 11
-8.703994455286551
 21
-15.06800079345685
 31
0.0
 11
-8.640990915247543
 21
-15.08200073242086
 31
0.0
 11
-8.577995004603526
 21
-15.08900070190385
 31
0.0
 11
-8.513992013880528
 21
-15.09000015258685
 31
0.0
  0
SPLINE
  5
8A5B
330
1F
100
AcDbEntity
  8
AM_0
100
AcDbSpline
210
0.0
220
0.0
230
1.0
 70
     8
 71
     3
 72
    11
 73
     7
 74
     5
 42
0.0000000001
 43
0.0000000001
 44
0.0000000001
 40
0.0
 40
0.0
 40
0.0
 40
0.0
 40
0.1102228672252992
 40
0.2216503875514413
 40
0.3324011122628934
 40
0.445081659136428
 40
0.445081659136428
 40
0.445081659136428
 40
0.445081659136428
 10
-8.799995126673552
 20
-15.13000106811486
 30
0.0
 10
-8.800034679880489
 20
-15.167025060186
 30
0.0
 10
-8.800114218581185
 20
-15.24147768873625
 30
0.0
 10
-8.841941354307301
 20
-15.3466344304273
 30
0.0
 10
-8.913832543452446
 20
-15.43551058169605
 30
0.0
 10
-8.980413831613228
 20
-15.4704023796052
 30
0.0
 10
-9.013992013880557
 20
-15.48799896240184
 30
0.0
 11
-8.799995126673552
 21
-15.13000106811486
 31
0.0
 11
-8.80699128145854
 21
-15.24000167846585
 31
0.0
 11
-8.846992196985542
 21
-15.34400177001886
 31
0.0
 11
-8.917991342493523
 21
-15.42900085449186
 31
0.0
 11
-9.013992013880557
 21
-15.48799896240184
 31
0.0
  0
SPLINE
  5
8A5C
330
1F
100
AcDbEntity
  8
AM_0
100
AcDbSpline
210
0.0
220
0.0
230
1.0
 70
     8
 71
     3
 72
    11
 73
     7
 74
     5
 42
0.0000000001
 43
0.0000000001
 44
0.0000000001
 40
0.0
 40
0.0
 40
0.0
 40
0.0
 40
2.182294300830136
 40
4.367915762293492
 40
6.554901617162751
 40
8.745361664438412
 40
8.745361664438412
 40
8.745361664438412
 40
8.745361664438412
 10
-17.89399308199553
 20
-14.96599960327085
 30
0.0
 10
-17.16837793596638
 20
-15.01739279858649
 30
0.0
 10
-15.71604135950464
 20
-15.12025754410155
 30
0.0
 10
-13.53563460055729
 20
-15.26152502544372
 30
0.0
 10
-11.35195133469723
 20
-15.39399630585385
 30
0.0
 10
-9.895030837569478
 20
-15.47464369291755
 30
0.0
 10
-9.165992441126567
 20
-15.51499938964784
 30
0.0
 11
-17.89399308199553
 21
-14.96599960327085
 31
0.0
 11
-15.71699875826551
 21
-15.11800003051685
 31
0.0
 11
-13.53599518770853
 21
-15.26000213622985
 31
0.0
 11
-11.35299653048151
 21
-15.39200210571184
 31
0.0
 11
-9.165992441126567
 21
-15.51499938964784
 31
0.0
  0
SPLINE
  5
8A5D
330
1F
100
AcDbEntity
  8
AM_0
100
AcDbSpline
210
0.0
220
0.0
230
1.0
 70
     8
 71
     3
 72
    11
 73
     7
 74
     5
 42
0.0000000001
 43
0.0000000001
 44
0.0000000001
 40
0.0
 40
0.0
 40
0.0
 40
0.0
 40
0.2890175075011387
 40
0.5730044777140926
 40
0.8410074991721113
 40
1.089459485063456
 40
1.089459485063456
 40
1.089459485063456
 40
1.089459485063456
 10
-17.89399308199553
 20
-14.96599960327085
 30
0.0
 10
-17.9905363350095
 20
-14.9556683984337
 30
0.0
 10
-18.1819424430629
 20
-14.93518581008447
 30
0.0
 10
-18.43618362761232
 20
-14.80700938231475
 30
0.0
 10
-18.63969321029455
 20
-14.62160677375703
 30
0.0
 10
-18.69796222800578
 20
-14.45712818980497
 30
0.0
 10
-18.72599381441753
 20
-14.37800216674786
 30
0.0
 11
-17.89399308199553
 21
-14.96599960327085
 31
0.0
 11
-18.17899674410451
 21
-14.91799926757785
 31
0.0
 11
-18.43399399752253
 21
-14.79299926757785
 31
0.0
 11
-18.62499588961254
 21
-14.60499954223586
 31
0.0
 11
-18.72599381441753
 21
-14.37800216674786
 31
0.0
  0
ELLIPSE
  5
8A5E
330
1F
100
AcDbEntity
  8
AM_0
100
AcDbEllipse
 10
-9.818992319056544
 20
-13.06799697875886
 30
0.0
 11
0.200609210131006
 21
-0.0370426246780011
 31
0.0
210
0.0
220
0.0
230
1.0
 40
0.9019525073441
 41
6.246435191940316
 42
6.496686784628887
  0
ELLIPSE
  5
8A5F
330
1F
100
AcDbEntity
  8
AM_0
100
AcDbEllipse
 10
-9.848991098353559
 20
-13.06200027465785
 30
0.0
 11
0.2301120756050068
 21
-0.0424900080969973
 31
0.0
210
0.0
220
0.0
230
1.0
 40
0.9017110266280999
 41
6.027194566817977
 42
6.246427382873963
  0
SPLINE
  5
8A60
330
1F
100
AcDbEntity
  8
AM_0
100
AcDbSpline
210
0.0
220
0.0
230
1.0
 70
     8
 71
     3
 72
    11
 73
     7
 74
     5
 42
0.0000000001
 43
0.0000000001
 44
0.0000000001
 40
0.0
 40
0.0
 40
0.0
 40
0.0
 40
0.0246980485042649
 40
0.0487396425806381
 40
0.073479490473324
 40
0.0978084636047455
 40
0.0978084636047455
 40
0.0978084636047455
 40
0.0978084636047455
 10
-9.434997262903571
 20
-13.33499908447184
 30
0.0
 10
-9.43185027574583
 20
-13.32738397724634
 30
0.0
 10
-9.425639945838687
 20
-13.31235616627091
 30
0.0
 10
-9.418850486592747
 20
-13.28879920821238
 30
0.0
 10
-9.412562767804262
 20
-13.26522730541994
 30
0.0
 10
-9.410178458540027
 20
-13.24903131586503
 30
0.0
 10
-9.408996286341555
 20
-13.24100112914984
 30
0.0
 11
-9.434997262903571
 21
-13.33499908447184
 31
0.0
 11
-9.425994577356554
 21
-13.31200027465784
 31
0.0
 11
-9.418990793177551
 21
-13.28900146484283
 31
0.0
 11
-9.412994089075562
 21
-13.26499938964783
 31
0.0
 11
-9.408996286341555
 21
-13.24100112914984
 31
0.0
  0
ELLIPSE
  5
8A61
330
1F
100
AcDbEntity
  8
AM_0
100
AcDbEllipse
 10
-9.819995584437574
 20
-13.07400131225485
 30
0.0
 11
0.1996269253150019
 21
-0.0368614420009973
 31
0.0
210
0.0
220
0.0
230
1.0
 40
0.9014735219178998
 41
5.454081802258799
 42
6.0271641314439
  0
SPLINE
  5
8A62
330
1F
100
AcDbEntity
  8
AM_0
100
AcDbSpline
210
0.0
220
0.0
230
1.0
 70
     8
 71
     3
 72
    11
 73
     7
 74
     5
 42
0.0000000001
 43
0.0000000001
 44
0.0000000001
 40
0.0
 40
0.0
 40
0.0
 40
0.0
 40
0.059054236633282
 40
0.1173159676016656
 40
0.1754519820890687
 40
0.2323900196830375
 40
0.2323900196830375
 40
0.2323900196830375
 40
0.2323900196830375
 10
-9.598991098353558
 20
-13.49300003051683
 30
0.0
 10
-9.581203643189775
 20
-13.4843849831314
 30
0.0
 10
-9.545867439850654
 20
-13.46727050197687
 30
0.0
 10
-9.501094799074259
 20
-13.42895726417033
 30
0.0
 10
-9.462379583638997
 20
-13.38558784449178
 30
0.0
 10
-9.444061135160378
 20
-13.35174456280004
 30
0.0
 10
-9.434997262903571
 20
-13.33499908447184
 30
0.0
 11
-9.598991098353558
 21
-13.49300003051683
 31
0.0
 11
-9.546996774622551
 21
-13.46500015258683
 31
0.0
 11
-9.501990976282534
 21
-13.42800140380785
 31
0.0
 11
-9.463996591517535
 21
-13.38399887084884
 31
0.0
 11
-9.434997262903571
 21
-13.33499908447184
 31
0.0
  0
ELLIPSE
  5
8A63
330
1F
100
AcDbEntity
  8
AM_0
100
AcDbEllipse
 10
-9.834994974085557
 20
-13.05399703979384
 30
0.0
 11
0.225193019575002
 21
-0.0415820970370003
 31
0.0
210
0.0
220
0.0
230
1.0
 40
0.8995573572879999
 41
4.921867726772113
 42
5.453004818104547
  0
SPLINE
  5
8A64
330
1F
100
AcDbEntity
  8
AM_0
100
AcDbSpline
210
0.0
220
0.0
230
1.0
 70
     8
 71
     3
 72
    11
 73
     7
 74
     5
 42
0.0000000001
 43
0.0000000001
 44
0.0000000001
 40
0.0
 40
0.0
 40
0.0
 40
0.0
 40
0.0489997863770082
 40
0.0962659886140988
 40
0.1435609769972471
 40
0.190053345444802
 40
0.190053345444802
 40
0.190053345444802
 40
0.190053345444802
 10
-9.784995737024551
 20
-13.52400207519485
 30
0.0
 10
-9.768655603517352
 20
-13.52434918145668
 30
0.0
 10
-9.736553440988432
 20
-13.52503111356128
 30
0.0
 10
-9.688798305068596
 20
-13.5200542428133
 30
0.0
 10
-9.642994803078398
 20
-13.50887021474845
 30
0.0
 10
-9.613575076537623
 20
-13.49825982448323
 30
0.0
 10
-9.598991098353558
 20
-13.49300003051683
 30
0.0
 11
-9.784995737024551
 21
-13.52400207519485
 31
0.0
 11
-9.735995950647543
 21
-13.52400207519485
 31
0.0
 11
-9.688995065638572
 21
-13.51900100707984
 31
0.0
 11
-9.642997446009553
 21
-13.50799942016584
 31
0.0
 11
-9.598991098353558
 21
-13.49300003051683
 31
0.0
  0
SPLINE
  5
8A65
330
1F
100
AcDbEntity
  8
AM_0
100
AcDbSpline
210
0.0
220
0.0
230
1.0
 70
     8
 71
     3
 72
    11
 73
     7
 74
     5
 42
0.0000000001
 43
0.0000000001
 44
0.0000000001
 40
0.0
 40
0.0
 40
0.0
 40
0.0
 40
0.0420449981402997
 40
0.0838313110883118
 40
0.1255900584142815
 40
0.1665915411940178
 40
0.1665915411940178
 40
0.1665915411940178
 40
0.1665915411940178
 10
-17.88799637789454
 20
-12.98099899291885
 30
0.0
 10
-17.89420108161473
 20
-12.96842431631374
 30
0.0
 10
-17.9065723141224
 20
-12.94335232980061
 30
0.0
 10
-17.92143509560314
 20
-12.90415840532718
 30
0.0
 10
-17.93352346411139
 20
-12.86439344159088
 30
0.0
 10
-17.93918992586249
 20
-12.83738297251792
 30
0.0
 10
-17.94199723238656
 20
-12.82400131225486
 30
0.0
 11
-17.88799637789454
 21
-12.98099899291885
 31
0.0
 11
-17.90599411959356
 21
-12.94300079345686
 31
0.0
 11
-17.92099350924155
 21
-12.90399932861287
 31
0.0
 11
-17.93299454683953
 21
-12.86400222778286
 31
0.0
 11
-17.94199723238656
 21
-12.82400131225486
 31
0.0
  0
SPLINE
  5
8A66
330
1F
100
AcDbEntity
  8
AM_0
100
AcDbSpline
210
0.0
220
0.0
230
1.0
 70
     8
 71
     3
 72
    11
 73
     7
 74
     5
 42
0.0000000001
 43
0.0000000001
 44
0.0000000001
 40
0.0
 40
0.0
 40
0.0
 40
0.0
 40
0.0476761250367764
 40
0.0961812744679411
 40
0.1452229045667505
 40
0.1936903909681252
 40
0.1936903909681252
 40
0.1936903909681252
 40
0.1936903909681252
 10
-18.15699357027656
 20
-12.92800140380787
 30
0.0
 10
-18.15464640949675
 20
-12.94373645648748
 30
0.0
 10
-18.14991127393341
 20
-12.97548017348161
 30
0.0
 10
-18.13689864019113
 20
-13.02215435200943
 30
0.0
 10
-18.12411909705303
 20
-13.06918839217066
 30
0.0
 10
-18.11134746315113
 20
-13.09912303533041
 30
0.0
 10
-18.10499924654655
 20
-13.11400222778286
 30
0.0
 11
-18.15699357027656
 21
-12.92800140380787
 31
0.0
 11
-18.14899796480855
 21
-12.97500228881786
 31
0.0
 11
-18.13699692721055
 21
-13.02199935912986
 31
0.0
 11
-18.12299698824554
 21
-13.06900024413987
 31
0.0
 11
-18.10499924654655
 21
-13.11400222778286
 31
0.0
  0
SPLINE
  5
8A67
330
1F
100
AcDbEntity
  8
AM_0
100
AcDbSpline
210
0.0
220
0.0
230
1.0
 70
     8
 71
     3
 72
    11
 73
     7
 74
     5
 42
0.0000000001
 43
0.0000000001
 44
0.0000000001
 40
0.0
 40
0.0
 40
0.0
 40
0.0
 40
0.0438608974735436
 40
0.0872780605444839
 40
0.1305410111217942
 40
0.1735913231115816
 40
0.1735913231115816
 40
0.1735913231115816
 40
0.1735913231115816
 10
-17.78499955172256
 20
-13.11999893188387
 30
0.0
 10
-17.79518414530491
 20
-13.10949961116787
 30
0.0
 10
-17.81545029639853
 20
-13.08860718985616
 30
0.0
 10
-17.84247526128198
 20
-13.05439905484503
 30
0.0
 10
-17.86629944497711
 20
-13.0182689832314
 30
0.0
 10
-17.88077595487734
 20
-12.99340190244193
 30
0.0
 10
-17.88799637789454
 20
-12.98099899291885
 30
0.0
 11
-17.78499955172256
 21
-13.11999893188387
 31
0.0
 11
-17.81499833101953
 21
-13.08800125121986
 31
0.0
 11
-17.84199875826555
 21
-13.05400085449186
 31
0.0
 11
-17.86599320406557
 21
-13.01800155639586
 31
0.0
 11
-17.88799637789454
 21
-12.98099899291885
 31
0.0
  0
SPLINE
  5
8A68
330
1F
100
AcDbEntity
  8
AM_0
100
AcDbSpline
210
0.0
220
0.0
230
1.0
 70
     8
 71
     3
 72
    11
 73
     7
 74
     5
 42
0.0000000001
 43
0.0000000001
 44
0.0000000001
 40
0.0
 40
0.0
 40
0.0
 40
0.0
 40
0.0590321542365473
 40
0.1168325414903373
 40
0.1748443470675796
 40
0.2331055540204076
 40
0.2331055540204076
 40
0.2331055540204076
 40
0.2331055540204076
 10
-18.10499924654655
 20
-13.11400222778286
 30
0.0
 10
-18.0965559433153
 20
-13.1317780036443
 30
0.0
 10
-18.07984551511158
 20
-13.16695864541002
 30
0.0
 10
-18.05090399838973
 20
-13.21767492256904
 30
0.0
 10
-18.01641755771041
 20
-13.26445924935599
 30
0.0
 10
-17.99148512327034
 20
-13.29413314837915
 30
0.0
 10
-17.97899216646856
 20
-13.30900192260686
 30
0.0
 11
-18.10499924654655
 21
-13.11400222778286
 31
0.0
 11
-18.07899826998356
 21
-13.16699981689386
 31
0.0
 11
-18.04999894137054
 21
-13.21699905395486
 31
0.0
 11
-18.01599472994456
 21
-13.26399993896386
 31
0.0
 11
-17.97899216646856
 21
-13.30900192260686
 31
0.0
  0
SPLINE
  5
8A69
330
1F
100
AcDbEntity
  8
AM_0
100
AcDbSpline
210
0.0
220
0.0
230
1.0
 70
     8
 71
     3
 72
    11
 73
     7
 74
     5
 42
0.0000000001
 43
0.0000000001
 44
0.0000000001
 40
0.0
 40
0.0
 40
0.0
 40
0.0
 40
0.0676208852281496
 40
0.1334841677639893
 40
0.199286641294367
 40
0.2644066947461835
 40
0.2644066947461835
 40
0.2644066947461835
 40
0.2644066947461835
 10
-17.56499833101954
 20
-13.26300048828086
 30
0.0
 10
-17.58590820609904
 20
-13.25450692743549
 30
0.0
 10
-17.627184466586
 20
-13.23774057045908
 30
0.0
 10
-17.68454302324139
 20
-13.20386773992384
 30
0.0
 10
-17.73779802043939
 20
-13.16529356460051
 30
0.0
 10
-17.76932047713906
 20
-13.1350445862364
 30
0.0
 10
-17.78499955172256
 20
-13.11999893188387
 30
0.0
 11
-17.56499833101954
 21
-13.26300048828086
 31
0.0
 11
-17.62699479097953
 21
-13.23600006103484
 31
0.0
 11
-17.68399399752254
 21
-13.20299911498986
 31
0.0
 11
-17.73699540133156
 21
-13.16400146484284
 31
0.0
 11
-17.78499955172256
 21
-13.11999893188387
 31
0.0
  0
SPLINE
  5
8A6A
330
1F
100
AcDbEntity
  8
AM_0
100
AcDbSpline
210
0.0
220
0.0
230
1.0
 70
     8
 71
     3
 72
    11
 73
     7
 74
     5
 42
0.0000000001
 43
0.0000000001
 44
0.0000000001
 40
0.0
 40
0.0
 40
0.0
 40
0.0
 40
0.0905167994443159
 40
0.1809427432831092
 40
0.2714979090732863
 40
0.3627841811838723
 40
0.3627841811838723
 40
0.3627841811838723
 40
0.3627841811838723
 10
-17.97899216646856
 20
-13.30900192260686
 30
0.0
 10
-17.95773139334331
 20
-13.33043138967303
 30
0.0
 10
-17.9152311874454
 20
-13.3732688141274
 30
0.0
 10
-17.84419129763598
 20
-13.42981810789161
 30
0.0
 10
-17.76555653211629
 20
-13.47574206564799
 30
0.0
 10
-17.70992346702919
 20
-13.49988236102743
 30
0.0
 10
-17.68199509615555
 20
-13.51200103759686
 30
0.0
 11
-17.97899216646856
 21
-13.30900192260686
 31
0.0
 11
-17.91399735445656
 21
-13.37200164794886
 31
0.0
 11
-17.84299820894855
 21
-13.42800140380787
 31
0.0
 11
-17.76499527926156
 21
-13.47399902343686
 31
0.0
 11
-17.68199509615555
 21
-13.51200103759686
 31
0.0
  0
SPLINE
  5
8A6B
330
1F
100
AcDbEntity
  8
AM_0
100
AcDbSpline
210
0.0
220
0.0
230
1.0
 70
     8
 71
     3
 72
    11
 73
     7
 74
     5
 42
0.0000000001
 43
0.0000000001
 44
0.0000000001
 40
0.0
 40
0.0
 40
0.0
 40
0.0
 40
0.0550093853003561
 40
0.1090156738998264
 40
0.1640250591991932
 40
0.2190344444995294
 40
0.2190344444995294
 40
0.2190344444995294
 40
0.2190344444995294
 10
-17.31399888033555
 20
-13.30900192260686
 30
0.0
 10
-17.31432991830841
 20
-13.32733539640543
 30
0.0
 10
-17.31498595777334
 20
-13.36366803292126
 30
0.0
 10
-17.31601048015568
 20
-13.41833345647464
 30
0.0
 10
-17.31699556384554
 20
-13.47299960335513
 30
0.0
 10
-17.31766297666155
 20
-13.50966645307084
 30
0.0
 10
-17.31799668306955
 20
-13.52799987792886
 30
0.0
 11
-17.31399888033555
 21
-13.30900192260686
 31
0.0
 11
-17.31499833101954
 21
-13.36400222778286
 31
0.0
 11
-17.31599778170257
 21
-13.41799926757785
 31
0.0
 11
-17.31699723238656
 21
-13.47299957275286
 31
0.0
 11
-17.31799668306955
 21
-13.52799987792886
 31
0.0
  0
SPLINE
  5
8A6C
330
1F
100
AcDbEntity
  8
AM_0
100
AcDbSpline
210
0.0
220
0.0
230
1.0
 70
     8
 71
     3
 72
    11
 73
     7
 74
     5
 42
0.0000000001
 43
0.0000000001
 44
0.0000000001
 40
0.0
 40
0.0
 40
0.0
 40
0.0
 40
0.0866493697717574
 40
0.1715784525510369
 40
0.2562954720412999
 40
0.3422998146679429
 40
0.3422998146679429
 40
0.3422998146679429
 40
0.3422998146679429
 10
-17.68199509615555
 20
-13.51200103759686
 30
0.0
 10
-17.65487776441946
 20
-13.52209303062057
 30
0.0
 10
-17.60118147293059
 20
-13.54207665601481
 30
0.0
 10
-17.51717295469226
 20
-13.55859616298345
 30
0.0
 10
-17.43271887980337
 20
-13.57139921917057
 30
0.0
 10
-17.37571358372442
 20
-13.57046854219366
 30
0.0
 10
-17.34699601168355
 20
-13.56999969482386
 30
0.0
 11
-17.68199509615555
 21
-13.51200103759686
 31
0.0
 11
-17.59999436373353
 21
-13.54000091552686
 31
0.0
 11
-17.51699418062851
 21
-13.55799865722586
 31
0.0
 11
-17.43299454683951
 21
-13.56900024413987
 31
0.0
 11
-17.34699601168355
 21
-13.56999969482386
 31
0.0
  0
SPLINE
  5
8A6D
330
1F
100
AcDbEntity
  8
AM_0
100
AcDbSpline
210
0.0
220
0.0
230
1.0
 70
     8
 71
     3
 72
    11
 73
     7
 74
     5
 42
0.0000000001
 43
0.0000000001
 44
0.0000000001
 40
0.0
 40
0.0
 40
0.0
 40
0.0
 40
0.0645179207219384
 40
0.1290507267124908
 40
0.1925600707528702
 40
0.2566258125864392
 40
0.2566258125864392
 40
0.2566258125864392
 40
0.2566258125864392
 10
-17.56499833101954
 20
-13.26300048828086
 30
0.0
 10
-17.54481812821537
 20
-13.27051564228997
 30
0.0
 10
-17.50445306672636
 20
-13.28554768416887
 30
0.0
 10
-17.44145306225087
 20
-13.29875062222103
 30
0.0
 10
-17.37788964377979
 20
-13.30707643004198
 30
0.0
 10
-17.33535763361027
 20
-13.30835822830101
 30
0.0
 10
-17.31399888033555
 20
-13.30900192260686
 30
0.0
 11
-17.56499833101954
 21
-13.26300048828086
 31
0.0
 11
-17.50399369234755
 21
-13.28400039672786
 31
0.0
 11
-17.44099778170257
 21
-13.29800033569286
 31
0.0
 11
-17.37799424166356
 21
-13.30599975585886
 31
0.0
 11
-17.31399888033555
 21
-13.30900192260686
 31
0.0
  0
SPLINE
  5
8A6E
330
1F
100
AcDbEntity
  8
AM_0
100
AcDbSpline
210
0.0
220
0.0
230
1.0
 70
     8
 71
     3
 72
    11
 73
     7
 74
     5
 42
0.0000000001
 43
0.0000000001
 44
0.0000000001
 40
0.0
 40
0.0
 40
0.0
 40
0.0
 40
0.0201000974486469
 40
0.0391273718652253
 40
0.0578117205196486
 40
0.0784229559327119
 40
0.0784229559327119
 40
0.0784229559327119
 40
0.0784229559327119
 10
-28.38299912447657
 20
-8.184001922606897
 30
0.0
 10
-28.38385301911701
 20
-8.177354140004489
 30
0.0
 10
-28.38551523260706
 20
-8.164413393690786
 30
0.0
 10
-28.38482025137131
 20
-8.144973349700498
 30
0.0
 10
-28.37915231977857
 20
-8.126226670175421
 30
0.0
 10
-28.37380359074895
 20
-8.114272096375007
 30
0.0
 10
-28.37099808687856
 20
-8.108001708983893
 30
0.0
 11
-28.38299912447657
 21
-8.184001922606897
 31
0.0
 11
-28.38499802584358
 21
-8.164001464842884
 31
0.0
 11
-28.38399857515956
 21
-8.14500045776289
 31
0.0
 11
-28.37899369234758
 21
-8.12699890136689
 31
0.0
 11
-28.37099808687856
 21
-8.108001708983893
 31
0.0
  0
SPLINE
  5
8A6F
330
1F
100
AcDbEntity
  8
AM_0
100
AcDbSpline
210
0.0
220
0.0
230
1.0
 70
     8
 71
     3
 72
    11
 73
     7
 74
     5
 42
0.0000000001
 43
0.0000000001
 44
0.0000000001
 40
0.0
 40
0.0
 40
0.0
 40
0.0
 40
0.5742959869511438
 40
1.150488395447825
 40
1.725729459271206
 40
2.302544240542932
 40
2.302544240542932
 40
2.302544240542932
 40
2.302544240542932
 10
-27.52599686617557
 20
-10.94900131225489
 30
0.0
 10
-27.58839925465299
 20
-10.76802568380225
 30
0.0
 10
-27.71341009474721
 20
-10.40547681505776
 30
0.0
 10
-27.89965760568311
 20
-9.861218771692302
 30
0.0
 10
-28.08759833134462
 20
-9.316653797283498
 30
0.0
 10
-28.21114219922918
 20
-8.953050099906713
 30
0.0
 10
-28.27299851412458
 20
-8.770999908446881
 30
0.0
 11
-27.52599686617557
 21
-10.94900131225489
 31
0.0
 11
-27.71299332613657
 21
-10.40600204467689
 31
0.0
 11
-27.89999741549156
 21
-9.861000061034886
 31
0.0
 11
-28.08699387545258
 21
-9.317001342772883
 31
0.0
 11
-28.27299851412458
 21
-8.770999908446881
 31
0.0
  0
SPLINE
  5
8A70
330
1F
100
AcDbEntity
  8
AM_0
100
AcDbSpline
210
0.0
220
0.0
230
1.0
 70
     8
 71
     3
 72
    11
 73
     7
 74
     5
 42
0.0000000001
 43
0.0000000001
 44
0.0000000001
 40
0.0
 40
0.0
 40
0.0
 40
0.0
 40
0.0872832532019647
 40
0.1758318083646098
 40
0.2707520067210674
 40
0.3755380436056032
 40
0.3755380436056032
 40
0.3755380436056032
 40
0.3755380436056032
 10
-17.59999436373356
 20
-12.24999999999987
 30
0.0
 10
-17.59996936092319
 20
-12.2794789521874
 30
0.0
 10
-17.59991899284912
 20
-12.33886419828764
 30
0.0
 10
-17.64407647857242
 20
-12.42134009218097
 30
0.0
 10
-17.71781013878919
 20
-12.48622300568413
 30
0.0
 10
-17.78089709765583
 20
-12.50903200597699
 30
0.0
 10
-17.81399888033555
 20
-12.52099990844685
 30
0.0
 11
-17.59999436373356
 21
-12.24999999999987
 31
0.0
 11
-17.60699814791356
 21
-12.33700180053686
 31
0.0
 11
-17.64699906344057
 21
-12.41600036620987
 31
0.0
 11
-17.71799820894855
 21
-12.47900009155186
 31
0.0
 11
-17.81399888033555
 21
-12.52099990844685
 31
0.0
  0
SPLINE
  5
8A71
330
1F
100
AcDbEntity
  8
AM_0
100
AcDbSpline
210
0.0
220
0.0
230
1.0
 70
     8
 71
     3
 72
    11
 73
     7
 74
     5
 42
0.0000000001
 43
0.0000000001
 44
0.0000000001
 40
0.0
 40
0.0
 40
0.0
 40
0.0
 40
2.19996076220235
 40
4.401769748166179
 40
6.603815384418245
 40
8.807908976495919
 40
8.807908976495919
 40
8.807908976495919
 40
8.807908976495919
 10
-26.69399613375356
 20
-11.35300064086887
 30
0.0
 10
-25.96849195266194
 20
-11.45981029475143
 30
0.0
 10
-24.51687408230493
 20
-11.67351933508981
 30
0.0
 10
-22.33612503677237
 20
-11.97355263840857
 30
0.0
 10
-20.15275811953893
 20
-12.26451909454947
 30
0.0
 10
-18.69514474251612
 20
-12.44481166337032
 30
0.0
 10
-17.96599930758156
 20
-12.53499984741186
 30
0.0
 11
-26.69399613375356
 21
-11.35300064086887
 31
0.0
 11
-24.51699418062855
 21
-11.67000198364187
 31
0.0
 11
-22.33599442476954
 21
-11.97200012206988
 31
0.0
 11
-20.15299576754256
 21
-12.26100158691387
 31
0.0
 11
-17.96599930758156
 21
-12.53499984741186
 31
0.0
  0
SPLINE
  5
8A72
330
1F
100
AcDbEntity
  8
AM_0
100
AcDbSpline
210
0.0
220
0.0
230
1.0
 70
     8
 71
     3
 72
    11
 73
     7
 74
     5
 42
0.0000000001
 43
0.0000000001
 44
0.0000000001
 40
0.0
 40
0.0
 40
0.0
 40
0.0
 40
0.2886847253032912
 40
0.5591057261956756
 40
0.7868268560417545
 40
0.9627156585704543
 40
0.9627156585704543
 40
0.9627156585704543
 40
0.9627156585704543
 10
-26.69399613375356
 20
-11.35300064086887
 30
0.0
 10
-26.78994699905788
 20
-11.34126002014082
 30
0.0
 10
-26.97577836983343
 20
-11.31852155252273
 30
0.0
 10
-27.22221909408905
 20
-11.22961988008594
 30
0.0
 10
-27.42600320087364
 20
-11.11766636258683
 30
0.0
 10
-27.495646901644
 20
-11.00019433813141
 30
0.0
 10
-27.52599686617557
 20
-10.94900131225489
 30
0.0
 11
-26.69399613375356
 21
-11.35300064086887
 31
0.0
 11
-26.97899216646856
 21
-11.30699920654187
 31
0.0
 11
-27.23399704928056
 21
-11.21699905395489
 31
0.0
 11
-27.42499894137055
 21
-11.0930023193349
 31
0.0
 11
-27.52599686617557
 21
-10.94900131225489
 31
0.0
  0
ELLIPSE
  5
8A73
330
1F
100
AcDbEntity
  8
AM_0
100
AcDbEllipse
 10
-18.61899918551157
 20
-9.140003204344864
 30
0.0
 11
0.2029495253529987
 21
-0.0206890254799956
 31
0.0
210
0.0
220
0.0
230
1.0
 40
0.6372595395658997
 41
6.154720753335891
 42
6.399883478935491
  0
ELLIPSE
  5
8A74
330
1F
100
AcDbEntity
  8
AM_0
100
AcDbEllipse
 10
-18.64899796480856
 20
-9.133998870848857
 30
0.0
 11
0.2327957194329998
 21
-0.0237331122550014
 31
0.0
210
0.0
220
0.0
230
1.0
 40
0.6367539282152001
 41
5.928555718476042
 42
6.154616402217483
  0
SPLINE
  5
8A75
330
1F
100
AcDbEntity
  8
AM_0
100
AcDbSpline
210
0.0
220
0.0
230
1.0
 70
     8
 71
     3
 72
    11
 73
     7
 74
     5
 42
0.0000000001
 43
0.0000000001
 44
0.0000000001
 40
0.0
 40
0.0
 40
0.0
 40
0.0
 40
0.0183611904580125
 40
0.0367429226734582
 40
0.0547741073102778
 40
0.0732105151212276
 40
0.0732105151212276
 40
0.0732105151212276
 40
0.0732105151212276
 10
-18.23499649996455
 20
-9.434001922606867
 30
0.0
 10
-18.2318240666846
 20
-9.428750518931627
 30
0.0
 10
-18.22547565093464
 20
-9.418241836523058
 30
0.0
 10
-18.2190838764416
 20
-9.401093015450417
 30
0.0
 10
-18.21241550014675
 20
-9.384025335902311
 30
0.0
 10
-18.21014392944997
 20
-9.372053541079617
 30
0.0
 10
-18.20899552340157
 20
-9.366001129149863
 30
0.0
 11
-18.23499649996455
 21
-9.434001922606867
 31
0.0
 11
-18.22599381441757
 21
-9.417999267577853
 31
0.0
 11
-18.21899765963255
 21
-9.40100097656186
 31
0.0
 11
-18.21299332613657
 21
-9.383998870848856
 31
0.0
 11
-18.20899552340157
 21
-9.366001129149863
 31
0.0
  0
ELLIPSE
  5
8A76
330
1F
100
AcDbEntity
  8
AM_0
100
AcDbEllipse
 10
-18.61999863619457
 20
-9.144001007079864
 30
0.0
 11
0.2019500792860001
 21
-0.0205879186049953
 31
0.0
210
0.0
220
0.0
230
1.0
 40
0.6354747643744001
 41
5.354129123416941
 42
5.928414271593031
  0
SPLINE
  5
8A77
330
1F
100
AcDbEntity
  8
AM_0
100
AcDbSpline
210
0.0
220
0.0
230
1.0
 70
     8
 71
     3
 72
    11
 73
     7
 74
     5
 42
0.0000000001
 43
0.0000000001
 44
0.0000000001
 40
0.0
 40
0.0
 40
0.0
 40
0.0
 40
0.0544074077748947
 40
0.1049423507490169
 40
0.1527452182385398
 40
0.1981979450969982
 40
0.1981979450969982
 40
0.1981979450969982
 40
0.1981979450969982
 10
-18.39899796480856
 20
-9.536998748778856
 30
0.0
 10
-18.38141122373896
 20
-9.53232517790035
 30
0.0
 10
-18.34748948356905
 20
-9.523310679058354
 30
0.0
 10
-18.30222193412927
 20
-9.499478279045863
 30
0.0
 10
-18.2628505286038
 20
-9.471224302310243
 30
0.0
 10
-18.2441238655374
 20
-9.446199162418899
 30
0.0
 10
-18.23499649996455
 20
-9.434001922606867
 30
0.0
 11
-18.39899796480856
 21
-9.536998748778856
 31
0.0
 11
-18.34699601168356
 21
-9.520999908446851
 31
0.0
 11
-18.30199784273757
 21
-9.49800109863186
 31
0.0
 11
-18.26399582857758
 21
-9.469001770018863
 31
0.0
 11
-18.23499649996455
 21
-9.434001922606867
 31
0.0
  0
ELLIPSE
  5
8A78
330
1F
100
AcDbEntity
  8
AM_0
100
AcDbEllipse
 10
-18.63499802584357
 20
-9.129001617430859
 30
0.0
 11
0.227821351234006
 21
-0.0232257646810009
 31
0.0
210
0.0
220
0.0
230
0.9999999999999998
 40
0.6375461289008
 41
4.824363144615347
 42
5.355779482082066
  0
SPLINE
  5
8A79
330
1F
100
AcDbEntity
  8
AM_0
100
AcDbSpline
210
0.0
220
0.0
230
1.0
 70
     8
 71
     3
 72
    11
 73
     7
 74
     5
 42
0.0000000001
 43
0.0000000001
 44
0.0000000001
 40
0.0
 40
0.0
 40
0.0
 40
0.0
 40
0.049158800509848
 40
0.0961635002168509
 40
0.1423345240113593
 40
0.187055201296975
 40
0.187055201296975
 40
0.187055201296975
 40
0.187055201296975
 10
-18.58499497408556
 20
-9.545001983641855
 30
0.0
 10
-18.56867856872402
 20
-9.546623004764756
 30
0.0
 10
-18.53676073032582
 20
-9.549794015112581
 30
0.0
 10
-18.48925334562219
 20
-9.549586747445141
 30
0.0
 10
-18.44333902891071
 20
-9.545979639677915
 30
0.0
 10
-18.41362024665414
 20
-9.539960362817886
 30
0.0
 10
-18.39899796480856
 20
-9.536998748778856
 30
0.0
 11
-18.58499497408556
 21
-9.545001983641855
 31
0.0
 11
-18.53599900240556
 21
-9.548999786375858
 31
0.0
 11
-18.48899430269856
 21
-9.548999786375858
 31
0.0
 11
-18.44299668306957
 21
-9.545001983641853
 31
0.0
 11
-18.39899796480856
 21
-9.536998748778856
 31
0.0
  0
SPLINE
  5
8A7A
330
1F
100
AcDbEntity
  8
AM_0
100
AcDbSpline
210
0.0
220
0.0
230
1.0
 70
     8
 71
     3
 72
    11
 73
     7
 74
     5
 42
0.0000000001
 43
0.0000000001
 44
0.0000000001
 40
0.0
 40
0.0
 40
0.0
 40
0.0
 40
0.0332853101291595
 40
0.0650496746577909
 40
0.0964376855104926
 40
0.1268000321784003
 40
0.1268000321784003
 40
0.1268000321784003
 40
0.1268000321784003
 10
-26.68799942965158
 20
-8.782001495360869
 30
0.0
 10
-26.69415133254076
 20
-8.772762318296257
 30
0.0
 10
-26.70617403204137
 20
-8.754706140966776
 30
0.0
 10
-26.72140485976163
 20
-8.726338720662157
 30
0.0
 10
-26.73343631262036
 20
-8.697506674026964
 30
0.0
 10
-26.73917229866269
 20
-8.677725549221328
 30
0.0
 10
-26.74199265474958
 20
-8.667999267577867
 30
0.0
 11
-26.68799942965158
 21
-8.782001495360869
 31
0.0
 11
-26.70599717135157
 21
-8.754001617430869
 31
0.0
 11
-26.72099656099958
 21
-8.726001739500869
 31
0.0
 11
-26.73299759859758
 21
-8.696998596190864
 31
0.0
 11
-26.74199265474958
 21
-8.667999267577867
 31
0.0
  0
SPLINE
  5
8A7B
330
1F
100
AcDbEntity
  8
AM_0
100
AcDbSpline
210
0.0
220
0.0
230
1.0
 70
     8
 71
     3
 72
    11
 73
     7
 74
     5
 42
0.0000000001
 43
0.0000000001
 44
0.0000000001
 40
0.0
 40
0.0
 40
0.0
 40
0.0
 40
0.0359032183395229
 40
0.0719594505491958
 40
0.1096554398568982
 40
0.1472450813307169
 40
0.1472450813307169
 40
0.1472450813307169
 40
0.1472450813307169
 10
-26.95699662203456
 20
-8.813999176024889
 30
0.0
 10
-26.95467033344872
 20
-8.825766015321248
 30
0.0
 10
-26.95000784200095
 20
-8.849349842332502
 30
0.0
 10
-26.93663232212395
 20
-8.883447540949664
 30
0.0
 10
-26.92406181392024
 20
-8.918459784599198
 30
0.0
 10
-26.9113443957413
 20
-8.940163623500318
 30
0.0
 10
-26.90499466890955
 20
-8.951000213622888
 30
0.0
 11
-26.95699662203456
 21
-8.813999176024889
 31
0.0
 11
-26.94899338717156
 21
-8.848999023436887
 31
0.0
 11
-26.93699234957356
 21
-8.882999420165885
 31
0.0
 11
-26.92299241060857
 21
-8.917999267577881
 31
0.0
 11
-26.90499466890955
 21
-8.951000213622888
 31
0.0
  0
SPLINE
  5
8A7C
330
1F
100
AcDbEntity
  8
AM_0
100
AcDbSpline
210
0.0
220
0.0
230
1.0
 70
     8
 71
     3
 72
    11
 73
     7
 74
     5
 42
0.0000000001
 43
0.0000000001
 44
0.0000000001
 40
0.0
 40
0.0
 40
0.0
 40
0.0
 40
0.0384167055620174
 40
0.0752147947480838
 40
0.1105977290342782
 40
0.1454282146750633
 40
0.1454282146750633
 40
0.1454282146750633
 40
0.1454282146750633
 10
-26.58499497408556
 20
-8.883998870848865
 30
0.0
 10
-26.59511814186185
 20
-8.876148275539835
 30
0.0
 10
-26.6149379565845
 20
-8.860777855141193
 30
0.0
 10
-26.6419919267309
 20
-8.835660249388494
 30
0.0
 10
-26.66620684972146
 20
-8.809418936647297
 30
0.0
 10
-26.68077344030713
 20
-8.791092577702794
 30
0.0
 10
-26.68799942965158
 20
-8.782001495360869
 30
0.0
 11
-26.58499497408556
 21
-8.883998870848865
 31
0.0
 11
-26.61499375338255
 21
-8.860000610350876
 31
0.0
 11
-26.64199418062856
 21
-8.834999084471872
 31
0.0
 11
-26.66599625582356
 21
-8.809001922606878
 31
0.0
 11
-26.68799942965158
 21
-8.782001495360869
 31
0.0
  0
SPLINE
  5
8A7D
330
1F
100
AcDbEntity
  8
AM_0
100
AcDbSpline
210
0.0
220
0.0
230
1.0
 70
     8
 71
     3
 72
    11
 73
     7
 74
     5
 42
0.0000000001
 43
0.0000000001
 44
0.0000000001
 40
0.0
 40
0.0
 40
0.0
 40
0.0
 40
0.0468739271032037
 40
0.0938831652521823
 40
0.142676165863466
 40
0.1929276999839037
 40
0.1929276999839037
 40
0.1929276999839037
 40
0.1929276999839037
 10
-26.90499466890955
 20
-8.951000213622888
 30
0.0
 10
-26.89651063762318
 20
-8.964123281893312
 30
0.0
 10
-26.87951808418279
 20
-8.990407300817853
 30
0.0
 10
-26.85034792150622
 20
-9.028109756283068
 30
0.0
 10
-26.8159394564245
 20
-9.062665323978512
 30
0.0
 10
-26.79143027201352
 20
-9.084780333432318
 30
0.0
 10
-26.77899521822656
 20
-9.096000671385864
 30
0.0
 11
-26.90499466890955
 21
-8.951000213622888
 31
0.0
 11
-26.87899369234756
 21
-8.990001678465883
 31
0.0
 11
-26.84999436373357
 21
-9.02700042724588
 31
0.0
 11
-26.81599778170258
 21
-9.062000274657874
 31
0.0
 11
-26.77899521822656
 21
-9.096000671385864
 31
0.0
  0
SPLINE
  5
8A7E
330
1F
100
AcDbEntity
  8
AM_0
100
AcDbSpline
210
0.0
220
0.0
230
1.0
 70
     8
 71
     3
 72
    11
 73
     7
 74
     5
 42
0.0000000001
 43
0.0000000001
 44
0.0000000001
 40
0.0
 40
0.0
 40
0.0
 40
0.0
 40
0.0657911764518667
 40
0.1280325280021683
 40
0.1884486671185314
 40
0.2466957998169416
 40
0.2466957998169416
 40
0.2466957998169416
 40
0.2466957998169416
 10
-26.36499375338255
 20
-8.993000030516864
 30
0.0
 10
-26.38578185524218
 20
-8.98598099376797
 30
0.0
 10
-26.42623641734294
 20
-8.972321639009987
 30
0.0
 10
-26.48377282889041
 20
-8.946964462164675
 30
0.0
 10
-26.53709830894618
 20
-8.918499996925032
 30
0.0
 10
-26.56922516440217
 20
-8.895358246089301
 30
0.0
 10
-26.58499497408556
 20
-8.883998870848865
 30
0.0
 11
-26.36499375338255
 21
-8.993000030516864
 31
0.0
 11
-26.42699784273757
 21
-8.971000671385862
 31
0.0
 11
-26.48399704928057
 21
-8.945999145506872
 31
0.0
 11
-26.53699845308955
 21
-8.916999816893873
 31
0.0
 11
-26.58499497408556
 21
-8.883998870848865
 31
0.0
  0
SPLINE
  5
8A7F
330
1F
100
AcDbEntity
  8
AM_0
100
AcDbSpline
210
0.0
220
0.0
230
1.0
 70
     8
 71
     3
 72
    11
 73
     7
 74
     5
 42
0.0000000001
 43
0.0000000001
 44
0.0000000001
 40
0.0
 40
0.0
 40
0.0
 40
0.0
 40
0.0802147154865788
 40
0.1627063107065576
 40
0.2481946501842982
 40
0.3364497189052358
 40
0.3364497189052358
 40
0.3364497189052358
 40
0.3364497189052358
 10
-26.77899521822656
 20
-9.096000671385864
 30
0.0
 10
-26.75760028565562
 20
-9.112057006220373
 30
0.0
 10
-26.71420312934438
 20
-9.144625431958036
 30
0.0
 10
-26.64287285511819
 20
-9.186974582173151
 30
0.0
 10
-26.56454811873214
 20
-9.221448930081319
 30
0.0
 10
-26.50980538341038
 20
-9.240382476007587
 30
0.0
 10
-26.48199814791358
 20
-9.24999999999988
 30
0.0
 11
-26.77899521822656
 21
-9.096000671385864
 31
0.0
 11
-26.71399277681957
 21
-9.143001556395869
 31
0.0
 11
-26.64299363131258
 21
-9.185001373290871
 31
0.0
 11
-26.56499833101956
 21
-9.220001220702863
 31
0.0
 11
-26.48199814791358
 21
-9.24999999999988
 31
0.0
  0
SPLINE
  5
8A80
330
1F
100
AcDbEntity
  8
AM_0
100
AcDbSpline
210
0.0
220
0.0
230
1.0
 70
     8
 71
     3
 72
    11
 73
     7
 74
     5
 42
0.0000000001
 43
0.0000000001
 44
0.0000000001
 40
0.0
 40
0.0
 40
0.0
 40
0.0
 40
0.0550093852993401
 40
0.1110180592530006
 40
0.1660274445533656
 40
0.2220361185060485
 40
0.2220361185060485
 40
0.2220361185060485
 40
0.2220361185060485
 10
-26.11399430269856
 20
-9.034999847411876
 30
0.0
 10
-26.11432956234922
 20
-9.053333244480409
 30
0.0
 10
-26.1150061719052
 20
-9.09033307916294
 30
0.0
 10
-26.11597949462583
 20
-9.145667005119989
 30
0.0
 10
-26.1170050848401
 20
-9.201333139989952
 30
0.0
 10
-26.11766113018461
 20
-9.238333345025104
 30
0.0
 10
-26.11799210543356
 20
-9.256999969481878
 30
0.0
 11
-26.11399430269856
 21
-9.034999847411876
 31
0.0
 11
-26.11499375338255
 21
-9.090000152586862
 31
0.0
 11
-26.11599320406558
 21
-9.145999908446862
 31
0.0
 11
-26.11699265474957
 21
-9.201000213622872
 31
0.0
 11
-26.11799210543356
 21
-9.256999969481878
 31
0.0
  0
SPLINE
  5
8A81
330
1F
100
AcDbEntity
  8
AM_0
100
AcDbSpline
210
0.0
220
0.0
230
1.0
 70
     8
 71
     3
 72
    11
 73
     7
 74
     5
 42
0.0000000001
 43
0.0000000001
 44
0.0000000001
 40
0.0
 40
0.0
 40
0.0
 40
0.0
 40
0.0846470098262712
 40
0.1691750719561353
 40
0.253655761014314
 40
0.3397065492975377
 40
0.3397065492975377
 40
0.3397065492975377
 40
0.3397065492975377
 10
-26.48199814791358
 20
-9.24999999999988
 30
0.0
 10
-26.45474187834299
 20
-9.257313841095889
 30
0.0
 10
-26.40026764026506
 20
-9.271931245729938
 30
0.0
 10
-26.31720168533289
 20
-9.288208743364975
 30
0.0
 10
-26.23253611521748
 20
-9.297257822917739
 30
0.0
 10
-26.17568588914503
 20
-9.298415578701314
 30
0.0
 10
-26.14699906344058
 20
-9.298999786375867
 30
0.0
 11
-26.48199814791358
 21
-9.24999999999988
 31
0.0
 11
-26.39999741549156
 21
-9.270999908446862
 31
0.0
 11
-26.31699723238658
 21
-9.286998748778868
 31
0.0
 11
-26.23299759859758
 21
-9.296001434325871
 31
0.0
 11
-26.14699906344058
 21
-9.298999786375867
 31
0.0
  0
SPLINE
  5
8A82
330
1F
100
AcDbEntity
  8
AM_0
100
AcDbSpline
210
0.0
220
0.0
230
1.0
 70
     8
 71
     3
 72
    11
 73
     7
 74
     5
 42
0.0000000001
 43
0.0000000001
 44
0.0000000001
 40
0.0
 40
0.0
 40
0.0
 40
0.0
 40
0.0633222452186964
 40
0.1274578781753771
 40
0.1910938201023102
 40
0.2552215461511578
 40
0.2552215461511578
 40
0.2552215461511578
 40
0.2552215461511578
 10
-26.36499375338255
 20
-8.993000030516864
 30
0.0
 10
-26.34476023291561
 20
-8.999086299258735
 30
0.0
 10
-26.30403328809824
 20
-9.011337016161851
 30
0.0
 10
-26.24117185458313
 20
-9.022070498367494
 30
0.0
 10
-26.17796036679938
 20
-9.032257869092784
 30
0.0
 10
-26.13537096868158
 20
-9.034083512235032
 30
0.0
 10
-26.11399430269856
 20
-9.034999847411876
 30
0.0
 11
-26.36499375338255
 21
-8.993000030516864
 31
0.0
 11
-26.30399674410455
 21
-9.010002136229868
 31
0.0
 11
-26.24099320406558
 21
-9.021999359129873
 31
0.0
 11
-26.17799729342156
 21
-9.031002044676878
 31
0.0
 11
-26.11399430269856
 21
-9.034999847411876
 31
0.0
  0
ELLIPSE
  5
8A83
330
1F
100
AcDbEntity
  8
AM_0
100
AcDbEllipse
 10
-35.60799759859757
 20
-1.829998016356891
 30
0.0
 11
0.2282409703109991
 21
-0.0186634144129979
 31
0.0
210
0.0
220
0.0
230
1.0
 40
0.2532686832445
 41
1.638121858457389
 42
2.172925063337868
  0
ELLIPSE
  5
8A84
330
1F
100
AcDbEntity
  8
AM_0
100
AcDbEllipse
 10
-35.62199753756257
 20
-1.824001312254902
 30
0.0
 11
0.2023239169799993
 21
-0.016544354139995
 31
0.0
210
0.0
220
0.0
230
1.0
 40
0.2561545152123
 41
2.177269440077592
 42
2.753515959055333
  0
SPLINE
  5
8A85
330
1F
100
AcDbEntity
  8
AM_0
100
AcDbSpline
210
0.0
220
0.0
230
1.0
 70
     8
 71
     3
 72
    11
 73
     7
 74
     5
 42
0.0000000001
 43
0.0000000001
 44
0.0000000001
 40
0.0
 40
0.0
 40
0.0
 40
0.0
 40
0.2184952106298418
 40
0.4375004941818584
 40
0.6565142777100938
 40
0.8751907422219945
 40
0.8751907422219945
 40
0.8751907422219945
 40
0.8751907422219945
 10
-36.32599228853856
 20
-5.469001770018903
 30
0.0
 10
-36.38837079363632
 20
-5.431406275588488
 30
0.0
 10
-36.51327342526805
 20
-5.356127520759477
 30
0.0
 10
-36.69991189513065
 20
-5.241862726383968
 30
0.0
 10
-36.88710181391142
 20
-5.128384246422146
 30
0.0
 10
-37.01106174009767
 20
-5.051441975044171
 30
0.0
 10
-37.07299393648756
 20
-5.013000488280892
 30
0.0
 11
-36.32599228853856
 21
-5.469001770018903
 31
0.0
 11
-36.51299637789455
 21
-5.355998992918896
 31
0.0
 11
-36.69999283785456
 21
-5.242000579832902
 31
0.0
 11
-36.88699692721055
 21
-5.127998352049899
 31
0.0
 11
-37.07299393648756
 21
-5.013000488280892
 31
0.0
  0
ELLIPSE
  5
8A86
330
1F
100
AcDbEntity
  8
AM_0
100
AcDbEllipse
 10
-35.59399765963257
 20
-1.828998565672899
 30
0.0
 11
0.233222962224005
 21
-0.0190715788429966
 31
0.0
210
0.0
220
0.0
230
1.0
 40
0.2564118218716
 41
2.831997776494556
 42
2.971414292288611
  0
ELLIPSE
  5
8A87
330
1F
100
AcDbEntity
  8
AM_0
100
AcDbEllipse
 10
-35.59399765963257
 20
-1.828998565672899
 30
0.0
 11
0.233222962224005
 21
-0.0190715788429966
 31
0.0
210
0.0
220
0.0
230
1.0
 40
0.2564118218716
 41
2.753685437451397
 42
2.831997776494556
  0
SPLINE
  5
8A88
330
1F
100
AcDbEntity
  8
AM_0
100
AcDbSpline
210
0.0
220
0.0
230
1.0
 70
     8
 71
     3
 72
    11
 73
     7
 74
     5
 42
0.0000000001
 43
0.0000000001
 44
0.0000000001
 40
0.0
 40
0.0
 40
0.0
 40
0.0
 40
0.0063996068960209
 40
0.0106426152868556
 40
0.0148829254221458
 40
0.018493904635262
 40
0.018493904635262
 40
0.018493904635262
 40
0.018493904635262
 10
-36.04999894137057
 20
-1.942001342772907
 30
0.0
 10
-36.05172249017358
 20
-1.943271617020952
 30
0.0
 10
-36.05458877042123
 20
-1.945384096795163
 30
0.0
 10
-36.05792645840778
 20
-1.949061391208305
 30
0.0
 10
-36.06102334806314
 20
-1.951703478112941
 30
0.0
 10
-36.06237690109181
 20
-1.953962744956468
 30
0.0
 10
-36.06299942965156
 20
-1.955001831053902
 30
0.0
 11
-36.04999894137057
 21
-1.942001342772907
 31
0.0
 11
-36.05499619478857
 21
-1.945999145506899
 31
0.0
 11
-36.05799454683959
 21
-1.949001312254903
 31
0.0
 11
-36.06099289889059
 21
-1.951999664305897
 31
0.0
 11
-36.06299942965156
 21
-1.955001831053902
 31
0.0
  0
ELLIPSE
  5
8A89
330
1F
100
AcDbEntity
  8
AM_0
100
AcDbEllipse
 10
-35.62399643892959
 20
-1.825000762938893
 30
0.0
 11
0.203323360688998
 21
-0.0166263730709983
 31
0.0
210
0.0
220
0.0
230
1.0
 40
0.2548860167428999
 41
2.970886716423691
 42
3.217635928350726
  0
SPLINE
  5
8A8A
330
1F
100
AcDbEntity
  8
AM_0
100
AcDbSpline
210
0.0
220
0.0
230
1.0
 70
     8
 71
     3
 72
    11
 73
     7
 74
     5
 42
0.0000000001
 43
0.0000000001
 44
0.0000000001
 40
0.0
 40
0.0
 40
0.0
 40
0.0
 40
0.0465266288625042
 40
0.1030964661088404
 40
0.1801745713608245
 40
0.2774992434564849
 40
0.2774992434564849
 40
0.2774992434564849
 40
0.2774992434564849
 10
-26.39999741549154
 20
-7.07500076293888
 30
0.0
 10
-26.40042067225297
 20
-7.091157479368217
 30
0.0
 10
-26.40135854970998
 20
-7.126958490713998
 30
0.0
 10
-26.45213528900177
 20
-7.168308853468188
 30
0.0
 10
-26.52339015309228
 20
-7.19620980320596
 30
0.0
 10
-26.58154259725251
 20
-7.203135743257651
 30
0.0
 10
-26.61399430269854
 20
-7.207000732420876
 30
0.0
 11
-26.39999741549154
 21
-7.07500076293888
 31
0.0
 11
-26.40699357027655
 21
-7.120998382567871
 31
0.0
 11
-26.44699448580456
 21
-7.160999298094874
 31
0.0
 11
-26.51799363131256
 21
-7.191001892088872
 31
0.0
 11
-26.61399430269854
 21
-7.207000732420876
 31
0.0
  0
ELLIPSE
  5
8A8B
330
1F
100
AcDbEntity
  8
AM_0
100
AcDbEllipse
 10
-27.41899460787456
 20
-3.49799728393489
 30
0.0
 11
0.203323360688998
 21
-0.0166263730709983
 31
0.0
210
0.0
220
0.0
230
1.0
 40
0.2548860167428999
 41
6.111262799199438
 42
6.358900766224572
  0
SPLINE
  5
8A8C
330
1F
100
AcDbEntity
  8
AM_0
100
AcDbSpline
210
0.0
220
0.0
230
1.0
 70
     8
 71
     3
 72
    11
 73
     7
 74
     5
 42
0.0000000001
 43
0.0000000001
 44
0.0000000001
 40
0.0
 40
0.0
 40
0.0
 40
0.0
 40
0.2871371240055326
 40
0.5449499677762378
 40
0.7396956374631598
 40
0.8459471856500339
 40
0.8459471856500339
 40
0.8459471856500339
 40
0.8459471856500339
 10
-35.49399918551156
 20
-5.612998962401897
 30
0.0
 10
-35.58910430483003
 20
-5.601938744327912
 30
0.0
 10
-35.76960180019034
 20
-5.580947848414013
 30
0.0
 10
-36.01304143809585
 20
-5.543561295504941
 30
0.0
 10
-36.1976926476313
 20
-5.513898977518148
 30
0.0
 10
-36.29251880349874
 20
-5.480715489503448
 30
0.0
 10
-36.32599228853856
 20
-5.469001770018903
 30
0.0
 11
-35.49399918551156
 21
-5.612998962401897
 31
0.0
 11
-35.77899521822658
 21
-5.577999114989902
 31
0.0
 11
-36.03399247164456
 21
-5.540000915526899
 31
0.0
 11
-36.22499436373359
 21
-5.501998901366899
 31
0.0
 11
-36.32599228853856
 21
-5.469001770018903
 31
0.0
  0
ELLIPSE
  5
8A8D
330
1F
100
AcDbEntity
  8
AM_0
100
AcDbEllipse
 10
-27.44899338717155
 20
-3.493999481200885
 30
0.0
 11
0.233222962223003
 21
-0.0190715788430037
 31
0.0
210
0.0
220
0.0
230
1.0
 40
0.2564118218716
 41
5.894601643188856
 42
6.111789563356159
  0
SPLINE
  5
8A8E
330
1F
100
AcDbEntity
  8
AM_0
100
AcDbSpline
210
0.0
220
0.0
230
1.0
 70
     8
 71
     3
 72
    11
 73
     7
 74
     5
 42
0.0000000001
 43
0.0000000001
 44
0.0000000001
 40
0.0
 40
0.0
 40
0.0
 40
0.0
 40
0.0114038554805378
 40
0.0213060050243949
 40
0.0313035638798055
 40
0.0402463346864523
 40
0.0402463346864523
 40
0.0402463346864523
 40
0.0402463346864523
 10
-27.03499955172256
 20
-3.765998840331885
 30
0.0
 10
-27.03192898431066
 20
-3.763746726989404
 30
0.0
 10
-27.026192194256
 20
-3.759539067722565
 30
0.0
 10
-27.01883543906041
 20
-3.752107560900297
 30
0.0
 10
-27.01284859324117
 20
-3.744491688357442
 30
0.0
 10
-27.01023336715638
 20
-3.738723527064291
 30
0.0
 10
-27.00899857515955
 20
-3.736000061034882
 30
0.0
 11
-27.03499955172256
 21
-3.765998840331885
 31
0.0
 11
-27.02599686617557
 21
-3.758998870848882
 31
0.0
 11
-27.01899308199557
 21
-3.751998901366885
 31
0.0
 11
-27.01299637789455
 21
-3.743999481200884
 31
0.0
 11
-27.00899857515955
 21
-3.736000061034882
 31
0.0
  0
ELLIPSE
  5
8A8F
330
1F
100
AcDbEntity
  8
AM_0
100
AcDbEllipse
 10
-27.41999405855855
 20
-3.499999999999898
 30
0.0
 11
0.2023239169800064
 21
-0.016544354139995
 31
0.0
210
0.0
220
0.0
230
1.0
 40
0.2561545152123
 41
5.318306634903252
 42
5.894433576357744
  0
SPLINE
  5
8A90
330
1F
100
AcDbEntity
  8
AM_0
100
AcDbSpline
210
0.0
220
0.0
230
1.0
 70
     8
 71
     3
 72
    11
 73
     7
 74
     5
 42
0.0000000001
 43
0.0000000001
 44
0.0000000001
 40
0.0
 40
0.0
 40
0.0
 40
0.0
 40
0.0520040021697017
 40
0.0974075520772234
 40
0.1364539555070726
 40
0.1682340397667037
 40
0.1682340397667037
 40
0.1682340397667037
 40
0.1682340397667037
 10
-27.19899338717155
 20
-3.79500198364188
 30
0.0
 10
-27.18162154625033
 20
-3.795156704769958
 30
0.0
 10
-27.14908273330111
 20
-3.795446509510208
 30
0.0
 10
-27.10409620951577
 20
-3.788640375729472
 30
0.0
 10
-27.06574334581083
 20
-3.781313247313514
 30
0.0
 10
-27.04452175237722
 20
-3.77074213440182
 30
0.0
 10
-27.03499955172256
 20
-3.765998840331885
 30
0.0
 11
-27.19899338717155
 21
-3.79500198364188
 31
0.0
 11
-27.14699906344057
 21
-3.793998718260877
 31
0.0
 11
-27.10199326510158
 21
-3.788002014159883
 31
0.0
 11
-27.06399888033556
 21
-3.778999328612894
 31
0.0
 11
-27.03499955172256
 21
-3.765998840331885
 31
0.0
  0
SPLINE
  5
8A91
330
1F
100
AcDbEntity
  8
AM_0
100
AcDbSpline
210
0.0
220
0.0
230
1.0
 70
     8
 71
     3
 72
    11
 73
     7
 74
     5
 42
0.0000000001
 43
0.0000000001
 44
0.0000000001
 40
0.0
 40
0.0
 40
0.0
 40
0.0
 40
2.217526155620104
 40
4.435993553474599
 40
6.653555877599242
 40
8.872308522160718
 40
8.872308522160718
 40
8.872308522160718
 40
8.872308522160718
 10
-35.49399918551156
 20
-5.612998962401897
 30
0.0
 10
-34.76855422030314
 20
-5.754828841143821
 30
0.0
 10
-33.31735637043369
 20
-6.03854879916764
 30
0.0
 10
-31.13669794056904
 20
-6.443160923361394
 30
0.0
 10
-28.95321526393435
 20
-6.834567158361561
 30
0.0
 10
-27.49519864281973
 20
-7.08150152159988
 30
0.0
 10
-26.76599472994455
 20
-7.205001831053873
 30
0.0
 11
-35.49399918551156
 21
-5.612998962401897
 31
0.0
 11
-33.31699723238655
 21
-6.034999847411883
 31
0.0
 11
-31.13599747652655
 21
-6.441001892088886
 31
0.0
 11
-28.95299881930056
 21
-6.8310012817379
 31
0.0
 11
-26.76599472994455
 21
-7.205001831053873
 31
0.0
  0
SPLINE
  5
8A92
330
1F
100
AcDbEntity
  8
AM_0
100
AcDbSpline
210
0.0
220
0.0
230
1.0
 70
     8
 71
     3
 72
    11
 73
     7
 74
     5
 42
0.0000000001
 43
0.0000000001
 44
0.0000000001
 40
0.0
 40
0.0
 40
0.0
 40
0.0
 40
0.021632004292076
 40
0.040845124233119
 40
0.0578117604274883
 40
0.07281420191169
 40
0.07281420191169
 40
0.07281420191169
 40
0.07281420191169
 10
-35.48799485201559
 20
-2.937000274657897
 30
0.0
 10
-35.49407168982327
 20
-2.933108618006459
 30
0.0
 10
-35.50554585522414
 20
-2.925760468604561
 30
0.0
 10
-35.52061166014099
 20
-2.913714578397445
 30
0.0
 10
-35.53295914615488
 20
-2.901823661211083
 30
0.0
 10
-35.53910947948477
 20
-2.893095764392844
 30
0.0
 10
-35.54199570650757
 20
-2.8889999389639
 30
0.0
 11
-35.48799485201559
 21
-2.937000274657897
 31
0.0
 11
-35.50599259371459
 21
-2.924999237059901
 31
0.0
 11
-35.52099961275757
 21
-2.913002014159894
 31
0.0
 11
-35.53299302096056
 21
-2.901000976561897
 31
0.0
 11
-35.54199570650757
 21
-2.8889999389639
 31
0.0
  0
SPLINE
  5
8A93
330
1F
100
AcDbEntity
  8
AM_0
100
AcDbSpline
210
0.0
220
0.0
230
1.0
 70
     8
 71
     3
 72
    11
 73
     7
 74
     5
 42
0.0000000001
 43
0.0000000001
 44
0.0000000001
 40
0.0
 40
0.0
 40
0.0
 40
0.0
 40
0.0170009840337261
 40
0.0370037306302735
 40
0.0575215273167158
 40
0.0816022581659405
 40
0.0816022581659405
 40
0.0816022581659405
 40
0.0816022581659405
 10
-35.75699967379259
 20
-3.048999786375896
 30
0.0
 10
-35.7544882244335
 20
-3.054095112112262
 30
0.0
 10
-35.74902189404983
 20
-3.065185414923438
 30
0.0
 10
-35.73707160373746
 20
-3.080314560356919
 30
0.0
 10
-35.72245186675081
 20
-3.09614607931823
 30
0.0
 10
-35.71111759738026
 20
-3.10579186944736
 30
0.0
 10
-35.70499772066759
 20
-3.111000061034895
 30
0.0
 11
-35.75699967379259
 21
-3.048999786375896
 31
0.0
 11
-35.7489964389296
 21
-3.063999176024902
 31
0.0
 11
-35.7369954013316
 21
-3.080001831053901
 31
0.0
 11
-35.72299546236659
 21
-3.095001220702892
 31
0.0
 11
-35.70499772066759
 21
-3.111000061034895
 31
0.0
  0
ELLIPSE
  5
8A94
330
1F
100
AcDbEntity
  8
AM_0
100
AcDbEllipse
 10
-27.43499344820659
 20
-3.49300003051688
 30
0.0
 11
0.2282409630780009
 21
-0.0186653311490016
 31
0.0
210
0.0
220
0.0
230
1.0
 40
0.2532768148359
 41
4.779659547450626
 42
5.313977395416663
  0
SPLINE
  5
8A95
330
1F
100
AcDbEntity
  8
AM_0
100
AcDbSpline
210
0.0
220
0.0
230
1.0
 70
     8
 71
     3
 72
    11
 73
     7
 74
     5
 42
0.0000000001
 43
0.0000000001
 44
0.0000000001
 40
0.0
 40
0.0
 40
0.0
 40
0.0
 40
0.049501035251526
 40
0.0968796258158124
 40
0.1430582503554424
 40
0.1870684054349637
 40
0.1870684054349637
 40
0.1870684054349637
 40
0.1870684054349637
 10
-27.38499802584359
 20
-3.777000427245879
 30
0.0
 10
-27.36866835110932
 20
-3.779371398900191
 30
0.0
 10
-27.33670916540923
 20
-3.784011682593703
 30
0.0
 10
-27.28943387197082
 20
-3.790224972533442
 30
0.0
 10
-27.24374390642245
 20
-3.794616309249738
 30
0.0
 10
-27.21366919139118
 20
-3.794875502833023
 30
0.0
 10
-27.19899338717155
 20
-3.79500198364188
 30
0.0
 11
-27.38499802584359
 21
-3.777000427245879
 31
0.0
 11
-27.33599442476955
 21
-3.784000396727888
 31
0.0
 11
-27.28899735445659
 21
-3.790000915526886
 31
0.0
 11
-27.24299210543355
 21
-3.793998718260877
 31
0.0
 11
-27.19899338717155
 21
-3.79500198364188
 31
0.0
  0
SPLINE
  5
8A96
330
1F
100
AcDbEntity
  8
AM_0
100
AcDbSpline
210
0.0
220
0.0
230
1.0
 70
     8
 71
     3
 72
    11
 73
     7
 74
     5
 42
0.0000000001
 43
0.0000000001
 44
0.0000000001
 40
0.0
 40
0.0
 40
0.0
 40
0.0
 40
0.0319524908878094
 40
0.0614998761341211
 40
0.0879015921276897
 40
0.1129581058187921
 40
0.1129581058187921
 40
0.1129581058187921
 40
0.1129581058187921
 10
-35.3849980258436
 20
-2.983001708983899
 30
0.0
 10
-35.39507474012831
 20
-2.979522721968292
 30
0.0
 10
-35.41446968127779
 20
-2.972826615824851
 30
0.0
 10
-35.44096575607178
 20
-2.960266227472784
 30
0.0
 10
-35.46581551456516
 20
-2.949637816894471
 30
0.0
 10
-35.48073171751409
 20
-2.941138728713967
 30
0.0
 10
-35.48799485201559
 20
-2.937000274657897
 30
0.0
 11
-35.3849980258436
 21
-2.983001708983899
 31
0.0
 11
-35.41499680514059
 21
-2.972000122069908
 31
0.0
 11
-35.44199723238656
 21
-2.959999084471897
 31
0.0
 11
-35.4659993075816
 21
-2.949001312254901
 31
0.0
 11
-35.48799485201559
 21
-2.937000274657897
 31
0.0
  0
SPLINE
  5
8A97
330
1F
100
AcDbEntity
  8
AM_0
100
AcDbSpline
210
0.0
220
0.0
230
1.0
 70
     8
 71
     3
 72
    11
 73
     7
 74
     5
 42
0.0000000001
 43
0.0000000001
 44
0.0000000001
 40
0.0
 40
0.0
 40
0.0
 40
0.0
 40
0.0316244654485956
 40
0.0652384946249351
 40
0.1032563587598566
 40
0.1431763642401042
 40
0.1431763642401042
 40
0.1431763642401042
 40
0.1431763642401042
 10
-35.70499772066759
 20
-3.111000061034895
 30
0.0
 10
-35.69642512126137
 20
-3.117146012311151
 30
0.0
 10
-35.67874060162278
 20
-3.129824569991526
 30
0.0
 10
-35.64884302500209
 20
-3.146952870819199
 30
0.0
 10
-35.6156897174049
 20
-3.163884091477699
 30
0.0
 10
-35.59142614364881
 20
-3.173219685275037
 30
0.0
 10
-35.57899826998359
 20
-3.178001403807905
 30
0.0
 11
-35.70499772066759
 21
-3.111000061034895
 31
0.0
 11
-35.67899674410457
 21
-3.129001617430895
 31
0.0
 11
-35.64999741549159
 21
-3.14599990844689
 31
0.0
 11
-35.61599320406557
 21
-3.163002014159895
 31
0.0
 11
-35.57899826998359
 21
-3.178001403807905
 31
0.0
  0
SPLINE
  5
8A98
330
1F
100
AcDbEntity
  8
AM_0
100
AcDbSpline
210
0.0
220
0.0
230
1.0
 70
     8
 71
     3
 72
    11
 73
     7
 74
     5
 42
0.0000000001
 43
0.0000000001
 44
0.0000000001
 40
0.0
 40
0.0
 40
0.0
 40
0.0
 40
0.0631473352654368
 40
0.1216103341798979
 40
0.1766932761443804
 40
0.226986219432451
 40
0.226986219432451
 40
0.226986219432451
 40
0.226986219432451
 10
-35.16499680514058
 20
-3.038002014159893
 30
0.0
 10
-35.18568489299348
 20
-3.034121396949138
 30
0.0
 10
-35.22552640438518
 20
-3.026648030830987
 30
0.0
 10
-35.28304860776476
 20
-3.013854102175575
 30
0.0
 10
-35.33553423512455
 20
-2.998676928077107
 30
0.0
 10
-35.36901743650682
 20
-2.988066004207764
 30
0.0
 10
-35.3849980258436
 20
-2.983001708983899
 30
0.0
 11
-35.16499680514058
 21
-3.038002014159893
 31
0.0
 11
-35.22699326510159
 21
-3.026000976561896
 31
0.0
 11
-35.28399247164456
 21
-3.013000488280902
 31
0.0
 11
-35.33699387545257
 21
-2.998001098631897
 31
0.0
 11
-35.3849980258436
 21
-2.983001708983899
 31
0.0
  0
SPLINE
  5
8A99
330
1F
100
AcDbEntity
  8
AM_0
100
AcDbSpline
210
0.0
220
0.0
230
1.0
 70
     8
 71
     3
 72
    11
 73
     7
 74
     5
 42
0.0000000001
 43
0.0000000001
 44
0.0000000001
 40
0.0
 40
0.0
 40
0.0
 40
0.0
 40
0.0689511612784704
 40
0.1427135973390555
 40
0.222766786360315
 40
0.3071113895394363
 40
0.3071113895394363
 40
0.3071113895394363
 40
0.3071113895394363
 10
-35.57899826998359
 20
-3.178001403807905
 30
0.0
 10
-35.55743409587311
 20
-3.18598570268127
 30
0.0
 10
-35.51280104250766
 20
-3.202511428910104
 30
0.0
 10
-35.441059269358
 20
-3.221927031716359
 30
0.0
 10
-35.36376409403337
 20
-3.240138721105253
 30
0.0
 10
-35.30972065864641
 20
-3.249300929043152
 30
0.0
 10
-35.28199357027656
 20
-3.254001617430894
 30
0.0
 11
-35.57899826998359
 21
-3.178001403807905
 31
0.0
 11
-35.51399582857757
 21
-3.201000213622898
 31
0.0
 11
-35.4429966830696
 21
-3.221000671385888
 31
0.0
 11
-35.36499375338257
 21
-3.239002227782897
 31
0.0
 11
-35.28199357027656
 21
-3.254001617430894
 31
0.0
  0
SPLINE
  5
8A9A
330
1F
100
AcDbEntity
  8
AM_0
100
AcDbSpline
210
0.0
220
0.0
230
1.0
 70
     8
 71
     3
 72
    11
 73
     7
 74
     5
 42
0.0000000001
 43
0.0000000001
 44
0.0000000001
 40
0.0
 40
0.0
 40
0.0
 40
0.0
 40
0.0460084765364433
 40
0.092020766869756
 40
0.1380330572030928
 40
0.184041533739513
 40
0.184041533739513
 40
0.184041533739513
 40
0.184041533739513
 10
-34.9139973544566
 20
-3.067001342772889
 30
0.0
 10
-34.91433051158784
 20
-3.082333882499234
 30
0.0
 10
-34.91499685346684
 20
-3.113000232917548
 30
0.0
 10
-34.91599625582311
 20
-3.159000396727914
 30
0.0
 10
-34.91699565818204
 20
-3.205000560538214
 30
0.0
 10
-34.9176620000599
 20
-3.235666910956552
 30
0.0
 10
-34.91799515719058
 20
-3.250999450682903
 30
0.0
 11
-34.9139973544566
 21
-3.067001342772889
 31
0.0
 11
-34.91499680514059
 21
-3.112998962401895
 31
0.0
 11
-34.91599625582355
 21
-3.159000396727896
 31
0.0
 11
-34.91699570650757
 21
-3.205001831053898
 31
0.0
 11
-34.91799515719058
 21
-3.250999450682903
 31
0.0
  0
SPLINE
  5
8A9B
330
1F
100
AcDbEntity
  8
AM_0
100
AcDbSpline
210
0.0
220
0.0
230
1.0
 70
     8
 71
     3
 72
    11
 73
     7
 74
     5
 42
0.0000000001
 43
0.0000000001
 44
0.0000000001
 40
0.0
 40
0.0
 40
0.0
 40
0.0
 40
0.08287372005091
 40
0.1663607174966639
 40
0.2506515120679043
 40
0.3367023003501301
 40
0.3367023003501301
 40
0.3367023003501301
 40
0.3367023003501301
 10
-35.28199357027656
 20
-3.254001617430894
 30
0.0
 10
-35.2546913894346
 20
-3.25824777689421
 30
0.0
 10
-35.19988498770316
 20
-3.266771518008866
 30
0.0
 10
-35.11673769692002
 20
-3.275113580465826
 30
0.0
 10
-35.03246512084024
 20
-3.283040183917966
 30
0.0
 10
-34.97568026723881
 20
-3.284342142240434
 30
0.0
 10
-34.9469944858046
 20
-3.284999847411902
 30
0.0
 11
-35.28199357027656
 21
-3.254001617430894
 31
0.0
 11
-35.19999283785459
 21
-3.265998840331897
 31
0.0
 11
-35.11699265474957
 21
-3.275001525877904
 31
0.0
 11
-35.03299302096055
 21
-3.282001495360893
 31
0.0
 11
-34.9469944858046
 21
-3.284999847411902
 31
0.0
  0
SPLINE
  5
8A9C
330
1F
100
AcDbEntity
  8
AM_0
100
AcDbSpline
210
0.0
220
0.0
230
1.0
 70
     8
 71
     3
 72
    11
 73
     7
 74
     5
 42
0.0000000001
 43
0.0000000001
 44
0.0000000001
 40
0.0
 40
0.0
 40
0.0
 40
0.0
 40
0.0618185439247579
 40
0.1253203193408079
 40
0.1886089619499114
 40
0.2527994359611402
 40
0.2527994359611402
 40
0.2527994359611402
 40
0.2527994359611402
 10
-35.16499680514058
 20
-3.038002014159893
 30
0.0
 10
-35.14468576266283
 20
-3.041490506302721
 30
0.0
 10
-35.10351063675635
 20
-3.048562477293969
 30
0.0
 10
-35.0410991504317
 20
-3.05631650305767
 30
0.0
 10
-34.97770841605922
 20
-3.062213396381836
 30
0.0
 10
-34.93533429805081
 20
-3.0653978513303
 30
0.0
 10
-34.9139973544566
 20
-3.067001342772889
 30
0.0
 11
-35.16499680514058
 21
-3.038002014159893
 31
0.0
 11
-35.1039921664686
 21
-3.048000335692897
 31
0.0
 11
-35.04099625582355
 21
-3.055999755858898
 31
0.0
 11
-34.97799271578455
 21
-3.062000274657896
 31
0.0
 11
-34.9139973544566
 21
-3.067001342772889
 31
0.0
  0
SPLINE
  5
8A9D
330
1F
100
AcDbEntity
  8
AM_0
100
AcDbSpline
210
0.0
220
0.0
230
1.0
 70
     8
 71
     3
 72
    11
 73
     7
 74
     5
 42
0.0000000001
 43
0.0000000001
 44
0.0000000001
 40
0.0
 40
0.0
 40
0.0
 40
0.0
 40
0.1600085188082902
 40
0.3200246664152003
 40
0.4810698731645732
 40
0.6411016262740903
 40
0.6411016262740903
 40
0.6411016262740903
 40
0.6411016262740903
 10
-35.92199295992558
 20
-0.5999984741209053
 30
0.0
 10
-35.86866195239846
 20
-0.5992794118681405
 30
0.0
 10
-35.7619973946576
 20
-0.597841253079554
 30
0.0
 10
-35.60163819968373
 20
-0.5966311744383676
 30
0.0
 10
-35.44134389105333
 20
-0.5916019810953709
 30
0.0
 10
-35.33433145135607
 20
-0.5898659684395398
 30
0.0
 10
-35.2809941195936
 20
-0.5890007019038933
 30
0.0
 11
-35.92199295992558
 21
-0.5999984741209053
 31
0.0
 11
-35.76199692721057
 21
-0.5979995727528931
 31
0.0
 11
-35.6019932651016
 21
-0.5960006713858898
 31
0.0
 11
-35.44099778170258
 21
-0.5919990539548881
 31
0.0
 11
-35.2809941195936
 21
-0.5890007019038933
 31
0.0
  0
SPLINE
  5
8A9E
330
1F
100
AcDbEntity
  8
AM_0
100
AcDbSpline
210
0.0
220
0.0
230
1.0
 70
     8
 71
     3
 72
    11
 73
     7
 74
     5
 42
0.0000000001
 43
0.0000000001
 44
0.0000000001
 40
0.0
 40
0.0
 40
0.0
 40
0.0
 40
0.0382087247745142
 40
0.0919462940723673
 40
0.1684305693746146
 40
0.2659620184006559
 40
0.2659620184006559
 40
0.2659620184006559
 40
0.2659620184006559
 10
-45.98299759859759
 20
-0.6850013732909002
 30
0.0
 10
-45.98325258847189
 20
-0.6983306954007171
 30
0.0
 10
-45.9838662015696
 20
-0.7304066617598986
 30
0.0
 10
-45.93438622074147
 20
-0.7680573056732949
 30
0.0
 10
-45.86675224786152
 20
-0.7987260089626133
 30
0.0
 10
-45.80987438380299
 20
-0.8123588367639708
 30
0.0
 10
-45.7779957675426
 20
-0.8199996948239038
 30
0.0
 11
-45.98299759859759
 21
-0.6850013732909002
 31
0.0
 11
-45.97899216646861
 21
-0.7229995727529098
 31
0.0
 11
-45.94099778170257
 21
-0.7610015869139044
 31
0.0
 11
-45.87199753756258
 21
-0.7939987182608924
 31
0.0
 11
-45.7779957675426
 21
-0.8199996948239038
 31
0.0
  0
SPLINE
  5
8A9F
330
1F
100
AcDbEntity
  8
AM_0
100
AcDbSpline
210
0.0
220
0.0
230
1.0
 70
     8
 71
     3
 72
    11
 73
     7
 74
     5
 42
0.0000000001
 43
0.0000000001
 44
0.0000000001
 40
0.0
 40
0.0
 40
0.0
 40
0.0
 40
2.223435027917667
 40
4.446245017439149
 40
6.668545630491358
 40
8.891492641489008
 40
8.891492641489008
 40
8.891492641489008
 40
8.891492641489008
 10
-45.62599534029659
 20
-0.8380012512199044
 30
0.0
 10
-44.88496986312055
 20
-0.8244830458596721
 30
0.0
 10
-43.40312722129837
 20
-0.7974504352940541
 30
0.0
 10
-41.18109814580603
 20
-0.7362273790283246
 30
0.0
 10
-38.95963498927795
 20
-0.6616818175902401
 30
0.0
 10
-37.47927961932479
 20
-0.5972294810767896
 30
0.0
 10
-36.73899430269857
 20
-0.5649986267079031
 30
0.0
 11
-45.62599534029659
 21
-0.8380012512199044
 31
0.0
 11
-43.4029957675426
 21
-0.7939987182608992
 31
0.0
 11
-41.18099564547256
 21
-0.7340011596668866
 31
0.0
 11
-38.95999497408557
 21
-0.6580009460439042
 31
0.0
 11
-36.73899430269857
 21
-0.5649986267079031
 31
0.0
  0
SPLINE
  5
8AA0
330
1F
100
AcDbEntity
  8
AM_0
100
AcDbSpline
210
0.0
220
0.0
230
1.0
 70
     8
 71
     3
 72
    11
 73
     7
 74
     5
 42
0.0000000001
 43
0.0000000001
 44
0.0000000001
 40
0.0
 40
0.0
 40
0.0
 40
0.0
 40
0.2852082985782802
 40
0.5374928030441333
 40
0.7237149963618864
 40
0.8177645730846469
 40
0.8177645730846469
 40
0.8177645730846469
 40
0.8177645730846469
 10
-36.73899430269857
 20
-0.5649986267079031
 30
0.0
 10
-36.64398722709706
 20
-0.5684734822791075
 30
0.0
 10
-36.46494047555219
 20
-0.575022064036547
 30
0.0
 10
-36.22398085463599
 20
-0.5865988479899169
 30
0.0
 10
-36.04671798160795
 20
-0.5963860165886404
 30
0.0
 10
-35.9533305675651
 20
-0.5990908312499436
 30
0.0
 10
-35.92199295992558
 20
-0.5999984741209053
 30
0.0
 11
-36.73899430269857
 21
-0.5649986267079031
 31
0.0
 11
-36.4539982699836
 21
-0.5760002136229026
 31
0.0
 11
-36.2019993686166
 21
-0.5880012512199043
 31
0.0
 11
-36.0159947299446
 21
-0.5970001220698969
 31
0.0
 11
-35.92199295992558
 21
-0.5999984741209053
 31
0.0
  0
SPLINE
  5
8AA1
330
1F
100
AcDbEntity
  8
AM_0
100
AcDbSpline
210
0.0
220
0.0
230
1.0
 70
     8
 71
     3
 72
    11
 73
     7
 74
     5
 42
0.0000000001
 43
0.0000000001
 44
0.0000000001
 40
0.0
 40
0.0
 40
0.0
 40
0.0
 40
0.5348826769968396
 40
1.784122487552284
 40
3.023215760541369
 40
3.62025310860627
 40
3.62025310860627
 40
3.62025310860627
 40
3.62025310860627
 10
-38.81399888033557
 20
-0.3569984436028953
 30
0.0
 10
-38.97997547682272
 20
-0.2898236289964454
 30
0.0
 10
-39.53359702961393
 20
-0.0657593575389666
 30
0.0
 10
-40.5107443653465
 20
0.0966257207825352
 30
0.0
 10
-41.59146673975842
 20
0.3500505867599215
 30
0.0
 10
-42.12840584711871
 20
0.0270333620179412
 30
0.0
 10
-42.30299729342156
 20
-0.0779991149898947
 30
0.0
 11
-38.81399888033557
 21
-0.3569984436028953
 31
0.0
 11
-39.31399888033557
 21
-0.1669998168938982
 31
0.0
 11
-40.53099411959361
 21
0.1149978637700895
 31
0.0
 11
-41.76799363131258
 21
0.1870002746591129
 31
0.0
 11
-42.30299729342156
 21
-0.0779991149898947
 31
0.0
  0
SPLINE
  5
8AA2
330
1F
100
AcDbEntity
  8
AM_0
100
AcDbSpline
210
0.0
220
0.0
230
1.0
 70
     8
 71
     3
 72
    11
 73
     7
 74
     5
 42
0.0000000001
 43
0.0000000001
 44
0.0000000001
 40
0.0
 40
0.0
 40
0.0
 40
0.0
 40
0.5874280958224997
 40
1.825080750648231
 40
3.072296252941731
 40
3.600672208033577
 40
3.600672208033577
 40
3.600672208033577
 40
3.600672208033577
 10
-42.30299729342156
 20
-0.0779991149898947
 30
0.0
 10
-42.14604458145758
 20
-0.2029266885228941
 30
0.0
 10
-41.65840809385238
 20
-0.5910642517441865
 30
0.0
 10
-40.55900563782863
 20
-0.4680023573433219
 30
0.0
 10
-39.57150434070327
 20
-0.5018411512832511
 30
0.0
 10
-38.98771994467941
 20
-0.3902156686357839
 30
0.0
 10
-38.81399888033557
 20
-0.3569984436028953
 30
0.0
 11
-42.30299729342156
 21
-0.0779991149898947
 31
0.0
 11
-41.81499833101958
 21
-0.4049987792958943
 31
0.0
 11
-40.58099717135159
 21
-0.4999999999999109
 31
0.0
 11
-39.33499497408557
 21
-0.4449996948238985
 31
0.0
 11
-38.81399888033557
 21
-0.3569984436028953
 31
0.0
  0
SPLINE
  5
8AA3
330
1F
100
AcDbEntity
  8
AM_0
100
AcDbSpline
210
0.0
220
0.0
230
1.0
 70
     8
 71
     3
 72
    11
 73
     7
 74
     5
 42
0.0000000001
 43
0.0000000001
 44
0.0000000001
 40
0.0
 40
0.0
 40
0.0
 40
0.0
 40
0.3871588889946671
 40
0.7734359179959555
 40
1.159716284912157
 40
1.544638833052747
 40
1.544638833052747
 40
1.544638833052747
 40
1.544638833052747
 10
-45.12599534029656
 20
1.036998748780095
 30
0.0
 10
-45.18829453121031
 20
0.9239789003922679
 30
0.0
 10
-45.31275100963418
 20
0.6981966371550996
 30
0.0
 10
-45.50000271696263
 20
0.3600031076147162
 30
0.0
 10
-45.68685565058038
 20
0.0224409343858348
 30
0.0
 10
-45.81102274730964
 20
-0.2026508756771233
 30
0.0
 10
-45.87299698824561
 20
-0.3149986267079022
 30
0.0
 11
-45.12599534029656
 21
1.036998748780095
 31
0.0
 11
-45.31299942965158
 21
0.6979980468750892
 31
0.0
 11
-45.49999588961259
 21
0.3600006103521058
 31
0.0
 11
-45.68699234957359
 21
0.0219993591310894
 31
0.0
 11
-45.87299698824561
 21
-0.3149986267079022
 31
0.0
  0
SPLINE
  5
8AA4
330
1F
100
AcDbEntity
  8
AM_0
100
AcDbSpline
210
0.0
220
0.0
230
1.0
 70
     8
 71
     3
 72
    11
 73
     7
 74
     5
 42
0.0000000001
 43
0.0000000001
 44
0.0000000001
 40
0.0
 40
0.0
 40
0.0
 40
0.0
 40
0.0148663705498171
 40
0.0275157709359382
 40
0.0395937585257852
 40
0.0490310489520376
 40
0.0490310489520376
 40
0.0490310489520376
 40
0.0490310489520376
 10
-44.28799790377257
 20
3.458999633790078
 30
0.0
 10
-44.29264625833658
 20
3.457277827894835
 30
0.0
 10
-44.30124977450641
 20
3.454090983032408
 30
0.0
 10
-44.31390029025985
 20
3.450315432639761
 30
0.0
 10
-44.32437277247753
 20
3.445683884194496
 30
0.0
 10
-44.33036686962163
 20
3.441732034588882
 30
0.0
 10
-44.33299607271858
 20
3.43999862670909
 30
0.0
 11
-44.28799790377257
 21
3.458999633790078
 31
0.0
 11
-44.30199784273757
 21
3.453998565674091
 31
0.0
 11
-44.31399888033556
 21
3.450000762940085
 31
0.0
 11
-44.32499283785457
 21
3.444999694825091
 31
0.0
 11
-44.33299607271858
 21
3.43999862670909
 31
0.0
  0
SPLINE
  5
8AA5
330
1F
100
AcDbEntity
  8
AM_0
100
AcDbSpline
210
0.0
220
0.0
230
1.0
 70
     8
 71
     3
 72
    11
 73
     7
 74
     5
 42
0.0000000001
 43
0.0000000001
 44
0.0000000001
 40
0.0
 40
0.0
 40
0.0
 40
0.0
 40
0.0106268188825711
 40
0.0240443868174036
 40
0.0392760813018834
 40
0.0579630840185779
 40
0.0579630840185779
 40
0.0579630840185779
 40
0.0579630840185779
 10
-44.55699509615557
 20
3.287998199463081
 30
0.0
 10
-44.55444628634507
 20
3.290504222931455
 30
0.0
 10
-44.54867931415097
 20
3.296174386158372
 30
0.0
 10
-44.53633908789004
 20
3.301103887006007
 30
0.0
 10
-44.52213971430477
 20
3.307967712489364
 30
0.0
 10
-44.51108408040966
 20
3.310567796803296
 30
0.0
 10
-44.50499314303058
 20
3.312000274659089
 30
0.0
 11
-44.55699509615557
 21
3.287998199463081
 31
0.0
 11
-44.54899949068757
 21
3.294998168946085
 31
0.0
 11
-44.53699845308956
 21
3.300998687745083
 31
0.0
 11
-44.52299851412457
 21
3.306999206543088
 31
0.0
 11
-44.50499314303058
 21
3.312000274659089
 31
0.0
  0
SPLINE
  5
8AA6
330
1F
100
AcDbEntity
  8
AM_0
100
AcDbSpline
210
0.0
220
0.0
230
1.0
 70
     8
 71
     3
 72
    11
 73
     7
 74
     5
 42
0.0000000001
 43
0.0000000001
 44
0.0000000001
 40
0.0
 40
0.0
 40
0.0
 40
0.0
 40
0.2855713678256414
 40
0.5414318677186511
 40
0.7407573109728604
 40
0.8708522798712056
 40
0.8708522798712056
 40
0.8708522798712056
 40
0.8708522798712056
 10
-44.29399460787458
 20
1.179000854493089
 30
0.0
 10
-44.38916870223189
 20
1.188110450956669
 30
0.0
 10
-44.56961497056286
 20
1.205381880739682
 30
0.0
 10
-44.81394104399063
 20
1.183121406657752
 30
0.0
 10
-45.01271323333904
 20
1.143460764994405
 30
0.0
 10
-45.09392365610684
 20
1.067139573787043
 30
0.0
 10
-45.12599534029656
 20
1.036998748780095
 30
0.0
 11
-44.29399460787458
 21
1.179000854493089
 31
0.0
 11
-44.57899826998358
 21
1.196998596192079
 31
0.0
 11
-44.83399552340157
 21
1.175998687745082
 31
0.0
 11
-45.02499741549156
 21
1.118999481202099
 31
0.0
 11
-45.12599534029656
 21
1.036998748780095
 31
0.0
  0
ELLIPSE
  5
8AA7
330
1F
100
AcDbEntity
  8
AM_0
100
AcDbEllipse
 10
-36.24899643892958
 20
2.799999237061102
 30
0.0
 11
0.2332611082419974
 21
-0.0186042710679996
 31
0.0
210
0.0
220
0.0
230
1.0
 40
0.1752135561545
 41
0.2123990237927024
 42
0.4505361578416628
  0
SPLINE
  5
8AA8
330
1F
100
AcDbEntity
  8
AM_0
100
AcDbSpline
210
0.0
220
0.0
230
1.0
 70
     8
 71
     3
 72
    11
 73
     7
 74
     5
 42
0.0000000001
 43
0.0000000001
 44
0.0000000001
 40
0.0
 40
0.0
 40
0.0
 40
0.0
 40
0.0098504199791591
 40
0.0174635131060493
 40
0.0238631200020786
 40
0.0288687659866393
 40
0.0288687659866393
 40
0.0288687659866393
 40
0.0288687659866393
 10
-35.83499497408558
 20
2.607997894288093
 30
0.0
 10
-35.83204022380189
 20
2.606585814220932
 30
0.0
 10
-35.82680183595513
 20
2.604082379970229
 30
0.0
 10
-35.81904925203579
 20
2.601685603865554
 30
0.0
 10
-35.81443908695533
 20
2.5971738690823
 30
0.0
 10
-35.81134945520743
 20
2.594966671301839
 30
0.0
 10
-35.80999344820658
 20
2.593997955323108
 30
0.0
 11
-35.83499497408558
 21
2.607997894288093
 31
0.0
 11
-35.82599228853859
 21
2.604000091553107
 31
0.0
 11
-35.81899613375358
 21
2.600997924805103
 31
0.0
 11
-35.81399888033558
 21
2.597000122071097
 31
0.0
 11
-35.80999344820658
 21
2.593997955323108
 31
0.0
  0
SPLINE
  5
8AA9
330
1F
100
AcDbEntity
  8
AM_0
100
AcDbSpline
210
0.0
220
0.0
230
1.0
 70
     8
 71
     3
 72
    11
 73
     7
 74
     5
 42
0.0000000001
 43
0.0000000001
 44
0.0000000001
 40
0.0
 40
0.0
 40
0.0
 40
0.0
 40
0.0145606055192816
 40
0.0569869044974968
 40
0.1265714815824211
 40
0.2172453424336799
 40
0.2172453424336799
 40
0.2172453424336799
 40
0.2172453424336799
 10
-35.19899338717156
 20
-0.5740013122549012
 30
0.0
 10
-35.20364114350331
 20
-0.5725793791846339
 30
0.0
 10
-35.22183140666606
 20
-0.567014255950586
 30
0.0
 10
-35.26416111080832
 20
-0.5636416004085084
 30
0.0
 10
-35.33086926085913
 20
-0.5536233892178374
 30
0.0
 10
-35.38395919186012
 20
-0.5474765729623627
 30
0.0
 10
-35.41399735445661
 20
-0.5439987182608892
 30
0.0
 11
-35.19899338717156
 21
-0.5740013122549012
 31
0.0
 11
-35.21299332613657
 21
-0.5699996948238859
 31
0.0
 11
-35.2549931430306
 21
-0.5639991760248874
 31
0.0
 11
-35.32399338717156
 21
-0.5550003051748947
 31
0.0
 11
-35.41399735445661
 21
-0.5439987182608892
 31
0.0
  0
SPLINE
  5
8AAA
330
1F
100
AcDbEntity
  8
AM_0
100
AcDbSpline
210
0.0
220
0.0
230
1.0
 70
     8
 71
     3
 72
    11
 73
     7
 74
     5
 42
0.0000000001
 43
0.0000000001
 44
0.0000000001
 40
0.0
 40
0.0
 40
0.0
 40
0.0
 40
0.0302644957232364
 40
0.0575598435600236
 40
0.0820766164999951
 40
0.1046409764686712
 40
0.1046409764686712
 40
0.1046409764686712
 40
0.1046409764686712
 10
-44.18499344820657
 20
3.477001190186078
 30
0.0
 10
-44.19499147382532
 20
3.475666241044867
 30
0.0
 10
-44.21400665239585
 20
3.473127310132837
 30
0.0
 10
-44.24114532265657
 20
3.469523618702777
 30
0.0
 10
-44.26536860661514
 20
3.464170101810194
 30
0.0
 10
-44.28066626484228
 20
3.460674807542067
 30
0.0
 10
-44.28799790377257
 20
3.458999633790078
 30
0.0
 11
-44.18499344820657
 21
3.477001190186078
 31
0.0
 11
-44.21499222750357
 21
3.472999572754098
 31
0.0
 11
-44.24199265474958
 21
3.468997955323082
 31
0.0
 11
-44.26599472994458
 21
3.464000701905084
 31
0.0
 11
-44.28799790377257
 21
3.458999633790078
 31
0.0
  0
SPLINE
  5
8AAB
330
1F
100
AcDbEntity
  8
AM_0
100
AcDbSpline
210
0.0
220
0.0
230
1.0
 70
     8
 71
     3
 72
    11
 73
     7
 74
     5
 42
0.0000000001
 43
0.0000000001
 44
0.0000000001
 40
0.0
 40
0.0
 40
0.0
 40
0.0
 40
0.0269267590869372
 40
0.0563541569052211
 40
0.0908755712719053
 40
0.1282145641089619
 40
0.1282145641089619
 40
0.1282145641089619
 40
0.1282145641089619
 10
-44.50499314303058
 20
3.312000274659089
 30
0.0
 10
-44.49637281190143
 20
3.314547383524662
 30
0.0
 10
-44.47833159530129
 20
3.319878146584625
 30
0.0
 10
-44.44824995807636
 20
3.323944357625238
 30
0.0
 10
-44.41514544992013
 20
3.330607328674217
 30
0.0
 10
-44.39135520913745
 20
3.333497393637288
 30
0.0
 10
-44.37899369234758
 20
3.334999084473088
 30
0.0
 11
-44.50499314303058
 21
3.312000274659089
 31
0.0
 11
-44.47899216646859
 21
3.319000244141085
 31
0.0
 11
-44.44999283785455
 21
3.324001312256078
 31
0.0
 11
-44.41599625582357
 21
3.329998016358096
 31
0.0
 11
-44.37899369234758
 21
3.334999084473088
 31
0.0
  0
ELLIPSE
  5
8AAC
330
1F
100
AcDbEntity
  8
AM_0
100
AcDbEllipse
 10
-36.21999711031556
 20
2.799999237061102
 30
0.0
 11
0.2023544399249956
 21
-0.0161399676089997
 31
0.0
210
0.0
220
0.0
230
1.0
 40
0.1773361795693
 41
0.4471860146953945
 42
0.992431490038184
  0
SPLINE
  5
8AAD
330
1F
100
AcDbEntity
  8
AM_0
100
AcDbSpline
210
0.0
220
0.0
230
1.0
 70
     8
 71
     3
 72
    11
 73
     7
 74
     5
 42
0.0000000001
 43
0.0000000001
 44
0.0000000001
 40
0.0
 40
0.0
 40
0.0
 40
0.0
 40
0.0536023863681363
 40
0.1004409164906561
 40
0.1406051515233453
 40
0.1716212114702667
 40
0.1716212114702667
 40
0.1716212114702667
 40
0.1716212114702667
 10
-35.99899643892958
 20
2.658000946045095
 30
0.0
 10
-35.98163099457308
 20
2.653791457407626
 30
0.0
 10
-35.94909137713039
 20
2.645903657528705
 30
0.0
 10
-35.90400374187248
 20
2.633033115724392
 30
0.0
 10
-35.86678042914317
 20
2.620253998728111
 30
0.0
 10
-35.84464169367958
 20
2.611717557971799
 30
0.0
 10
-35.83499497408558
 20
2.607997894288093
 30
0.0
 11
-35.99899643892958
 21
2.658000946045095
 31
0.0
 11
-35.94699448580458
 21
2.645000457764101
 31
0.0
 11
-35.90199631685857
 21
2.631999969483093
 31
0.0
 11
-35.86399430269857
 21
2.618999481202099
 31
0.0
 11
-35.83499497408558
 21
2.607997894288093
 31
0.0
  0
ELLIPSE
  5
8AAE
330
1F
100
AcDbEntity
  8
AM_0
100
AcDbEllipse
 10
-36.23499649996457
 20
2.797000885010095
 30
0.0
 11
0.2282714784509991
 21
-0.0182075714959989
 31
0.0
210
0.0
220
0.0
230
1.0
 40
0.1746661974572
 41
0.9996826941667292
 42
1.54544673261228
  0
SPLINE
  5
8AAF
330
1F
100
AcDbEntity
  8
AM_0
100
AcDbSpline
210
0.0
220
0.0
230
1.0
 70
     8
 71
     3
 72
    11
 73
     7
 74
     5
 42
0.0000000001
 43
0.0000000001
 44
0.0000000001
 40
0.0
 40
0.0
 40
0.0
 40
0.0
 40
0.0498155088042327
 40
0.0978718114920372
 40
0.14494434850376
 40
0.1902967266370586
 40
0.1902967266370586
 40
0.1902967266370586
 40
0.1902967266370586
 10
-36.18499344820658
 20
2.697998046875101
 30
0.0
 10
-36.16863586260295
 20
2.695126386632194
 30
0.0
 10
-36.13649835014763
 20
2.689484477180511
 30
0.0
 10
-36.08934288515971
 20
2.678934522914005
 30
0.0
 10
-36.04346551406395
 20
2.669507616240646
 30
0.0
 10
-36.01363439749839
 20
2.661788615590248
 30
0.0
 10
-35.99899643892958
 20
2.658000946045095
 30
0.0
 11
-36.18499344820658
 21
2.697998046875101
 31
0.0
 11
-36.13599747652658
 21
2.688999176026089
 31
0.0
 11
-36.08899277681958
 21
2.6790008544931
 31
0.0
 11
-36.04299515719056
 21
2.668998718262105
 31
0.0
 11
-35.99899643892958
 21
2.658000946045095
 31
0.0
  0
SPLINE
  5
8AB0
330
1F
100
AcDbEntity
  8
AM_0
100
AcDbSpline
210
0.0
220
0.0
230
1.0
 70
     8
 71
     3
 72
    11
 73
     7
 74
     5
 42
0.0000000001
 43
0.0000000001
 44
0.0000000001
 40
0.0
 40
0.0
 40
0.0
 40
0.0
 40
0.062004089355014
 40
0.1190383347976021
 40
0.1721246966140482
 40
0.220380665876349
 40
0.220380665876349
 40
0.220380665876349
 40
0.220380665876349
 10
-43.96499222750357
 20
3.486999511719084
 30
0.0
 10
-43.9856638034489
 20
3.487186891166388
 30
0.0
 10
-44.02535005646497
 20
3.487546630945077
 30
0.0
 10
-44.08267810139169
 20
3.485070864074237
 30
0.0
 10
-44.13544077586966
 20
3.482720629419012
 30
0.0
 10
-44.16900922761247
 20
3.478846111439814
 30
0.0
 10
-44.18499344820657
 20
3.477001190186078
 30
0.0
 11
-43.96499222750357
 21
3.486999511719084
 31
0.0
 11
-44.02699631685858
 21
3.486999511719084
 31
0.0
 11
-44.08399552340157
 21
3.485000610352095
 31
0.0
 11
-44.13699692721056
 21
3.481998443604091
 31
0.0
 11
-44.18499344820657
 21
3.477001190186078
 31
0.0
  0
SPLINE
  5
8AB1
330
1F
100
AcDbEntity
  8
AM_0
100
AcDbSpline
210
0.0
220
0.0
230
1.0
 70
     8
 71
     3
 72
    11
 73
     7
 74
     5
 42
0.0000000001
 43
0.0000000001
 44
0.0000000001
 40
0.0
 40
0.0
 40
0.0
 40
0.0
 40
0.0653706750863071
 40
0.1364901170417081
 40
0.2145878077534236
 40
0.2975940081079607
 40
0.2975940081079607
 40
0.2975940081079607
 40
0.2975940081079607
 10
-44.37899369234758
 20
3.334999084473088
 30
0.0
 10
-44.35735207290264
 20
3.337622666771781
 30
0.0
 10
-44.31216564692323
 20
3.343100551993931
 30
0.0
 10
-44.24064473665725
 20
3.345744548414641
 30
0.0
 10
-44.16339369456849
 20
3.350949558147574
 30
0.0
 10
-44.10967455075804
 20
3.35098147840403
 30
0.0
 10
-44.08199662203457
 20
3.350997924805078
 30
0.0
 11
-44.37899369234758
 21
3.334999084473088
 31
0.0
 11
-44.31399888033556
 21
3.341999053956093
 31
0.0
 11
-44.24299210543356
 21
3.34600067138708
 31
0.0
 11
-44.16499680514056
 21
3.34999847412208
 31
0.0
 11
-44.08199662203457
 21
3.350997924805078
 31
0.0
  0
SPLINE
  5
8AB2
330
1F
100
AcDbEntity
  8
AM_0
100
AcDbSpline
210
0.0
220
0.0
230
1.0
 70
     8
 71
     3
 72
    11
 73
     7
 74
     5
 42
0.0000000001
 43
0.0000000001
 44
0.0000000001
 40
0.0
 40
0.0
 40
0.0
 40
0.0
 40
0.0280177098593843
 40
0.0560356929127448
 40
0.0840534027711204
 40
0.1120711126304703
 40
0.1120711126304703
 40
0.1120711126304703
 40
0.1120711126304703
 10
-43.71399277681958
 20
3.474998474122082
 30
0.0
 10
-43.71432506531281
 20
3.465665150601878
 30
0.0
 10
-43.71498964553935
 20
3.446998412554465
 30
0.0
 10
-43.71600202561094
 20
3.418998906775393
 30
0.0
 10
-43.71699807794914
 20
3.390998815956306
 30
0.0
 10
-43.71766483194874
 20
3.372332246920937
 30
0.0
 10
-43.71799820894857
 20
3.36299896240309
 30
0.0
 11
-43.71399277681958
 21
3.474998474122082
 31
0.0
 11
-43.71499222750357
 21
3.446998596192082
 31
0.0
 11
-43.71599930758157
 21
3.418998718262082
 31
0.0
 11
-43.71699875826556
 21
3.390998840333091
 31
0.0
 11
-43.71799820894857
 21
3.36299896240309
 31
0.0
  0
SPLINE
  5
8AB3
330
1F
100
AcDbEntity
  8
AM_0
100
AcDbSpline
210
0.0
220
0.0
230
1.0
 70
     8
 71
     3
 72
    11
 73
     7
 74
     5
 42
0.0000000001
 43
0.0000000001
 44
0.0000000001
 40
0.0
 40
0.0
 40
0.0
 40
0.0
 40
0.0820007324219958
 40
0.1650069327755168
 40
0.2490303466752506
 40
0.3351219315778613
 40
0.3351219315778613
 40
0.3351219315778613
 40
0.3351219315778613
 10
-44.08199662203457
 20
3.350997924805078
 30
0.0
 10
-44.05466254308997
 20
3.351073693423804
 30
0.0
 10
-43.99965922307472
 20
3.351226159712912
 30
0.0
 10
-43.91665677818874
 20
3.350067176002607
 30
0.0
 10
-43.83229015743844
 20
3.348438534198681
 30
0.0
 10
-43.77565791279347
 20
3.345490096812022
 30
0.0
 10
-43.74699753756257
 20
3.343997955323083
 30
0.0
 11
-44.08199662203457
 21
3.350997924805078
 31
0.0
 11
-43.99999588961256
 21
3.350997924805078
 31
0.0
 11
-43.91699570650758
 21
3.349998474122081
 31
0.0
 11
-43.83299607271857
 21
3.347999572754099
 31
0.0
 11
-43.74699753756257
 21
3.343997955323083
 31
0.0
  0
SPLINE
  5
8AB4
330
1F
100
AcDbEntity
  8
AM_0
100
AcDbSpline
210
0.0
220
0.0
230
1.0
 70
     8
 71
     3
 72
    11
 73
     7
 74
     5
 42
0.0000000001
 43
0.0000000001
 44
0.0000000001
 40
0.0
 40
0.0
 40
0.0
 40
0.0
 40
0.0610051968475279
 40
0.1240726033518039
 40
0.18714744915001
 40
0.2513455293688064
 40
0.2513455293688064
 40
0.2513455293688064
 40
0.2513455293688064
 10
-43.96499222750357
 20
3.486999511719084
 30
0.0
 10
-43.94465385137089
 20
3.486844622001471
 30
0.0
 10
-43.90328958397847
 20
3.486529606699665
 30
0.0
 10
-43.84100999325779
 20
3.48271785925384
 30
0.0
 10
-43.77758841569543
 20
3.480530582648272
 30
0.0
 10
-43.73531568103564
 20
3.476853328044488
 30
0.0
 10
-43.71399277681958
 20
3.474998474122082
 30
0.0
 11
-43.96499222750357
 21
3.486999511719084
 31
0.0
 11
-43.90399521822657
 21
3.486000061036087
 31
0.0
 11
-43.84099930758157
 21
3.482997894288097
 31
0.0
 11
-43.77799576754258
 21
3.479999542237089
 31
0.0
 11
-43.71399277681958
 21
3.474998474122082
 31
0.0
  0
SPLINE
  5
8AB5
330
1F
100
AcDbEntity
  8
AM_0
100
AcDbSpline
210
0.0
220
0.0
230
1.0
 70
     8
 71
     3
 72
    11
 73
     7
 74
     5
 42
0.0000000001
 43
0.0000000001
 44
0.0000000001
 40
0.0
 40
0.0
 40
0.0
 40
0.0
 40
2.222822458568797
 40
4.446388911863402
 40
6.669235343824244
 40
8.893052426565699
 40
8.893052426565699
 40
8.893052426565699
 40
8.893052426565699
 10
-44.29399460787458
 20
1.179000854493089
 30
0.0
 10
-43.56857274122752
 20
1.028125834373537
 30
0.0
 10
-42.11748620399708
 20
0.7263252951758715
 30
0.0
 10
-39.93655060897701
 20
0.2953967403278189
 30
0.0
 10
-37.75335668996076
 20
-0.1256943713566435
 30
0.0
 10
-36.29522351517302
 20
-0.391879772727823
 30
0.0
 10
-35.56599778170258
 20
-0.5250015258778925
 30
0.0
 11
-44.29399460787458
 21
1.179000854493089
 31
0.0
 11
-42.11699265474954
 21
0.7299995422370948
 31
0.0
 11
-39.9359928988906
 21
0.2970008850100983
 31
0.0
 11
-37.75299424166357
 21
-0.1220016479488937
 31
0.0
 11
-35.56599778170258
 21
-0.5250015258778925
 31
0.0
  0
SPLINE
  5
8AB6
330
1F
100
AcDbEntity
  8
AM_0
100
AcDbSpline
210
0.0
220
0.0
230
1.0
 70
     8
 71
     3
 72
    11
 73
     7
 74
     5
 42
0.0000000001
 43
0.0000000001
 44
0.0000000001
 40
0.0
 40
0.0
 40
0.0
 40
0.0
 40
1.330325726999516
 40
2.671909284295675
 40
4.009250972258177
 40
5.351431960768541
 40
5.351431960768541
 40
5.351431960768541
 40
5.351431960768541
 10
-5.280990304896598
 20
14.25199890136816
 30
0.0
 10
-5.738440882163504
 20
14.16041677932216
 30
0.0
 10
-6.657213194612597
 20
13.97647752504485
 30
0.0
 10
-7.289206835547322
 20
12.59124214857272
 30
0.0
 10
-6.792618217341825
 20
11.14338531135001
 30
0.0
 10
-5.886745238716398
 20
10.88461826294933
 30
0.0
 10
-5.432990732142581
 20
10.75500106811615
 30
0.0
 11
-5.280990304896598
 21
14.25199890136816
 31
0.0
 11
-6.52999085421259
 21
13.79399871826214
 31
0.0
 11
-7.100997629114591
 21
12.57999801635813
 31
0.0
 11
-6.649993600794586
 21
11.32099914550815
 31
0.0
 11
-5.432990732142581
 21
10.75500106811615
 31
0.0
  0
SPLINE
  5
8AB7
330
1F
100
AcDbEntity
  8
AM_0
100
AcDbSpline
210
0.0
220
0.0
230
1.0
 70
     8
 71
     3
 72
    11
 73
     7
 74
     5
 42
0.0000000001
 43
0.0000000001
 44
0.0000000001
 40
0.0
 40
0.0
 40
0.0
 40
0.0
 40
1.340994713291333
 40
2.678001770960075
 40
4.01978091379126
 40
5.347519251355447
 40
5.347519251355447
 40
5.347519251355447
 40
5.347519251355447
 10
-5.432990732142581
 20
10.75500106811615
 30
0.0
 10
-4.970258874771753
 20
10.84515415559525
 30
0.0
 10
-4.046171164927436
 20
11.02519224637488
 30
0.0
 10
-3.426532076481836
 20
12.42409703543754
 30
0.0
 10
-3.936060894934542
 20
13.85780177070785
 30
0.0
 10
-4.834255239579777
 20
14.1210614115573
 30
0.0
 10
-5.280990304896598
 20
14.25199890136816
 30
0.0
 11
-5.432990732142581
 21
10.75500106811615
 31
0.0
 11
-4.172996225306588
 21
11.21400070190514
 31
0.0
 11
-3.614997568079589
 21
12.42900085449315
 31
0.0
 11
-4.078994455286594
 21
13.68799972534213
 31
0.0
 11
-5.280990304896598
 21
14.25199890136816
 31
0.0
  0
SPLINE
  5
8AB8
330
1F
100
AcDbEntity
  8
AM_0
100
AcDbSpline
210
0.0
220
0.0
230
1.0
 70
     8
 71
     3
 72
    11
 73
     7
 74
     5
 42
0.0000000001
 43
0.0000000001
 44
0.0000000001
 40
0.0
 40
0.0
 40
0.0
 40
0.0
 40
2.223631320445369
 40
4.446171651136458
 40
6.667669583948631
 40
8.889086455972826
 40
8.889086455972826
 40
8.889086455972826
 40
8.889086455972826
 10
-10.42599457735656
 20
9.422000885010142
 30
0.0
 10
-9.685002336354815
 20
9.40400179277006
 30
0.0
 10
-8.203381410546755
 20
9.36801243926158
 30
0.0
 10
-5.981342165000739
 20
9.320012146353493
 30
0.0
 10
-3.760041512514877
 20
9.271998127693921
 30
0.0
 10
-2.279333858862375
 20
9.243998900441184
 30
0.0
 10
-1.538993539759593
 20
9.229999542237159
 30
0.0
 11
-10.42599457735656
 21
9.422000885010142
 31
0.0
 11
-8.202995004603572
 21
9.368999481202139
 31
0.0
 11
-5.98099488253259
 21
9.319999694825151
 31
0.0
 11
-3.759994211146596
 21
9.272998809815137
 31
0.0
 11
-1.538993539759593
 21
9.229999542237159
 31
0.0
  0
SPLINE
  5
8AB9
330
1F
100
AcDbEntity
  8
AM_0
100
AcDbSpline
210
0.0
220
0.0
230
1.0
 70
     8
 71
     3
 72
    11
 73
     7
 74
     5
 42
0.0000000001
 43
0.0000000001
 44
0.0000000001
 40
0.0
 40
0.0
 40
0.0
 40
0.0
 40
0.2879301455088109
 40
0.5742912559876708
 40
0.8600973658999272
 40
1.144102862893665
 40
1.144102862893665
 40
1.144102862893665
 40
1.144102862893665
 10
-1.538993539759593
 20
9.229999542237159
 30
0.0
 10
-1.44219089128359
 20
9.236733984657785
 30
0.0
 10
-1.249113106816191
 20
9.250166171097598
 30
0.0
 10
-0.9921913293983719
 20
9.394193319212511
 30
0.0
 10
-0.7959741618092988
 20
9.61349975262577
 30
0.0
 10
-0.7466008451285845
 20
9.799361219860827
 30
0.0
 10
-0.7219921969856048
 20
9.891998291016147
 30
0.0
 11
-1.538993539759593
 21
9.229999542237159
 31
0.0
 11
-1.253997507044594
 21
9.270999908448155
 31
0.0
 11
-1.001990976282591
 21
9.406997680665149
 31
0.0
 11
-0.815993967005604
 21
9.624000549317141
 31
0.0
 11
-0.7219921969856048
 21
9.891998291016147
 31
0.0
  0
SPLINE
  5
8ABA
330
1F
100
AcDbEntity
  8
AM_0
100
AcDbSpline
210
0.0
220
0.0
230
1.0
 70
     8
 71
     3
 72
    11
 73
     7
 74
     5
 42
0.0000000001
 43
0.0000000001
 44
0.0000000001
 40
0.0
 40
0.0
 40
0.0
 40
0.0
 40
1.0502604019406
 40
2.10249757871573
 40
3.153894583982275
 40
4.205143943476296
 40
4.205143943476296
 40
4.205143943476296
 40
4.205143943476296
 10
-0.7219921969856048
 20
9.891998291016147
 30
0.0
 10
-0.6686016743658183
 20
10.23798993834384
 30
0.0
 10
-0.5617201387704043
 20
10.93062445014513
 30
0.0
 10
-0.4024455444697404
 20
11.96978779181066
 30
0.0
 10
-0.2406597393528837
 20
13.00889697903187
 30
0.0
 10
-0.134212992691193
 20
13.70164876492448
 30
0.0
 10
-0.0809933566536003
 20
14.04800033569414
 30
0.0
 11
-0.7219921969856048
 21
9.891998291016147
 31
0.0
 11
-0.5619961642715883
 21
10.93000030517614
 31
0.0
 11
-0.4019925021615913
 21
11.97000122070414
 31
0.0
 11
-0.2409970187635973
 21
13.00899887085014
 31
0.0
 11
-0.0809933566536003
 21
14.04800033569414
 31
0.0
  0
SPLINE
  5
8ABB
330
1F
100
AcDbEntity
  8
AM_0
100
AcDbSpline
210
0.0
220
0.0
230
1.0
 70
     8
 71
     3
 72
    11
 73
     7
 74
     5
 42
0.0000000001
 43
0.0000000001
 44
0.0000000001
 40
0.0
 40
0.0
 40
0.0
 40
0.0
 40
0.1142152619054185
 40
0.2293848342603273
 40
0.3455945782213328
 40
0.4615307603839738
 40
0.4615307603839738
 40
0.4615307603839738
 40
0.4615307603839738
 10
0.0000079250844076
 20
15.17399978637714
 30
0.0
 10
0.000013313007616
 20
15.21237495577065
 30
0.0
 10
0.0000241338721094
 20
15.28944593318811
 30
0.0
 10
-0.0426192079328436
 20
15.39872453261444
 30
0.0
 10
-0.1127744883901215
 20
15.49403257294724
 30
0.0
 10
-0.18028240768652
 20
15.53335930288737
 30
0.0
 10
-0.2139965915175966
 20
15.55299949646015
 30
0.0
 11
0.0000079250844076
 21
15.17399978637714
 31
0.0
 11
-0.0069958590956071
 21
15.28800010681214
 31
0.0
 11
-0.046996774622596
 21
15.39599990844815
 31
0.0
 11
-0.1179959201306076
 21
15.48799896240314
 31
0.0
 11
-0.2139965915175966
 21
15.55299949646015
 31
0.0
  0
SPLINE
  5
8ABC
330
1F
100
AcDbEntity
  8
AM_0
100
AcDbSpline
210
0.0
220
0.0
230
1.0
 70
     8
 71
     3
 72
    11
 73
     7
 74
     5
 42
0.0000000001
 43
0.0000000001
 44
0.0000000001
 40
0.0
 40
0.0
 40
0.0
 40
0.0
 40
2.177388007209457
 40
4.35885195188694
 40
6.542378267202877
 40
8.729969311384071
 40
8.729969311384071
 40
8.729969311384071
 40
8.729969311384071
 10
-9.093993844935623
 20
15.77400016784714
 30
0.0
 10
-8.368320739209183
 20
15.76062975346505
 30
0.0
 10
-6.915616111988705
 20
15.73386389610111
 30
0.0
 10
-4.735297067702656
 20
15.68834185041603
 30
0.0
 10
-2.551624394354188
 20
15.64060627228833
 30
0.0
 10
-1.094990988075875
 20
15.60621194829788
 30
0.0
 10
-0.3659970187636051
 20
15.58899879455614
 30
0.0
 11
-9.093993844935623
 21
15.77400016784714
 31
0.0
 11
-6.916991891810607
 21
15.73299980163614
 31
0.0
 11
-4.735992135950607
 21
15.68799972534213
 31
0.0
 11
-2.552993478724599
 21
15.63999938964915
 31
0.0
 11
-0.3659970187636051
 21
15.58899879455614
 31
0.0
  0
SPLINE
  5
8ABD
330
1F
100
AcDbEntity
  8
AM_0
100
AcDbSpline
210
0.0
220
0.0
230
1.0
 70
     8
 71
     3
 72
    11
 73
     7
 74
     5
 42
0.0000000001
 43
0.0000000001
 44
0.0000000001
 40
0.0
 40
0.0
 40
0.0
 40
0.0
 40
0.2879376971585417
 40
0.5769351229126796
 40
0.8652723826833895
 40
1.151671392291583
 40
1.151671392291583
 40
1.151671392291583
 40
1.151671392291583
 10
-9.093993844935623
 20
15.77400016784714
 30
0.0
 10
-9.190778539351322
 20
15.76716922486413
 30
0.0
 10
-9.384704135477916
 20
15.75348219823163
 30
0.0
 10
-9.643332796703361
 20
15.60947484736376
 30
0.0
 10
-9.844569524565496
 20
15.39189771439731
 30
0.0
 10
-9.898913983812565
 20
15.20575596388848
 30
0.0
 10
-9.925994577356584
 20
15.11299896240314
 30
0.0
 11
-9.093993844935623
 21
15.77400016784714
 31
0.0
 11
-9.3789975070446
 21
15.73299980163614
 31
0.0
 11
-9.633994760462623
 21
15.59700012207114
 31
0.0
 11
-9.824996652552609
 21
15.38099861145113
 31
0.0
 11
-9.925994577356584
 21
15.11299896240314
 31
0.0
  0
SPLINE
  5
8ABE
330
1F
100
AcDbEntity
  8
AM_0
100
AcDbSpline
210
0.0
220
0.0
230
1.0
 70
     8
 71
     3
 72
    11
 73
     7
 74
     5
 42
0.0000000001
 43
0.0000000001
 44
0.0000000001
 40
0.0
 40
0.0
 40
0.0
 40
0.0
 40
1.054710066541637
 40
2.109420133082119
 40
3.164128322493088
 40
4.218663522436476
 40
4.218663522436476
 40
4.218663522436476
 40
4.218663522436476
 10
-9.925994577356584
 20
15.11299896240314
 30
0.0
 10
-9.988333778180431
 20
14.76699996458251
 30
0.0
 10
-10.11301217982806
 20
14.07500196894162
 30
0.0
 10
-10.29992570453708
 20
13.03698691118572
 30
0.0
 10
-10.48724474330534
 20
11.99910393583659
 30
0.0
 10
-10.61108245015349
 20
11.30701474816615
 30
0.0
 10
-10.67299622530658
 20
10.96099853515713
 30
0.0
 11
-9.925994577356584
 21
15.11299896240314
 31
0.0
 11
-10.11299485201557
 21
14.07499885559114
 31
0.0
 11
-10.29999512667361
 21
13.03699874878014
 31
0.0
 11
-10.48699540133157
 21
11.99900054931715
 31
0.0
 11
-10.67299622530658
 21
10.96099853515713
 31
0.0
  0
SPLINE
  5
8ABF
330
1F
100
AcDbEntity
  8
AM_0
100
AcDbSpline
210
0.0
220
0.0
230
1.0
 70
     8
 71
     3
 72
    11
 73
     7
 74
     5
 42
0.0000000001
 43
0.0000000001
 44
0.0000000001
 40
0.0
 40
0.0
 40
0.0
 40
0.0
 40
0.1140686246440697
 40
0.2285598134146845
 40
0.3427612209672886
 40
0.4570466279130792
 40
0.4570466279130792
 40
0.4570466279130792
 40
0.4570466279130792
 10
-10.78299683565758
 20
9.835998535157139
 30
0.0
 10
-10.78408980056498
 20
9.797671896255577
 30
0.0
 10
-10.78627977923864
 20
9.720876638458031
 30
0.0
 10
-10.74572898864348
 20
9.611619631432363
 30
0.0
 10
-10.67704271507762
 20
9.517080300972873
 30
0.0
 10
-10.61101899893683
 20
9.477698381765174
 30
0.0
 10
-10.57799500460356
 20
9.458000183106143
 30
0.0
 11
-10.78299683565758
 21
9.835998535157139
 31
0.0
 11
-10.77899521822656
 21
9.722000122071143
 31
0.0
 11
-10.74099701876358
 21
9.613998413086145
 31
0.0
 11
-10.67199677462259
 21
9.522998809815144
 31
0.0
 11
-10.57799500460356
 21
9.458000183106143
 31
0.0
  0
SPLINE
  5
8AC0
330
1F
100
AcDbEntity
  8
AM_0
100
AcDbSpline
210
0.0
220
0.0
230
1.0
 70
     8
 71
     3
 72
    11
 73
     7
 74
     5
 42
0.0000000001
 43
0.0000000001
 44
0.0000000001
 40
0.0
 40
0.0
 40
0.0
 40
0.0
 40
2.046725246638515
 40
4.094312795198339
 40
6.143631429307919
 40
8.192757411962141
 40
8.192757411962141
 40
8.192757411962141
 40
8.192757411962141
 10
-17.89399308199559
 20
14.96599960327212
 30
0.0
 10
-17.21333357709748
 20
15.01243667539886
 30
0.0
 10
-15.85172779993969
 20
15.1053303839669
 30
0.0
 10
-13.80847214816991
 20
15.24285089540038
 30
0.0
 10
-11.76409448639336
 20
15.3755396400351
 30
0.0
 10
-10.40067523892805
 20
15.46184733951614
 30
0.0
 10
-9.718997659632602
 20
15.50499916076714
 30
0.0
 11
-17.89399308199559
 21
14.96599960327212
 31
0.0
 11
-15.85199326510157
 21
15.10499954223712
 31
0.0
 11
-13.80899399752259
 21
15.24199867248613
 31
0.0
 11
-11.76399582857762
 21
15.37500000000014
 31
0.0
 11
-9.718997659632602
 21
15.50499916076714
 31
0.0
  0
SPLINE
  5
8AC1
330
1F
100
AcDbEntity
  8
AM_0
100
AcDbSpline
210
0.0
220
0.0
230
1.0
 70
     8
 71
     3
 72
    11
 73
     7
 74
     5
 42
0.0000000001
 43
0.0000000001
 44
0.0000000001
 40
0.0
 40
0.0
 40
0.0
 40
0.0
 40
0.2890175075011369
 40
0.5730044777140908
 40
0.8410074991721247
 40
1.089461227708079
 40
1.089461227708079
 40
1.089461227708079
 40
1.089461227708079
 10
-17.89399308199559
 20
14.96599960327212
 30
0.0
 10
-17.99053633853197
 20
14.95566839970233
 30
0.0
 10
-18.18194245356887
 20
14.93518581386575
 30
0.0
 10
-18.43618358740458
 20
14.80700936784936
 30
0.0
 10
-18.63969379044124
 20
14.62160641944067
 30
0.0
 10
-18.69796234755773
 20
14.45712698135683
 30
0.0
 10
-18.72599381441758
 20
14.37800025940014
 30
0.0
 11
-17.89399308199559
 21
14.96599960327212
 31
0.0
 11
-18.17899674410458
 21
14.91799926757913
 31
0.0
 11
-18.43399399752259
 21
14.79299926757913
 31
0.0
 11
-18.62499588961261
 21
14.60499954223713
 31
0.0
 11
-18.72599381441758
 21
14.37800025940014
 31
0.0
  0
SPLINE
  5
8AC2
330
1F
100
AcDbEntity
  8
AM_0
100
AcDbSpline
210
0.0
220
0.0
230
1.0
 70
     8
 71
     3
 72
    11
 73
     7
 74
     5
 42
0.0000000001
 43
0.0000000001
 44
0.0000000001
 40
0.0
 40
0.0
 40
0.0
 40
0.0
 40
0.7976778861239961
 40
1.595355772246759
 40
2.394010987812813
 40
3.192664338194634
 40
3.192664338194634
 40
3.192664338194634
 40
3.192664338194634
 10
-18.72599381441758
 20
14.37800025940014
 30
0.0
 10
-18.78165555497675
 20
14.11799898956251
 30
0.0
 10
-18.89297903609501
 20
13.59799644988765
 30
0.0
 10
-19.06012006261813
 20
12.81769282694793
 30
0.0
 10
-19.22697840662993
 20
12.0369962053999
 30
0.0
 10
-19.338321566879
 20
11.51633221167216
 30
0.0
 10
-19.39399308199558
 20
11.25600051879911
 30
0.0
 11
-18.72599381441758
 21
14.37800025940014
 31
0.0
 11
-18.89299363131259
 21
13.5979995727541
 31
0.0
 11
-19.05999344820658
 21
12.81799888610911
 31
0.0
 11
-19.22699326510156
 21
12.03699874878012
 31
0.0
 11
-19.39399308199558
 21
11.25600051879911
 31
0.0
  0
SPLINE
  5
8AC3
330
1F
100
AcDbEntity
  8
AM_0
100
AcDbSpline
210
0.0
220
0.0
230
1.0
 70
     8
 71
     3
 72
    11
 73
     7
 74
     5
 42
0.0000000001
 43
0.0000000001
 44
0.0000000001
 40
0.0
 40
0.0
 40
0.0
 40
0.0
 40
1.216183891952164
 40
2.554381219143917
 40
3.873245224094894
 40
5.141323595146404
 40
5.141323595146404
 40
5.141323595146404
 40
5.141323595146404
 10
-15.88199967379257
 20
12.05099868774512
 30
0.0
 10
-15.68714162850152
 20
11.67430581262836
 30
0.0
 10
-15.27787643876808
 20
10.88312841589514
 30
0.0
 10
-13.85175896779887
 20
10.61377174095885
 30
0.0
 10
-12.5425545341845
 20
11.32837305158238
 30
0.0
 10
-12.47373081734824
 20
12.23941998120645
 30
0.0
 10
-12.43999451632159
 20
12.68600082397512
 30
0.0
 11
-15.88199967379257
 21
12.05099868774512
 31
0.0
 11
-15.1769978427376
 21
11.06000137329213
 31
0.0
 11
-13.86799592013057
 21
10.78199768066513
 31
0.0
 11
-12.73199433321657
 21
11.45199966430713
 31
0.0
 11
-12.43999451632159
 21
12.68600082397512
 31
0.0
  0
SPLINE
  5
8AC4
330
1F
100
AcDbEntity
  8
AM_0
100
AcDbSpline
210
0.0
220
0.0
230
1.0
 70
     8
 71
     3
 72
    11
 73
     7
 74
     5
 42
0.0000000001
 43
0.0000000001
 44
0.0000000001
 40
0.0
 40
0.0
 40
0.0
 40
0.0
 40
1.242779610260213
 40
2.545416656288209
 40
3.87302437720518
 40
5.058023469984345
 40
5.058023469984345
 40
5.058023469984345
 40
5.058023469984345
 10
-12.43999451632159
 20
12.68600082397512
 30
0.0
 10
-12.63176955277542
 20
13.08434533438497
 30
0.0
 10
-13.02455630918804
 20
13.90022028386689
 30
0.0
 10
-14.48184851695535
 20
14.02439138283552
 30
0.0
 10
-15.72546795366731
 20
13.33892486011569
 30
0.0
 10
-15.83183479656356
 20
12.46374990689289
 30
0.0
 10
-15.88199967379257
 20
12.05099868774512
 30
0.0
 11
-12.43999451632159
 21
12.68600082397512
 31
0.0
 11
-13.14999741549157
 21
13.70599937439014
 31
0.0
 11
-14.4399983310196
 21
13.88699913025014
 31
0.0
 11
-15.57299393648761
 21
13.19499969482513
 31
0.0
 11
-15.88199967379257
 21
12.05099868774512
 31
0.0
  0
SPLINE
  5
8AC5
330
1F
100
AcDbEntity
  8
AM_0
100
AcDbSpline
210
0.0
220
0.0
230
1.0
 70
     8
 71
     3
 72
    11
 73
     7
 74
     5
 42
0.0000000001
 43
0.0000000001
 44
0.0000000001
 40
0.0
 40
0.0
 40
0.0
 40
0.0
 40
1.445462391953939
 40
2.891625731549742
 40
4.339562119488952
 40
5.78928963867642
 40
5.78928963867642
 40
5.78928963867642
 40
5.78928963867642
 10
-16.12399643892956
 20
9.51599884033313
 30
0.0
 10
-15.64268544692923
 20
9.493813994787
 30
0.0
 10
-14.67983006093433
 20
9.449433545604273
 30
0.0
 10
-13.23443588789336
 20
9.392174840010973
 30
0.0
 10
-11.78744111909056
 20
9.33966574583202
 30
0.0
 10
-10.82201035442122
 20
9.309893495609145
 30
0.0
 10
-10.33899659151758
 20
9.294998168946143
 30
0.0
 11
-16.12399643892956
 21
9.51599884033313
 31
0.0
 11
-14.67999619478861
 21
9.451000213624135
 31
0.0
 11
-13.23499649996456
 21
9.392997741700142
 31
0.0
 11
-11.78799408907559
 21
9.340999603272141
 31
0.0
 11
-10.33899659151758
 21
9.294998168946143
 31
0.0
  0
LINE
  5
8B6B
330
1F
100
AcDbEntity
  8
AM_0
100
AcDbLine
 10
-1.16199463839258
 20
5.803001403809171
 30
0.0
 11
-10.19199341768859
 21
6.198001861573157
 31
0.0
  0
LINE
  5
8B6C
330
1F
100
AcDbEntity
  8
AM_0
100
AcDbLine
 10
-1.302993478724571
 20
6.610000610352168
 30
0.0
 11
-9.199996652552584
 21
6.954998016358145
 31
0.0
  0
LINE
  5
8B6D
330
1F
100
AcDbEntity
  8
AM_0
100
AcDbLine
 10
-1.028999032923554
 20
-14.97000122070283
 30
0.0
 11
-8.521995248743523
 21
-15.29700088500886
 31
0.0
  0
LINE
  5
8B6E
330
1F
100
AcDbEntity
  8
AM_0
100
AcDbLine
 10
-8.513992013880528
 20
-15.08900070190385
 30
0.0
 11
-1.025001230188555
 21
-14.76200103759683
 31
0.0
  0
LINE
  5
8B75
330
1F
100
AcDbEntity
  8
AM_0
100
AcDbLine
 10
-0.9709927463025811
 20
5.794998168946161
 30
0.0
 11
-0.9709927463025483
 21
-14.44900131225484
 31
0.0
  0
LINE
  5
8B76
330
1F
100
AcDbEntity
  8
AM_0
100
AcDbLine
 10
-1.16199463839258
 20
5.803001403809171
 30
0.0
 11
-1.161994638392547
 21
-14.64699935912984
 31
0.0
  0
LINE
  5
8BCE
330
1F
100
AcDbEntity
  8
AM_0
100
AcDbLine
 10
0.0000079250843921
 20
15.59460067749113
 30
0.0
 11
-0.2135922336066032
 21
15.97330093383813
 31
0.0
  0
LINE
  5
8BCF
330
1F
100
AcDbEntity
  8
AM_0
100
AcDbLine
 10
-0.0809933566536003
 20
14.04800033569414
 30
0.0
 11
0.0000079250844076
 21
15.17399978637714
 31
0.0
  0
LINE
  5
8BD0
330
1F
100
AcDbEntity
  8
AM_0
100
AcDbLine
 10
-0.2135998630016034
 20
15.97329902649014
 30
0.0
 11
-0.3649975680796006
 21
16.00709915161214
 31
0.0
  0
LINE
  5
8BD1
330
1F
100
AcDbEntity
  8
AM_0
100
AcDbLine
 10
-0.3659970187636051
 20
15.58899879455614
 30
0.0
 11
-0.2139965915175966
 21
15.55300140380914
 31
0.0
  0
LINE
  5
8BD2
330
1F
100
AcDbEntity
  8
AM_0
100
AcDbLine
 10
-0.2139965915175966
 20
15.55299949646015
 30
0.0
 11
-0.3649975680795993
 21
15.58899879455614
 31
0.0
  0
LINE
  5
8BD3
330
1F
100
AcDbEntity
  8
AM_0
100
AcDbLine
 10
-6.920997323938598
 20
9.051998138428151
 30
0.0
 11
-3.9409939670056
 21
8.922000885010135
 31
0.0
  0
LINE
  5
8BD4
330
1F
100
AcDbEntity
  8
AM_0
100
AcDbLine
 10
-0.9709927463025811
 20
5.808998107911161
 30
0.0
 11
-0.9709927463025923
 21
9.493000030518153
 31
0.0
  0
LINE
  5
8BD5
330
1F
100
AcDbEntity
  8
AM_0
100
AcDbLine
 10
-0.9710003756965866
 20
5.794998168946161
 30
0.0
 11
-1.16199463839258
 21
5.80299758911216
 31
0.0
  0
LINE
  5
8BD6
330
1F
100
AcDbEntity
  8
AM_0
100
AcDbLine
 10
-1.187995614954594
 20
9.306999206543162
 30
0.0
 11
-1.303001108118577
 21
6.609996795655158
 31
0.0
  0
ARC
  5
8C48
330
1F
100
AcDbEntity
  8
AM_0
100
AcDbCircle
 10
-4.851997079798562
 20
-12.36199951171784
 30
0.0
 40
1.2463908195496
100
AcDbArc
 50
190.1198234252523
 51
272.477598984386
  0
ARC
  5
8C49
330
1F
100
AcDbEntity
  8
AM_0
100
AcDbCircle
 10
-4.851997079798562
 20
-12.36199951171784
 30
0.0
 40
1.249167680740399
100
AcDbArc
 50
272.477598984386
 51
92.52140599649225
  0
LINE
  5
8C4A
330
1F
100
AcDbEntity
  8
AM_0
100
AcDbLine
 10
-3.357993783899556
 20
-12.29599761962784
 30
0.0
 11
-3.278991403528557
 21
-14.10400009155184
 31
0.0
  0
LINE
  5
8C4B
330
1F
100
AcDbEntity
  8
AM_0
100
AcDbLine
 10
-0.0810009860485579
 20
-14.04800033569284
 30
0.0
 11
-0.7350003146615624
 21
-11.66100311279184
 31
0.0
  0
LINE
  5
8C4C
330
1F
100
AcDbEntity
  8
AM_0
100
AcDbLine
 10
-0.6099926852675481
 20
-14.52999877929585
 30
0.0
 11
-0.7349926852675568
 21
-11.66099929809484
 31
0.0
  0
LINE
  5
8C4D
330
1F
100
AcDbEntity
  8
AM_0
100
AcDbLine
 10
-0.9479977511855683
 20
-11.52700042724584
 30
0.0
 11
-0.8160015963995503
 21
-14.53900146484284
 31
0.0
  0
ARC
  5
8C4E
330
1F
100
AcDbEntity
  8
AM_0
100
AcDbCircle
 10
-4.851997079798562
 20
-12.36199951171784
 30
0.0
 40
1.495457172393799
100
AcDbArc
 50
2.529500908642068
 51
86.71425986320524
  0
LINE
  5
8C4F
330
1F
100
AcDbEntity
  8
AM_0
100
AcDbLine
 10
-0.7219921969855733
 20
-9.89200210571184
 30
0.0
 11
-0.9129940890755717
 21
-10.36899948120085
 31
0.0
  0
LINE
  5
8C50
330
1F
100
AcDbEntity
  8
AM_0
100
AcDbLine
 10
-0.7350003146615624
 20
-11.66099929809484
 30
0.0
 11
-0.7559964084115629
 21
-11.51900482177684
 31
0.0
  0
LINE
  5
8C51
330
1F
100
AcDbEntity
  8
AM_0
100
AcDbLine
 10
-0.9659954928845639
 20
-10.16800308227485
 30
0.0
 11
-0.9699932956185696
 21
-10.15900421142483
 31
0.0
  0
LINE
  5
8C52
330
1F
100
AcDbEntity
  8
AM_0
100
AcDbLine
 10
-0.9079968356575601
 20
-10.40200424194285
 30
0.0
 11
-0.9129940890755717
 21
-10.36900329589784
 31
0.0
  0
LINE
  5
8C53
330
1F
100
AcDbEntity
  8
AM_0
100
AcDbLine
 10
-0.9659954928845639
 20
-10.16800308227485
 30
0.0
 11
-0.9709927463025611
 21
-10.17000198364183
 31
0.0
  0
LINE
  5
8C54
330
1F
100
AcDbEntity
  8
AM_0
100
AcDbLine
 10
-0.7559964084115629
 20
-11.51900100707984
 30
0.0
 11
-0.9479977511855683
 21
-11.52700042724584
 31
0.0
  0
LINE
  5
8C55
330
1F
100
AcDbEntity
  8
AM_0
100
AcDbLine
 10
-0.7559964084115629
 20
-11.51899719238184
 30
0.0
 11
-0.9079968356575601
 21
-10.40200424194285
 31
0.0
  0
LINE
  5
8C56
330
1F
100
AcDbEntity
  8
AM_0
100
AcDbLine
 10
-0.9079968356575601
 20
-10.40200042724584
 30
0.0
 11
-0.9709927463025604
 21
-10.40499877929583
 31
0.0
  0
LINE
  5
8C57
330
1F
100
AcDbEntity
  8
AM_0
100
AcDbLine
 10
-0.9709927463025575
 20
-11.36199951171783
 30
0.0
 11
-0.9479977511855683
 21
-11.52700042724584
 31
0.0
  0
ARC
  5
8C58
330
1F
100
AcDbEntity
  8
AM_0
100
AcDbCircle
 10
-4.851997079798562
 20
-12.36199951171784
 30
0.0
 40
1.250210404396099
100
AcDbArc
 50
92.52140280876572
 51
120.9165755660155
  0
LINE
  5
8C59
330
1F
100
AcDbEntity
  8
AM_0
100
AcDbLine
 10
0.0000002956894438
 20
-15.59460067748984
 30
0.0
 11
-0.2135998630015492
 21
-15.97330093383683
 31
0.0
  0
LINE
  5
8C5A
330
1F
100
AcDbEntity
  8
AM_0
100
AcDbLine
 10
-0.6079937838995504
 20
-14.56599807739183
 30
0.0
 11
0.0000002956894425
 21
-15.17399597167884
 31
0.0
  0
LINE
  5
8C5B
330
1F
100
AcDbEntity
  8
AM_0
100
AcDbLine
 10
-0.0810009860485579
 20
-14.04800033569284
 30
0.0
 11
0.0000002956894425
 21
-15.17399978637584
 31
0.0
  0
LINE
  5
8C5C
330
1F
100
AcDbEntity
  8
AM_0
100
AcDbLine
 10
-3.278991403528557
 20
-14.10400009155184
 30
0.0
 11
-6.275085153528556
 21
-14.04799270629785
 31
0.0
  0
ARC
  5
8C5D
330
1F
100
AcDbEntity
  8
AM_0
100
AcDbCircle
 10
-1.03499573702455
 20
-14.53300094604383
 30
0.0
 40
0.2292182296515
100
AcDbArc
 50
272.5004118162146
 51
303.0658020501554
  0
ARC
  5
8C5E
330
1F
100
AcDbEntity
  8
AM_0
100
AcDbCircle
 10
-1.019996347376552
 20
-14.55500030517483
 30
0.0
 40
0.202484562993
100
AcDbArc
 50
302.9052379631502
 51
335.7204856795029
  0
ARC
  5
8C5F
330
1F
100
AcDbEntity
  8
AM_0
100
AcDbCircle
 10
-1.04899567598955
 20
-14.54199981689384
 30
0.0
 40
0.2336343228817
100
AcDbArc
 50
335.7387086242072
 51
348.6419604947388
  0
ARC
  5
8C60
330
1F
100
AcDbEntity
  8
AM_0
100
AcDbCircle
 10
-1.018996896692546
 20
-14.54800033569284
 30
0.0
 40
0.2029802948236
100
AcDbArc
 50
348.6347068338408
 51
2.538540436641311
  0
LINE
  5
8C61
330
1F
100
AcDbEntity
  8
AM_0
100
AcDbLine
 10
-0.213592233606549
 20
-15.97330093383683
 30
0.0
 11
-0.364989938685555
 21
-16.00710296630785
 31
0.0
  0
LINE
  5
8C62
330
1F
100
AcDbEntity
  8
AM_0
100
AcDbLine
 10
-0.213996591517545
 20
-15.55300140380785
 30
0.0
 11
-0.3649975680795475
 21
-15.58900070190383
 31
0.0
  0
LINE
  5
8C63
330
1F
100
AcDbEntity
  8
AM_0
100
AcDbLine
 10
-0.3649975680795475
 20
-15.58899688720685
 30
0.0
 11
-0.9849926852675466
 21
-14.96899795532183
 31
0.0
  0
LINE
  5
8C64
330
1F
100
AcDbEntity
  8
AM_0
100
AcDbLine
 10
-0.6349942111465534
 20
-14.73699951171784
 30
0.0
 11
-0.835998239466553
 21
-14.63799667358284
 31
0.0
  0
LINE
  5
8C65
330
1F
100
AcDbEntity
  8
AM_0
100
AcDbLine
 10
-0.6090008639785564
 20
-14.63399887084884
 30
0.0
 11
-0.8199917697395504
 21
-14.58800125121984
 31
0.0
  0
LINE
  5
8C66
330
1F
100
AcDbEntity
  8
AM_0
100
AcDbLine
 10
-0.6089932345835562
 20
-14.63399887084884
 30
0.0
 11
-0.6079937838995504
 21
-14.56599807739183
 31
0.0
  0
LINE
  5
8C67
330
1F
100
AcDbEntity
  8
AM_0
100
AcDbLine
 10
-0.6080014132945506
 20
-14.56599807739183
 30
0.0
 11
-0.6100003146615536
 21
-14.53000259399385
 31
0.0
  0
LINE
  5
8C68
330
1F
100
AcDbEntity
  8
AM_0
100
AcDbLine
 10
-1.028991403528554
 20
-14.96999740600484
 30
0.0
 11
-0.9850003146615522
 21
-14.96899795532183
 31
0.0
  0
LINE
  5
8C69
330
1F
100
AcDbEntity
  8
AM_0
100
AcDbLine
 10
-0.7989956759895495
 20
-14.91899490356385
 30
0.0
 11
-0.9099881076305585
 21
-14.72500228881785
 31
0.0
  0
LINE
  5
8C6A
330
1F
100
AcDbEntity
  8
AM_0
100
AcDbLine
 10
-0.6100003146615536
 20
-14.53000259399385
 30
0.0
 11
-0.8159939670055592
 21
-14.53900146484284
 31
0.0
  0
LINE
  5
8C6B
330
1F
100
AcDbEntity
  8
AM_0
100
AcDbLine
 10
-1.028991403528554
 20
-14.97000122070283
 30
0.0
 11
-1.024993600794549
 21
-14.76200103759683
 31
0.0
  0
LINE
  5
8C6C
330
1F
100
AcDbEntity
  8
AM_0
100
AcDbLine
 10
-57.33799332613662
 20
16.00000000000009
 30
0.0
 11
-57.33799332613658
 21
-15.99999999999993
 31
0.0
  0
LINE
  5
8C6D
330
1F
100
AcDbEntity
  8
AM_0
100
AcDbLine
 10
-54.99999588961261
 20
14.64999961853107
 30
0.0
 11
-54.99999588961255
 21
-14.65000152587792
 31
0.0
  0
LINE
  5
8C6E
330
1F
100
AcDbEntity
  8
AM_0
100
AcDbLine
 10
-35.44799393648757
 20
-0.8430023193348947
 30
0.0
 11
-35.52899140352857
 21
-1.849998474120888
 31
0.0
  0
LINE
  5
8C6F
330
1F
100
AcDbEntity
  8
AM_0
100
AcDbLine
 10
-38.4020115756476
 20
6.316143035889107
 30
0.0
 11
-41.39551514620458
 21
6.578273773194099
 31
0.0
  0
LINE
  5
8C70
330
1F
100
AcDbEntity
  8
AM_0
100
AcDbLine
 10
-33.9599949740856
 20
14.64999961853112
 30
0.0
 11
-54.99999588961261
 21
14.64999961853107
 31
0.0
  0
LINE
  5
8C71
330
1F
100
AcDbEntity
  8
AM_0
100
AcDbLine
 10
-44.2609955691786
 20
-0.8240013122549143
 30
0.0
 11
-40.53299302096056
 21
-1.142002105711906
 31
0.0
  0
LINE
  5
8C72
330
1F
100
AcDbEntity
  8
AM_0
100
AcDbLine
 10
-43.71399277681958
 20
3.474998474122082
 30
0.0
 11
-36.22499817843158
 21
2.836997985840088
 31
0.0
  0
LINE
  5
8C73
330
1F
100
AcDbEntity
  8
AM_0
100
AcDbLine
 10
-36.22899216646859
 20
2.7039985656741
 30
0.0
 11
-43.72199791903158
 21
3.341999053956095
 31
0.0
  0
LINE
  5
8C78
330
1F
100
AcDbEntity
  8
AM_0
100
AcDbLine
 10
-14.54499405855858
 20
8.588996887208136
 30
0.0
 11
-18.98199433321657
 21
11.17199707031313
 31
0.0
  0
LINE
  5
8C79
330
1F
100
AcDbEntity
  8
AM_0
100
AcDbLine
 10
-10.67299622530658
 20
10.96099853515713
 30
0.0
 11
-10.78299683565758
 21
9.836002349854148
 31
0.0
  0
LINE
  5
8C7E
330
1F
100
AcDbEntity
  8
AM_0
100
AcDbLine
 10
-22.03899735445657
 20
12.02600097656312
 30
0.0
 11
-19.1489979648086
 21
12.43999862670914
 31
0.0
  0
LINE
  5
8C7F
330
1F
100
AcDbEntity
  8
AM_0
100
AcDbLine
 10
-10.37899750704458
 20
9.172000885010142
 30
0.0
 11
-12.7149960422006
 21
9.186000823975122
 31
0.0
  0
LINE
  5
8C80
330
1F
100
AcDbEntity
  8
AM_0
100
AcDbLine
 10
-12.75199479097957
 20
7.570999145508126
 30
0.0
 11
-11.75899857515958
 21
6.937000274659147
 31
0.0
  0
LINE
  5
8C81
330
1F
100
AcDbEntity
  8
AM_0
100
AcDbLine
 10
-11.75899094576558
 20
6.937000274659147
 30
0.0
 11
-12.63699692721058
 21
6.974998474122134
 31
0.0
  0
ARC
  5
8C82
330
1F
100
AcDbEntity
  8
AM_0
100
AcDbCircle
 10
-9.01699036593159
 20
11.15100097656315
 30
0.0
 40
4.1962203979492
100
AcDbArc
 50
237.5748883633256
 51
267.5027419099459
  0
ARC
  5
8C83
330
1F
100
AcDbEntity
  8
AM_0
100
AcDbCircle
 10
-9.079993905970594
 20
11.15399932861414
 30
0.0
 40
4.996011257171598
100
AcDbArc
 50
237.5727846650607
 51
267.5009865513306
  0
LINE
  5
8C84
330
1F
100
AcDbEntity
  8
AM_0
100
AcDbLine
 10
-10.18899125094058
 20
9.169998168946145
 30
0.0
 11
-10.37899750704458
 21
9.172000885010142
 31
0.0
  0
LINE
  5
8C85
330
1F
100
AcDbEntity
  8
AM_0
100
AcDbLine
 10
-11.2669903659316
 20
7.608997344971137
 30
0.0
 11
-11.53999299044258
 21
7.782997131348146
 31
0.0
  0
LINE
  5
8C86
330
1F
100
AcDbEntity
  8
AM_0
100
AcDbLine
 10
-10.42599076265959
 20
9.421997070313148
 30
0.0
 11
-10.57799118990557
 21
9.458000183106143
 31
0.0
  0
LINE
  5
8C87
330
1F
100
AcDbEntity
  8
AM_0
100
AcDbLine
 10
-10.57799881930058
 20
9.458000183106143
 30
0.0
 11
-10.42699402804055
 21
9.421997070313148
 31
0.0
  0
LINE
  5
8C88
330
1F
100
AcDbEntity
  8
AM_0
100
AcDbLine
 10
-10.33900040621456
 20
9.294998168946143
 30
0.0
 11
-10.09999436373358
 21
9.325996398926147
 31
0.0
  0
LINE
  5
8C89
330
1F
100
AcDbEntity
  8
AM_0
100
AcDbLine
 10
-10.37900132174156
 20
9.172000885010142
 30
0.0
 11
-10.33900040621456
 21
9.295001983643155
 31
0.0
  0
LINE
  5
8C8A
330
1F
100
AcDbEntity
  8
AM_0
100
AcDbLine
 10
-12.74099701876358
 20
8.725002288819128
 30
0.0
 11
-14.79999512667359
 21
8.738002777100131
 31
0.0
  0
LINE
  5
8C8F
330
1F
100
AcDbEntity
  8
AM_0
100
AcDbLine
 10
-32.37499588961259
 20
4.423999786377109
 30
0.0
 11
-32.38599747652659
 21
4.248996734620092
 31
0.0
  0
LINE
  5
8C90
330
1F
100
AcDbEntity
  8
AM_0
100
AcDbLine
 10
-32.59449738497458
 20
0.417003631592095
 30
0.0
 11
-29.59799927706357
 21
0.1724395751961171
 31
0.0
  0
LINE
  5
8C91
330
1F
100
AcDbEntity
  8
AM_0
100
AcDbLine
 10
-29.67599457735658
 20
0.6319999694831269
 30
0.0
 11
-29.59799164766958
 21
0.1709976196291281
 31
0.0
  0
LINE
  5
8C92
330
1F
100
AcDbEntity
  8
AM_0
100
AcDbLine
 10
-35.56799668306958
 20
1.34500122070411
 30
0.0
 11
-35.42699784273758
 21
1.523002624512107
 31
0.0
  0
LINE
  5
8C93
330
1F
100
AcDbEntity
  8
AM_0
100
AcDbLine
 10
-35.34499329561857
 20
0.7249984741221083
 30
0.0
 11
-35.42799347872455
 21
0.6199989318850979
 31
0.0
  0
LINE
  5
8C94
330
1F
100
AcDbEntity
  8
AM_0
100
AcDbLine
 10
-35.44799012179058
 20
-0.8429985046378851
 30
0.0
 11
-35.46799439425158
 21
-0.592002868651898
 31
0.0
  0
LINE
  5
8C95
330
1F
100
AcDbEntity
  8
AM_0
100
AcDbLine
 10
-35.20599335665358
 20
-0.5349998474118902
 30
0.0
 11
-34.8559948825326
 21
-0.0900039672848934
 31
0.0
  0
LINE
  5
8C96
330
1F
100
AcDbEntity
  8
AM_0
100
AcDbLine
 10
-35.44799393648757
 20
-0.8429985046378851
 30
0.0
 11
-35.24299210543357
 21
-0.5820007324208887
 31
0.0
  0
LINE
  5
8C97
330
1F
100
AcDbEntity
  8
AM_0
100
AcDbLine
 10
-35.2809941195936
 20
-0.5890007019038933
 30
0.0
 11
-35.19999283785459
 21
-0.5750007629388929
 31
0.0
  0
LINE
  5
8C98
330
1F
100
AcDbEntity
  8
AM_0
100
AcDbLine
 10
-35.80999344820658
 20
2.593997955323108
 30
0.0
 11
-36.01999253267958
 21
2.789997100831089
 31
0.0
  0
LINE
  5
8C99
330
1F
100
AcDbEntity
  8
AM_0
100
AcDbLine
 10
-35.80899399752258
 20
2.593997955323108
 30
0.0
 11
-35.80699891085358
 21
2.589996337891097
 31
0.0
  0
LINE
  5
8C9A
330
1F
100
AcDbEntity
  8
AM_0
100
AcDbLine
 10
-35.19999283785459
 20
-0.5750007629388929
 30
0.0
 11
-35.19899338717156
 21
-0.5740013122549012
 31
0.0
  0
LINE
  5
8C9B
330
1F
100
AcDbEntity
  8
AM_0
100
AcDbLine
 10
-35.19898957247458
 20
-0.5740013122549012
 30
0.0
 11
-35.80699128145859
 21
2.590000152588107
 31
0.0
  0
LINE
  5
8C9C
330
1F
100
AcDbEntity
  8
AM_0
100
AcDbLine
 10
-35.83499497408558
 20
2.608001708985102
 30
0.0
 11
-36.03599900240557
 21
2.799999237061103
 31
0.0
  0
LINE
  5
8C9D
330
1F
100
AcDbEntity
  8
AM_0
100
AcDbLine
 10
-35.99900025362656
 20
2.657997131348099
 30
0.0
 11
-36.10999649996457
 21
2.820995330811103
 31
0.0
  0
LINE
  5
8C9E
330
1F
100
AcDbEntity
  8
AM_0
100
AcDbLine
 10
-36.22899216646859
 20
2.7039985656741
 30
0.0
 11
-36.22499436373359
 21
2.836997985840088
 31
0.0
  0
LINE
  5
8C9F
330
1F
100
AcDbEntity
  8
AM_0
100
AcDbLine
 10
-35.56499451632158
 20
-0.5250015258778925
 30
0.0
 11
-36.18498963350957
 21
2.698001861573106
 31
0.0
  0
LINE
  5
8CA0
330
1F
100
AcDbEntity
  8
AM_0
100
AcDbLine
 10
-36.22899598116557
 20
2.7039985656741
 30
0.0
 11
-36.18499344820658
 21
2.697998046875101
 31
0.0
  0
LINE
  5
8CA1
330
1F
100
AcDbEntity
  8
AM_0
100
AcDbLine
 10
-35.56599778170258
 20
-0.5249977111808827
 30
0.0
 11
-35.41400116915358
 21
-0.5439987182608892
 31
0.0
  0
LINE
  5
8CA2
330
1F
100
AcDbEntity
  8
AM_0
100
AcDbLine
 10
-35.41399353975957
 20
-0.5439987182608892
 30
0.0
 11
-35.56499451632158
 21
-0.5249977111808827
 31
0.0
  0
LINE
  5
8CA3
330
1F
100
AcDbEntity
  8
AM_0
100
AcDbLine
 10
-54.9999939822646
 20
14.64999771118207
 30
0.0
 11
-57.33799332613662
 21
16.00000000000009
 31
0.0
  0
LINE
  5
8CA4
330
1F
100
AcDbEntity
  8
AM_0
100
AcDbLine
 10
-47.30499428743956
 20
0.5849990844730805
 30
0.0
 11
-53.08799332613657
 21
2.153999328614085
 31
0.0
  0
LINE
  5
8CA5
330
1F
100
AcDbEntity
  8
AM_0
100
AcDbLine
 10
-54.19699448580457
 20
1.443000793458087
 30
0.0
 11
-47.95500153536461
 21
-0.2499961853019144
 31
0.0
  0
LINE
  5
8CA6
330
1F
100
AcDbEntity
  8
AM_0
100
AcDbLine
 10
-41.18099946016958
 20
9.839000701905094
 30
0.0
 11
-41.1859967135876
 21
9.776000976563096
 31
0.0
  0
LINE
  5
8CA7
330
1F
100
AcDbEntity
  8
AM_0
100
AcDbLine
 10
-45.10099381441757
 20
1.979999542237098
 30
0.0
 11
-46.14199608797758
 21
2.068000793458097
 31
0.0
  0
LINE
  5
8CA8
330
1F
100
AcDbEntity
  8
AM_0
100
AcDbLine
 10
-45.87299508089659
 20
-0.3149986267079022
 30
0.0
 11
-44.73699540133157
 21
3.060997009278087
 31
0.0
  0
LINE
  5
8CA9
330
1F
100
AcDbEntity
  8
AM_0
100
AcDbLine
 10
-45.12598961825058
 20
1.037002563477106
 30
0.0
 11
-44.55698937410955
 21
3.288002014161085
 31
0.0
  0
LINE
  5
8CAA
330
1F
100
AcDbEntity
  8
AM_0
100
AcDbLine
 10
-44.97299927706357
 20
2.660003662110089
 30
0.0
 11
-44.87399643892957
 21
2.652000427247079
 31
0.0
  0
LINE
  5
8CAB
330
1F
100
AcDbEntity
  8
AM_0
100
AcDbLine
 10
-44.97299546236656
 20
2.659999847413108
 30
0.0
 11
-44.76899308199558
 21
3.472999572754096
 31
0.0
  0
LINE
  5
8CAC
330
1F
100
AcDbEntity
  8
AM_0
100
AcDbLine
 10
-44.71399086947156
 20
3.096996307374089
 30
0.0
 11
-44.56099099154157
 21
3.282997131348087
 31
0.0
  0
LINE
  5
8CAD
330
1F
100
AcDbEntity
  8
AM_0
100
AcDbLine
 10
-44.73699540133157
 20
3.060997009278087
 30
0.0
 11
-44.71399277681958
 21
3.096996307374089
 31
0.0
  0
LINE
  5
8CAE
330
1F
100
AcDbEntity
  8
AM_0
100
AcDbLine
 10
-44.56099099154157
 20
3.283000946045084
 30
0.0
 11
-44.55699318880757
 21
3.288002014161085
 31
0.0
  0
LINE
  5
8CAF
330
1F
100
AcDbEntity
  8
AM_0
100
AcDbLine
 10
-44.50499505037956
 20
3.312000274659089
 30
0.0
 11
-44.28799790377257
 21
3.458999633790078
 31
0.0
  0
LINE
  5
8CB0
330
1F
100
AcDbEntity
  8
AM_0
100
AcDbLine
 10
-44.37899369234758
 20
3.335002899170084
 30
0.0
 11
-44.18499154085758
 21
3.477001190186078
 31
0.0
  0
LINE
  5
8CB1
330
1F
100
AcDbEntity
  8
AM_0
100
AcDbLine
 10
-43.71799630160055
 20
3.36299896240309
 30
0.0
 11
-43.72199410433457
 21
3.34199523925809
 31
0.0
  0
LINE
  5
8CB2
330
1F
100
AcDbEntity
  8
AM_0
100
AcDbLine
 10
-44.08199852938357
 20
3.351001739502088
 30
0.0
 11
-43.96499413485257
 21
3.487003326417089
 31
0.0
  0
LINE
  5
8CB3
330
1F
100
AcDbEntity
  8
AM_0
100
AcDbLine
 10
-43.74699753756257
 20
3.343997955323083
 30
0.0
 11
-43.72199219698557
 21
3.341999053956095
 31
0.0
  0
LINE
  5
8CB4
330
1F
100
AcDbEntity
  8
AM_0
100
AcDbLine
 10
-43.74700135225956
 20
3.344001770020092
 30
0.0
 11
-44.29399842257159
 21
1.179004669190084
 31
0.0
  0
ARC
  5
8CB5
330
1F
100
AcDbEntity
  8
AM_0
100
AcDbCircle
 10
-45.10799759859756
 20
0.9739990234381011
 30
0.0
 40
1.505321264266999
100
AcDbArc
 50
133.3849458770002
 51
148.075412366508
  0
LINE
  5
8CB6
330
1F
100
AcDbEntity
  8
AM_0
100
AcDbLine
 10
-46.33899277681957
 20
1.626998901368097
 30
0.0
 11
-46.36699265474958
 21
1.516998291016094
 31
0.0
  0
LINE
  5
8CB7
330
1F
100
AcDbEntity
  8
AM_0
100
AcDbLine
 10
-45.53299492830958
 20
0.694999694825103
 30
0.0
 11
-46.60099381441757
 21
0.785999298096101
 31
0.0
  0
LINE
  5
8CB8
330
1F
100
AcDbEntity
  8
AM_0
100
AcDbLine
 10
-45.87299889559457
 20
-0.3149986267079022
 30
0.0
 11
-45.98299950594561
 21
-0.6850013732909002
 31
0.0
  0
LINE
  5
8CB9
330
1F
100
AcDbEntity
  8
AM_0
100
AcDbLine
 10
-45.7779938601936
 20
-0.8199996948239038
 30
0.0
 11
-45.62699288363161
 21
-0.8380012512199044
 31
0.0
  0
LINE
  5
8CBA
330
1F
100
AcDbEntity
  8
AM_0
100
AcDbLine
 10
-45.62599343294759
 20
-0.8380012512199044
 30
0.0
 11
-45.77799958223961
 21
-0.8199996948239038
 31
0.0
  0
LINE
  5
8CBB
330
1F
100
AcDbEntity
  8
AM_0
100
AcDbLine
 10
-54.99999588961255
 20
-14.65000152587792
 30
0.0
 11
-33.95999497408555
 21
-14.65000152587789
 31
0.0
  0
LINE
  5
8CBC
330
1F
100
AcDbEntity
  8
AM_0
100
AcDbLine
 10
-45.38199967379255
 20
-11.86899948120089
 30
0.0
 11
-40.94499558443756
 21
-6.29399871826089
 31
0.0
  0
LINE
  5
8CBD
330
1F
100
AcDbEntity
  8
AM_0
100
AcDbLine
 10
-18.62898987764956
 20
-9.541000366209873
 30
0.0
 11
-26.12199372286458
 21
-9.298999786375867
 31
0.0
  0
LINE
  5
8CBE
330
1F
100
AcDbEntity
  8
AM_0
100
AcDbLine
 10
-26.11399048800158
 20
-9.034000396727872
 30
0.0
 11
-18.62499588961256
 21
-9.276000976561862
 31
0.0
  0
LINE
  5
8CBF
330
1F
100
AcDbEntity
  8
AM_0
100
AcDbLine
 10
-18.72599381441753
 20
-14.37799835204985
 30
0.0
 11
-19.14499253267956
 21
-12.42000198364185
 31
0.0
  0
LINE
  5
8CC0
330
1F
100
AcDbEntity
  8
AM_0
100
AcDbLine
 10
-18.21899765963254
 20
-12.51600265502885
 30
0.0
 11
-18.16099900240555
 21
-12.89699554443287
 31
0.0
  0
LINE
  5
8CC1
330
1F
100
AcDbEntity
  8
AM_0
100
AcDbLine
 10
-18.16100281710356
 20
-12.89700317382785
 30
0.0
 11
-17.94199723238656
 21
-12.82400512695285
 31
0.0
  0
LINE
  5
8CC2
330
1F
100
AcDbEntity
  8
AM_0
100
AcDbLine
 10
-11.99800080294255
 20
-11.11199951171785
 30
0.0
 11
-14.99392670626357
 21
-10.92424011230386
 31
0.0
  0
LINE
  5
8CC3
330
1F
100
AcDbEntity
  8
AM_0
100
AcDbLine
 10
-12.07599610323555
 20
-9.496997833250857
 30
0.0
 11
-11.99799698824554
 21
-11.11200332641585
 31
0.0
  0
LINE
  5
8CC4
330
1F
100
AcDbEntity
  8
AM_0
100
AcDbLine
 10
-20.79799622530656
 20
-6.03600311279188
 30
0.0
 11
-23.79733246798158
 21
-5.820652008055875
 31
0.0
  0
LINE
  5
8CC5
330
1F
100
AcDbEntity
  8
AM_0
100
AcDbLine
 10
-23.56399888033556
 20
-1.770000457762876
 30
0.0
 11
-23.58599442476954
 21
-2.074001312254879
 31
0.0
  0
LINE
  5
8CC6
330
1F
100
AcDbEntity
  8
AM_0
100
AcDbLine
 10
-20.87599915499358
 20
-4.89099884033188
 30
0.0
 11
-20.79799241060859
 21
-6.035999298094885
 31
0.0
  0
LINE
  5
8CC7
330
1F
100
AcDbEntity
  8
AM_0
100
AcDbLine
 10
-17.76399964327456
 20
-10.88799667358286
 30
0.0
 11
-17.80599946016954
 21
-10.44300079345686
 31
0.0
  0
LINE
  5
8CC8
330
1F
100
AcDbEntity
  8
AM_0
100
AcDbLine
 10
-18.04999894137055
 20
-9.083999633788863
 30
0.0
 11
-17.82699936861656
 21
-10.18199920654186
 31
0.0
  0
LINE
  5
8CC9
330
1F
100
AcDbEntity
  8
AM_0
100
AcDbLine
 10
-17.57598847384155
 20
-12.87799835204985
 30
0.0
 11
-17.62399262423155
 21
-12.37000274658186
 31
0.0
  0
LINE
  5
8CCA
330
1F
100
AcDbEntity
  8
AM_0
100
AcDbLine
 10
-17.30099839205457
 20
-11.05399703979385
 30
0.0
 11
-17.25599259371454
 21
-11.27999877929585
 31
0.0
  0
LINE
  5
8CCB
330
1F
100
AcDbEntity
  8
AM_0
100
AcDbLine
 10
-17.74499863619457
 20
-10.74299621581987
 30
0.0
 11
-17.98199814791357
 21
-9.576995849608863
 31
0.0
  0
LINE
  5
8CCC
330
1F
100
AcDbEntity
  8
AM_0
100
AcDbLine
 10
-17.94199723238656
 20
-12.82399749755786
 30
0.0
 11
-17.98599595064754
 21
-12.53300094604385
 31
0.0
  0
LINE
  5
8CCD
330
1F
100
AcDbEntity
  8
AM_0
100
AcDbLine
 10
-17.68099564547255
 20
-11.38499832153286
 30
0.0
 11
-17.59999436373356
 21
-12.24999999999987
 31
0.0
  0
LINE
  5
8CCE
330
1F
100
AcDbEntity
  8
AM_0
100
AcDbLine
 10
-17.68099183077455
 20
-11.38500213622984
 30
0.0
 11
-18.06599396700557
 21
-9.069999694823863
 31
0.0
  0
LINE
  5
8CCF
330
1F
100
AcDbEntity
  8
AM_0
100
AcDbLine
 10
-18.43499344820657
 20
-8.874999999999873
 30
0.0
 11
-18.41599625582356
 21
-9.145999908446851
 31
0.0
  0
LINE
  5
8CD0
330
1F
100
AcDbEntity
  8
AM_0
100
AcDbLine
 10
-18.20999878878257
 20
-9.292999267577853
 30
0.0
 11
-18.23200196261055
 21
-8.958999633788863
 31
0.0
  0
LINE
  5
8CD1
330
1F
100
AcDbEntity
  8
AM_0
100
AcDbLine
 10
-17.81399506563857
 20
-12.52099990844685
 30
0.0
 11
-17.96498841280653
 21
-12.53499984741186
 31
0.0
  0
LINE
  5
8CD2
330
1F
100
AcDbEntity
  8
AM_0
100
AcDbLine
 10
-18.20799225802156
 20
-9.31799697875887
 30
0.0
 11
-17.59999054903655
 21
-12.24999999999987
 31
0.0
  0
LINE
  5
8CD3
330
1F
100
AcDbEntity
  8
AM_0
100
AcDbLine
 10
-17.96599930758156
 20
-12.53499984741186
 30
0.0
 11
-17.96499222750355
 21
-12.53499984741186
 31
0.0
  0
LINE
  5
8CD4
330
1F
100
AcDbEntity
  8
AM_0
100
AcDbLine
 10
-17.96499222750355
 20
-12.53499984741186
 30
0.0
 11
-18.58499497408556
 21
-9.544998168944871
 31
0.0
  0
LINE
  5
8CD5
330
1F
100
AcDbEntity
  8
AM_0
100
AcDbLine
 10
-18.20899552340157
 20
-9.366001129149863
 30
0.0
 11
-18.20799607271857
 21
-9.31800079345686
 31
0.0
  0
LINE
  5
8CD6
330
1F
100
AcDbEntity
  8
AM_0
100
AcDbLine
 10
-18.20799607271857
 20
-9.31800079345686
 30
0.0
 11
-18.20999497408556
 21
-9.292999267577853
 31
0.0
  0
LINE
  5
8CD7
330
1F
100
AcDbEntity
  8
AM_0
100
AcDbLine
 10
-18.20999497408556
 20
-9.293003082274863
 30
0.0
 11
-18.41599625582356
 21
-9.145999908446851
 31
0.0
  0
LINE
  5
8CD8
330
1F
100
AcDbEntity
  8
AM_0
100
AcDbLine
 10
-18.20899552340157
 20
-9.366001129149863
 30
0.0
 11
-18.41999024386055
 21
-9.177005767821851
 31
0.0
  0
LINE
  5
8CD9
330
1F
100
AcDbEntity
  8
AM_0
100
AcDbLine
 10
-18.23499649996455
 20
-9.433998107909856
 30
0.0
 11
-18.43599671358757
 21
-9.207996368407862
 31
0.0
  0
LINE
  5
8CDA
330
1F
100
AcDbEntity
  8
AM_0
100
AcDbLine
 10
-18.62899369234756
 20
-9.541004180907863
 30
0.0
 11
-18.58499497408556
 21
-9.545001983641855
 31
0.0
  0
LINE
  5
8CDB
330
1F
100
AcDbEntity
  8
AM_0
100
AcDbLine
 10
-18.39900177950557
 20
-9.537002563475866
 30
0.0
 11
-18.51000184054056
 21
-9.259002685545869
 31
0.0
  0
LINE
  5
8CDC
330
1F
100
AcDbEntity
  8
AM_0
100
AcDbLine
 10
-18.62899369234756
 20
-9.541000366209873
 30
0.0
 11
-18.62499588961256
 21
-9.276000976561862
 31
0.0
  0
LINE
  5
8CDD
330
1F
100
AcDbEntity
  8
AM_0
100
AcDbLine
 10
-9.828994455286554
 20
-13.52299880981385
 30
0.0
 11
-17.32199448580453
 21
-13.56999969482386
 31
0.0
  0
LINE
  5
8CDE
330
1F
100
AcDbEntity
  8
AM_0
100
AcDbLine
 10
-17.31399888033555
 20
-13.30799865722586
 30
0.0
 11
-9.824996652552551
 21
-13.26099777221585
 31
0.0
  0
LINE
  5
8CE1
330
1F
100
AcDbEntity
  8
AM_0
100
AcDbLine
 10
-8.775993051478527
 20
-14.62299728393486
 30
0.0
 11
-8.832992258021555
 21
-13.96399688720685
 31
0.0
  0
LINE
  5
8CE2
330
1F
100
AcDbEntity
  8
AM_0
100
AcDbLine
 10
-8.46199769014955
 20
-14.12900161743085
 30
0.0
 11
-8.456000986048556
 21
-14.17399978637585
 31
0.0
  0
LINE
  5
8CE3
330
1F
100
AcDbEntity
  8
AM_0
100
AcDbLine
 10
-9.026992502161554
 20
-13.68000411987284
 30
0.0
 11
-9.101997079798559
 21
-13.16199874877884
 31
0.0
  0
LINE
  5
8CE4
330
1F
100
AcDbEntity
  8
AM_0
100
AcDbLine
 10
-8.546996774622543
 20
-15.29899978637585
 30
0.0
 11
-9.093993844935585
 21
-15.77399826049784
 31
0.0
  0
LINE
  5
8CE5
330
1F
100
AcDbEntity
  8
AM_0
100
AcDbLine
 10
-8.513992013880528
 20
-15.08900070190385
 30
0.0
 11
-8.513992013880528
 21
-15.09000015258685
 31
0.0
  0
LINE
  5
8CE6
330
1F
100
AcDbEntity
  8
AM_0
100
AcDbLine
 10
-8.546996774622543
 20
-15.29899978637585
 30
0.0
 11
-8.521995248743523
 21
-15.29699707031185
 31
0.0
  0
LINE
  5
8CE7
330
1F
100
AcDbEntity
  8
AM_0
100
AcDbLine
 10
-8.76499909395854
 20
-15.04800033569286
 30
0.0
 11
-8.809997262903539
 21
-15.02899932861286
 31
0.0
  0
LINE
  5
8CE8
330
1F
100
AcDbEntity
  8
AM_0
100
AcDbLine
 10
-8.801994028040541
 20
-15.10900497436486
 30
0.0
 11
-8.76499909395854
 21
-15.04800033569286
 31
0.0
  0
LINE
  5
8CE9
330
1F
100
AcDbEntity
  8
AM_0
100
AcDbLine
 10
-8.517997446009548
 20
-15.26399993896386
 30
0.0
 11
-8.521995248743523
 21
-15.29700088500886
 31
0.0
  0
LINE
  5
8CEA
330
1F
100
AcDbEntity
  8
AM_0
100
AcDbLine
 10
-8.893996896692518
 20
-13.95399856567286
 30
0.0
 11
-8.880996408411554
 21
-14.03100204467686
 31
0.0
  0
LINE
  5
8CEB
330
1F
100
AcDbEntity
  8
AM_0
100
AcDbLine
 10
-8.880996408411554
 20
-14.03100204467686
 30
0.0
 11
-8.799995126673552
 21
-15.13000488281186
 31
0.0
  0
LINE
  5
8CEC
330
1F
100
AcDbEntity
  8
AM_0
100
AcDbLine
 10
-8.880996408411554
 20
-14.03099822997985
 30
0.0
 11
-8.895995798060559
 21
-13.95399856567286
 31
0.0
  0
LINE
  5
8CED
330
1F
100
AcDbEntity
  8
AM_0
100
AcDbLine
 10
-9.013999643274576
 20
-15.48800277709884
 30
0.0
 11
-9.164992990442545
 21
-15.51499938964784
 31
0.0
  0
LINE
  5
8CEE
330
1F
100
AcDbEntity
  8
AM_0
100
AcDbLine
 10
-9.407996835657536
 20
-13.17600250244083
 30
0.0
 11
-8.799995126673552
 21
-15.12999725341686
 31
0.0
  0
LINE
  5
8CEF
330
1F
100
AcDbEntity
  8
AM_0
100
AcDbLine
 10
-9.165000619837559
 20
-15.51500320434485
 30
0.0
 11
-9.784995737024551
 21
-13.52399826049784
 31
0.0
  0
LINE
  5
8CF0
330
1F
100
AcDbEntity
  8
AM_0
100
AcDbLine
 10
-9.620994272181544
 20
-12.97200012206985
 30
0.0
 11
-9.615997018763573
 21
-13.06700134277283
 31
0.0
  0
LINE
  5
8CF1
330
1F
100
AcDbEntity
  8
AM_0
100
AcDbLine
 10
-9.409995737024553
 20
-13.14300155639584
 30
0.0
 11
-9.414992990442552
 21
-13.02299880981385
 31
0.0
  0
LINE
  5
8CF2
330
1F
100
AcDbEntity
  8
AM_0
100
AcDbLine
 10
-9.408996286341555
 20
-13.24099731445284
 30
0.0
 11
-9.407996835657536
 21
-13.17599868774385
 31
0.0
  0
LINE
  5
8CF3
330
1F
100
AcDbEntity
  8
AM_0
100
AcDbLine
 10
-9.407996835657536
 20
-13.17599868774385
 30
0.0
 11
-9.409995737024553
 21
-13.14300155639584
 31
0.0
  0
LINE
  5
8CF4
330
1F
100
AcDbEntity
  8
AM_0
100
AcDbLine
 10
-9.409995737024553
 20
-13.14300155639584
 30
0.0
 11
-9.615997018763573
 21
-13.06700134277283
 31
0.0
  0
LINE
  5
8CF5
330
1F
100
AcDbEntity
  8
AM_0
100
AcDbLine
 10
-9.408996286341555
 20
-13.24100112914984
 30
0.0
 11
-9.619994821497552
 21
-13.11100006103484
 31
0.0
  0
LINE
  5
8CF6
330
1F
100
AcDbEntity
  8
AM_0
100
AcDbLine
 10
-9.434997262903571
 20
-13.33499908447184
 30
0.0
 11
-9.636001291224568
 21
-13.15599822997984
 31
0.0
  0
LINE
  5
8CF7
330
1F
100
AcDbEntity
  8
AM_0
100
AcDbLine
 10
-9.828998269983566
 20
-13.52299880981385
 30
0.0
 11
-9.784995737024551
 21
-13.52399826049784
 31
0.0
  0
LINE
  5
8CF8
330
1F
100
AcDbEntity
  8
AM_0
100
AcDbLine
 10
-9.598991098353558
 20
-13.49299621581985
 30
0.0
 11
-9.709991159388572
 21
-13.23199844360284
 31
0.0
  0
LINE
  5
8CF9
330
1F
100
AcDbEntity
  8
AM_0
100
AcDbLine
 10
-9.828994455286554
 20
-13.52299880981385
 30
0.0
 11
-9.824996652552551
 21
-13.26100158691384
 31
0.0
  0
LINE
  5
8CFC
330
1F
100
AcDbEntity
  8
AM_0
100
AcDbLine
 10
-17.31399888033555
 20
-13.30799865722586
 30
0.0
 11
-17.31399888033555
 21
-13.30900192260686
 31
0.0
  0
LINE
  5
8CFD
330
1F
100
AcDbEntity
  8
AM_0
100
AcDbLine
 10
-18.72599381441753
 20
-14.37799835204985
 30
0.0
 11
-18.15699357027656
 21
-12.92799758911086
 31
0.0
  0
LINE
  5
8CFE
330
1F
100
AcDbEntity
  8
AM_0
100
AcDbLine
 10
-17.34699601168355
 20
-13.56999969482386
 30
0.0
 11
-17.89399308199553
 21
-14.96599960327085
 31
0.0
  0
LINE
  5
8CFF
330
1F
100
AcDbEntity
  8
AM_0
100
AcDbLine
 10
-18.16099518770854
 20
-12.89699935912986
 30
0.0
 11
-18.15698975557955
 21
-12.92799758911086
 31
0.0
  0
LINE
  5
8D00
330
1F
100
AcDbEntity
  8
AM_0
100
AcDbLine
 10
-18.10499924654655
 20
-13.11400222778286
 30
0.0
 11
-17.88799637789454
 21
-12.98100280761686
 31
0.0
  0
LINE
  5
8D01
330
1F
100
AcDbEntity
  8
AM_0
100
AcDbLine
 10
-17.97899216646856
 20
-13.30899810790985
 30
0.0
 11
-17.78499955172256
 21
-13.11999893188387
 31
0.0
  0
LINE
  5
8D02
330
1F
100
AcDbEntity
  8
AM_0
100
AcDbLine
 10
-17.68199509615555
 20
-13.51199722289986
 30
0.0
 11
-17.56499833101954
 21
-13.26300048828086
 31
0.0
  0
LINE
  5
8D03
330
1F
100
AcDbEntity
  8
AM_0
100
AcDbLine
 10
-17.34699601168355
 20
-13.56999969482386
 30
0.0
 11
-17.32199448580453
 21
-13.56999969482386
 31
0.0
  0
LINE
  5
8D04
330
1F
100
AcDbEntity
  8
AM_0
100
AcDbLine
 10
-17.31799286837255
 20
-13.52799987792886
 30
0.0
 11
-17.32199067110652
 21
-13.56999588012584
 31
0.0
  0
LINE
  5
8D05
330
1F
100
AcDbEntity
  8
AM_0
100
AcDbLine
 10
-27.78199357027656
 20
-14.0530014038079
 30
0.0
 11
-25.28999680514055
 21
-11.53400039672786
 31
0.0
  0
LINE
  5
8D06
330
1F
100
AcDbEntity
  8
AM_0
100
AcDbLine
 10
-36.58200043673152
 20
-14.3009948730459
 30
0.0
 11
-32.14499634737658
 21
-8.749996185301894
 31
0.0
  0
LINE
  5
8D07
330
1F
100
AcDbEntity
  8
AM_0
100
AcDbLine
 10
-27.42899674410458
 20
-3.771999359129891
 30
0.0
 11
-34.92198914522859
 21
-3.286003112791896
 31
0.0
  0
LINE
  5
8D08
330
1F
100
AcDbEntity
  8
AM_0
100
AcDbLine
 10
-34.9139973544566
 20
-3.067001342772889
 30
0.0
 11
-27.42500275606758
 21
-3.552001953124898
 31
0.0
  0
LINE
  5
8D09
330
1F
100
AcDbEntity
  8
AM_0
100
AcDbLine
 10
-27.80699128145853
 20
-7.067001342772882
 30
0.0
 11
-28.37099427218155
 21
-8.108001708983893
 31
0.0
  0
LINE
  5
8D0A
330
1F
100
AcDbEntity
  8
AM_0
100
AcDbLine
 10
-27.78099411959356
 20
-7.072002410887889
 30
0.0
 11
-28.38299912447657
 21
-8.184001922606897
 31
0.0
  0
LINE
  5
8D0B
330
1F
100
AcDbEntity
  8
AM_0
100
AcDbLine
 10
-26.76499527926155
 20
-7.204998016356877
 30
0.0
 11
-27.38499802584359
 21
-3.777000427245879
 31
0.0
  0
LINE
  5
8D0C
330
1F
100
AcDbEntity
  8
AM_0
100
AcDbLine
 10
-26.91299790377256
 20
-4.200004577635876
 30
0.0
 11
-26.62699860567758
 21
-4.777000427245861
 31
0.0
  0
LINE
  5
8D0D
330
1F
100
AcDbEntity
  8
AM_0
100
AcDbLine
 10
-26.66499680514057
 20
-5.284000396727872
 30
0.0
 11
-26.68199509615558
 21
-5.486999511717864
 31
0.0
  0
LINE
  5
8D0E
330
1F
100
AcDbEntity
  8
AM_0
100
AcDbLine
 10
-26.54499405855854
 20
-5.526996612547872
 30
0.0
 11
-26.74799698824557
 21
-5.115997314452864
 31
0.0
  0
LINE
  5
8D0F
330
1F
100
AcDbEntity
  8
AM_0
100
AcDbLine
 10
-26.38099259371456
 20
-5.61400222778287
 30
0.0
 11
-26.05599564547255
 21
-6.271999359129873
 31
0.0
  0
LINE
  5
8D10
330
1F
100
AcDbEntity
  8
AM_0
100
AcDbLine
 10
-27.28599900240558
 20
-3.097000122069897
 30
0.0
 11
-27.21599930758159
 21
-3.510997772215884
 31
0.0
  0
LINE
  5
8D11
330
1F
100
AcDbEntity
  8
AM_0
100
AcDbLine
 10
-27.00999421114656
 20
-3.701995849608888
 30
0.0
 11
-27.09699219698555
 21
-3.181999206541886
 31
0.0
  0
LINE
  5
8D12
330
1F
100
AcDbEntity
  8
AM_0
100
AcDbLine
 10
-26.48099488253256
 20
-6.606002807616869
 30
0.0
 11
-26.39999360079453
 21
-7.07500076293888
 31
0.0
  0
LINE
  5
8D13
330
1F
100
AcDbEntity
  8
AM_0
100
AcDbLine
 10
-26.48100251192754
 20
-6.606002807616869
 30
0.0
 11
-27.09500092501357
 21
-3.183998107909883
 31
0.0
  0
LINE
  5
8D14
330
1F
100
AcDbEntity
  8
AM_0
100
AcDbLine
 10
-27.00799912447658
 20
-3.713001251219889
 30
0.0
 11
-26.39999741549154
 21
-7.07500076293888
 31
0.0
  0
LINE
  5
8D15
330
1F
100
AcDbEntity
  8
AM_0
100
AcDbLine
 10
-27.00900238985659
 20
-3.736000061034882
 30
0.0
 11
-27.00800293917356
 21
-3.712997436522879
 31
0.0
  0
LINE
  5
8D16
330
1F
100
AcDbEntity
  8
AM_0
100
AcDbLine
 10
-27.00799912447658
 20
-3.713001251219889
 30
0.0
 11
-27.0099980258436
 21
-3.701999664305884
 31
0.0
  0
LINE
  5
8D17
330
1F
100
AcDbEntity
  8
AM_0
100
AcDbLine
 10
-27.00999421114656
 20
-3.701999664305884
 30
0.0
 11
-27.21599549288455
 21
-3.51100158691389
 31
0.0
  0
LINE
  5
8D18
330
1F
100
AcDbEntity
  8
AM_0
100
AcDbLine
 10
-27.00899857515955
 20
-3.736003875731892
 30
0.0
 11
-27.21999329561859
 21
-3.52400588989188
 31
0.0
  0
LINE
  5
8D19
330
1F
100
AcDbEntity
  8
AM_0
100
AcDbLine
 10
-27.03499955172256
 20
-3.765998840331885
 30
0.0
 11
-27.23599213595056
 21
-3.535003662108889
 31
0.0
  0
LINE
  5
8D1A
330
1F
100
AcDbEntity
  8
AM_0
100
AcDbLine
 10
-27.42899292940759
 20
-3.771999359129891
 30
0.0
 11
-27.38499421114655
 21
-3.777000427245879
 31
0.0
  0
LINE
  5
8D1B
330
1F
100
AcDbEntity
  8
AM_0
100
AcDbLine
 10
-27.19899338717155
 20
-3.79500198364188
 30
0.0
 11
-27.30999344820659
 21
-3.552001953124898
 31
0.0
  0
LINE
  5
8D1C
330
1F
100
AcDbEntity
  8
AM_0
100
AcDbLine
 10
-27.42899674410458
 20
-3.771999359129891
 30
0.0
 11
-27.42499894137057
 21
-3.552001953124898
 31
0.0
  0
LINE
  5
8D1D
330
1F
100
AcDbEntity
  8
AM_0
100
AcDbLine
 10
-26.37599534029656
 20
-8.720001220702865
 30
0.0
 11
-26.57799881930056
 21
-7.202999114989874
 31
0.0
  0
LINE
  5
8D1E
330
1F
100
AcDbEntity
  8
AM_0
100
AcDbLine
 10
-28.27299469942757
 20
-8.770999908446881
 30
0.0
 11
-28.38299530977859
 21
-8.183998107909888
 31
0.0
  0
LINE
  5
8D1F
330
1F
100
AcDbEntity
  8
AM_0
100
AcDbLine
 10
-28.27299851412458
 20
-8.770999908446881
 30
0.0
 11
-27.13699692721057
 21
-7.985000610350893
 31
0.0
  0
LINE
  5
8D20
330
1F
100
AcDbEntity
  8
AM_0
100
AcDbLine
 10
-26.89499634737658
 20
-7.944000244139896
 30
0.0
 11
-26.94699830050156
 21
-7.185001373290885
 31
0.0
  0
LINE
  5
8D21
330
1F
100
AcDbEntity
  8
AM_0
100
AcDbLine
 10
-27.19299668306955
 20
-7.157001495360885
 30
0.0
 11
-27.13699692721057
 21
-7.985000610350893
 31
0.0
  0
LINE
  5
8D22
330
1F
100
AcDbEntity
  8
AM_0
100
AcDbLine
 10
-27.13699311251358
 20
-7.985000610350893
 30
0.0
 11
-27.11399048800159
 21
-8.068000793456887
 31
0.0
  0
LINE
  5
8D23
330
1F
100
AcDbEntity
  8
AM_0
100
AcDbLine
 10
-27.52600068087256
 20
-10.94900131225489
 30
0.0
 11
-26.95700043673156
 21
-8.813999176024889
 31
0.0
  0
LINE
  5
8D24
330
1F
100
AcDbEntity
  8
AM_0
100
AcDbLine
 10
-26.14700287813858
 20
-9.298999786375867
 30
0.0
 11
-26.69399994845057
 21
-11.35300064086887
 31
0.0
  0
LINE
  5
8D25
330
1F
100
AcDbEntity
  8
AM_0
100
AcDbLine
 10
-26.74198884005257
 20
-8.667999267577867
 30
0.0
 11
-26.89498871798157
 21
-7.944000244139896
 31
0.0
  0
LINE
  5
8D26
330
1F
100
AcDbEntity
  8
AM_0
100
AcDbLine
 10
-27.11399048800159
 20
-8.068000793456887
 30
0.0
 11
-26.89499253267958
 21
-7.944004058836877
 31
0.0
  0
LINE
  5
8D27
330
1F
100
AcDbEntity
  8
AM_0
100
AcDbLine
 10
-27.11399048800159
 20
-8.068000793456887
 30
0.0
 11
-26.96099061007155
 21
-8.791999816893889
 31
0.0
  0
LINE
  5
8D28
330
1F
100
AcDbEntity
  8
AM_0
100
AcDbLine
 10
-26.96099442476955
 20
-8.791996002196878
 30
0.0
 11
-26.74198884005257
 21
-8.667995452879877
 31
0.0
  0
LINE
  5
8D29
330
1F
100
AcDbEntity
  8
AM_0
100
AcDbLine
 10
-26.96099442476955
 20
-8.792003631590885
 30
0.0
 11
-26.95699662203456
 21
-8.813999176024889
 31
0.0
  0
LINE
  5
8D2A
330
1F
100
AcDbEntity
  8
AM_0
100
AcDbLine
 10
-26.90499466890955
 20
-8.951000213622888
 30
0.0
 11
-26.68799942965158
 21
-8.782001495360869
 31
0.0
  0
LINE
  5
8D2B
330
1F
100
AcDbEntity
  8
AM_0
100
AcDbLine
 10
-26.77899903292358
 20
-9.095996856688882
 30
0.0
 11
-26.58499497408556
 21
-8.883995056151871
 31
0.0
  0
LINE
  5
8D2C
330
1F
100
AcDbEntity
  8
AM_0
100
AcDbLine
 10
-26.48199814791358
 20
-9.24999999999988
 30
0.0
 11
-26.36499375338255
 21
-8.993000030516864
 31
0.0
  0
LINE
  5
8D2D
330
1F
100
AcDbEntity
  8
AM_0
100
AcDbLine
 10
-26.14699906344058
 20
-9.298999786375867
 30
0.0
 11
-26.12200135225956
 21
-9.299999237059873
 31
0.0
  0
LINE
  5
8D2E
330
1F
100
AcDbEntity
  8
AM_0
100
AcDbLine
 10
-26.11799592013057
 20
-9.256999969481878
 30
0.0
 11
-26.12200135225956
 21
-9.298999786375867
 31
0.0
  0
LINE
  5
8D2F
330
1F
100
AcDbEntity
  8
AM_0
100
AcDbLine
 10
-26.12199753756258
 20
-9.298999786375867
 30
0.0
 11
-26.12199753756258
 21
-9.299999237059873
 31
0.0
  0
LINE
  5
8D30
330
1F
100
AcDbEntity
  8
AM_0
100
AcDbLine
 10
-26.61399811739655
 20
-7.207000732420876
 30
0.0
 11
-26.76499909395854
 21
-7.205001831053873
 31
0.0
  0
LINE
  5
8D31
330
1F
100
AcDbEntity
  8
AM_0
100
AcDbLine
 10
-36.06399506563857
 20
-1.95700073242089
 30
0.0
 11
-37.18498963350955
 21
-4.886997222899893
 31
0.0
  0
LINE
  5
8D32
330
1F
100
AcDbEntity
  8
AM_0
100
AcDbLine
 10
-36.06399506563857
 20
-1.965999603270897
 30
0.0
 11
-37.18299073214259
 21
-4.893001556395885
 31
0.0
  0
LINE
  5
8D33
330
1F
100
AcDbEntity
  8
AM_0
100
AcDbLine
 10
-37.07299393648756
 20
-5.013000488280892
 30
0.0
 11
-35.93699234957356
 21
-2.716999053954902
 31
0.0
  0
LINE
  5
8D34
330
1F
100
AcDbEntity
  8
AM_0
100
AcDbLine
 10
-35.17600220675158
 20
-2.927997589110894
 30
0.0
 11
-35.52899903292356
 21
-1.849998474120888
 31
0.0
  0
LINE
  5
8D35
330
1F
100
AcDbEntity
  8
AM_0
100
AcDbLine
 10
-36.06399888033556
 20
-1.95700073242089
 30
0.0
 11
-36.06399888033556
 21
-1.965999603270897
 31
0.0
  0
LINE
  5
8D36
330
1F
100
AcDbEntity
  8
AM_0
100
AcDbLine
 10
-36.06299942965156
 20
-1.955001831053902
 30
0.0
 11
-36.06399888033556
 21
-1.95700073242089
 31
0.0
  0
LINE
  5
8D37
330
1F
100
AcDbEntity
  8
AM_0
100
AcDbLine
 10
-35.58299988741559
 20
-1.772998809813894
 30
0.0
 11
-35.61799210543356
 21
-1.770999908446891
 31
0.0
  0
LINE
  5
8D38
330
1F
100
AcDbEntity
  8
AM_0
100
AcDbLine
 10
-35.81299561495459
 20
-1.791999816893886
 30
0.0
 11
-36.04999512667357
 21
-1.942001342772907
 31
0.0
  0
LINE
  5
8D39
330
1F
100
AcDbEntity
  8
AM_0
100
AcDbLine
 10
-36.06299942965156
 20
-1.955001831053902
 30
0.0
 11
-35.82299393648757
 21
-1.799999237059902
 31
0.0
  0
LINE
  5
8D3A
330
1F
100
AcDbEntity
  8
AM_0
100
AcDbLine
 10
-36.06399888033556
 20
-1.965999603270897
 30
0.0
 11
-36.06199234957356
 21
-1.974002838133894
 31
0.0
  0
LINE
  5
8D3B
330
1F
100
AcDbEntity
  8
AM_0
100
AcDbLine
 10
-35.69499558443757
 20
-2.591999053954902
 30
0.0
 11
-35.82599228853857
 21
-1.812000274657899
 31
0.0
  0
LINE
  5
8D3C
330
1F
100
AcDbEntity
  8
AM_0
100
AcDbLine
 10
-36.06199234957356
 20
-1.974002838133894
 30
0.0
 11
-35.82599228853857
 21
-1.812000274657899
 31
0.0
  0
LINE
  5
8D3D
330
1F
100
AcDbEntity
  8
AM_0
100
AcDbLine
 10
-36.06198853487658
 20
-1.973999023436899
 30
0.0
 11
-35.93698853487658
 21
-2.716999053954902
 31
0.0
  0
LINE
  5
8D3E
330
1F
100
AcDbEntity
  8
AM_0
100
AcDbLine
 10
-35.93699234957356
 20
-2.716999053954902
 30
0.0
 11
-35.9139973544566
 21
-2.74199676513589
 31
0.0
  0
LINE
  5
8D3F
330
1F
100
AcDbEntity
  8
AM_0
100
AcDbLine
 10
-35.54199570650757
 20
-2.8889999389639
 30
0.0
 11
-35.69499558443757
 21
-2.591999053954902
 31
0.0
  0
LINE
  5
8D40
330
1F
100
AcDbEntity
  8
AM_0
100
AcDbLine
 10
-35.9139973544566
 20
-2.74199676513589
 30
0.0
 11
-35.69499176973958
 21
-2.591995239256898
 31
0.0
  0
LINE
  5
8D41
330
1F
100
AcDbEntity
  8
AM_0
100
AcDbLine
 10
-35.9139973544566
 20
-2.742000579832899
 30
0.0
 11
-35.76099747652656
 21
-3.039001464842892
 31
0.0
  0
LINE
  5
8D42
330
1F
100
AcDbEntity
  8
AM_0
100
AcDbLine
 10
-36.32599228853856
 20
-5.468997955321892
 30
0.0
 11
-35.75699967379259
 21
-3.048999786375896
 31
0.0
  0
LINE
  5
8D43
330
1F
100
AcDbEntity
  8
AM_0
100
AcDbLine
 10
-34.94699067110659
 20
-3.284999847411902
 30
0.0
 11
-35.49399537081356
 21
-5.612998962401897
 31
0.0
  0
LINE
  5
8D44
330
1F
100
AcDbEntity
  8
AM_0
100
AcDbLine
 10
-35.76099747652656
 20
-3.039001464842892
 30
0.0
 11
-35.54199570650757
 21
-2.888996124266891
 31
0.0
  0
LINE
  5
8D45
330
1F
100
AcDbEntity
  8
AM_0
100
AcDbLine
 10
-35.76100129122457
 20
-3.039001464842892
 30
0.0
 11
-35.75700348848958
 21
-3.048999786375896
 31
0.0
  0
LINE
  5
8D46
330
1F
100
AcDbEntity
  8
AM_0
100
AcDbLine
 10
-34.91799515719058
 20
-3.250999450682903
 30
0.0
 11
-34.92199295992558
 21
-3.286003112791896
 31
0.0
  0
LINE
  5
8D47
330
1F
100
AcDbEntity
  8
AM_0
100
AcDbLine
 10
-35.70499772066759
 20
-3.111000061034895
 30
0.0
 11
-35.48799485201559
 21
-2.937000274657897
 31
0.0
  0
LINE
  5
8D48
330
1F
100
AcDbEntity
  8
AM_0
100
AcDbLine
 10
-35.57899826998359
 20
-3.177997589110895
 30
0.0
 11
-35.3849980258436
 21
-2.982997894286904
 31
0.0
  0
LINE
  5
8D49
330
1F
100
AcDbEntity
  8
AM_0
100
AcDbLine
 10
-35.28199357027656
 20
-3.254001617430894
 30
0.0
 11
-35.16499680514058
 21
-3.037998199461889
 31
0.0
  0
LINE
  5
8D4A
330
1F
100
AcDbEntity
  8
AM_0
100
AcDbLine
 10
-34.9469944858046
 20
-3.284999847411902
 30
0.0
 11
-34.92198914522859
 21
-3.286998748778891
 31
0.0
  0
LINE
  5
8D4B
330
1F
100
AcDbEntity
  8
AM_0
100
AcDbLine
 10
-39.15200013155656
 20
-3.529998779295899
 30
0.0
 11
-38.15899247164454
 21
-3.443000793456891
 31
0.0
  0
LINE
  5
8D4C
330
1F
100
AcDbEntity
  8
AM_0
100
AcDbLine
 10
-37.18299454683956
 20
-4.893001556395885
 30
0.0
 11
-37.18499344820659
 21
-4.887001037596887
 31
0.0
  0
LINE
  5
8D4D
330
1F
100
AcDbEntity
  8
AM_0
100
AcDbLine
 10
-37.07299393648756
 20
-5.01299667358289
 30
0.0
 11
-37.18299454683956
 21
-4.892997741698891
 31
0.0
  0
LINE
  5
8D52
330
1F
100
AcDbEntity
  8
AM_0
100
AcDbLine
 10
-57.33799332613658
 20
-15.99999999999993
 30
0.0
 11
-54.99999207491554
 21
-14.64999771118091
 31
0.0
  0
ARC
  5
8D53
330
1F
100
AcDbEntity
  8
AM_0
100
AcDbCircle
 10
-137.9999920749145
 20
-13.66099929809504
 30
0.0
 40
2.0
100
AcDbArc
 50
180.0000000000002
 51
254.9910852751043
  0
ARC
  5
8D54
330
1F
100
AcDbEntity
  8
AM_0
100
AcDbCircle
 10
-137.9999920749145
 20
13.66099929809595
 30
0.0
 40
2.000236988067599
100
AcDbArc
 50
105.0089147248956
 51
180.0000000000002
  0
LINE
  5
8D56
330
1F
100
AcDbEntity
  8
AM_0
100
AcDbLine
 10
-136.9999958896116
 20
15.99999999999996
 30
0.0
 11
-136.9999958896115
 21
-16.00000000000004
 31
0.0
  0
LINE
  5
8D57
330
1F
100
AcDbEntity
  8
AM_0
100
AcDbLine
 10
-136.9999920749146
 20
16.00000190734896
 30
0.0
 11
-138.5180050754025
 21
15.59300041198796
 31
0.0
  0
LINE
  5
8D58
330
1F
100
AcDbEntity
  8
AM_0
100
AcDbLine
 10
-138.5180050754025
 20
-15.59300231933504
 30
0.0
 11
-136.9999920749145
 21
-16.00000381469701
 31
0.0
  0
LINE
  5
8D59
330
1F
100
AcDbEntity
  8
AM_0
100
AcDbLine
 10
-139.9999920749145
 20
13.66099929809594
 30
0.0
 11
-139.9999920749145
 21
-13.66099929809505
 31
0.0
  0
DIMENSION
  5
8EB6
330
1F
100
AcDbEntity
  8
AM_5
100
AcDbDimension
  2
*D2
 10
7.000000000000065
 20
-15.99999999999984
 30
0.0
 11
5.450000000000067
 21
0.0000000000001605
 31
0.0
 70
    32
  1
%%c<>
 71
     5
 42
-1.0
 51
359.9999999999998
  3
AM_JIS$0
100
AcDbAlignedDimension
 13
0.0000000000000027
 23
16.00000000000016
 33
0.0
 14
0.0000000000000639
 24
-15.99999999999983
 34
0.0
 50
270.0
100
AcDbRotatedDimension
1001
GENIUS_GENDTOL_13
1000

1000
h7
1000

1040
0.0
1001
ACAD
1000
DSTYLE
1002
{
1070
   287
1070
     3
1070
    40
1040
0.5
1070
    42
1040
1.0
1070
    43
1040
12.0
1070
    48
1040
0.1
1070
    78
1070
     8
1070
   140
1040
3.2
1070
   176
1070
   256
1070
   177
1070
   256
1070
   271
1070
     0
1070
   272
1070
     3
1070
   275
1070
     0
1070
   284
1070
     0
1070
   289
1070
     3
1070
   340
1005
6B
1070
   371
1070
    -1
1070
   372
1070
    -1
1002
}
  0
DIMENSION
  5
8F5C
330
1F
100
AcDbEntity
  8
AM_5
100
AcDbDimension
  2
*D3
 10
0.0000000000000031
 20
23.00000381469692
 30
0.0
 11
-22.00000000000031
 21
24.55000381469692
 31
0.0
 70
    32
  1
<>
 71
     5
 42
-1.0
 51
359.9999999999998
  3
AM_JIS$0
100
AcDbAlignedDimension
 13
-44.00000000000063
 23
15.97183637260776
 33
0.0
 14
0.0000000000000027
 24
16.00000000000016
 34
0.0
100
AcDbRotatedDimension
1001
GENIUS_GENDTOL_13
1000

1000
h7
1000

1040
0.0
1001
ACAD
1000
DSTYLE
1002
{
1070
   287
1070
     3
1070
    40
1040
0.5
1070
    42
1040
1.0
1070
    43
1040
12.0
1070
    48
1040
0.1
1070
    78
1070
     8
1070
   140
1040
3.2
1070
   176
1070
   256
1070
   177
1070
   256
1070
   271
1070
     0
1070
   272
1070
     3
1070
   275
1070
     0
1070
   284
1070
     0
1070
   289
1070
     3
1070
   340
1005
6B
1070
   371
1070
    -1
1070
   372
1070
    -1
1002
}
  0
DIMENSION
  5
8FF1
330
1F
100
AcDbEntity
  8
AM_5
100
AcDbDimension
  2
*D4
 10
-54.99999398226455
 20
-23.00000000000006
 30
0.0
 11
-27.49999699113224
 21
-21.45000000000011
 31
0.0
 70
    32
  1
<>
 71
     5
 42
-1.0
 51
359.9999999999998
  3
AM_JIS$0
100
AcDbAlignedDimension
 13
0.0000000000000639
 23
-15.99999999999983
 33
0.0
 14
-54.99999398226453
 24
-14.64999771118191
 34
0.0
 50
180.0
100
AcDbRotatedDimension
1001
GENIUS_GENDTOL_13
1000

1000
h7
1000

1040
0.0
1001
ACAD
1000
DSTYLE
1002
{
1070
   287
1070
     3
1070
    40
1040
0.5
1070
    42
1040
1.0
1070
    43
1040
12.0
1070
    48
1040
0.1
1070
    78
1070
     8
1070
   140
1040
3.2
1070
   176
1070
   256
1070
   177
1070
   256
1070
   271
1070
     0
1070
   272
1070
     3
1070
   275
1070
     0
1070
   284
1070
     0
1070
   289
1070
     3
1070
   340
1005
6B
1070
   371
1070
    -1
1070
   372
1070
    -1
1002
}
  0
DIMENSION
  5
9086
330
1F
100
AcDbEntity
  8
AM_5
100
AcDbDimension
  2
*D5
 10
-140.0002290629822
 20
-28.00000000000006
 30
0.0
 11
-70.00011453149108
 21
-26.45000000000018
 31
0.0
 70
    32
  1
<>
 71
     5
 42
-1.0
 51
359.9999999999998
  3
AM_JIS$0
100
AcDbAlignedDimension
 13
0.0000000000000639
 23
-15.99999999999983
 33
0.0
 14
-140.0002290629821
 24
-13.66099929809601
 34
0.0
 50
180.0
100
AcDbRotatedDimension
1001
GENIUS_GENDTOL_13
1000

1000
h7
1000

1040
0.0
1001
ACAD
1000
DSTYLE
1002
{
1070
   287
1070
     3
1070
    40
1040
0.5
1070
    42
1040
1.0
1070
    43
1040
12.0
1070
    48
1040
0.1
1070
    78
1070
     8
1070
   140
1040
3.2
1070
   176
1070
   256
1070
   177
1070
   256
1070
   271
1070
     0
1070
   272
1070
     3
1070
   275
1070
     0
1070
   284
1070
     0
1070
   289
1070
     3
1070
   340
1005
6B
1070
   371
1070
    -1
1070
   372
1070
    -1
1002
}
  0
DIMENSION
  5
911B
330
1F
100
AcDbEntity
  8
AM_5
100
AcDbDimension
  2
*D6
 10
-139.9999920749145
 20
-23.00000000000006
 30
0.0
 11
-97.49999302858956
 21
-21.45000000000013
 31
0.0
 70
    32
  1
<>
 71
     5
 42
-1.0
 51
359.9999999999998
  3
AM_JIS$0
100
AcDbAlignedDimension
 13
-54.99999398226453
 23
-14.64999771118191
 33
0.0
 14
-139.9999920749145
 24
-13.66099929809603
 34
0.0
 50
180.0
100
AcDbRotatedDimension
1001
GENIUS_GENDTOL_13
1000

1000
h7
1000

1040
0.0
1001
ACAD
1000
DSTYLE
1002
{
1070
   287
1070
     3
1070
    40
1040
0.5
1070
    42
1040
1.0
1070
    43
1040
12.0
1070
    48
1040
0.1
1070
    78
1070
     8
1070
   140
1040
3.2
1070
   176
1070
   256
1070
   177
1070
   256
1070
   271
1070
     0
1070
   272
1070
     3
1070
   275
1070
     0
1070
   284
1070
     0
1070
   289
1070
     3
1070
   340
1005
6B
1070
   371
1070
    -1
1070
   372
1070
    -1
1002
}
  0
DIMENSION
  5
91BC
330
1F
100
AcDbEntity
  8
AM_5
100
AcDbDimension
  2
*D7
 10
-147.0002290629821
 20
-16.00000000000005
 30
0.0
 11
-148.5502290629822
 21
0.0000019073484182
 31
0.0
 70
    32
  1
%%c<>
 71
     5
 42
-1.0
 51
359.9999999999998
  3
AM_JIS$0
100
AcDbAlignedDimension
 13
-136.9999920749146
 23
16.00000381469692
 33
0.0
 14
-136.9999958896116
 24
-16.00000000000005
 34
0.0
 50
90.0
100
AcDbRotatedDimension
1001
GENIUS_GENDTOL_13
1000

1000
h7
1000

1040
0.0
1001
ACAD
1000
DSTYLE
1002
{
1070
   287
1070
     3
1070
    40
1040
0.5
1070
    42
1040
1.0
1070
    43
1040
12.0
1070
    48
1040
0.1
1070
    78
1070
     8
1070
   140
1040
3.2
1070
   176
1070
   256
1070
   177
1070
   256
1070
   271
1070
     0
1070
   272
1070
     3
1070
   275
1070
     0
1070
   284
1070
     0
1070
   289
1070
     3
1070
   340
1005
6B
1070
   371
1070
    -1
1070
   372
1070
    -1
1002
}
  0
LINE
  5
9392
330
1F
100
AcDbEntity
  8
AM_11
100
AcDbLine
 10
-43.99999999999997
 20
-15.99999999999992
 30
0.0
 11
0.0000000000000639
 21
-15.99999999999983
 31
0.0
  0
LINE
  5
9396
330
1F
100
AcDbEntity
  8
AM_11
100
AcDbLine
 10
0.0000000000000027
 20
16.00000000000016
 30
0.0
 11
-43.99999999999997
 21
16.00000000000006
 31
0.0
  0
LINE
  5
939C
330
1F
100
AcDbEntity
  8
AM_11
100
AcDbLine
 10
-43.99999999999997
 20
16.00000000000006
 30
0.0
 11
-43.99999999999997
 21
-15.99999999999992
 31
0.0
  0
LINE
  5
93A1
330
1F
100
AcDbEntity
  8
AM_11
100
AcDbLine
 10
0.0000000000000027
 20
16.00000000000015
 30
0.0
 11
0.0000000000000639
 21
-15.99999999999984
 31
0.0
  0
VIEWPORT
  5
110
102
{ACAD_XDICTIONARY
360
9586
102
}
330
101
100
AcDbEntity
 67
     1
  8
0
100
AcDbViewport
 10
420.5
 20
297.0
 30
0.0
 40
948.9782706766916
 41
628.452
 68
     1
 69
     1
 12
420.5
 22
297.0
 13
0.0
 23
0.0
 14
10.0
 24
10.0
 15
10.0
 25
10.0
 16
0.0
 26
0.0
 36
1.0
 17
0.0
 27
0.0
 37
0.0
 42
50.0
 43
0.0
 44
0.0
 45
628.452
 50
0.0
 51
0.0
 72
   100
 90
    32800
  1

281
     0
 71
     1
 74
     0
110
-0.0000000000002682
120
0.000000000000161
130
0.0
111
1.0
121
0.000000000000002
131
0.0
112
-0.000000000000002
122
1.0
132
0.0
 79
     0
146
0.0
1001
GENIUS_GENSCREG_15
1000
PF
1040
1.0
1000
DF
1040
1.0
1000
MIN
1011
-53.98913533834582
1021
-17.226
1031
0.0
1000
MAX
1011
894.9891353383458
1021
611.226
1031
0.0
1000
FLAGS
1070
     4
1001
GENIUS_GENOBJ-N-SDF_13
1002
{
1000
OWNER
1000
GEN
1002
}
1001
GENIUS_GENODEF_13
1002
{
1000
HIER
1070
     0
1002
}
1002
{
1000
MANEDIT
1070
     0
1002
}
1002
{
1000
NOSEL
1070
     0
1002
}
1002
{
1000
BEHIND
1070
     0
1002
}
1002
{
1000
OTHER
1070
     0
1002
}
1002
{
1000
REACTOR
1002
}
  0
ENDSEC
  0
SECTION
  2
OBJECTS
  0
DICTIONARY
  5
C
330
0
100
AcDbDictionary
281
     1
  3
ACAD_COLOR
350
94BC
  3
ACAD_GROUP
350
D
  3
ACAD_LAYOUT
350
1A
  3
ACAD_MATERIAL
350
94BB
  3
ACAD_MLINESTYLE
350
17
  3
ACAD_PLOTSETTINGS
350
19
  3
ACAD_PLOTSTYLENAME
350
E
  3
ACAD_TABLESTYLE
350
94BD
  3
ACDBHEADERROUNDTRIPXREC
350
9585
  3
ACDBVARIABLEDICTIONARY
350
34
  3
ACMDICTIONARY
350
43
  3
AMG
350
2B
  3
AMGSNAPSETTINGS
350
6E
  3
DWGPROPS
350
9584
  0
DICTIONARY
  5
74
330
1F
100
AcDbDictionary
280
     1
281
     1
  3
ACAD_INDEX
360
944B
  3
ACAD_LAYOUTSELFREF
360
9478
  0
DICTIONARY
  5
947D
330
101
100
AcDbDictionary
280
     1
281
     1
  3
ACAD_LAYOUTSELFREF
360
947E
  0
DICTIONARY
  5
9586
330
110
100
AcDbDictionary
280
     1
281
     1
  3
ACAD_XREC_ROUNDTRIP
360
9587
  0
DICTIONARY
  5
94BC
102
{ACAD_REACTORS
330
C
102
}
330
C
100
AcDbDictionary
281
     1
  0
DICTIONARY
  5
D
102
{ACAD_REACTORS
330
C
102
}
330
C
100
AcDbDictionary
281
     1
  0
DICTIONARY
  5
1A
102
{ACAD_REACTORS
330
C
102
}
330
C
100
AcDbDictionary
281
     1
  3
Model
350
94BF
  3
レイアウト1
350
94C0
  0
DICTIONARY
  5
94BB
102
{ACAD_REACTORS
330
C
102
}
330
C
100
AcDbDictionary
281
     1
  0
DICTIONARY
  5
17
102
{ACAD_REACTORS
330
C
102
}
330
C
100
AcDbDictionary
281
     1
  3
STANDARD
350
18
  0
DICTIONARY
  5
19
102
{ACAD_REACTORS
330
C
102
}
330
C
100
AcDbDictionary
281
     1
  3
ASAMI
350
399D
  0
ACDBDICTIONARYWDFLT
  5
E
102
{ACAD_REACTORS
330
C
102
}
330
C
100
AcDbDictionary
281
     1
  3
Normal
350
F
100
AcDbDictionaryWithDefault
340
F
  0
DICTIONARY
  5
94BD
102
{ACAD_REACTORS
330
C
102
}
330
C
100
AcDbDictionary
281
     1
  3
Standard
350
94BE
  0
DICTIONARY
  5
9585
102
{ACAD_REACTORS
330
C
102
}
330
C
100
AcDbDictionary
281
     1
  0
DICTIONARY
  5
34
102
{ACAD_REACTORS
330
C
102
}
330
C
100
AcDbDictionary
281
     1
  3
CTABLESTYLE
350
9580
  3
DIMASSOC
350
9581
  3
INDEXCTL
350
35
  3
PROJECTNAME
350
9582
  3
SORTENTS
350
B5E
  0
DICTIONARY
  5
43
102
{ACAD_REACTORS
330
C
102
}
330
C
100
AcDbDictionary
281
     1
  3
ACMSTDDICTIONARY
350
260
  0
DICTIONARY
  5
2B
102
{ACAD_REACTORS
330
C
102
}
330
C
100
AcDbDictionary
281
     1
  0
DICTIONARY
  5
6E
102
{ACAD_REACTORS
330
C
102
}
330
C
100
AcDbDictionary
281
     1
  0
XRECORD
  5
9584
102
{ACAD_REACTORS
330
C
102
}
330
C
100
AcDbXrecord
280
     1
  1
DWGPROPS COOKIE
  2

  3

  4

  6

  7

  8

  9

300
AmdtFileType=82
301
=
302
=
303
=
304
=
305
=
306
=
307
=
308
=
309
=
 40
0.828141574074074
 41
2452802.716478762
 42
2453691.775370903
  1

 90
        1
  0
DICTIONARY
  5
944B
102
{ACAD_REACTORS
330
74
102
}
330
74
100
AcDbDictionary
281
     1
  3
*A1
350
944C
  0
XRECORD
  5
9478
102
{ACAD_REACTORS
330
74
102
}
330
74
100
AcDbXrecord
280
     1
340
1F
  0
XRECORD
  5
947E
102
{ACAD_REACTORS
330
947D
102
}
330
947D
100
AcDbXrecord
280
     1
340
101
  0
XRECORD
  5
9587
102
{ACAD_REACTORS
330
9586
102
}
330
9586
100
AcDbXrecord
280
     1
102
SHADEPLOT
 70
     0
  0
LAYOUT
  5
94BF
102
{ACAD_XDICTIONARY
360
958A
102
}
102
{ACAD_REACTORS
330
1A
102
}
330
1A
100
AcDbPlotSettings
  1

  2
Canon LBP-1710 LIPS4
  4

  6

 40
0.0
 41
0.0
 42
0.0
 43
0.0
 44
0.0
 45
0.0
 46
0.0
 47
0.0
 48
0.0
 49
0.0
140
0.0
141
0.0
142
1.0
143
1.0
 70
  1712
 72
     0
 73
     0
 74
     0
  7
sei_cad.ctb
 75
     0
147
1.0
148
0.0
149
0.0
100
AcDbLayout
  1
Model
 70
     1
 71
     0
 10
0.0
 20
0.0
 11
12.0
 21
9.0
 12
0.0
 22
0.0
 32
0.0
 14
0.0
 24
0.0
 34
0.0
 15
0.0
 25
0.0
 35
0.0
146
0.0
 13
0.0
 23
0.0
 33
0.0
 16
1.0
 26
0.0
 36
0.0
 17
0.0
 27
1.0
 37
0.0
 76
     0
330
1F
  0
LAYOUT
  5
94C0
102
{ACAD_XDICTIONARY
360
958C
102
}
102
{ACAD_REACTORS
330
1A
102
}
330
1A
100
AcDbPlotSettings
  1

  2
Canon LBP-1710 LIPS4
  4

  6

 40
0.0
 41
0.0
 42
0.0
 43
0.0
 44
0.0
 45
0.0
 46
0.0
 47
0.0
 48
0.0
 49
0.0
140
0.0
141
0.0
142
1.0
143
1.0
 70
   688
 72
     0
 73
     0
 74
     5
  7
sei_cad.ctb
 75
    16
147
1.0
148
0.0
149
0.0
100
AcDbLayout
  1
レイアウト1
 70
     0
 71
     1
 10
0.0
 20
0.0
 11
841.0
 21
594.0
 12
0.0
 22
0.0
 32
0.0
 14
1.000000000000000E+20
 24
1.000000000000000E+20
 34
1.000000000000000E+20
 15
-1.000000000000000E+20
 25
-1.000000000000000E+20
 35
-1.000000000000000E+20
146
0.0
 13
0.0
 23
0.0
 33
0.0
 16
1.0
 26
0.0
 36
0.0
 17
0.0
 27
1.0
 37
0.0
 76
     0
330
101
331
110
  0
MLINESTYLE
  5
18
102
{ACAD_REACTORS
330
17
102
}
330
17
100
AcDbMlineStyle
  2
STANDARD
 70
     0
  3

 62
   256
 51
90.0
 52
90.0
 71
     2
 49
0.5
 62
   256
  6
BYLAYER
 49
-0.5
 62
   256
  6
BYLAYER
  0
PLOTSETTINGS
  5
399D
102
{ACAD_XDICTIONARY
360
9588
102
}
102
{ACAD_REACTORS
330
19
102
}
330
19
100
AcDbPlotSettings
  1
asami
  2
RICOH imagio MF1540
  4
A4
  6

 40
5.831416606903076
 41
7.651742935180664
 42
4.90008544921875
 43
5.789077758789062
 44
296.9683227539062
 45
209.9733276367186
 46
0.0
 47
0.0
 48
-156.6707931774246
 49
-74.57609991074048
140
58.59973180214831
141
60.61068161925597
142
1.0
143
1.095343097833084
 70
  1712
 72
     1
 73
     1
 74
     4
  7
asami.ctb
 75
     0
147
0.9129559514076438
148
156.6707931774246
149
74.57609991074048
  0
ACDBPLACEHOLDER
  5
F
102
{ACAD_REACTORS
330
E
102
}
330
E
  0
TABLESTYLE
  5
94BE
102
{ACAD_REACTORS
330
94BD
102
}
330
94BD
100
AcDbTableStyle
  3
Standard
 70
     0
 71
     0
 40
1.5
 41
1.5
280
     0
281
     0
  7
STANDARD
140
4.5
170
     2
 62
     0
 63
     7
283
     0
274
    -2
284
     1
 64
     0
275
    -2
285
     1
 65
     0
276
    -2
286
     1
 66
     0
277
    -2
287
     1
 67
     0
278
    -2
288
     1
 68
     0
279
    -2
289
     1
 69
     0
  7
STANDARD
140
6.0
170
     5
 62
     0
 63
     7
283
     0
274
    -2
284
     1
 64
     0
275
    -2
285
     1
 65
     0
276
    -2
286
     1
 66
     0
277
    -2
287
     1
 67
     0
278
    -2
288
     1
 68
     0
279
    -2
289
     1
 69
     0
  7
STANDARD
140
4.5
170
     5
 62
     0
 63
     7
283
     0
274
    -2
284
     1
 64
     0
275
    -2
285
     1
 65
     0
276
    -2
286
     1
 66
     0
277
    -2
287
     1
 67
     0
278
    -2
288
     1
 68
     0
279
    -2
289
     1
 69
     0
  0
DICTIONARYVAR
  5
9580
102
{ACAD_REACTORS
330
34
102
}
330
34
100
DictionaryVariables
280
     0
  1
STANDARD
  0
DICTIONARYVAR
  5
9581
102
{ACAD_REACTORS
330
34
102
}
330
34
100
DictionaryVariables
280
     0
  1
1
  0
DICTIONARYVAR
  5
35
102
{ACAD_REACTORS
330
34
102
}
330
34
100
DictionaryVariables
280
     0
  1
1
  0
DICTIONARYVAR
  5
9582
102
{ACAD_REACTORS
330
34
102
}
330
34
100
DictionaryVariables
280
     0
  1

  0
DICTIONARYVAR
  5
B5E
102
{ACAD_REACTORS
330
34
102
}
330
34
100
DictionaryVariables
280
     0
  1
96
  0
DICTIONARY
  5
260
102
{ACAD_REACTORS
330
43
102
}
330
43
100
AcDbDictionary
281
     1
  0
LAYER_INDEX
  5
944C
102
{ACAD_REACTORS
330
944B
102
}
330
944B
100
AcDbIndex
 40
2453691.775370903
100
AcDbLayerIndex
  8
0
360
944D
 90
        0
  8
AM_0
360
944E
 90
      495
  8
AM_5
360
944F
 90
        6
  8
AM_7
360
9450
 90
        1
  8
AM_6
360
9451
 90
        1
  8
DEFPOINTS
360
9452
 90
        0
  8
AM_11
360
9453
 90
        4
  0
DICTIONARY
  5
958A
330
94BF
100
AcDbDictionary
280
     1
281
     1
  3
ACAD_XREC_ROUNDTRIP
360
958B
  0
DICTIONARY
  5
958C
330
94C0
100
AcDbDictionary
280
     1
281
     1
  3
ACAD_XREC_ROUNDTRIP
360
958D
  0
DICTIONARY
  5
9588
330
399D
100
AcDbDictionary
280
     1
281
     1
  3
ACAD_XREC_ROUNDTRIP
360
9589
  0
IDBUFFER
  5
944D
330
0
100
AcDbIdBuffer
  0
IDBUFFER
  5
944E
330
0
100
AcDbIdBuffer
330
897E
330
897F
330
898B
330
898C
330
8995
330
8996
330
89E9
330
89EA
330
89EB
330
89EC
330
89ED
330
89EE
330
89EF
330
89F0
330
89F1
330
89F2
330
89F3
330
89F4
330
89F5
330
89F6
330
89F7
330
89F8
330
89F9
330
89FA
330
89FB
330
89FC
330
89FD
330
89FE
330
89FF
330
8A00
330
8A01
330
8A02
330
8A03
330
8A04
330
8A05
330
8A06
330
8A07
330
8A08
330
8A09
330
8A0A
330
8A0B
330
8A0C
330
8A0D
330
8A0E
330
8A0F
330
8A10
330
8A11
330
8A12
330
8A13
330
8A14
330
8A15
330
8A16
330
8A17
330
8A18
330
8A19
330
8A1A
330
8A1B
330
8A1C
330
8A1D
330
8A1E
330
8A1F
330
8A20
330
8A21
330
8A22
330
8A23
330
8A24
330
8A25
330
8A26
330
8A27
330
8A28
330
8A29
330
8A2A
330
8A2B
330
8A2C
330
8A2D
330
8A2E
330
8A2F
330
8A30
330
8A31
330
8A32
330
8A33
330
8A34
330
8A35
330
8A36
330
8A37
330
8A38
330
8A39
330
8A3A
330
8A3B
330
8A3C
330
8A3D
330
8A3E
330
8A3F
330
8A40
330
8A41
330
8A42
330
8A43
330
8A44
330
8A45
330
8A46
330
8A47
330
8A48
330
8A49
330
8A4A
330
8A4B
330
8A4C
330
8A4D
330
8A4E
330
8A4F
330
8A50
330
8A51
330
8A52
330
8A53
330
8A54
330
8A55
330
8A56
330
8A57
330
8A58
330
8A59
330
8A5A
330
8A5B
330
8A5C
330
8A5D
330
8A5E
330
8A5F
330
8A60
330
8A61
330
8A62
330
8A63
330
8A64
330
8A65
330
8A66
330
8A67
330
8A68
330
8A69
330
8A6A
330
8A6B
330
8A6C
330
8A6D
330
8A6E
330
8A6F
330
8A70
330
8A71
330
8A72
330
8A73
330
8A74
330
8A75
330
8A76
330
8A77
330
8A78
330
8A79
330
8A7A
330
8A7B
330
8A7C
330
8A7D
330
8A7E
330
8A7F
330
8A80
330
8A81
330
8A82
330
8A83
330
8A84
330
8A85
330
8A86
330
8A87
330
8A88
330
8A89
330
8A8A
330
8A8B
330
8A8C
330
8A8D
330
8A8E
330
8A8F
330
8A90
330
8A91
330
8A92
330
8A93
330
8A94
330
8A95
330
8A96
330
8A97
330
8A98
330
8A99
330
8A9A
330
8A9B
330
8A9C
330
8A9D
330
8A9E
330
8A9F
330
8AA0
330
8AA1
330
8AA2
330
8AA3
330
8AA4
330
8AA5
330
8AA6
330
8AA7
330
8AA8
330
8AA9
330
8AAA
330
8AAB
330
8AAC
330
8AAD
330
8AAE
330
8AAF
330
8AB0
330
8AB1
330
8AB2
330
8AB3
330
8AB4
330
8AB5
330
8AB6
330
8AB7
330
8AB8
330
8AB9
330
8ABA
330
8ABB
330
8ABC
330
8ABD
330
8ABE
330
8ABF
330
8AC0
330
8AC1
330
8AC2
330
8AC3
330
8AC4
330
8AC5
330
8B6B
330
8B6C
330
8B6D
330
8B6E
330
8B75
330
8B76
330
8BCE
330
8BCF
330
8BD0
330
8BD1
330
8BD2
330
8BD3
330
8BD4
330
8BD5
330
8BD6
330
8C48
330
8C49
330
8C4A
330
8C4B
330
8C4C
330
8C4D
330
8C4E
330
8C4F
330
8C50
330
8C51
330
8C52
330
8C53
330
8C54
330
8C55
330
8C56
330
8C57
330
8C58
330
8C59
330
8C5A
330
8C5B
330
8C5C
330
8C5D
330
8C5E
330
8C5F
330
8C60
330
8C61
330
8C62
330
8C63
330
8C64
330
8C65
330
8C66
330
8C67
330
8C68
330
8C69
330
8C6A
330
8C6B
330
8C6C
330
8C6D
330
8C6E
330
8C6F
330
8C70
330
8C71
330
8C72
330
8C73
330
8C78
330
8C79
330
8C7E
330
8C7F
330
8C80
330
8C81
330
8C82
330
8C83
330
8C84
330
8C85
330
8C86
330
8C87
330
8C88
330
8C89
330
8C8A
330
8C8F
330
8C90
330
8C91
330
8C92
330
8C93
330
8C94
330
8C95
330
8C96
330
8C97
330
8C98
330
8C99
330
8C9A
330
8C9B
330
8C9C
330
8C9D
330
8C9E
330
8C9F
330
8CA0
330
8CA1
330
8CA2
330
8CA3
330
8CA4
330
8CA5
330
8CA6
330
8CA7
330
8CA8
330
8CA9
330
8CAA
330
8CAB
330
8CAC
330
8CAD
330
8CAE
330
8CAF
330
8CB0
330
8CB1
330
8CB2
330
8CB3
330
8CB4
330
8CB5
330
8CB6
330
8CB7
330
8CB8
330
8CB9
330
8CBA
330
8CBB
330
8CBC
330
8CBD
330
8CBE
330
8CBF
330
8CC0
330
8CC1
330
8CC2
330
8CC3
330
8CC4
330
8CC5
330
8CC6
330
8CC7
330
8CC8
330
8CC9
330
8CCA
330
8CCB
330
8CCC
330
8CCD
330
8CCE
330
8CCF
330
8CD0
330
8CD1
330
8CD2
330
8CD3
330
8CD4
330
8CD5
330
8CD6
330
8CD7
330
8CD8
330
8CD9
330
8CDA
330
8CDB
330
8CDC
330
8CDD
330
8CDE
330
8CE1
330
8CE2
330
8CE3
330
8CE4
330
8CE5
330
8CE6
330
8CE7
330
8CE8
330
8CE9
330
8CEA
330
8CEB
330
8CEC
330
8CED
330
8CEE
330
8CEF
330
8CF0
330
8CF1
330
8CF2
330
8CF3
330
8CF4
330
8CF5
330
8CF6
330
8CF7
330
8CF8
330
8CF9
330
8CFC
330
8CFD
330
8CFE
330
8CFF
330
8D00
330
8D01
330
8D02
330
8D03
330
8D04
330
8D05
330
8D06
330
8D07
330
8D08
330
8D09
330
8D0A
330
8D0B
330
8D0C
330
8D0D
330
8D0E
330
8D0F
330
8D10
330
8D11
330
8D12
330
8D13
330
8D14
330
8D15
330
8D16
330
8D17
330
8D18
330
8D19
330
8D1A
330
8D1B
330
8D1C
330
8D1D
330
8D1E
330
8D1F
330
8D20
330
8D21
330
8D22
330
8D23
330
8D24
330
8D25
330
8D26
330
8D27
330
8D28
330
8D29
330
8D2A
330
8D2B
330
8D2C
330
8D2D
330
8D2E
330
8D2F
330
8D30
330
8D31
330
8D32
330
8D33
330
8D34
330
8D35
330
8D36
330
8D37
330
8D38
330
8D39
330
8D3A
330
8D3B
330
8D3C
330
8D3D
330
8D3E
330
8D3F
330
8D40
330
8D41
330
8D42
330
8D43
330
8D44
330
8D45
330
8D46
330
8D47
330
8D48
330
8D49
330
8D4A
330
8D4B
330
8D4C
330
8D4D
330
8D52
330
8D53
330
8D54
330
8D56
330
8D57
330
8D58
330
8D59
  0
IDBUFFER
  5
944F
330
0
100
AcDbIdBuffer
330
8EB6
330
8F5C
330
8FF1
330
9086
330
911B
330
91BC
  0
IDBUFFER
  5
9450
330
0
100
AcDbIdBuffer
330
897D
  0
IDBUFFER
  5
9451
330
0
100
AcDbIdBuffer
330
388D
  0
IDBUFFER
  5
9452
330
0
100
AcDbIdBuffer
  0
IDBUFFER
  5
9453
330
0
100
AcDbIdBuffer
330
9392
330
9396
330
939C
330
93A1
  0
XRECORD
  5
958B
102
{ACAD_REACTORS
330
958A
102
}
330
958A
100
AcDbXrecord
280
     1
102
SHADEPLOT
 70
     0
102
SHADEPLOTRESLEVEL
 70
     2
102
SHADEPLOTCUSTOMDPI
 70
   300
  0
XRECORD
  5
958D
102
{ACAD_REACTORS
330
958C
102
}
330
958C
100
AcDbXrecord
280
     1
102
SHADEPLOT
 70
     0
102
SHADEPLOTRESLEVEL
 70
     2
102
SHADEPLOTCUSTOMDPI
 70
   300
  0
XRECORD
  5
9589
102
{ACAD_REACTORS
330
9588
102
}
330
9588
100
AcDbXrecord
280
     1
102
SHADEPLOT
 70
     0
102
SHADEPLOTRESLEVEL
 70
     2
102
SHADEPLOTCUSTOMDPI
 70
   300
  0
ENDSEC
  0
EOF
