  0
SECTION
  2
HEADER
  9
$ACADVER
  1
AC1015
  9
$ACADMAINTVER
 70
    20
  9
$DWGCODEPAGE
  3
ANSI_932
  9
$INSBASE
 10
0.0
 20
0.0
 30
0.0
  9
$EXTMIN
 10
-183.1692387580868
 20
-71.50000000000016
 30
0.0
  9
$EXTMAX
 10
14.99999999999984
 20
43.16091165254304
 30
0.0
  9
$LIMMIN
 10
-192.6657415496806
 20
-108.4290250373598
  9
$LIMMAX
 10
114.8991664321431
 20
79.18004993917076
  9
$ORTHOMODE
 70
     0
  9
$REGENMODE
 70
     1
  9
$FILLMODE
 70
     1
  9
$QTEXTMODE
 70
     0
  9
$MIRRTEXT
 70
     0
  9
$LTSCALE
 40
1.0
  9
$ATTMODE
 70
     1
  9
$TEXTSIZE
 40
2.5
  9
$TRACEWID
 40
1.0
  9
$TEXTSTYLE
  7
STANDARD
  9
$CLAYER
  8
AM_0
  9
$CELTYPE
  6
BYLAYER
  9
$CECOLOR
 62
   256
  9
$CELTSCALE
 40
1.0
  9
$DISPSILH
 70
     0
  9
$DIMSCALE
 40
0.5
  9
$DIMASZ
 40
2.5
  9
$DIMEXO
 40
1.0
  9
$DIMDLI
 40
12.0
  9
$DIMRND
 40
0.0
  9
$DIMDLE
 40
0.0
  9
$DIMEXE
 40
1.0
  9
$DIMTP
 40
0.1
  9
$DIMTM
 40
0.1
  9
$DIMTXT
 40
3.2
  9
$DIMCEN
 40
0.0
  9
$DIMTSZ
 40
0.0
  9
$DIMTOL
 70
     0
  9
$DIMLIM
 70
     0
  9
$DIMTIH
 70
     0
  9
$DIMTOH
 70
     0
  9
$DIMSE1
 70
     0
  9
$DIMSE2
 70
     0
  9
$DIMTAD
 70
     3
  9
$DIMZIN
 70
     8
  9
$DIMBLK
  1
Open30
  9
$DIMASO
 70
     1
  9
$DIMSHO
 70
     1
  9
$DIMPOST
  1

  9
$DIMAPOST
  1
"
  9
$DIMALT
 70
     0
  9
$DIMALTD
 70
     2
  9
$DIMALTF
 40
0.0393701
  9
$DIMLFAC
 40
1.0
  9
$DIMTOFL
 70
     1
  9
$DIMTVP
 40
0.0
  9
$DIMTIX
 70
     0
  9
$DIMSOXD
 70
     0
  9
$DIMSAH
 70
     0
  9
$DIMBLK1
  1

  9
$DIMBLK2
  1

  9
$DIMSTYLE
  2
AM_JIS
  9
$DIMCLRD
 70
   256
  9
$DIMCLRE
 70
   256
  9
$DIMCLRT
 70
     2
  9
$DIMTFAC
 40
0.71
  9
$DIMGAP
 40
1.5
  9
$DIMJUST
 70
     0
  9
$DIMSD1
 70
     0
  9
$DIMSD2
 70
     0
  9
$DIMTOLJ
 70
     0
  9
$DIMTZIN
 70
     0
  9
$DIMALTZ
 70
     0
  9
$DIMALTTZ
 70
     0
  9
$DIMUPT
 70
     0
  9
$DIMDEC
 70
     3
  9
$DIMTDEC
 70
     3
  9
$DIMALTU
 70
     2
  9
$DIMALTTD
 70
     2
  9
$DIMTXSTY
  7
ASAMI
  9
$DIMAUNIT
 70
     0
  9
$DIMADEC
 70
     0
  9
$DIMALTRND
 40
0.0
  9
$DIMAZIN
 70
     2
  9
$DIMDSEP
 70
    46
  9
$DIMATFIT
 70
     3
  9
$DIMFRAC
 70
     0
  9
$DIMLDRBLK
  1
Open30
  9
$DIMLUNIT
 70
     2
  9
$DIMLWD
 70
    -1
  9
$DIMLWE
 70
    -1
  9
$DIMTMOVE
 70
     0
  9
$LUNITS
 70
     2
  9
$LUPREC
 70
     2
  9
$SKETCHINC
 40
1.0
  9
$FILLETRAD
 40
0.4
  9
$AUNITS
 70
     0
  9
$AUPREC
 70
     0
  9
$MENU
  1
.
  9
$ELEVATION
 40
0.0
  9
$PELEVATION
 40
0.0
  9
$THICKNESS
 40
0.0
  9
$LIMCHECK
 70
     1
  9
$CHAMFERA
 40
1.0
  9
$CHAMFERB
 40
1.0
  9
$CHAMFERC
 40
20.0
  9
$CHAMFERD
 40
0.0
  9
$SKPOLY
 70
     0
  9
$TDCREATE
 40
2452802.716478762
  9
$TDUCREATE
 40
2452802.341478762
  9
$TDUPDATE
 40
2453691.776448739
  9
$TDUUPDATE
 40
2453691.401448739
  9
$TDINDWG
 40
0.8475772801
  9
$TDUSRTIMER
 40
0.8475770949
  9
$USRTIMER
 70
     1
  9
$ANGBASE
 50
0.0
  9
$ANGDIR
 70
     0
  9
$PDMODE
 70
     0
  9
$PDSIZE
 40
0.0
  9
$PLINEWID
 40
0.0
  9
$SPLFRAME
 70
     0
  9
$SPLINETYPE
 70
     6
  9
$SPLINESEGS
 70
     8
  9
$HANDSEED
  5
C3EA
  9
$SURFTAB1
 70
     6
  9
$SURFTAB2
 70
     6
  9
$SURFTYPE
 70
     6
  9
$SURFU
 70
     6
  9
$SURFV
 70
     6
  9
$UCSBASE
  2

  9
$UCSNAME
  2

  9
$UCSORG
 10
-0.0000000000002682
 20
0.000000000000161
 30
0.0
  9
$UCSXDIR
 10
1.0
 20
0.000000000000002
 30
0.0
  9
$UCSYDIR
 10
-0.000000000000002
 20
1.0
 30
0.0
  9
$UCSORTHOREF
  2

  9
$UCSORTHOVIEW
 70
     0
  9
$UCSORGTOP
 10
0.0
 20
0.0
 30
0.0
  9
$UCSORGBOTTOM
 10
0.0
 20
0.0
 30
0.0
  9
$UCSORGLEFT
 10
0.0
 20
0.0
 30
0.0
  9
$UCSORGRIGHT
 10
0.0
 20
0.0
 30
0.0
  9
$UCSORGFRONT
 10
0.0
 20
0.0
 30
0.0
  9
$UCSORGBACK
 10
0.0
 20
0.0
 30
0.0
  9
$PUCSBASE
  2

  9
$PUCSNAME
  2

  9
$PUCSORG
 10
0.0
 20
0.0
 30
0.0
  9
$PUCSXDIR
 10
1.0
 20
0.0
 30
0.0
  9
$PUCSYDIR
 10
0.0
 20
1.0
 30
0.0
  9
$PUCSORTHOREF
  2

  9
$PUCSORTHOVIEW
 70
     0
  9
$PUCSORGTOP
 10
0.0
 20
0.0
 30
0.0
  9
$PUCSORGBOTTOM
 10
0.0
 20
0.0
 30
0.0
  9
$PUCSORGLEFT
 10
0.0
 20
0.0
 30
0.0
  9
$PUCSORGRIGHT
 10
0.0
 20
0.0
 30
0.0
  9
$PUCSORGFRONT
 10
0.0
 20
0.0
 30
0.0
  9
$PUCSORGBACK
 10
0.0
 20
0.0
 30
0.0
  9
$USERI1
 70
     0
  9
$USERI2
 70
     0
  9
$USERI3
 70
     0
  9
$USERI4
 70
     0
  9
$USERI5
 70
     0
  9
$USERR1
 40
0.0
  9
$USERR2
 40
0.0
  9
$USERR3
 40
0.0
  9
$USERR4
 40
0.0
  9
$USERR5
 40
0.0
  9
$WORLDVIEW
 70
     1
  9
$SHADEDGE
 70
     3
  9
$SHADEDIF
 70
    70
  9
$TILEMODE
 70
     1
  9
$MAXACTVP
 70
    64
  9
$PINSBASE
 10
0.0
 20
0.0
 30
0.0
  9
$PLIMCHECK
 70
     0
  9
$PEXTMIN
 10
1.000000000000000E+20
 20
1.000000000000000E+20
 30
1.000000000000000E+20
  9
$PEXTMAX
 10
-1.000000000000000E+20
 20
-1.000000000000000E+20
 30
-1.000000000000000E+20
  9
$PLIMMIN
 10
0.0
 20
0.0
  9
$PLIMMAX
 10
841.0
 20
594.0
  9
$UNITMODE
 70
     0
  9
$VISRETAIN
 70
     1
  9
$PLINEGEN
 70
     0
  9
$PSLTSCALE
 70
     0
  9
$TREEDEPTH
 70
  3020
  9
$CMLSTYLE
  2
STANDARD
  9
$CMLJUST
 70
     0
  9
$CMLSCALE
 40
20.0
  9
$PROXYGRAPHICS
 70
     1
  9
$MEASUREMENT
 70
     1
  9
$CELWEIGHT
370
    -1
  9
$ENDCAPS
280
     0
  9
$JOINSTYLE
280
     0
  9
$LWDISPLAY
290
     0
  9
$INSUNITS
 70
     4
  9
$HYPERLINKBASE
  1

  9
$STYLESHEET
  1
ASAMI.ctb
  9
$XEDIT
290
     1
  9
$CEPSNTYPE
380
     0
  9
$PSTYLEMODE
290
     1
  9
$FINGERPRINTGUID
  2
{AFB28963-8C59-40AE-9337-C84526B81ACE}
  9
$VERSIONGUID
  2
{DA3EFAD5-908E-4116-9BA7-71D53D6F3EEB}
  9
$EXTNAMES
290
     1
  9
$PSVPSCALE
 40
0.0
  9
$OLESTARTUP
290
     0
  0
ENDSEC
  0
SECTION
  2
CLASSES
  0
CLASS
  1
ACDBDICTIONARYWDFLT
  2
AcDbDictionaryWithDefault
  3
ObjectDBX Classes
 90
        0
280
     0
281
     0
  0
CLASS
  1
ACDBPLACEHOLDER
  2
AcDbPlaceHolder
  3
ObjectDBX Classes
 90
        0
280
     0
281
     0
  0
CLASS
  1
LAYOUT
  2
AcDbLayout
  3
ObjectDBX Classes
 90
        0
280
     0
281
     0
  0
CLASS
  1
AMGSETTINGSOBJ
  2
AmgSettingsObj
  3
"AcadM|Product Description: AutoCAD Mechanical 2000|Company: Autodesk"
 90
        0
280
     0
281
     0
  0
CLASS
  1
ACME_DOCUMENT
  2
AcMeDbDoc
  3
AcMeServices
 90
        0
280
     0
281
     0
  0
CLASS
  1
ACMESCOPE
  2
AcMeScope
  3
AcMeServices
 90
        0
280
     0
281
     0
  0
CLASS
  1
ACMECOMMANDHISTORY
  2
AcMeCommandHistory
  3
AcMeServices
 90
        0
280
     0
281
     0
  0
CLASS
  1
DICTIONARYVAR
  2
AcDbDictionaryVar
  3
ObjectDBX Classes
 90
        0
280
     0
281
     0
  0
CLASS
  1
ACIMSYSVARMAN
  2
AcImSysVarManager
  3
AcMeServices
 90
        0
280
     0
281
     0
  0
CLASS
  1
ACIMREALSYSVAR
  2
AcImRealSysVar
  3
AcMeServices
 90
        0
280
     0
281
     0
  0
CLASS
  1
ACIMINTSYSVAR
  2
AcImIntSysVar
  3
AcMeServices
 90
        0
280
     0
281
     0
  0
CLASS
  1
ACMEDRAWINGMAN
  2
AcMeDrawingMan
  3
AcMeServices
 90
        0
280
     0
281
     0
  0
CLASS
  1
ACMEVIEW
  2
AcMeView
  3
AcMeServices
 90
        0
280
     0
281
     0
  0
CLASS
  1
ACDBENTITYCACHE
  2
AcMeEntityCache
  3
AcMeServices
 90
        0
280
     0
281
     0
  0
CLASS
  1
GSMANAGER
  2
AcMeGSManager
  3
AcMeServices
 90
        0
280
     0
281
     0
  0
CLASS
  1
AMDTINTERNALREACTOR
  2
AmdtInternalReactor
  3
AcMeServices
 90
        0
280
     0
281
     0
  0
CLASS
  1
ACMESTATEMGR
  2
AcMeStateMgr
  3
AcMeServices
 90
        0
280
     0
281
     0
  0
CLASS
  1
ACME_DATABASE
  2
AcMeDbDatabase
  3
AcMeServices
 90
        0
280
     0
281
     0
  0
CLASS
  1
ACRFINSADJUSTERMGR
  2
AcRfInsAdjusterMgr
  3
AcMeServices
 90
        0
280
     0
281
     0
  0
CLASS
  1
ACMDATADICTIONARY
  2
AcmDataDictionary
  3
"AcmSymBB|Product Description: AutoCAD Mechanical 2004 DX|Company: Autodesk"
 90
        0
280
     0
281
     0
  0
CLASS
  1
ACMDATAENTRYBLOCK
  2
AcmDataEntryBlock
  3
"AcmSymBB|Product Description: AutoCAD Mechanical 2004 DX|Company: Autodesk"
 90
    32768
280
     0
281
     0
  0
CLASS
  1
AMGOBJPROPCFG
  2
AmgObjPropCfg
  3
"AmgLay|Product Description: AutoCAD Mechanical 2000|Company: Autodesk"
 90
        1
280
     0
281
     0
  0
CLASS
  1
ACAMGFILTERDAT
  2
AcAmgFilterDat
  3
"AcadM|Product Description: AutoCAD Mechanical 2000|Company: Autodesk"
 90
    32768
280
     0
281
     0
  0
CLASS
  1
LAYER_INDEX
  2
AcDbLayerIndex
  3
ObjectDBX Classes
 90
        0
280
     0
281
     0
  0
CLASS
  1
IDBUFFER
  2
AcDbIdBuffer
  3
ObjectDBX Classes
 90
        0
280
     0
281
     0
  0
CLASS
  1
ACIMSTRSYSVAR
  2
AcImStrSysVar
  3
AcMeServices
 90
        0
280
     0
281
     0
  0
CLASS
  1
ACMSTANDARDJIS
  2
AcmStandardJIS
  3
"Amdt_StdImp|Product Description: AutoCAD Mechanical 2004 DX|Company: Autodesk"
 90
        0
280
     0
281
     0
  0
CLASS
  1
ACMSURFSTANDARDJIS
  2
AcmSurfTextStdJIS
  3
"Amdt_StdImp|Product Description: AutoCAD Mechanical 2004 DX|Company: Autodesk"
 90
        0
280
     0
281
     0
  0
CLASS
  1
ACMFCFSTANDARDJIS
  2
AcmFCFStdJIS
  3
"Amdt_StdImp|Product Description: AutoCAD Mechanical 2004 DX|Company: Autodesk"
 90
    32768
280
     0
281
     0
  0
CLASS
  1
ACMWELDSTANDARDJIS
  2
AcmWeldingStdJIS
  3
"Amdt_StdImp|Product Description: AutoCAD Mechanical 2004 DX|Company: Autodesk"
 90
        0
280
     0
281
     0
  0
CLASS
  1
ACMIDSTANDARDJIS
  2
AcmIdStdJIS
  3
"Amdt_StdImp|Product Description: AutoCAD Mechanical 2004 DX|Company: Autodesk"
 90
        0
280
     0
281
     0
  0
CLASS
  1
ACMDATUMSTANDARDJIS
  2
AcmDatumStdJIS
  3
"Amdt_StdImp|Product Description: AutoCAD Mechanical 2004 DX|Company: Autodesk"
 90
        0
280
     0
281
     0
  0
CLASS
  1
ACMBOMSTANDARDJIS
  2
AcmBOMStdJIS
  3
"Amdt_StdImp|Product Description: AutoCAD Mechanical 2004 DX|Company: Autodesk"
 90
        0
280
     0
281
     0
  0
CLASS
  1
ACMSTANDARDANSI
  2
AcmStandardANSI
  3
"Amdt_StdImp|Product Description: AutoCAD Mechanical 2004 DX|Company: Autodesk"
 90
    32768
280
     0
281
     0
  0
CLASS
  1
ACMSURFSTANDARDANSI
  2
AcmSurfTextStdANSI
  3
"Amdt_StdImp|Product Description: AutoCAD Mechanical 2004 DX|Company: Autodesk"
 90
    32768
280
     0
281
     0
  0
CLASS
  1
ACMFCFSTANDARDANSI
  2
AcmFCFStdANSI
  3
"Amdt_StdImp|Product Description: AutoCAD Mechanical 2004 DX|Company: Autodesk"
 90
    32768
280
     0
281
     0
  0
CLASS
  1
ACMWELDSTANDARDANSI
  2
AcmWeldingStdANSI
  3
"Amdt_StdImp|Product Description: AutoCAD Mechanical 2004 DX|Company: Autodesk"
 90
    32768
280
     0
281
     0
  0
CLASS
  1
ACMIDSTANDARDANSI
  2
AcmIdStdANSI
  3
"Amdt_StdImp|Product Description: AutoCAD Mechanical 2004 DX|Company: Autodesk"
 90
    32768
280
     0
281
     0
  0
CLASS
  1
ACMDATUMSTANDARDANSI
  2
AcmDatumStdANSI
  3
"Amdt_StdImp|Product Description: AutoCAD Mechanical 2004 DX|Company: Autodesk"
 90
    32768
280
     0
281
     0
  0
CLASS
  1
ACMBOMSTANDARDANSI
  2
AcmBOMStdANSI
  3
"Amdt_StdImp|Product Description: AutoCAD Mechanical 2004 DX|Company: Autodesk"
 90
    32768
280
     0
281
     0
  0
CLASS
  1
ACMSTANDARDBSI
  2
AcmStandardBSI
  3
"Amdt_StdImp|Product Description: AutoCAD Mechanical 2004 DX|Company: Autodesk"
 90
    32768
280
     0
281
     0
  0
CLASS
  1
ACMSURFSTANDARDBSI
  2
AcmSurfTextStdBSI
  3
"Amdt_StdImp|Product Description: AutoCAD Mechanical 2004 DX|Company: Autodesk"
 90
    32768
280
     0
281
     0
  0
CLASS
  1
ACMFCFSTANDARDBSI
  2
AcmFCFStdBSI
  3
"Amdt_StdImp|Product Description: AutoCAD Mechanical 2004 DX|Company: Autodesk"
 90
    32768
280
     0
281
     0
  0
CLASS
  1
ACMWELDSTANDARDBSI
  2
AcmWeldingStdBSI
  3
"Amdt_StdImp|Product Description: AutoCAD Mechanical 2004 DX|Company: Autodesk"
 90
    32768
280
     0
281
     0
  0
CLASS
  1
ACMIDSTANDARDBSI
  2
AcmIdStdBSI
  3
"Amdt_StdImp|Product Description: AutoCAD Mechanical 2004 DX|Company: Autodesk"
 90
    32768
280
     0
281
     0
  0
CLASS
  1
ACMDATUMSTANDARDBSI
  2
AcmDatumStdBSI
  3
"Amdt_StdImp|Product Description: AutoCAD Mechanical 2004 DX|Company: Autodesk"
 90
    32768
280
     0
281
     0
  0
CLASS
  1
ACMBOMSTANDARDBSI
  2
AcmBOMStdBSI
  3
"Amdt_StdImp|Product Description: AutoCAD Mechanical 2004 DX|Company: Autodesk"
 90
    32768
280
     0
281
     0
  0
CLASS
  1
STDPART2D
  2
AmgStdPart
  3
"AmgStdPart|Product Description: AutoCAD Mechanical 2000|Company: Autodesk"
 90
    33791
280
     0
281
     1
  0
CLASS
  1
PLOTSETTINGS
  2
AcDbPlotSettings
  3
ObjectDBX Classes
 90
        0
280
     0
281
     0
  0
CLASS
  1
TABLESTYLE
  2
AcDbTableStyle
  3
ObjectDBX Classes
 90
     2047
280
     0
281
     0
  0
CLASS
  1
ACGREFMASTER
  2
AcGrefMaster
  3
AcAttribServices
 90
        0
280
     0
281
     0
  0
CLASS
  1
AM_DRAWING_MGR
  2
AcDmDwgMgr
  3
AcMechDwgViewMgmt
 90
        0
280
     0
281
     0
  0
CLASS
  1
AM_DWG_DOCUMENT
  2
AcDmDwgDocument
  3
AcMechDwgViewMgmt
 90
        0
280
     0
281
     0
  0
CLASS
  1
AM_DWG_SHEET
  2
AcDmSheet
  3
AcMechDwgViewMgmt
 90
        0
280
     0
281
     0
  0
CLASS
  1
AM_VIEWDIMPARMAP
  2
AcDmViewDimParMap
  3
AcMechDwgViewMgmt
 90
        0
280
     0
281
     0
  0
CLASS
  1
AM_DWGMGR_NAME
  2
AcDmDwgMgrName
  3
AcMechDwgViewMgmt
 90
        0
280
     0
281
     0
  0
CLASS
  1
ACGREFACADMASTER
  2
AcGrefacadMaster
  3
AcGrefServices
 90
        0
280
     0
281
     0
  0
CLASS
  1
AMDTMENUSTATEMGR
  2
AmdtMenuStateMgr
  3
McadcomServices
 90
        0
280
     0
281
     0
  0
CLASS
  1
AMDTMCOMMENUSTATE
  2
AmdtMcomMenuState
  3
McadcomServices
 90
        0
280
     0
281
     0
  0
CLASS
  1
AMIMASTER
  2
AmiMaster
  3
AmiServices
 90
        0
280
     0
281
     0
  0
CLASS
  1
MAPIAMMOUDLE
  2
MApiAmModule
  3
MApiAmServices
 90
        0
280
     0
281
     0
  0
CLASS
  1
AMDTADMENUSTATE
  2
AmdtAdMenuState
  3
DesignerServices
 90
        0
280
     0
281
     0
  0
CLASS
  1
ADAPPL
  2
AcAdAppl
  3
DesignerServices
 90
        0
280
     0
281
     0
  0
CLASS
  1
DEPMGR
  2
AcAdDepMgr
  3
DesignerServices
 90
        0
280
     0
281
     0
  0
CLASS
  1
PARAMMGR
  2
AcAdParamMgr
  3
DesignerServices
 90
        0
280
     0
281
     0
  0
CLASS
  1
PARAMSCOPE
  2
AcAdParamScope
  3
DesignerServices
 90
        0
280
     0
281
     0
  0
CLASS
  1
NAMEDAPPL
  2
AcAdNamedAppl
  3
DesignerServices
 90
        0
280
     0
281
     0
  0
CLASS
  1
AMDTDMMENUSTATE
  2
AmdtDmMenuState
  3
AcMechDwgViewMgmt
 90
        0
280
     0
281
     0
  0
CLASS
  1
AMDTAMMENUSTATE
  2
AmdtAmMenuState
  3
DesignerAssemblies
 90
        0
280
     0
281
     0
  0
CLASS
  1
ACAMPROJECT
  2
AcAmProject
  3
DesignerAssemblies
 90
        0
280
     0
281
     0
  0
CLASS
  1
ACAMGRCOMPDEF
  2
AcAmGrCompDef
  3
DesignerAssemblies
 90
        0
280
     0
281
     0
  0
CLASS
  1
ACCMCONTEXT
  2
AcCmContext
  3
DesignerAssemblies
 90
        0
280
     0
281
     0
  0
CLASS
  1
ACAMCOMPDEF
  2
AcAmCompDef
  3
DesignerAssemblies
 90
        0
280
     0
281
     0
  0
CLASS
  1
ACAMCOMPDEFMGR
  2
AcAmCompDefMgr
  3
DesignerAssemblies
 90
        0
280
     0
281
     0
  0
CLASS
  1
AMCONTEXTMGR
  2
AcAmContextMgr
  3
DesignerAssemblies
 90
        0
280
     0
281
     0
  0
CLASS
  1
ACAMCONTEXTMODELER
  2
AcAmContextModeler
  3
DesignerAssemblies
 90
        0
280
     0
281
     0
  0
CLASS
  1
CATALOGSTATE
  2
AcAmCatalogState
  3
DesignerAssemblies
 90
        0
280
     0
281
     0
  0
CLASS
  1
ACAMGRCOMPDEFSET
  2
AcAmGrCompDefSet
  3
DesignerAssemblies
 90
        0
280
     0
281
     0
  0
CLASS
  1
AMDTBROWSERDBTAB
  2
AmdtBrowserDbTab
  3
McadcomServices
 90
        0
280
     0
281
     0
  0
CLASS
  1
CBROWSERAPPOBJECT
  2
CBrowserAppObject
  3
McadcomServices
 90
        0
280
     0
281
     0
  0
CLASS
  1
DM_PLACEHOLDER
  2
AcDmSelsetPlaceholder
  3
AcMechDwgViewMgmt
 90
        0
280
     0
281
     0
  0
CLASS
  1
ACMSTANDARDISO
  2
AcmStandardISO
  3
"Amdt_StdImp|Product Description: AutoCAD Mechanical 2004 DX|Company: Autodesk"
 90
        0
280
     0
281
     0
  0
CLASS
  1
AMDTEDGESTANDARDISO
  2
AmdtEdgeStdISO
  3
"Amdt_StdImp|Product Description: AutoCAD Mechanical 2004 DX|Company: Autodesk"
 90
        0
280
     0
281
     0
  0
CLASS
  1
ACMSURFSTANDARDISO
  2
AcmSurfTextStdISO
  3
"Amdt_StdImp|Product Description: AutoCAD Mechanical 2004 DX|Company: Autodesk"
 90
        0
280
     0
281
     0
  0
CLASS
  1
ACMFCFSTANDARDISO
  2
AcmFCFStdISO
  3
"Amdt_StdImp|Product Description: AutoCAD Mechanical 2004 DX|Company: Autodesk"
 90
        0
280
     0
281
     0
  0
CLASS
  1
ACMWELDSTANDARDISO
  2
AcmWeldingStdISO
  3
"Amdt_StdImp|Product Description: AutoCAD Mechanical 2004 DX|Company: Autodesk"
 90
        0
280
     0
281
     0
  0
CLASS
  1
ACMIDSTANDARDISO
  2
AcmIdStdISO
  3
"Amdt_StdImp|Product Description: AutoCAD Mechanical 2004 DX|Company: Autodesk"
 90
        0
280
     0
281
     0
  0
CLASS
  1
ACMDATUMSTANDARDISO
  2
AcmDatumStdISO
  3
"Amdt_StdImp|Product Description: AutoCAD Mechanical 2004 DX|Company: Autodesk"
 90
        0
280
     0
281
     0
  0
CLASS
  1
ACMBOMSTANDARDISO
  2
AcmBOMStdISO
  3
"Amdt_StdImp|Product Description: AutoCAD Mechanical 2004 DX|Company: Autodesk"
 90
        0
280
     0
281
     0
  0
CLASS
  1
ACMDETAILSTANDARDISO
  2
AmdtDetailSymStdISO
  3
"Amdt_StdImp|Product Description: AutoCAD Mechanical 2004 DX|Company: Autodesk"
 90
        0
280
     0
281
     0
  0
CLASS
  1
ACMSECTIONSTANDARDISO
  2
AmdtSectionSymStdISO
  3
"Amdt_StdImp|Product Description: AutoCAD Mechanical 2004 DX|Company: Autodesk"
 90
        0
280
     0
281
     0
  0
CLASS
  1
ACMCENTERLINESTANDARDISO
  2
AmdtCenterLineStdISO
  3
"Amdt_StdImp|Product Description: AutoCAD Mechanical 2004 DX|Company: Autodesk"
 90
        0
280
     0
281
     0
  0
CLASS
  1
ACMNOTESTANDARDISO
  2
AmdtNoteStdISO
  3
"Amdt_StdImp|Product Description: AutoCAD Mechanical 2004 DX|Company: Autodesk"
 90
        0
280
     0
281
     0
  0
CLASS
  1
AMDTNOTETEMPLATEDB
  2
AmdtNoteTemplateDB
  3
AMDT_STDIMP_MODULE_NAME
 90
        0
280
     0
281
     0
  0
CLASS
  1
ACAMGLAYSTD
  2
AcAmgLayStd
  3
"AcAmgLayStd|Product Description: AutoCAD Mechanical 2000|Company: Autodesk"
 90
        0
280
     0
281
     0
  0
CLASS
  1
ACAMGDIMSTD
  2
AcAmgDimStd
  3
"AcAmgDimStd|Product Description: AutoCAD Mechanical 2000|Company: Autodesk"
 90
        0
280
     0
281
     0
  0
CLASS
  1
ACAMGHOLECHARTSTDISO
  2
AcAmgHoleChartStdISO
  3
ACMSYMBB_MODULE_NAME
 90
        0
280
     0
281
     0
  0
CLASS
  1
ACAMGTITLESTD
  2
AcAmgTitleStd
  3
"TITLEAPP"
 90
        0
280
     0
281
     0
  0
CLASS
  1
ACMTHREADLINESTANDARDISO
  2
AmdtThreadLineStdISO
  3
"Amdt_StdImp|Product Description: AutoCAD Mechanical 2004 DX|Company: Autodesk"
 90
        0
280
     0
281
     0
  0
CLASS
  1
ACMFCFSTANDARDJIS98
  2
AcmFCFStdJIS98
  3
"Amdt_StdImp|Product Description: AutoCAD Mechanical 2004 DX|Company: Autodesk"
 90
        0
280
     0
281
     0
  0
CLASS
  1
ACMDETAILSTANDARDJIS
  2
AmdtDetailSymStdJIS
  3
"Amdt_StdImp|Product Description: AutoCAD Mechanical 2004 DX|Company: Autodesk"
 90
        0
280
     0
281
     0
  0
CLASS
  1
ACMSECTIONSTANDARDJIS
  2
AmdtSectionSymStdJIS
  3
"Amdt_StdImp|Product Description: AutoCAD Mechanical 2004 DX|Company: Autodesk"
 90
        0
280
     0
281
     0
  0
CLASS
  1
ACMCENTERLINESTANDARDJIS
  2
AmdtCenterLineStdJIS
  3
"Amdt_StdImp|Product Description: AutoCAD Mechanical 2004 DX|Company: Autodesk"
 90
        0
280
     0
281
     0
  0
CLASS
  1
ACMTHREADLINESTANDARDJIS
  2
AmdtThreadLineStdJIS
  3
"Amdt_StdImp|Product Description: AutoCAD Mechanical 2004 DX|Company: Autodesk"
 90
        0
280
     0
281
     0
  0
CLASS
  1
ACMNOTESTANDARDJIS
  2
AmdtNoteStdJIS
  3
"Amdt_StdImp|Product Description: AutoCAD Mechanical 2004 DX|Company: Autodesk"
 90
        0
280
     0
281
     0
  0
CLASS
  1
ACAMGHOLECHARTSTDJIS
  2
AcAmgHoleChartStdJIS
  3
ACMSYMBB_MODULE_NAME
 90
        0
280
     0
281
     0
  0
ENDSEC
  0
SECTION
  2
TABLES
  0
TABLE
  2
VPORT
  5
8
330
0
100
AcDbSymbolTable
 70
     3
  0
VPORT
  5
C3DF
330
8
100
AcDbSymbolTableRecord
100
AcDbViewportTableRecord
  2
*Active
 70
     0
 10
0.0
 20
0.0
 11
1.0
 21
1.0
 12
-82.99346049960423
 22
-12.52236771818721
 13
0.0
 23
0.0
 14
2.5
 24
2.5
 15
10.0
 25
10.0
 16
0.0
 26
0.0
 36
1.0
 17
0.0
 27
0.0
 37
0.0
 40
152.7623606515494
 41
1.552631578947368
 42
50.0
 43
0.0
 44
0.0
 50
0.0
 51
0.0
 71
     0
 72
   100
 73
     1
 74
     3
 75
     0
 76
     0
 77
     0
 78
     0
281
     0
 65
     1
110
-0.0000000000002682
120
0.000000000000161
130
0.0
111
1.0
121
0.000000000000002
131
0.0
112
-0.000000000000002
122
1.0
132
0.0
 79
     0
146
0.0
  0
ENDTAB
  0
TABLE
  2
LTYPE
  5
5
330
0
100
AcDbSymbolTable
 70
    17
  0
LTYPE
  5
14
330
5
100
AcDbSymbolTableRecord
100
AcDbLinetypeTableRecord
  2
BYBLOCK
 70
     0
  3

 72
    65
 73
     0
 40
0.0
  0
LTYPE
  5
15
330
5
100
AcDbSymbolTableRecord
100
AcDbLinetypeTableRecord
  2
BYLAYER
 70
     0
  3

 72
    65
 73
     0
 40
0.0
  0
LTYPE
  5
16
330
5
100
AcDbSymbolTableRecord
100
AcDbLinetypeTableRecord
  2
CONTINUOUS
 70
     0
  3
Solid line
 72
    65
 73
     0
 40
0.0
  0
LTYPE
  5
4B
330
5
100
AcDbSymbolTableRecord
100
AcDbLinetypeTableRecord
  2
AM_ISO02W050
 70
     0
  3
__ __ __ __ __ __ __ __ __ __ __ __ __ __ __
 72
    65
 73
     2
 40
7.5
 49
6.0
 74
     0
 49
-1.5
 74
     0
  0
LTYPE
  5
4C
330
5
100
AcDbSymbolTableRecord
100
AcDbLinetypeTableRecord
  2
AM_ISO08W050
 70
     0
  3
____ . ____ . ____ . ____ . ____ . ____ . ____
 72
    65
 73
     4
 40
18.0
 49
12.0
 74
     0
 49
-1.5
 74
     0
 49
3.0
 74
     0
 49
-1.5
 74
     0
  0
LTYPE
  5
4D
330
5
100
AcDbSymbolTableRecord
100
AcDbLinetypeTableRecord
  2
AM_ISO09W050
 70
     0
  3
_____ . . _____ . . _____ . . ____ .. ____
 72
    65
 73
     6
 40
22.5
 49
12.0
 74
     0
 49
-1.5
 74
     0
 49
3.0
 74
     0
 49
-1.5
 74
     0
 49
3.0
 74
     0
 49
-1.5
 74
     0
  0
LTYPE
  5
4E
330
5
100
AcDbSymbolTableRecord
100
AcDbLinetypeTableRecord
  2
Amconstr
 70
     0
  3
_______________________
 72
    65
 73
     2
 40
9999.0
 49
9999.0
 74
     0
 49
0.0
 74
     0
  0
LTYPE
  5
4F
330
5
100
AcDbSymbolTableRecord
100
AcDbLinetypeTableRecord
  2
AM_ISO02W050x2
 70
     0
  3
 _ _ _ _ _ _ _ _ _ _ _ _
 72
    65
 73
     2
 40
3.75
 49
3.0
 74
     0
 49
-0.75
 74
     0
  0
LTYPE
  5
50
330
5
100
AcDbSymbolTableRecord
100
AcDbLinetypeTableRecord
  2
AM_ISO08W050x2
 70
     0
  3
__ . __ . __ . __ . __ . __
 72
    65
 73
     4
 40
9.0
 49
6.0
 74
     0
 49
-0.75
 74
     0
 49
1.5
 74
     0
 49
-0.75
 74
     0
  0
LTYPE
  5
53
330
5
100
AcDbSymbolTableRecord
100
AcDbLinetypeTableRecord
  2
Amzigzag
 70
     0
  3
/\/-/\/-/\/-/\/-/\/-/\/
 72
    65
 73
     2
 40
11.0001
 49
0.0001
 74
     4
 75
   135
340
52
 46
0.04
 50
0.0
 44
0.0
 45
0.0
 49
-11.0
 74
     0
  0
LTYPE
  5
166
330
5
100
AcDbSymbolTableRecord
100
AcDbLinetypeTableRecord
  2
ACJISTGL
 70
     0
  3
_ _ _ _ _
 72
    65
 73
     2
 40
3.0
 49
2.0
 74
     0
 49
-1.0
 74
     0
  0
LTYPE
  5
26A
330
5
100
AcDbSymbolTableRecord
100
AcDbLinetypeTableRecord
  2
ACJISTGB
 70
     0
  3
__ . . __ . .
 72
    65
 73
     6
 40
9.0
 49
4.0
 74
     0
 49
-1.0
 74
     0
 49
1.0
 74
     0
 49
-1.0
 74
     0
 49
1.0
 74
     0
 49
-1.0
 74
     0
  0
LTYPE
  5
C357
330
5
100
AcDbSymbolTableRecord
100
AcDbLinetypeTableRecord
  2
HIDDEN
 70
     0
  3
Hidden __ __ __ __ __ __ __ __ __ __ __ __ __ _
 72
    65
 73
     2
 40
9.524999999999998
 49
6.349999999999999
 74
     0
 49
-3.174999999999999
 74
     0
  0
LTYPE
  5
C358
330
5
100
AcDbSymbolTableRecord
100
AcDbLinetypeTableRecord
  2
PHANTOM2
 70
     0
  3
Phantom (.5x) ___ _ _ ___ _ _ ___ _ _ ___ _ _
 72
    65
 73
     6
 40
31.75
 49
15.875
 74
     0
 49
-3.174999999999999
 74
     0
 49
3.174999999999999
 74
     0
 49
-3.174999999999999
 74
     0
 49
3.174999999999999
 74
     0
 49
-3.174999999999999
 74
     0
  0
LTYPE
  5
C359
330
5
100
AcDbSymbolTableRecord
100
AcDbLinetypeTableRecord
  2
CENTER
 70
     0
  3
__ . __
 72
    65
 73
     4
 40
7.0
 49
4.0
 74
     0
 49
-1.0
 74
     0
 49
1.0
 74
     0
 49
-1.0
 74
     0
  0
LTYPE
  5
C38A
330
5
100
AcDbSymbolTableRecord
100
AcDbLinetypeTableRecord
  2
ACISOWELD
 70
     0
  3
_ _ _ _ _
 72
    65
 73
     2
 40
2.0
 49
2.0
 74
     0
 49
-1.0
 74
     0
  0
LTYPE
  5
C38D
330
5
100
AcDbSymbolTableRecord
100
AcDbLinetypeTableRecord
  2
ACISOTGB
 70
     0
  3
__ . . __ . .
 72
    65
 73
     6
 40
9.0
 49
4.0
 74
     0
 49
-1.0
 74
     0
 49
1.0
 74
     0
 49
-1.0
 74
     0
 49
1.0
 74
     0
 49
-1.0
 74
     0
  0
LTYPE
  5
C38E
330
5
100
AcDbSymbolTableRecord
100
AcDbLinetypeTableRecord
  2
ACISOTGL
 70
     0
  3
_ _ _ _ _
 72
    65
 73
     2
 40
3.0
 49
2.0
 74
     0
 49
-1.0
 74
     0
  0
LTYPE
  5
C3B7
330
5
100
AcDbSymbolTableRecord
100
AcDbLinetypeTableRecord
  2
ACJISWELD
 70
     0
  3
_ _ _ _ _
 72
    65
 73
     2
 40
2.0
 49
2.0
 74
     0
 49
-1.0
 74
     0
  0
ENDTAB
  0
TABLE
  2
LAYER
  5
2
330
0
100
AcDbSymbolTable
 70
     7
  0
LAYER
  5
10
330
2
100
AcDbSymbolTableRecord
100
AcDbLayerTableRecord
  2
0
 70
     0
 62
     7
  6
CONTINUOUS
370
    -3
390
F
  0
LAYER
  5
3F9
330
2
100
AcDbSymbolTableRecord
100
AcDbLayerTableRecord
  2
AM_0
 70
     0
 62
     7
  6
CONTINUOUS
370
    -3
390
F
  0
LAYER
  5
BA4
330
2
100
AcDbSymbolTableRecord
100
AcDbLayerTableRecord
  2
AM_5
 70
     0
 62
     3
  6
CONTINUOUS
370
    -3
390
F
  0
LAYER
  5
BA6
330
2
100
AcDbSymbolTableRecord
100
AcDbLayerTableRecord
  2
AM_7
 70
     0
 62
     4
  6
AM_ISO08W050
370
    -3
390
F
  0
LAYER
  5
E64
330
2
100
AcDbSymbolTableRecord
100
AcDbLayerTableRecord
  2
AM_6
 70
     0
 62
     2
  6
CONTINUOUS
370
    -3
390
F
  0
LAYER
  5
F4D
330
2
100
AcDbSymbolTableRecord
100
AcDbLayerTableRecord
  2
DEFPOINTS
 70
     0
 62
     7
  6
CONTINUOUS
290
     0
370
    -3
390
F
  0
LAYER
  5
4E80
330
2
100
AcDbSymbolTableRecord
100
AcDbLayerTableRecord
  2
AM_11
 70
     0
 62
     3
  6
AM_ISO09W050
370
    -3
390
F
  0
ENDTAB
  0
TABLE
  2
STYLE
  5
3
330
0
100
AcDbSymbolTable
 70
     7
  0
STYLE
  5
11
330
3
100
AcDbSymbolTableRecord
100
AcDbTextStyleTableRecord
  2
STANDARD
 70
     0
 40
0.0
 41
1.0
 50
0.0
 71
     0
 42
2.5
  3
simplex.shx
  4
EXTFONT.SHX
  0
STYLE
  5
52
330
3
100
AcDbSymbolTableRecord
100
AcDbTextStyleTableRecord
  2

 70
     1
 40
0.0
 41
1.0
 50
0.0
 71
     0
 42
2.5
  3
ltypeshp.shx
  4

  0
STYLE
  5
6B
330
3
100
AcDbSymbolTableRecord
100
AcDbTextStyleTableRecord
  2
ASAMI
 70
     0
 40
0.0
 41
1.0
 50
0.0
 71
     0
 42
2.5
  3
simplex.shx
  4
EXTFONT.SHX
  0
STYLE
  5
262
330
3
100
AcDbSymbolTableRecord
100
AcDbTextStyleTableRecord
  2
ACJISTS
 70
     0
 40
1.0
 41
1.0
 50
0.0
 71
     0
 42
1.0
  3
isocp.shx
  4
extfont.shx
  0
STYLE
  5
269
330
3
100
AcDbSymbolTableRecord
100
AcDbTextStyleTableRecord
  2
ACJISGDT
 70
     0
 40
0.0
 41
1.0
 50
0.0
 71
     0
 42
1.0
  3
amgdt.shx
  4

  0
STYLE
  5
C384
330
3
100
AcDbSymbolTableRecord
100
AcDbTextStyleTableRecord
  2
ACISOTS
 70
     0
 40
3.799999999999999
 41
1.0
 50
0.0
 71
     0
 42
3.799999999999999
  3
isocp.shx
  4
extfont.shx
  0
STYLE
  5
C388
330
3
100
AcDbSymbolTableRecord
100
AcDbTextStyleTableRecord
  2
ACISOGDT
 70
     0
 40
0.0
 41
1.0
 50
0.0
 71
     0
 42
2.5
  3
amgdt.shx
  4
extfont.shx
  0
ENDTAB
  0
TABLE
  2
VIEW
  5
6
330
0
100
AcDbSymbolTable
 70
     0
  0
ENDTAB
  0
TABLE
  2
UCS
  5
7
330
0
100
AcDbSymbolTable
 70
     0
  0
ENDTAB
  0
TABLE
  2
APPID
  5
9
330
0
100
AcDbSymbolTable
 70
    33
  0
APPID
  5
12
330
9
100
AcDbSymbolTableRecord
100
AcDbRegAppTableRecord
  2
ACAD
 70
     0
  0
APPID
  5
30
330
9
100
AcDbSymbolTableRecord
100
AcDbRegAppTableRecord
  2
MCAD_NO_VIS
 70
     0
  0
APPID
  5
31
330
9
100
AcDbSymbolTableRecord
100
AcDbRegAppTableRecord
  2
ACAD_TEMP_GRAPHIC
 70
     0
  0
APPID
  5
2C2
330
9
100
AcDbSymbolTableRecord
100
AcDbRegAppTableRecord
  2
GENIUS_GENDTOL_13
 70
     0
  0
APPID
  5
339
330
9
100
AcDbSymbolTableRecord
100
AcDbRegAppTableRecord
  2
GENIUS_GENODEF_13
 70
     0
  0
APPID
  5
33A
330
9
100
AcDbSymbolTableRecord
100
AcDbRegAppTableRecord
  2
GENIUS_GENOBJ-N-RSBK_13
 70
     0
  0
APPID
  5
33B
330
9
100
AcDbSymbolTableRecord
100
AcDbRegAppTableRecord
  2
GENIUS_GENOBJ-N-LIB_13
 70
     0
  0
APPID
  5
33C
330
9
100
AcDbSymbolTableRecord
100
AcDbRegAppTableRecord
  2
GENIUS_GENSCALE_13
 70
     0
  0
APPID
  5
378
330
9
100
AcDbSymbolTableRecord
100
AcDbRegAppTableRecord
  2
GENIUS_GENDIMSH_14
 70
     0
  0
APPID
  5
BB0
330
9
100
AcDbSymbolTableRecord
100
AcDbRegAppTableRecord
  2
GENIUS_GENOBJ-N-CEN_13
 70
     0
  0
APPID
  5
BB1
330
9
100
AcDbSymbolTableRecord
100
AcDbRegAppTableRecord
  2
GENIUS_GENFIL_13
 70
     0
  0
APPID
  5
BB2
330
9
100
AcDbSymbolTableRecord
100
AcDbRegAppTableRecord
  2
GENIUS_GENOBJ-N-CHA_13
 70
     0
  0
APPID
  5
1FAF
330
9
100
AcDbSymbolTableRecord
100
AcDbRegAppTableRecord
  2
GENIUS_GENOBJ-N-CRS_13
 70
     0
  0
APPID
  5
1FB0
330
9
100
AcDbSymbolTableRecord
100
AcDbRegAppTableRecord
  2
GENIUS_GENOENT_13
 70
     0
  0
APPID
  5
1FB1
330
9
100
AcDbSymbolTableRecord
100
AcDbRegAppTableRecord
  2
GENIUS_GENOREF_13
 70
     0
  0
APPID
  5
1FB2
330
9
100
AcDbSymbolTableRecord
100
AcDbRegAppTableRecord
  2
GENIUS_GENOLIS_13
 70
     0
  0
APPID
  5
1FB7
330
9
100
AcDbSymbolTableRecord
100
AcDbRegAppTableRecord
  2
GENIUS_GENOBJ-N-FIL_13
 70
     0
  0
APPID
  5
22A8
330
9
100
AcDbSymbolTableRecord
100
AcDbRegAppTableRecord
  2
GEVID1056506048
 70
     0
  0
APPID
  5
22A9
330
9
100
AcDbSymbolTableRecord
100
AcDbRegAppTableRecord
  2
GEVDC
 70
     0
  0
APPID
  5
22AC
330
9
100
AcDbSymbolTableRecord
100
AcDbRegAppTableRecord
  2
GENIUS_GENBH_13
 70
     0
  0
APPID
  5
22B8
330
9
100
AcDbSymbolTableRecord
100
AcDbRegAppTableRecord
  2
GENIUS_GENOBJ-NBEHI-BHF_13
 70
     0
  0
APPID
  5
22BA
330
9
100
AcDbSymbolTableRecord
100
AcDbRegAppTableRecord
  2
GENIUS_GENOBJ-NBEHI-BHB_13
 70
     0
  0
APPID
  5
35C9
330
9
100
AcDbSymbolTableRecord
100
AcDbRegAppTableRecord
  2
GENIUS_GENREC_14
 70
     0
  0
APPID
  5
35CA
330
9
100
AcDbSymbolTableRecord
100
AcDbRegAppTableRecord
  2
GENIUS_GENOBJ-N-REC_13
 70
     0
  0
APPID
  5
C320
330
9
100
AcDbSymbolTableRecord
100
AcDbRegAppTableRecord
  2
ACATTRIBSERVICES
 70
     0
  0
APPID
  5
C321
330
9
100
AcDbSymbolTableRecord
100
AcDbRegAppTableRecord
  2
AD_DRAW
 70
     0
  0
APPID
  5
C322
330
9
100
AcDbSymbolTableRecord
100
AcDbRegAppTableRecord
  2
DESIGNERASSEMBLIES
 70
     0
  0
APPID
  5
C323
330
9
100
AcDbSymbolTableRecord
100
AcDbRegAppTableRecord
  2
ACADM_DIM_EDIT
 70
     0
  0
APPID
  5
C324
330
9
100
AcDbSymbolTableRecord
100
AcDbRegAppTableRecord
  2
AMDT_DM_ADJ
 70
     0
  0
APPID
  5
C325
330
9
100
AcDbSymbolTableRecord
100
AcDbRegAppTableRecord
  2
ACAD_DSTYLE_DIMTEXT_FILL
 70
     0
  0
APPID
  5
C326
330
9
100
AcDbSymbolTableRecord
100
AcDbRegAppTableRecord
  2
ACAD_PSEXT
 70
     0
  0
APPID
  5
C3D9
330
9
100
AcDbSymbolTableRecord
100
AcDbRegAppTableRecord
  2
GENIUS_GENSCREG_15
 70
     0
  0
APPID
  5
C3DA
330
9
100
AcDbSymbolTableRecord
100
AcDbRegAppTableRecord
  2
GENIUS_GENOBJ-N-SDF_13
 70
     0
  0
ENDTAB
  0
TABLE
  2
DIMSTYLE
  5
A
330
0
100
AcDbSymbolTable
 70
    16
100
AcDbDimStyleTable
 71
     0
  0
DIMSTYLE
105
58
330
A
100
AcDbSymbolTableRecord
100
AcDbDimStyleTableRecord
  2
AM_JIS
 70
     0
  4
"
 41
2.5
 42
1.0
 43
10.0
 44
1.0
 47
0.1
 48
0.1000000001
 73
     0
 74
     0
 77
     3
 78
     8
 79
     2
140
3.799999999999999
141
0.0
143
0.0393701
146
0.71
147
1.5
172
     1
176
   256
177
   256
178
     2
271
     2
272
     2
275
     1
283
     0
284
     8
340
11
341
59
342
59
371
    -1
372
    -1
  0
DIMSTYLE
105
5F
330
A
100
AcDbSymbolTableRecord
100
AcDbDimStyleTableRecord
  2
AM_JIS$3
 70
     0
  4
"
 41
2.5
 42
1.0
 43
10.0
 44
1.0
 47
0.1
 48
0.1000000001
 73
     0
 77
     3
 78
     8
 79
     2
140
3.799999999999999
141
0.0
143
0.0393701
146
0.71
147
1.5
176
   256
177
   256
178
     2
271
     2
272
     2
275
     1
283
     0
284
     8
288
     1
289
     0
340
11
341
59
342
59
371
    -1
372
    -1
  0
DIMSTYLE
105
60
330
A
100
AcDbSymbolTableRecord
100
AcDbDimStyleTableRecord
  2
AM_JIS$4
 70
     0
  4
"
 41
2.5
 42
1.0
 43
10.0
 44
1.0
 47
0.1
 48
0.1000000001
 73
     0
 77
     3
 78
     8
 79
     2
140
3.799999999999999
141
0.0
143
0.0393701
146
0.71
147
1.5
176
   256
177
   256
178
     2
271
     2
272
     2
275
     1
283
     0
284
     8
288
     1
289
     0
340
11
341
59
342
59
371
    -1
372
    -1
  0
DIMSTYLE
105
61
330
A
100
AcDbSymbolTableRecord
100
AcDbDimStyleTableRecord
  2
AM_JIS$6
 70
     0
  4
"
 41
2.5
 42
1.0
 43
10.0
 44
1.0
 47
0.1
 48
0.1000000001
 73
     0
 74
     0
 78
     8
 79
     2
140
3.799999999999999
141
0.0
143
0.0393701
146
0.71
147
1.5
172
     1
176
   256
177
   256
178
     2
271
     2
272
     2
275
     1
283
     0
284
     8
340
11
341
59
342
59
371
    -1
372
    -1
  0
DIMSTYLE
105
62
330
A
100
AcDbSymbolTableRecord
100
AcDbDimStyleTableRecord
  2
AM_JIS$7
 70
     0
  4
"
 41
2.5
 42
1.0
 43
10.0
 44
1.0
 47
0.1
 48
0.1000000001
 73
     0
 74
     0
 77
     3
 78
     8
 79
     2
140
5.0
141
0.0
143
0.0393701
146
0.71
147
1.5
172
     1
176
   256
177
   256
178
     2
271
     2
272
     2
275
     1
283
     0
284
     8
340
11
341
59
342
59
371
    -1
372
    -1
  0
DIMSTYLE
105
63
330
A
100
AcDbSymbolTableRecord
100
AcDbDimStyleTableRecord
  2
AM_JIS$SF
 70
     0
  4
"
 41
2.5
 42
1.0
 43
10.0
 44
1.0
 47
0.1
 48
0.1
 73
     0
 74
     0
 75
     1
 76
     1
 77
     3
 78
     8
 79
     2
140
3.5
141
0.0
143
0.0393701
146
0.71
147
1.5
172
     1
176
   256
177
   256
178
     2
271
     2
272
     3
274
     4
283
     0
284
     8
340
11
341
59
342
59
343
59
344
59
371
    -1
372
    -1
  0
DIMSTYLE
105
68
330
A
100
AcDbSymbolTableRecord
100
AcDbDimStyleTableRecord
  2
AM_JIS$SH
 70
     0
  4
"
 41
2.5
 42
1.0
 43
10.0
 44
1.0
 47
0.1
 48
0.1
 73
     0
 74
     0
 75
     1
 76
     1
 77
     3
 78
     8
 79
     2
140
3.5
141
0.0
143
0.0393701
144
2.0
146
0.71
147
1.5
172
     1
173
     1
176
   256
177
   256
178
     2
271
     2
272
     3
274
     4
283
     0
284
     8
340
11
341
59
342
59
343
64
344
59
371
    -1
372
    -1
  0
DIMSTYLE
105
B34
330
A
100
AcDbSymbolTableRecord
100
AcDbDimStyleTableRecord
  2
AM_JIS$2
 70
     0
  4
"
 41
2.5
 42
1.0
 43
12.0
 44
1.0
 47
0.1
 48
0.1
 73
     0
 74
     0
 77
     3
 78
     8
140
3.2
141
0.0
143
0.0393701
146
0.71
147
1.5
172
     1
176
   256
177
   256
178
     2
271
     3
272
     3
283
     0
340
6B
341
59
342
59
  0
DIMSTYLE
105
3B48
102
{ACAD_REACTORS
330
BAEB
330
BB77
330
BCCC
330
BDF0
330
BD58
330
BC33
102
}
330
A
100
AcDbSymbolTableRecord
100
AcDbDimStyleTableRecord
  2
AM_JIS$0
 70
     0
  4
"
 41
2.5
 42
0.0
 43
10.0
 44
1.0
 47
0.1
 48
0.1000000001
 73
     0
 74
     0
 77
     3
 78
     1
140
3.799999999999998
141
0.0
143
0.0393701
146
0.71
147
1.5
172
     1
176
     3
177
     3
178
     2
271
     2
272
     2
275
     1
283
     0
284
     8
340
11
341
59
342
59
  0
DIMSTYLE
105
C3A3
330
A
100
AcDbSymbolTableRecord
100
AcDbDimStyleTableRecord
  2
AM_ISO
 70
     0
  4
"
 41
2.5
 42
1.0
 43
10.0
 44
1.0
 47
0.1
 48
0.1
 73
     0
 74
     0
 77
     1
 78
     8
 79
     2
140
3.5
141
0.0
143
0.0393701
146
0.71
147
1.5
172
     1
176
   256
177
   256
178
     2
271
     2
272
     3
274
     4
283
     0
284
     8
340
11
371
    -1
372
    -1
  0
DIMSTYLE
105
C3A4
330
A
100
AcDbSymbolTableRecord
100
AcDbDimStyleTableRecord
  2
AM_ISO$3
 70
     0
  4
"
 41
2.5
 42
1.0
 43
10.0
 44
1.0
 47
0.1
 48
0.1
 73
     0
 77
     1
 78
     8
 79
     2
140
3.5
141
0.0
143
0.0393701
146
0.71
147
1.5
176
   256
177
   256
178
     2
271
     2
272
     3
274
     4
283
     0
284
     8
288
     1
289
     0
340
11
371
    -1
372
    -1
  0
DIMSTYLE
105
C3A5
330
A
100
AcDbSymbolTableRecord
100
AcDbDimStyleTableRecord
  2
AM_ISO$4
 70
     0
  4
"
 41
2.5
 42
1.0
 43
10.0
 44
1.0
 47
0.1
 48
0.1
 73
     0
 77
     1
 78
     8
 79
     2
140
3.5
141
0.0
143
0.0393701
146
0.71
147
1.5
176
   256
177
   256
178
     2
271
     2
272
     3
274
     4
283
     0
284
     8
288
     1
289
     0
340
11
371
    -1
372
    -1
  0
DIMSTYLE
105
C3A6
330
A
100
AcDbSymbolTableRecord
100
AcDbDimStyleTableRecord
  2
AM_ISO$6
 70
     0
  4
"
 41
2.5
 42
1.0
 43
10.0
 44
1.0
 47
0.1
 48
0.1
 73
     0
 74
     0
 78
     8
 79
     2
140
3.5
141
0.0
143
0.0393701
146
0.71
147
1.5
172
     1
176
   256
177
   256
178
     2
271
     2
272
     3
274
     4
283
     0
284
     8
340
11
371
    -1
372
    -1
  0
DIMSTYLE
105
C3A7
330
A
100
AcDbSymbolTableRecord
100
AcDbDimStyleTableRecord
  2
AM_ISO$7
 70
     0
  4
"
 41
2.5
 42
1.0
 43
10.0
 44
1.0
 47
0.1
 48
0.1
 73
     0
 74
     0
 77
     1
 78
     8
 79
     2
140
5.0
141
0.0
143
0.0393701
146
0.71
147
1.5
172
     1
176
   256
177
   256
178
     2
271
     2
272
     3
274
     4
283
     0
284
     8
340
11
371
    -1
372
    -1
  0
DIMSTYLE
105
C3A8
330
A
100
AcDbSymbolTableRecord
100
AcDbDimStyleTableRecord
  2
AM_ISO$SF
 70
     0
  4
"
 41
2.5
 42
1.0
 43
10.0
 44
1.0
 47
0.1
 48
0.1
 73
     0
 74
     0
 75
     1
 76
     1
 77
     1
 78
     8
 79
     2
140
3.5
141
0.0
143
0.0393701
146
0.71
147
1.5
172
     1
176
   256
177
   256
178
     2
271
     2
272
     3
274
     4
283
     0
284
     8
340
11
371
    -1
372
    -1
  0
DIMSTYLE
105
C3A9
330
A
100
AcDbSymbolTableRecord
100
AcDbDimStyleTableRecord
  2
AM_ISO$SH
 70
     0
  4
"
 41
2.5
 42
1.0
 43
10.0
 44
1.0
 47
0.1
 48
0.1
 73
     0
 74
     0
 75
     1
 76
     1
 77
     1
 78
     8
 79
     2
140
3.5
141
0.0
143
0.0393701
144
2.0
146
0.71
147
1.5
172
     1
173
     1
176
   256
177
   256
178
     2
271
     2
272
     3
274
     4
283
     0
284
     8
340
11
343
64
371
    -1
372
    -1
  0
ENDTAB
  0
TABLE
  2
BLOCK_RECORD
  5
1
330
0
100
AcDbSymbolTable
 70
     9
  0
BLOCK_RECORD
  5
1F
102
{ACAD_XDICTIONARY
360
74
102
}
330
1
100
AcDbSymbolTableRecord
100
AcDbBlockTableRecord
  2
*MODEL_SPACE
340
C31B
  0
BLOCK_RECORD
  5
101
102
{ACAD_XDICTIONARY
360
C2D9
102
}
330
1
100
AcDbSymbolTableRecord
100
AcDbBlockTableRecord
  2
*PAPER_SPACE
340
C31C
  0
BLOCK_RECORD
  5
59
330
1
100
AcDbSymbolTableRecord
100
AcDbBlockTableRecord
  2
_Open30
340
0
  0
BLOCK_RECORD
  5
64
330
1
100
AcDbSymbolTableRecord
100
AcDbBlockTableRecord
  2
GENAXEH
340
0
  0
BLOCK_RECORD
  5
BAEC
330
1
100
AcDbSymbolTableRecord
100
AcDbBlockTableRecord
  2
*D2
340
0
  0
BLOCK_RECORD
  5
BB78
330
1
100
AcDbSymbolTableRecord
100
AcDbBlockTableRecord
  2
*D3
340
0
  0
BLOCK_RECORD
  5
BC34
330
1
100
AcDbSymbolTableRecord
100
AcDbBlockTableRecord
  2
*D4
340
0
  0
BLOCK_RECORD
  5
BCCD
330
1
100
AcDbSymbolTableRecord
100
AcDbBlockTableRecord
  2
*D5
340
0
  0
BLOCK_RECORD
  5
BD59
330
1
100
AcDbSymbolTableRecord
100
AcDbBlockTableRecord
  2
*D6
340
0
  0
BLOCK_RECORD
  5
BDF1
330
1
100
AcDbSymbolTableRecord
100
AcDbBlockTableRecord
  2
*D7
340
0
  0
ENDTAB
  0
ENDSEC
  0
SECTION
  2
BLOCKS
  0
BLOCK
  5
20
330
1F
100
AcDbEntity
  8
0
100
AcDbBlockBegin
  2
*MODEL_SPACE
 70
     0
 10
0.0
 20
0.0
 30
0.0
  3
*MODEL_SPACE
  1

  0
ENDBLK
  5
21
330
1F
100
AcDbEntity
  8
0
100
AcDbBlockEnd
  0
BLOCK
  5
103
330
101
100
AcDbEntity
 67
     1
  8
0
100
AcDbBlockBegin
  2
*PAPER_SPACE
 70
     0
 10
0.0
 20
0.0
 30
0.0
  3
*PAPER_SPACE
  1

  0
ENDBLK
  5
104
330
101
100
AcDbEntity
 67
     1
  8
0
100
AcDbBlockEnd
  0
BLOCK
  5
C3CB
330
59
100
AcDbEntity
  8
0
100
AcDbBlockBegin
  2
_Open30
 70
     0
 10
0.0
 20
0.0
 30
0.0
  3
_Open30
  1

  0
LINE
  5
C3CC
330
59
100
AcDbEntity
  8
0
  6
ByBlock
 62
     0
370
    -2
100
AcDbLine
 10
-1.0
 20
0.26794919
 30
0.0
 11
0.0
 21
0.0
 31
0.0
  0
LINE
  5
C3CD
330
59
100
AcDbEntity
  8
0
  6
ByBlock
 62
     0
370
    -2
100
AcDbLine
 10
0.0
 20
0.0
 30
0.0
 11
-1.0
 21
-0.26794919
 31
0.0
  0
LINE
  5
C3CE
330
59
100
AcDbEntity
  8
0
  6
ByBlock
 62
     0
370
    -2
100
AcDbLine
 10
0.0
 20
0.0
 30
0.0
 11
-1.0
 21
0.0
 31
0.0
  0
ENDBLK
  5
C3CF
330
59
100
AcDbEntity
  8
0
100
AcDbBlockEnd
  0
BLOCK
  5
C3AB
330
64
100
AcDbEntity
  8
0
100
AcDbBlockBegin
  2
GENAXEH
 70
     0
 10
0.0
 20
0.0
 30
0.0
  3
GENAXEH
  1

  0
LINE
  5
C3AC
330
64
100
AcDbEntity
  8
0
100
AcDbLine
 10
-1.0
 20
0.0
 30
0.0
 11
1.0
 21
0.0
 31
0.0
  0
ENDBLK
  5
C3AD
330
64
100
AcDbEntity
  8
0
100
AcDbBlockEnd
  0
BLOCK
  5
BAF6
330
BAEC
100
AcDbEntity
  8
0
100
AcDbBlockBegin
  2
*D2
 70
     1
 10
0.0
 20
0.0
 30
0.0
  3
*D2
  1

  0
LINE
  5
C2DB
330
BAEC
100
AcDbEntity
  8
AM_5
100
AcDbLine
 10
-0.0000000000003634
 20
26.94800186157209
 30
0.0
 11
-0.0000000000003658
 21
39.96091165254305
 31
0.0
  0
LINE
  5
C2DC
330
BAEC
100
AcDbEntity
  8
AM_5
100
AcDbLine
 10
-61.00000000000036
 20
26.96091165254303
 30
0.0
 11
-61.00000000000036
 21
39.96091165254304
 31
0.0
  0
LINE
  5
C2DD
330
BAEC
100
AcDbEntity
  8
AM_5
100
AcDbLine
 10
-2.500000000000365
 20
38.96091165254305
 30
0.0
 11
-58.50000000000036
 21
38.96091165254304
 31
0.0
  0
INSERT
  5
C2DE
330
BAEC
100
AcDbEntity
  8
AM_5
100
AcDbBlockReference
  2
_Open30
 10
-0.0000000000003656
 20
38.96091165254305
 30
0.0
 41
2.5
 42
2.5
 43
2.5
  0
INSERT
  5
C2DF
330
BAEC
100
AcDbEntity
  8
AM_5
100
AcDbBlockReference
  2
_Open30
 10
-61.00000000000036
 20
38.96091165254304
 30
0.0
 41
2.5
 42
2.5
 43
2.5
 50
180.0
  0
MTEXT
  5
C2E0
330
BAEC
100
AcDbEntity
  8
AM_5
 62
     2
100
AcDbMText
 10
-30.50000000000036
 20
41.56091165254305
 30
0.0
 40
3.2
 41
0.0
 71
     5
 72
     1
  1
61
  7
ASAMI
 73
     1
 44
1.0
1001
ACAD
1000
MTEXTBEGIN
1070
    73
1070
     1
1070
    44
1040
1.0
1070
    74
1070
     0
1000
MTEXTEND
  0
POINT
  5
C2E1
330
BAEC
100
AcDbEntity
  8
DEFPOINTS
 62
     0
100
AcDbPoint
 10
-0.0000000000003126
 20
24.94800186157209
 30
0.0
  0
POINT
  5
C2E2
330
BAEC
100
AcDbEntity
  8
DEFPOINTS
 62
     0
100
AcDbPoint
 10
-61.00000000000031
 20
24.96091165254316
 30
0.0
  0
POINT
  5
C2E3
330
BAEC
100
AcDbEntity
  8
DEFPOINTS
 62
     0
100
AcDbPoint
 10
-61.00000000000028
 20
38.96091165254316
 30
0.0
  0
ENDBLK
  5
BAF7
330
BAEC
100
AcDbEntity
  8
0
100
AcDbBlockEnd
  0
BLOCK
  5
BB82
330
BB78
100
AcDbEntity
  8
0
100
AcDbBlockBegin
  2
*D3
 70
     1
 10
0.0
 20
0.0
 30
0.0
  3
*D3
  1

  0
LINE
  5
C2E4
330
BB78
100
AcDbEntity
  8
AM_5
100
AcDbLine
 10
1.99999999999963
 20
24.9480018615721
 30
0.0
 11
14.99999999999974
 21
24.94800186157212
 31
0.0
  0
LINE
  5
C2E5
330
BB78
100
AcDbEntity
  8
AM_5
100
AcDbLine
 10
1.999999999999828
 20
-24.9480009078978
 30
0.0
 11
14.99999999999984
 21
-24.94800090789778
 31
0.0
  0
LINE
  5
C2E6
330
BB78
100
AcDbEntity
  8
AM_5
100
AcDbLine
 10
13.99999999999974
 20
22.44800186157212
 30
0.0
 11
13.99999999999983
 21
-22.44800090789778
 31
0.0
  0
INSERT
  5
C2E7
330
BB78
100
AcDbEntity
  8
AM_5
100
AcDbBlockReference
  2
_Open30
 10
13.99999999999973
 20
24.94800186157212
 30
0.0
 41
2.5
 42
2.5
 43
2.5
 50
90.0000000000001
  0
INSERT
  5
C2E8
330
BB78
100
AcDbEntity
  8
AM_5
100
AcDbBlockReference
  2
_Open30
 10
13.99999999999983
 20
-24.94800090789778
 30
0.0
 41
2.5
 42
2.5
 43
2.5
 50
270.0000000000001
  0
MTEXT
  5
C2E9
330
BB78
100
AcDbEntity
  8
AM_5
 62
     2
100
AcDbMText
 10
11.39999999999979
 20
0.0000004768371665
 30
0.0
 40
3.2
 41
0.0
 71
     5
 72
     1
  1
%%c50
  7
ASAMI
 11
-0.000000000000002
 21
1.0
 31
0.0
 73
     1
 44
1.0
1001
ACAD
1000
MTEXTBEGIN
1070
    73
1070
     1
1070
    44
1040
1.0
1070
    74
1070
     0
1000
MTEXTEND
  0
POINT
  5
C2EA
330
BB78
100
AcDbEntity
  8
DEFPOINTS
 62
     0
100
AcDbPoint
 10
-0.0000000000003126
 20
24.94800186157209
 30
0.0
  0
POINT
  5
C2EB
330
BB78
100
AcDbEntity
  8
DEFPOINTS
 62
     0
100
AcDbPoint
 10
-0.0000000000002274
 20
-24.9480009078978
 30
0.0
  0
POINT
  5
C2EC
330
BB78
100
AcDbEntity
  8
DEFPOINTS
 62
     0
100
AcDbPoint
 10
13.99999999999978
 20
-24.94800090789781
 30
0.0
  0
ENDBLK
  5
BB83
330
BB78
100
AcDbEntity
  8
0
100
AcDbBlockEnd
  0
BLOCK
  5
BC3E
330
BC34
100
AcDbEntity
  8
0
100
AcDbBlockBegin
  2
*D4
 70
     1
 10
0.0
 20
0.0
 30
0.0
  3
*D4
  1

  0
LINE
  5
C2ED
330
BC34
100
AcDbEntity
  8
AM_5
100
AcDbLine
 10
-163.9690093994133
 20
21.0000038146965
 30
0.0
 11
-179.9692387580868
 21
21.00000381469647
 31
0.0
  0
LINE
  5
C2EE
330
BC34
100
AcDbEntity
  8
AM_5
100
AcDbLine
 10
-163.9690017700191
 20
-21.00000000000048
 30
0.0
 11
-179.9692387580867
 21
-21.00000000000052
 31
0.0
  0
LINE
  5
C2EF
330
BC34
100
AcDbEntity
  8
AM_5
100
AcDbLine
 10
-178.9692387580868
 20
18.50000381469647
 30
0.0
 11
-178.9692387580867
 21
-18.50000000000052
 31
0.0
  0
INSERT
  5
C2F0
330
BC34
100
AcDbEntity
  8
AM_5
100
AcDbBlockReference
  2
_Open30
 10
-178.9692387580868
 20
21.00000381469647
 30
0.0
 41
2.5
 42
2.5
 43
2.5
 50
90.0000000000001
  0
INSERT
  5
C2F1
330
BC34
100
AcDbEntity
  8
AM_5
100
AcDbBlockReference
  2
_Open30
 10
-178.9692387580867
 20
-21.00000000000052
 30
0.0
 41
2.5
 42
2.5
 43
2.5
 50
270.0000000000001
  0
MTEXT
  5
C2F2
330
BC34
100
AcDbEntity
  8
AM_5
 62
     2
100
AcDbMText
 10
-181.5692387580868
 20
0.0000019073479787
 30
0.0
 40
3.2
 41
0.0
 71
     5
 72
     1
  1
%%c42
  7
ASAMI
 11
-0.000000000000002
 21
1.0
 31
0.0
 73
     1
 44
1.0
1001
ACAD
1000
MTEXTBEGIN
1070
    73
1070
     1
1070
    44
1040
1.0
1070
    74
1070
     0
1000
MTEXTEND
  0
POINT
  5
C2F3
330
BC34
100
AcDbEntity
  8
DEFPOINTS
 62
     0
100
AcDbPoint
 10
-161.9690093994133
 20
21.00000381469687
 30
0.0
  0
POINT
  5
C2F4
330
BC34
100
AcDbEntity
  8
DEFPOINTS
 62
     0
100
AcDbPoint
 10
-161.9690017700192
 20
-21.00000000000012
 30
0.0
  0
POINT
  5
C2F5
330
BC34
100
AcDbEntity
  8
DEFPOINTS
 62
     0
100
AcDbPoint
 10
-178.9692387580868
 20
-21.00000000000012
 30
0.0
  0
ENDBLK
  5
BC3F
330
BC34
100
AcDbEntity
  8
0
100
AcDbBlockEnd
  0
BLOCK
  5
BCD7
330
BCCD
100
AcDbEntity
  8
0
100
AcDbBlockBegin
  2
*D5
 70
     1
 10
0.0
 20
0.0
 30
0.0
  3
*D5
  1

  0
LINE
  5
C2F6
330
BCCD
100
AcDbEntity
  8
AM_5
100
AcDbLine
 10
-0.000000000000173
 20
-26.9480009078978
 30
0.0
 11
-0.0000000000001474
 21
-39.99999999999984
 31
0.0
  0
LINE
  5
C2F7
330
BCCD
100
AcDbEntity
  8
AM_5
100
AcDbLine
 10
-74.969001293182
 20
-24.75000000000011
 30
0.0
 11
-74.96900129318198
 21
-40.0
 31
0.0
  0
LINE
  5
C2F8
330
BCCD
100
AcDbEntity
  8
AM_5
100
AcDbLine
 10
-2.500000000000149
 20
-38.99999999999985
 30
0.0
 11
-72.46900129318198
 21
-39.0
 31
0.0
  0
INSERT
  5
C2F9
330
BCCD
100
AcDbEntity
  8
AM_5
100
AcDbBlockReference
  2
_Open30
 10
-0.0000000000001494
 20
-38.99999999999984
 30
0.0
 41
2.5
 42
2.5
 43
2.5
 50
0.0000000000001018
  0
INSERT
  5
C2FA
330
BCCD
100
AcDbEntity
  8
AM_5
100
AcDbBlockReference
  2
_Open30
 10
-74.96900129318198
 20
-39.0
 30
0.0
 41
2.5
 42
2.5
 43
2.5
 50
180.0000000000001
  0
MTEXT
  5
C2FB
330
BCCD
100
AcDbEntity
  8
AM_5
 62
     2
100
AcDbMText
 10
-37.48450064659107
 20
-36.39999999999992
 30
0.0
 40
3.2
 41
0.0
 71
     5
 72
     1
  1
75
  7
ASAMI
 73
     1
 44
1.0
1001
ACAD
1000
MTEXTBEGIN
1070
    73
1070
     1
1070
    44
1040
1.0
1070
    74
1070
     0
1000
MTEXTEND
  0
POINT
  5
C2FC
330
BCCD
100
AcDbEntity
  8
DEFPOINTS
 62
     0
100
AcDbPoint
 10
-0.0000000000002274
 20
-24.9480009078978
 30
0.0
  0
POINT
  5
C2FD
330
BCCD
100
AcDbEntity
  8
DEFPOINTS
 62
     0
100
AcDbPoint
 10
-74.96900129318206
 20
-22.74999999999995
 30
0.0
  0
POINT
  5
C2FE
330
BCCD
100
AcDbEntity
  8
DEFPOINTS
 62
     0
100
AcDbPoint
 10
-74.96900129318206
 20
-38.99999999999984
 30
0.0
  0
ENDBLK
  5
BCD8
330
BCCD
100
AcDbEntity
  8
0
100
AcDbBlockEnd
  0
BLOCK
  5
BD63
330
BD59
100
AcDbEntity
  8
0
100
AcDbBlockBegin
  2
*D6
 70
     1
 10
0.0
 20
0.0
 30
0.0
  3
*D6
  1

  0
LINE
  5
C2FF
330
BD59
100
AcDbEntity
  8
AM_5
100
AcDbLine
 10
-74.96900629997219
 20
-24.7499980926511
 30
0.0
 11
-74.96900629997217
 21
-39.99999999999998
 31
0.0
  0
LINE
  5
C300
330
BD59
100
AcDbEntity
  8
AM_5
100
AcDbLine
 10
-164.9692387580867
 20
-20.66099929809647
 30
0.0
 11
-164.9692387580867
 21
-40.00000000000015
 31
0.0
  0
LINE
  5
C301
330
BD59
100
AcDbEntity
  8
AM_5
100
AcDbLine
 10
-77.46900629997217
 20
-39.0
 30
0.0
 11
-162.4692387580866
 21
-39.00000000000016
 31
0.0
  0
INSERT
  5
C302
330
BD59
100
AcDbEntity
  8
AM_5
100
AcDbBlockReference
  2
_Open30
 10
-74.96900629997217
 20
-38.99999999999998
 30
0.0
 41
2.5
 42
2.5
 43
2.5
 50
0.0000000000001018
  0
INSERT
  5
C303
330
BD59
100
AcDbEntity
  8
AM_5
100
AcDbBlockReference
  2
_Open30
 10
-164.9692387580867
 20
-39.00000000000017
 30
0.0
 41
2.5
 42
2.5
 43
2.5
 50
180.0000000000001
  0
MTEXT
  5
C304
330
BD59
100
AcDbEntity
  8
AM_5
 62
     2
100
AcDbMText
 10
-119.9691225290294
 20
-36.40000000000007
 30
0.0
 40
3.2
 41
0.0
 71
     5
 72
     1
  1
90
  7
ASAMI
 73
     1
 44
1.0
1001
ACAD
1000
MTEXTBEGIN
1070
    73
1070
     1
1070
    44
1040
1.0
1070
    74
1070
     0
1000
MTEXTEND
  0
POINT
  5
C305
330
BD59
100
AcDbEntity
  8
DEFPOINTS
 62
     0
100
AcDbPoint
 10
-74.96900629997225
 20
-22.74999809265095
 30
0.0
  0
POINT
  5
C306
330
BD59
100
AcDbEntity
  8
DEFPOINTS
 62
     0
100
AcDbPoint
 10
-164.9692387580868
 20
-18.66099929809614
 30
0.0
  0
POINT
  5
C307
330
BD59
100
AcDbEntity
  8
DEFPOINTS
 62
     0
100
AcDbPoint
 10
-164.9692387580868
 20
-38.99999999999984
 30
0.0
  0
ENDBLK
  5
BD64
330
BD59
100
AcDbEntity
  8
0
100
AcDbBlockEnd
  0
BLOCK
  5
BDFB
330
BDF1
100
AcDbEntity
  8
0
100
AcDbBlockBegin
  2
*D7
 70
     1
 10
0.0
 20
0.0
 30
0.0
  3
*D7
  1

  0
LINE
  5
C308
330
BDF1
100
AcDbEntity
  8
AM_5
100
AcDbLine
 10
-164.9692387580867
 20
-20.66099929809647
 30
0.0
 11
-164.9692387580867
 21
-50.00000000000017
 31
0.0
  0
LINE
  5
C309
330
BDF1
100
AcDbEntity
  8
AM_5
100
AcDbLine
 10
-0.0000000000001658
 20
-26.99999999999984
 30
0.0
 11
-0.0000000000001207
 21
-49.99999999999985
 31
0.0
  0
LINE
  5
C30A
330
BDF1
100
AcDbEntity
  8
AM_5
100
AcDbLine
 10
-162.4692387580866
 20
-49.00000000000017
 30
0.0
 11
-2.500000000000122
 21
-48.99999999999985
 31
0.0
  0
INSERT
  5
C30B
330
BDF1
100
AcDbEntity
  8
AM_5
100
AcDbBlockReference
  2
_Open30
 10
-164.9692387580867
 20
-49.00000000000019
 30
0.0
 41
2.5
 42
2.5
 43
2.5
 50
180.0000000000001
  0
INSERT
  5
C30C
330
BDF1
100
AcDbEntity
  8
AM_5
100
AcDbBlockReference
  2
_Open30
 10
-0.0000000000001227
 20
-48.99999999999985
 30
0.0
 41
2.5
 42
2.5
 43
2.5
 50
0.0000000000001018
  0
MTEXT
  5
C30D
330
BDF1
100
AcDbEntity
  8
AM_5
 62
     2
100
AcDbMText
 10
-82.48461937904343
 20
-46.39999999999999
 30
0.0
 40
3.2
 41
0.0
 71
     5
 72
     1
  1
165
  7
ASAMI
 73
     1
 44
1.0
1001
ACAD
1000
MTEXTBEGIN
1070
    73
1070
     1
1070
    44
1040
1.0
1070
    74
1070
     0
1000
MTEXTEND
  0
POINT
  5
C30E
330
BDF1
100
AcDbEntity
  8
DEFPOINTS
 62
     0
100
AcDbPoint
 10
-164.9692387580868
 20
-18.66099929809614
 30
0.0
  0
POINT
  5
C30F
330
BDF1
100
AcDbEntity
  8
DEFPOINTS
 62
     0
100
AcDbPoint
 10
-0.0000000000002203
 20
-24.99999999999984
 30
0.0
  0
POINT
  5
C310
330
BDF1
100
AcDbEntity
  8
DEFPOINTS
 62
     0
100
AcDbPoint
 10
-0.0000000000002217
 20
-48.99999999999985
 30
0.0
  0
ENDBLK
  5
BDFC
330
BDF1
100
AcDbEntity
  8
0
100
AcDbBlockEnd
  0
ENDSEC
  0
SECTION
  2
ENTITIES
  0
TEXT
  5
388D
330
1F
100
AcDbEntity
  8
AM_6
100
AcDbText
 10
-118.7941431885672
 20
-71.49999999999991
 30
0.0
 40
5.0
  1
WRM30R5061E-S42
 50
359.9999999999998
 51
359.9999999999998
 72
     4
 11
-82.48461937904339
 21
-69.00000000000002
 31
0.0
100
AcDbText
  0
ELLIPSE
  5
B581
330
1F
100
AcDbEntity
  8
AM_0
100
AcDbEllipse
 10
-60.33400726318328
 20
0.0000000000000488
 30
0.0
 11
12.21521027061803
 21
-23.68229745801897
 31
0.0
210
0.0
220
0.0
230
1.0
 40
0.1428304926982
 41
2.807334968286204
 42
3.067591520999326
  0
ELLIPSE
  5
B582
330
1F
100
AcDbEntity
  8
AM_0
100
AcDbEllipse
 10
-60.33400344848627
 20
0.0000000000000488
 30
0.0
 11
-12.20556330736605
 21
-23.68727082623502
 31
0.0
210
0.0
220
0.0
230
1.0
 40
0.1428305374347
 41
0.0769167075616525
 42
0.3369939459164391
  0
ELLIPSE
  5
B583
330
1F
100
AcDbEntity
  8
AM_0
100
AcDbEllipse
 10
-62.8580017089841
 20
0.0000000000000399
 30
0.0
 11
302.0024826284979
 21
-11.35839813319547
 31
0.0
210
0.0
220
0.0
230
1.0
 40
0.069225319938
 41
4.685052624628181
 42
4.703957511440626
  0
SPLINE
  5
B584
330
1F
100
AcDbEntity
  8
AM_0
100
AcDbSpline
210
0.0
220
0.0
230
1.0
 70
     8
 71
     3
 72
    11
 73
     7
 74
     5
 42
0.0000000001
 43
0.0000000001
 44
0.0000000001
 40
0.0
 40
0.0
 40
0.0
 40
0.0
 40
0.3647234603580787
 40
0.7504624427934719
 40
1.148957652807546
 40
1.547164861920092
 40
1.547164861920092
 40
1.547164861920092
 40
1.547164861920092
 10
-71.88799998164151
 20
9.748001098633018
 30
0.0
 10
-71.84048620463404
 20
9.863928789784432
 30
0.0
 10
-71.74272088642736
 20
10.1024639753288
 30
0.0
 10
-71.38267647623516
 20
10.28757080073543
 30
0.0
 10
-71.0017178800555
 20
10.38760768245562
 30
0.0
 10
-70.73454381790359
 20
10.38453640908247
 30
0.0
 10
-70.6010050773618
 20
10.38300132751503
 30
0.0
 11
-71.88799998164151
 21
9.748001098633018
 31
0.0
 11
-71.71300455927822
 21
10.06800079345702
 31
0.0
 11
-71.38500162959073
 21
10.27099990844702
 31
0.0
 11
-70.99900001287434
 21
10.37000083923304
 31
0.0
 11
-70.6010050773618
 21
10.38300132751503
 31
0.0
  0
ELLIPSE
  5
B585
330
1F
100
AcDbEntity
  8
AM_0
100
AcDbEllipse
 10
-45.75100326538128
 20
0.000000000000072
 30
0.0
 11
23.34353893169903
 21
-16.93420064923897
 31
0.0
210
0.0
220
0.0
230
1.0
 40
0.7135128560678002
 41
3.512140558521745
 42
4.381754732843466
  0
LINE
  5
B586
330
1F
100
AcDbEntity
  8
AM_7
100
AcDbLine
 10
6.114334106444715
 20
0.0000000000001705
 30
0.0
 11
-170.3940048217763
 21
-0.0000000000001421
 31
0.0
  0
LINE
  5
B587
330
1F
100
AcDbEntity
  8
AM_0
100
AcDbLine
 10
-71.8880048245189
 20
9.748004913330028
 30
0.0
 11
-63.36299991607638
 21
6.194000244141032
 31
0.0
  0
SPLINE
  5
B5C4
330
1F
100
AcDbEntity
  8
AM_0
100
AcDbSpline
210
0.0
220
0.0
230
1.0
 70
     8
 71
     3
 72
    11
 73
     7
 74
     5
 42
0.0000000001
 43
0.0000000001
 44
0.0000000001
 40
0.0
 40
0.0
 40
0.0
 40
0.0
 40
0.4315081326682518
 40
0.8584256360467719
 40
1.282425574725465
 40
1.706869979345625
 40
1.706869979345625
 40
1.706869979345625
 40
1.706869979345625
 10
-27.39099884033232
 20
15.59500122070309
 30
0.0
 10
-27.25034560135508
 20
15.62552760191804
 30
0.0
 10
-26.97053547266881
 20
15.68625560731762
 30
0.0
 10
-26.56411672714144
 20
15.82084743556951
 30
0.0
 10
-26.17071588929405
 20
15.98355603761638
 30
0.0
 10
-25.92161859359502
 20
16.11782820989938
 30
0.0
 10
-25.79700469970731
 20
16.1849994659421
 30
0.0
 11
-27.39099884033232
 21
15.59500122070309
 31
0.0
 11
-26.97100067138731
 21
15.6940002441411
 31
0.0
 11
-26.56500244140631
 21
15.82600021362309
 31
0.0
 11
-26.1740036010743
 21
15.9899997711181
 31
0.0
 11
-25.79700469970731
 21
16.1849994659421
 31
0.0
  0
ELLIPSE
  5
B5C5
330
1F
100
AcDbEntity
  8
AM_0
100
AcDbEllipse
 10
-16.54900360107427
 20
0.0000000000001328
 30
0.0
 11
302.0024826284981
 21
-11.35839813319548
 31
0.0
210
0.0
220
0.0
230
1.0
 40
0.069225319938
 41
4.563216153887733
 42
4.598593814932494
  0
SPLINE
  5
B5C6
330
1F
100
AcDbEntity
  8
AM_0
100
AcDbSpline
210
0.0
220
0.0
230
1.0
 70
     8
 71
     3
 72
    11
 73
     7
 74
     5
 42
0.0000000001
 43
0.0000000001
 44
0.0000000001
 40
0.0
 40
0.0
 40
0.0
 40
0.0
 40
1.816002167117695
 40
3.614309110155532
 40
5.396567193353712
 40
7.162515826633257
 40
7.162515826633257
 40
7.162515826633257
 40
7.162515826633257
 10
-24.76499938964833
 20
24.7530012130741
 30
0.0
 10
-25.3703478110409
 20
24.75579502542518
 30
0.0
 10
-26.57514610581941
 20
24.76135542706752
 30
0.0
 10
-28.37378800752243
 20
24.72599776155139
 30
0.0
 10
-30.15496859799378
 20
24.66201520899707
 30
0.0
 10
-31.33546770069219
 20
24.58855985597717
 30
0.0
 10
-31.92300415039134
 20
24.55200099945109
 30
0.0
 11
-24.76499938964833
 21
24.7530012130741
 31
0.0
 11
-26.58100128173834
 21
24.75400066375709
 31
0.0
 11
-28.37900543212933
 21
24.72100162506109
 31
0.0
 11
-30.16000366210932
 21
24.65400028228809
 31
0.0
 11
-31.92300415039134
 21
24.55200099945109
 31
0.0
  0
SPLINE
  5
B5C7
330
1F
100
AcDbEntity
  8
AM_0
100
AcDbSpline
210
0.0
220
0.0
230
1.0
 70
     8
 71
     3
 72
    11
 73
     7
 74
     5
 42
0.0000000001
 43
0.0000000001
 44
0.0000000001
 40
0.0
 40
0.0
 40
0.0
 40
0.0
 40
1.206205767560732
 40
2.421547733146937
 40
3.644202311919876
 40
4.872414524071542
 40
4.872414524071542
 40
4.872414524071542
 40
4.872414524071542
 10
-31.70999908447333
 20
22.9069995880131
 30
0.0
 10
-31.3087325396213
 20
22.93248900882409
 30
0.0
 10
-30.50316012552221
 20
22.98366091567785
 30
0.0
 10
-29.28966572604794
 20
23.03963348760333
 30
0.0
 10
-28.06823239020161
 20
23.08069151308462
 30
0.0
 10
-27.25136349178884
 20
23.0935543693203
 30
0.0
 10
-26.84200286865233
 20
23.10000038147009
 30
0.0
 11
-31.70999908447333
 21
22.9069995880131
 31
0.0
 11
-30.50600433349631
 21
22.97999954223609
 31
0.0
 11
-29.29199981689433
 21
23.03700065612809
 31
0.0
 11
-28.06999969482432
 21
23.0769996643071
 31
0.0
 11
-26.84200286865233
 21
23.10000038147009
 31
0.0
  0
ELLIPSE
  5
B5C8
330
1F
100
AcDbEntity
  8
AM_0
100
AcDbEllipse
 10
-21.14600372314429
 20
7.483001708984122
 30
0.0
 11
40.56426842035899
 21
-2.379494012866927
 31
0.0
210
0.0
220
0.0
230
1.0
 40
0.4217158083316
 41
1.685306969869244
 42
1.864521786880323
  0
SPLINE
  5
B5C9
330
1F
100
AcDbEntity
  8
AM_0
100
AcDbSpline
210
0.0
220
0.0
230
1.0
 70
     8
 71
     3
 72
    11
 73
     7
 74
     5
 42
0.0000000001
 43
0.0000000001
 44
0.0000000001
 40
0.0
 40
0.0
 40
0.0
 40
0.0
 40
0.981345504725896
 40
1.926389889969192
 40
2.867903568277388
 40
3.839193096393641
 40
3.839193096393641
 40
3.839193096393641
 40
3.839193096393641
 10
-36.56200408935533
 20
24.36000156402608
 30
0.0
 10
-36.88973824776927
 20
24.3454363174884
 30
0.0
 10
-37.53308329426492
 20
24.31684460993996
 30
0.0
 10
-38.46099666541234
 20
24.06026680034314
 30
0.0
 10
-39.33050385545742
 20
23.65396466823114
 30
0.0
 10
-39.83222988559082
 20
23.25737922282702
 30
0.0
 10
-40.08699798584031
 20
23.05599975585908
 30
0.0
 11
-36.56200408935533
 21
24.36000156402608
 31
0.0
 11
-37.54000091552734
 21
24.27900028228808
 31
0.0
 11
-38.45300292968733
 21
24.03499984741208
 31
0.0
 11
-39.30200195312533
 21
23.62800025939908
 31
0.0
 11
-40.08699798584031
 21
23.05599975585908
 31
0.0
  0
SPLINE
  5
B5CA
330
1F
100
AcDbEntity
  8
AM_0
100
AcDbSpline
210
0.0
220
0.0
230
1.0
 70
     8
 71
     3
 72
    11
 73
     7
 74
     5
 42
0.0000000001
 43
0.0000000001
 44
0.0000000001
 40
0.0
 40
0.0
 40
0.0
 40
0.0
 40
1.750960650169171
 40
3.496393727681254
 40
5.34826994643586
 40
7.173944514723255
 40
7.173944514723255
 40
7.173944514723255
 40
7.173944514723255
 10
-35.04300689697332
 20
18.15800094604509
 30
0.0
 10
-35.30923326732505
 20
18.70451179617425
 30
0.0
 10
-35.84084556332451
 20
19.79580822726009
 30
0.0
 10
-35.12503659123704
 20
21.60823765899701
 30
0.0
 10
-33.60979270300666
 20
22.78537329772344
 30
0.0
 10
-32.35562014936114
 20
22.80650758172713
 30
0.0
 10
-31.73300170898432
 20
22.8169994354251
 30
0.0
 11
-35.04300689697332
 21
18.15800094604509
 31
0.0
 11
-35.5910034179693
 21
19.82099914550808
 31
0.0
 11
-35.01599884033233
 21
21.4689998626711
 31
0.0
 11
-33.54500579834032
 21
22.59399986267109
 31
0.0
 11
-31.73300170898432
 21
22.8169994354251
 31
0.0
  0
SPLINE
  5
B5CB
330
1F
100
AcDbEntity
  8
AM_0
100
AcDbSpline
210
0.0
220
0.0
230
1.0
 70
     8
 71
     3
 72
    11
 73
     7
 74
     5
 42
0.0000000001
 43
0.0000000001
 44
0.0000000001
 40
0.0
 40
0.0
 40
0.0
 40
0.0
 40
0.996102514767376
 40
2.005869806304326
 40
3.035964797681899
 40
4.079133506568172
 40
4.079133506568172
 40
4.079133506568172
 40
4.079133506568172
 10
-31.73300170898432
 20
22.8169994354251
 30
0.0
 10
-31.40878829668312
 20
22.72793322423298
 30
0.0
 10
-30.75591383357052
 20
22.54857896988303
 30
0.0
 10
-29.98647882224189
 20
21.84257982322207
 30
0.0
 10
-29.48496386098293
 20
20.91403280811547
 30
0.0
 10
-29.44307912660253
 20
20.21680928265694
 30
0.0
 10
-29.42200469970733
 20
19.86599922180209
 30
0.0
 11
-31.73300170898432
 21
22.8169994354251
 31
0.0
 11
-30.79599761962932
 21
22.47900009155308
 31
0.0
 11
-30.03700256347633
 21
21.81299972534209
 31
0.0
 11
-29.56000518798833
 21
20.8999996185301
 31
0.0
 11
-29.42200469970733
 21
19.86599922180209
 31
0.0
  0
ELLIPSE
  5
B5CC
330
1F
100
AcDbEntity
  8
AM_0
100
AcDbEllipse
 10
-59.03900051116929
 20
0.0000000000000534
 30
0.0
 11
-0.0664136434299588
 21
-23.74990523410399
 31
0.0
210
0.0
220
0.0
230
1.0
 40
0.0879998729505
 41
0.8936440511377821
 42
1.031558424375185
  0
SPLINE
  5
B5CD
330
1F
100
AcDbEntity
  8
AM_0
100
AcDbSpline
210
0.0
220
0.0
230
1.0
 70
     8
 71
     3
 72
    11
 73
     7
 74
     5
 42
0.0000000001
 43
0.0000000001
 44
0.0000000001
 40
0.0
 40
0.0
 40
0.0
 40
0.0
 40
0.602203716722616
 40
1.207463852912515
 40
1.811904551216851
 40
2.415403840947603
 40
2.415403840947603
 40
2.415403840947603
 40
2.415403840947603
 10
-29.42200469970733
 20
19.86599922180209
 30
0.0
 10
-29.44024693642751
 20
19.66538212274159
 30
0.0
 10
-29.47682399635629
 20
19.26312971435384
 30
0.0
 10
-29.67811652827041
 20
18.68878139882238
 30
0.0
 10
-29.96812624371674
 20
18.1528091758577
 30
0.0
 10
-30.24411630168444
 20
17.857525738508
 30
0.0
 10
-30.38200378418031
 20
17.70999908447309
 30
0.0
 11
-29.42200469970733
 21
19.86599922180209
 31
0.0
 11
-29.50099945068332
 21
19.2689990997311
 31
0.0
 11
-29.69300079345733
 21
18.6949996948241
 31
0.0
 11
-29.98900604248031
 21
18.16799926757809
 31
0.0
 11
-30.38200378418031
 21
17.70999908447309
 31
0.0
  0
ELLIPSE
  5
B5CE
330
1F
100
AcDbEntity
  8
AM_0
100
AcDbEllipse
 10
-31.15500640869129
 20
0.0000000000000953
 30
0.0
 11
-1.994781728919961
 21
-23.74937354083
 31
0.0
210
0.0
220
0.0
230
1.0
 40
0.027734784027
 41
1.726803331468688
 42
1.774347618043641
  0
ELLIPSE
  5
B5CF
330
1F
100
AcDbEntity
  8
AM_0
100
AcDbEllipse
 10
-42.48600387573236
 20
41.28099894523585
 30
0.0
 11
39.76165489726801
 21
-2.33241282177973
 31
0.0
210
0.0
220
0.0
230
1.0
 40
0.4217172609616
 41
4.886811733038666
 42
5.005877119297964
  0
SPLINE
  5
B5D0
330
1F
100
AcDbEntity
  8
AM_0
100
AcDbSpline
210
0.0
220
0.0
230
1.0
 70
     8
 71
     3
 72
    11
 73
     7
 74
     5
 42
0.0000000001
 43
0.0000000001
 44
0.0000000001
 40
0.0
 40
0.0
 40
0.0
 40
0.0
 40
0.957637392742799
 40
1.920646662607166
 40
2.883228576615254
 40
3.840061537078705
 40
3.840061537078705
 40
3.840061537078705
 40
3.840061537078705
 10
-36.56400299072334
 20
24.36100101470908
 30
0.0
 10
-36.88415368517619
 20
24.35020567614673
 30
0.0
 10
-37.52625096280137
 20
24.32855444245574
 30
0.0
 10
-38.45724096149485
 20
24.06288927656966
 30
0.0
 10
-39.33780855296378
 20
23.66054804481413
 30
0.0
 10
-39.83843938465085
 20
23.25844827368216
 30
0.0
 10
-40.08800506591833
 20
23.05800056457508
 30
0.0
 11
-36.56400299072334
 21
24.36100101470908
 31
0.0
 11
-37.51900482177735
 21
24.29000186920209
 31
0.0
 11
-38.44899749755834
 21
24.04000091552708
 31
0.0
 11
-39.31800079345734
 21
23.62599945068408
 31
0.0
 11
-40.08800506591833
 21
23.05800056457508
 31
0.0
  0
ELLIPSE
  5
B5D1
330
1F
100
AcDbEntity
  8
AM_0
100
AcDbEllipse
 10
-47.03900146484429
 20
0.0000000000000816
 30
0.0
 11
-2.090463039112959
 21
-23.749171257522
 31
0.0
210
0.0
220
0.0
230
1.0
 40
0.0068788931905
 41
2.378968949646015
 42
2.461399064823289
  0
ELLIPSE
  5
B5D2
330
1F
100
AcDbEntity
  8
AM_0
100
AcDbEllipse
 10
-23.03900146484426
 20
0.0000000000001098
 30
0.0
 11
-1.994781728919961
 21
-23.74937354083
 31
0.0
210
0.0
220
0.0
230
1.0
 40
0.027734784027
 41
2.117109882526654
 42
2.219435833269876
  0
ELLIPSE
  5
B5D3
330
1F
100
AcDbEntity
  8
AM_0
100
AcDbEllipse
 10
-16.54799652099626
 20
0.0000000000001328
 30
0.0
 11
302.0054712381599
 21
-11.35851053564348
 31
0.0
210
0.0
220
0.0
230
1.0
 40
0.0692246285814
 41
4.559245095367641
 42
4.563217529468978
  0
ELLIPSE
  5
B5D4
330
1F
100
AcDbEntity
  8
AM_0
100
AcDbEllipse
 10
-35.03900146484426
 20
0.0000000000000957
 30
0.0
 11
0.4561396347240374
 21
-23.74961976243501
 31
0.0
210
0.0
220
0.0
230
1.0
 40
0.0858800915726
 41
0.6485827353842426
 42
0.7875683581841252
  0
SPLINE
  5
B5D5
330
1F
100
AcDbEntity
  8
AM_0
100
AcDbSpline
210
0.0
220
0.0
230
1.0
 70
     8
 71
     3
 72
    11
 73
     7
 74
     5
 42
0.0000000001
 43
0.0000000001
 44
0.0000000001
 40
0.0
 40
0.0
 40
0.0
 40
0.0
 40
0.3413248079598703
 40
0.6807410625357865
 40
1.018267349192301
 40
1.354783872829135
 40
1.354783872829135
 40
1.354783872829135
 40
1.354783872829135
 10
-19.91899871826229
 20
1.783000946045113
 30
0.0
 10
-20.03234027465452
 20
1.773079110384657
 30
0.0
 10
-20.25838962626504
 20
1.75329091804618
 30
0.0
 10
-20.59639600974755
 20
1.72230336595058
 30
0.0
 10
-20.93266786912313
 20
1.689998784407582
 30
0.0
 10
-21.15633280605216
 20
1.668656234624519
 30
0.0
 10
-21.26799774169928
 20
1.658000946045123
 30
0.0
 11
-19.91899871826229
 21
1.783000946045113
 31
0.0
 11
-20.25900268554728
 21
1.753002166748109
 31
0.0
 11
-20.59700012207029
 21
1.722000122070117
 31
0.0
 11
-20.93300628662127
 21
1.690002441406111
 31
0.0
 11
-21.26799774169928
 21
1.658000946045123
 31
0.0
  0
SPLINE
  5
B5D6
330
1F
100
AcDbEntity
  8
AM_0
100
AcDbSpline
210
0.0
220
0.0
230
1.0
 70
     8
 71
     3
 72
    11
 73
     7
 74
     5
 42
0.0000000001
 43
0.0000000001
 44
0.0000000001
 40
0.0
 40
0.0
 40
0.0
 40
0.0
 40
0.3480490019926254
 40
0.6928794942609158
 40
1.033470984911346
 40
1.371847036169083
 40
1.371847036169083
 40
1.371847036169083
 40
1.371847036169083
 10
-16.45800018310526
 20
0.9210014343261343
 30
0.0
 10
-16.34234724796342
 20
0.911819668283271
 30
0.0
 10
-16.11211085380024
 20
0.8935410426421144
 30
0.0
 10
-15.76845534450261
 20
0.8694982225878964
 30
0.0
 10
-15.42778117780507
 20
0.8492173466334516
 30
0.0
 10
-15.20168415565978
 20
0.83906115834782
 30
0.0
 10
-15.08900451660127
 20
0.8339996337891294
 30
0.0
 11
-16.45800018310526
 21
0.9210014343261343
 31
0.0
 11
-16.11100006103526
 21
0.8940010070801129
 31
0.0
 11
-15.76700592041027
 21
0.8699989318851141
 31
0.0
 11
-15.42700195312528
 21
0.8500022888181122
 31
0.0
 11
-15.08900451660127
 21
0.8339996337891294
 31
0.0
  0
SPLINE
  5
B5D7
330
1F
100
AcDbEntity
  8
AM_0
100
AcDbSpline
210
0.0
220
0.0
230
1.0
 70
     8
 71
     3
 72
    11
 73
     7
 74
     5
 42
0.0000000001
 43
0.0000000001
 44
0.0000000001
 40
0.0
 40
0.0
 40
0.0
 40
0.0
 40
0.2912483745759156
 40
0.5807518479104111
 40
0.8710939342525476
 40
1.162325431970868
 40
1.162325431970868
 40
1.162325431970868
 40
1.162325431970868
 10
-27.2390060424803
 20
15.50900077819809
 30
0.0
 10
-27.1466462260951
 20
15.53898420345292
 30
0.0
 10
-26.96247993120514
 20
15.59877141994394
 30
0.0
 10
-26.69267309564197
 20
15.70663939389179
 30
0.0
 10
-26.42930412971115
 20
15.82935496053058
 30
0.0
 10
-26.25919049660847
 20
15.92240412801264
 30
0.0
 10
-26.1740036010743
 20
15.9689998626711
 30
0.0
 11
-27.2390060424803
 21
15.50900077819809
 31
0.0
 11
-26.96300506591831
 21
15.6020011901861
 31
0.0
 11
-26.69400024414131
 21
15.70899963378909
 31
0.0
 11
-26.43099975585929
 21
15.83200073242209
 31
0.0
 11
-26.1740036010743
 21
15.9689998626711
 31
0.0
  0
ELLIPSE
  5
B5D8
330
1F
100
AcDbEntity
  8
AM_0
100
AcDbEllipse
 10
-11.44400024414127
 20
0.0000000000001367
 30
0.0
 11
0.9315545659680408
 21
-23.749737122919
 31
0.0
210
0.0
220
0.0
230
1.0
 40
0.0786351140016
 41
0.397925402718734
 42
0.5578053219248274
  0
ELLIPSE
  5
B5D9
330
1F
100
AcDbEntity
  8
AM_0
100
AcDbEllipse
 10
-55.15499877929727
 20
0.0000000000000529
 30
0.0
 11
-2.090460207990957
 21
-23.749171506724
 31
0.0
210
0.0
220
0.0
230
1.0
 40
0.0068788731897
 41
1.964958004830988
 42
2.011979468414323
  0
ELLIPSE
  5
B5DA
330
1F
100
AcDbEntity
  8
AM_0
100
AcDbEllipse
 10
-28.44900131225628
 20
0.5760002136230949
 30
0.0
 11
0.7974662720329988
 21
-0.063606226615994
 31
0.0
210
0.0
220
0.0
230
1.0
 40
0.1412525237014
 41
3.124299163811205
 42
3.904052290660146
  0
ELLIPSE
  5
B5DB
330
1F
100
AcDbEntity
  8
AM_0
100
AcDbEllipse
 10
-28.44900131225628
 20
0.5760002136230949
 30
0.0
 11
0.7974662720329988
 21
-0.063606226615994
 31
0.0
210
0.0
220
0.0
230
1.0
 40
0.1412525237014
 41
3.904670494574578
 42
4.68444371695091
  0
ELLIPSE
  5
B5DC
330
1F
100
AcDbEntity
  8
AM_0
100
AcDbEllipse
 10
-71.77700042724587
 20
59.17800140380802
 30
0.0
 11
72.74011390298856
 21
-31.66639445555887
 31
0.0
210
0.0
220
0.0
230
1.0
 40
0.7609347608643003
 41
5.632562188141928
 42
5.668419467491323
  0
ELLIPSE
  5
B5DD
330
1F
100
AcDbEntity
  8
AM_0
100
AcDbEllipse
 10
31.4509963989237
 20
0.0000038146972132
 30
0.0
 11
302.00693549299
 21
-0.1789757228604752
 31
0.0
210
0.0
220
0.0
230
1.0
 40
0.0786405579838
 41
4.560871232304958
 42
4.602129236936367
  0
ELLIPSE
  5
B5DE
330
1F
100
AcDbEntity
  8
AM_0
100
AcDbEllipse
 10
-38.85800170898426
 20
0.0000000000000964
 30
0.0
 11
302.002023090058
 21
-5.917784603159478
 31
0.0
210
0.0
220
0.0
230
1.0
 40
0.0762166441939
 41
4.69396535644257
 42
4.702796540682215
  0
ELLIPSE
  5
B5DF
330
1F
100
AcDbEntity
  8
AM_0
100
AcDbEllipse
 10
-38.85800170898426
 20
0.0000000000000964
 30
0.0
 11
302.0060201254881
 21
-5.91786292579648
 31
0.0
210
0.0
220
0.0
230
1.0
 40
0.0762156354702
 41
4.762695223404248
 42
4.771934903900326
  0
ELLIPSE
  5
B5E0
330
1F
100
AcDbEntity
  8
AM_0
100
AcDbEllipse
 10
-18.54399871826228
 20
0.0000000000001258
 30
0.0
 11
3.037429741108041
 21
-23.74955383924799
 31
0.0
210
0.0
220
0.0
230
1.0
 40
0.0777679745875
 41
0.0898643780833739
 42
0.1534183959436637
  0
ELLIPSE
  5
B5E1
330
1F
100
AcDbEntity
  8
AM_0
100
AcDbEllipse
 10
27.99299621581962
 20
42.0970020294187
 30
0.0
 11
-79.0715474019939
 21
-48.15338558347562
 31
0.0
210
0.0
220
0.0
230
1.0
 40
0.1681464446391
 41
5.337337285361146
 42
5.370892078638641
  0
ELLIPSE
  5
B5E2
330
1F
100
AcDbEntity
  8
AM_0
100
AcDbEllipse
 10
-24.79700088501032
 20
23.97699928283711
 30
0.0
 11
-0.7616233734580004
 21
-0.2448086734340022
 31
0.0
210
0.0
220
0.0
230
1.0
 40
0.9662495786700999
 41
3.585985610942553
 42
4.372144477813181
  0
ELLIPSE
  5
B5E3
330
1F
100
AcDbEntity
  8
AM_0
100
AcDbEllipse
 10
-24.79700088501032
 20
23.97699928283711
 30
0.0
 11
-0.7616233734580004
 21
-0.2448086734340022
 31
0.0
210
0.0
220
0.0
230
1.0
 40
0.9662495786700999
 41
2.801106950111913
 42
3.585985545955872
  0
SPLINE
  5
B5E4
330
1F
100
AcDbEntity
  8
AM_0
100
AcDbSpline
210
0.0
220
0.0
230
1.0
 70
     8
 71
     3
 72
    11
 73
     7
 74
     5
 42
0.0000000001
 43
0.0000000001
 44
0.0000000001
 40
0.0
 40
0.0
 40
0.0
 40
0.0
 40
0.7112177053517549
 40
1.403148681379808
 40
2.086831148765257
 40
2.775327810514073
 40
2.775327810514073
 40
2.775327810514073
 40
2.775327810514073
 10
-27.39700317382832
 20
15.5970001220701
 30
0.0
 10
-27.16605661806243
 20
15.65211190824871
 30
0.0
 10
-26.71042629171696
 20
15.76084096479933
 30
0.0
 10
-26.06657143643343
 20
16.03059342300876
 30
0.0
 10
-25.4651517727498
 20
16.3705990565623
 30
0.0
 10
-25.11146296033181
 20
16.66185943968633
 30
0.0
 10
-24.9339981079103
 20
16.80800056457511
 30
0.0
 11
-27.39700317382832
 21
15.5970001220701
 31
0.0
 11
-26.70999908447331
 21
15.78100013732909
 31
0.0
 11
-26.06999969482431
 21
16.04400062561009
 31
0.0
 11
-25.47800445556632
 21
16.38599967956512
 31
0.0
 11
-24.9339981079103
 21
16.80800056457511
 31
0.0
  0
SPLINE
  5
B5E5
330
1F
100
AcDbEntity
  8
AM_0
100
AcDbSpline
210
0.0
220
0.0
230
1.0
 70
     8
 71
     3
 72
    11
 73
     7
 74
     5
 42
0.0000000001
 43
0.0000000001
 44
0.0000000001
 40
0.0
 40
0.0
 40
0.0
 40
0.0
 40
0.9576775821327528
 40
1.72942982687738
 40
2.249342441140557
 40
2.566054002557144
 40
2.566054002557144
 40
2.566054002557144
 40
2.566054002557144
 10
-21.26799774169928
 20
1.658000946045123
 30
0.0
 10
-21.58990545317977
 20
1.635149902777925
 30
0.0
 10
-22.17122510409652
 20
1.593884161009649
 30
0.0
 10
-22.89030880405198
 20
1.678290046536733
 30
0.0
 10
-23.47489585192444
 20
1.837213692219042
 30
0.0
 10
-23.55694472969322
 20
2.118513668047842
 30
0.0
 10
-23.58800506591829
 20
2.225002288818096
 30
0.0
 11
-21.26799774169928
 21
1.658000946045123
 31
0.0
 11
-22.22499847412127
 21
1.622001647949103
 31
0.0
 11
-22.99100494384829
 21
1.71599960327111
 31
0.0
 11
-23.46300506591829
 21
1.934001922607103
 31
0.0
 11
-23.58800506591829
 21
2.225002288818096
 31
0.0
  0
SPLINE
  5
B5E6
330
1F
100
AcDbEntity
  8
AM_0
100
AcDbSpline
210
0.0
220
0.0
230
1.0
 70
     8
 71
     3
 72
    11
 73
     7
 74
     5
 42
0.0000000001
 43
0.0000000001
 44
0.0000000001
 40
0.0
 40
0.0
 40
0.0
 40
0.0
 40
1.245195231077494
 40
2.491094538972244
 40
3.736976381860026
 40
4.981998828239825
 40
4.981998828239825
 40
4.981998828239825
 40
4.981998828239825
 10
-21.29100036621129
 20
1.646999359131116
 30
0.0
 10
-21.70375172052928
 20
1.602848382797029
 30
0.0
 10
-22.52948781317815
 20
1.514521465626808
 30
0.0
 10
-23.77271768784584
 20
1.432789631297171
 30
0.0
 10
-25.01756442555574
 20
1.382316732710357
 30
0.0
 10
-25.84795063229006
 20
1.383438287120805
 30
0.0
 10
-26.26300048828127
 20
1.383998870850119
 30
0.0
 11
-21.29100036621129
 21
1.646999359131116
 31
0.0
 11
-22.53000640869129
 21
1.523002624512114
 31
0.0
 11
-23.77300262451228
 21
1.437999725342117
 31
0.0
 11
-25.01799774169928
 21
1.391002655029114
 31
0.0
 11
-26.26300048828127
 21
1.383998870850119
 31
0.0
  0
SPLINE
  5
B5E7
330
1F
100
AcDbEntity
  8
AM_0
100
AcDbSpline
210
0.0
220
0.0
230
1.0
 70
     8
 71
     3
 72
    11
 73
     7
 74
     5
 42
0.0000000001
 43
0.0000000001
 44
0.0000000001
 40
0.0
 40
0.0
 40
0.0
 40
0.0
 40
0.0641203494497874
 40
0.1282483134246446
 40
0.1934425611039194
 40
0.2586294943863336
 40
0.2586294943863336
 40
0.2586294943863336
 40
0.2586294943863336
 10
-19.66100311279329
 20
1.801002502441115
 30
0.0
 10
-19.68233339539562
 20
1.799647036443167
 30
0.0
 10
-19.72499649364905
 20
1.796935943480744
 30
0.0
 10
-19.78937435261093
 20
1.793237574833963
 30
0.0
 10
-19.8539969020219
 20
1.787936461894927
 30
0.0
 10
-19.89733225655468
 20
1.784646056464364
 30
0.0
 10
-19.91899871826229
 20
1.783000946045113
 30
0.0
 11
-19.66100311279329
 21
1.801002502441115
 31
0.0
 11
-19.72499847412127
 21
1.797000885010099
 31
0.0
 11
-19.78900146484427
 21
1.792999267578103
 31
0.0
 11
-19.85400390625029
 21
1.788002014160105
 31
0.0
 11
-19.91899871826229
 21
1.783000946045113
 31
0.0
  0
SPLINE
  5
B5E8
330
1F
100
AcDbEntity
  8
AM_0
100
AcDbSpline
210
0.0
220
0.0
230
1.0
 70
     8
 71
     3
 72
    11
 73
     7
 74
     5
 42
0.0000000001
 43
0.0000000001
 44
0.0000000001
 40
0.0
 40
0.0
 40
0.0
 40
0.0
 40
0.1120090091464104
 40
0.2360272682086661
 40
0.3831474913291713
 40
0.5582858457226426
 40
0.5582858457226426
 40
0.5582858457226426
 40
0.5582858457226426
 10
-23.58800506591829
 20
2.225002288818096
 30
0.0
 10
-23.57718467989769
 20
2.261102133533812
 30
0.0
 10
-23.55438378046228
 20
2.337172333564508
 30
0.0
 10
-23.47022730979468
 20
2.4368717647883
 30
0.0
 10
-23.35409455734891
 20
2.530505954574975
 30
0.0
 10
-23.25879391566589
 20
2.580714691254333
 30
0.0
 10
-23.20700073242228
 20
2.608001708984114
 30
0.0
 11
-23.58800506591829
 21
2.225002288818096
 31
0.0
 11
-23.54900360107428
 21
2.330001831055107
 31
0.0
 11
-23.47299957275428
 21
2.428001403809099
 31
0.0
 11
-23.3590011596683
 21
2.520999908447103
 31
0.0
 11
-23.20700073242228
 21
2.608001708984114
 31
0.0
  0
ELLIPSE
  5
B5E9
330
1F
100
AcDbEntity
  8
AM_0
100
AcDbEllipse
 10
-31.99400329589831
 20
18.70499992370608
 30
0.0
 11
-1.666053776963997
 21
-0.5355186737040036
 31
0.0
210
0.0
220
0.0
230
1.0
 40
0.9662827251665
 41
0.0
 42
0.032907927460557
  0
ELLIPSE
  5
B5EA
330
1F
100
AcDbEntity
  8
AM_0
100
AcDbEllipse
 10
-62.8580017089841
 20
0.0000000000000399
 30
0.0
 11
-302.0091601989221
 21
-11.17943996216752
 31
0.0
210
0.0
220
0.0
230
1.0
 40
0.0692253262492
 41
4.651829704828136
 42
4.660744038853159
  0
SPLINE
  5
B5EB
330
1F
100
AcDbEntity
  8
AM_0
100
AcDbSpline
210
0.0
220
0.0
230
1.0
 70
     8
 71
     3
 72
    11
 73
     7
 74
     5
 42
0.0000000001
 43
0.0000000001
 44
0.0000000001
 40
0.0
 40
0.0
 40
0.0
 40
0.0
 40
0.776339923071996
 40
1.551742711961664
 40
2.328114561693494
 40
3.104516282271997
 40
3.104516282271997
 40
3.104516282271997
 40
3.104516282271997
 10
-1.399002075195302
 20
13.54000091552715
 30
0.0
 10
-1.391546506398481
 20
13.79867385225548
 30
0.0
 10
-1.37664436855889
 20
14.31570747685844
 30
0.0
 10
-1.350474631529501
 20
15.09130634767892
 30
0.0
 10
-1.327383125438189
 20
15.86702250614789
 30
0.0
 10
-1.310462452397782
 20
16.38433728420422
 30
0.0
 10
-1.302001953125313
 20
16.64299964904814
 30
0.0
 11
-1.399002075195302
 21
13.54000091552715
 31
0.0
 11
-1.375999450683302
 21
14.31599998474115
 31
0.0
 11
-1.350997924805308
 21
15.09099960327115
 31
0.0
 11
-1.327003479004303
 21
15.86700057983415
 31
0.0
 11
-1.302001953125313
 21
16.64299964904814
 31
0.0
  0
ELLIPSE
  5
B5EC
330
1F
100
AcDbEntity
  8
AM_0
100
AcDbEllipse
 10
-19.04700088501027
 20
0.000000000000124
 30
0.0
 11
3.301241767218042
 21
-23.73451369522399
 31
0.0
210
0.0
220
0.0
230
0.9999999999999998
 40
0.2743396492685
 41
6.250417996506667
 42
6.345141105068389
  0
ELLIPSE
  5
B5ED
330
1F
100
AcDbEntity
  8
AM_0
100
AcDbEllipse
 10
-14.85799407959027
 20
0.0000038146971202
 30
0.0
 11
302.006935492984
 21
-0.1789757228604752
 31
0.0
210
0.0
220
0.0
230
0.9999999999999998
 40
0.0786405579838
 41
4.692461852314508
 42
4.708831669240158
  0
SPLINE
  5
B5EE
330
1F
100
AcDbEntity
  8
AM_0
100
AcDbSpline
210
0.0
220
0.0
230
1.0
 70
     8
 71
     3
 72
    11
 73
     7
 74
     5
 42
0.0000000001
 43
0.0000000001
 44
0.0000000001
 40
0.0
 40
0.0
 40
0.0
 40
0.0
 40
1.078724164069553
 40
2.118481859993982
 40
3.081639824133727
 40
3.947387967205137
 40
3.947387967205137
 40
3.947387967205137
 40
3.947387967205137
 10
-49.05200195312531
 20
18.59499931335407
 30
0.0
 10
-49.41134377562887
 20
18.62092416770401
 30
0.0
 10
-50.11704701086473
 20
18.67183739973557
 30
0.0
 10
-51.11538963262656
 20
18.93230299144709
 30
0.0
 10
-52.00645907937629
 20
19.29287642983749
 30
0.0
 10
-52.51790113120256
 20
19.62688867790581
 30
0.0
 10
-52.76000213623031
 20
19.78499984741205
 30
0.0
 11
-49.05200195312531
 21
18.59499931335407
 31
0.0
 11
-50.12500000000031
 21
18.70599937439005
 31
0.0
 11
-51.13300323486331
 21
18.96100044250506
 31
0.0
 11
-52.02100372314433
 21
19.33399963378906
 31
0.0
 11
-52.76000213623031
 21
19.78499984741205
 31
0.0
  0
ELLIPSE
  5
B5EF
330
1F
100
AcDbEntity
  8
AM_0
100
AcDbEllipse
 10
-67.15499830245949
 20
0.0000000000000389
 30
0.0
 11
-0.0664136434293592
 21
-23.74990523410399
 31
0.0
210
0.0
220
0.0
230
1.0
 40
0.0879998729505
 41
0.5000574250359831
 42
0.5511549653398074
  0
ELLIPSE
  5
B5F0
330
1F
100
AcDbEntity
  8
AM_0
100
AcDbEllipse
 10
7.464988708495724
 20
0.0069999694821566
 30
0.0
 11
302.0510249137779
 21
-5.918744802813474
 31
0.0
210
0.0
220
0.0
230
1.0
 40
0.076227443576
 41
4.558064756379367
 42
4.562197420250583
  0
ELLIPSE
  5
B5F1
330
1F
100
AcDbEntity
  8
AM_0
100
AcDbEllipse
 10
7.450996398925724
 20
0.000000000000161
 30
0.0
 11
302.0050132386979
 21
-5.91784319566648
 31
0.0
210
0.0
220
0.0
230
1.0
 40
0.0762158895737
 41
4.562219756687593
 42
4.597481866561841
  0
ELLIPSE
  5
B5F2
330
1F
100
AcDbEntity
  8
AM_0
100
AcDbEllipse
 10
-51.24700164794927
 20
0.0000000000000667
 30
0.0
 11
3.935135517548041
 21
-23.74918826872599
 31
0.0
210
0.0
220
0.0
230
1.0
 40
0.0412910523094
 41
5.756960626536845
 42
5.832167652384871
  0
ELLIPSE
  5
B5F3
330
1F
100
AcDbEntity
  8
AM_0
100
AcDbEllipse
 10
-62.8580017089841
 20
0.0000000000000399
 30
0.0
 11
302.0024826284979
 21
-11.35839813319547
 31
0.0
210
0.0
220
0.0
230
1.0
 40
0.069225319938
 41
4.763755641980331
 42
4.773004994465316
  0
ELLIPSE
  5
B5F4
330
1F
100
AcDbEntity
  8
AM_0
100
AcDbEllipse
 10
-43.15499877929727
 20
0.0000000000000812
 30
0.0
 11
0.4561396347240445
 21
-23.74961976243501
 31
0.0
210
0.0
220
0.0
230
1.0
 40
0.0858800915726
 41
0.2617524414719655
 42
0.3049419416191896
  0
ELLIPSE
  5
B5F5
330
1F
100
AcDbEntity
  8
AM_0
100
AcDbEllipse
 10
-33.75100326538128
 20
0.0000000000000861
 30
0.0
 11
26.21322909846303
 21
-23.62882407313994
 31
0.0
210
0.0
220
0.0
230
1.0
 40
0.0879261916997
 41
2.457463670906095
 42
2.577333665973152
  0
ELLIPSE
  5
B5F6
330
1F
100
AcDbEntity
  8
AM_0
100
AcDbEllipse
 10
-27.24700164794927
 20
0.0000000000000949
 30
0.0
 11
3.594040504699035
 21
-23.747570157194
 31
0.0
210
0.0
220
0.0
230
1.0
 40
0.0793987944107
 41
6.001364877028932
 42
6.072286011328605
  0
ELLIPSE
  5
B5F7
330
1F
100
AcDbEntity
  8
AM_0
100
AcDbEllipse
 10
31.4289932250937
 20
-0.0109977722167783
 30
0.0
 11
301.9329608965999
 21
-0.1789318839444759
 31
0.0
210
0.0
220
0.0
230
1.0
 40
0.0786233943258
 41
4.557172941983092
 42
4.560903710715181
  0
SPLINE
  5
B5F8
330
1F
100
AcDbEntity
  8
AM_0
100
AcDbSpline
210
0.0
220
0.0
230
1.0
 70
     8
 71
     3
 72
    11
 73
     7
 74
     5
 42
0.0000000001
 43
0.0000000001
 44
0.0000000001
 40
0.0
 40
0.0
 40
0.0
 40
0.0
 40
0.5702374921271327
 40
1.314280714924632
 40
2.210786330653332
 40
3.183310495137953
 40
3.183310495137953
 40
3.183310495137953
 40
3.183310495137953
 10
-66.10800123214698
 20
-20.24300003051798
 30
0.0
 10
-66.0350441539553
 20
-20.06312174471168
 30
0.0
 10
-65.86689302007089
 20
-19.64853910969929
 30
0.0
 10
-65.2075818796613
 20
-19.24277077074126
 30
0.0
 10
-64.38145954563002
 20
-18.95864562850853
 30
0.0
 10
-63.7536652184741
 20
-18.94703796621362
 30
0.0
 10
-63.42700099945036
 20
-18.94099807739296
 30
0.0
 11
-66.10800123214698
 21
-20.24300003051798
 31
0.0
 11
-65.84699964523285
 21
-19.73600006103498
 31
0.0
 11
-65.24700117111177
 21
-19.29599761962895
 31
0.0
 11
-64.39700269699065
 21
-19.01099777221696
 31
0.0
 11
-63.42700099945036
 21
-18.94099807739296
 31
0.0
  0
ELLIPSE
  5
B5F9
330
1F
100
AcDbEntity
  8
AM_0
100
AcDbEllipse
 10
-55.52300262451227
 20
-13.40800094604496
 30
0.0
 11
1.726348379923997
 21
-0.2867374243250011
 31
0.0
210
0.0
220
0.0
230
1.0
 40
0.8788570098875998
 41
3.141592554116492
 42
6.283066450067777
  0
ELLIPSE
  5
B5FA
330
1F
100
AcDbEntity
  8
AM_0
100
AcDbEllipse
 10
-55.52300262451227
 20
-13.40800094604496
 30
0.0
 11
1.726348379923997
 21
-0.2867374243250011
 31
0.0
210
0.0
220
0.0
230
1.0
 40
0.8788570098875998
 41
0.0
 42
3.141592753063091
  0
SPLINE
  5
B5FB
330
1F
100
AcDbEntity
  8
AM_0
100
AcDbSpline
210
0.0
220
0.0
230
1.0
 70
     8
 71
     3
 72
    11
 73
     7
 74
     5
 42
0.0000000001
 43
0.0000000001
 44
0.0000000001
 40
0.0
 40
0.0
 40
0.0
 40
0.0
 40
1.688083625747206
 40
3.175398385380415
 40
4.342945789000689
 40
5.163656046625828
 40
5.163656046625828
 40
5.163656046625828
 40
5.163656046625828
 10
-65.88899946212736
 20
-21.46899795532197
 30
0.0
 10
-66.45209474164317
 20
-21.50423253100256
 30
0.0
 10
-67.5113146843746
 20
-21.57051112823508
 30
0.0
 10
-68.91505752082757
 20
-21.94812431727345
 30
0.0
 10
-69.99501766919047
 20
-22.3924366617692
 30
0.0
 10
-70.53224782986274
 20
-22.78355457963916
 30
0.0
 10
-70.75400495529144
 20
-22.94499969482398
 30
0.0
 11
-65.88899946212736
 21
-21.46899795532197
 31
0.0
 11
-67.56899976730315
 21
-21.63399887084995
 31
0.0
 11
-69.00800275802585
 21
-22.00999832153296
 31
0.0
 11
-70.07500410079924
 21
-22.48399734497096
 31
0.0
 11
-70.75400495529144
 21
-22.94499969482398
 31
0.0
  0
SPLINE
  5
B5FC
330
1F
100
AcDbEntity
  8
AM_0
100
AcDbSpline
210
0.0
220
0.0
230
1.0
 70
     8
 71
     3
 72
    11
 73
     7
 74
     5
 42
0.0000000001
 43
0.0000000001
 44
0.0000000001
 40
0.0
 40
0.0
 40
0.0
 40
0.0
 40
0.1242583073828817
 40
0.2443324859607245
 40
0.3588746121937391
 40
0.4642335585344549
 40
0.4642335585344549
 40
0.4642335585344549
 40
0.4642335585344549
 10
-45.34500122070332
 20
21.55100059509307
 30
0.0
 10
-45.30361598013323
 20
21.55306429779538
 30
0.0
 10
-45.22223905714478
 20
21.55712221249065
 30
0.0
 10
-45.10359417328596
 20
21.57335189482838
 30
0.0
 10
-44.99248158867451
 20
21.59646484422002
 30
0.0
 10
-44.92251994433011
 20
21.61846094421167
 30
0.0
 10
-44.88899993896532
 20
21.62899971008307
 30
0.0
 11
-45.34500122070332
 21
21.55100059509307
 31
0.0
 11
-45.22100067138732
 21
21.55900001525907
 31
0.0
 11
-45.10199737548833
 21
21.57500076293907
 31
0.0
 11
-44.98999786376932
 21
21.59900093078607
 31
0.0
 11
-44.88899993896532
 21
21.62899971008307
 31
0.0
  0
SPLINE
  5
B5FD
330
1F
100
AcDbEntity
  8
AM_0
100
AcDbSpline
210
0.0
220
0.0
230
1.0
 70
     8
 71
     3
 72
    11
 73
     7
 74
     5
 42
0.0000000001
 43
0.0000000001
 44
0.0000000001
 40
0.0
 40
0.0
 40
0.0
 40
0.0
 40
0.2850429328587004
 40
0.7199687484738618
 40
1.300885323674461
 40
1.986200572659468
 40
1.986200572659468
 40
1.986200572659468
 40
1.986200572659468
 10
-42.10800170898433
 20
22.64699935913109
 30
0.0
 10
-42.05750954527021
 20
22.56466133999029
 30
0.0
 10
-41.92997514351393
 20
22.35668986005184
 30
0.0
 10
-41.52059398508665
 20
22.16552613270143
 30
0.0
 10
-40.98949661476811
 20
21.97968366453694
 30
0.0
 10
-40.5700285618145
 20
21.91695155379117
 30
0.0
 10
-40.34300231933633
 20
21.88299942016607
 30
0.0
 11
-42.10800170898433
 21
22.64699935913109
 31
0.0
 11
-41.94100189209032
 21
22.41600036621108
 31
0.0
 11
-41.56700134277332
 21
22.19400024414109
 31
0.0
 11
-41.01700592041032
 21
22.00699996948209
 31
0.0
 11
-40.34300231933633
 21
21.88299942016607
 31
0.0
  0
SPLINE
  5
B5FE
330
1F
100
AcDbEntity
  8
AM_0
100
AcDbSpline
210
0.0
220
0.0
230
1.0
 70
     8
 71
     3
 72
    11
 73
     7
 74
     5
 42
0.0000000001
 43
0.0000000001
 44
0.0000000001
 40
0.0
 40
0.0
 40
0.0
 40
0.0
 40
1.688083625747125
 40
3.17539838538059
 40
4.342945789000441
 40
5.163654975247889
 40
5.163654975247889
 40
5.163654975247889
 40
5.163654975247889
 10
-65.88899946212741
 20
21.46899986267103
 30
0.0
 10
-66.45209472698751
 20
21.50423445979731
 30
0.0
 10
-67.51131464215068
 20
21.5705130973706
 30
0.0
 10
-68.91505765367496
 20
21.94812603022272
 30
0.0
 10
-69.99501700133231
 20
22.39243892229783
 30
0.0
 10
-70.53224775505713
 20
22.78355532770914
 30
0.0
 10
-70.75400495529153
 20
22.94499969482403
 30
0.0
 11
-65.88899946212741
 21
21.46899986267103
 31
0.0
 11
-67.56899976730323
 21
21.63400077819803
 31
0.0
 11
-69.00800275802592
 21
22.01000022888203
 31
0.0
 11
-70.07500410079933
 21
22.48399925231903
 31
0.0
 11
-70.75400495529153
 21
22.94499969482403
 31
0.0
  0
ELLIPSE
  5
B5FF
330
1F
100
AcDbEntity
  8
AM_0
100
AcDbEllipse
 10
-43.15500259399428
 20
0.0000000000000812
 30
0.0
 11
-0.4464605278329595
 21
-23.74980178042299
 31
0.0
210
0.0
220
0.0
230
1.0
 40
0.0858802289493
 41
2.841553331527326
 42
2.884730750743188
  0
ELLIPSE
  5
B600
330
1F
100
AcDbEntity
  8
AM_0
100
AcDbEllipse
 10
-38.85800170898426
 20
0.0000038146970921
 30
0.0
 11
-302.007491169322
 21
-5.738832737155521
 31
0.0
210
0.0
220
0.0
230
1.0
 40
0.0762161359786
 41
4.721935587373764
 42
4.73084827865636
  0
ELLIPSE
  5
B601
330
1F
100
AcDbEntity
  8
AM_0
100
AcDbEllipse
 10
-50.92700195312532
 20
19.11500167846706
 30
0.0
 11
-4.007072624886993
 21
-4.524747020254007
 31
0.0
210
0.0
220
0.0
230
1.0
 40
0.9814682097123
 41
2.107744665861649
 42
2.284728259856454
  0
ELLIPSE
  5
B602
330
1F
100
AcDbEntity
  8
AM_0
100
AcDbEllipse
 10
-38.85800170898426
 20
0.0000038146970921
 30
0.0
 11
-302.007491169322
 21
-5.738832737155521
 31
0.0
210
0.0
220
0.0
230
1.0
 40
0.0762161359786
 41
4.652892635361053
 42
4.661799322819434
  0
SPLINE
  5
B603
330
1F
100
AcDbEntity
  8
AM_0
100
AcDbSpline
210
0.0
220
0.0
230
1.0
 70
     8
 71
     3
 72
    11
 73
     7
 74
     5
 42
0.0000000001
 43
0.0000000001
 44
0.0000000001
 40
0.0
 40
0.0
 40
0.0
 40
0.0
 40
0.1300587697042283
 40
0.2543170770871272
 40
0.3708423530908051
 40
0.4759150160973637
 40
0.4759150160973637
 40
0.4759150160973637
 40
0.4759150160973637
 10
-21.34500122070334
 20
23.32500076293912
 30
0.0
 10
-21.30165262441415
 20
23.32599102311306
 30
0.0
 10
-21.21688872629973
 20
23.32792737906633
 30
0.0
 10
-21.09355755670351
 20
23.33648777179774
 30
0.0
 10
-20.97863115701235
 20
23.34627074976145
 30
0.0
 10
-20.9056207437389
 20
23.35761967459955
 30
0.0
 10
-20.87100219726633
 20
23.36300086975112
 30
0.0
 11
-21.34500122070334
 21
23.32500076293912
 31
0.0
 11
-21.21500396728532
 21
23.32900047302212
 31
0.0
 11
-21.09100341796931
 21
23.33699989318811
 31
0.0
 11
-20.97499847412131
 21
23.34799957275411
 31
0.0
 11
-20.87100219726633
 21
23.36300086975112
 31
0.0
  0
ELLIPSE
  5
B604
330
1F
100
AcDbEntity
  8
AM_0
100
AcDbEllipse
 10
-26.69499969482432
 20
19.22999954223609
 30
0.0
 11
-4.950546403725997
 21
-1.591255252944006
 31
0.0
210
0.0
220
0.0
230
1.0
 40
0.9665384127613998
 41
1.641584898952986
 42
2.801438292118685
  0
SPLINE
  5
B605
330
1F
100
AcDbEntity
  8
AM_0
100
AcDbSpline
210
0.0
220
0.0
230
1.0
 70
     8
 71
     3
 72
    11
 73
     7
 74
     5
 42
0.0000000001
 43
0.0000000001
 44
0.0000000001
 40
0.0
 40
0.0
 40
0.0
 40
0.0
 40
0.3202568527825677
 40
0.6287170477832818
 40
0.9004562344725545
 40
1.100178568673705
 40
1.100178568673705
 40
1.100178568673705
 40
1.100178568673705
 10
-23.49900054931632
 20
14.9029998779301
 30
0.0
 10
-23.59057778993652
 20
14.84779389315739
 30
0.0
 10
-23.77035902448816
 20
14.73941543547664
 30
0.0
 10
-24.04588337419034
 20
14.62073240882093
 30
0.0
 10
-24.29346118781646
 20
14.53272187180311
 30
0.0
 10
-24.45118301676995
 20
14.52589341441902
 30
0.0
 10
-24.51799774169929
 20
14.52300071716311
 30
0.0
 11
-23.49900054931632
 21
14.9029998779301
 31
0.0
 11
-23.77700042724629
 21
14.74400138855012
 31
0.0
 11
-24.05899810791029
 21
14.61900138855011
 31
0.0
 11
-24.3190002441413
 21
14.54000091552711
 31
0.0
 11
-24.51799774169929
 21
14.52300071716311
 31
0.0
  0
SPLINE
  5
B606
330
1F
100
AcDbEntity
  8
AM_0
100
AcDbSpline
210
0.0
220
0.0
230
1.0
 70
     8
 71
     3
 72
    11
 73
     7
 74
     5
 42
0.0000000001
 43
0.0000000001
 44
0.0000000001
 40
0.0
 40
0.0
 40
0.0
 40
0.0
 40
0.306235000431362
 40
0.5654288387770153
 40
0.7385013342578433
 40
0.7995084381984049
 40
0.7995084381984049
 40
0.7995084381984049
 40
0.7995084381984049
 10
-1.630996704101299
 20
14.34900093078615
 30
0.0
 10
-1.634965670593047
 20
14.2469995493091
 30
0.0
 10
-1.642293925401978
 20
14.05866535301873
 30
0.0
 10
-1.652284455784459
 20
13.81270335609747
 30
0.0
 10
-1.657530422936696
 20
13.64835314973969
 30
0.0
 10
-1.658693463933265
 20
13.57033473092322
 30
0.0
 10
-1.658996582031297
 20
13.55000114440914
 30
0.0
 11
-1.630996704101299
 21
14.34900093078615
 31
0.0
 11
-1.642997741699296
 21
14.04300117492715
 31
0.0
 11
-1.652999877930303
 21
13.78400039672915
 31
0.0
 11
-1.657997131348301
 21
13.61100006103515
 31
0.0
 11
-1.658996582031297
 21
13.55000114440914
 31
0.0
  0
SPLINE
  5
B607
330
1F
100
AcDbEntity
  8
AM_0
100
AcDbSpline
210
0.0
220
0.0
230
1.0
 70
     8
 71
     3
 72
    11
 73
     7
 74
     5
 42
0.0000000001
 43
0.0000000001
 44
0.0000000001
 40
0.0
 40
0.0
 40
0.0
 40
0.0
 40
0.8591940960342052
 40
1.712708372582791
 40
2.568783503028286
 40
3.434939584948788
 40
3.434939584948788
 40
3.434939584948788
 40
3.434939584948788
 10
-24.51799774169929
 20
14.52300071716311
 30
0.0
 10
-24.79859409252822
 20
14.5816987582732
 30
0.0
 10
-25.35793187382712
 20
14.69870680910533
 30
0.0
 10
-26.16833930071335
 20
14.9809159015381
 30
0.0
 10
-26.95356446618869
 20
15.33259375532895
 30
0.0
 10
-27.4442320547903
 20
15.63161421249795
 30
0.0
 10
-27.6910018920903
 20
15.7819995880131
 30
0.0
 11
-24.51799774169929
 21
14.52300071716311
 31
0.0
 11
-25.3550033569333
 21
14.71700096130411
 31
0.0
 11
-26.16300201416029
 21
14.9920005798341
 31
0.0
 11
-26.94200134277329
 21
15.3470001220701
 31
0.0
 11
-27.6910018920903
 21
15.7819995880131
 31
0.0
  0
ELLIPSE
  5
B608
330
1F
100
AcDbEntity
  8
AM_0
100
AcDbEllipse
 10
-25.39599990844731
 20
20.4870014190671
 30
0.0
 11
5.17912689333501
 21
-4.75368849178799
 31
0.0
210
0.0
220
0.0
230
1.0
 40
0.7304407250095001
 41
4.873400357688593
 42
4.925334085726151
  0
SPLINE
  5
B609
330
1F
100
AcDbEntity
  8
AM_0
100
AcDbSpline
210
0.0
220
0.0
230
1.0
 70
     8
 71
     3
 72
    11
 73
     7
 74
     5
 42
0.0000000001
 43
0.0000000001
 44
0.0000000001
 40
0.0
 40
0.0
 40
0.0
 40
0.0
 40
1.082353391888702
 40
2.1417620291843
 40
3.153577456635923
 40
4.103590889658683
 40
4.103590889658683
 40
4.103590889658683
 40
4.103590889658683
 10
-25.0520019531253
 20
14.4689998626711
 30
0.0
 10
-25.41228255842208
 20
14.50262954854665
 30
0.0
 10
-26.12520619875889
 20
14.56917600629459
 30
0.0
 10
-27.12970742043177
 20
14.90418652278361
 30
0.0
 10
-28.02590719551961
 20
15.37990251860649
 30
0.0
 10
-28.52049738820646
 20
15.81048837838359
 30
0.0
 10
-28.7600021362303
 20
16.01899909973111
 30
0.0
 11
-25.0520019531253
 21
14.4689998626711
 31
0.0
 11
-26.1250000000003
 21
14.61100006103509
 31
0.0
 11
-27.1330032348633
 21
14.93700027465809
 31
0.0
 11
-28.02100372314429
 21
15.42200088501011
 31
0.0
 11
-28.7600021362303
 21
16.01899909973111
 31
0.0
  0
ELLIPSE
  5
B60A
330
1F
100
AcDbEntity
  8
AM_0
100
AcDbEllipse
 10
-8.100997924805314
 20
17.03800010681214
 30
0.0
 11
-0.3557145654729849
 21
-9.164099353674995
 31
0.0
210
0.0
220
0.0
230
1.0
 40
0.1902734453763
 41
1.390578183672702
 42
1.431589397992148
  0
ELLIPSE
  5
B60B
330
1F
100
AcDbEntity
  8
AM_0
100
AcDbEllipse
 10
-26.92700195312532
 20
19.95200157165509
 30
0.0
 11
0.0321732342570123
 21
-6.181916916259996
 31
0.0
210
0.0
220
0.0
230
1.0
 40
0.9676478131402999
 41
0.6869549242310212
 42
1.545841095074737
  0
SPLINE
  5
B60C
330
1F
100
AcDbEntity
  8
AM_0
100
AcDbSpline
210
0.0
220
0.0
230
1.0
 70
     8
 71
     3
 72
    11
 73
     7
 74
     5
 42
0.0000000001
 43
0.0000000001
 44
0.0000000001
 40
0.0
 40
0.0
 40
0.0
 40
0.0
 40
0.1045795684872746
 40
0.313773008324658
 40
0.5958187775316512
 40
0.9078190521896553
 40
0.9078190521896553
 40
0.9078190521896553
 40
0.9078190521896553
 10
-1.646003723144275
 20
0.0110015869141629
 30
0.0
 10
-1.650028484041965
 20
-0.0236371444510335
 30
0.0
 10
-1.662104086886029
 20
-0.1275647003036844
 30
0.0
 10
-1.666567510494284
 20
-0.3263452682083826
 30
0.0
 10
-1.672391910824338
 20
-0.5939507002786
 30
0.0
 10
-1.671477748764968
 20
-0.79198818853572
 30
0.0
 10
-1.670997619629271
 20
-0.8959999084468527
 30
0.0
 11
-1.646003723144275
 21
0.0110015869141629
 31
0.0
 11
-1.65699768066426
 21
-0.0929985046388416
 31
0.0
 11
-1.666000366211276
 21
-0.3019981384278472
 31
0.0
 11
-1.670997619629272
 21
-0.5839996337888486
 31
0.0
 11
-1.670997619629271
 21
-0.8959999084468527
 31
0.0
  0
ELLIPSE
  5
B60D
330
1F
100
AcDbEntity
  8
AM_0
100
AcDbEllipse
 10
-59.34100341796932
 20
7.576999664307048
 30
0.0
 11
5.978546079096997
 21
-0.5069499227899892
 31
0.0
210
0.0
220
0.0
230
1.0
 40
0.3763336537149
 41
4.006282307660872
 42
4.704623401644554
  0
SPLINE
  5
B60E
330
1F
100
AcDbEntity
  8
AM_0
100
AcDbSpline
210
0.0
220
0.0
230
1.0
 70
     8
 71
     3
 72
    11
 73
     7
 74
     5
 42
0.0000000001
 43
0.0000000001
 44
0.0000000001
 40
0.0
 40
0.0
 40
0.0
 40
0.0
 40
1.08399289749018
 40
2.15570561241236
 40
3.202878498232408
 40
4.229759211378699
 40
4.229759211378699
 40
4.229759211378699
 40
4.229759211378699
 10
-61.05200099945127
 20
-12.04199981689493
 30
0.0
 10
-61.4128880619122
 20
-12.00599621067768
 30
0.0
 10
-62.13057382147328
 20
-11.93439687071032
 30
0.0
 10
-63.1401083909616
 20
-11.55779132714811
 30
0.0
 10
-64.04551441491199
 20
-11.00853432333017
 30
0.0
 10
-64.52339775318293
 20
-10.50520362085926
 30
0.0
 10
-64.76000165939296
 20
-10.25600051879896
 30
0.0
 11
-61.05200099945127
 21
-12.04199981689493
 31
0.0
 11
-62.12499904632536
 21
-11.88800048828095
 31
0.0
 11
-63.13300228118866
 21
-11.52399826049797
 31
0.0
 11
-64.02100324630707
 21
-10.96899795532197
 31
0.0
 11
-64.76000165939296
 21
-10.25600051879896
 31
0.0
  0
ELLIPSE
  5
B60F
330
1F
100
AcDbEntity
  8
AM_0
100
AcDbEllipse
 10
-31.02300262451228
 20
0.0000000000000958
 30
0.0
 11
0.4561396347240445
 21
-23.74961976243501
 31
0.0
210
0.0
220
0.0
230
1.0
 40
0.0858804127562
 41
0.6335792409503381
 42
0.7758241226881614
  0
SPLINE
  5
B610
330
1F
100
AcDbEntity
  8
AM_0
100
AcDbSpline
210
0.0
220
0.0
230
1.0
 70
     8
 71
     3
 72
    11
 73
     7
 74
     5
 42
0.0000000001
 43
0.0000000001
 44
0.0000000001
 40
0.0
 40
0.0
 40
0.0
 40
0.0
 40
1.893089728945423
 40
3.763606170139345
 40
5.609985123325753
 40
7.432050020948575
 40
7.432050020948575
 40
7.432050020948575
 40
7.432050020948575
 10
-36.51799774169928
 20
2.023002624512093
 30
0.0
 10
-36.79839461714472
 20
1.457682744646225
 30
0.0
 10
-37.35584490298094
 20
0.3337838847908869
 30
0.0
 10
-38.16211759435749
 20
-1.353517633520952
 30
0.0
 10
-38.94297402868789
 20
-3.026648265172096
 30
0.0
 10
-39.4427634546707
 20
-4.142680800822462
 30
0.0
 10
-39.69100189209027
 20
-4.696998596190913
 30
0.0
 11
-36.51799774169928
 21
2.023002624512093
 31
0.0
 11
-37.35500335693328
 21
0.3250007629390859
 31
0.0
 11
-38.16300201416025
 21
-1.36199951171892
 31
0.0
 11
-38.94200134277328
 21
-3.035999298095905
 31
0.0
 11
-39.69100189209027
 21
-4.696998596190913
 31
0.0
  0
ELLIPSE
  5
B611
330
1F
100
AcDbEntity
  8
AM_0
100
AcDbEllipse
 10
-37.3959999084472
 20
-23.09699630737291
 30
0.0
 11
-1.76910718593196
 21
-22.99103419825399
 31
0.0
210
0.0
220
0.0
230
1.0
 40
0.2602019255298
 41
3.804460057118471
 42
3.857195611782444
  0
SPLINE
  5
B612
330
1F
100
AcDbEntity
  8
AM_0
100
AcDbSpline
210
0.0
220
0.0
230
1.0
 70
     8
 71
     3
 72
    11
 73
     7
 74
     5
 42
0.0000000001
 43
0.0000000001
 44
0.0000000001
 40
0.0
 40
0.0
 40
0.0
 40
0.0
 40
1.08060556482237
 40
2.133164528588523
 40
3.136475538984676
 40
4.091537369783777
 40
4.091537369783777
 40
4.091537369783777
 40
4.091537369783777
 10
-37.05200195312526
 20
-16.63699722289988
 30
0.0
 10
-37.41194259759036
 20
-16.60731055797824
 30
0.0
 10
-38.1224817990949
 20
-16.54870773133691
 30
0.0
 10
-39.12811665731228
 20
-16.23943660190097
 30
0.0
 10
-40.0325771206765
 20
-15.78284193098823
 30
0.0
 10
-40.521542741962
 20
-15.34669807666147
 30
0.0
 10
-40.76000213623022
 20
-15.13399887084994
 30
0.0
 11
-37.05200195312526
 21
-16.63699722289988
 31
0.0
 11
-38.12500000000026
 21
-16.50899887084991
 31
0.0
 11
-39.13300323486324
 21
-16.20599746704089
 31
0.0
 11
-40.02100372314424
 21
-15.7389984130859
 31
0.0
 11
-40.76000213623022
 21
-15.13399887084994
 31
0.0
  0
ELLIPSE
  5
B613
330
1F
100
AcDbEntity
  8
AM_0
100
AcDbEllipse
 10
-59.2779998779303
 20
8.316001892090053
 30
0.0
 11
5.181403687739999
 21
-0.4393563526459925
 31
0.0
210
0.0
220
0.0
230
1.0
 40
0.3763462631449001
 41
4.006266721187826
 42
4.704623904427858
  0
ELLIPSE
  5
B614
330
1F
100
AcDbEntity
  8
AM_0
100
AcDbEllipse
 10
-38.69500732421928
 20
6.510002136230083
 30
0.0
 11
5.181404058121999
 21
-0.4393576282779943
 31
0.0
210
0.0
220
0.0
230
1.0
 40
0.3763460452352
 41
4.704623864043459
 42
6.275218605066008
  0
ELLIPSE
  5
B615
330
1F
100
AcDbEntity
  8
AM_0
100
AcDbEllipse
 10
-50.85800170898429
 20
0.0000000000000681
 30
0.0
 11
302.0114856511779
 21
-21.96240536423048
 31
0.0
210
0.0
220
0.0
230
1.0
 40
0.029526861197
 41
1.514960096002214
 42
1.524150289539148
  0
ELLIPSE
  5
B616
330
1F
100
AcDbEntity
  8
AM_0
100
AcDbEllipse
 10
-50.85800170898429
 20
0.0000000000000681
 30
0.0
 11
302.0095072328981
 21
-21.96226149280048
 31
0.0
210
0.0
220
0.0
230
1.0
 40
0.029527054623
 41
1.583988774551259
 42
1.638334491006688
  0
ELLIPSE
  5
B617
330
1F
100
AcDbEntity
  8
AM_0
100
AcDbEllipse
 10
-14.85800933837927
 20
0.0000000000001246
 30
0.0
 11
-302.006988525387
 21
-0.0000000000005218
 31
0.0
210
0.0
220
0.0
230
1.0
 40
0.0786405642994
 41
4.716136830035139
 42
4.732267223147179
  0
ELLIPSE
  5
B618
330
1F
100
AcDbEntity
  8
AM_0
100
AcDbEllipse
 10
-8.100997924805314
 20
17.03800010681214
 30
0.0
 11
-0.3557145654729849
 21
-9.164099353674995
 31
0.0
210
0.0
220
0.0
230
1.0
 40
0.1902734453763
 41
4.863814425933273
 42
4.892662385696388
  0
ELLIPSE
  5
B619
330
1F
100
AcDbEntity
  8
AM_0
100
AcDbEllipse
 10
-21.37100219726627
 20
0.0000000000001157
 30
0.0
 11
0.4561396347250393
 21
-23.749619762435
 31
0.0
210
0.0
220
0.0
230
1.0
 40
0.0858800915726
 41
0.0233799616690902
 42
0.1502929424298888
  0
SPLINE
  5
B61A
330
1F
100
AcDbEntity
  8
AM_0
100
AcDbSpline
210
0.0
220
0.0
230
1.0
 70
     8
 71
     3
 72
    11
 73
     7
 74
     5
 42
0.0000000001
 43
0.0000000001
 44
0.0000000001
 40
0.0
 40
0.0
 40
0.0
 40
0.0
 40
0.2853904699760385
 40
0.5244085839693886
 40
0.6884260443933936
 40
0.7608950285714681
 40
0.7608950285714681
 40
0.7608950285714681
 40
0.7608950285714681
 10
-21.34500122070324
 20
-23.32500076293889
 30
0.0
 10
-21.24946799031608
 20
-23.32794994569695
 30
0.0
 10
-21.07392447593888
 20
-23.33336910616911
 30
0.0
 10
-20.85058502960772
 20
-23.36775119836321
 30
0.0
 10
-20.68542732372363
 20
-23.38982683451098
 30
0.0
 10
-20.62692777936088
 20
-23.44430440918333
 30
0.0
 10
-20.60900115966822
 20
-23.46099853515589
 30
0.0
 11
-21.34500122070324
 21
-23.32500076293889
 31
0.0
 11
-21.06000518798822
 21
-23.34000015258789
 31
0.0
 11
-20.82300567626922
 21
-23.37099838256792
 31
0.0
 11
-20.66500091552723
 21
-23.41500091552689
 31
0.0
 11
-20.60900115966822
 21
-23.46099853515589
 31
0.0
  0
SPLINE
  5
B61B
330
1F
100
AcDbEntity
  8
AM_0
100
AcDbSpline
210
0.0
220
0.0
230
1.0
 70
     8
 71
     3
 72
    11
 73
     7
 74
     5
 42
0.0000000001
 43
0.0000000001
 44
0.0000000001
 40
0.0
 40
0.0
 40
0.0
 40
0.0
 40
0.9532405094665644
 40
2.297596939927307
 40
3.51609944520153
 40
4.197936379687255
 40
4.197936379687255
 40
4.197936379687255
 40
4.197936379687255
 10
-27.58800506591827
 20
-22.19599914550792
 30
0.0
 10
-27.30388730636238
 20
-22.04297115980025
 30
0.0
 10
-26.61907787112351
 20
-21.67412759073924
 30
0.0
 10
-25.43194551881586
 20
-21.68829740147293
 30
0.0
 10
-24.28837183082041
 20
-21.78509730550727
 30
0.0
 10
-23.83696622832366
 20
-22.25014271311387
 30
0.0
 10
-23.67500305175824
 20
-22.41699981689487
 30
0.0
 11
-27.58800506591827
 21
-22.19599914550792
 31
0.0
 11
-26.72000122070328
 21
-21.8019981384279
 31
0.0
 11
-25.37900543212925
 21
-21.70700073242187
 31
0.0
 11
-24.18900299072325
 21
-21.96899795532189
 31
0.0
 11
-23.67500305175824
 21
-22.41699981689487
 31
0.0
  0
SPLINE
  5
B61C
330
1F
100
AcDbEntity
  8
AM_0
100
AcDbSpline
210
0.0
220
0.0
230
1.0
 70
     8
 71
     3
 72
    11
 73
     7
 74
     5
 42
0.0000000001
 43
0.0000000001
 44
0.0000000001
 40
0.0
 40
0.0
 40
0.0
 40
0.0
 40
0.1419927607028059
 40
0.3180755021557764
 40
0.5551403661843504
 40
0.8575357557348382
 40
0.8575357557348382
 40
0.8575357557348382
 40
0.8575357557348382
 10
-23.67500305175824
 20
-22.41699981689487
 30
0.0
 10
-23.67953736239696
 20
-22.46575281466498
 30
0.0
 10
-23.68969459242899
 20
-22.57496355308973
 30
0.0
 10
-23.84226240956153
 20
-22.70199598504714
 30
0.0
 10
-24.05322135527277
 20
-22.80812191122907
 30
0.0
 10
-24.22802021915769
 20
-22.85482245002209
 30
0.0
 10
-24.32600402832023
 20
-22.88100051879887
 30
0.0
 11
-23.67500305175824
 21
-22.41699981689487
 31
0.0
 11
-23.70400238037121
 21
-22.55599975585889
 31
0.0
 11
-23.82700347900422
 21
-22.68199920654287
 31
0.0
 11
-24.03700256347622
 21
-22.79199981689485
 31
0.0
 11
-24.32600402832023
 21
-22.88100051879887
 31
0.0
  0
ELLIPSE
  5
B61D
330
1F
100
AcDbEntity
  8
AM_0
100
AcDbEllipse
 10
-45.37100219726627
 20
0.0000000000000733
 30
0.0
 11
-0.0664136434289569
 21
-23.74990523410399
 31
0.0
210
0.0
220
0.0
230
1.0
 40
0.0879998729505
 41
0.2663398215997905
 42
0.3982300751318661
  0
SPLINE
  5
B61E
330
1F
100
AcDbEntity
  8
AM_0
100
AcDbSpline
210
0.0
220
0.0
230
1.0
 70
     8
 71
     3
 72
    11
 73
     7
 74
     5
 42
0.0000000001
 43
0.0000000001
 44
0.0000000001
 40
0.0
 40
0.0
 40
0.0
 40
0.0
 40
0.3983993453749862
 40
1.057587180470545
 40
1.927061685303736
 40
2.898106250036474
 40
2.898106250036474
 40
2.898106250036474
 40
2.898106250036474
 10
-42.10800170898425
 20
-22.64699935913091
 30
0.0
 10
-42.02748842821998
 20
-22.53849232104401
 30
0.0
 10
-41.81375862524112
 20
-22.25045055138819
 30
0.0
 10
-41.17442077800137
 20
-22.04047577671275
 30
0.0
 10
-40.36984732883825
 20
-21.85260745374877
 30
0.0
 10
-39.75263743449963
 20
-21.84762572834153
 30
0.0
 10
-39.42700195312527
 20
-21.8449974060059
 30
0.0
 11
-42.10800170898425
 21
-22.64699935913091
 31
0.0
 11
-41.84700012207025
 21
-22.34600067138694
 31
0.0
 11
-41.24700164794925
 21
-22.07299804687494
 31
0.0
 11
-40.39700317382824
 21
-21.88999938964791
 31
0.0
 11
-39.42700195312527
 21
-21.8449974060059
 31
0.0
  0
SPLINE
  5
B61F
330
1F
100
AcDbEntity
  8
AM_0
100
AcDbSpline
210
0.0
220
0.0
230
1.0
 70
     8
 71
     3
 72
    11
 73
     7
 74
     5
 42
0.0000000001
 43
0.0000000001
 44
0.0000000001
 40
0.0
 40
0.0
 40
0.0
 40
0.0
 40
0.2846901879682714
 40
0.5314358622871778
 40
0.718412806197077
 40
0.8467801890270742
 40
0.8467801890270742
 40
0.8467801890270742
 40
0.8467801890270742
 10
-45.34500122070324
 20
-21.55099868774389
 30
0.0
 10
-45.24961880255274
 20
-21.55748021135432
 30
0.0
 10
-45.0715668717904
 20
-21.56957937821859
 30
0.0
 10
-44.84570940177513
 20
-21.64037853720506
 30
0.0
 10
-44.66530272601374
 20
-21.72672733636695
 30
0.0
 10
-44.62528940396094
 20
-21.82712933537425
 30
0.0
 10
-44.60900115966826
 20
-21.8680000305179
 30
0.0
 11
-45.34500122070324
 21
-21.55099868774389
 31
0.0
 11
-45.06200408935525
 21
-21.58200073242191
 31
0.0
 11
-44.82599639892628
 21
-21.65399932861292
 31
0.0
 11
-44.66800689697326
 21
-21.7539978027339
 31
0.0
 11
-44.60900115966826
 21
-21.8680000305179
 31
0.0
  0
ELLIPSE
  5
B620
330
1F
100
AcDbEntity
  8
AM_0
100
AcDbEllipse
 10
-31.52300262451228
 20
-17.23999786376988
 30
0.0
 11
1.666267353934002
 21
-0.534839716593997
 31
0.0
210
0.0
220
0.0
230
1.0
 40
0.9662845498299999
 41
3.141592563116642
 42
6.283078420290322
  0
ELLIPSE
  5
B621
330
1F
100
AcDbEntity
  8
AM_0
100
AcDbEllipse
 10
-31.52300262451228
 20
-17.23999786376988
 30
0.0
 11
1.666267353934002
 21
-0.534839716593997
 31
0.0
210
0.0
220
0.0
230
1.0
 40
0.9662845498299999
 41
0.0
 42
3.141592744062941
  0
SPLINE
  5
B622
330
1F
100
AcDbEntity
  8
AM_0
100
AcDbSpline
210
0.0
220
0.0
230
1.0
 70
     8
 71
     3
 72
    11
 73
     7
 74
     5
 42
0.0000000001
 43
0.0000000001
 44
0.0000000001
 40
0.0
 40
0.0
 40
0.0
 40
0.0
 40
1.050650310157746
 40
2.380596064909624
 40
3.628812347875648
 40
4.51972613781838
 40
4.51972613781838
 40
4.51972613781838
 40
4.51972613781838
 10
-51.58800506591827
 20
-19.49300003051794
 30
0.0
 10
-51.31711989552352
 20
-19.2564492441864
 30
0.0
 10
-50.70333987333201
 20
-18.72046513449
 30
0.0
 10
-49.44414893444058
 20
-18.6676694596101
 30
0.0
 10
-48.22629385051466
 20
-18.92320632797254
 30
0.0
 10
-47.8399196066177
 20
-19.55208229685295
 30
0.0
 10
-47.67900085449226
 20
-19.81399917602492
 30
0.0
 11
-51.58800506591827
 21
-19.49300003051794
 31
0.0
 11
-50.73400115966826
 21
-18.88100051879894
 31
0.0
 11
-49.41300201416026
 21
-18.72699737548793
 31
0.0
 11
-48.22499847412125
 21
-19.11000061035195
 31
0.0
 11
-47.67900085449226
 21
-19.81399917602492
 31
0.0
  0
SPLINE
  5
B623
330
1F
100
AcDbEntity
  8
AM_0
100
AcDbSpline
210
0.0
220
0.0
230
1.0
 70
     8
 71
     3
 72
    11
 73
     7
 74
     5
 42
0.0000000001
 43
0.0000000001
 44
0.0000000001
 40
0.0
 40
0.0
 40
0.0
 40
0.0
 40
0.2455207517029052
 40
0.5040254845692289
 40
0.7997172409109626
 40
1.142299338078806
 40
1.142299338078806
 40
1.142299338078806
 40
1.142299338078806
 10
-47.67900085449226
 20
-19.81399917602492
 30
0.0
 10
-47.67725963073259
 20
-19.89712937822166
 30
0.0
 10
-47.6736851013166
 20
-20.06778599341178
 30
0.0
 10
-47.80992233627239
 20
-20.30919421555997
 30
0.0
 10
-48.03272567899376
 20
-20.51318230828018
 30
0.0
 10
-48.22356617132454
 20
-20.60937147819725
 30
0.0
 10
-48.32599639892627
 20
-20.66099929809592
 30
0.0
 11
-47.67900085449226
 21
-19.81399917602492
 31
0.0
 11
-47.69499969482425
 21
-20.05899810790992
 31
0.0
 11
-47.81300354003927
 21
-20.2889976501459
 31
0.0
 11
-48.02799987793028
 21
-20.49200057983391
 31
0.0
 11
-48.32599639892627
 21
-20.66099929809592
 31
0.0
  0
ELLIPSE
  5
B624
330
1F
100
AcDbEntity
  8
AM_0
100
AcDbEllipse
 10
-9.751003265381283
 20
0.0000000000001427
 30
0.0
 11
26.27567377616403
 21
-23.73277738700494
 31
0.0
210
0.0
220
0.0
230
1.0
 40
0.0338352189995
 41
3.80506795080649
 42
3.935740714901049
  0
SPLINE
  5
B625
330
1F
100
AcDbEntity
  8
AM_0
100
AcDbSpline
210
0.0
220
0.0
230
1.0
 70
     8
 71
     3
 72
    11
 73
     7
 74
     5
 42
0.0000000001
 43
0.0000000001
 44
0.0000000001
 40
0.0
 40
0.0
 40
0.0
 40
0.0
 40
0.5910356840003037
 40
1.239739378563658
 40
2.041801464523865
 40
3.031441636071422
 40
3.031441636071422
 40
3.031441636071422
 40
3.031441636071422
 10
-5.630996704101264
 20
-19.97299957275386
 30
0.0
 10
-5.634695243766609
 20
-19.77437635616662
 30
0.0
 10
-5.642453193735508
 20
-19.35775003432841
 30
0.0
 10
-5.929922961095937
 20
-18.72135752621053
 30
0.0
 10
-6.565198230219641
 20
-18.14450585346564
 30
0.0
 10
-7.174471648568123
 20
-18.08104821405212
 30
0.0
 10
-7.511001586914281
 20
-18.04599761962883
 30
0.0
 11
-5.630996704101264
 21
-19.97299957275386
 31
0.0
 11
-5.680000305176252
 21
-19.38399887084987
 31
0.0
 11
-5.943000793457247
 21
-18.79100036621086
 31
0.0
 11
-6.544998168945275
 21
-18.26099777221686
 31
0.0
 11
-7.511001586914281
 21
-18.04599761962883
 31
0.0
  0
SPLINE
  5
B626
330
1F
100
AcDbEntity
  8
AM_0
100
AcDbSpline
210
0.0
220
0.0
230
1.0
 70
     8
 71
     3
 72
    11
 73
     7
 74
     5
 42
0.0000000001
 43
0.0000000001
 44
0.0000000001
 40
0.0
 40
0.0
 40
0.0
 40
0.0
 40
1.040405537403063
 40
1.898917651962371
 40
2.615854967905431
 40
3.242165867264125
 40
3.242165867264125
 40
3.242165867264125
 40
3.242165867264125
 10
-7.511001586914281
 20
-18.04599761962883
 30
0.0
 10
-7.859018843889682
 20
-18.11151185383842
 30
0.0
 10
-8.494209727348129
 20
-18.23108651133775
 30
0.0
 10
-9.157892452988384
 20
-18.84304612128957
 30
0.0
 10
-9.547973868106906
 20
-19.47971427517032
 30
0.0
 10
-9.624378693803242
 20
-19.92457606592792
 30
0.0
 10
-9.660003662109247
 20
-20.13199996948184
 30
0.0
 11
-7.511001586914281
 21
-18.04599761962883
 31
0.0
 11
-8.509002685547264
 21
-18.34000015258785
 31
0.0
 11
-9.158000946045252
 21
-18.90200042724586
 31
0.0
 11
-9.518001556396271
 21
-19.52199935913085
 31
0.0
 11
-9.660003662109247
 21
-20.13199996948184
 31
0.0
  0
ELLIPSE
  5
B627
330
1F
100
AcDbEntity
  8
AM_0
100
AcDbEllipse
 10
107.9830017089837
 20
0.0000000000003323
 30
0.0
 11
302.0059589306598
 21
-0.1789751441294779
 31
0.0
210
0.0
220
0.0
230
1.0
 40
0.0786408185905
 41
4.311772683856633
 42
4.325396441781248
  0
ELLIPSE
  5
B628
330
1F
100
AcDbEntity
  8
AM_0
100
AcDbEllipse
 10
-7.428001403808281
 20
0.0000000000001367
 30
0.0
 11
0.9315573971570479
 21
-23.74973701186899
 31
0.0
210
0.0
220
0.0
230
1.0
 40
0.078635033753
 41
0.3868646164910011
 42
0.5669211050480624
  0
ELLIPSE
  5
B629
330
1F
100
AcDbEntity
  8
AM_0
100
AcDbEllipse
 10
-51.84300231933629
 20
7.006000518799064
 30
0.0
 11
2.484725839150002
 21
-0.2759172914209983
 31
0.0
210
0.0
220
0.0
230
1.0
 40
0.9440007843022
 41
2.522299213533102
 42
3.130372737518611
  0
SPLINE
  5
B62A
330
1F
100
AcDbEntity
  8
AM_0
100
AcDbSpline
210
0.0
220
0.0
230
1.0
 70
     8
 71
     3
 72
    11
 73
     7
 74
     5
 42
0.0000000001
 43
0.0000000001
 44
0.0000000001
 40
0.0
 40
0.0
 40
0.0
 40
0.0
 40
0.1866250605457489
 40
0.3706907681342881
 40
0.5563400721085947
 40
0.7427940210543892
 40
0.7427940210543892
 40
0.7427940210543892
 40
0.7427940210543892
 10
-15.57600402832027
 20
6.114002227783126
 30
0.0
 10
-15.55139836615353
 20
6.171181258776824
 30
0.0
 10
-15.50252448082234
 20
6.28475517461774
 30
0.0
 10
-15.41030561612805
 20
6.446096836144792
 30
0.0
 10
-15.30255773940036
 20
6.597451605523228
 30
0.0
 10
-15.21957999335969
 20
6.689750712599122
 30
0.0
 10
-15.1780014038083
 20
6.736000061035122
 30
0.0
 11
-15.57600402832027
 21
6.114002227783126
 31
0.0
 11
-15.49900054931631
 21
6.284000396729121
 31
0.0
 11
-15.40800476074229
 21
6.444000244141117
 31
0.0
 11
-15.30000305175828
 21
6.595001220703118
 31
0.0
 11
-15.1780014038083
 21
6.736000061035122
 31
0.0
  0
ELLIPSE
  5
B62B
330
1F
100
AcDbEntity
  8
AM_0
100
AcDbEllipse
 10
-14.69100189209028
 20
4.354999542236126
 30
0.0
 11
1.443328829414001
 21
-1.384485285583
 31
0.0
210
0.0
220
0.0
230
1.0
 40
0.9834991048274
 41
1.719539130112057
 42
2.793553936288672
  0
ELLIPSE
  5
B62C
330
1F
100
AcDbEntity
  8
AM_0
100
AcDbEllipse
 10
-14.69100189209028
 20
4.354999542236126
 30
0.0
 11
1.443328829414001
 21
-1.384485285583
 31
0.0
210
0.0
220
0.0
230
1.0
 40
0.9834991048274
 41
0.5966721803359079
 42
1.311155236545004
  0
SPLINE
  5
B62D
330
1F
100
AcDbEntity
  8
AM_0
100
AcDbSpline
210
0.0
220
0.0
230
1.0
 70
     8
 71
     3
 72
    11
 73
     7
 74
     5
 42
0.0000000001
 43
0.0000000001
 44
0.0000000001
 40
0.0
 40
0.0
 40
0.0
 40
0.0
 40
1.529993527069457
 40
3.065873834014881
 40
4.567719158232506
 40
6.081767202865795
 40
6.081767202865795
 40
6.081767202865795
 40
6.081767202865795
 10
-15.1780014038083
 20
6.736000061035122
 30
0.0
 10
-14.72422933014625
 20
7.019478707068634
 30
0.0
 10
-13.81493925627785
 20
7.587526707272139
 30
0.0
 10
-12.20487856655158
 20
6.983502707973394
 30
0.0
 10
-11.41003707914885
 20
5.437866328411318
 30
0.0
 10
-11.94329471497762
 20
4.514535752039551
 30
0.0
 10
-12.21100234985329
 20
4.051002502441128
 30
0.0
 11
-15.1780014038083
 21
6.736000061035122
 31
0.0
 11
-13.7740020751953
 21
7.344001770020128
 31
0.0
 11
-12.3310012817383
 21
6.818000793457122
 31
0.0
 11
-11.67500305175828
 21
5.466999053955126
 31
0.0
 11
-12.21100234985329
 21
4.051002502441128
 31
0.0
  0
SPLINE
  5
B62E
330
1F
100
AcDbEntity
  8
AM_0
100
AcDbSpline
210
0.0
220
0.0
230
1.0
 70
     8
 71
     3
 72
    11
 73
     7
 74
     5
 42
0.0000000001
 43
0.0000000001
 44
0.0000000001
 40
0.0
 40
0.0
 40
0.0
 40
0.0
 40
0.0403134653181255
 40
0.0799112724315228
 40
0.119534297700572
 40
0.1598948320811968
 40
0.1598948320811968
 40
0.1598948320811968
 40
0.1598948320811968
 10
-12.21100234985329
 20
4.051002502441128
 30
0.0
 10
-12.22031129025966
 20
4.041311846315546
 30
0.0
 10
-12.23876391562918
 20
4.022102565853533
 30
0.0
 10
-12.26679544759631
 20
3.993773125531895
 30
0.0
 10
-12.29612231777598
 20
3.966763998313068
 30
0.0
 10
-12.31598241641242
 20
3.948977628317655
 30
0.0
 10
-12.32600402832029
 20
3.940002441406112
 30
0.0
 11
-12.21100234985329
 21
4.051002502441128
 31
0.0
 11
-12.23900222778329
 21
4.021999359131121
 31
0.0
 11
-12.26700210571329
 21
3.99399948120112
 31
0.0
 11
-12.29600143432629
 21
3.966999053955111
 31
0.0
 11
-12.32600402832029
 21
3.940002441406112
 31
0.0
  0
ELLIPSE
  5
B62F
330
1F
100
AcDbEntity
  8
AM_0
100
AcDbEllipse
 10
-15.24700164794927
 20
0.0000000000001232
 30
0.0
 11
2.339572012905035
 21
-23.74702978255799
 31
0.0
210
0.0
220
0.0
230
1.0
 40
0.1396361054181
 41
1.650998254361033
 42
1.72387690041848
  0
ELLIPSE
  5
B630
330
1F
100
AcDbEntity
  8
AM_0
100
AcDbEllipse
 10
19.44400787353472
 20
0.0010032653811907
 30
0.0
 11
302.8986027085689
 21
-0.4823811794254761
 31
0.0
210
0.0
220
0.0
230
1.0
 40
0.011115914202
 41
1.722492217843398
 42
1.726740472820051
  0
ELLIPSE
  5
B631
330
1F
100
AcDbEntity
  8
AM_0
100
AcDbEllipse
 10
-4.538993835449275
 20
-0.0030021667478573
 30
0.0
 11
302.837809708363
 21
-1.39081351694047
 31
0.0
210
0.0
220
0.0
230
1.0
 40
0.0295303467458
 41
1.724301272794438
 42
1.728511311952382
  0
ELLIPSE
  5
B632
330
1F
100
AcDbEntity
  8
AM_0
100
AcDbEllipse
 10
-38.9270019531253
 20
3.777999877930095
 30
0.0
 11
5.981010419020996
 21
-0.4770506368269917
 31
0.0
210
0.0
220
0.0
230
1.0
 40
0.146166822685
 41
5.417115143610232
 42
6.276857222182013
  0
ELLIPSE
  5
B633
330
1F
100
AcDbEntity
  8
AM_0
100
AcDbEllipse
 10
-26.85800170898426
 20
0.0000000000000963
 30
0.0
 11
302.0085851624679
 21
-23.48082245627047
 31
0.0
210
0.0
220
0.0
230
0.9999999999999998
 40
0.0111184498709
 41
1.488507242520293
 42
1.522929051904616
  0
ELLIPSE
  5
B634
330
1F
100
AcDbEntity
  8
AM_0
100
AcDbEllipse
 10
-51.8910026550293
 20
7.409000396729063
 30
0.0
 11
2.486339577033
 21
-0.2610054641749954
 31
0.0
210
0.0
220
0.0
230
1.0
 40
0.9263990893560997
 41
1.623243439991521
 42
3.011496106606981
  0
SPLINE
  5
B635
330
1F
100
AcDbEntity
  8
AM_0
100
AcDbSpline
210
0.0
220
0.0
230
1.0
 70
     8
 71
     3
 72
    11
 73
     7
 74
     5
 42
0.0000000001
 43
0.0000000001
 44
0.0000000001
 40
0.0
 40
0.0
 40
0.0
 40
0.0
 40
0.869944032834385
 40
1.764737246162518
 40
2.700840184898762
 40
3.664732980436341
 40
3.664732980436341
 40
3.664732980436341
 40
3.664732980436341
 10
-54.10399627685531
 20
10.27799987793007
 30
0.0
 10
-54.03639069880586
 20
10.56493310540807
 30
0.0
 10
-53.89924844927117
 20
11.14699555377303
 30
0.0
 10
-53.2473830131363
 20
11.81864853742251
 30
0.0
 10
-52.39161275364769
 20
12.24284876666179
 30
0.0
 10
-51.75165893311696
 20
12.26086207155674
 30
0.0
 10
-51.42700195312531
 20
12.27000045776406
 30
0.0
 11
-54.10399627685531
 21
10.27799987793007
 31
0.0
 11
-53.83100128173833
 21
11.10400009155306
 31
0.0
 11
-53.22899627685532
 21
11.76600074768106
 31
0.0
 11
-52.38600158691433
 21
12.17300033569305
 31
0.0
 11
-51.42700195312531
 21
12.27000045776406
 31
0.0
  0
ELLIPSE
  5
B636
330
1F
100
AcDbEntity
  8
AM_0
100
AcDbEllipse
 10
-43.02300262451228
 20
0.0000000000000817
 30
0.0
 11
-2.090463039112959
 21
-23.749171257522
 31
0.0
210
0.0
220
0.0
230
1.0
 40
0.0068788931905
 41
2.378968949646015
 42
2.461399064823289
  0
ELLIPSE
  5
B637
330
1F
100
AcDbEntity
  8
AM_0
100
AcDbEllipse
 10
-35.34100723266628
 20
2.768001556396094
 30
0.0
 11
5.981006616400001
 21
-0.4770503335259915
 31
0.0
210
0.0
220
0.0
230
1.0
 40
0.1418332020045
 41
4.525617459908349
 42
4.684329616083988
  0
SPLINE
  5
B638
330
1F
100
AcDbEntity
  8
AM_0
100
AcDbSpline
210
0.0
220
0.0
230
1.0
 70
     8
 71
     3
 72
    11
 73
     7
 74
     5
 42
0.0000000001
 43
0.0000000001
 44
0.0000000001
 40
0.0
 40
0.0
 40
0.0
 40
0.0
 40
0.2968163593400904
 40
0.6139091291278227
 40
0.9407207691143078
 40
1.270519578012389
 40
1.270519578012389
 40
1.270519578012389
 40
1.270519578012389
 10
-35.49900054931629
 20
2.733001708984099
 30
0.0
 10
-35.59257073059484
 20
2.700397428406118
 30
0.0
 10
-35.78610315120926
 20
2.632961571636064
 30
0.0
 10
-36.06489255801393
 20
2.48906759364914
 30
0.0
 10
-36.33466137952459
 20
2.299266674297692
 30
0.0
 10
-36.45670055354348
 20
2.115369513652469
 30
0.0
 10
-36.51799774169928
 20
2.023002624512093
 30
0.0
 11
-35.49900054931629
 21
2.733001708984099
 31
0.0
 11
-35.77700042724627
 21
2.629001617432088
 31
0.0
 11
-36.05899810791028
 21
2.484001159668088
 31
0.0
 11
-36.31900024414128
 21
2.285999298096092
 31
0.0
 11
-36.51799774169928
 21
2.023002624512093
 31
0.0
  0
ELLIPSE
  5
B639
330
1F
100
AcDbEntity
  8
AM_0
100
AcDbEllipse
 10
-39.24700164794927
 20
0.000000000000095
 30
0.0
 11
1.455306310318042
 21
-23.748448516209
 31
0.0
210
0.0
220
0.0
230
1.0
 40
0.1595007444456
 41
1.899379490716159
 42
1.972088841652404
  0
ELLIPSE
  5
B63A
330
1F
100
AcDbEntity
  8
AM_0
100
AcDbEllipse
 10
-43.3330001831053
 20
18.23299980163607
 30
0.0
 11
2.000267008647997
 21
-0.083244134541996
 31
0.0
210
0.0
220
0.0
230
1.0
 40
0.243756229911
 41
3.208905381161176
 42
6.266019516961847
  0
SPLINE
  5
B63B
330
1F
100
AcDbEntity
  8
AM_0
100
AcDbSpline
210
0.0
220
0.0
230
1.0
 70
     8
 71
     3
 72
    11
 73
     7
 74
     5
 42
0.0000000001
 43
0.0000000001
 44
0.0000000001
 40
0.0
 40
0.0
 40
0.0
 40
0.0
 40
1.39546852967197
 40
2.892609834873752
 40
4.303620260082907
 40
5.631900250476048
 40
5.631900250476048
 40
5.631900250476048
 40
5.631900250476048
 10
-39.55200195312533
 20
11.53800010681208
 30
0.0
 10
-39.23253451103051
 20
11.90420338305255
 30
0.0
 10
-38.57032347203083
 20
12.66329122766713
 30
0.0
 10
-36.99312264663142
 20
12.63808559828182
 30
0.0
 10
-35.67386487248172
 20
11.73063468187375
 30
0.0
 10
-35.73254677417432
 20
10.75977077914072
 30
0.0
 10
-35.76100158691433
 20
10.28899955749509
 30
0.0
 11
-39.55200195312533
 21
11.53800010681208
 31
0.0
 11
-38.50099945068333
 21
12.45600128173807
 31
0.0
 11
-37.00400543212932
 21
12.47700119018609
 31
0.0
 11
-35.89000701904332
 21
11.61100006103509
 31
0.0
 11
-35.76100158691433
 21
10.28899955749509
 31
0.0
  0
SPLINE
  5
B63C
330
1F
100
AcDbEntity
  8
AM_0
100
AcDbSpline
210
0.0
220
0.0
230
1.0
 70
     8
 71
     3
 72
    11
 73
     7
 74
     5
 42
0.0000000001
 43
0.0000000001
 44
0.0000000001
 40
0.0
 40
0.0
 40
0.0
 40
0.0
 40
0.2414714046731342
 40
0.4882603121723465
 40
0.7384634279481141
 40
0.9910136453989041
 40
0.9910136453989041
 40
0.9910136453989041
 40
0.9910136453989041
 10
-35.76100158691433
 20
10.28899955749509
 30
0.0
 10
-35.79049856633071
 20
10.21394977831886
 30
0.0
 10
-35.8501420856016
 20
10.06219752981284
 30
0.0
 10
-35.98060689599068
 20
9.852167293915069
 30
0.0
 10
-36.13747894420788
 20
9.656494532431182
 30
0.0
 10
-36.26296197503182
 20
9.545005220217998
 30
0.0
 10
-36.32599639892632
 20
9.489000320435089
 30
0.0
 11
-35.76100158691433
 21
10.28899955749509
 31
0.0
 11
-35.85600280761731
 21
10.06700134277308
 31
0.0
 11
-35.98400115966832
 21
9.856000900269089
 31
0.0
 11
-36.14200592041032
 21
9.662000656128091
 31
0.0
 11
-36.32599639892632
 21
9.489000320435089
 31
0.0
  0
ELLIPSE
  5
B63D
330
1F
100
AcDbEntity
  8
AM_0
100
AcDbEllipse
 10
331.2059783935536
 20
0.0000000000007251
 30
0.0
 11
604.4775457551199
 21
-3.380718341262954
 31
0.0
210
0.0
220
0.0
230
1.0
 40
0.0389073695857
 41
4.073678636605372
 42
4.13019100879883
  0
SPLINE
  5
B63E
330
1F
100
AcDbEntity
  8
AM_0
100
AcDbSpline
210
0.0
220
0.0
230
1.0
 70
     8
 71
     3
 72
    11
 73
     7
 74
     5
 42
0.0000000001
 43
0.0000000001
 44
0.0000000001
 40
0.0
 40
0.0
 40
0.0
 40
0.0
 40
4.084532807004663
 40
8.168459896501481
 40
12.25286173102392
 40
16.33686901686209
 40
16.33686901686209
 40
16.33686901686209
 40
16.33686901686209
 10
-1.670997619629271
 20
-0.8959999084468527
 30
0.0
 10
-1.650526263212003
 20
-2.257360589716968
 30
0.0
 10
-1.609586586185862
 20
-4.979880068703289
 30
0.0
 10
-1.520698738219357
 20
-9.063222182543468
 30
0.0
 10
-1.41558638122537
 20
-13.14600365045537
 30
0.0
 10
-1.327192124774056
 20
-15.86737879315039
 30
0.0
 10
-1.282997131348276
 20
-17.22800064086884
 30
0.0
 11
-1.670997619629271
 21
-0.8959999084468527
 31
0.0
 11
-1.605003356933291
 21
-4.979999542235842
 31
0.0
 11
-1.517997741699242
 21
-9.062999725341851
 31
0.0
 11
-1.411003112793262
 21
-13.14599990844686
 31
0.0
 11
-1.282997131348276
 21
-17.22800064086884
 31
0.0
  0
ELLIPSE
  5
B63F
330
1F
100
AcDbEntity
  8
AM_0
100
AcDbEllipse
 10
83.98301696777371
 20
0.0000000000003042
 30
0.0
 11
302.0050132386999
 21
-5.91784319566648
 31
0.0
210
0.0
220
0.0
230
1.0
 40
0.0762158895737
 41
4.314923589061421
 42
4.328768109421918
  0
ELLIPSE
  5
B640
330
1F
100
AcDbEntity
  8
AM_0
100
AcDbEllipse
 10
-31.52300262451228
 20
-17.24000167846689
 30
0.0
 11
1.904304558641002
 21
-0.6112460746339929
 31
0.0
210
0.0
220
0.0
230
1.0
 40
0.9665009875599
 41
0.340586124791677
 42
2.939458976717701
  0
ELLIPSE
  5
B641
330
1F
100
AcDbEntity
  8
AM_0
100
AcDbEllipse
 10
-38.75699615478526
 20
5.770999908447092
 30
0.0
 11
5.978546079095999
 21
-0.5069499227889875
 31
0.0
210
0.0
220
0.0
230
1.0
 40
0.3763335345056
 41
4.704623269467794
 42
6.275218277750886
  0
ELLIPSE
  5
B642
330
1F
100
AcDbEntity
  8
AM_0
100
AcDbEllipse
 10
307.2059783935536
 20
0.0000000000006827
 30
0.0
 11
604.47866438124
 21
-8.821517425570959
 31
0.0
210
0.0
220
0.0
230
1.0
 40
0.0364208973791
 41
4.073990978083815
 42
4.095307799659422
  0
SPLINE
  5
B644
330
1F
100
AcDbEntity
  8
AM_0
100
AcDbSpline
210
0.0
220
0.0
230
1.0
 70
     8
 71
     3
 72
    11
 73
     7
 74
     5
 42
0.0000000001
 43
0.0000000001
 44
0.0000000001
 40
0.0
 40
0.0
 40
0.0
 40
0.0
 40
0.8165863516723664
 40
1.60763467654157
 40
2.388191052811587
 40
5.41579346011099
 40
5.41579346011099
 40
5.41579346011099
 40
5.41579346011099
 10
-60.56200313568131
 20
22.31699943542504
 30
0.0
 10
-60.83392488194202
 20
22.30210877965484
 30
0.0
 10
-61.36926425872583
 20
22.27279316040212
 30
0.0
 10
-62.15433696883276
 20
22.11220824099572
 30
0.0
 10
-63.56476517999503
 20
21.48526288820411
 30
0.0
 10
-64.85958121429399
 20
21.47620286082721
 30
0.0
 10
-65.88899946212741
 20
21.46899986267103
 30
0.0
 11
-60.56200313568131
 21
22.31699943542504
 31
0.0
 11
-61.37599849700933
 21
22.25200080871605
 31
0.0
 11
-62.14900112152073
 21
22.08399963378904
 31
0.0
 11
-62.88100337982155
 21
21.81299972534203
 31
0.0
 11
-65.88899946212741
 21
21.46899986267103
 31
0.0
  0
ELLIPSE
  5
B645
330
1F
100
AcDbEntity
  8
AM_0
100
AcDbEllipse
 10
-66.48599243164046
 20
47.34100055694533
 30
0.0
 11
39.73633550618611
 21
-2.729905222307929
 31
0.0
210
0.0
220
0.0
230
1.0
 40
0.6281696683185998
 41
4.904841607179236
 42
5.024715240979761
  0
ELLIPSE
  5
B646
330
1F
100
AcDbEntity
  8
AM_0
100
AcDbEllipse
 10
-19.02300262451228
 20
0.0000000000001241
 30
0.0
 11
-1.994781728919955
 21
-23.74937354083
 31
0.0
210
0.0
220
0.0
230
1.0
 40
0.027734466409
 41
2.098279996745419
 42
2.20657489599201
  0
SPLINE
  5
B647
330
1F
100
AcDbEntity
  8
AM_0
100
AcDbSpline
210
0.0
220
0.0
230
1.0
 70
     8
 71
     3
 72
    11
 73
     7
 74
     5
 42
0.0000000001
 43
0.0000000001
 44
0.0000000001
 40
0.0
 40
0.0
 40
0.0
 40
0.0
 40
0.3114517444112246
 40
0.6178490599500874
 40
0.9190188743122384
 40
1.218074467810353
 40
1.218074467810353
 40
1.218074467810353
 40
1.218074467810353
 10
-33.34500122070332
 20
7.673999786377097
 30
0.0
 10
-33.2414790701033
 20
7.655233904899755
 30
0.0
 10
-33.03611478950457
 20
7.618006686115576
 30
0.0
 10
-32.78662974948668
 20
7.423899888478974
 30
0.0
 10
-32.6214396468245
 20
7.157331509231307
 30
0.0
 10
-32.61514391770413
 20
6.954205768432546
 30
0.0
 10
-32.61200714111331
 20
6.853000640869103
 30
0.0
 11
-33.34500122070332
 21
7.673999786377097
 31
0.0
 11
-33.04399871826233
 21
7.594001770020103
 31
0.0
 11
-32.7990036010743
 21
7.409999847412086
 31
0.0
 11
-32.64700317382832
 21
7.150001525879097
 31
0.0
 11
-32.61200714111331
 21
6.853000640869103
 31
0.0
  0
ELLIPSE
  5
B648
330
1F
100
AcDbEntity
  8
AM_0
100
AcDbEllipse
 10
-27.89100265502928
 20
3.569999694824097
 30
0.0
 11
2.405658724058995
 21
-0.6802941590919961
 31
0.0
210
0.0
220
0.0
230
1.0
 40
0.9896010349278999
 41
1.765001613629176
 42
2.937078661836451
  0
SPLINE
  5
B649
330
1F
100
AcDbEntity
  8
AM_0
100
AcDbSpline
210
0.0
220
0.0
230
1.0
 70
     8
 71
     3
 72
    11
 73
     7
 74
     5
 42
0.0000000001
 43
0.0000000001
 44
0.0000000001
 40
0.0
 40
0.0
 40
0.0
 40
0.0
 40
0.8368008745716382
 40
1.679749096067393
 40
2.531846809209095
 40
3.388409978598649
 40
3.388409978598649
 40
3.388409978598649
 40
3.388409978598649
 10
-30.02500152587929
 20
5.215000152588102
 30
0.0
 10
-29.9207888821123
 20
5.477028316721772
 30
0.0
 10
-29.71159802263093
 20
6.00300956891996
 30
0.0
 10
-29.07828250623451
 20
6.594884061219961
 30
0.0
 10
-28.29046079741673
 20
6.96771398421997
 30
0.0
 10
-27.71532259464974
 20
6.979894091499709
 30
0.0
 10
-27.42700195312531
 20
6.986000061035095
 30
0.0
 11
-30.02500152587929
 21
5.215000152588102
 31
0.0
 11
-29.66000366210926
 21
5.968002319336095
 31
0.0
 11
-29.05599975585929
 21
6.555999755859107
 31
0.0
 11
-28.28000640869131
 21
6.908000946045111
 31
0.0
 11
-27.42700195312531
 21
6.986000061035095
 31
0.0
  0
ELLIPSE
  5
B64A
330
1F
100
AcDbEntity
  8
AM_0
100
AcDbEllipse
 10
59.98298645019371
 20
0.0000000000002476
 30
0.0
 11
302.00144576392
 21
-11.35835913642747
 31
0.0
210
0.0
220
0.0
230
1.0
 40
0.0692255576099
 41
4.315293989384289
 42
4.330288568494549
  0
ELLIPSE
  5
B64B
330
1F
100
AcDbEntity
  8
AM_0
100
AcDbEllipse
 10
-55.28200149536125
 20
-11.95899963378893
 30
0.0
 11
1.994342447776999
 21
-0.1630858750189966
 31
0.0
210
0.0
220
0.0
230
1.0
 40
0.9315348274712
 41
0.107300112401595
 42
3.063669369051973
  0
ELLIPSE
  5
B64C
330
1F
100
AcDbEntity
  8
AM_0
100
AcDbEllipse
 10
-55.28200149536125
 20
-11.95899963378893
 30
0.0
 11
1.994342447776999
 21
-0.1630858750189966
 31
0.0
210
0.0
220
0.0
230
1.0
 40
0.9315348274712
 41
3.063669369051973
 42
3.248259065447594
  0
ELLIPSE
  5
B64D
330
1F
100
AcDbEntity
  8
AM_0
100
AcDbEllipse
 10
-55.52300262451227
 20
-13.40800094604496
 30
0.0
 11
1.972968518671997
 21
-0.3276997377219965
 31
0.0
210
0.0
220
0.0
230
1.0
 40
0.8790000643135
 41
0.1849780627315482
 42
2.807966335382065
  0
ELLIPSE
  5
B64E
330
1F
100
AcDbEntity
  8
AM_0
100
AcDbEllipse
 10
-21.75100326538128
 20
0.0000000000001144
 30
0.0
 11
25.31667584724201
 21
-8.014615808187958
 31
0.0
210
0.0
220
0.0
230
1.0
 40
0.8830728227873997
 41
4.055138934268796
 42
4.176334294463099
  0
ELLIPSE
  5
B64F
330
1F
100
AcDbEntity
  8
AM_0
100
AcDbEllipse
 10
-55.02300262451228
 20
0.0000000000000676
 30
0.0
 11
-0.0664136434289605
 21
-23.74990523410399
 31
0.0
210
0.0
220
0.0
230
1.0
 40
0.0880001941882
 41
0.8750694599370925
 42
1.02225040669441
  0
ELLIPSE
  5
B650
330
1F
100
AcDbEntity
  8
AM_0
100
AcDbEllipse
 10
-51.84300231933629
 20
7.006000518799064
 30
0.0
 11
2.484725839150002
 21
-0.2759172914209983
 31
0.0
210
0.0
220
0.0
230
1.0
 40
0.9440007843022
 41
3.130372737518611
 42
3.165547485795356
  0
ELLIPSE
  5
B651
330
1F
100
AcDbEntity
  8
AM_0
100
AcDbEllipse
 10
-51.85000228881829
 20
6.950000762939063
 30
0.0
 11
2.481235514087998
 21
-0.3057135700109966
 31
0.0
210
0.0
220
0.0
230
0.9999999999999998
 40
0.9812005853275998
 41
2.533746341132358
 42
3.130798322264928
  0
ELLIPSE
  5
B652
330
1F
100
AcDbEntity
  8
AM_0
100
AcDbEllipse
 10
-12.79700088501027
 20
0.3979988098141303
 30
0.0
 11
0.7974662986289975
 21
-0.0636081421399965
 31
0.0
210
0.0
220
0.0
230
1.0
 40
0.1412501172537
 41
6.257891388332679
 42
6.334359483598735
  0
SPLINE
  5
B653
330
1F
100
AcDbEntity
  8
AM_0
100
AcDbSpline
210
0.0
220
0.0
230
1.0
 70
     8
 71
     3
 72
    11
 73
     7
 74
     5
 42
0.0000000001
 43
0.0000000001
 44
0.0000000001
 40
0.0
 40
0.0
 40
0.0
 40
0.0
 40
1.816767488911609
 40
3.617776912503355
 40
5.405507291518146
 40
7.180493545012973
 40
7.180493545012973
 40
7.180493545012973
 40
7.180493545012973
 10
-48.76500701904333
 20
23.26399993896506
 30
0.0
 10
-49.37048223474274
 20
23.25004678748558
 30
0.0
 10
-50.57618096604409
 20
23.22226150973968
 30
0.0
 10
-52.37512179689407
 20
23.11474268203178
 30
0.0
 10
-54.15697945443112
 20
22.96367628488053
 30
0.0
 10
-55.33572902387134
 20
22.81838571620015
 30
0.0
 10
-55.92299556732233
 20
22.74600028991705
 30
0.0
 11
-48.76500701904333
 21
23.26399993896506
 31
0.0
 11
-50.58100128173833
 21
23.21100044250506
 31
0.0
 11
-52.37900543212933
 21
23.10700035095206
 31
0.0
 11
-54.16000366210933
 21
22.95199966430705
 31
0.0
 11
-55.92299556732233
 21
22.74600028991705
 31
0.0
  0
ELLIPSE
  5
B654
330
1F
100
AcDbEntity
  8
AM_0
100
AcDbEllipse
 10
-12.79700088501027
 20
0.3979988098141303
 30
0.0
 11
0.7974662986289975
 21
-0.0636081421399965
 31
0.0
210
0.0
220
0.0
230
1.0
 40
0.1412501172537
 41
0.0511741764191488
 42
0.7611159870298462
  0
ELLIPSE
  5
B655
330
1F
100
AcDbEntity
  8
AM_0
100
AcDbEllipse
 10
-45.14600372314428
 20
-2.347999572753916
 30
0.0
 11
40.53845331830398
 21
-2.785011098989933
 31
0.0
210
0.0
220
0.0
230
1.0
 40
0.6281684189418
 41
1.703382338728118
 42
1.882696142633685
  0
SPLINE
  5
B656
330
1F
100
AcDbEntity
  8
AM_0
100
AcDbSpline
210
0.0
220
0.0
230
1.0
 70
     8
 71
     3
 72
    11
 73
     7
 74
     5
 42
0.0000000001
 43
0.0000000001
 44
0.0000000001
 40
0.0
 40
0.0
 40
0.0
 40
0.0
 40
0.07940388985183
 40
0.2522011332939154
 40
0.501933025674415
 40
0.793694275178016
 40
0.793694275178016
 40
0.793694275178016
 40
0.793694275178016
 10
-13.09000396728526
 20
5.798999786377126
 30
0.0
 10
-13.11066240284127
 20
5.815991882944063
 30
0.0
 10
-13.1762773351705
 20
5.869961858712477
 30
0.0
 10
-13.34749898069207
 20
5.897557286286541
 30
0.0
 10
-13.57847566521319
 20
5.943634954211832
 30
0.0
 10
-13.75882760317084
 20
5.960119663963861
 30
0.0
 10
-13.85600280761726
 20
5.969001770020128
 30
0.0
 11
-13.09000396728526
 21
5.798999786377126
 31
0.0
 11
-13.15400314331025
 21
5.846000671387134
 31
0.0
 11
-13.31999969482426
 21
5.894001007080121
 31
0.0
 11
-13.56600189209026
 21
5.937000274658133
 31
0.0
 11
-13.85600280761726
 21
5.969001770020128
 31
0.0
  0
SPLINE
  5
B657
330
1F
100
AcDbEntity
  8
AM_0
100
AcDbSpline
210
0.0
220
0.0
230
1.0
 70
     8
 71
     3
 72
    11
 73
     7
 74
     5
 42
0.0000000001
 43
0.0000000001
 44
0.0000000001
 40
0.0
 40
0.0
 40
0.0
 40
0.0
 40
0.9723750084367315
 40
1.948350652354377
 40
2.926927592551967
 40
3.9085220091269
 40
3.9085220091269
 40
3.9085220091269
 40
3.9085220091269
 10
-54.73700714111333
 20
21.18000030517605
 30
0.0
 10
-54.41476802260893
 20
21.21495936474103
 30
0.0
 10
-53.7690965570686
 20
21.28500693478155
 30
0.0
 10
-52.79736265787124
 20
21.37287906075621
 30
0.0
 10
-51.82118365052004
 20
21.4441575983182
 30
0.0
 10
-51.16873125641419
 20
21.47936762580299
 30
0.0
 10
-50.84200286865232
 20
21.49699974060106
 30
0.0
 11
-54.73700714111333
 21
21.18000030517605
 31
0.0
 11
-53.76999664306635
 21
21.28199958801305
 31
0.0
 11
-52.7979965209963
 21
21.37000083923306
 31
0.0
 11
-51.82199859619133
 21
21.44099998474106
 31
0.0
 11
-50.84200286865232
 21
21.49699974060106
 31
0.0
  0
ELLIPSE
  5
B658
330
1F
100
AcDbEntity
  8
AM_0
100
AcDbEllipse
 10
3.993003845214641
 20
24.96499824523916
 30
0.0
 11
-78.29223319357415
 21
-43.28092925343912
 31
0.0
210
0.0
220
0.0
230
1.0
 40
0.3157199820563
 41
5.265176376878053
 42
5.300736598386866
  0
SPLINE
  5
B659
330
1F
100
AcDbEntity
  8
AM_0
100
AcDbSpline
210
0.0
220
0.0
230
1.0
 70
     8
 71
     3
 72
    11
 73
     7
 74
     5
 42
0.0000000001
 43
0.0000000001
 44
0.0000000001
 40
0.0
 40
0.0
 40
0.0
 40
0.0
 40
0.9593433075754461
 40
1.887165185855141
 40
2.754208690591235
 40
3.528523453504035
 40
3.528523453504035
 40
3.528523453504035
 40
3.528523453504035
 10
-23.5380020141603
 20
6.777000427246116
 30
0.0
 10
-23.85688859183808
 20
6.801243966822148
 30
0.0
 10
-24.48418399576488
 20
6.84893446876083
 30
0.0
 10
-25.40161124472858
 20
6.886179738100365
 30
0.0
 10
-26.25819917244896
 20
6.899484139399313
 30
0.0
 10
-26.80503323727155
 20
6.879450058414621
 30
0.0
 10
-27.06300354003931
 20
6.869998931885089
 30
0.0
 11
-23.5380020141603
 21
6.777000427246116
 31
0.0
 11
-24.49500274658231
 21
6.844001770020119
 31
0.0
 11
-25.42200469970731
 21
6.882999420166117
 31
0.0
 11
-26.28900146484429
 21
6.892002105713116
 31
0.0
 11
-27.06300354003931
 21
6.869998931885089
 31
0.0
  0
ELLIPSE
  5
B65A
330
1F
100
AcDbEntity
  8
AM_0
100
AcDbEllipse
 10
-48.79700088501031
 20
22.55800056457506
 30
0.0
 11
-0.7891349517850016
 21
-0.131401056614004
 31
0.0
210
0.0
220
0.0
230
1.0
 40
0.8787518789429999
 41
3.743090142903573
 42
4.52834251566789
  0
ELLIPSE
  5
B65B
330
1F
100
AcDbEntity
  8
AM_0
100
AcDbEllipse
 10
-48.79700088501031
 20
22.55800056457506
 30
0.0
 11
-0.7891349517850016
 21
-0.131401056614004
 31
0.0
210
0.0
220
0.0
230
1.0
 40
0.8787518789429999
 41
2.956985914313761
 42
3.74309032736027
  0
ELLIPSE
  5
B65C
330
1F
100
AcDbEntity
  8
AM_0
100
AcDbEllipse
 10
-33.37100219726627
 20
0.0000000000001016
 30
0.0
 11
-2.090463039112956
 21
-23.749171257522
 31
0.0
210
0.0
220
0.0
230
1.0
 40
0.0068788931905
 41
1.735558539827836
 42
1.866423109028021
  0
ELLIPSE
  5
B65D
330
1F
100
AcDbEntity
  8
AM_0
100
AcDbEllipse
 10
-59.77700042724623
 20
-16.47299575805695
 30
0.0
 11
-76.58834824141088
 21
-52.17234396003412
 31
0.0
210
0.0
220
0.0
230
1.0
 40
0.031434151149
 41
4.051516518100322
 42
4.085766426620149
  0
SPLINE
  5
B65E
330
1F
100
AcDbEntity
  8
AM_0
100
AcDbSpline
210
0.0
220
0.0
230
1.0
 70
     8
 71
     3
 72
    11
 73
     7
 74
     5
 42
0.0000000001
 43
0.0000000001
 44
0.0000000001
 40
0.0
 40
0.0
 40
0.0
 40
0.0
 40
1.239012313118644
 40
2.482080327574526
 40
3.727239868521389
 40
4.972553660452382
 40
4.972553660452382
 40
4.972553660452382
 40
4.972553660452382
 10
-9.29100036621131
 20
17.22400093078613
 30
0.0
 10
-9.704004975011214
 20
17.2250754406562
 30
0.0
 10
-10.53136609470792
 20
17.22722797762621
 30
0.0
 10
-11.77371100471569
 20
17.24116087071659
 30
0.0
 10
-13.01808869831529
 20
17.26021268195197
 30
0.0
 10
-13.84801275745296
 20
17.28007109434913
 30
0.0
 10
-14.26300048828131
 20
17.29000091552713
 30
0.0
 11
-9.29100036621131
 21
17.22400093078613
 31
0.0
 11
-10.53000259399431
 21
17.22900009155312
 31
0.0
 11
-11.77300262451231
 21
17.24200057983411
 31
0.0
 11
-13.01800155639631
 21
17.26199913024913
 31
0.0
 11
-14.26300048828131
 21
17.29000091552713
 31
0.0
  0
SPLINE
  5
B65F
330
1F
100
AcDbEntity
  8
AM_0
100
AcDbSpline
210
0.0
220
0.0
230
1.0
 70
     8
 71
     3
 72
    11
 73
     7
 74
     5
 42
0.0000000001
 43
0.0000000001
 44
0.0000000001
 40
0.0
 40
0.0
 40
0.0
 40
0.0
 40
1.204009023895695
 40
2.418065209282087
 40
3.640213046742523
 40
4.86850667131278
 40
4.86850667131278
 40
4.86850667131278
 40
4.86850667131278
 10
-7.709999084473335
 20
23.39299964904812
 30
0.0
 10
-7.308661511733389
 20
23.39225338790661
 30
0.0
 10
-6.502637302147188
 20
23.39075463825647
 30
0.0
 10
-5.289292002007667
 20
23.37780595037341
 30
0.0
 10
-4.067917212101744
 20
23.3597198793781
 30
0.0
 10
-3.251323664219429
 20
23.34058886978481
 30
0.0
 10
-2.842002868652312
 20
23.33099937439015
 30
0.0
 11
-7.709999084473335
 21
23.39299964904812
 31
0.0
 11
-6.505996704101304
 21
23.38899993896516
 31
0.0
 11
-5.291999816894329
 21
23.37700080871614
 31
0.0
 11
-4.0699996948243
 21
23.35799980163612
 31
0.0
 11
-2.842002868652312
 21
23.33099937439015
 31
0.0
  0
ELLIPSE
  5
B660
330
1F
100
AcDbEntity
  8
AM_0
100
AcDbEllipse
 10
-13.84600448608432
 20
23.51099967956513
 30
0.0
 11
40.62269071247097
 21
-0.9585736879199313
 31
0.0
210
0.0
220
0.0
230
1.0
 40
0.1902101763629
 41
4.652130338726299
 42
4.83155080812499
  0
SPLINE
  5
B661
330
1F
100
AcDbEntity
  8
AM_0
100
AcDbSpline
210
0.0
220
0.0
230
1.0
 70
     8
 71
     3
 72
    11
 73
     7
 74
     5
 42
0.0000000001
 43
0.0000000001
 44
0.0000000001
 40
0.0
 40
0.0
 40
0.0
 40
0.0
 40
1.82889142322043
 40
3.652373220094004
 40
5.469546536144363
 40
7.28158019706648
 40
7.28158019706648
 40
7.28158019706648
 40
7.28158019706648
 10
-16.4800033569333
 20
15.85600090026912
 30
0.0
 10
-15.87069848927288
 20
15.83599138426369
 30
0.0
 10
-14.65389099963131
 20
15.79603153783575
 30
0.0
 10
-12.83115506729024
 20
15.75427150067913
 30
0.0
 10
-11.0137362678429
 20
15.7292171765759
 30
0.0
 10
-9.804008195363135
 20
15.72373691941732
 30
0.0
 10
-9.200000762939309
 20
15.72100067138715
 30
0.0
 11
-16.4800033569333
 21
15.85600090026912
 31
0.0
 11
-14.65200042724629
 21
15.79899978637712
 31
0.0
 11
-12.82900238037128
 21
15.75699996948213
 31
0.0
 11
-11.0120010375983
 21
15.73200035095213
 31
0.0
 11
-9.200000762939309
 21
15.72100067138715
 31
0.0
  0
ELLIPSE
  5
B662
330
1F
100
AcDbEntity
  8
AM_0
100
AcDbEllipse
 10
-4.645996093750312
 20
8.089000701904145
 30
0.0
 11
39.818921233074
 21
-0.9396071384229308
 31
0.0
210
0.0
220
0.0
230
1.0
 40
0.1902334330058
 41
1.57064178728531
 42
1.690079016938931
  0
SPLINE
  5
B663
330
1F
100
AcDbEntity
  8
AM_0
100
AcDbSpline
210
0.0
220
0.0
230
1.0
 70
     8
 71
     3
 72
    11
 73
     7
 74
     5
 42
0.0000000001
 43
0.0000000001
 44
0.0000000001
 40
0.0
 40
0.0
 40
0.0
 40
0.0
 40
0.9800238555237809
 40
1.92253604143236
 40
2.862756653479578
 40
3.83522525607327
 40
3.83522525607327
 40
3.83522525607327
 40
3.83522525607327
 10
-12.56200408935533
 20
24.95400142669713
 30
0.0
 10
-12.88960611106363
 20
24.94602017603351
 30
0.0
 10
-13.53227076706192
 20
24.93036316730865
 30
0.0
 10
-14.46167312417726
 20
24.6832423576261
 30
0.0
 10
-15.33165436790513
 20
24.27917265579033
 30
0.0
 10
-15.83240257056576
 20
23.88129420199573
 30
0.0
 10
-16.08699798584032
 20
23.67900085449212
 30
0.0
 11
-12.56200408935533
 21
24.95400142669713
 31
0.0
 11
-13.54000091552734
 21
24.89100170135513
 31
0.0
 11
-14.45300292968733
 21
24.65700054168712
 31
0.0
 11
-15.30200195312533
 21
24.25300121307412
 31
0.0
 11
-16.08699798584032
 21
23.67900085449212
 31
0.0
  0
SPLINE
  5
B666
330
1F
100
AcDbEntity
  8
AM_0
100
AcDbSpline
210
0.0
220
0.0
230
1.0
 70
     8
 71
     3
 72
    11
 73
     7
 74
     5
 42
0.0000000001
 43
0.0000000001
 44
0.0000000001
 40
0.0
 40
0.0
 40
0.0
 40
0.0
 40
2.342409460954614
 40
4.706279449575109
 40
7.061094047822597
 40
9.43707039116893
 40
9.43707039116893
 40
9.43707039116893
 40
9.43707039116893
 10
-7.733001708984314
 20
23.30100059509313
 30
0.0
 10
-7.005988574815072
 20
22.91733090735374
 30
0.0
 10
-5.545301606996257
 20
22.14647645302749
 30
0.0
 10
-5.189129414858335
 20
19.48188939944422
 30
0.0
 10
-6.774339443173889
 20
17.30505896402558
 30
0.0
 10
-8.43430573496836
 20
17.31234211818241
 30
0.0
 10
-9.268001556396317
 20
17.31599998474113
 30
0.0
 11
-7.733001708984314
 21
23.30100059509313
 31
0.0
 11
-5.855003356933329
 21
21.90099906921415
 31
0.0
 11
-5.513000488281347
 21
19.56200027465814
 31
0.0
 11
-6.91899871826232
 21
17.67300033569312
 31
0.0
 11
-9.268001556396317
 21
17.31599998474113
 31
0.0
  0
SPLINE
  5
B667
330
1F
100
AcDbEntity
  8
AM_0
100
AcDbSpline
210
0.0
220
0.0
230
1.0
 70
     8
 71
     3
 72
    11
 73
     7
 74
     5
 42
0.0000000001
 43
0.0000000001
 44
0.0000000001
 40
0.0
 40
0.0
 40
0.0
 40
0.0
 40
2.37196121371398
 40
4.728751271484838
 40
7.104678445000533
 40
9.433668655468043
 40
9.433668655468043
 40
9.433668655468043
 40
9.433668655468043
 10
-9.268001556396317
 20
17.31599998474113
 30
0.0
 10
-10.01456829755763
 20
17.69568128288065
 30
0.0
 10
-11.50292671004073
 20
18.45261542284706
 30
0.0
 10
-11.79422450490133
 20
21.1541032681267
 30
0.0
 10
-10.19180593225843
 20
23.28673516992952
 30
0.0
 10
-8.547133951776279
 20
23.29627718422825
 30
0.0
 10
-7.733001708984314
 20
23.30100059509313
 30
0.0
 11
-9.268001556396317
 21
17.31599998474113
 31
0.0
 11
-11.18200302124032
 21
18.71699905395513
 31
0.0
 11
-11.47900390625032
 21
21.05500030517611
 31
0.0
 11
-10.03400039672833
 21
22.94099998474114
 31
0.0
 11
-7.733001708984314
 21
23.30100059509313
 31
0.0
  0
SPLINE
  5
B668
330
1F
100
AcDbEntity
  8
AM_0
100
AcDbSpline
210
0.0
220
0.0
230
1.0
 70
     8
 71
     3
 72
    11
 73
     7
 74
     5
 42
0.0000000001
 43
0.0000000001
 44
0.0000000001
 40
0.0
 40
0.0
 40
0.0
 40
0.0
 40
0.9800238555237223
 40
1.922536041432323
 40
2.862756653479953
 40
3.835230851779383
 40
3.835230851779383
 40
3.835230851779383
 40
3.835230851779383
 10
-4.458999633789316
 20
15.66300010681213
 30
0.0
 10
-4.131397632234302
 20
15.67098138530453
 30
0.0
 10
-3.488733015771162
 20
15.68663844862179
 30
0.0
 10
-2.559330371065849
 20
15.93375886117863
 30
0.0
 10
-1.689348515996479
 20
16.33783086514881
 30
0.0
 10
-1.188596289277622
 20
16.73570698983456
 30
0.0
 10
-0.9339981079103015
 20
16.93799972534214
 30
0.0
 11
-4.458999633789316
 21
15.66300010681213
 31
0.0
 11
-3.481002807617298
 21
15.72599983215314
 31
0.0
 11
-2.568000793457286
 21
15.96000099182114
 31
0.0
 11
-1.719001770019304
 21
16.36400032043515
 31
0.0
 11
-0.9339981079103015
 21
16.93799972534214
 31
0.0
  0
SPLINE
  5
B669
330
1F
100
AcDbEntity
  8
AM_0
100
AcDbSpline
210
0.0
220
0.0
230
1.0
 70
     8
 71
     3
 72
    11
 73
     7
 74
     5
 42
0.0000000001
 43
0.0000000001
 44
0.0000000001
 40
0.0
 40
0.0
 40
0.0
 40
0.0
 40
0.9575819935902542
 40
1.917801614716302
 40
2.878185836636516
 40
3.837012498543241
 40
3.837012498543241
 40
3.837012498543241
 40
3.837012498543241
 10
-4.458000183105323
 20
15.66100120544412
 30
0.0
 10
-4.137692645413981
 20
15.66611307529404
 30
0.0
 10
-3.496195293644531
 20
15.67635089546819
 30
0.0
 10
-2.563077715852803
 20
15.93047127914575
 30
0.0
 10
-1.682743580382378
 20
16.33191044432806
 30
0.0
 10
-1.182778380571785
 20
16.73474633962499
 30
0.0
 10
-0.9329986572263097
 20
16.93600082397513
 30
0.0
 11
-4.458000183105323
 21
15.66100120544412
 31
0.0
 11
-3.501998901367298
 21
15.71599960327113
 31
0.0
 11
-2.57199859619132
 21
15.95499992370615
 31
0.0
 11
-1.704002380371292
 21
16.36599922180215
 31
0.0
 11
-0.9329986572263097
 21
16.93600082397513
 31
0.0
  0
SPLINE
  5
B66A
330
1F
100
AcDbEntity
  8
AM_0
100
AcDbSpline
210
0.0
220
0.0
230
1.0
 70
     8
 71
     3
 72
    11
 73
     7
 74
     5
 42
0.0000000001
 43
0.0000000001
 44
0.0000000001
 40
0.0
 40
0.0
 40
0.0
 40
0.0
 40
1.816896194508904
 40
3.615337620509971
 40
5.396518928534165
 40
7.159533750307137
 40
7.159533750307137
 40
7.159533750307137
 40
7.159533750307137
 10
-0.7649993896483548
 20
24.77000141143814
 30
0.0
 10
-1.370298970882536
 20
24.79023546192617
 30
0.0
 10
-2.574749920985587
 20
24.83049803948329
 30
0.0
 10
-4.373211653640077
 20
24.86871177205745
 30
0.0
 10
-6.15391765258338
 20
24.8957088086048
 30
0.0
 10
-7.335324620571811
 20
24.89857488121451
 30
0.0
 10
-7.923000335693332
 20
24.90000057220513
 30
0.0
 11
-0.7649993896483548
 21
24.77000141143814
 31
0.0
 11
-2.581001281738339
 21
24.82700061798114
 31
0.0
 11
-4.378997802734349
 21
24.86700153350815
 31
0.0
 11
-6.160003662109349
 21
24.89200115203914
 31
0.0
 11
-7.923000335693332
 21
24.90000057220513
 31
0.0
  0
ELLIPSE
  5
B66C
330
1F
100
AcDbEntity
  8
AM_0
100
AcDbEllipse
 10
-12.79700088501027
 20
0.3979988098141303
 30
0.0
 11
0.7974662986289975
 21
-0.0636081421399965
 31
0.0
210
0.0
220
0.0
230
1.0
 40
0.1412501172537
 41
0.7611159870298462
 42
1.542911797320186
  0
ELLIPSE
  5
B66D
330
1F
100
AcDbEntity
  8
AM_0
100
AcDbEllipse
 10
-30.48600387573224
 20
-34.26699447631789
 30
0.0
 11
39.298212606021
 21
-6.486873810529932
 31
0.0
210
0.0
220
0.0
230
1.0
 40
0.9442630901670996
 41
1.456652900528083
 42
1.575725478734686
  0
ELLIPSE
  5
B66E
330
1F
100
AcDbEntity
  8
AM_0
100
AcDbEllipse
 10
-9.146003723144353
 20
38.71700000762903
 30
0.0
 11
40.09147510041799
 21
-6.61781599233823
 31
0.0
210
0.0
220
0.0
230
1.0
 40
0.9442585162034999
 41
4.59786427356972
 42
4.777364662899217
  0
SPLINE
  5
B66F
330
1F
100
AcDbEntity
  8
AM_0
100
AcDbSpline
210
0.0
220
0.0
230
1.0
 70
     8
 71
     3
 72
    11
 73
     7
 74
     5
 42
0.0000000001
 43
0.0000000001
 44
0.0000000001
 40
0.0
 40
0.0
 40
0.0
 40
0.0
 40
1.829887674707896
 40
3.652912396110993
 40
5.472961762252436
 40
7.292734251980363
 40
7.292734251980363
 40
7.292734251980363
 40
7.292734251980363
 10
-12.76499938964826
 20
0.5089988708501393
 30
0.0
 10
-13.37110641944667
 20
0.5784320352274654
 30
0.0
 10
-14.58104728801613
 20
0.7170379564327842
 30
0.0
 10
-16.37998964466255
 20
1.024428262609857
 30
0.0
 10
-18.16385697487203
 20
1.393555315815932
 30
0.0
 10
-19.33665149619196
 20
1.70519304791815
 30
0.0
 10
-19.92300415039127
 20
1.861000061035105
 30
0.0
 11
-12.76499938964826
 21
0.5089988708501393
 31
0.0
 11
-14.58100128173828
 21
0.7340011596681228
 31
0.0
 11
-16.37900543212927
 21
1.034999847412128
 31
0.0
 11
-18.16000366210926
 21
1.409999847412121
 31
0.0
 11
-19.92300415039127
 21
1.861000061035105
 31
0.0
  0
SPLINE
  5
B670
330
1F
100
AcDbEntity
  8
AM_0
100
AcDbSpline
210
0.0
220
0.0
230
1.0
 70
     8
 71
     3
 72
    11
 73
     7
 74
     5
 42
0.0000000001
 43
0.0000000001
 44
0.0000000001
 40
0.0
 40
0.0
 40
0.0
 40
0.0
 40
0.9573492974092655
 40
1.888117926107462
 40
2.757167814180572
 40
3.527458392964309
 40
3.527458392964309
 40
3.527458392964309
 40
3.527458392964309
 10
-24.56400299072329
 20
2.874000549316125
 30
0.0
 10
-24.8822171668861
 20
2.898374352793112
 30
0.0
 10
-25.50981034732759
 20
2.946445224518676
 30
0.0
 10
-26.42830863879238
 20
2.981879590162312
 30
0.0
 10
-27.28517759290006
 20
2.995299766171568
 30
0.0
 10
-27.83136393408465
 20
2.976045987523064
 30
0.0
 10
-28.08800506591829
 20
2.966999053955099
 30
0.0
 11
-24.56400299072329
 21
2.874000549316125
 31
0.0
 11
-25.5190048217773
 21
2.941001892090114
 31
0.0
 11
-26.44899749755829
 21
2.979000091553087
 31
0.0
 11
-27.31800079345729
 21
2.987998962402095
 31
0.0
 11
-28.08800506591829
 21
2.966999053955099
 31
0.0
  0
SPLINE
  5
B671
330
1F
100
AcDbEntity
  8
AM_0
100
AcDbSpline
210
0.0
220
0.0
230
1.0
 70
     8
 71
     3
 72
    11
 73
     7
 74
     5
 42
0.0000000001
 43
0.0000000001
 44
0.0000000001
 40
0.0
 40
0.0
 40
0.0
 40
0.0
 40
0.980289228715714
 40
1.894081623640636
 40
2.743128337005247
 40
3.52840521017359
 40
3.52840521017359
 40
3.52840521017359
 40
3.52840521017359
 10
-24.56200408935528
 20
2.874000549316125
 30
0.0
 10
-24.88789174667193
 20
2.898226159771989
 30
0.0
 10
-25.51756083311435
 20
2.94503406323742
 30
0.0
 10
-26.43129234067864
 20
2.98213826532418
 30
0.0
 10
-27.28083970842652
 20
2.995011953166686
 30
0.0
 10
-27.82536080155721
 20
2.976090588804605
 30
0.0
 10
-28.08699798584028
 20
2.966999053955099
 30
0.0
 11
-24.56200408935528
 21
2.874000549316125
 31
0.0
 11
-25.5400009155273
 21
2.941001892090114
 31
0.0
 11
-26.45300292968729
 21
2.979000091553087
 31
0.0
 11
-27.30200195312529
 21
2.987998962402095
 31
0.0
 11
-28.08699798584028
 21
2.966999053955099
 31
0.0
  0
SPLINE
  5
B672
330
1F
100
AcDbEntity
  8
AM_0
100
AcDbSpline
210
0.0
220
0.0
230
1.0
 70
     8
 71
     3
 72
    11
 73
     7
 74
     5
 42
0.0000000001
 43
0.0000000001
 44
0.0000000001
 40
0.0
 40
0.0
 40
0.0
 40
0.0
 40
1.829540878304144
 40
3.652552364412454
 40
5.471683503130955
 40
7.29163730621317
 40
7.29163730621317
 40
7.29163730621317
 40
7.29163730621317
 10
-28.48000335693328
 20
0.4650001525881092
 30
0.0
 10
-27.87082125957801
 20
0.4341171008205765
 30
0.0
 10
-26.65463115612692
 20
0.3724612148595404
 30
0.0
 10
-24.8299985895233
 20
0.3854731771368759
 30
0.0
 10
-23.01034542274038
 20
0.467402954611695
 30
0.0
 10
-21.80354246404793
 20
0.5924599572577623
 30
0.0
 10
-21.20000457763728
 20
0.655002593994115
 30
0.0
 11
-28.48000335693328
 21
0.4650001525881092
 31
0.0
 11
-26.65200042724626
 21
0.389999389648094
 31
0.0
 11
-24.82900238037126
 21
0.3969993591311192
 31
0.0
 11
-23.01200103759828
 21
0.4850006103520989
 31
0.0
 11
-21.20000457763728
 21
0.655002593994115
 31
0.0
  0
ELLIPSE
  5
B673
330
1F
100
AcDbEntity
  8
AM_0
100
AcDbEllipse
 10
51.99300384521362
 20
56.72700309753324
 30
0.0
 11
-79.44722616559296
 21
-52.05131403025214
 31
0.0
210
0.0
220
0.0
230
1.0
 40
0.029922080353
 41
5.41957286308842
 42
5.448744633403944
  0
ELLIPSE
  5
B674
330
1F
100
AcDbEntity
  8
AM_0
100
AcDbEllipse
 10
-52.44900131225629
 20
4.607997894287057
 30
0.0
 11
0.7971382399239995
 21
-0.0675945580559927
 31
0.0
210
0.0
220
0.0
230
1.0
 40
0.3762519971305998
 41
3.917201093052848
 42
4.704625624975615
  0
ELLIPSE
  5
B675
330
1F
100
AcDbEntity
  8
AM_0
100
AcDbEllipse
 10
-49.84600257873534
 20
44.09700107574425
 30
0.0
 11
40.329038015028
 21
-4.968959349661928
 31
0.0
210
0.0
220
0.0
230
1.0
 40
0.9812472992056999
 41
4.768120869938035
 42
4.947854483979603
  0
SPLINE
  5
B676
330
1F
100
AcDbEntity
  8
AM_0
100
AcDbSpline
210
0.0
220
0.0
230
1.0
 70
     8
 71
     3
 72
    11
 73
     7
 74
     5
 42
0.0000000001
 43
0.0000000001
 44
0.0000000001
 40
0.0
 40
0.0
 40
0.0
 40
0.0
 40
0.9791330041035662
 40
1.892376495191778
 40
2.746238468577609
 40
3.547182833489555
 40
3.547182833489555
 40
3.547182833489555
 40
3.547182833489555
 10
-40.45900726318329
 20
4.688999176025084
 30
0.0
 10
-40.13313011996465
 20
4.668404166488784
 30
0.0
 10
-39.50330532235014
 20
4.628600062448366
 30
0.0
 10
-38.58727425990011
 20
4.650998275100551
 30
0.0
 10
-37.73358370271994
 20
4.734622406978139
 30
0.0
 10
-37.19478336416229
 20
4.854823412805786
 30
0.0
 10
-36.93399810791029
 20
4.913002014160089
 30
0.0
 11
-40.45900726318329
 21
4.688999176025084
 31
0.0
 11
-39.48100280761729
 21
4.642002105713099
 31
0.0
 11
-38.5680007934573
 21
4.663002014160083
 31
0.0
 11
-37.71900177001929
 21
4.754001617432082
 31
0.0
 11
-36.93399810791029
 21
4.913002014160089
 31
0.0
  0
ELLIPSE
  5
B677
330
1F
100
AcDbEntity
  8
AM_0
100
AcDbEllipse
 10
-40.64599609375023
 20
-34.40400314331092
 30
0.0
 11
39.53107502632802
 21
-4.870641962275928
 31
0.0
210
0.0
220
0.0
230
1.0
 40
0.9812452519806999
 41
1.686803269796741
 42
1.805678514718706
  0
SPLINE
  5
B678
330
1F
100
AcDbEntity
  8
AM_0
100
AcDbSpline
210
0.0
220
0.0
230
1.0
 70
     8
 71
     3
 72
    11
 73
     7
 74
     5
 42
0.0000000001
 43
0.0000000001
 44
0.0000000001
 40
0.0
 40
0.0
 40
0.0
 40
0.0
 40
0.957248579202435
 40
1.887540941365774
 40
2.760294261882728
 40
3.547717228114743
 40
3.547717228114743
 40
3.547717228114743
 40
3.547717228114743
 10
-40.45800018310528
 20
4.687999725342087
 30
0.0
 10
-40.13944905728918
 20
4.666357196442403
 30
0.0
 10
-39.51131723765563
 20
4.623681594451033
 30
0.0
 10
-38.59081766011126
 20
4.651838348454891
 30
0.0
 10
-37.72894270934119
 20
4.729950610190034
 30
0.0
 10
-37.18906888271289
 20
4.854112112428225
 30
0.0
 10
-36.93300628662127
 20
4.913002014160089
 30
0.0
 11
-40.45800018310528
 21
4.687999725342087
 31
0.0
 11
-39.5020065307623
 21
4.638999938965093
 31
0.0
 11
-38.5719985961913
 21
4.662002563477071
 31
0.0
 11
-37.70400238037127
 21
4.753002166748076
 31
0.0
 11
-36.93300628662127
 21
4.913002014160089
 31
0.0
  0
SPLINE
  5
B679
330
1F
100
AcDbEntity
  8
AM_0
100
AcDbSpline
210
0.0
220
0.0
230
1.0
 70
     8
 71
     3
 72
    11
 73
     7
 74
     5
 42
0.0000000001
 43
0.0000000001
 44
0.0000000001
 40
0.0
 40
0.0
 40
0.0
 40
0.0
 40
1.829931870158293
 40
3.652934308953165
 40
5.471524398035801
 40
7.290309883038586
 40
7.290309883038586
 40
7.290309883038586
 40
7.290309883038586
 10
-52.4800033569333
 20
4.309001922607057
 30
0.0
 10
-51.87084803415356
 20
4.275283245767457
 30
0.0
 10
-50.65484408649233
 20
4.207973575124242
 30
0.0
 10
-48.83025534955473
 20
4.209555742429399
 30
0.0
 10
-47.0106904454316
 20
4.279605303717732
 30
0.0
 10
-45.80358814831625
 20
4.395867939651871
 30
0.0
 10
-45.20000457763729
 20
4.454002380371082
 30
0.0
 11
-52.4800033569333
 21
4.309001922607057
 31
0.0
 11
-50.65200042724627
 21
4.225002288818058
 31
0.0
 11
-48.82900238037129
 21
4.221000671387063
 31
0.0
 11
-47.0120010375983
 21
4.297000885010074
 31
0.0
 11
-45.20000457763729
 21
4.454002380371082
 31
0.0
  0
SPLINE
  5
B67A
330
1F
100
AcDbEntity
  8
AM_0
100
AcDbSpline
210
0.0
220
0.0
230
1.0
 70
     8
 71
     3
 72
    11
 73
     7
 74
     5
 42
0.0000000001
 43
0.0000000001
 44
0.0000000001
 40
0.0
 40
0.0
 40
0.0
 40
0.0
 40
0.264094992733489
 40
0.5296412076221337
 40
0.7980636817993863
 40
1.068720857511862
 40
1.068720857511862
 40
1.068720857511862
 40
1.068720857511862
 10
-25.09999847412125
 20
-21.73699951171888
 30
0.0
 10
-25.12333063165151
 20
-21.82294494833051
 30
0.0
 10
-25.17012315869966
 20
-21.99530809829197
 30
0.0
 10
-25.3497688645974
 20
-22.2014770352395
 30
0.0
 10
-25.5849991715504
 20
-22.34393088391815
 30
0.0
 10
-25.76541895811637
 20
-22.364615046587
 30
0.0
 10
-25.85600280761725
 20
-22.37499999999988
 30
0.0
 11
-25.09999847412125
 21
-21.73699951171888
 31
0.0
 11
-25.18800354003926
 21
-21.98600006103487
 31
0.0
 11
-25.35800170898423
 21
-22.18999862670886
 31
0.0
 11
-25.59000396728524
 21
-22.32500076293888
 31
0.0
 11
-25.85600280761725
 21
-22.37499999999988
 31
0.0
  0
SPLINE
  5
B67B
330
1F
100
AcDbEntity
  8
AM_0
100
AcDbSpline
210
0.0
220
0.0
230
1.0
 70
     8
 71
     3
 72
    11
 73
     7
 74
     5
 42
0.0000000001
 43
0.0000000001
 44
0.0000000001
 40
0.0
 40
0.0
 40
0.0
 40
0.0
 40
0.690790981284121
 40
1.382359388604669
 40
2.074597563270891
 40
2.765603031069557
 40
2.765603031069557
 40
2.765603031069557
 40
2.765603031069557
 10
-35.53800201416021
 20
-22.55999755859393
 30
0.0
 10
-35.76863396591545
 20
-22.55568989476747
 30
0.0
 10
-36.23015742591837
 20
-22.54706971920816
 30
0.0
 10
-36.9114169293095
 20
-22.41349087491927
 30
0.0
 10
-37.57353742764648
 20
-22.20463689284015
 30
0.0
 10
-37.98330322639832
 20
-21.99148119256308
 30
0.0
 10
-38.18800354003928
 20
-21.8849983215329
 30
0.0
 11
-35.53800201416021
 21
-22.55999755859393
 31
0.0
 11
-36.22800445556624
 21
-22.52700042724593
 31
0.0
 11
-36.90799713134827
 21
-22.4009971618649
 31
0.0
 11
-37.56600189209025
 21
-22.1860008239749
 31
0.0
 11
-38.18800354003928
 21
-21.8849983215329
 31
0.0
  0
SPLINE
  5
B67C
330
1F
100
AcDbEntity
  8
AM_0
100
AcDbSpline
210
0.0
220
0.0
230
1.0
 70
     8
 71
     3
 72
    11
 73
     7
 74
     5
 42
0.0000000001
 43
0.0000000001
 44
0.0000000001
 40
0.0
 40
0.0
 40
0.0
 40
0.0
 40
0.9576373927428337
 40
1.920646415029894
 40
2.883226688362864
 40
3.840060781074851
 40
3.840060781074851
 40
3.840060781074851
 40
3.840060781074851
 10
-36.56400299072326
 20
-24.36099624633792
 30
0.0
 10
-36.88415370655674
 20
-24.35020090630068
 30
0.0
 10
-37.52625094429478
 20
-24.32854967244254
 30
0.0
 10
-38.45724001457244
 20
-24.06288473286969
 30
0.0
 10
-39.33781005523274
 20
-23.66054885398
 30
0.0
 10
-39.838439643216
 20
-23.25844746375067
 30
0.0
 10
-40.08800506591823
 20
-23.05799865722689
 30
0.0
 11
-36.56400299072326
 21
-24.36099624633792
 31
0.0
 11
-37.51900482177723
 21
-24.28999710082989
 31
0.0
 11
-38.44899749755821
 21
-24.03999710082989
 31
0.0
 11
-39.31800079345723
 21
-23.62599945068389
 31
0.0
 11
-40.08800506591823
 21
-23.05799865722689
 31
0.0
  0
ELLIPSE
  5
B67D
330
1F
100
AcDbEntity
  8
AM_0
100
AcDbEllipse
 10
-24.79700088501021
 20
-23.97700119018588
 30
0.0
 11
0.7617225541049998
 21
-0.2445010682170037
 31
0.0
210
0.0
220
0.0
230
1.0
 40
0.9662484016666999
 41
5.838250218592321
 42
6.624730833394219
  0
ELLIPSE
  5
B67E
330
1F
100
AcDbEntity
  8
AM_0
100
AcDbEllipse
 10
-24.79700088501021
 20
-23.97700119018588
 30
0.0
 11
0.7617225541049998
 21
-0.2445010682170037
 31
0.0
210
0.0
220
0.0
230
1.0
 40
0.9662484016666999
 41
5.052266265246958
 42
5.838250218592321
  0
SPLINE
  5
B67F
330
1F
100
AcDbEntity
  8
AM_0
100
AcDbSpline
210
0.0
220
0.0
230
1.0
 70
     8
 71
     3
 72
    11
 73
     7
 74
     5
 42
0.0000000001
 43
0.0000000001
 44
0.0000000001
 40
0.0
 40
0.0
 40
0.0
 40
0.0
 40
1.816002167117696
 40
3.614309215164541
 40
5.396567298362711
 40
7.162515821476868
 40
7.162515821476868
 40
7.162515821476868
 40
7.162515821476868
 10
-24.76499938964823
 20
-24.75300216674787
 30
0.0
 10
-25.37034782241834
 20
-24.75579662431029
 30
0.0
 10
-26.57514617484486
 20
-24.76135831024995
 30
0.0
 10
-28.37378794347608
 20
-24.72599111204109
 30
0.0
 10
-30.15496854069468
 20
-24.66201042600676
 30
0.0
 10
-31.33546769394349
 20
-24.5885563554996
 30
0.0
 10
-31.92300415039124
 20
-24.55199813842789
 30
0.0
 11
-24.76499938964823
 21
-24.75300216674787
 31
0.0
 11
-26.58100128173824
 21
-24.7540016174319
 31
0.0
 11
-28.37900543212924
 21
-24.72099685668889
 31
0.0
 11
-30.16000366210922
 21
-24.65399551391589
 31
0.0
 11
-31.92300415039124
 21
-24.55199813842789
 31
0.0
  0
ELLIPSE
  5
B680
330
1F
100
AcDbEntity
  8
AM_0
100
AcDbEllipse
 10
-54.48599624633823
 20
-24.07899856567393
 30
0.0
 11
39.63657073579101
 21
-3.920586982799934
 31
0.0
210
0.0
220
0.0
230
1.0
 40
0.8376348684226
 41
1.384114742029171
 42
1.503913665308206
  0
SPLINE
  5
B681
330
1F
100
AcDbEntity
  8
AM_0
100
AcDbSpline
210
0.0
220
0.0
230
1.0
 70
     8
 71
     3
 72
    11
 73
     7
 74
     5
 42
0.0000000001
 43
0.0000000001
 44
0.0000000001
 40
0.0
 40
0.0
 40
0.0
 40
0.0
 40
0.956258059511857
 40
1.886535073233658
 40
2.760290189509642
 40
3.546538941008368
 40
3.546538941008368
 40
3.546538941008368
 40
3.546538941008368
 10
-48.56400299072332
 20
8.788000106812067
 30
0.0
 10
-48.8822226790412
 20
8.809637477268205
 30
0.0
 10
-49.51001618837031
 20
8.852324341814883
 30
0.0
 10
-50.43052633398151
 20
8.824166156061265
 30
0.0
 10
-51.29230052998204
 20
8.745967698389229
 30
0.0
 10
-51.8322580948113
 20
8.622486876191572
 30
0.0
 10
-52.08800506591831
 20
8.564001083374058
 30
0.0
 11
-48.56400299072332
 21
8.788000106812067
 31
0.0
 11
-49.51900482177731
 21
8.836999893188052
 31
0.0
 11
-50.44899749755831
 21
8.814001083374062
 31
0.0
 11
-51.31800079345731
 21
8.722999572754057
 31
0.0
 11
-52.08800506591831
 21
8.564001083374058
 31
0.0
  0
SPLINE
  5
B682
330
1F
100
AcDbEntity
  8
AM_0
100
AcDbSpline
210
0.0
220
0.0
230
1.0
 70
     8
 71
     3
 72
    11
 73
     7
 74
     5
 42
0.0000000001
 43
0.0000000001
 44
0.0000000001
 40
0.0
 40
0.0
 40
0.0
 40
0.0
 40
0.9791254750560263
 40
1.892368966144238
 40
2.746230939530077
 40
3.547167826892577
 40
3.547167826892577
 40
3.547167826892577
 40
3.547167826892577
 10
-48.56200408935531
 20
8.787000656128075
 30
0.0
 10
-48.88787868356455
 20
8.807596470475029
 30
0.0
 10
-49.51770089189912
 20
8.847402277693367
 30
0.0
 10
-50.43372944051835
 20
8.825003165242074
 30
0.0
 10
-51.28741763360601
 20
8.741380118884144
 30
0.0
 10
-51.82621528598857
 20
8.621178394313263
 30
0.0
 10
-52.0869979858403
 20
8.562999725342057
 30
0.0
 11
-48.56200408935531
 21
8.787000656128075
 31
0.0
 11
-49.54000091552731
 21
8.833999633789062
 31
0.0
 11
-50.4530029296873
 21
8.812999725342063
 31
0.0
 11
-51.30200195312531
 21
8.722000122070065
 31
0.0
 11
-52.0869979858403
 21
8.562999725342057
 31
0.0
  0
ELLIPSE
  5
B683
330
1F
100
AcDbEntity
  8
AM_0
100
AcDbEllipse
 10
-36.79700088501027
 20
6.229000091553078
 30
0.0
 11
0.7971382229060002
 21
-0.067592642423
 31
0.0
210
0.0
220
0.0
230
1.0
 40
0.3762496970403
 41
6.277716974897696
 42
6.403228176040014
  0
ELLIPSE
  5
B684
330
1F
100
AcDbEntity
  8
AM_0
100
AcDbEllipse
 10
-36.79700088501027
 20
6.229000091553078
 30
0.0
 11
0.7971382229060002
 21
-0.067592642423
 31
0.0
210
0.0
220
0.0
230
1.0
 40
0.3762496970403
 41
0.1200428688604295
 42
0.7763428704721905
  0
SPLINE
  5
B685
330
1F
100
AcDbEntity
  8
AM_0
100
AcDbSpline
210
0.0
220
0.0
230
1.0
 70
     8
 71
     3
 72
    11
 73
     7
 74
     5
 42
0.0000000001
 43
0.0000000001
 44
0.0000000001
 40
0.0
 40
0.0
 40
0.0
 40
0.0
 40
0.1339652948202575
 40
0.3298202728344633
 40
0.5821821136268472
 40
0.8646297732394959
 40
0.8646297732394959
 40
0.8646297732394959
 40
0.8646297732394959
 10
-37.09300231933632
 20
11.05500030517608
 30
0.0
 10
-37.11523257264819
 20
11.09478375330722
 30
0.0
 10
-37.16996307745793
 20
11.19272992462355
 30
0.0
 10
-37.35552186255649
 20
11.27627815551536
 30
0.0
 10
-37.58402270812914
 20
11.3540908878873
 30
0.0
 10
-37.76200529212295
 20
11.37562714548912
 30
0.0
 10
-37.85600280761732
 20
11.38700103759807
 30
0.0
 11
-37.09300231933632
 21
11.05500030517608
 31
0.0
 11
-37.16800689697333
 21
11.16600036621107
 31
0.0
 11
-37.33699798584031
 21
11.26500129699708
 31
0.0
 11
-37.57700347900432
 21
11.34300041198707
 31
0.0
 11
-37.85600280761732
 21
11.38700103759807
 31
0.0
  0
SPLINE
  5
B686
330
1F
100
AcDbEntity
  8
AM_0
100
AcDbSpline
210
0.0
220
0.0
230
1.0
 70
     8
 71
     3
 72
    11
 73
     7
 74
     5
 42
0.0000000001
 43
0.0000000001
 44
0.0000000001
 40
0.0
 40
0.0
 40
0.0
 40
0.0
 40
0.9582543404134835
 40
1.885517298209019
 40
2.757276621963879
 40
3.547643096188348
 40
3.547643096188348
 40
3.547643096188348
 40
3.547643096188348
 10
-47.5380020141603
 20
12.23600006103508
 30
0.0
 10
-47.85688448935788
 20
12.25753399599864
 30
0.0
 10
-48.48433630222553
 20
12.29990542617111
 30
0.0
 10
-49.4038875948515
 20
12.27353263171798
 30
0.0
 10
-50.26531720775638
 20
12.19458018652868
 30
0.0
 10
-50.8059325836375
 20
12.07084095315772
 30
0.0
 10
-51.06300354003933
 20
12.01200103759806
 30
0.0
 11
-47.5380020141603
 21
12.23600006103508
 31
0.0
 11
-48.49500274658232
 21
12.28499984741205
 31
0.0
 11
-49.42200469970732
 21
12.26300048828105
 31
0.0
 11
-50.28900146484434
 21
12.17200088501006
 31
0.0
 11
-51.06300354003933
 21
12.01200103759806
 31
0.0
  0
SPLINE
  5
B687
330
1F
100
AcDbEntity
  8
AM_0
100
AcDbSpline
210
0.0
220
0.0
230
1.0
 70
     8
 71
     3
 72
    11
 73
     7
 74
     5
 42
0.0000000001
 43
0.0000000001
 44
0.0000000001
 40
0.0
 40
0.0
 40
0.0
 40
0.0
 40
0.9884893134791884
 40
1.815002734679382
 40
2.462714347400379
 40
3.013625642447723
 40
3.013625642447723
 40
3.013625642447723
 40
3.013625642447723
 10
-45.26799774169926
 20
5.783000946045079
 30
0.0
 10
-45.59966990031491
 20
5.789029434170999
 30
0.0
 10
-46.2086657353691
 20
5.800098569957622
 30
0.0
 10
-46.99378004782588
 20
6.052601586627136
 30
0.0
 10
-47.55733263622841
 20
6.527119574808683
 30
0.0
 10
-47.57149405542801
 20
6.942213752922916
 30
0.0
 10
-47.5780029296873
 20
7.13299942016608
 30
0.0
 11
-45.26799774169926
 21
5.783000946045079
 31
0.0
 11
-46.25400543212927
 21
5.853000640869083
 31
0.0
 11
-47.03200531005827
 21
6.131999969482076
 31
0.0
 11
-47.49100494384831
 21
6.589000701904079
 31
0.0
 11
-47.5780029296873
 21
7.13299942016608
 31
0.0
  0
SPLINE
  5
B688
330
1F
100
AcDbEntity
  8
AM_0
100
AcDbSpline
210
0.0
220
0.0
230
1.0
 70
     8
 71
     3
 72
    11
 73
     7
 74
     5
 42
0.0000000001
 43
0.0000000001
 44
0.0000000001
 40
0.0
 40
0.0
 40
0.0
 40
0.0
 40
0.4220195498889526
 40
0.9085273238743834
 40
1.478291299075741
 40
2.126044135958736
 40
2.126044135958736
 40
2.126044135958736
 40
2.126044135958736
 10
-47.5780029296873
 20
7.13299942016608
 30
0.0
 10
-47.53249337719505
 20
7.268310938485753
 30
0.0
 10
-47.43452002039822
 20
7.559610741209821
 30
0.0
 10
-47.05285654650971
 20
7.898351122144575
 30
0.0
 10
-46.54181814822968
 20
8.157456080484701
 30
0.0
 10
-46.13920464389421
 20
8.225695674140574
 30
0.0
 10
-45.92500305175829
 20
8.262001037598068
 30
0.0
 11
-47.5780029296873
 21
7.13299942016608
 31
0.0
 11
-47.41200256347631
 21
7.520999908447075
 31
0.0
 11
-47.0650024414063
 21
7.861999511719073
 31
0.0
 11
-46.5569992065433
 21
8.119998931885074
 31
0.0
 11
-45.92500305175829
 21
8.262001037598068
 31
0.0
  0
SPLINE
  5
B689
330
1F
100
AcDbEntity
  8
AM_0
100
AcDbSpline
210
0.0
220
0.0
230
1.0
 70
     8
 71
     3
 72
    11
 73
     7
 74
     5
 42
0.0000000001
 43
0.0000000001
 44
0.0000000001
 40
0.0
 40
0.0
 40
0.0
 40
0.0
 40
0.6964082399391467
 40
1.259662978725416
 40
1.652135908042797
 40
1.883791965211497
 40
1.883791965211497
 40
1.883791965211497
 40
1.883791965211497
 10
-42.94400024414131
 20
7.615001678467078
 30
0.0
 10
-42.7317615626671
 20
7.518560865147986
 30
0.0
 10
-42.34786431048937
 20
7.344118756038469
 30
0.0
 10
-41.88176508051291
 20
7.065205012727612
 30
0.0
 10
-41.53039211420028
 20
6.845536834652826
 30
0.0
 10
-41.44988673501605
 20
6.649691121755155
 30
0.0
 10
-41.42000579834029
 20
6.57699966430707
 30
0.0
 11
-42.94400024414131
 21
7.615001678467078
 31
0.0
 11
-42.3160018920903
 21
7.313999176025076
 31
0.0
 11
-41.82900238037128
 21
7.031002044678075
 31
0.0
 11
-41.52400207519529
 21
6.78400039672907
 31
0.0
 11
-41.42000579834029
 21
6.57699966430707
 31
0.0
  0
SPLINE
  5
B68A
330
1F
100
AcDbEntity
  8
AM_0
100
AcDbSpline
210
0.0
220
0.0
230
1.0
 70
     8
 71
     3
 72
    11
 73
     7
 74
     5
 42
0.0000000001
 43
0.0000000001
 44
0.0000000001
 40
0.0
 40
0.0
 40
0.0
 40
0.0
 40
0.4148306326766215
 40
1.312239862500868
 40
2.597762702274376
 40
3.999649176582162
 40
3.999649176582162
 40
3.999649176582162
 40
3.999649176582162
 10
-41.42000579834029
 20
6.57699966430707
 30
0.0
 10
-41.51694321026031
 20
6.474085355972265
 30
0.0
 10
-41.82358675600897
 20
6.148535005586469
 30
0.0
 10
-42.75113348367969
 20
6.093264916343706
 30
0.0
 10
-43.89946500140847
 20
5.866187563538196
 30
0.0
 10
-44.79883932481281
 20
5.8115188620731
 30
0.0
 10
-45.26799774169926
 20
5.783000946045079
 30
0.0
 11
-41.42000579834029
 21
6.57699966430707
 31
0.0
 11
-41.72699737548829
 21
6.298000335693061
 31
0.0
 11
-42.59900665283227
 21
6.086002349854081
 31
0.0
 11
-43.87100219726628
 21
5.90000152587907
 31
0.0
 11
-45.26799774169926
 21
5.783000946045079
 31
0.0
  0
SPLINE
  5
B68B
330
1F
100
AcDbEntity
  8
AM_0
100
AcDbSpline
210
0.0
220
0.0
230
1.0
 70
     8
 71
     3
 72
    11
 73
     7
 74
     5
 42
0.0000000001
 43
0.0000000001
 44
0.0000000001
 40
0.0
 40
0.0
 40
0.0
 40
0.0
 40
1.244331339303851
 40
2.489710213722623
 40
3.735285179310661
 40
4.980287925892664
 40
4.980287925892664
 40
4.980287925892664
 40
4.980287925892664
 10
-45.29100036621127
 20
5.750000000000072
 30
0.0
 10
-45.70377899311561
 20
5.708971771812501
 30
0.0
 10
-46.52968374287872
 20
5.626880775995674
 30
0.0
 10
-47.77280479635638
 20
5.552291688059827
 30
0.0
 10
-49.01772787513755
 20
5.511931447499393
 30
0.0
 10
-49.84797320116317
 20
5.517311199681516
 30
0.0
 10
-50.26300048828129
 20
5.520000457764068
 30
0.0
 11
-45.29100036621127
 21
5.750000000000072
 31
0.0
 11
-46.53000640869131
 21
5.635002136230082
 31
0.0
 11
-47.77300262451231
 21
5.558002471924076
 31
0.0
 11
-49.0179977416993
 21
5.520000457764059
 31
0.0
 11
-50.26300048828129
 21
5.520000457764068
 31
0.0
  0
ELLIPSE
  5
B68C
330
1F
100
AcDbEntity
  8
AM_0
100
AcDbEllipse
 10
-52.44900131225629
 20
4.607997894287057
 30
0.0
 11
0.7971382399239995
 21
-0.0675945580559927
 31
0.0
210
0.0
220
0.0
230
1.0
 40
0.3762519971305998
 41
3.136872728470876
 42
3.918674402815859
  0
ELLIPSE
  5
B68D
330
1F
100
AcDbEntity
  8
AM_0
100
AcDbEllipse
 10
-95.77699661254841
 20
51.38300037383898
 30
0.0
 11
-76.616094790918
 21
-1.992466067207732
 31
0.0
210
0.0
220
0.0
230
1.0
 40
0.7521724393318002
 41
2.151373891416549
 42
2.186927907592396
  0
SPLINE
  5
B68E
330
1F
100
AcDbEntity
  8
AM_0
100
AcDbSpline
210
0.0
220
0.0
230
1.0
 70
     8
 71
     3
 72
    11
 73
     7
 74
     5
 42
0.0000000001
 43
0.0000000001
 44
0.0000000001
 40
0.0
 40
0.0
 40
0.0
 40
0.0
 40
1.816896194508932
 40
3.61533762050997
 40
5.396518955305606
 40
7.159533759774078
 40
7.159533759774078
 40
7.159533759774078
 40
7.159533759774078
 10
-0.7649993896482647
 20
-24.77000045776383
 30
0.0
 10
-1.370298969953077
 20
-24.79023459053716
 30
0.0
 10
-2.574749918206812
 20
-24.83049733182909
 30
0.0
 10
-4.373211673501252
 20
-24.86870985002708
 30
0.0
 10
-6.153917624239936
 20
-24.89571143398323
 30
0.0
 10
-7.335324616056618
 20
-24.89857384274373
 30
0.0
 10
-7.923000335693241
 20
-24.89999771118185
 30
0.0
 11
-0.7649993896482647
 21
-24.77000045776383
 31
0.0
 11
-2.581001281738277
 21
-24.82699966430684
 31
0.0
 11
-4.378997802734258
 21
-24.86700057983384
 31
0.0
 11
-6.160003662109258
 21
-24.89200210571287
 31
0.0
 11
-7.923000335693241
 21
-24.89999771118185
 31
0.0
  0
SPLINE
  5
B68F
330
1F
100
AcDbEntity
  8
AM_0
100
AcDbSpline
210
0.0
220
0.0
230
1.0
 70
     8
 71
     3
 72
    11
 73
     7
 74
     5
 42
0.0000000001
 43
0.0000000001
 44
0.0000000001
 40
0.0
 40
0.0
 40
0.0
 40
0.0
 40
0.6914038301564292
 40
1.383339227291145
 40
2.073436569215325
 40
2.758039847445106
 40
2.758039847445106
 40
2.758039847445106
 40
2.758039847445106
 10
-59.53800106048625
 20
-19.66799926757792
 30
0.0
 10
-59.76864589603677
 20
-19.6593852126121
 30
0.0
 10
-60.23011289212933
 20
-19.64215047999921
 30
0.0
 10
-60.91019637827521
 20
-19.50737748713995
 30
0.0
 10
-61.57132735665884
 20
-19.30587652101471
 30
0.0
 10
-61.98299259041831
 20
-19.10302120057921
 30
0.0
 10
-62.18800258636449
 20
-19.00199890136694
 30
0.0
 11
-59.53800106048625
 21
-19.66799926757792
 31
0.0
 11
-60.22800350189227
 21
-19.62400054931593
 31
0.0
 11
-60.90799617767327
 21
-19.49599838256794
 31
0.0
 11
-61.56600093841524
 21
-19.28799819946293
 31
0.0
 11
-62.18800258636449
 21
-19.00199890136694
 31
0.0
  0
SPLINE
  5
B690
330
1F
100
AcDbEntity
  8
AM_0
100
AcDbSpline
210
0.0
220
0.0
230
1.0
 70
     8
 71
     3
 72
    11
 73
     7
 74
     5
 42
0.0000000001
 43
0.0000000001
 44
0.0000000001
 40
0.0
 40
0.0
 40
0.0
 40
0.0
 40
0.9586889150267101
 40
1.920412743804206
 40
2.874561849493757
 40
3.809906965156243
 40
3.809906965156243
 40
3.809906965156243
 40
3.809906965156243
 10
-60.56400203704826
 20
-22.31900024414094
 30
0.0
 10
-60.88404626536732
 20
-22.30256288218789
 30
0.0
 10
-61.52514788343265
 20
-22.26963612265787
 30
0.0
 10
-62.45396046330187
 20
-22.01200419486122
 30
0.0
 10
-63.33145816784895
 20
-21.63050368773491
 30
0.0
 10
-63.83750113899091
 20
-21.25224552241104
 30
0.0
 10
-64.08800458908046
 20
-21.06499862670898
 30
0.0
 11
-60.56400203704826
 21
-22.31900024414094
 31
0.0
 11
-61.51900386810326
 21
-22.23500061035194
 31
0.0
 11
-62.44899654388396
 21
-21.98999786376997
 31
0.0
 11
-63.31799983978246
 21
-21.59600067138696
 31
0.0
 11
-64.08800458908046
 21
-21.06499862670898
 31
0.0
  0
SPLINE
  5
B691
330
1F
100
AcDbEntity
  8
AM_0
100
AcDbSpline
210
0.0
220
0.0
230
1.0
 70
     8
 71
     3
 72
    11
 73
     7
 74
     5
 42
0.0000000001
 43
0.0000000001
 44
0.0000000001
 40
0.0
 40
0.0
 40
0.0
 40
0.0
 40
0.2744100078962854
 40
0.5541015939644162
 40
0.8497654720198884
 40
1.156383032666762
 40
1.156383032666762
 40
1.156383032666762
 40
1.156383032666762
 10
-49.09000396728526
 20
-18.98600006103492
 30
0.0
 10
-49.09816407078107
 20
-19.07875042867375
 30
0.0
 10
-49.11464133554487
 20
-19.2660363332348
 30
0.0
 10
-49.29320721358165
 20
-19.50166509387937
 30
0.0
 10
-49.55087983361519
 20
-19.66034641628034
 30
0.0
 10
-49.75306941011893
 20
-19.67999543775624
 30
0.0
 10
-49.85600280761726
 20
-19.68999862670893
 30
0.0
 11
-49.09000396728526
 21
-18.98600006103492
 31
0.0
 11
-49.13899993896524
 21
-19.25600051879893
 31
0.0
 11
-49.30100250244128
 21
-19.48399734497092
 31
0.0
 11
-49.55400085449226
 21
-19.63699722289992
 31
0.0
 11
-49.85600280761726
 21
-19.68999862670893
 31
0.0
  0
ELLIPSE
  5
B692
330
1F
100
AcDbEntity
  8
AM_0
100
AcDbEllipse
 10
-48.79700088501023
 20
-22.55799865722696
 30
0.0
 11
0.7891883603370005
 21
-0.1310806333990002
 31
0.0
210
0.0
220
0.0
230
1.0
 40
0.8787463835823999
 41
5.682447497706922
 42
6.467569033128106
  0
ELLIPSE
  5
B693
330
1F
100
AcDbEntity
  8
AM_0
100
AcDbEllipse
 10
-48.79700088501023
 20
-22.55799865722696
 30
0.0
 11
0.7891883603370005
 21
-0.1310806333990002
 31
0.0
210
0.0
220
0.0
230
1.0
 40
0.8787463835823999
 41
4.897902929394168
 42
5.682447497706922
  0
SPLINE
  5
B694
330
1F
100
AcDbEntity
  8
AM_0
100
AcDbSpline
210
0.0
220
0.0
230
1.0
 70
     8
 71
     3
 72
    11
 73
     7
 74
     5
 42
0.0000000001
 43
0.0000000001
 44
0.0000000001
 40
0.0
 40
0.0
 40
0.0
 40
0.0
 40
1.816767544554581
 40
3.617776968146264
 40
5.405507181790237
 40
7.180493656647072
 40
7.180493656647072
 40
7.180493656647072
 40
7.180493656647072
 10
-48.76500701904323
 20
-23.26399993896495
 30
0.0
 10
-49.37048223613786
 20
-23.25004605027475
 30
0.0
 10
-50.57618095183425
 20
-23.22225930492541
 30
0.0
 10
-52.37512167046041
 20
-23.11474009308538
 30
0.0
 10
-54.15697969643378
 20
-22.96367738309986
 30
0.0
 10
-55.33572906162213
 20
-22.81838481358137
 30
0.0
 10
-55.92299556732225
 20
-22.74599838256795
 30
0.0
 11
-48.76500701904323
 21
-23.26399993896495
 31
0.0
 11
-50.58100128173823
 21
-23.21099853515594
 31
0.0
 11
-52.37900543212921
 21
-23.10699844360391
 31
0.0
 11
-54.16000366210924
 21
-22.95199966430693
 31
0.0
 11
-55.92299556732225
 21
-22.74599838256795
 31
0.0
  0
ELLIPSE
  5
B695
330
1F
100
AcDbEntity
  8
AM_0
100
AcDbEllipse
 10
-36.79700088501027
 20
6.229000091553078
 30
0.0
 11
0.7971382229060002
 21
-0.067592642423
 31
0.0
210
0.0
220
0.0
230
1.0
 40
0.3762496970403
 41
0.7763428704721905
 42
1.563210820658313
  0
ELLIPSE
  5
B696
330
1F
100
AcDbEntity
  8
AM_0
100
AcDbEllipse
 10
-33.14599609375036
 20
40.37200248241388
 30
0.0
 11
40.43666710354901
 21
-3.99972721481813
 31
0.0
210
0.0
220
0.0
230
1.0
 40
0.8376482673281
 41
4.526203477883743
 42
4.705517544371822
  0
SPLINE
  5
B697
330
1F
100
AcDbEntity
  8
AM_0
100
AcDbSpline
210
0.0
220
0.0
230
1.0
 70
     8
 71
     3
 72
    11
 73
     7
 74
     5
 42
0.0000000001
 43
0.0000000001
 44
0.0000000001
 40
0.0
 40
0.0
 40
0.0
 40
0.0
 40
1.829880103207445
 40
3.651280701087599
 40
5.46770647274107
 40
7.280968626797728
 40
7.280968626797728
 40
7.280968626797728
 40
7.280968626797728
 10
-36.7650070190433
 20
6.527999877930089
 30
0.0
 10
-37.37099803347229
 20
6.598173271980889
 30
0.0
 10
-38.58017195264802
 20
6.738194882674609
 30
0.0
 10
-40.37908344387871
 20
7.034218870955093
 30
0.0
 10
-42.16227765391852
 20
7.386214322282929
 30
0.0
 10
-43.3364313607767
 20
7.678823628316319
 30
0.0
 10
-43.92299652099628
 20
7.825000762939076
 30
0.0
 11
-36.7650070190433
 21
6.527999877930089
 31
0.0
 11
-38.5810012817383
 21
6.753002166748072
 31
0.0
 11
-40.3790054321293
 21
7.044002532959074
 31
0.0
 11
-42.16000366210931
 21
7.401000976562073
 31
0.0
 11
-43.92299652099628
 21
7.825000762939076
 31
0.0
  0
SPLINE
  5
B698
330
1F
100
AcDbEntity
  8
AM_0
100
AcDbSpline
210
0.0
220
0.0
230
1.0
 70
     8
 71
     3
 72
    11
 73
     7
 74
     5
 42
0.0000000001
 43
0.0000000001
 44
0.0000000001
 40
0.0
 40
0.0
 40
0.0
 40
0.0
 40
0.6902883242488183
 40
1.380280105425919
 40
2.069724379015635
 40
2.759427394903195
 40
2.759427394903195
 40
2.759427394903195
 40
2.759427394903195
 10
-11.5380020141602
 20
-24.11199569702086
 30
0.0
 10
-11.76854271578763
 20
-24.11233043885529
 30
0.0
 10
-12.22952508035761
 20
-24.11299977872138
 30
0.0
 10
-12.91103283990973
 20
-23.98809469159124
 30
0.0
 10
-13.57309025668998
 20
-23.78493148968035
 30
0.0
 10
-13.9823405519372
 20
-23.57365604547232
 30
0.0
 10
-14.1870040893552
 20
-23.46799850463888
 30
0.0
 11
-11.5380020141602
 21
-24.11199569702086
 31
0.0
 11
-12.22800064086922
 21
-24.09199905395488
 31
0.0
 11
-12.9080009460452
 21
-23.97500228881789
 31
0.0
 11
-13.56500244140621
 21
-23.76599884033187
 31
0.0
 11
-14.1870040893552
 21
-23.46799850463888
 31
0.0
  0
SPLINE
  5
B699
330
1F
100
AcDbEntity
  8
AM_0
100
AcDbSpline
210
0.0
220
0.0
230
1.0
 70
     8
 71
     3
 72
    11
 73
     7
 74
     5
 42
0.0000000001
 43
0.0000000001
 44
0.0000000001
 40
0.0
 40
0.0
 40
0.0
 40
0.0
 40
0.3118763787616956
 40
0.6233249517730019
 40
0.9361585715518693
 40
1.246857613293039
 40
1.246857613293039
 40
1.246857613293039
 40
1.246857613293039
 10
-1.089996337891226
 20
-22.90099716186484
 30
0.0
 10
-1.098052928424572
 20
-23.00606956706106
 30
0.0
 10
-1.114155058138891
 20
-23.21607024797717
 30
0.0
 10
-1.287323545449176
 20
-23.48818258176331
 30
0.0
 10
-1.544128120342523
 20
-23.68304079544538
 30
0.0
 10
-1.752282107344126
 20
-23.71571651448966
 30
0.0
 10
-1.856002807617216
 20
-23.73199844360386
 30
0.0
 11
-1.089996337891226
 21
-22.90099716186484
 31
0.0
 11
-1.138999938965243
 21
-23.20899963378882
 31
0.0
 11
-1.301002502441237
 21
-23.47499847412085
 31
0.0
 11
-1.554000854492217
 21
-23.65900039672885
 31
0.0
 11
-1.856002807617216
 21
-23.73199844360386
 31
0.0
  0
SPLINE
  5
B69A
330
1F
100
AcDbEntity
  8
AM_0
100
AcDbSpline
210
0.0
220
0.0
230
1.0
 70
     8
 71
     3
 72
    11
 73
     7
 74
     5
 42
0.0000000001
 43
0.0000000001
 44
0.0000000001
 40
0.0
 40
0.0
 40
0.0
 40
0.0
 40
0.9293976557281002
 40
1.8626814740137
 40
2.796139411310948
 40
3.727054844382893
 40
3.727054844382893
 40
3.727054844382893
 40
3.727054844382893
 10
-12.56400299072324
 20
-24.95599746704088
 30
0.0
 10
-12.8747998678102
 20
-24.95135757382381
 30
0.0
 10
-13.49769318109024
 20
-24.94205838624401
 30
0.0
 10
-14.40625251837016
 20
-24.70454747970616
 30
0.0
 10
-15.26617907660318
 20
-24.32560731267142
 30
0.0
 10
-15.7596202215682
 20
-23.94436100020973
 30
0.0
 10
-16.0060043334962
 20
-23.75399780273385
 30
0.0
 11
-12.56400299072324
 21
-24.95599746704088
 31
0.0
 11
-13.49200057983423
 21
-24.90500259399387
 31
0.0
 11
-14.39800262451225
 21
-24.68099594116187
 31
0.0
 11
-15.24700164794921
 21
-24.29299545288084
 31
0.0
 11
-16.0060043334962
 21
-23.75399780273385
 31
0.0
  0
ARC
  5
B7CB
330
1F
100
AcDbEntity
  8
AM_0
100
AcDbCircle
 10
-7.925003051758253
 20
-20.06299972534184
 30
0.0
 40
1.750360488891599
100
AcDbArc
 50
272.2592105158632
 51
92.26049277019368
  0
ARC
  5
B7CC
330
1F
100
AcDbEntity
  8
AM_0
100
AcDbCircle
 10
-7.925003051758253
 20
-20.06299972534184
 30
0.0
 40
1.993526577949498
100
AcDbArc
 50
2.242359755935881
 51
88.3094163929193
  0
LINE
  5
B7CD
330
1F
100
AcDbEntity
  8
AM_0
100
AcDbLine
 10
-1.763000488281297
 20
13.55400085449215
 30
0.0
 11
-17.30800628662128
 21
14.16500091552713
 31
0.0
  0
LINE
  5
B7CE
330
1F
100
AcDbEntity
  8
AM_0
100
AcDbLine
 10
-1.630996704101299
 20
14.34899902343715
 30
0.0
 11
-23.10700225830132
 21
15.19299888610811
 31
0.0
  0
LINE
  5
B7CF
330
1F
100
AcDbEntity
  8
AM_0
100
AcDbLine
 10
-20.77200317382829
 20
0.6980018615721136
 30
0.0
 11
-1.671005249023291
 21
-0.8959999084468527
 31
0.0
  0
LINE
  5
B7D0
330
1F
100
AcDbEntity
  8
AM_0
100
AcDbLine
 10
-9.881004333496292
 20
15.46200180053713
 30
0.0
 11
-6.451004028320309
 21
15.32700157165515
 31
0.0
  0
LINE
  5
B7D1
330
1F
100
AcDbEntity
  8
AM_0
100
AcDbLine
 10
-1.646003723144275
 20
0.0110015869141629
 30
0.0
 11
-12.10800170898426
 21
0.8840026855471087
 31
0.0
  0
LINE
  5
B7D2
330
1F
100
AcDbEntity
  8
AM_0
100
AcDbLine
 10
-2.842002868652312
 20
23.33100128173814
 30
0.0
 11
-7.709999084473335
 21
23.39300155639613
 31
0.0
  0
LINE
  5
B7D3
330
1F
100
AcDbEntity
  8
AM_0
100
AcDbLine
 10
-9.29100036621131
 20
17.22400283813513
 30
0.0
 11
-5.694999694824308
 21
17.18900108337414
 31
0.0
  0
LINE
  5
B7D4
330
1F
100
AcDbEntity
  8
AM_0
100
AcDbLine
 10
-4.458000183105323
 20
15.66100120544412
 30
0.0
 11
-9.200000762939309
 21
15.72100067138715
 31
0.0
  0
LINE
  5
B7D5
330
1F
100
AcDbEntity
  8
AM_0
100
AcDbLine
 10
-1.856002807617216
 20
-23.73200225830084
 30
0.0
 11
-11.5380020141602
 21
-24.11200332641584
 31
0.0
  0
LINE
  5
B7D8
330
1F
100
AcDbEntity
  8
AM_0
100
AcDbLine
 10
-1.282997131348261
 20
-13.53499984741181
 30
0.0
 11
-1.282997131348276
 21
-1.304000854491844
 31
0.0
  0
LINE
  5
B808
330
1F
100
AcDbEntity
  8
AM_0
100
AcDbLine
 10
-5.694999694824308
 20
17.18899726867715
 30
0.0
 11
-4.458999633789316
 21
15.66299819946313
 31
0.0
  0
LINE
  5
B809
330
1F
100
AcDbEntity
  8
AM_0
100
AcDbLine
 10
-2.17099761962934
 20
18.46400260925315
 30
0.0
 11
-0.9339981079103015
 21
16.93799972534214
 31
0.0
  0
LINE
  5
B80A
330
1F
100
AcDbEntity
  8
AM_0
100
AcDbLine
 10
-0.9340057373053159
 20
16.93800163269015
 30
0.0
 11
-0.0550003051763158
 21
22.54100036621114
 31
0.0
  0
LINE
  5
B80B
330
1F
100
AcDbEntity
  8
AM_0
100
AcDbLine
 10
-0.9340057373053159
 20
16.93800163269015
 30
0.0
 11
-0.0550003051763158
 21
22.54100036621114
 31
0.0
  0
LINE
  5
B80C
330
1F
100
AcDbEntity
  8
AM_0
100
AcDbLine
 10
-5.695007324219322
 20
17.18900108337414
 30
0.0
 11
-2.842002868652312
 21
23.33100318908715
 31
0.0
  0
LINE
  5
B80D
330
1F
100
AcDbEntity
  8
AM_0
100
AcDbLine
 10
-0.0000000000003122
 20
23.94000244140614
 30
0.0
 11
-2.077003479004326
 21
22.50000000000015
 31
0.0
  0
LINE
  5
B80E
330
1F
100
AcDbEntity
  8
AM_0
100
AcDbLine
 10
-0.0550003051763158
 20
22.54100227356014
 30
0.0
 11
-0.0000000000003122
 21
23.94000053405815
 31
0.0
  0
LINE
  5
B80F
330
1F
100
AcDbEntity
  8
AM_0
100
AcDbLine
 10
-2.077003479004326
 20
22.50000000000015
 30
0.0
 11
-2.842002868652312
 21
23.33099937439015
 31
0.0
  0
LINE
  5
B810
330
1F
100
AcDbEntity
  8
AM_0
100
AcDbLine
 10
-2.842002868652312
 20
23.33099746704115
 30
0.0
 11
-0.7649993896483548
 21
24.76999759674114
 31
0.0
  0
ARC
  5
B811
330
1F
100
AcDbEntity
  8
AM_0
100
AcDbCircle
 10
-0.7969970703123007
 20
23.97100067138715
 30
0.0
 40
0.7989023923874
100
AcDbArc
 50
42.81884704882755
 51
87.70939110451925
  0
ARC
  5
B812
330
1F
100
AcDbEntity
  8
AM_0
100
AcDbCircle
 10
-0.7969970703123007
 20
23.97100067138715
 30
0.0
 40
0.7976026535034002
100
AcDbArc
 50
357.7725573772131
 51
42.81884340635802
  0
LINE
  5
B813
330
1F
100
AcDbEntity
  8
AM_0
100
AcDbLine
 10
-0.7649993896483548
 20
24.77000236511214
 30
0.0
 11
-0.7669982910163381
 21
24.76900196075414
 31
0.0
  0
LINE
  5
B814
330
1F
100
AcDbEntity
  8
AM_0
100
AcDbLine
 10
-0.7649993896483548
 20
24.77100086212214
 30
0.0
 11
-0.2109985351563368
 21
24.51399993896515
 31
0.0
  0
LINE
  5
B815
330
1F
100
AcDbEntity
  8
AM_0
100
AcDbLine
 10
-0.2109985351563368
 20
24.51399993896515
 30
0.0
 11
-0.0000000000003122
 21
23.94000053405815
 31
0.0
  0
LINE
  5
B816
330
1F
100
AcDbEntity
  8
AM_0
100
AcDbLine
 10
-5.694999694824308
 20
17.18900299072314
 30
0.0
 11
-2.17100524902333
 21
18.46400451660215
 31
0.0
  0
LINE
  5
B817
330
1F
100
AcDbEntity
  8
AM_0
100
AcDbLine
 10
-2.076995849609311
 20
22.50000000000015
 30
0.0
 11
-2.17099761962934
 21
18.46400260925315
 31
0.0
  0
LINE
  5
B818
330
1F
100
AcDbEntity
  8
AM_0
100
AcDbLine
 10
-2.077003479004326
 20
22.50000000000015
 30
0.0
 11
-0.0550003051763158
 21
22.54100036621114
 31
0.0
  0
LINE
  5
B819
330
1F
100
AcDbEntity
  8
AM_0
100
AcDbLine
 10
-1.2829971313483
 20
13.53499984741214
 30
0.0
 11
-1.282997131348285
 21
1.304000854492146
 31
0.0
  0
LINE
  5
B81A
330
1F
100
AcDbEntity
  8
AM_0
100
AcDbLine
 10
-1.763000488281297
 20
13.55400085449215
 30
0.0
 11
-1.763000488281283
 21
1.413002014160156
 31
0.0
  0
LINE
  5
B81B
330
1F
100
AcDbEntity
  8
AM_0
100
AcDbLine
 10
-3.494003295898294
 20
15.72100067138714
 30
0.0
 11
-1.58000183105531
 21
15.64600181579615
 31
0.0
  0
LINE
  5
B81C
330
1F
100
AcDbEntity
  8
AM_0
100
AcDbLine
 10
-1.555999755859288
 20
16.07799911499014
 30
0.0
 11
-1.563003540039317
 21
16.07900047302214
 31
0.0
  0
LINE
  5
B81D
330
1F
100
AcDbEntity
  8
AM_0
100
AcDbLine
 10
-1.574005126953323
 20
15.83800125122115
 30
0.0
 11
-1.58000183105531
 21
15.64600181579615
 31
0.0
  0
LINE
  5
B81E
330
1F
100
AcDbEntity
  8
AM_0
100
AcDbLine
 10
-1.562995910644303
 20
16.07900238037114
 30
0.0
 11
-1.573997497558308
 21
15.83800125122115
 31
0.0
  0
LINE
  5
B81F
330
1F
100
AcDbEntity
  8
AM_0
100
AcDbLine
 10
-1.555999755859288
 20
16.07799911499014
 30
0.0
 11
-1.541000366211308
 21
16.47800064086915
 31
0.0
  0
LINE
  5
B820
330
1F
100
AcDbEntity
  8
AM_0
100
AcDbLine
 10
-2.210998535156306
 20
16.10400199890115
 30
0.0
 11
-1.562995910644303
 21
16.07900238037114
 31
0.0
  0
LINE
  5
B821
330
1F
100
AcDbEntity
  8
AM_0
100
AcDbLine
 10
-1.58000183105531
 20
15.64599990844714
 30
0.0
 11
-1.630996704101299
 21
14.34900093078615
 31
0.0
  0
LINE
  5
B822
330
1F
100
AcDbEntity
  8
AM_0
100
AcDbLine
 10
-1.763000488281297
 20
13.55400085449215
 30
0.0
 11
-1.2829971313483
 21
13.53500175476115
 31
0.0
  0
LINE
  5
B823
330
1F
100
AcDbEntity
  8
AM_0
100
AcDbLine
 10
-0.9329986572263097
 20
16.93600082397513
 30
0.0
 11
-0.9339981079103015
 21
16.93800163269015
 31
0.0
  0
LINE
  5
B824
330
1F
100
AcDbEntity
  8
AM_0
100
AcDbLine
 10
-0.9339981079103015
 20
16.93800163269015
 30
0.0
 11
-0.9329986572263097
 21
16.93600082397513
 31
0.0
  0
LINE
  5
B825
330
1F
100
AcDbEntity
  8
AM_0
100
AcDbLine
 10
-4.458000183105323
 20
15.66100120544412
 30
0.0
 11
-4.459007263183306
 21
15.66300010681213
 31
0.0
  0
LINE
  5
B826
330
1F
100
AcDbEntity
  8
AM_0
100
AcDbLine
 10
-1.282997131348276
 20
-1.304000854491844
 30
0.0
 11
-1.646003723144275
 21
-0.0109977722168387
 31
0.0
  0
LINE
  5
B827
330
1F
100
AcDbEntity
  8
AM_0
100
AcDbLine
 10
-1.646003723144275
 20
-0.0110015869138485
 30
0.0
 11
-1.647003173828266
 21
-0.0050010681148498
 31
0.0
  0
LINE
  5
B828
330
1F
100
AcDbEntity
  8
AM_0
100
AcDbLine
 10
-1.283004760742276
 20
1.304000854492146
 30
0.0
 11
-1.646003723144275
 21
0.0110015869141629
 31
0.0
  0
LINE
  5
B829
330
1F
100
AcDbEntity
  8
AM_0
100
AcDbLine
 10
-1.282997131348285
 20
1.304000854492146
 30
0.0
 11
-1.763000488281283
 21
1.412998199463159
 31
0.0
  0
LINE
  5
B83A
330
1F
100
AcDbEntity
  8
AM_0
100
AcDbLine
 10
-1.282997131348276
 20
-17.22800064086884
 30
0.0
 11
-1.282997131348256
 21
-23.09899902343783
 31
0.0
  0
LINE
  5
B83B
330
1F
100
AcDbEntity
  8
AM_0
100
AcDbLine
 10
-1.763000488281272
 20
-17.80799865722683
 30
0.0
 11
-1.283004760742268
 21
-17.22800064086884
 31
0.0
  0
LINE
  5
B83C
330
1F
100
AcDbEntity
  8
AM_0
100
AcDbLine
 10
-1.283004760742266
 20
-17.69499588012683
 30
0.0
 11
-0.9340057373052811
 21
-16.93799591064483
 31
0.0
  0
LINE
  5
B83D
330
1F
100
AcDbEntity
  8
AM_0
100
AcDbLine
 10
-0.9339981079102667
 20
-16.93800354003882
 30
0.0
 11
-0.0550003051762415
 21
-22.54099655151383
 31
0.0
  0
LINE
  5
B83E
330
1F
100
AcDbEntity
  8
AM_0
100
AcDbLine
 10
-1.401000976562252
 20
-13.53999710082984
 30
0.0
 11
-1.283004760742253
 21
-13.53499984741181
 31
0.0
  0
LINE
  5
B83F
330
1F
100
AcDbEntity
  8
AM_0
100
AcDbLine
 10
-1.297004699707228
 20
-16.63800048828084
 30
0.0
 11
-0.9329986572262752
 21
-16.93600082397483
 31
0.0
  0
LINE
  5
B840
330
1F
100
AcDbEntity
  8
AM_0
100
AcDbLine
 10
-0.9339981079102667
 20
-16.93799972534184
 30
0.0
 11
-0.9329986572262752
 21
-16.93600082397483
 31
0.0
  0
LINE
  5
B841
330
1F
100
AcDbEntity
  8
AM_0
100
AcDbLine
 10
-1.763000488281272
 20
-17.80799865722683
 30
0.0
 11
-1.763000488281222
 21
-23.59799957275384
 31
0.0
  0
LINE
  5
B842
330
1F
100
AcDbEntity
  8
AM_0
100
AcDbLine
 10
-1.763000488281222
 20
-23.59799957275384
 30
0.0
 11
-1.282997131348256
 21
-23.09900283813481
 31
0.0
  0
LINE
  5
B843
330
1F
100
AcDbEntity
  8
AM_0
100
AcDbLine
 10
-0.0000000000002563
 20
-23.93999862670883
 30
0.0
 11
-1.090003967285244
 21
-22.90099716186484
 31
0.0
  0
LINE
  5
B844
330
1F
100
AcDbEntity
  8
AM_0
100
AcDbLine
 10
-0.0550003051762415
 20
-22.54099655151383
 30
0.0
 11
-0.0000000000002563
 21
-23.94000625610384
 31
0.0
  0
LINE
  5
B845
330
1F
100
AcDbEntity
  8
AM_0
100
AcDbLine
 10
-1.283004760742265
 20
-18.00600051879882
 30
0.0
 11
-1.090003967285244
 21
-22.90099716186484
 31
0.0
  0
LINE
  5
B846
330
1F
100
AcDbEntity
  8
AM_0
100
AcDbLine
 10
-0.0550003051762415
 20
-22.54100418090785
 30
0.0
 11
-1.283004760742265
 21
-17.96400070190383
 31
0.0
  0
LINE
  5
B847
330
1F
100
AcDbEntity
  8
AM_0
100
AcDbLine
 10
-5.932998657226264
 20
-19.98499679565385
 30
0.0
 11
-5.85500335693323
 21
-21.97000122070288
 31
0.0
  0
ARC
  5
B848
330
1F
100
AcDbEntity
  8
AM_0
100
AcDbCircle
 10
-0.7969970703122446
 20
-23.97099685668881
 30
0.0
 40
0.7989023923874
100
AcDbArc
 50
317.1811529511725
 51
2.227438980323615
  0
ARC
  5
B849
330
1F
100
AcDbEntity
  8
AM_0
100
AcDbCircle
 10
-0.7969970703122446
 20
-23.97099685668881
 30
0.0
 40
0.8006397485733
100
AcDbArc
 50
272.2906088954807
 51
317.1811529511725
  0
LINE
  5
B84A
330
1F
100
AcDbEntity
  8
AM_0
100
AcDbLine
 10
-0.7649993896482647
 20
-24.77000045776383
 30
0.0
 11
-1.855995178223253
 21
-23.73200225830084
 31
0.0
  0
LINE
  5
B84B
330
1F
100
AcDbEntity
  8
AM_0
100
AcDbLine
 10
-39.99000167846727
 20
-5.440998077392909
 30
0.0
 11
-42.84212875366227
 21
-12.85068893432594
 31
0.0
  0
LINE
  5
B84C
330
1F
100
AcDbEntity
  8
AM_0
100
AcDbLine
 10
-38.74500274658234
 20
21.43500328064008
 30
0.0
 11
-40.08700180053732
 21
23.05600166320806
 31
0.0
  0
LINE
  5
B84D
330
1F
100
AcDbEntity
  8
AM_0
100
AcDbLine
 10
-47.54200363159229
 20
4.27500152587907
 30
0.0
 11
-38.9930000305173
 21
3.525001525879087
 31
0.0
  0
LINE
  5
B84E
330
1F
100
AcDbEntity
  8
AM_0
100
AcDbLine
 10
-38.89900207519529
 20
4.562999725342092
 30
0.0
 11
-39.97600364685029
 21
4.658000946045099
 31
0.0
  0
LINE
  5
B84F
330
1F
100
AcDbEntity
  8
AM_0
100
AcDbLine
 10
-37.85600662231433
 20
11.38700103759807
 30
0.0
 11
-47.53799819946332
 21
12.23600006103508
 31
0.0
  0
LINE
  5
B850
330
1F
100
AcDbEntity
  8
AM_0
100
AcDbLine
 10
-41.69500350952128
 20
5.983001708984079
 30
0.0
 11
-38.17099761962927
 21
6.207004547119083
 31
0.0
  0
ARC
  5
B851
330
1F
100
AcDbEntity
  8
AM_0
100
AcDbCircle
 10
-14.95100402832031
 20
17.70599937439012
 30
0.0
 40
2.4944620132446
100
AcDbArc
 50
147.1253842793806
 51
203.1412683042693
  0
ARC
  5
B852
330
1F
100
AcDbEntity
  8
AM_0
100
AcDbCircle
 10
-15.2390060424803
 20
17.71699905395512
 30
0.0
 40
2.496562719345098
100
AcDbArc
 50
132.3863858807203
 51
267.7304604168792
  0
LINE
  5
B853
330
1F
100
AcDbEntity
  8
AM_0
100
AcDbLine
 10
-29.5519981384283
 20
17.1139984130861
 30
0.0
 11
-26.84199523925832
 21
23.09999847412108
 31
0.0
  0
LINE
  5
B854
330
1F
100
AcDbEntity
  8
AM_0
100
AcDbLine
 10
-29.31000518798831
 20
16.94000053405809
 30
0.0
 11
-26.17100143432631
 21
18.10000038147009
 31
0.0
  0
LINE
  5
B855
330
1F
100
AcDbEntity
  8
AM_0
100
AcDbLine
 10
-26.1710052490233
 20
18.1000022888181
 30
0.0
 11
-24.93400192260731
 21
16.80800247192411
 31
0.0
  0
LINE
  5
B856
330
1F
100
AcDbEntity
  8
AM_0
100
AcDbLine
 10
-24.93299865722631
 20
16.80699920654311
 30
0.0
 11
-24.05500030517635
 21
22.60400009155311
 31
0.0
  0
LINE
  5
B857
330
1F
100
AcDbEntity
  8
AM_0
100
AcDbLine
 10
-24.9339981079103
 20
16.80800056457511
 30
0.0
 11
-24.05499649047833
 21
22.60400009155311
 31
0.0
  0
LINE
  5
B858
330
1F
100
AcDbEntity
  8
AM_0
100
AcDbLine
 10
-27.99000167846731
 20
15.98900032043511
 30
0.0
 11
-30.8230018615723
 21
18.02899932861309
 31
0.0
  0
LINE
  5
B859
330
1F
100
AcDbEntity
  8
AM_0
100
AcDbLine
 10
-9.200000762939309
 20
15.72299957275413
 30
0.0
 11
-9.29100036621131
 21
17.22400093078613
 31
0.0
  0
LINE
  5
B85A
330
1F
100
AcDbEntity
  8
AM_0
100
AcDbLine
 10
-17.2449989318853
 20
16.68599891662612
 30
0.0
 11
-15.02799987793031
 21
18.12099838256812
 31
0.0
  0
LINE
  5
B85B
330
1F
100
AcDbEntity
  8
AM_0
100
AcDbLine
 10
-17.1910018920903
 20
18.08499908447312
 30
0.0
 11
-17.24500274658231
 21
16.68600082397512
 31
0.0
  0
LINE
  5
B85C
330
1F
100
AcDbEntity
  8
AM_0
100
AcDbLine
 10
-15.02799987793031
 20
18.12100219726612
 30
0.0
 11
-14.26300048828131
 21
17.29000282287611
 31
0.0
  0
LINE
  5
B85D
330
1F
100
AcDbEntity
  8
AM_0
100
AcDbLine
 10
-11.22000122070334
 20
23.42399978637712
 30
0.0
 11
-14.74499893188531
 21
22.14900016784713
 31
0.0
  0
LINE
  5
B85E
330
1F
100
AcDbEntity
  8
AM_0
100
AcDbLine
 10
-11.21999740600633
 20
23.42399978637712
 30
0.0
 11
-14.2629966735843
 21
17.29000091552713
 31
0.0
  0
LINE
  5
B85F
330
1F
100
AcDbEntity
  8
AM_0
100
AcDbLine
 10
-12.56399917602533
 20
24.95600032806413
 30
0.0
 11
-7.923000335693332
 21
24.90000057220513
 31
0.0
  0
LINE
  5
B860
330
1F
100
AcDbEntity
  8
AM_0
100
AcDbLine
 10
-7.710006713867326
 20
23.39300346374513
 30
0.0
 11
-11.21999740600633
 21
23.42400360107412
 31
0.0
  0
LINE
  5
B861
330
1F
100
AcDbEntity
  8
AM_0
100
AcDbLine
 10
-7.923000335693332
 20
24.89800167083713
 30
0.0
 11
-7.709999084473335
 21
23.39300155639613
 31
0.0
  0
LINE
  5
B862
330
1F
100
AcDbEntity
  8
AM_0
100
AcDbLine
 10
-7.733001708984314
 20
23.30100059509313
 30
0.0
 11
-7.709999084473335
 21
23.39300155639613
 31
0.0
  0
LINE
  5
B863
330
1F
100
AcDbEntity
  8
AM_0
100
AcDbLine
 10
-7.923000335693332
 20
24.89800167083713
 30
0.0
 11
-7.923000335693332
 21
24.90000057220513
 31
0.0
  0
LINE
  5
B864
330
1F
100
AcDbEntity
  8
AM_0
100
AcDbLine
 10
-12.56399917602533
 20
24.95599842071513
 30
0.0
 11
-12.56200027465835
 21
24.95399951934814
 31
0.0
  0
LINE
  5
B865
330
1F
100
AcDbEntity
  8
AM_0
100
AcDbLine
 10
-12.56399917602533
 20
24.95599842071513
 30
0.0
 11
-12.56200027465835
 21
24.95399951934814
 31
0.0
  0
LINE
  5
B866
330
1F
100
AcDbEntity
  8
AM_0
100
AcDbLine
 10
-11.22000503540032
 20
23.42400169372612
 30
0.0
 11
-12.56200408935533
 21
24.95400142669713
 31
0.0
  0
LINE
  5
B867
330
1F
100
AcDbEntity
  8
AM_0
100
AcDbLine
 10
-9.2909965515143
 20
17.22400093078613
 30
0.0
 11
-9.267997741699311
 21
17.31599998474113
 31
0.0
  0
LINE
  5
B868
330
1F
100
AcDbEntity
  8
AM_0
100
AcDbLine
 10
-21.34499740600633
 20
23.32500076293912
 30
0.0
 11
-21.5149993896483
 21
19.13100051879911
 31
0.0
  0
LINE
  5
B869
330
1F
100
AcDbEntity
  8
AM_0
100
AcDbLine
 10
-20.87100219726634
 20
23.74399948120112
 30
0.0
 11
-20.94599914550831
 21
19.82799911499012
 31
0.0
  0
LINE
  5
B86A
330
1F
100
AcDbEntity
  8
AM_0
100
AcDbLine
 10
-16.08699798584032
 20
23.67900085449212
 30
0.0
 11
-17.19099807739232
 21
18.08499908447312
 31
0.0
  0
LINE
  5
B86B
330
1F
100
AcDbEntity
  8
AM_0
100
AcDbLine
 10
-14.74500274658233
 20
22.14900207519512
 30
0.0
 11
-16.08700561523431
 21
23.67900466918912
 31
0.0
  0
LINE
  5
B86C
330
1F
100
AcDbEntity
  8
AM_0
100
AcDbLine
 10
-16.08800125122132
 20
23.68100166320811
 30
0.0
 11
-16.08700180053733
 21
23.67900276184112
 31
0.0
  0
LINE
  5
B86D
330
1F
100
AcDbEntity
  8
AM_0
100
AcDbLine
 10
-15.02799987793031
 20
18.12100219726612
 30
0.0
 11
-17.19099807739232
 21
18.08500099182112
 31
0.0
  0
LINE
  5
B86E
330
1F
100
AcDbEntity
  8
AM_0
100
AcDbLine
 10
-15.02799987793031
 20
18.12100219726612
 30
0.0
 11
-14.74499893188531
 21
22.14900207519512
 31
0.0
  0
LINE
  5
B86F
330
1F
100
AcDbEntity
  8
AM_0
100
AcDbLine
 10
-26.84199905395533
 20
23.10000038147009
 30
0.0
 11
-31.71000289917031
 21
22.9069995880131
 31
0.0
  0
LINE
  5
B870
330
1F
100
AcDbEntity
  8
AM_0
100
AcDbLine
 10
-26.07699966430732
 20
22.3090000152591
 30
0.0
 11
-26.84199905395533
 21
23.09999847412108
 31
0.0
  0
LINE
  5
B871
330
1F
100
AcDbEntity
  8
AM_0
100
AcDbLine
 10
-24.00000000000034
 20
23.96200180053712
 30
0.0
 11
-26.07700347900432
 21
22.3090000152591
 31
0.0
  0
LINE
  5
B872
330
1F
100
AcDbEntity
  8
AM_0
100
AcDbLine
 10
-24.05500030517635
 20
22.60400009155311
 30
0.0
 11
-24.00000000000034
 21
23.96200180053712
 31
0.0
  0
LINE
  5
B873
330
1F
100
AcDbEntity
  8
AM_0
100
AcDbLine
 10
-26.84199905395533
 20
23.1000022888181
 30
0.0
 11
-24.76499938964833
 21
24.75200366973911
 31
0.0
  0
LINE
  5
B874
330
1F
100
AcDbEntity
  8
AM_0
100
AcDbLine
 10
-24.76499938964833
 20
24.75200366973911
 30
0.0
 11
-24.76699829101634
 21
24.75100326538111
 31
0.0
  0
LINE
  5
B875
330
1F
100
AcDbEntity
  8
AM_0
100
AcDbLine
 10
-24.76499938964833
 20
24.7530002593991
 30
0.0
 11
-24.21099853515634
 21
24.51499938964812
 31
0.0
  0
LINE
  5
B876
330
1F
100
AcDbEntity
  8
AM_0
100
AcDbLine
 10
-24.21100234985335
 20
24.51500225067111
 30
0.0
 11
-24.00000000000034
 21
23.96199989318811
 31
0.0
  0
LINE
  5
B877
330
1F
100
AcDbEntity
  8
AM_0
100
AcDbLine
 10
-26.07700347900432
 20
22.30900192260711
 30
0.0
 11
-26.1710052490233
 21
18.1000022888181
 31
0.0
  0
LINE
  5
B878
330
1F
100
AcDbEntity
  8
AM_0
100
AcDbLine
 10
-26.07699584960931
 20
22.3090038299561
 30
0.0
 11
-24.05500030517635
 21
22.60400199890112
 31
0.0
  0
LINE
  5
B879
330
1F
100
AcDbEntity
  8
AM_0
100
AcDbLine
 10
-31.92300415039134
 20
24.55100059509309
 30
0.0
 11
-31.71000289917031
 21
22.9069995880131
 31
0.0
  0
LINE
  5
B87A
330
1F
100
AcDbEntity
  8
AM_0
100
AcDbLine
 10
-35.21999740600633
 20
22.73799705505409
 30
0.0
 11
-36.56199645996134
 21
24.35999584198008
 31
0.0
  0
LINE
  5
B87B
330
1F
100
AcDbEntity
  8
AM_0
100
AcDbLine
 10
-36.56400299072334
 20
24.36100006103509
 30
0.0
 11
-31.92300415039134
 21
24.55200004577609
 31
0.0
  0
LINE
  5
B87C
330
1F
100
AcDbEntity
  8
AM_0
100
AcDbLine
 10
-36.56399917602534
 20
24.36099815368709
 30
0.0
 11
-36.56200027465834
 21
24.36000061035209
 31
0.0
  0
LINE
  5
B87D
330
1F
100
AcDbEntity
  8
AM_0
100
AcDbLine
 10
-31.70999908447333
 20
22.9069995880131
 30
0.0
 11
-35.22000122070334
 21
22.7380008697511
 31
0.0
  0
LINE
  5
B87E
330
1F
100
AcDbEntity
  8
AM_0
100
AcDbLine
 10
-31.73300170898432
 20
22.8170013427731
 30
0.0
 11
-31.71000289917031
 21
22.9069995880131
 31
0.0
  0
LINE
  5
B87F
330
1F
100
AcDbEntity
  8
AM_0
100
AcDbLine
 10
-35.22000122070334
 20
22.73799896240209
 30
0.0
 11
-38.74500274658234
 21
21.4349975585941
 31
0.0
  0
LINE
  5
B880
330
1F
100
AcDbEntity
  8
AM_0
100
AcDbLine
 10
-35.22000122070334
 20
22.7380008697511
 30
0.0
 11
-37.61600112915031
 21
18.24099922180208
 31
0.0
  0
LINE
  5
B881
330
1F
100
AcDbEntity
  8
AM_0
100
AcDbLine
 10
-38.9920005798343
 20
18.28400039672909
 30
0.0
 11
-38.74500274658234
 21
21.43500137329109
 31
0.0
  0
ARC
  5
B882
330
1F
100
AcDbEntity
  8
AM_0
100
AcDbCircle
 10
-25.84600067138738
 20
40.96200257539709
 30
0.0
 40
40.582439422607
100
AcDbArc
 50
266.2814357844616
 51
276.575200222208
  0
LINE
  5
B883
330
1F
100
AcDbEntity
  8
AM_0
100
AcDbLine
 10
-26.26299667358428
 20
1.384002685547101
 30
0.0
 11
-21.29100036621129
 21
1.647003173828112
 31
0.0
  0
LINE
  5
B884
330
1F
100
AcDbEntity
  8
AM_0
100
AcDbLine
 10
-21.3139991760253
 20
14.3220005035401
 30
0.0
 11
-25.05199813842829
 21
14.4690017700201
 31
0.0
  0
LINE
  5
B885
330
1F
100
AcDbEntity
  8
AM_0
100
AcDbLine
 10
-24.56399917602528
 20
2.874000549316125
 30
0.0
 11
-19.92300033569327
 21
1.861000061035105
 31
0.0
  0
LINE
  5
B886
330
1F
100
AcDbEntity
  8
AM_0
100
AcDbLine
 10
-13.85599899292025
 20
5.968997955322122
 30
0.0
 11
-23.5380020141603
 21
6.777000427246116
 31
0.0
  0
LINE
  5
B887
330
1F
100
AcDbEntity
  8
AM_0
100
AcDbLine
 10
-12.00000381469726
 20
0.339000701904119
 30
0.0
 11
-13.09000396728526
 21
5.798999786377126
 31
0.0
  0
LINE
  5
B888
330
1F
100
AcDbEntity
  8
AM_0
100
AcDbLine
 10
-12.76500320434627
 20
0.5089988708501393
 30
0.0
 11
-13.85600280761726
 21
5.969001770020128
 31
0.0
  0
ARC
  5
B889
330
1F
100
AcDbEntity
  8
AM_0
100
AcDbCircle
 10
-15.2390060424803
 20
17.71699905395512
 30
0.0
 40
2.499960899352998
100
AcDbArc
 50
267.7304604168792
 51
307.5629898449914
  0
LINE
  5
B88A
330
1F
100
AcDbEntity
  8
AM_0
100
AcDbLine
 10
-9.880004882812299
 20
15.52700233459513
 30
0.0
 11
-9.791004180908315
 21
15.72400093078612
 31
0.0
  0
LINE
  5
B88B
330
1F
100
AcDbEntity
  8
AM_0
100
AcDbLine
 10
-9.879001617432292
 20
15.64600181579613
 30
0.0
 11
-9.877002716064309
 21
15.72400093078612
 31
0.0
  0
LINE
  5
B88C
330
1F
100
AcDbEntity
  8
AM_0
100
AcDbLine
 10
-9.200000762939309
 20
15.72299957275413
 30
0.0
 11
-9.200000762939309
 21
15.72100067138715
 31
0.0
  0
LINE
  5
B88D
330
1F
100
AcDbEntity
  8
AM_0
100
AcDbLine
 10
-17.50800323486332
 20
11.96500205993711
 30
0.0
 11
-21.43982315063531
 21
12.29148483276411
 31
0.0
  0
LINE
  5
B88E
330
1F
100
AcDbEntity
  8
AM_0
100
AcDbLine
 10
-21.3139991760253
 20
14.3220005035401
 30
0.0
 11
-17.33300018310529
 21
14.16600227356011
 31
0.0
  0
ARC
  5
B88F
330
1F
100
AcDbEntity
  8
AM_0
100
AcDbCircle
 10
-14.95100402832031
 20
17.70599937439012
 30
0.0
 40
2.496704339981099
100
AcDbArc
 50
226.8664460655913
 51
264.2164510323102
  0
ARC
  5
B890
330
1F
100
AcDbEntity
  8
AM_0
100
AcDbCircle
 10
-16.44899749755831
 20
16.65500068664613
 30
0.0
 40
0.7981691360474002
100
AcDbArc
 50
222.8676332688336
 51
267.7781214769021
  0
ARC
  5
B891
330
1F
100
AcDbEntity
  8
AM_0
100
AcDbCircle
 10
-16.44899749755831
 20
16.65500068664613
 30
0.0
 40
0.7966034412384
100
AcDbArc
 50
177.7697588208861
 51
222.8676332688336
  0
LINE
  5
B892
330
1F
100
AcDbEntity
  8
AM_0
100
AcDbLine
 10
-17.33300399780329
 20
14.1660003662111
 30
0.0
 11
-17.3079986572263
 21
14.16500091552713
 31
0.0
  0
LINE
  5
B893
330
1F
100
AcDbEntity
  8
AM_0
100
AcDbLine
 10
-17.50799942016631
 20
11.96500015258812
 30
0.0
 11
-17.33300018310529
 21
14.1660003662111
 31
0.0
  0
LINE
  5
B894
330
1F
100
AcDbEntity
  8
AM_0
100
AcDbLine
 10
-16.47999954223629
 20
15.85599899292012
 30
0.0
 11
-16.47800064086931
 21
15.85700035095212
 31
0.0
  0
LINE
  5
B895
330
1F
100
AcDbEntity
  8
AM_0
100
AcDbLine
 10
-17.03400421142632
 20
16.11200141906713
 30
0.0
 11
-17.24500274658231
 21
16.68600273132313
 31
0.0
  0
LINE
  5
B896
330
1F
100
AcDbEntity
  8
AM_0
100
AcDbLine
 10
-16.47999572753932
 20
15.85599899292012
 30
0.0
 11
-17.03400039672831
 21
16.11199951171912
 31
0.0
  0
LINE
  5
B897
330
1F
100
AcDbEntity
  8
AM_0
100
AcDbLine
 10
-12.32600021362328
 20
3.939998626709117
 30
0.0
 11
-12.6509971618653
 21
3.601001739502127
 31
0.0
  0
LINE
  5
B898
330
1F
100
AcDbEntity
  8
AM_0
100
AcDbLine
 10
-12.12900161743227
 20
2.227001190186121
 30
0.0
 11
-12.33400344848627
 21
2.013999938965119
 31
0.0
  0
LINE
  5
B899
330
1F
100
AcDbEntity
  8
AM_0
100
AcDbLine
 10
-12.76499938964826
 20
0.5090026855471207
 30
0.0
 11
-12.21100234985328
 21
0.4290008544921084
 31
0.0
  0
LINE
  5
B89A
330
1F
100
AcDbEntity
  8
AM_0
100
AcDbLine
 10
-12.76499938964826
 20
0.5089988708501393
 30
0.0
 11
-12.76700210571328
 21
0.5089988708501393
 31
0.0
  0
LINE
  5
B89B
330
1F
100
AcDbEntity
  8
AM_0
100
AcDbLine
 10
-12.21099853515627
 20
0.4290008544921084
 30
0.0
 11
-12.00000381469726
 21
0.3310012817381176
 31
0.0
  0
LINE
  5
B89C
330
1F
100
AcDbEntity
  8
AM_0
100
AcDbLine
 10
-12.05500411987327
 20
0.1370010375981177
 30
0.0
 11
-12.00000381469726
 21
0.3310012817381176
 31
0.0
  0
LINE
  5
B89D
330
1F
100
AcDbEntity
  8
AM_0
100
AcDbLine
 10
-12.78399658203127
 20
0.5109977722171278
 30
0.0
 11
-12.05500030517629
 21
0.1370010375981177
 31
0.0
  0
ARC
  5
B89E
330
1F
100
AcDbEntity
  8
AM_0
100
AcDbCircle
 10
-16.64600372314419
 20
-38.85499954223586
 30
0.0
 40
39.776439666748
100
AcDbArc
 50
89.73063532522481
 51
96.57501079814378
  0
LINE
  5
B89F
330
1F
100
AcDbEntity
  8
AM_0
100
AcDbLine
 10
-16.45800399780327
 20
0.9209976196291245
 30
0.0
 11
-21.20000076293929
 21
0.6549987792971051
 31
0.0
  0
LINE
  5
B8A0
330
1F
100
AcDbEntity
  8
AM_0
100
AcDbLine
 10
-16.72200393676729
 20
1.132999420166133
 30
0.0
 11
-16.45900344848627
 21
0.9210014343261343
 31
0.0
  0
LINE
  5
B8A1
330
1F
100
AcDbEntity
  8
AM_0
100
AcDbLine
 10
-16.45899963378929
 20
0.9210014343261343
 30
0.0
 11
-15.10899734497127
 21
0.8349990844731209
 31
0.0
  0
LINE
  5
B8A2
330
1F
100
AcDbEntity
  8
AM_0
100
AcDbLine
 10
-21.29100418090829
 20
1.647003173828112
 30
0.0
 11
-19.97100448608427
 21
1.779003143311107
 31
0.0
  0
LINE
  5
B8A3
330
1F
100
AcDbEntity
  8
AM_0
100
AcDbLine
 10
-19.97100067138729
 20
1.778999328613102
 30
0.0
 11
-19.91900634765627
 21
1.783000946045113
 31
0.0
  0
LINE
  5
B8A4
330
1F
100
AcDbEntity
  8
AM_0
100
AcDbLine
 10
-21.19999694824227
 20
0.6549987792971051
 30
0.0
 11
-21.29099655151427
 21
1.646999359131116
 31
0.0
  0
LINE
  5
B8A5
330
1F
100
AcDbEntity
  8
AM_0
100
AcDbLine
 10
-21.29100418090829
 20
1.646999359131116
 30
0.0
 11
-21.26800155639629
 21
1.658000946045123
 31
0.0
  0
LINE
  5
B8A6
330
1F
100
AcDbEntity
  8
AM_0
100
AcDbLine
 10
-29.19099807739229
 20
0.8369979858401022
 30
0.0
 11
-27.08900070190429
 21
6.843997955322091
 31
0.0
  0
LINE
  5
B8A7
330
1F
100
AcDbEntity
  8
AM_0
100
AcDbLine
 10
-32.7800025939943
 20
5.247001647949095
 30
0.0
 11
-32.61200332641629
 21
6.853000640869103
 31
0.0
  0
LINE
  5
B8A8
330
1F
100
AcDbEntity
  8
AM_0
100
AcDbLine
 10
-27.06300354003931
 20
6.869998931885089
 30
0.0
 11
-28.0860023498533
 21
2.975002288818096
 31
0.0
  0
LINE
  5
B8A9
330
1F
100
AcDbEntity
  8
AM_0
100
AcDbLine
 10
-24.56400299072329
 20
2.874000549316125
 30
0.0
 11
-23.53800582885731
 21
6.777000427246116
 31
0.0
  0
LINE
  5
B8AA
330
1F
100
AcDbEntity
  8
AM_0
100
AcDbLine
 10
-38.17100143432627
 20
6.207004547119083
 30
0.0
 11
-36.9340019226073
 21
4.913002014160089
 31
0.0
  0
LINE
  5
B8AB
330
1F
100
AcDbEntity
  8
AM_0
100
AcDbLine
 10
-36.9340019226073
 20
4.912998199463092
 30
0.0
 11
-36.05500030517631
 21
5.635002136230092
 31
0.0
  0
LINE
  5
B8AC
330
1F
100
AcDbEntity
  8
AM_0
100
AcDbLine
 10
-27.12800216674829
 20
15.45100021362309
 30
0.0
 11
-25.47100448608429
 21
15.42000007629411
 31
0.0
  0
ARC
  5
B8AD
330
1F
100
AcDbEntity
  8
AM_0
100
AcDbCircle
 10
-23.34100341796931
 20
20.40600013732911
 30
0.0
 40
5.999584674835198
100
AcDbArc
 50
258.6863200689176
 51
267.7456507575891
  0
LINE
  5
B8AE
330
1F
100
AcDbEntity
  8
AM_0
100
AcDbLine
 10
-25.79700088501031
 20
16.1849994659421
 30
0.0
 11
-24.93300247192431
 21
16.80699920654311
 31
0.0
  0
LINE
  5
B8AF
330
1F
100
AcDbEntity
  8
AM_0
100
AcDbLine
 10
-26.17399978637732
 20
15.9690036773681
 30
0.0
 11
-25.7969970703123
 21
16.18500328064009
 31
0.0
  0
LINE
  5
B8B0
330
1F
100
AcDbEntity
  8
AM_0
100
AcDbLine
 10
-24.93300247192431
 20
16.80700111389211
 30
0.0
 11
-24.93400192260731
 21
16.80800056457511
 31
0.0
  0
LINE
  5
B8B1
330
1F
100
AcDbEntity
  8
AM_0
100
AcDbLine
 10
-25.29700469970731
 20
15.44700050354009
 30
0.0
 11
-25.1420059204103
 21
16.6360015869141
 31
0.0
  0
LINE
  5
B8B2
330
1F
100
AcDbEntity
  8
AM_0
100
AcDbLine
 10
-25.47100067138732
 20
15.42000007629411
 30
0.0
 11
-25.47000122070332
 21
15.4650001525881
 31
0.0
  0
LINE
  5
B8B3
330
1F
100
AcDbEntity
  8
AM_0
100
AcDbLine
 10
-25.47000122070332
 20
15.4650001525881
 30
0.0
 11
-25.15499877929729
 21
15.43200111389211
 31
0.0
  0
LINE
  5
B8B4
330
1F
100
AcDbEntity
  8
AM_0
100
AcDbLine
 10
-25.15500259399431
 20
15.43199920654311
 30
0.0
 11
-24.9799995422363
 21
16.7679996490481
 31
0.0
  0
LINE
  5
B8B5
330
1F
100
AcDbEntity
  8
AM_0
100
AcDbLine
 10
-23.10700225830132
 20
15.19299888610811
 30
0.0
 11
-23.49900054931632
 21
14.9029998779301
 31
0.0
  0
LINE
  5
B8B6
330
1F
100
AcDbEntity
  8
AM_0
100
AcDbLine
 10
-27.0890045166013
 20
6.844001770020096
 30
0.0
 11
-27.06300354003931
 21
6.870002746582097
 31
0.0
  0
LINE
  5
B8B7
330
1F
100
AcDbEntity
  8
AM_0
100
AcDbLine
 10
-27.69499969482426
 20
6.036998748779105
 30
0.0
 11
-27.38000106811528
 21
6.0110015869141
 31
0.0
  0
LINE
  5
B8B8
330
1F
100
AcDbEntity
  8
AM_0
100
AcDbLine
 10
-27.69499588012728
 20
6.036998748779105
 30
0.0
 11
-27.4269981384283
 21
6.986000061035095
 31
0.0
  0
LINE
  5
B8B9
330
1F
100
AcDbEntity
  8
AM_0
100
AcDbLine
 10
-33.34499740600631
 20
7.673999786377097
 30
0.0
 11
-33.51499938964826
 21
6.055000305176093
 31
0.0
  0
LINE
  5
B8BA
330
1F
100
AcDbEntity
  8
AM_0
100
AcDbLine
 10
-36.57799911499032
 20
8.76000213623009
 30
0.0
 11
-36.32599639892632
 21
9.489000320435089
 31
0.0
  0
LINE
  5
B8BB
330
1F
100
AcDbEntity
  8
AM_0
100
AcDbLine
 10
-36.12899780273429
 20
7.881999969482087
 30
0.0
 11
-36.2809982299803
 21
7.440998077393094
 31
0.0
  0
LINE
  5
B8BC
330
1F
100
AcDbEntity
  8
AM_0
100
AcDbLine
 10
-36.05500030517631
 20
5.635002136230092
 30
0.0
 11
-36.00000000000027
 21
6.15900039672909
 31
0.0
  0
LINE
  5
B8BD
330
1F
100
AcDbEntity
  8
AM_0
100
AcDbLine
 10
-38.07699966430728
 20
6.597999572754077
 30
0.0
 11
-36.05500030517631
 21
5.635002136230092
 31
0.0
  0
LINE
  5
B8BE
330
1F
100
AcDbEntity
  8
AM_0
100
AcDbLine
 10
-36.00000000000027
 20
6.15900039672909
 30
0.0
 11
-38.07699966430728
 21
6.597999572754077
 31
0.0
  0
LINE
  5
B8BF
330
1F
100
AcDbEntity
  8
AM_0
100
AcDbLine
 10
-38.0770034790043
 20
6.597999572754077
 30
0.0
 11
-38.39799880981431
 21
6.752998352051093
 31
0.0
  0
LINE
  5
B8C0
330
1F
100
AcDbEntity
  8
AM_0
100
AcDbLine
 10
-36.7650070190433
 20
6.527999877930089
 30
0.0
 11
-37.85600662231433
 21
11.38699913024908
 31
0.0
  0
LINE
  5
B8C1
330
1F
100
AcDbEntity
  8
AM_0
100
AcDbLine
 10
-36.00200271606427
 20
6.196998596191098
 30
0.0
 11
-37.09300231933632
 21
11.05500221252409
 31
0.0
  0
LINE
  5
B8C2
330
1F
100
AcDbEntity
  8
AM_0
100
AcDbLine
 10
-38.07699966430728
 20
6.597999572754077
 30
0.0
 11
-38.17099761962927
 21
6.207000732422073
 31
0.0
  0
LINE
  5
B8C3
330
1F
100
AcDbEntity
  8
AM_0
100
AcDbLine
 10
-36.7650070190433
 20
6.528003692627085
 30
0.0
 11
-36.21100234985331
 21
6.391002655029089
 31
0.0
  0
LINE
  5
B8C4
330
1F
100
AcDbEntity
  8
AM_0
100
AcDbLine
 10
-36.21100234985331
 20
6.391002655029089
 30
0.0
 11
-36.00000000000027
 21
6.15900039672909
 31
0.0
  0
LINE
  5
B8C5
330
1F
100
AcDbEntity
  8
AM_0
100
AcDbLine
 10
-36.7650070190433
 20
6.527999877930089
 30
0.0
 11
-36.7670059204103
 21
6.527999877930089
 31
0.0
  0
LINE
  5
B8C6
330
1F
100
AcDbEntity
  8
AM_0
100
AcDbLine
 10
-35.57700729370129
 20
1.934001922607088
 30
0.0
 11
-28.99900054931629
 21
1.385002136230102
 31
0.0
  0
LINE
  5
B8C7
330
1F
100
AcDbEntity
  8
AM_0
100
AcDbLine
 10
-28.69000244140627
 20
2.268001556396104
 30
0.0
 11
-35.1070022583013
 21
2.803001403809087
 31
0.0
  0
LINE
  5
B8C8
330
1F
100
AcDbEntity
  8
AM_0
100
AcDbLine
 10
-27.0280036926273
 20
1.562000274658099
 30
0.0
 11
-26.26300048828127
 21
1.383998870850119
 31
0.0
  0
LINE
  5
B8C9
330
1F
100
AcDbEntity
  8
AM_0
100
AcDbLine
 10
-27.02799987793029
 20
1.562000274658099
 30
0.0
 11
-26.79800033569328
 21
2.986000061035096
 31
0.0
  0
LINE
  5
B8CA
330
1F
100
AcDbEntity
  8
AM_0
100
AcDbLine
 10
-26.26300048828127
 20
1.383998870850119
 30
0.0
 11
-28.47999954223627
 21
0.4650001525881092
 31
0.0
  0
LINE
  5
B8CB
330
1F
100
AcDbEntity
  8
AM_0
100
AcDbLine
 10
-23.96400451660128
 20
2.773002624512123
 30
0.0
 11
-26.26300048828127
 21
1.384002685547101
 31
0.0
  0
LINE
  5
B8CC
330
1F
100
AcDbEntity
  8
AM_0
100
AcDbLine
 10
-24.56400299072329
 20
2.874000549316125
 30
0.0
 11
-24.56200408935528
 21
2.874000549316125
 31
0.0
  0
LINE
  5
B8CD
330
1F
100
AcDbEntity
  8
AM_0
100
AcDbLine
 10
-24.56400299072329
 20
2.874000549316125
 30
0.0
 11
-24.56200408935528
 21
2.874000549316125
 31
0.0
  0
ARC
  5
B8CE
330
1F
100
AcDbEntity
  8
AM_0
100
AcDbCircle
 10
-27.84300231933628
 20
3.141002655029104
 30
0.0
 40
2.512052059173599
100
AcDbArc
 50
138.2111404690551
 51
157.633553477819
  0
LINE
  5
B8CF
330
1F
100
AcDbEntity
  8
AM_0
100
AcDbLine
 10
-28.08700180053729
 20
2.967002868652108
 30
0.0
 11
-29.19100189209027
 21
0.837001800537098
 31
0.0
  0
LINE
  5
B8D0
330
1F
100
AcDbEntity
  8
AM_0
100
AcDbLine
 10
-28.48000335693328
 20
0.4650001525881092
 30
0.0
 11
-28.47800445556629
 21
0.4650001525881092
 31
0.0
  0
LINE
  5
B8D1
330
1F
100
AcDbEntity
  8
AM_0
100
AcDbLine
 10
-28.47999954223627
 20
0.4650001525881092
 30
0.0
 11
-29.03399658203127
 21
0.5449981689451028
 31
0.0
  0
LINE
  5
B8D2
330
1F
100
AcDbEntity
  8
AM_0
100
AcDbLine
 10
-27.02799987793029
 20
1.562000274658099
 30
0.0
 11
-29.19100189209027
 21
0.837001800537098
 31
0.0
  0
LINE
  5
B8D3
330
1F
100
AcDbEntity
  8
AM_0
100
AcDbLine
 10
-29.03400039672829
 20
0.5450019836431073
 30
0.0
 11
-29.24500274658229
 21
0.6430015563961034
 31
0.0
  0
LINE
  5
B8D4
330
1F
100
AcDbEntity
  8
AM_0
100
AcDbLine
 10
-29.24500656127927
 20
0.6430015563961034
 30
0.0
 11
-27.02799987793029
 21
1.562004089355094
 31
0.0
  0
LINE
  5
B8D5
330
1F
100
AcDbEntity
  8
AM_0
100
AcDbLine
 10
-29.19100189209027
 20
0.837001800537098
 30
0.0
 11
-29.24499893188528
 21
0.6430015563961034
 31
0.0
  0
LINE
  5
B8D6
330
1F
100
AcDbEntity
  8
AM_0
100
AcDbLine
 10
-30.35600662231429
 20
3.067001342773095
 30
0.0
 11
-30.38900756835927
 21
2.655998229980097
 31
0.0
  0
LINE
  5
B8D7
330
1F
100
AcDbEntity
  8
AM_0
100
AcDbLine
 10
-30.4700012207033
 20
2.662998199463101
 30
0.0
 11
-30.38900375366229
 21
2.655998229980097
 31
0.0
  0
LINE
  5
B8D8
330
1F
100
AcDbEntity
  8
AM_0
100
AcDbLine
 10
-30.4700012207033
 20
2.663002014160097
 30
0.0
 11
-30.19500350952129
 21
3.638000488281092
 31
0.0
  0
LINE
  5
B8D9
330
1F
100
AcDbEntity
  8
AM_0
100
AcDbLine
 10
-30.38899993896528
 20
2.656002044678087
 30
0.0
 11
-30.40600204467828
 21
2.5960006713871
 31
0.0
  0
LINE
  5
B8DA
330
1F
100
AcDbEntity
  8
AM_0
100
AcDbLine
 10
-28.0860061645513
 20
2.975002288818096
 30
0.0
 11
-28.08800506591829
 21
2.966999053955099
 31
0.0
  0
LINE
  5
B8DB
330
1F
100
AcDbEntity
  8
AM_0
100
AcDbLine
 10
-28.0860023498533
 20
2.975002288818096
 30
0.0
 11
-29.19100189209027
 21
0.837001800537098
 31
0.0
  0
LINE
  5
B8DC
330
1F
100
AcDbEntity
  8
AM_0
100
AcDbLine
 10
-27.85300445556631
 20
4.659999847412103
 30
0.0
 11
-29.71600723266629
 21
4.815002441406093
 31
0.0
  0
LINE
  5
B8DD
330
1F
100
AcDbEntity
  8
AM_0
100
AcDbLine
 10
-30.40600204467828
 20
2.5960006713871
 30
0.0
 11
-28.62700271606429
 21
2.446998596191111
 31
0.0
  0
LINE
  5
B8DE
330
1F
100
AcDbEntity
  8
AM_0
100
AcDbLine
 10
-30.10800552368228
 20
4.748001098633095
 30
0.0
 11
-30.0250053405763
 21
5.2150039672851
 31
0.0
  0
LINE
  5
B8DF
330
1F
100
AcDbEntity
  8
AM_0
100
AcDbLine
 10
-32.87099838256828
 20
3.845001220703099
 30
0.0
 11
-32.94599914550828
 21
3.294002532959101
 31
0.0
  0
LINE
  5
B8E0
330
1F
100
AcDbEntity
  8
AM_0
100
AcDbLine
 10
-35.1070022583013
 20
2.802997589111095
 30
0.0
 11
-35.49900054931629
 21
2.732997894287089
 31
0.0
  0
LINE
  5
B8E1
330
1F
100
AcDbEntity
  8
AM_0
100
AcDbLine
 10
-41.4669971466063
 20
16.56999969482407
 30
0.0
 11
-45.41466712951632
 21
17.16150474548307
 31
0.0
  0
LINE
  5
B8E2
330
1F
100
AcDbEntity
  8
AM_0
100
AcDbLine
 10
-41.46700477600131
 20
16.57000160217308
 30
0.0
 11
-41.3330020904543
 21
18.14000129699707
 31
0.0
  0
LINE
  5
B8E3
330
1F
100
AcDbEntity
  8
AM_0
100
AcDbLine
 10
-59.75000095367434
 20
21.33699417114303
 30
0.0
 11
-54.78973007202132
 21
21.19861221313505
 31
0.0
  0
LINE
  5
B8E4
330
1F
100
AcDbEntity
  8
AM_0
100
AcDbLine
 10
-49.05200195312531
 20
18.59499931335407
 30
0.0
 11
-45.31101989746131
 21
18.59499931335406
 31
0.0
  0
LINE
  5
B8E5
330
1F
100
AcDbEntity
  8
AM_0
100
AcDbLine
 10
-40.08699798584031
 20
23.05599975585908
 30
0.0
 11
-41.10599899292028
 21
18.35000038147006
 31
0.0
  0
LINE
  5
B8E6
330
1F
100
AcDbEntity
  8
AM_0
100
AcDbLine
 10
-42.19500160217331
 20
22.96100044250508
 30
0.0
 11
-42.37348365783731
 21
18.56406021118206
 31
0.0
  0
LINE
  5
B8E7
330
1F
100
AcDbEntity
  8
AM_0
100
AcDbLine
 10
-40.08699989318833
 20
23.05600166320806
 30
0.0
 11
-40.08799934387232
 21
23.05800247192409
 31
0.0
  0
LINE
  5
B8E8
330
1F
100
AcDbEntity
  8
AM_0
100
AcDbLine
 10
-40.08799934387232
 20
23.05800247192409
 30
0.0
 11
-40.08699989318833
 21
23.05600166320806
 31
0.0
  0
LINE
  5
B8E9
330
1F
100
AcDbEntity
  8
AM_0
100
AcDbLine
 10
-42.30494880676331
 20
17.77411842346208
 30
0.0
 11
-42.10799598693832
 21
22.64700126647906
 31
0.0
  0
LINE
  5
B8EA
330
1F
100
AcDbEntity
  8
AM_0
100
AcDbLine
 10
-41.3330039978033
 20
18.13999938964806
 30
0.0
 11
-41.30800628662129
 21
18.35600280761707
 31
0.0
  0
LINE
  5
B8EB
330
1F
100
AcDbEntity
  8
AM_0
100
AcDbLine
 10
-45.34499549865732
 20
21.55100059509307
 30
0.0
 11
-45.48099708557132
 21
18.48500061035207
 31
0.0
  0
LINE
  5
B8EC
330
1F
100
AcDbEntity
  8
AM_0
100
AcDbLine
 10
-44.87100028991732
 20
22.90600204467808
 30
0.0
 11
-44.94600105285631
 21
19.10800170898406
 31
0.0
  0
LINE
  5
B8ED
330
1F
100
AcDbEntity
  8
AM_0
100
AcDbLine
 10
-50.84200286865232
 20
21.49700355529806
 30
0.0
 11
-48.76500511169433
 21
23.26400184631305
 31
0.0
  0
LINE
  5
B8EE
330
1F
100
AcDbEntity
  8
AM_0
100
AcDbLine
 10
-48.21100425720233
 20
23.05900192260706
 30
0.0
 11
-48.00000190734934
 21
22.56000137329108
 31
0.0
  0
LINE
  5
B8EF
330
1F
100
AcDbEntity
  8
AM_0
100
AcDbLine
 10
-48.76500129699732
 20
23.26399993896506
 30
0.0
 11
-48.76700210571335
 21
23.26300048828106
 31
0.0
  0
LINE
  5
B8F0
330
1F
100
AcDbEntity
  8
AM_0
100
AcDbLine
 10
-48.76500701904333
 20
23.26400375366206
 30
0.0
 11
-48.21100425720233
 21
23.05900382995606
 31
0.0
  0
LINE
  5
B8F1
330
1F
100
AcDbEntity
  8
AM_0
100
AcDbLine
 10
-51.88700294494633
 20
19.26800155639606
 30
0.0
 11
-50.84200477600133
 21
21.49700164794906
 31
0.0
  0
LINE
  5
B8F2
330
1F
100
AcDbEntity
  8
AM_0
100
AcDbLine
 10
-50.07700347900431
 20
20.79299926757807
 30
0.0
 11
-50.84200096130434
 21
21.49699974060106
 31
0.0
  0
LINE
  5
B8F3
330
1F
100
AcDbEntity
  8
AM_0
100
AcDbLine
 10
-50.07700157165531
 20
20.79300117492707
 30
0.0
 11
-50.12399864196832
 21
18.71200180053706
 31
0.0
  0
LINE
  5
B8F4
330
1F
100
AcDbEntity
  8
AM_0
100
AcDbLine
 10
-48.00000190734934
 20
22.56000137329108
 30
0.0
 11
-50.07700347900431
 21
20.79300117492707
 31
0.0
  0
LINE
  5
B8F5
330
1F
100
AcDbEntity
  8
AM_0
100
AcDbLine
 10
-50.07699775695833
 20
20.79299736022907
 30
0.0
 11
-48.05500030517634
 21
21.32499885559106
 31
0.0
  0
LINE
  5
B8F6
330
1F
100
AcDbEntity
  8
AM_0
100
AcDbLine
 10
-48.05500030517634
 20
21.32500076293906
 30
0.0
 11
-48.00000000000032
 21
22.55999946594207
 31
0.0
  0
LINE
  5
B8F7
330
1F
100
AcDbEntity
  8
AM_0
100
AcDbLine
 10
-48.48200225830132
 20
18.57799911499007
 30
0.0
 11
-48.05500030517634
 21
21.32500076293906
 31
0.0
  0
LINE
  5
B8F8
330
1F
100
AcDbEntity
  8
AM_0
100
AcDbLine
 10
-48.48300361633332
 20
18.57799911499007
 30
0.0
 11
-48.05500221252432
 21
21.32500267028806
 31
0.0
  0
LINE
  5
B8F9
330
1F
100
AcDbEntity
  8
AM_0
100
AcDbLine
 10
-60.56300735473632
 20
22.31900024414103
 30
0.0
 11
-55.92299938201932
 21
22.74600028991705
 31
0.0
  0
LINE
  5
B8FA
330
1F
100
AcDbEntity
  8
AM_0
100
AcDbLine
 10
-55.92299938201932
 20
22.74500083923306
 30
0.0
 11
-55.73400115966832
 21
21.25300216674805
 31
0.0
  0
LINE
  5
B8FB
330
1F
100
AcDbEntity
  8
AM_0
100
AcDbLine
 10
-60.56299972534233
 20
22.31900215148904
 30
0.0
 11
-60.56199455261232
 21
22.31699752807604
 31
0.0
  0
LINE
  5
B8FC
330
1F
100
AcDbEntity
  8
AM_0
100
AcDbLine
 10
-59.75000095367434
 20
21.33699417114303
 30
0.0
 11
-60.56200027465834
 21
22.31699180603005
 31
0.0
  0
LINE
  5
B8FD
330
1F
100
AcDbEntity
  8
AM_0
100
AcDbLine
 10
-59.5770053863523
 20
5.330997467041052
 30
0.0
 11
-53.23499870300328
 21
4.774997711182055
 31
0.0
  0
LINE
  5
B8FE
330
1F
100
AcDbEntity
  8
AM_0
100
AcDbLine
 10
-53.00399971008328
 20
5.800998687744059
 30
0.0
 11
-59.48200035095231
 21
6.368999481201051
 31
0.0
  0
LINE
  5
B8FF
330
1F
100
AcDbEntity
  8
AM_0
100
AcDbLine
 10
-45.20000267028829
 20
4.454002380371082
 30
0.0
 11
-45.29100036621127
 21
5.750000000000072
 31
0.0
  0
LINE
  5
B900
330
1F
100
AcDbEntity
  8
AM_0
100
AcDbLine
 10
-41.69500160217326
 20
5.982997894287068
 30
0.0
 11
-40.45899963378929
 21
4.688995361328087
 31
0.0
  0
LINE
  5
B901
330
1F
100
AcDbEntity
  8
AM_0
100
AcDbLine
 10
-52.0869979858403
 20
8.562997817993057
 30
0.0
 11
-53.19099807739231
 21
5.201999664307055
 31
0.0
  0
LINE
  5
B902
330
1F
100
AcDbEntity
  8
AM_0
100
AcDbLine
 10
-52.08600234985332
 20
8.569999694824055
 30
0.0
 11
-53.19099998474128
 21
5.201999664307055
 31
0.0
  0
LINE
  5
B903
330
1F
100
AcDbEntity
  8
AM_0
100
AcDbLine
 10
-53.19099998474128
 20
5.201999664307055
 30
0.0
 11
-51.08899879455634
 21
11.93700218200707
 31
0.0
  0
LINE
  5
B904
330
1F
100
AcDbEntity
  8
AM_0
100
AcDbLine
 10
-51.02800178527825
 20
5.888999938965067
 30
0.0
 11
-53.19100189209029
 21
5.201999664307055
 31
0.0
  0
LINE
  5
B905
330
1F
100
AcDbEntity
  8
AM_0
100
AcDbLine
 10
-47.3800048828123
 20
8.570001602173061
 30
0.0
 11
-50.2630023956303
 21
5.520004272461065
 31
0.0
  0
LINE
  5
B906
330
1F
100
AcDbEntity
  8
AM_0
100
AcDbLine
 10
-51.02799797058127
 20
5.888999938965067
 30
0.0
 11
-50.26300048828129
 21
5.520000457764068
 31
0.0
  0
LINE
  5
B907
330
1F
100
AcDbEntity
  8
AM_0
100
AcDbLine
 10
-50.2630023956303
 20
5.520000457764068
 30
0.0
 11
-45.29100036621127
 21
5.750000000000072
 31
0.0
  0
LINE
  5
B908
330
1F
100
AcDbEntity
  8
AM_0
100
AcDbLine
 10
-53.24499702453629
 20
4.678001403809051
 30
0.0
 11
-51.02799797058127
 21
5.888999938965067
 31
0.0
  0
LINE
  5
B909
330
1F
100
AcDbEntity
  8
AM_0
100
AcDbLine
 10
-48.56400299072332
 20
8.788002014160074
 30
0.0
 11
-43.9230003356933
 21
7.825000762939076
 31
0.0
  0
LINE
  5
B90A
330
1F
100
AcDbEntity
  8
AM_0
100
AcDbLine
 10
-45.29100227355926
 20
5.750000000000072
 30
0.0
 11
-41.69500541687027
 21
5.982997894287068
 31
0.0
  0
LINE
  5
B90B
330
1F
100
AcDbEntity
  8
AM_0
100
AcDbLine
 10
-41.69500541687027
 20
5.983001708984079
 30
0.0
 11
-39.15899658203131
 21
6.8580017089841
 31
0.0
  0
LINE
  5
B90C
330
1F
100
AcDbEntity
  8
AM_0
100
AcDbLine
 10
-45.29100036621127
 20
5.750000000000072
 30
0.0
 11
-45.26800155639628
 21
5.783000946045079
 31
0.0
  0
LINE
  5
B90D
330
1F
100
AcDbEntity
  8
AM_0
100
AcDbLine
 10
-48.56400108337431
 20
8.788002014160074
 30
0.0
 11
-47.53800010681131
 21
12.23600006103508
 31
0.0
  0
LINE
  5
B90E
330
1F
100
AcDbEntity
  8
AM_0
100
AcDbLine
 10
-51.0630054473883
 20
12.01200103759806
 30
0.0
 11
-52.08600425720232
 21
8.570003509521065
 31
0.0
  0
LINE
  5
B90F
330
1F
100
AcDbEntity
  8
AM_0
100
AcDbLine
 10
-51.08899879455634
 20
11.93699836731006
 30
0.0
 11
-51.06300163269033
 21
12.01199913024906
 31
0.0
  0
LINE
  5
B910
330
1F
100
AcDbEntity
  8
AM_0
100
AcDbLine
 10
-50.74500656127931
 20
8.515001296997066
 30
0.0
 11
-52.08700561523431
 21
8.563001632690067
 31
0.0
  0
LINE
  5
B911
330
1F
100
AcDbEntity
  8
AM_0
100
AcDbLine
 10
-47.97699928283731
 20
8.690999984741075
 30
0.0
 11
-50.7449989318853
 21
8.515001296997066
 31
0.0
  0
LINE
  5
B912
330
1F
100
AcDbEntity
  8
AM_0
100
AcDbLine
 10
-51.02799797058127
 20
5.888999938965067
 30
0.0
 11
-50.74500083923332
 21
8.514999389648064
 31
0.0
  0
LINE
  5
B913
330
1F
100
AcDbEntity
  8
AM_0
100
AcDbLine
 10
-48.5639991760253
 20
8.788002014160074
 30
0.0
 11
-48.56200027465831
 21
8.787002563477079
 31
0.0
  0
LINE
  5
B914
330
1F
100
AcDbEntity
  8
AM_0
100
AcDbLine
 10
-48.5639991760253
 20
8.788002014160074
 30
0.0
 11
-48.56200027465831
 21
8.787002563477079
 31
0.0
  0
LINE
  5
B915
330
1F
100
AcDbEntity
  8
AM_0
100
AcDbLine
 10
-54.47000122070329
 20
6.583000183105069
 30
0.0
 11
-54.19500350952132
 21
9.207000732422059
 31
0.0
  0
LINE
  5
B916
330
1F
100
AcDbEntity
  8
AM_0
100
AcDbLine
 10
-54.4059982299803
 20
6.414001464844073
 30
0.0
 11
-54.38899612426731
 21
6.576000213623059
 31
0.0
  0
LINE
  5
B917
330
1F
100
AcDbEntity
  8
AM_0
100
AcDbLine
 10
-54.33399963378931
 20
7.22500228881806
 30
0.0
 11
-54.38899612426731
 21
6.576000213623059
 31
0.0
  0
LINE
  5
B918
330
1F
100
AcDbEntity
  8
AM_0
100
AcDbLine
 10
-54.47000312805229
 20
6.583000183105069
 30
0.0
 11
-54.38899803161629
 21
6.576000213623059
 31
0.0
  0
LINE
  5
B919
330
1F
100
AcDbEntity
  8
AM_0
100
AcDbLine
 10
-54.10799980163632
 20
10.23600196838406
 30
0.0
 11
-54.1039981842043
 21
10.27800178527805
 31
0.0
  0
LINE
  5
B91A
330
1F
100
AcDbEntity
  8
AM_0
100
AcDbLine
 10
-52.17499923706029
 20
8.456998825073064
 30
0.0
 11
-53.71600151062032
 21
8.591999053955049
 31
0.0
  0
LINE
  5
B91B
330
1F
100
AcDbEntity
  8
AM_0
100
AcDbLine
 10
-52.8550052642823
 20
6.278003692627055
 30
0.0
 11
-54.40600013732929
 21
6.414001464844073
 31
0.0
  0
LINE
  5
B91C
330
1F
100
AcDbEntity
  8
AM_0
100
AcDbLine
 10
-52.0880031585693
 20
8.564001083374058
 30
0.0
 11
-52.0869998931883
 21
8.562997817993057
 31
0.0
  0
LINE
  5
B91D
330
1F
100
AcDbEntity
  8
AM_0
100
AcDbLine
 10
-52.08599853515631
 20
8.569999694824055
 30
0.0
 11
-52.0879974365233
 21
8.564001083374058
 31
0.0
  0
LINE
  5
B91E
330
1F
100
AcDbEntity
  8
AM_0
100
AcDbLine
 10
-40.45800018310528
 20
4.687999725342087
 30
0.0
 11
-45.20000267028829
 21
4.454002380371082
 31
0.0
  0
LINE
  5
B91F
330
1F
100
AcDbEntity
  8
AM_0
100
AcDbLine
 10
-40.4579982757573
 20
4.687999725342087
 30
0.0
 11
-40.45900344848629
 21
4.689002990723088
 31
0.0
  0
LINE
  5
B920
330
1F
100
AcDbEntity
  8
AM_0
100
AcDbLine
 10
-50.2630023956303
 20
5.520000457764068
 30
0.0
 11
-52.4800014495853
 21
4.309001922607057
 31
0.0
  0
LINE
  5
B921
330
1F
100
AcDbEntity
  8
AM_0
100
AcDbLine
 10
-52.48000717163129
 20
4.308998107910062
 30
0.0
 11
-53.03400421142629
 21
4.445999145508058
 31
0.0
  0
LINE
  5
B922
330
1F
100
AcDbEntity
  8
AM_0
100
AcDbLine
 10
-53.19100189209029
 20
5.201999664307055
 30
0.0
 11
-53.2450027465823
 21
4.678001403809051
 31
0.0
  0
LINE
  5
B923
330
1F
100
AcDbEntity
  8
AM_0
100
AcDbLine
 10
-53.03399658203129
 20
4.446002960205053
 30
0.0
 11
-53.2450027465823
 21
4.67800521850606
 31
0.0
  0
LINE
  5
B924
330
1F
100
AcDbEntity
  8
AM_0
100
AcDbLine
 10
-52.4800033569333
 20
4.309001922607057
 30
0.0
 11
-52.47800445556631
 21
4.309001922607057
 31
0.0
  0
LINE
  5
B925
330
1F
100
AcDbEntity
  8
AM_0
100
AcDbLine
 10
-62.76399707794161
 20
7.117004394531048
 30
0.0
 11
-70.60100710391971
 21
10.38300514221204
 31
0.0
  0
ARC
  5
B926
330
1F
100
AcDbEntity
  8
AM_0
100
AcDbCircle
 10
-7.925003051758253
 20
-20.06299972534184
 30
0.0
 40
1.744412779808
100
AcDbArc
 50
184.0762560428874
 51
272.2592105158632
  0
ARC
  5
B927
330
1F
100
AcDbEntity
  8
AM_0
100
AcDbCircle
 10
-7.925003051758253
 20
-20.06299972534184
 30
0.0
 40
1.7493612766266
100
AcDbArc
 50
92.26050324285306
 51
132.959554865298
  0
LINE
  5
B928
330
1F
100
AcDbEntity
  8
AM_0
100
AcDbLine
 10
-12.56400299072324
 20
-24.95599746704088
 30
0.0
 11
-7.923000335693241
 21
-24.89999771118185
 31
0.0
  0
LINE
  5
B929
330
1F
100
AcDbEntity
  8
AM_0
100
AcDbLine
 10
-12.56400299072324
 20
-24.95599746704088
 30
0.0
 11
-11.5380020141602
 21
-24.11199569702086
 31
0.0
  0
LINE
  5
B92A
330
1F
100
AcDbEntity
  8
AM_0
100
AcDbLine
 10
-20.87099838256821
 20
-23.74399566650389
 30
0.0
 11
-20.87799835205124
 21
-23.3639945983889
 31
0.0
  0
LINE
  5
B92B
330
1F
100
AcDbEntity
  8
AM_0
100
AcDbLine
 10
-20.61300277709921
 20
-23.45700073242188
 30
0.0
 11
-20.61200332641622
 21
-23.4720001220699
 31
0.0
  0
LINE
  5
B92C
330
1F
100
AcDbEntity
  8
AM_0
100
AcDbLine
 10
-20.60900115966822
 20
-23.4610023498539
 30
0.0
 11
-20.61200332641622
 21
-23.4720001220699
 31
0.0
  0
LINE
  5
B92D
330
1F
100
AcDbEntity
  8
AM_0
100
AcDbLine
 10
-29.53100204467827
 20
-17.20199584960889
 30
0.0
 11
-29.45199966430726
 21
-19.15599822997987
 31
0.0
  0
ARC
  5
B92E
330
1F
100
AcDbEntity
  8
AM_0
100
AcDbCircle
 10
-31.28200531005825
 20
-16.48899841308586
 30
0.0
 40
1.999870538711499
100
AcDbArc
 50
1.690576093649827
 51
162.2716993016451
  0
LINE
  5
B92F
330
1F
100
AcDbEntity
  8
AM_0
100
AcDbLine
 10
-29.26800155639628
 20
-16.90800094604492
 30
0.0
 11
-29.28300476074225
 21
-16.4300003051759
 31
0.0
  0
ARC
  5
B930
330
1F
100
AcDbEntity
  8
AM_0
100
AcDbCircle
 10
-31.28200531005825
 20
-16.48899841308586
 30
0.0
 40
1.99997651577
100
AcDbArc
 50
162.2716993016451
 51
181.6905802488321
  0
LINE
  5
B931
330
1F
100
AcDbEntity
  8
AM_0
100
AcDbLine
 10
-33.27400207519525
 20
-16.76999664306588
 30
0.0
 11
-33.28100204467825
 21
-16.5480003356929
 31
0.0
  0
LINE
  5
B932
330
1F
100
AcDbEntity
  8
AM_0
100
AcDbLine
 10
-25.85600280761725
 20
-22.37499999999988
 30
0.0
 11
-35.53799819946323
 21
-22.55999755859393
 31
0.0
  0
LINE
  5
B933
330
1F
100
AcDbEntity
  8
AM_0
100
AcDbLine
 10
-24.76499938964823
 20
-24.75300216674787
 30
0.0
 11
-25.85600280761725
 21
-22.3749961853029
 31
0.0
  0
LINE
  5
B934
330
1F
100
AcDbEntity
  8
AM_0
100
AcDbLine
 10
-24.00000000000023
 20
-23.96199417114287
 30
0.0
 11
-25.01599884033226
 21
-21.74800109863289
 31
0.0
  0
LINE
  5
B935
330
1F
100
AcDbEntity
  8
AM_0
100
AcDbLine
 10
-24.45800018310524
 20
-21.87300109863289
 30
0.0
 11
-24.32600021362322
 21
-22.88100433349589
 31
0.0
  0
LINE
  5
B936
330
1F
100
AcDbEntity
  8
AM_0
100
AcDbLine
 10
-24.02700805664122
 20
-23.28499984741188
 30
0.0
 11
-24.00000762939422
 21
-23.96200180053686
 31
0.0
  0
LINE
  5
B937
330
1F
100
AcDbEntity
  8
AM_0
100
AcDbLine
 10
-36.56399536132827
 20
-24.36099624633792
 30
0.0
 11
-35.53799819946323
 21
-22.55999755859393
 31
0.0
  0
LINE
  5
B938
330
1F
100
AcDbEntity
  8
AM_0
100
AcDbLine
 10
-36.56400299072326
 20
-24.36099624633792
 30
0.0
 11
-31.92300415039124
 21
-24.55199813842789
 31
0.0
  0
LINE
  5
B939
330
1F
100
AcDbEntity
  8
AM_0
100
AcDbLine
 10
-49.85600471496625
 20
-19.68999862670893
 30
0.0
 11
-59.53800201416026
 21
-19.66799926757792
 31
0.0
  0
LINE
  5
B93A
330
1F
100
AcDbEntity
  8
AM_0
100
AcDbLine
 10
-53.26799583435025
 20
-12.37099838256794
 30
0.0
 11
-53.28299522399926
 21
-11.92300033569294
 31
0.0
  0
LINE
  5
B93B
330
1F
100
AcDbEntity
  8
AM_0
100
AcDbLine
 10
-53.53099632263226
 20
-13.41300201415991
 30
0.0
 11
-53.45199775695826
 21
-15.18999481201192
 31
0.0
  0
LINE
  5
B93C
330
1F
100
AcDbEntity
  8
AM_0
100
AcDbLine
 10
-39.39800262451227
 20
-21.84600448608392
 30
0.0
 11
-40.08599853515621
 21
-23.05400085449189
 31
0.0
  0
LINE
  5
B93D
330
1F
100
AcDbEntity
  8
AM_0
100
AcDbLine
 10
-40.08600044250521
 20
-23.05400085449189
 30
0.0
 11
-40.08799934387221
 21
-23.0580024719239
 31
0.0
  0
LINE
  5
B93E
330
1F
100
AcDbEntity
  8
AM_0
100
AcDbLine
 10
-40.08599853515621
 20
-23.05400085449189
 30
0.0
 11
-40.33999824523927
 21
-21.88599395751992
 31
0.0
  0
LINE
  5
B93F
330
1F
100
AcDbEntity
  8
AM_0
100
AcDbLine
 10
-40.08699989318821
 20
-23.05599975585891
 30
0.0
 11
-40.33999824523927
 21
-21.88600158691391
 31
0.0
  0
LINE
  5
B940
330
1F
100
AcDbEntity
  8
AM_0
100
AcDbLine
 10
-44.87099838256821
 20
-22.90599822997991
 30
0.0
 11
-44.89599609375026
 21
-21.6329956054689
 31
0.0
  0
LINE
  5
B941
330
1F
100
AcDbEntity
  8
AM_0
100
AcDbLine
 10
-44.61400413513226
 20
-21.85799789428692
 30
0.0
 11
-44.61200523376525
 21
-21.89899826049791
 31
0.0
  0
LINE
  5
B942
330
1F
100
AcDbEntity
  8
AM_0
100
AcDbLine
 10
-44.60899543762224
 20
-21.8680000305179
 30
0.0
 11
-44.61199760437026
 21
-21.89900207519489
 31
0.0
  0
LINE
  5
B943
330
1F
100
AcDbEntity
  8
AM_0
100
AcDbLine
 10
-48.7650032043462
 20
-23.26399993896495
 30
0.0
 11
-49.85600280761726
 21
-19.68999862670893
 31
0.0
  0
LINE
  5
B944
330
1F
100
AcDbEntity
  8
AM_0
100
AcDbLine
 10
-48.57400321960426
 20
-18.93299865722695
 30
0.0
 11
-48.32600212097226
 21
-20.66099929809592
 31
0.0
  0
LINE
  5
B945
330
1F
100
AcDbEntity
  8
AM_0
100
AcDbLine
 10
-49.10000038147025
 20
-18.77399826049792
 30
0.0
 11
-49.08999824523928
 21
-18.98599624633793
 31
0.0
  0
LINE
  5
B946
330
1F
100
AcDbEntity
  8
AM_0
100
AcDbLine
 10
-48.00000381469721
 20
-22.55999755859394
 30
0.0
 11
-49.09000396728526
 21
-18.98600006103492
 31
0.0
  0
LINE
  5
B947
330
1F
100
AcDbEntity
  8
AM_0
100
AcDbLine
 10
-48.04900169372525
 20
-21.45999908447293
 30
0.0
 11
-47.99999809265123
 21
-22.55999755859394
 31
0.0
  0
LINE
  5
B948
330
1F
100
AcDbEntity
  8
AM_0
100
AcDbLine
 10
-57.27400398254427
 20
-12.20299911498994
 30
0.0
 11
-57.28100395202627
 21
-11.99499893188493
 31
0.0
  0
LINE
  5
B949
330
1F
100
AcDbEntity
  8
AM_0
100
AcDbLine
 10
-65.88899946212736
 20
-21.46899795532197
 30
0.0
 11
-63.53047084808316
 21
-21.46899795532196
 31
0.0
  0
LINE
  5
B94A
330
1F
100
AcDbEntity
  8
AM_0
100
AcDbLine
 10
-63.26999759674046
 20
-18.94800186157196
 30
0.0
 11
-64.08599662780736
 21
-21.06000137329095
 31
0.0
  0
LINE
  5
B94B
330
1F
100
AcDbEntity
  8
AM_0
100
AcDbLine
 10
-60.56400585174524
 20
-22.31900024414094
 30
0.0
 11
-59.53800392150927
 21
-19.66799545288095
 31
0.0
  0
LINE
  5
B94C
330
1F
100
AcDbEntity
  8
AM_0
100
AcDbLine
 10
-60.56300830841125
 20
-22.31899642944293
 30
0.0
 11
-55.92299938201922
 21
-22.74599838256795
 31
0.0
  0
LINE
  5
B94D
330
1F
100
AcDbEntity
  8
AM_0
100
AcDbLine
 10
-64.08599424362154
 20
-21.06000137329095
 30
0.0
 11
-64.08800029754606
 21
-21.06500244140596
 31
0.0
  0
LINE
  5
B94E
330
1F
100
AcDbEntity
  8
AM_0
100
AcDbLine
 10
-64.08699846267667
 20
-21.06200027465797
 30
0.0
 11
-64.60100603103608
 21
-19.05899810790998
 31
0.0
  0
LINE
  5
B94F
330
1F
100
AcDbEntity
  8
AM_0
100
AcDbLine
 10
-64.08599424362154
 20
-21.06000137329095
 30
0.0
 11
-64.60100126266445
 21
-19.05900192260696
 31
0.0
  0
ELLIPSE
  5
B951
330
1F
100
AcDbEntity
  8
AM_0
100
AcDbEllipse
 10
-60.33400344848627
 20
0.0000000000000488
 30
0.0
 11
-12.20556330736605
 21
-23.68727082623502
 31
0.0
210
0.0
220
0.0
230
1.0
 40
0.1428305374347
 41
5.867296918797039
 42
6.360102014741237
  0
SPLINE
  5
B952
330
1F
100
AcDbEntity
  8
AM_0
100
AcDbSpline
210
0.0
220
0.0
230
1.0
 70
     8
 71
     3
 72
    11
 73
     7
 74
     5
 42
0.0000000001
 43
0.0000000001
 44
0.0000000001
 40
0.0
 40
0.0
 40
0.0
 40
0.0
 40
0.0174675437659654
 40
0.0351851745091915
 40
0.0526533730666791
 40
0.0723721981920652
 40
0.0723721981920652
 40
0.0723721981920652
 40
0.0723721981920652
 10
-72.86500501632659
 20
-20.94300079345697
 30
0.0
 10
-72.86371264916319
 20
-20.937324478262
 30
0.0
 10
-72.86110941170844
 20
-20.92589057871776
 30
0.0
 10
-72.85643455211481
 20
-20.90894311931922
 30
0.0
 10
-72.84903616001014
 20
-20.89211761448168
 30
0.0
 10
-72.84248033664589
 20
-20.88158466309932
 30
0.0
 10
-72.83900403976409
 20
-20.87599945068398
 30
0.0
 11
-72.86500501632659
 21
-20.94300079345697
 31
0.0
 11
-72.86099958419765
 21
-20.92599868774396
 31
0.0
 11
-72.85600233077976
 21
-20.90900039672896
 31
0.0
 11
-72.84899854660007
 21
-20.89299774169899
 31
0.0
 11
-72.83900403976409
 21
-20.87599945068398
 31
0.0
  0
SPLINE
  5
B953
330
1F
100
AcDbEntity
  8
AM_0
100
AcDbSpline
210
0.0
220
0.0
230
1.0
 70
     8
 71
     3
 72
    11
 73
     7
 74
     5
 42
0.0000000001
 43
0.0000000001
 44
0.0000000001
 40
0.0
 40
0.0
 40
0.0
 40
0.0
 40
0.1882809617326403
 40
0.4349028677444418
 40
0.7180989267648196
 40
1.016298318983396
 40
1.016298318983396
 40
1.016298318983396
 40
1.016298318983396
 10
-72.83900403976409
 20
-20.87599945068398
 30
0.0
 10
-72.79520088743467
 20
-20.82993521732896
 30
0.0
 10
-72.69402169019135
 20
-20.72353323700024
 30
0.0
 10
-72.46008675504945
 20
-20.64645999324214
 30
0.0
 10
-72.19032984236996
 20
-20.59086396783634
 30
0.0
 10
-71.99578554424299
 20
-20.59029300239715
 30
0.0
 10
-71.89600321650473
 20
-20.59000015258799
 30
0.0
 11
-72.83900403976409
 21
-20.87599945068398
 31
0.0
 11
-72.70000404119469
 21
-20.749000549316
 31
0.0
 11
-72.47199958562816
 21
-20.65499877929697
 31
0.0
 11
-72.19399973750086
 21
-20.60099792480497
 31
0.0
 11
-71.89600321650473
 21
-20.59000015258799
 31
0.0
  0
LINE
  5
B954
330
1F
100
AcDbEntity
  8
AM_0
100
AcDbLine
 10
-161.9690017700192
 20
-21.00000000000013
 30
0.0
 11
-77.96900129318207
 21
-20.99999999999997
 31
0.0
  0
LINE
  5
B955
330
1F
100
AcDbEntity
  8
AM_0
100
AcDbLine
 10
-77.96900129318213
 20
21.00000000000001
 30
0.0
 11
-161.9690017700192
 21
20.99999999999986
 31
0.0
  0
LINE
  5
B956
330
1F
100
AcDbEntity
  8
AM_0
100
AcDbLine
 10
-74.96900129318214
 20
22.75
 30
0.0
 11
-74.96900129318205
 21
-22.74999999999998
 31
0.0
  0
LINE
  5
B957
330
1F
100
AcDbEntity
  8
AM_0
100
AcDbLine
 10
-73.96900129318215
 20
23.75000000000003
 30
0.0
 11
-73.96900129318201
 21
-23.75
 31
0.0
  0
LINE
  5
B958
330
1F
100
AcDbEntity
  8
AM_0
100
AcDbLine
 10
-77.96900129318213
 20
21.00000000000001
 30
0.0
 11
-77.96900129318207
 21
-20.99999999999997
 31
0.0
  0
LINE
  5
B959
330
1F
100
AcDbEntity
  8
AM_0
100
AcDbLine
 10
-73.96900510787943
 20
23.75000000000003
 30
0.0
 11
-74.96900629997234
 21
22.749998092651
 31
0.0
  0
LINE
  5
B95A
330
1F
100
AcDbEntity
  8
AM_0
100
AcDbLine
 10
-72.26100108027432
 20
23.75000000000003
 30
0.0
 11
-73.96900129318215
 21
23.75000000000003
 31
0.0
  0
LINE
  5
B95B
330
1F
100
AcDbEntity
  8
AM_0
100
AcDbLine
 10
-74.96900129318213
 20
20.5
 30
0.0
 11
-77.96900129318213
 21
20.50000000000001
 31
0.0
  0
LINE
  5
B95C
330
1F
100
AcDbEntity
  8
AM_0
100
AcDbLine
 10
-74.96900773048363
 20
-22.74999618530296
 30
0.0
 11
-73.96900653839082
 21
-23.74999618530298
 31
0.0
  0
LINE
  5
B95D
330
1F
100
AcDbEntity
  8
AM_0
100
AcDbLine
 10
-77.96900129318207
 20
-20.49999999999998
 30
0.0
 11
-74.96900129318207
 21
-20.49999999999997
 31
0.0
  0
LINE
  5
B95E
330
1F
100
AcDbEntity
  8
AM_0
100
AcDbLine
 10
-72.86500370502448
 20
-20.942993164063
 30
0.0
 11
-72.79800236225097
 21
-20.83299255371099
 31
0.0
  0
LINE
  5
B95F
330
1F
100
AcDbEntity
  8
AM_0
100
AcDbLine
 10
-73.96900129318201
 20
-23.75
 30
0.0
 11
-72.26100108027421
 21
-23.74999999999999
 31
0.0
  0
LINE
  5
B960
330
1F
100
AcDbEntity
  8
AM_0
100
AcDbLine
 10
-161.9690017700192
 20
20.99999999999986
 30
0.0
 11
-161.9690017700192
 21
-21.00000000000013
 31
0.0
  0
LINE
  5
B961
330
1F
100
AcDbEntity
  8
AM_0
100
AcDbLine
 10
-164.9690017700192
 20
18.66099929809585
 30
0.0
 11
-164.9690017700191
 21
-18.6609992980961
 31
0.0
  0
ARC
  5
B963
330
1F
100
AcDbEntity
  8
AM_0
100
AcDbCircle
 10
-162.9690017700192
 20
18.66099929809588
 30
0.0
 40
2.000236988067599
100
AcDbArc
 50
105.0089147248957
 51
180.0
  0
LINE
  5
B964
330
1F
100
AcDbEntity
  8
AM_0
100
AcDbLine
 10
-161.9690093994132
 20
21.00000381469687
 30
0.0
 11
-163.4870147705074
 21
20.59300231933586
 31
0.0
  0
ARC
  5
B965
330
1F
100
AcDbEntity
  8
AM_0
100
AcDbCircle
 10
-162.9690017700192
 20
-18.66099929809612
 30
0.0
 40
2.0
100
AcDbArc
 50
180.0
 51
254.9910852751044
  0
LINE
  5
B966
330
1F
100
AcDbEntity
  8
AM_0
100
AcDbLine
 10
-163.4870147705073
 20
-20.59300231933614
 30
0.0
 11
-161.9690093994132
 21
-21.00000381469712
 31
0.0
  0
DIMENSION
  5
BAEB
330
1F
100
AcDbEntity
  8
AM_5
100
AcDbDimension
  2
*D2
 10
-61.00000000000028
 20
38.96091165254316
 30
0.0
 11
-30.50000000000028
 21
41.56091165254311
 31
0.0
 70
    32
  1
<>
 71
     5
 42
-1.0
 51
359.9999999999998
  3
AM_JIS$0
100
AcDbAlignedDimension
 13
-0.0000000000003126
 23
24.94800186157209
 33
0.0
 14
-61.00000000000031
 24
24.96091165254316
 34
0.0
 50
180.0
100
AcDbRotatedDimension
1001
GENIUS_GENDTOL_13
1000

1000
h7
1000

1040
0.0
1001
ACAD
1000
DSTYLE
1002
{
1070
   287
1070
     3
1070
   147
1040
1.0
1070
    44
1040
1.0
1070
    41
1040
2.5
1070
    40
1040
1.0
1070
    42
1040
2.0
1070
    43
1040
12.0
1070
    48
1040
0.1
1070
    78
1070
     8
1070
   140
1040
3.2
1070
   176
1070
   256
1070
   177
1070
   256
1070
   271
1070
     0
1070
   272
1070
     3
1070
   275
1070
     0
1070
   284
1070
     0
1070
   289
1070
     3
1070
   340
1005
6B
1070
   371
1070
    -1
1070
   372
1070
    -1
1002
}
  0
DIMENSION
  5
BB77
330
1F
100
AcDbEntity
  8
AM_5
100
AcDbDimension
  2
*D3
 10
13.99999999999978
 20
-24.94800090789781
 30
0.0
 11
11.39999999999979
 21
0.0000004768371435
 31
0.0
 70
    32
  1
%%c<>
 71
     5
 42
-1.0
 51
359.9999999999998
  3
AM_JIS$0
100
AcDbAlignedDimension
 13
-0.0000000000003126
 23
24.94800186157209
 33
0.0
 14
-0.0000000000002274
 24
-24.9480009078978
 34
0.0
 50
90.0
100
AcDbRotatedDimension
1001
GENIUS_GENDTOL_13
1000

1000
h7
1000

1040
0.0
1001
ACAD
1000
DSTYLE
1002
{
1070
   287
1070
     3
1070
   147
1040
1.0
1070
    44
1040
1.0
1070
    41
1040
2.5
1070
    40
1040
1.0
1070
    42
1040
2.0
1070
    43
1040
12.0
1070
    48
1040
0.1
1070
    78
1070
     8
1070
   140
1040
3.2
1070
   176
1070
   256
1070
   177
1070
   256
1070
   271
1070
     0
1070
   272
1070
     3
1070
   275
1070
     0
1070
   284
1070
     0
1070
   289
1070
     3
1070
   340
1005
6B
1070
   371
1070
    -1
1070
   372
1070
    -1
1002
}
  0
DIMENSION
  5
BC33
330
1F
100
AcDbEntity
  8
AM_5
100
AcDbDimension
  2
*D4
 10
-178.9692387580868
 20
-21.00000000000012
 30
0.0
 11
-181.5692387580868
 21
0.0000019073483457
 31
0.0
 70
    32
  1
%%c<>
 71
     5
 42
-1.0
 51
359.9999999999998
  3
AM_JIS$0
100
AcDbAlignedDimension
 13
-161.9690093994133
 23
21.00000381469687
 33
0.0
 14
-161.9690017700192
 24
-21.00000000000012
 34
0.0
 50
270.0
100
AcDbRotatedDimension
1001
GENIUS_GENDTOL_13
1000

1000
h7
1000

1040
0.0
1001
ACAD
1000
DSTYLE
1002
{
1070
   287
1070
     3
1070
   147
1040
1.0
1070
    44
1040
1.0
1070
    41
1040
2.5
1070
    40
1040
1.0
1070
    42
1040
2.0
1070
    43
1040
12.0
1070
    48
1040
0.1
1070
    78
1070
     8
1070
   140
1040
3.2
1070
   176
1070
   256
1070
   177
1070
   256
1070
   271
1070
     0
1070
   272
1070
     3
1070
   275
1070
     0
1070
   284
1070
     0
1070
   289
1070
     3
1070
   340
1005
6B
1070
   371
1070
    -1
1070
   372
1070
    -1
1002
}
  0
DIMENSION
  5
BCCC
330
1F
100
AcDbEntity
  8
AM_5
100
AcDbDimension
  2
*D5
 10
-74.96900129318206
 20
-38.99999999999984
 30
0.0
 11
-37.48450064659114
 21
-36.39999999999985
 31
0.0
 70
    32
  1
<>
 71
     5
 42
-1.0
 51
359.9999999999998
  3
AM_JIS$0
100
AcDbAlignedDimension
 13
-0.0000000000002274
 23
-24.9480009078978
 33
0.0
 14
-74.96900129318206
 24
-22.74999999999995
 34
0.0
100
AcDbRotatedDimension
1001
GENIUS_GENDTOL_13
1000

1000
h7
1000

1040
0.0
1001
ACAD
1000
DSTYLE
1002
{
1070
   287
1070
     3
1070
   147
1040
1.0
1070
    44
1040
1.0
1070
    41
1040
2.5
1070
    40
1040
1.0
1070
    42
1040
2.0
1070
    43
1040
12.0
1070
    48
1040
0.1
1070
    78
1070
     8
1070
   140
1040
3.2
1070
   176
1070
   256
1070
   177
1070
   256
1070
   271
1070
     0
1070
   272
1070
     3
1070
   275
1070
     0
1070
   284
1070
     0
1070
   289
1070
     3
1070
   340
1005
6B
1070
   371
1070
    -1
1070
   372
1070
    -1
1002
}
  0
DIMENSION
  5
BD58
330
1F
100
AcDbEntity
  8
AM_5
100
AcDbDimension
  2
*D6
 10
-164.9692387580868
 20
-38.99999999999984
 30
0.0
 11
-119.9691225290295
 21
-36.39999999999983
 31
0.0
 70
    32
  1
<>
 71
     5
 42
-1.0
 51
359.9999999999998
  3
AM_JIS$0
100
AcDbAlignedDimension
 13
-74.96900629997225
 23
-22.74999809265095
 33
0.0
 14
-164.9692387580868
 24
-18.66099929809614
 34
0.0
100
AcDbRotatedDimension
1001
GENIUS_GENDTOL_13
1000

1000
h7
1000

1040
0.0
1001
ACAD
1000
DSTYLE
1002
{
1070
   287
1070
     3
1070
   147
1040
1.0
1070
    44
1040
1.0
1070
    41
1040
2.5
1070
    40
1040
1.0
1070
    42
1040
2.0
1070
    43
1040
12.0
1070
    48
1040
0.1
1070
    78
1070
     8
1070
   140
1040
3.2
1070
   176
1070
   256
1070
   177
1070
   256
1070
   271
1070
     0
1070
   272
1070
     3
1070
   275
1070
     0
1070
   284
1070
     0
1070
   289
1070
     3
1070
   340
1005
6B
1070
   371
1070
    -1
1070
   372
1070
    -1
1002
}
  0
DIMENSION
  5
BDF0
330
1F
100
AcDbEntity
  8
AM_5
100
AcDbDimension
  2
*D7
 10
-0.0000000000002217
 20
-48.99999999999985
 30
0.0
 11
-82.4846193790435
 21
-46.39999999999985
 31
0.0
 70
    32
  1
<>
 71
     5
 42
-1.0
 51
359.9999999999998
  3
AM_JIS$0
100
AcDbAlignedDimension
 13
-164.9692387580868
 23
-18.66099929809614
 33
0.0
 14
-0.0000000000002203
 24
-24.99999999999984
 34
0.0
100
AcDbRotatedDimension
1001
GENIUS_GENDTOL_13
1000

1000
h7
1000

1040
0.0
1001
ACAD
1000
DSTYLE
1002
{
1070
   287
1070
     3
1070
   147
1040
1.0
1070
    44
1040
1.0
1070
    41
1040
2.5
1070
    40
1040
1.0
1070
    42
1040
2.0
1070
    43
1040
12.0
1070
    48
1040
0.1
1070
    78
1070
     8
1070
   140
1040
3.2
1070
   176
1070
   256
1070
   177
1070
   256
1070
   271
1070
     0
1070
   272
1070
     3
1070
   275
1070
     0
1070
   284
1070
     0
1070
   289
1070
     3
1070
   340
1005
6B
1070
   371
1070
    -1
1070
   372
1070
    -1
1002
}
  0
LINE
  5
C0BC
330
1F
100
AcDbEntity
  8
AM_11
100
AcDbLine
 10
-61.00000000000034
 20
25.00000000000007
 30
0.0
 11
-0.0000000000003089
 21
25.00000000000016
 31
0.0
  0
LINE
  5
C0C0
330
1F
100
AcDbEntity
  8
AM_11
100
AcDbLine
 10
-61.00000000000019
 20
-24.99999999999993
 30
0.0
 11
-0.000000000000224
 21
-24.99999999999983
 31
0.0
  0
LINE
  5
C0C6
330
1F
100
AcDbEntity
  8
AM_11
100
AcDbLine
 10
-61.00000000000019
 20
-24.99999999999993
 30
0.0
 11
-61.00000000000036
 21
25.00000000000007
 31
0.0
  0
LINE
  5
C0CB
330
1F
100
AcDbEntity
  8
AM_11
100
AcDbLine
 10
-0.0000000000003107
 20
25.00000000000016
 30
0.0
 11
-0.0000000000002293
 21
-24.99999999999983
 31
0.0
  0
LINE
  5
C0D9
330
1F
100
AcDbEntity
  8
AM_0
100
AcDbLine
 10
-61.05200099945127
 20
-12.04199981689493
 30
0.0
 11
-57.27968294822007
 21
-12.20016830050311
 31
0.0
  0
LINE
  5
C0DA
330
1F
100
AcDbEntity
  8
AM_0
100
AcDbLine
 10
-37.05200195312526
 20
-16.63699722289988
 30
0.0
 11
-33.27400207519525
 21
-16.76999664306588
 31
0.0
  0
LINE
  5
C0F2
330
1F
100
AcDbEntity
  8
AM_0
100
AcDbLine
 10
-41.29502083622161
 20
18.45477214170174
 30
0.0
 11
-30.94700569425728
 21
18.15050283052223
 31
0.0
  0
VIEWPORT
  5
110
102
{ACAD_XDICTIONARY
360
C3E2
102
}
330
101
100
AcDbEntity
 67
     1
  8
0
100
AcDbViewport
 10
420.5
 20
297.0
 30
0.0
 40
948.9782706766916
 41
628.452
 68
     1
 69
     1
 12
420.5
 22
297.0
 13
0.0
 23
0.0
 14
10.0
 24
10.0
 15
10.0
 25
10.0
 16
0.0
 26
0.0
 36
1.0
 17
0.0
 27
0.0
 37
0.0
 42
50.0
 43
0.0
 44
0.0
 45
628.452
 50
0.0
 51
0.0
 72
   100
 90
    32800
  1

281
     0
 71
     1
 74
     0
110
-0.0000000000002682
120
0.000000000000161
130
0.0
111
1.0
121
0.000000000000002
131
0.0
112
-0.000000000000002
122
1.0
132
0.0
 79
     0
146
0.0
1001
GENIUS_GENSCREG_15
1000
PF
1040
1.0
1000
DF
1040
1.0
1000
MIN
1011
-53.98913533834582
1021
-17.226
1031
0.0
1000
MAX
1011
894.9891353383458
1021
611.226
1031
0.0
1000
FLAGS
1070
     4
1001
GENIUS_GENOBJ-N-SDF_13
1002
{
1000
OWNER
1000
GEN
1002
}
1001
GENIUS_GENODEF_13
1002
{
1000
HIER
1070
     0
1002
}
1002
{
1000
MANEDIT
1070
     0
1002
}
1002
{
1000
NOSEL
1070
     0
1002
}
1002
{
1000
BEHIND
1070
     0
1002
}
1002
{
1000
OTHER
1070
     0
1002
}
1002
{
1000
REACTOR
1002
}
  0
ENDSEC
  0
SECTION
  2
OBJECTS
  0
DICTIONARY
  5
C
330
0
100
AcDbDictionary
281
     1
  3
ACAD_COLOR
350
C318
  3
ACAD_GROUP
350
D
  3
ACAD_LAYOUT
350
1A
  3
ACAD_MATERIAL
350
C317
  3
ACAD_MLINESTYLE
350
17
  3
ACAD_PLOTSETTINGS
350
19
  3
ACAD_PLOTSTYLENAME
350
E
  3
ACAD_TABLESTYLE
350
C319
  3
ACDBHEADERROUNDTRIPXREC
350
C3E1
  3
ACDBVARIABLEDICTIONARY
350
34
  3
ACMDICTIONARY
350
43
  3
AMG
350
2B
  3
AMGSNAPSETTINGS
350
6E
  3
DWGPROPS
350
C3E0
  0
DICTIONARY
  5
74
330
1F
100
AcDbDictionary
280
     1
281
     1
  3
ACAD_INDEX
360
C2A7
  3
ACAD_LAYOUTSELFREF
360
C2D4
  0
DICTIONARY
  5
C2D9
330
101
100
AcDbDictionary
280
     1
281
     1
  3
ACAD_LAYOUTSELFREF
360
C2DA
  0
DICTIONARY
  5
C3E2
330
110
100
AcDbDictionary
280
     1
281
     1
  3
ACAD_XREC_ROUNDTRIP
360
C3E3
  0
DICTIONARY
  5
C318
102
{ACAD_REACTORS
330
C
102
}
330
C
100
AcDbDictionary
281
     1
  0
DICTIONARY
  5
D
102
{ACAD_REACTORS
330
C
102
}
330
C
100
AcDbDictionary
281
     1
  0
DICTIONARY
  5
1A
102
{ACAD_REACTORS
330
C
102
}
330
C
100
AcDbDictionary
281
     1
  3
Model
350
C31B
  3
レイアウト1
350
C31C
  0
DICTIONARY
  5
C317
102
{ACAD_REACTORS
330
C
102
}
330
C
100
AcDbDictionary
281
     1
  0
DICTIONARY
  5
17
102
{ACAD_REACTORS
330
C
102
}
330
C
100
AcDbDictionary
281
     1
  3
STANDARD
350
18
  0
DICTIONARY
  5
19
102
{ACAD_REACTORS
330
C
102
}
330
C
100
AcDbDictionary
281
     1
  3
ASAMI
350
399D
  0
ACDBDICTIONARYWDFLT
  5
E
102
{ACAD_REACTORS
330
C
102
}
330
C
100
AcDbDictionary
281
     1
  3
Normal
350
F
100
AcDbDictionaryWithDefault
340
F
  0
DICTIONARY
  5
C319
102
{ACAD_REACTORS
330
C
102
}
330
C
100
AcDbDictionary
281
     1
  3
Standard
350
C31A
  0
DICTIONARY
  5
C3E1
102
{ACAD_REACTORS
330
C
102
}
330
C
100
AcDbDictionary
281
     1
  0
DICTIONARY
  5
34
102
{ACAD_REACTORS
330
C
102
}
330
C
100
AcDbDictionary
281
     1
  3
CTABLESTYLE
350
C3DC
  3
DIMASSOC
350
C3DD
  3
INDEXCTL
350
35
  3
PROJECTNAME
350
C3DE
  3
SORTENTS
350
B5E
  0
DICTIONARY
  5
43
102
{ACAD_REACTORS
330
C
102
}
330
C
100
AcDbDictionary
281
     1
  3
ACMSTDDICTIONARY
350
260
  0
DICTIONARY
  5
2B
102
{ACAD_REACTORS
330
C
102
}
330
C
100
AcDbDictionary
281
     1
  0
DICTIONARY
  5
6E
102
{ACAD_REACTORS
330
C
102
}
330
C
100
AcDbDictionary
281
     1
  0
XRECORD
  5
C3E0
102
{ACAD_REACTORS
330
C
102
}
330
C
100
AcDbXrecord
280
     1
  1
DWGPROPS COOKIE
  2

  3

  4

  6

  7

  8

  9

300
AmdtFileType=82
301
=
302
=
303
=
304
=
305
=
306
=
307
=
308
=
309
=
 40
0.8475758333333333
 41
2452802.716478762
 42
2453691.776448739
  1

 90
        1
  0
DICTIONARY
  5
C2A7
102
{ACAD_REACTORS
330
74
102
}
330
74
100
AcDbDictionary
281
     1
  3
*A1
350
C2A8
  0
XRECORD
  5
C2D4
102
{ACAD_REACTORS
330
74
102
}
330
74
100
AcDbXrecord
280
     1
340
1F
  0
XRECORD
  5
C2DA
102
{ACAD_REACTORS
330
C2D9
102
}
330
C2D9
100
AcDbXrecord
280
     1
340
101
  0
XRECORD
  5
C3E3
102
{ACAD_REACTORS
330
C3E2
102
}
330
C3E2
100
AcDbXrecord
280
     1
102
SHADEPLOT
 70
     0
  0
LAYOUT
  5
C31B
102
{ACAD_XDICTIONARY
360
C3E6
102
}
102
{ACAD_REACTORS
330
1A
102
}
330
1A
100
AcDbPlotSettings
  1

  2
Canon LBP-1710 LIPS4
  4

  6

 40
0.0
 41
0.0
 42
0.0
 43
0.0
 44
0.0
 45
0.0
 46
0.0
 47
0.0
 48
0.0
 49
0.0
140
0.0
141
0.0
142
1.0
143
1.0
 70
  1712
 72
     0
 73
     0
 74
     0
  7
sei_cad.ctb
 75
     0
147
1.0
148
0.0
149
0.0
100
AcDbLayout
  1
Model
 70
     1
 71
     0
 10
0.0
 20
0.0
 11
12.0
 21
9.0
 12
0.0
 22
0.0
 32
0.0
 14
0.0
 24
0.0
 34
0.0
 15
0.0
 25
0.0
 35
0.0
146
0.0
 13
0.0
 23
0.0
 33
0.0
 16
1.0
 26
0.0
 36
0.0
 17
0.0
 27
1.0
 37
0.0
 76
     0
330
1F
  0
LAYOUT
  5
C31C
102
{ACAD_XDICTIONARY
360
C3E8
102
}
102
{ACAD_REACTORS
330
1A
102
}
330
1A
100
AcDbPlotSettings
  1

  2
Canon LBP-1710 LIPS4
  4

  6

 40
0.0
 41
0.0
 42
0.0
 43
0.0
 44
0.0
 45
0.0
 46
0.0
 47
0.0
 48
0.0
 49
0.0
140
0.0
141
0.0
142
1.0
143
1.0
 70
   688
 72
     0
 73
     0
 74
     5
  7
sei_cad.ctb
 75
    16
147
1.0
148
0.0
149
0.0
100
AcDbLayout
  1
レイアウト1
 70
     0
 71
     1
 10
0.0
 20
0.0
 11
841.0
 21
594.0
 12
0.0
 22
0.0
 32
0.0
 14
1.000000000000000E+20
 24
1.000000000000000E+20
 34
1.000000000000000E+20
 15
-1.000000000000000E+20
 25
-1.000000000000000E+20
 35
-1.000000000000000E+20
146
0.0
 13
0.0
 23
0.0
 33
0.0
 16
1.0
 26
0.0
 36
0.0
 17
0.0
 27
1.0
 37
0.0
 76
     0
330
101
331
110
  0
MLINESTYLE
  5
18
102
{ACAD_REACTORS
330
17
102
}
330
17
100
AcDbMlineStyle
  2
STANDARD
 70
     0
  3

 62
   256
 51
90.0
 52
90.0
 71
     2
 49
0.5
 62
   256
  6
BYLAYER
 49
-0.5
 62
   256
  6
BYLAYER
  0
PLOTSETTINGS
  5
399D
102
{ACAD_XDICTIONARY
360
C3E4
102
}
102
{ACAD_REACTORS
330
19
102
}
330
19
100
AcDbPlotSettings
  1
asami
  2
RICOH imagio MF1540
  4
A4
  6

 40
5.831416606903076
 41
7.651742935180664
 42
4.90008544921875
 43
5.789077758789062
 44
296.9683227539062
 45
209.9733276367186
 46
0.0
 47
0.0
 48
-156.6707931774246
 49
-74.57609991074048
140
58.59973180214831
141
60.61068161925597
142
1.0
143
1.095343097833084
 70
  1712
 72
     1
 73
     1
 74
     4
  7
asami.ctb
 75
     0
147
0.9129559514076438
148
156.6707931774246
149
74.57609991074048
  0
ACDBPLACEHOLDER
  5
F
102
{ACAD_REACTORS
330
E
102
}
330
E
  0
TABLESTYLE
  5
C31A
102
{ACAD_REACTORS
330
C319
102
}
330
C319
100
AcDbTableStyle
  3
Standard
 70
     0
 71
     0
 40
1.5
 41
1.5
280
     0
281
     0
  7
STANDARD
140
4.5
170
     2
 62
     0
 63
     7
283
     0
274
    -2
284
     1
 64
     0
275
    -2
285
     1
 65
     0
276
    -2
286
     1
 66
     0
277
    -2
287
     1
 67
     0
278
    -2
288
     1
 68
     0
279
    -2
289
     1
 69
     0
  7
STANDARD
140
6.0
170
     5
 62
     0
 63
     7
283
     0
274
    -2
284
     1
 64
     0
275
    -2
285
     1
 65
     0
276
    -2
286
     1
 66
     0
277
    -2
287
     1
 67
     0
278
    -2
288
     1
 68
     0
279
    -2
289
     1
 69
     0
  7
STANDARD
140
4.5
170
     5
 62
     0
 63
     7
283
     0
274
    -2
284
     1
 64
     0
275
    -2
285
     1
 65
     0
276
    -2
286
     1
 66
     0
277
    -2
287
     1
 67
     0
278
    -2
288
     1
 68
     0
279
    -2
289
     1
 69
     0
  0
DICTIONARYVAR
  5
C3DC
102
{ACAD_REACTORS
330
34
102
}
330
34
100
DictionaryVariables
280
     0
  1
STANDARD
  0
DICTIONARYVAR
  5
C3DD
102
{ACAD_REACTORS
330
34
102
}
330
34
100
DictionaryVariables
280
     0
  1
1
  0
DICTIONARYVAR
  5
35
102
{ACAD_REACTORS
330
34
102
}
330
34
100
DictionaryVariables
280
     0
  1
1
  0
DICTIONARYVAR
  5
C3DE
102
{ACAD_REACTORS
330
34
102
}
330
34
100
DictionaryVariables
280
     0
  1

  0
DICTIONARYVAR
  5
B5E
102
{ACAD_REACTORS
330
34
102
}
330
34
100
DictionaryVariables
280
     0
  1
96
  0
DICTIONARY
  5
260
102
{ACAD_REACTORS
330
43
102
}
330
43
100
AcDbDictionary
281
     1
  0
LAYER_INDEX
  5
C2A8
102
{ACAD_REACTORS
330
C2A7
102
}
330
C2A7
100
AcDbIndex
 40
2453691.776448739
100
AcDbLayerIndex
  8
0
360
C2A9
 90
        0
  8
AM_0
360
C2AA
 90
      565
  8
AM_5
360
C2AB
 90
        6
  8
AM_7
360
C2AC
 90
        1
  8
AM_6
360
C2AD
 90
        1
  8
DEFPOINTS
360
C2AE
 90
        0
  8
AM_11
360
C2AF
 90
        4
  0
DICTIONARY
  5
C3E6
330
C31B
100
AcDbDictionary
280
     1
281
     1
  3
ACAD_XREC_ROUNDTRIP
360
C3E7
  0
DICTIONARY
  5
C3E8
330
C31C
100
AcDbDictionary
280
     1
281
     1
  3
ACAD_XREC_ROUNDTRIP
360
C3E9
  0
DICTIONARY
  5
C3E4
330
399D
100
AcDbDictionary
280
     1
281
     1
  3
ACAD_XREC_ROUNDTRIP
360
C3E5
  0
IDBUFFER
  5
C2A9
330
0
100
AcDbIdBuffer
  0
IDBUFFER
  5
C2AA
330
0
100
AcDbIdBuffer
330
B581
330
B582
330
B583
330
B584
330
B585
330
B587
330
B5C4
330
B5C5
330
B5C6
330
B5C7
330
B5C8
330
B5C9
330
B5CA
330
B5CB
330
B5CC
330
B5CD
330
B5CE
330
B5CF
330
B5D0
330
B5D1
330
B5D2
330
B5D3
330
B5D4
330
B5D5
330
B5D6
330
B5D7
330
B5D8
330
B5D9
330
B5DA
330
B5DB
330
B5DC
330
B5DD
330
B5DE
330
B5DF
330
B5E0
330
B5E1
330
B5E2
330
B5E3
330
B5E4
330
B5E5
330
B5E6
330
B5E7
330
B5E8
330
B5E9
330
B5EA
330
B5EB
330
B5EC
330
B5ED
330
B5EE
330
B5EF
330
B5F0
330
B5F1
330
B5F2
330
B5F3
330
B5F4
330
B5F5
330
B5F6
330
B5F7
330
B5F8
330
B5F9
330
B5FA
330
B5FB
330
B5FC
330
B5FD
330
B5FE
330
B5FF
330
B600
330
B601
330
B602
330
B603
330
B604
330
B605
330
B606
330
B607
330
B608
330
B609
330
B60A
330
B60B
330
B60C
330
B60D
330
B60E
330
B60F
330
B610
330
B611
330
B612
330
B613
330
B614
330
B615
330
B616
330
B617
330
B618
330
B619
330
B61A
330
B61B
330
B61C
330
B61D
330
B61E
330
B61F
330
B620
330
B621
330
B622
330
B623
330
B624
330
B625
330
B626
330
B627
330
B628
330
B629
330
B62A
330
B62B
330
B62C
330
B62D
330
B62E
330
B62F
330
B630
330
B631
330
B632
330
B633
330
B634
330
B635
330
B636
330
B637
330
B638
330
B639
330
B63A
330
B63B
330
B63C
330
B63D
330
B63E
330
B63F
330
B640
330
B641
330
B642
330
B644
330
B645
330
B646
330
B647
330
B648
330
B649
330
B64A
330
B64B
330
B64C
330
B64D
330
B64E
330
B64F
330
B650
330
B651
330
B652
330
B653
330
B654
330
B655
330
B656
330
B657
330
B658
330
B659
330
B65A
330
B65B
330
B65C
330
B65D
330
B65E
330
B65F
330
B660
330
B661
330
B662
330
B663
330
B666
330
B667
330
B668
330
B669
330
B66A
330
B66C
330
B66D
330
B66E
330
B66F
330
B670
330
B671
330
B672
330
B673
330
B674
330
B675
330
B676
330
B677
330
B678
330
B679
330
B67A
330
B67B
330
B67C
330
B67D
330
B67E
330
B67F
330
B680
330
B681
330
B682
330
B683
330
B684
330
B685
330
B686
330
B687
330
B688
330
B689
330
B68A
330
B68B
330
B68C
330
B68D
330
B68E
330
B68F
330
B690
330
B691
330
B692
330
B693
330
B694
330
B695
330
B696
330
B697
330
B698
330
B699
330
B69A
330
B7CB
330
B7CC
330
B7CD
330
B7CE
330
B7CF
330
B7D0
330
B7D1
330
B7D2
330
B7D3
330
B7D4
330
B7D5
330
B7D8
330
B808
330
B809
330
B80A
330
B80B
330
B80C
330
B80D
330
B80E
330
B80F
330
B810
330
B811
330
B812
330
B813
330
B814
330
B815
330
B816
330
B817
330
B818
330
B819
330
B81A
330
B81B
330
B81C
330
B81D
330
B81E
330
B81F
330
B820
330
B821
330
B822
330
B823
330
B824
330
B825
330
B826
330
B827
330
B828
330
B829
330
B83A
330
B83B
330
B83C
330
B83D
330
B83E
330
B83F
330
B840
330
B841
330
B842
330
B843
330
B844
330
B845
330
B846
330
B847
330
B848
330
B849
330
B84A
330
B84B
330
B84C
330
B84D
330
B84E
330
B84F
330
B850
330
B851
330
B852
330
B853
330
B854
330
B855
330
B856
330
B857
330
B858
330
B859
330
B85A
330
B85B
330
B85C
330
B85D
330
B85E
330
B85F
330
B860
330
B861
330
B862
330
B863
330
B864
330
B865
330
B866
330
B867
330
B868
330
B869
330
B86A
330
B86B
330
B86C
330
B86D
330
B86E
330
B86F
330
B870
330
B871
330
B872
330
B873
330
B874
330
B875
330
B876
330
B877
330
B878
330
B879
330
B87A
330
B87B
330
B87C
330
B87D
330
B87E
330
B87F
330
B880
330
B881
330
B882
330
B883
330
B884
330
B885
330
B886
330
B887
330
B888
330
B889
330
B88A
330
B88B
330
B88C
330
B88D
330
B88E
330
B88F
330
B890
330
B891
330
B892
330
B893
330
B894
330
B895
330
B896
330
B897
330
B898
330
B899
330
B89A
330
B89B
330
B89C
330
B89D
330
B89E
330
B89F
330
B8A0
330
B8A1
330
B8A2
330
B8A3
330
B8A4
330
B8A5
330
B8A6
330
B8A7
330
B8A8
330
B8A9
330
B8AA
330
B8AB
330
B8AC
330
B8AD
330
B8AE
330
B8AF
330
B8B0
330
B8B1
330
B8B2
330
B8B3
330
B8B4
330
B8B5
330
B8B6
330
B8B7
330
B8B8
330
B8B9
330
B8BA
330
B8BB
330
B8BC
330
B8BD
330
B8BE
330
B8BF
330
B8C0
330
B8C1
330
B8C2
330
B8C3
330
B8C4
330
B8C5
330
B8C6
330
B8C7
330
B8C8
330
B8C9
330
B8CA
330
B8CB
330
B8CC
330
B8CD
330
B8CE
330
B8CF
330
B8D0
330
B8D1
330
B8D2
330
B8D3
330
B8D4
330
B8D5
330
B8D6
330
B8D7
330
B8D8
330
B8D9
330
B8DA
330
B8DB
330
B8DC
330
B8DD
330
B8DE
330
B8DF
330
B8E0
330
B8E1
330
B8E2
330
B8E3
330
B8E4
330
B8E5
330
B8E6
330
B8E7
330
B8E8
330
B8E9
330
B8EA
330
B8EB
330
B8EC
330
B8ED
330
B8EE
330
B8EF
330
B8F0
330
B8F1
330
B8F2
330
B8F3
330
B8F4
330
B8F5
330
B8F6
330
B8F7
330
B8F8
330
B8F9
330
B8FA
330
B8FB
330
B8FC
330
B8FD
330
B8FE
330
B8FF
330
B900
330
B901
330
B902
330
B903
330
B904
330
B905
330
B906
330
B907
330
B908
330
B909
330
B90A
330
B90B
330
B90C
330
B90D
330
B90E
330
B90F
330
B910
330
B911
330
B912
330
B913
330
B914
330
B915
330
B916
330
B917
330
B918
330
B919
330
B91A
330
B91B
330
B91C
330
B91D
330
B91E
330
B91F
330
B920
330
B921
330
B922
330
B923
330
B924
330
B925
330
B926
330
B927
330
B928
330
B929
330
B92A
330
B92B
330
B92C
330
B92D
330
B92E
330
B92F
330
B930
330
B931
330
B932
330
B933
330
B934
330
B935
330
B936
330
B937
330
B938
330
B939
330
B93A
330
B93B
330
B93C
330
B93D
330
B93E
330
B93F
330
B940
330
B941
330
B942
330
B943
330
B944
330
B945
330
B946
330
B947
330
B948
330
B949
330
B94A
330
B94B
330
B94C
330
B94D
330
B94E
330
B94F
330
B951
330
B952
330
B953
330
B954
330
B955
330
B956
330
B957
330
B958
330
B959
330
B95A
330
B95B
330
B95C
330
B95D
330
B95E
330
B95F
330
B960
330
B961
330
B963
330
B964
330
B965
330
B966
330
C0D9
330
C0DA
330
C0F2
  0
IDBUFFER
  5
C2AB
330
0
100
AcDbIdBuffer
330
BAEB
330
BB77
330
BC33
330
BCCC
330
BD58
330
BDF0
  0
IDBUFFER
  5
C2AC
330
0
100
AcDbIdBuffer
330
B586
  0
IDBUFFER
  5
C2AD
330
0
100
AcDbIdBuffer
330
388D
  0
IDBUFFER
  5
C2AE
330
0
100
AcDbIdBuffer
  0
IDBUFFER
  5
C2AF
330
0
100
AcDbIdBuffer
330
C0BC
330
C0C0
330
C0C6
330
C0CB
  0
XRECORD
  5
C3E7
102
{ACAD_REACTORS
330
C3E6
102
}
330
C3E6
100
AcDbXrecord
280
     1
102
SHADEPLOT
 70
     0
102
SHADEPLOTRESLEVEL
 70
     2
102
SHADEPLOTCUSTOMDPI
 70
   300
  0
XRECORD
  5
C3E9
102
{ACAD_REACTORS
330
C3E8
102
}
330
C3E8
100
AcDbXrecord
280
     1
102
SHADEPLOT
 70
     0
102
SHADEPLOTRESLEVEL
 70
     2
102
SHADEPLOTCUSTOMDPI
 70
   300
  0
XRECORD
  5
C3E5
102
{ACAD_REACTORS
330
C3E4
102
}
330
C3E4
100
AcDbXrecord
280
     1
102
SHADEPLOT
 70
     0
102
SHADEPLOTRESLEVEL
 70
     2
102
SHADEPLOTCUSTOMDPI
 70
   300
  0
ENDSEC
  0
EOF
