  0
SECTION
  2
HEADER
  9
$ACADVER
  1
AC1015
  9
$ACADMAINTVER
 70
    20
  9
$DWGCODEPAGE
  3
ANSI_932
  9
$INSBASE
 10
0.0
 20
0.0
 30
0.0
  9
$EXTMIN
 10
-123.0240963311683
 20
-229.2721820000001
 30
0.0
  9
$EXTMAX
 10
270.3050226478627
 20
162.984792
 30
0.0
  9
$LIMMIN
 10
-198.640443376257
 20
-283.2061768224485
  9
$LIMMAX
 10
78.16938074048085
 20
205.2792012808024
  9
$ORTHOMODE
 70
     0
  9
$REGENMODE
 70
     1
  9
$FILLMODE
 70
     1
  9
$QTEXTMODE
 70
     0
  9
$MIRRTEXT
 70
     0
  9
$LTSCALE
 40
1.0
  9
$ATTMODE
 70
     1
  9
$TEXTSIZE
 40
2.5
  9
$TRACEWID
 40
1.0
  9
$TEXTSTYLE
  7
STANDARD
  9
$CLAYER
  8
AM_0
  9
$CELTYPE
  6
BYLAYER
  9
$CECOLOR
 62
   256
  9
$CELTSCALE
 40
1.0
  9
$DISPSILH
 70
     0
  9
$DIMSCALE
 40
1.0
  9
$DIMASZ
 40
2.5
  9
$DIMEXO
 40
1.0
  9
$DIMDLI
 40
12.0
  9
$DIMRND
 40
0.0
  9
$DIMDLE
 40
0.0
  9
$DIMEXE
 40
1.0
  9
$DIMTP
 40
0.1
  9
$DIMTM
 40
0.1
  9
$DIMTXT
 40
3.2
  9
$DIMCEN
 40
0.0
  9
$DIMTSZ
 40
0.0
  9
$DIMTOL
 70
     0
  9
$DIMLIM
 70
     0
  9
$DIMTIH
 70
     0
  9
$DIMTOH
 70
     0
  9
$DIMSE1
 70
     0
  9
$DIMSE2
 70
     0
  9
$DIMTAD
 70
     3
  9
$DIMZIN
 70
     8
  9
$DIMBLK
  1
OPEN30
  9
$DIMASO
 70
     1
  9
$DIMSHO
 70
     1
  9
$DIMPOST
  1

  9
$DIMAPOST
  1
"
  9
$DIMALT
 70
     0
  9
$DIMALTD
 70
     2
  9
$DIMALTF
 40
0.0393701
  9
$DIMLFAC
 40
1.0
  9
$DIMTOFL
 70
     1
  9
$DIMTVP
 40
0.0
  9
$DIMTIX
 70
     0
  9
$DIMSOXD
 70
     0
  9
$DIMSAH
 70
     0
  9
$DIMBLK1
  1

  9
$DIMBLK2
  1

  9
$DIMSTYLE
  2
AM_JIS
  9
$DIMCLRD
 70
   256
  9
$DIMCLRE
 70
   256
  9
$DIMCLRT
 70
     2
  9
$DIMTFAC
 40
0.71
  9
$DIMGAP
 40
1.5
  9
$DIMJUST
 70
     0
  9
$DIMSD1
 70
     0
  9
$DIMSD2
 70
     0
  9
$DIMTOLJ
 70
     0
  9
$DIMTZIN
 70
     0
  9
$DIMALTZ
 70
     0
  9
$DIMALTTZ
 70
     0
  9
$DIMUPT
 70
     0
  9
$DIMDEC
 70
     3
  9
$DIMTDEC
 70
     3
  9
$DIMALTU
 70
     2
  9
$DIMALTTD
 70
     2
  9
$DIMTXSTY
  7
ASAMI
  9
$DIMAUNIT
 70
     0
  9
$DIMADEC
 70
     0
  9
$DIMALTRND
 40
0.0
  9
$DIMAZIN
 70
     2
  9
$DIMDSEP
 70
    46
  9
$DIMATFIT
 70
     3
  9
$DIMFRAC
 70
     0
  9
$DIMLDRBLK
  1
OPEN30
  9
$DIMLUNIT
 70
     2
  9
$DIMLWD
 70
    -1
  9
$DIMLWE
 70
    -1
  9
$DIMTMOVE
 70
     0
  9
$LUNITS
 70
     2
  9
$LUPREC
 70
     2
  9
$SKETCHINC
 40
1.0
  9
$FILLETRAD
 40
0.8
  9
$AUNITS
 70
     0
  9
$AUPREC
 70
     0
  9
$MENU
  1
.
  9
$ELEVATION
 40
0.0
  9
$PELEVATION
 40
0.0
  9
$THICKNESS
 40
0.0
  9
$LIMCHECK
 70
     0
  9
$CHAMFERA
 40
1.5
  9
$CHAMFERB
 40
1.5
  9
$CHAMFERC
 40
20.0
  9
$CHAMFERD
 40
0.0
  9
$SKPOLY
 70
     0
  9
$TDCREATE
 40
2452836.771637361
  9
$TDUCREATE
 40
2452836.396637361
  9
$TDUPDATE
 40
2455594.632657697
  9
$TDUUPDATE
 40
2455594.257657697
  9
$TDINDWG
 40
0.3079781134
  9
$TDUSRTIMER
 40
0.3079779398
  9
$USRTIMER
 70
     1
  9
$ANGBASE
 50
0.0
  9
$ANGDIR
 70
     0
  9
$PDMODE
 70
     0
  9
$PDSIZE
 40
0.0
  9
$PLINEWID
 40
0.0
  9
$SPLFRAME
 70
     0
  9
$SPLINETYPE
 70
     6
  9
$SPLINESEGS
 70
     8
  9
$HANDSEED
  5
13FB1
  9
$SURFTAB1
 70
     6
  9
$SURFTAB2
 70
     6
  9
$SURFTYPE
 70
     6
  9
$SURFU
 70
     6
  9
$SURFV
 70
     6
  9
$UCSBASE
  2

  9
$UCSNAME
  2

  9
$UCSORG
 10
0.0
 20
0.0
 30
0.0
  9
$UCSXDIR
 10
1.0
 20
0.0
 30
0.0
  9
$UCSYDIR
 10
0.0
 20
1.0
 30
0.0
  9
$UCSORTHOREF
  2

  9
$UCSORTHOVIEW
 70
     0
  9
$UCSORGTOP
 10
0.0
 20
0.0
 30
0.0
  9
$UCSORGBOTTOM
 10
0.0
 20
0.0
 30
0.0
  9
$UCSORGLEFT
 10
0.0
 20
0.0
 30
0.0
  9
$UCSORGRIGHT
 10
0.0
 20
0.0
 30
0.0
  9
$UCSORGFRONT
 10
0.0
 20
0.0
 30
0.0
  9
$UCSORGBACK
 10
0.0
 20
0.0
 30
0.0
  9
$PUCSBASE
  2

  9
$PUCSNAME
  2

  9
$PUCSORG
 10
0.0
 20
0.0
 30
0.0
  9
$PUCSXDIR
 10
1.0
 20
0.0
 30
0.0
  9
$PUCSYDIR
 10
0.0
 20
1.0
 30
0.0
  9
$PUCSORTHOREF
  2

  9
$PUCSORTHOVIEW
 70
     0
  9
$PUCSORGTOP
 10
0.0
 20
0.0
 30
0.0
  9
$PUCSORGBOTTOM
 10
0.0
 20
0.0
 30
0.0
  9
$PUCSORGLEFT
 10
0.0
 20
0.0
 30
0.0
  9
$PUCSORGRIGHT
 10
0.0
 20
0.0
 30
0.0
  9
$PUCSORGFRONT
 10
0.0
 20
0.0
 30
0.0
  9
$PUCSORGBACK
 10
0.0
 20
0.0
 30
0.0
  9
$USERI1
 70
     0
  9
$USERI2
 70
     0
  9
$USERI3
 70
     0
  9
$USERI4
 70
     0
  9
$USERI5
 70
     0
  9
$USERR1
 40
0.0
  9
$USERR2
 40
0.0
  9
$USERR3
 40
0.0
  9
$USERR4
 40
0.0
  9
$USERR5
 40
0.0
  9
$WORLDVIEW
 70
     1
  9
$SHADEDGE
 70
     3
  9
$SHADEDIF
 70
    70
  9
$TILEMODE
 70
     1
  9
$MAXACTVP
 70
    64
  9
$PINSBASE
 10
0.0
 20
0.0
 30
0.0
  9
$PLIMCHECK
 70
     0
  9
$PEXTMIN
 10
1.000000000000000E+20
 20
1.000000000000000E+20
 30
1.000000000000000E+20
  9
$PEXTMAX
 10
-1.000000000000000E+20
 20
-1.000000000000000E+20
 30
-1.000000000000000E+20
  9
$PLIMMIN
 10
0.0
 20
0.0
  9
$PLIMMAX
 10
841.0
 20
594.0
  9
$UNITMODE
 70
     0
  9
$VISRETAIN
 70
     1
  9
$PLINEGEN
 70
     0
  9
$PSLTSCALE
 70
     0
  9
$TREEDEPTH
 70
  3020
  9
$CMLSTYLE
  2
STANDARD
  9
$CMLJUST
 70
     0
  9
$CMLSCALE
 40
20.0
  9
$PROXYGRAPHICS
 70
     1
  9
$MEASUREMENT
 70
     1
  9
$CELWEIGHT
370
    -1
  9
$ENDCAPS
280
     0
  9
$JOINSTYLE
280
     0
  9
$LWDISPLAY
290
     0
  9
$INSUNITS
 70
     4
  9
$HYPERLINKBASE
  1

  9
$STYLESHEET
  1
ASAMI.ctb
  9
$XEDIT
290
     1
  9
$CEPSNTYPE
380
     0
  9
$PSTYLEMODE
290
     1
  9
$FINGERPRINTGUID
  2
{AFB28963-8C59-40AE-9337-C84526B81ACE}
  9
$VERSIONGUID
  2
{19214C05-BE7B-475F-95A4-7F61D28BEA94}
  9
$EXTNAMES
290
     1
  9
$PSVPSCALE
 40
0.0
  9
$OLESTARTUP
290
     0
  0
ENDSEC
  0
SECTION
  2
CLASSES
  0
CLASS
  1
ACDBDICTIONARYWDFLT
  2
AcDbDictionaryWithDefault
  3
ObjectDBX Classes
 90
        0
280
     0
281
     0
  0
CLASS
  1
ACDBPLACEHOLDER
  2
AcDbPlaceHolder
  3
ObjectDBX Classes
 90
        0
280
     0
281
     0
  0
CLASS
  1
LAYOUT
  2
AcDbLayout
  3
ObjectDBX Classes
 90
        0
280
     0
281
     0
  0
CLASS
  1
AMGSETTINGSOBJ
  2
AmgSettingsObj
  3
"AcadM|Product Description: AutoCAD Mechanical 2000|Company: Autodesk"
 90
        0
280
     0
281
     0
  0
CLASS
  1
ACME_DOCUMENT
  2
AcMeDbDoc
  3
AcMeServices
 90
        0
280
     0
281
     0
  0
CLASS
  1
ACMESCOPE
  2
AcMeScope
  3
AcMeServices
 90
        0
280
     0
281
     0
  0
CLASS
  1
ACMECOMMANDHISTORY
  2
AcMeCommandHistory
  3
AcMeServices
 90
        0
280
     0
281
     0
  0
CLASS
  1
DICTIONARYVAR
  2
AcDbDictionaryVar
  3
ObjectDBX Classes
 90
        0
280
     0
281
     0
  0
CLASS
  1
ACIMSYSVARMAN
  2
AcImSysVarManager
  3
AcMeServices
 90
        0
280
     0
281
     0
  0
CLASS
  1
ACIMREALSYSVAR
  2
AcImRealSysVar
  3
AcMeServices
 90
        0
280
     0
281
     0
  0
CLASS
  1
ACIMINTSYSVAR
  2
AcImIntSysVar
  3
AcMeServices
 90
        0
280
     0
281
     0
  0
CLASS
  1
ACMEDRAWINGMAN
  2
AcMeDrawingMan
  3
AcMeServices
 90
        0
280
     0
281
     0
  0
CLASS
  1
ACMEVIEW
  2
AcMeView
  3
AcMeServices
 90
        0
280
     0
281
     0
  0
CLASS
  1
ACDBENTITYCACHE
  2
AcMeEntityCache
  3
AcMeServices
 90
        0
280
     0
281
     0
  0
CLASS
  1
GSMANAGER
  2
AcMeGSManager
  3
AcMeServices
 90
        0
280
     0
281
     0
  0
CLASS
  1
AMDTINTERNALREACTOR
  2
AmdtInternalReactor
  3
AcMeServices
 90
        0
280
     0
281
     0
  0
CLASS
  1
ACMESTATEMGR
  2
AcMeStateMgr
  3
AcMeServices
 90
        0
280
     0
281
     0
  0
CLASS
  1
ACME_DATABASE
  2
AcMeDbDatabase
  3
AcMeServices
 90
        0
280
     0
281
     0
  0
CLASS
  1
ACRFINSADJUSTERMGR
  2
AcRfInsAdjusterMgr
  3
AcMeServices
 90
        0
280
     0
281
     0
  0
CLASS
  1
ACMDATADICTIONARY
  2
AcmDataDictionary
  3
"AcmSymBB|Product Description: AutoCAD Mechanical 2004 DX|Company: Autodesk"
 90
        0
280
     0
281
     0
  0
CLASS
  1
ACMDATAENTRYBLOCK
  2
AcmDataEntryBlock
  3
"AcmSymBB|Product Description: AutoCAD Mechanical 2004 DX|Company: Autodesk"
 90
    32768
280
     0
281
     0
  0
CLASS
  1
AMGOBJPROPCFG
  2
AmgObjPropCfg
  3
"AmgLay|Product Description: AutoCAD Mechanical 2000|Company: Autodesk"
 90
        1
280
     0
281
     0
  0
CLASS
  1
ACAMGFILTERDAT
  2
AcAmgFilterDat
  3
"AcadM|Product Description: AutoCAD Mechanical 2000|Company: Autodesk"
 90
    32768
280
     0
281
     0
  0
CLASS
  1
LAYER_INDEX
  2
AcDbLayerIndex
  3
ObjectDBX Classes
 90
        0
280
     0
281
     0
  0
CLASS
  1
IDBUFFER
  2
AcDbIdBuffer
  3
ObjectDBX Classes
 90
        0
280
     0
281
     0
  0
CLASS
  1
ACIMSTRSYSVAR
  2
AcImStrSysVar
  3
AcMeServices
 90
        0
280
     0
281
     0
  0
CLASS
  1
ACMSTANDARDJIS
  2
AcmStandardJIS
  3
"Amdt_StdImp|Product Description: AutoCAD Mechanical 2004 DX|Company: Autodesk"
 90
    32768
280
     0
281
     0
  0
CLASS
  1
ACMSURFSTANDARDJIS
  2
AcmSurfTextStdJIS
  3
"Amdt_StdImp|Product Description: AutoCAD Mechanical 2004 DX|Company: Autodesk"
 90
    32768
280
     0
281
     0
  0
CLASS
  1
ACMFCFSTANDARDJIS
  2
AcmFCFStdJIS
  3
"Amdt_StdImp|Product Description: AutoCAD Mechanical 2004 DX|Company: Autodesk"
 90
    32768
280
     0
281
     0
  0
CLASS
  1
ACMWELDSTANDARDJIS
  2
AcmWeldingStdJIS
  3
"Amdt_StdImp|Product Description: AutoCAD Mechanical 2004 DX|Company: Autodesk"
 90
    32768
280
     0
281
     0
  0
CLASS
  1
ACMIDSTANDARDJIS
  2
AcmIdStdJIS
  3
"Amdt_StdImp|Product Description: AutoCAD Mechanical 2004 DX|Company: Autodesk"
 90
    32768
280
     0
281
     0
  0
CLASS
  1
ACMDATUMSTANDARDJIS
  2
AcmDatumStdJIS
  3
"Amdt_StdImp|Product Description: AutoCAD Mechanical 2004 DX|Company: Autodesk"
 90
    32768
280
     0
281
     0
  0
CLASS
  1
ACMBOMSTANDARDJIS
  2
AcmBOMStdJIS
  3
"Amdt_StdImp|Product Description: AutoCAD Mechanical 2004 DX|Company: Autodesk"
 90
    32768
280
     0
281
     0
  0
CLASS
  1
ACMSTANDARDANSI
  2
AcmStandardANSI
  3
"Amdt_StdImp|Product Description: AutoCAD Mechanical 2004 DX|Company: Autodesk"
 90
    32768
280
     0
281
     0
  0
CLASS
  1
ACMSURFSTANDARDANSI
  2
AcmSurfTextStdANSI
  3
"Amdt_StdImp|Product Description: AutoCAD Mechanical 2004 DX|Company: Autodesk"
 90
    32768
280
     0
281
     0
  0
CLASS
  1
ACMFCFSTANDARDANSI
  2
AcmFCFStdANSI
  3
"Amdt_StdImp|Product Description: AutoCAD Mechanical 2004 DX|Company: Autodesk"
 90
    32768
280
     0
281
     0
  0
CLASS
  1
ACMWELDSTANDARDANSI
  2
AcmWeldingStdANSI
  3
"Amdt_StdImp|Product Description: AutoCAD Mechanical 2004 DX|Company: Autodesk"
 90
    32768
280
     0
281
     0
  0
CLASS
  1
ACMIDSTANDARDANSI
  2
AcmIdStdANSI
  3
"Amdt_StdImp|Product Description: AutoCAD Mechanical 2004 DX|Company: Autodesk"
 90
    32768
280
     0
281
     0
  0
CLASS
  1
ACMDATUMSTANDARDANSI
  2
AcmDatumStdANSI
  3
"Amdt_StdImp|Product Description: AutoCAD Mechanical 2004 DX|Company: Autodesk"
 90
    32768
280
     0
281
     0
  0
CLASS
  1
ACMBOMSTANDARDANSI
  2
AcmBOMStdANSI
  3
"Amdt_StdImp|Product Description: AutoCAD Mechanical 2004 DX|Company: Autodesk"
 90
    32768
280
     0
281
     0
  0
CLASS
  1
ACMSTANDARDBSI
  2
AcmStandardBSI
  3
"Amdt_StdImp|Product Description: AutoCAD Mechanical 2004 DX|Company: Autodesk"
 90
    32768
280
     0
281
     0
  0
CLASS
  1
ACMSURFSTANDARDBSI
  2
AcmSurfTextStdBSI
  3
"Amdt_StdImp|Product Description: AutoCAD Mechanical 2004 DX|Company: Autodesk"
 90
    32768
280
     0
281
     0
  0
CLASS
  1
ACMFCFSTANDARDBSI
  2
AcmFCFStdBSI
  3
"Amdt_StdImp|Product Description: AutoCAD Mechanical 2004 DX|Company: Autodesk"
 90
    32768
280
     0
281
     0
  0
CLASS
  1
ACMWELDSTANDARDBSI
  2
AcmWeldingStdBSI
  3
"Amdt_StdImp|Product Description: AutoCAD Mechanical 2004 DX|Company: Autodesk"
 90
    32768
280
     0
281
     0
  0
CLASS
  1
ACMIDSTANDARDBSI
  2
AcmIdStdBSI
  3
"Amdt_StdImp|Product Description: AutoCAD Mechanical 2004 DX|Company: Autodesk"
 90
    32768
280
     0
281
     0
  0
CLASS
  1
ACMDATUMSTANDARDBSI
  2
AcmDatumStdBSI
  3
"Amdt_StdImp|Product Description: AutoCAD Mechanical 2004 DX|Company: Autodesk"
 90
    32768
280
     0
281
     0
  0
CLASS
  1
ACMBOMSTANDARDBSI
  2
AcmBOMStdBSI
  3
"Amdt_StdImp|Product Description: AutoCAD Mechanical 2004 DX|Company: Autodesk"
 90
    32768
280
     0
281
     0
  0
CLASS
  1
TABLESTYLE
  2
AcDbTableStyle
  3
ObjectDBX Classes
 90
     2047
280
     0
281
     0
  0
CLASS
  1
ACGREFMASTER
  2
AcGrefMaster
  3
AcAttribServices
 90
        0
280
     0
281
     0
  0
CLASS
  1
AM_DRAWING_MGR
  2
AcDmDwgMgr
  3
AcMechDwgViewMgmt
 90
        0
280
     0
281
     0
  0
CLASS
  1
AM_DWG_DOCUMENT
  2
AcDmDwgDocument
  3
AcMechDwgViewMgmt
 90
        0
280
     0
281
     0
  0
CLASS
  1
AM_DWG_SHEET
  2
AcDmSheet
  3
AcMechDwgViewMgmt
 90
        0
280
     0
281
     0
  0
CLASS
  1
AM_VIEWDIMPARMAP
  2
AcDmViewDimParMap
  3
AcMechDwgViewMgmt
 90
        0
280
     0
281
     0
  0
CLASS
  1
AM_DWGMGR_NAME
  2
AcDmDwgMgrName
  3
AcMechDwgViewMgmt
 90
        0
280
     0
281
     0
  0
CLASS
  1
ACGREFACADMASTER
  2
AcGrefacadMaster
  3
AcGrefServices
 90
        0
280
     0
281
     0
  0
CLASS
  1
AMDTMENUSTATEMGR
  2
AmdtMenuStateMgr
  3
McadcomServices
 90
        0
280
     0
281
     0
  0
CLASS
  1
AMDTMCOMMENUSTATE
  2
AmdtMcomMenuState
  3
McadcomServices
 90
        0
280
     0
281
     0
  0
CLASS
  1
AMIMASTER
  2
AmiMaster
  3
AmiServices
 90
        0
280
     0
281
     0
  0
CLASS
  1
MAPIAMMOUDLE
  2
MApiAmModule
  3
MApiAmServices
 90
        0
280
     0
281
     0
  0
CLASS
  1
AMDTADMENUSTATE
  2
AmdtAdMenuState
  3
DesignerServices
 90
        0
280
     0
281
     0
  0
CLASS
  1
ADAPPL
  2
AcAdAppl
  3
DesignerServices
 90
        0
280
     0
281
     0
  0
CLASS
  1
DEPMGR
  2
AcAdDepMgr
  3
DesignerServices
 90
        0
280
     0
281
     0
  0
CLASS
  1
PARAMMGR
  2
AcAdParamMgr
  3
DesignerServices
 90
        0
280
     0
281
     0
  0
CLASS
  1
PARAMSCOPE
  2
AcAdParamScope
  3
DesignerServices
 90
        0
280
     0
281
     0
  0
CLASS
  1
NAMEDAPPL
  2
AcAdNamedAppl
  3
DesignerServices
 90
        0
280
     0
281
     0
  0
CLASS
  1
AMDTDMMENUSTATE
  2
AmdtDmMenuState
  3
AcMechDwgViewMgmt
 90
        0
280
     0
281
     0
  0
CLASS
  1
AMDTAMMENUSTATE
  2
AmdtAmMenuState
  3
DesignerAssemblies
 90
        0
280
     0
281
     0
  0
CLASS
  1
ACAMPROJECT
  2
AcAmProject
  3
DesignerAssemblies
 90
        0
280
     0
281
     0
  0
CLASS
  1
ACAMGRCOMPDEF
  2
AcAmGrCompDef
  3
DesignerAssemblies
 90
        0
280
     0
281
     0
  0
CLASS
  1
ACCMCONTEXT
  2
AcCmContext
  3
DesignerAssemblies
 90
        0
280
     0
281
     0
  0
CLASS
  1
ACAMCOMPDEF
  2
AcAmCompDef
  3
DesignerAssemblies
 90
        0
280
     0
281
     0
  0
CLASS
  1
ACAMCOMPDEFMGR
  2
AcAmCompDefMgr
  3
DesignerAssemblies
 90
        0
280
     0
281
     0
  0
CLASS
  1
AMCONTEXTMGR
  2
AcAmContextMgr
  3
DesignerAssemblies
 90
        0
280
     0
281
     0
  0
CLASS
  1
ACAMCONTEXTMODELER
  2
AcAmContextModeler
  3
DesignerAssemblies
 90
        0
280
     0
281
     0
  0
CLASS
  1
CATALOGSTATE
  2
AcAmCatalogState
  3
DesignerAssemblies
 90
        0
280
     0
281
     0
  0
CLASS
  1
ACAMGRCOMPDEFSET
  2
AcAmGrCompDefSet
  3
DesignerAssemblies
 90
        0
280
     0
281
     0
  0
CLASS
  1
AMDTBROWSERDBTAB
  2
AmdtBrowserDbTab
  3
McadcomServices
 90
        0
280
     0
281
     0
  0
CLASS
  1
CBROWSERAPPOBJECT
  2
CBrowserAppObject
  3
McadcomServices
 90
        0
280
     0
281
     0
  0
CLASS
  1
DM_PLACEHOLDER
  2
AcDmSelsetPlaceholder
  3
AcMechDwgViewMgmt
 90
        0
280
     0
281
     0
  0
CLASS
  1
ACMSTANDARDISO
  2
AcmStandardISO
  3
"Amdt_StdImp|Product Description: AutoCAD Mechanical 2004 DX|Company: Autodesk"
 90
        0
280
     0
281
     0
  0
CLASS
  1
AMDTEDGESTANDARDISO13715
  2
AmdtEdgeStdISO13715
  3
"Amdt_StdImp|Product Description: AutoCAD Mechanical 2004 DX|Company: Autodesk"
 90
        0
280
     0
281
     0
  0
CLASS
  1
ACMSURFSTANDARDISO
  2
AcmSurfTextStdISO
  3
"Amdt_StdImp|Product Description: AutoCAD Mechanical 2004 DX|Company: Autodesk"
 90
        0
280
     0
281
     0
  0
CLASS
  1
ACMFCFSTANDARDISO
  2
AcmFCFStdISO
  3
"Amdt_StdImp|Product Description: AutoCAD Mechanical 2004 DX|Company: Autodesk"
 90
        0
280
     0
281
     0
  0
CLASS
  1
ACMWELDSTANDARDISO
  2
AcmWeldingStdISO
  3
"Amdt_StdImp|Product Description: AutoCAD Mechanical 2004 DX|Company: Autodesk"
 90
        0
280
     0
281
     0
  0
CLASS
  1
ACMIDSTANDARDISO
  2
AcmIdStdISO
  3
"Amdt_StdImp|Product Description: AutoCAD Mechanical 2004 DX|Company: Autodesk"
 90
        0
280
     0
281
     0
  0
CLASS
  1
ACMDATUMSTANDARDISO
  2
AcmDatumStdISO
  3
"Amdt_StdImp|Product Description: AutoCAD Mechanical 2004 DX|Company: Autodesk"
 90
        0
280
     0
281
     0
  0
CLASS
  1
ACMBOMSTANDARDISO
  2
AcmBOMStdISO
  3
"Amdt_StdImp|Product Description: AutoCAD Mechanical 2004 DX|Company: Autodesk"
 90
        0
280
     0
281
     0
  0
CLASS
  1
ACMDETAILSTANDARDISO
  2
AmdtDetailSymStdISO
  3
"Amdt_StdImp|Product Description: AutoCAD Mechanical 2004 DX|Company: Autodesk"
 90
        0
280
     0
281
     0
  0
CLASS
  1
ACMSECTIONSTANDARDISO
  2
AmdtSectionSymStdISO
  3
"Amdt_StdImp|Product Description: AutoCAD Mechanical 2004 DX|Company: Autodesk"
 90
        0
280
     0
281
     0
  0
CLASS
  1
ACMCENTERLINESTANDARDISO
  2
AmdtCenterLineStdISO
  3
"Amdt_StdImp|Product Description: AutoCAD Mechanical 2004 DX|Company: Autodesk"
 90
        0
280
     0
281
     0
  0
CLASS
  1
ACMTHREADLINESTANDARDISO
  2
AmdtThreadLineStdISO
  3
"Amdt_StdImp|Product Description: AutoCAD Mechanical 2004 DX|Company: Autodesk"
 90
        0
280
     0
281
     0
  0
CLASS
  1
ACMNOTESTANDARDISO
  2
AmdtNoteStdISO
  3
"Amdt_StdImp|Product Description: AutoCAD Mechanical 2004 DX|Company: Autodesk"
 90
        0
280
     0
281
     0
  0
CLASS
  1
AMDTNOTETEMPLATEDB
  2
AmdtNoteTemplateDB
  3
AMDT_STDIMP_MODULE_NAME
 90
        0
280
     0
281
     0
  0
CLASS
  1
ACAMGLAYSTD
  2
AcAmgLayStd
  3
"AcAmgLayStd|Product Description: AutoCAD Mechanical 2000|Company: Autodesk"
 90
        0
280
     0
281
     0
  0
CLASS
  1
ACAMGDIMSTD
  2
AcAmgDimStd
  3
"AcAmgDimStd|Product Description: AutoCAD Mechanical 2000|Company: Autodesk"
 90
        0
280
     0
281
     0
  0
CLASS
  1
ACAMGHOLECHARTSTDISO
  2
AcAmgHoleChartStdISO
  3
ACMSYMBB_MODULE_NAME
 90
        0
280
     0
281
     0
  0
CLASS
  1
ACAMGTITLESTD
  2
AcAmgTitleStd
  3
"TITLEAPP"
 90
        0
280
     0
281
     0
  0
CLASS
  1
ACRFATTGENMGR
  2
AcRfAttGeneralMgr
  3
AcAttribServices
 90
        0
280
     0
281
     0
  0
ENDSEC
  0
SECTION
  2
TABLES
  0
TABLE
  2
VPORT
  5
8
330
0
100
AcDbSymbolTable
 70
    70
  0
VPORT
  5
13FA8
330
8
100
AcDbSymbolTableRecord
100
AcDbViewportTableRecord
  2
*Active
 70
     0
 10
0.0
 20
0.0
 11
1.0
 21
1.0
 12
-60.2355313178881
 22
-38.96348777082307
 13
0.0
 23
0.0
 14
2.5
 24
2.5
 15
10.0
 25
10.0
 16
0.0
 26
0.0
 36
1.0
 17
0.0
 27
0.0
 37
0.0
 40
488.4853781032509
 41
2.002364066193853
 42
50.0
 43
0.0
 44
0.0
 50
0.0
 51
0.0
 71
     0
 72
   100
 73
     1
 74
     3
 75
     0
 76
     0
 77
     0
 78
     0
281
     0
 65
     0
110
0.0
120
0.0
130
0.0
111
1.0
121
0.0
131
0.0
112
0.0
122
1.0
132
0.0
 79
     0
146
0.0
  0
ENDTAB
  0
TABLE
  2
LTYPE
  5
5
330
0
100
AcDbSymbolTable
 70
    16
  0
LTYPE
  5
14
330
5
100
AcDbSymbolTableRecord
100
AcDbLinetypeTableRecord
  2
BYBLOCK
 70
     0
  3

 72
    65
 73
     0
 40
0.0
  0
LTYPE
  5
15
330
5
100
AcDbSymbolTableRecord
100
AcDbLinetypeTableRecord
  2
BYLAYER
 70
     0
  3

 72
    65
 73
     0
 40
0.0
  0
LTYPE
  5
16
330
5
100
AcDbSymbolTableRecord
100
AcDbLinetypeTableRecord
  2
CONTINUOUS
 70
     0
  3
Solid line
 72
    65
 73
     0
 40
0.0
  0
LTYPE
  5
4B
330
5
100
AcDbSymbolTableRecord
100
AcDbLinetypeTableRecord
  2
AM_ISO02W050
 70
     0
  3
__ __ __ __ __ __ __ __ __ __ __ __ __ __ __
 72
    65
 73
     2
 40
7.5
 49
6.0
 74
     0
 49
-1.5
 74
     0
  0
LTYPE
  5
4C
330
5
100
AcDbSymbolTableRecord
100
AcDbLinetypeTableRecord
  2
AM_ISO08W050
 70
     0
  3
____ . ____ . ____ . ____ . ____ . ____ . ____
 72
    65
 73
     4
 40
18.0
 49
12.0
 74
     0
 49
-1.5
 74
     0
 49
3.0
 74
     0
 49
-1.5
 74
     0
  0
LTYPE
  5
4D
330
5
100
AcDbSymbolTableRecord
100
AcDbLinetypeTableRecord
  2
AM_ISO09W050
 70
     0
  3
_____ . . _____ . . _____ . . ____ .. ____
 72
    65
 73
     6
 40
22.5
 49
12.0
 74
     0
 49
-1.5
 74
     0
 49
3.0
 74
     0
 49
-1.5
 74
     0
 49
3.0
 74
     0
 49
-1.5
 74
     0
  0
LTYPE
  5
4E
330
5
100
AcDbSymbolTableRecord
100
AcDbLinetypeTableRecord
  2
AMCONSTR
 70
     0
  3
_______________________
 72
    65
 73
     2
 40
9999.0
 49
9999.0
 74
     0
 49
0.0
 74
     0
  0
LTYPE
  5
4F
330
5
100
AcDbSymbolTableRecord
100
AcDbLinetypeTableRecord
  2
AM_ISO02W050X2
 70
     0
  3
 _ _ _ _ _ _ _ _ _ _ _ _
 72
    65
 73
     2
 40
3.75
 49
3.0
 74
     0
 49
-0.75
 74
     0
  0
LTYPE
  5
50
330
5
100
AcDbSymbolTableRecord
100
AcDbLinetypeTableRecord
  2
AM_ISO08W050X2
 70
     0
  3
__ . __ . __ . __ . __ . __
 72
    65
 73
     4
 40
9.0
 49
6.0
 74
     0
 49
-0.75
 74
     0
 49
1.5
 74
     0
 49
-0.75
 74
     0
  0
LTYPE
  5
53
330
5
100
AcDbSymbolTableRecord
100
AcDbLinetypeTableRecord
  2
AMZIGZAG
 70
     0
  3
/\/-/\/-/\/-/\/-/\/-/\/
 72
    65
 73
     2
 40
11.00009999999999
 49
0.0001
 74
     4
 75
   135
340
52
 46
0.04
 50
0.0
 44
0.0
 45
0.0
 49
-11.0
 74
     0
  0
LTYPE
  5
13D97
330
5
100
AcDbSymbolTableRecord
100
AcDbLinetypeTableRecord
  2
HIDDEN
 70
     0
  3
Hidden __ __ __ __ __ __ __ __ __ __ __ __ __ _
 72
    65
 73
     2
 40
9.524999999999998
 49
6.349999999999999
 74
     0
 49
-3.174999999999999
 74
     0
  0
LTYPE
  5
13D98
330
5
100
AcDbSymbolTableRecord
100
AcDbLinetypeTableRecord
  2
PHANTOM2
 70
     0
  3
Phantom (.5x) ___ _ _ ___ _ _ ___ _ _ ___ _ _
 72
    65
 73
     6
 40
31.75
 49
15.875
 74
     0
 49
-3.174999999999999
 74
     0
 49
3.174999999999999
 74
     0
 49
-3.174999999999999
 74
     0
 49
3.174999999999999
 74
     0
 49
-3.174999999999999
 74
     0
  0
LTYPE
  5
13D99
330
5
100
AcDbSymbolTableRecord
100
AcDbLinetypeTableRecord
  2
CENTER
 70
     0
  3
Center ____ _ ____ _ ____ _ ____ _ ____ _ ____
 72
    65
 73
     4
 40
50.8
 49
31.75
 74
     0
 49
-6.349999999999999
 74
     0
 49
6.349999999999999
 74
     0
 49
-6.349999999999999
 74
     0
  0
LTYPE
  5
13DD9
330
5
100
AcDbSymbolTableRecord
100
AcDbLinetypeTableRecord
  2
ACISOWELD
 70
     0
  3
_ _ _ _ _
 72
    65
 73
     2
 40
2.0
 49
2.0
 74
     0
 49
-1.0
 74
     0
  0
LTYPE
  5
13DDA
330
5
100
AcDbSymbolTableRecord
100
AcDbLinetypeTableRecord
  2
ACISOTGB
 70
     0
  3
__ . . __ . .
 72
    65
 73
     6
 40
9.0
 49
4.0
 74
     0
 49
-1.0
 74
     0
 49
1.0
 74
     0
 49
-1.0
 74
     0
 49
1.0
 74
     0
 49
-1.0
 74
     0
  0
LTYPE
  5
13DDB
330
5
100
AcDbSymbolTableRecord
100
AcDbLinetypeTableRecord
  2
ACISOTGL
 70
     0
  3
_ _ _ _ _
 72
    65
 73
     2
 40
3.0
 49
2.0
 74
     0
 49
-1.0
 74
     0
  0
ENDTAB
  0
TABLE
  2
LAYER
  5
2
330
0
100
AcDbSymbolTable
 70
    11
  0
LAYER
  5
10
330
2
100
AcDbSymbolTableRecord
100
AcDbLayerTableRecord
  2
0
 70
     0
 62
     7
  6
CONTINUOUS
370
    -3
390
F
  0
LAYER
  5
3F9
330
2
100
AcDbSymbolTableRecord
100
AcDbLayerTableRecord
  2
AM_0
 70
     0
 62
     7
  6
CONTINUOUS
370
    -3
390
F
  0
LAYER
  5
BD5
330
2
100
AcDbSymbolTableRecord
100
AcDbLayerTableRecord
  2
AM_7
 70
     0
 62
     4
  6
AM_ISO08W050
370
    -3
390
F
  0
LAYER
  5
BD6
330
2
100
AcDbSymbolTableRecord
100
AcDbLayerTableRecord
  2
AM_5
 70
     0
 62
     3
  6
CONTINUOUS
370
    -3
390
F
  0
LAYER
  5
BD7
330
2
100
AcDbSymbolTableRecord
100
AcDbLayerTableRecord
  2
DEFPOINTS
 70
     0
 62
     7
  6
CONTINUOUS
290
     0
370
    -3
390
F
  0
LAYER
  5
E59
330
2
100
AcDbSymbolTableRecord
100
AcDbLayerTableRecord
  2
AM_6
 70
     0
 62
     2
  6
CONTINUOUS
370
    -3
390
F
  0
LAYER
  5
1E31
330
2
100
AcDbSymbolTableRecord
100
AcDbLayerTableRecord
  2
AM_11
 70
     0
 62
     3
  6
AM_ISO09W050
370
    -3
390
F
  0
LAYER
  5
13D0F
330
2
100
AcDbSymbolTableRecord
100
AcDbLayerTableRecord
  2
AM_4
 70
     0
 62
     3
  6
CONTINUOUS
370
    -3
390
F
  0
ENDTAB
  0
TABLE
  2
STYLE
  5
3
330
0
100
AcDbSymbolTable
 70
     7
  0
STYLE
  5
11
330
3
100
AcDbSymbolTableRecord
100
AcDbTextStyleTableRecord
  2
STANDARD
 70
     0
 40
0.0
 41
1.0
 50
0.0
 71
     0
 42
2.5
  3
simplex.shx
  4
EXTFONT.SHX
  0
STYLE
  5
52
330
3
100
AcDbSymbolTableRecord
100
AcDbTextStyleTableRecord
  2

 70
     1
 40
0.0
 41
1.0
 50
0.0
 71
     0
 42
2.5
  3
ltypeshp.shx
  4

  0
STYLE
  5
6B
330
3
100
AcDbSymbolTableRecord
100
AcDbTextStyleTableRecord
  2
ASAMI
 70
     0
 40
0.0
 41
1.0
 50
0.0
 71
     0
 42
2.5
  3
simplex.shx
  4
EXTFONT.SHX
  0
STYLE
  5
13DCB
330
3
100
AcDbSymbolTableRecord
100
AcDbTextStyleTableRecord
  2
ACISOTS
 70
     0
 40
1.0
 41
1.0
 50
0.0
 71
     0
 42
2.5
  3
isocp.shx
  4
extfont.shx
  0
STYLE
  5
13DD8
330
3
100
AcDbSymbolTableRecord
100
AcDbTextStyleTableRecord
  2
ACISOGDT
 70
     0
 40
0.0
 41
1.0
 50
0.0
 71
     0
 42
2.5
  3
amgdt.shx
  4

  0
ENDTAB
  0
TABLE
  2
VIEW
  5
6
330
0
100
AcDbSymbolTable
 70
     0
  0
ENDTAB
  0
TABLE
  2
UCS
  5
7
330
0
100
AcDbSymbolTable
 70
     0
  0
ENDTAB
  0
TABLE
  2
APPID
  5
9
330
0
100
AcDbSymbolTable
 70
    20
  0
APPID
  5
12
330
9
100
AcDbSymbolTableRecord
100
AcDbRegAppTableRecord
  2
ACAD
 70
     0
  0
APPID
  5
30
330
9
100
AcDbSymbolTableRecord
100
AcDbRegAppTableRecord
  2
MCAD_NO_VIS
 70
     0
  0
APPID
  5
31
330
9
100
AcDbSymbolTableRecord
100
AcDbRegAppTableRecord
  2
ACAD_TEMP_GRAPHIC
 70
     0
  0
APPID
  5
2C2
330
9
100
AcDbSymbolTableRecord
100
AcDbRegAppTableRecord
  2
GENIUS_GENDTOL_13
 70
     0
  0
APPID
  5
339
330
9
100
AcDbSymbolTableRecord
100
AcDbRegAppTableRecord
  2
GENIUS_GENODEF_13
 70
     0
  0
APPID
  5
33A
330
9
100
AcDbSymbolTableRecord
100
AcDbRegAppTableRecord
  2
GENIUS_GENOBJ-N-RSBK_13
 70
     0
  0
APPID
  5
33B
330
9
100
AcDbSymbolTableRecord
100
AcDbRegAppTableRecord
  2
GENIUS_GENOBJ-N-LIB_13
 70
     0
  0
APPID
  5
33C
330
9
100
AcDbSymbolTableRecord
100
AcDbRegAppTableRecord
  2
GENIUS_GENSCALE_13
 70
     0
  0
APPID
  5
378
330
9
100
AcDbSymbolTableRecord
100
AcDbRegAppTableRecord
  2
GENIUS_GENDIMSH_14
 70
     0
  0
APPID
  5
BD8
330
9
100
AcDbSymbolTableRecord
100
AcDbRegAppTableRecord
  2
GENIUS_GENOBJ-N-CEN_13
 70
     0
  0
APPID
  5
BD9
330
9
100
AcDbSymbolTableRecord
100
AcDbRegAppTableRecord
  2
GENIUS_GENFIL_13
 70
     0
  0
APPID
  5
BDA
330
9
100
AcDbSymbolTableRecord
100
AcDbRegAppTableRecord
  2
GENIUS_GENOBJ-N-CHA_13
 70
     0
  0
APPID
  5
2BC1
330
9
100
AcDbSymbolTableRecord
100
AcDbRegAppTableRecord
  2
GENIUS_GENOBJ-N-FIL_13
 70
     0
  0
APPID
  5
13D9B
330
9
100
AcDbSymbolTableRecord
100
AcDbRegAppTableRecord
  2
AD_DRAW
 70
     0
  0
APPID
  5
13D9E
330
9
100
AcDbSymbolTableRecord
100
AcDbRegAppTableRecord
  2
ACATTRIBSERVICES
 70
     0
  0
APPID
  5
13DBC
330
9
100
AcDbSymbolTableRecord
100
AcDbRegAppTableRecord
  2
DESIGNERASSEMBLIES
 70
     0
  0
APPID
  5
13DC1
330
9
100
AcDbSymbolTableRecord
100
AcDbRegAppTableRecord
  2
ACADM_DIM_EDIT
 70
     0
  0
APPID
  5
13DC2
330
9
100
AcDbSymbolTableRecord
100
AcDbRegAppTableRecord
  2
AMDT_DM_ADJ
 70
     0
  0
APPID
  5
13DEE
330
9
100
AcDbSymbolTableRecord
100
AcDbRegAppTableRecord
  2
GENIUS_GENSCREG_15
 70
     0
  0
APPID
  5
13DEF
330
9
100
AcDbSymbolTableRecord
100
AcDbRegAppTableRecord
  2
GENIUS_GENOBJ-N-SDF_13
 70
     0
  0
ENDTAB
  0
TABLE
  2
DIMSTYLE
  5
A
330
0
100
AcDbSymbolTable
 70
    17
100
AcDbDimStyleTable
 71
     1
340
58
  0
DIMSTYLE
105
58
102
{ACAD_REACTORS
330
13816
330
13815
330
13814
330
13813
330
1381A
330
13817
330
13818
330
1381C
102
}
330
A
100
AcDbSymbolTableRecord
100
AcDbDimStyleTableRecord
  2
AM_JIS
 70
     0
  4
"
 41
2.5
 42
1.0
 43
12.0
 44
1.0
 47
0.1
 48
0.1
 73
     0
 74
     0
 77
     3
 78
     8
140
3.2
141
0.0
143
0.0393701
146
0.71
147
1.5
172
     1
176
   256
177
   256
178
     2
271
     3
272
     3
283
     0
340
6B
341
59
342
59
  0
DIMSTYLE
105
B34
102
{ACAD_REACTORS
330
13EE5
102
}
330
A
100
AcDbSymbolTableRecord
100
AcDbDimStyleTableRecord
  2
AM_JIS$2
 70
     0
  4
"
 41
2.5
 42
1.0
 43
12.0
 44
1.0
 47
0.1
 48
0.1
 73
     0
 74
     0
 77
     3
 78
     8
140
3.2
141
0.0
143
0.0393701
146
0.71
147
1.5
172
     1
176
   256
177
   256
178
     2
271
     3
272
     3
283
     0
340
6B
341
59
342
59
  0
DIMSTYLE
105
1E42
102
{ACAD_REACTORS
330
13819
330
1381B
330
13F6E
102
}
330
A
100
AcDbSymbolTableRecord
100
AcDbDimStyleTableRecord
  2
AM_JIS$0
 70
     0
  4
"
 40
2.0
 41
2.5
 42
1.0
 43
10.0
 44
1.0
 47
0.1
 48
0.1
 73
     0
 74
     0
 77
     3
 78
     8
140
2.5
141
0.0
143
0.0393701
146
0.71
147
1.0
172
     1
176
   256
177
   256
178
     4
271
     3
272
     3
283
     0
340
6B
341
59
342
59
  0
DIMSTYLE
105
13DE5
330
A
100
AcDbSymbolTableRecord
100
AcDbDimStyleTableRecord
  2
AM_ISO
 70
     0
  4
"
 41
2.5
 42
1.0
 43
10.0
 44
1.0
 47
0.1
 48
0.1
 73
     0
 74
     0
 77
     1
 78
     8
 79
     2
140
3.5
141
0.0
143
0.0393701
146
0.71
147
1.5
172
     1
176
   256
177
   256
178
     2
271
     2
272
     3
274
     4
283
     0
284
     8
340
11
371
    -1
372
    -1
  0
DIMSTYLE
105
13DE6
330
A
100
AcDbSymbolTableRecord
100
AcDbDimStyleTableRecord
  2
AM_ISO$3
 70
     0
  4
"
 41
2.5
 42
1.0
 43
10.0
 44
1.0
 47
0.1
 48
0.1
 73
     0
 77
     1
 78
     8
 79
     2
140
3.5
141
0.0
143
0.0393701
146
0.71
147
1.5
176
   256
177
   256
178
     2
271
     2
272
     3
274
     4
283
     0
284
     8
288
     1
289
     0
340
11
371
    -1
372
    -1
  0
DIMSTYLE
105
13DE7
330
A
100
AcDbSymbolTableRecord
100
AcDbDimStyleTableRecord
  2
AM_ISO$4
 70
     0
  4
"
 41
2.5
 42
1.0
 43
10.0
 44
1.0
 47
0.1
 48
0.1
 73
     0
 77
     1
 78
     8
 79
     2
140
3.5
141
0.0
143
0.0393701
146
0.71
147
1.5
176
   256
177
   256
178
     2
271
     2
272
     3
274
     4
283
     0
284
     8
288
     1
289
     0
340
11
371
    -1
372
    -1
  0
DIMSTYLE
105
13DE8
330
A
100
AcDbSymbolTableRecord
100
AcDbDimStyleTableRecord
  2
AM_ISO$6
 70
     0
  4
"
 41
2.5
 42
1.0
 43
10.0
 44
1.0
 47
0.1
 48
0.1
 73
     0
 74
     0
 78
     8
 79
     2
140
3.5
141
0.0
143
0.0393701
146
0.71
147
1.5
172
     1
176
   256
177
   256
178
     2
271
     2
272
     3
274
     4
283
     0
284
     8
340
11
371
    -1
372
    -1
  0
DIMSTYLE
105
13DE9
330
A
100
AcDbSymbolTableRecord
100
AcDbDimStyleTableRecord
  2
AM_ISO$7
 70
     0
  4
"
 41
2.5
 42
1.0
 43
10.0
 44
1.0
 47
0.1
 48
0.1
 73
     0
 74
     0
 77
     1
 78
     8
 79
     2
140
5.0
141
0.0
143
0.0393701
146
0.71
147
1.5
172
     1
176
   256
177
   256
178
     2
271
     2
272
     3
274
     4
283
     0
284
     8
340
11
371
    -1
372
    -1
  0
DIMSTYLE
105
13DEA
330
A
100
AcDbSymbolTableRecord
100
AcDbDimStyleTableRecord
  2
AM_ISO$SF
 70
     0
  4
"
 41
2.5
 42
1.0
 43
10.0
 44
1.0
 47
0.1
 48
0.1
 73
     0
 74
     0
 75
     1
 76
     1
 77
     1
 78
     8
 79
     2
140
3.5
141
0.0
143
0.0393701
146
0.71
147
1.5
172
     1
176
   256
177
   256
178
     2
271
     2
272
     3
274
     4
283
     0
284
     8
340
11
371
    -1
372
    -1
  0
DIMSTYLE
105
13DEB
330
A
100
AcDbSymbolTableRecord
100
AcDbDimStyleTableRecord
  2
AM_ISO$SH
 70
     0
  4
"
 41
2.5
 42
1.0
 43
10.0
 44
1.0
 47
0.1
 48
0.1
 73
     0
 74
     0
 75
     1
 76
     1
 77
     1
 78
     8
 79
     2
140
3.5
141
0.0
143
0.0393701
144
2.0
146
0.71
147
1.5
172
     1
173
     1
176
   256
177
   256
178
     2
271
     2
272
     3
274
     4
283
     0
284
     8
340
11
343
64
371
    -1
372
    -1
  0
DIMSTYLE
105
13DF2
330
A
100
AcDbSymbolTableRecord
100
AcDbDimStyleTableRecord
  2
STANDARD
 70
     0
340
11
  0
ENDTAB
  0
TABLE
  2
BLOCK_RECORD
  5
1
330
0
100
AcDbSymbolTable
 70
    17
  0
BLOCK_RECORD
  5
1F
102
{ACAD_XDICTIONARY
360
74
102
}
330
1
100
AcDbSymbolTableRecord
100
AcDbBlockTableRecord
  2
*MODEL_SPACE
340
13D64
  0
BLOCK_RECORD
  5
101
102
{ACAD_XDICTIONARY
360
13D58
102
}
330
1
100
AcDbSymbolTableRecord
100
AcDbBlockTableRecord
  2
*PAPER_SPACE
340
13D65
  0
BLOCK_RECORD
  5
59
330
1
100
AcDbSymbolTableRecord
100
AcDbBlockTableRecord
  2
_OPEN30
340
0
102
{BLKREFS
331
13B99
331
13B9A
331
13BA2
331
13BA3
331
13B90
331
13B91
331
13BAB
331
13BAC
331
13BD8
331
13BD9
331
13BBD
331
13BBE
331
13BCF
331
13BD0
331
13BC6
331
13BC7
331
13BE1
331
13BE2
331
13B87
331
13B88
331
13CC0
331
13CC1
331
13EBB
331
13EBC
331
13F2C
331
13F2D
331
13F9E
331
13F9F
102
}
  0
BLOCK_RECORD
  5
64
330
1
100
AcDbSymbolTableRecord
100
AcDbBlockTableRecord
  2
GENAXEH
340
0
  0
BLOCK_RECORD
  5
1381D
330
1
100
AcDbSymbolTableRecord
100
AcDbBlockTableRecord
  2
*D2
340
0
  0
BLOCK_RECORD
  5
13829
330
1
100
AcDbSymbolTableRecord
100
AcDbBlockTableRecord
  2
*D3
340
0
  0
BLOCK_RECORD
  5
13835
330
1
100
AcDbSymbolTableRecord
100
AcDbBlockTableRecord
  2
*D4
340
0
  0
BLOCK_RECORD
  5
13841
330
1
100
AcDbSymbolTableRecord
100
AcDbBlockTableRecord
  2
*D5
340
0
  0
BLOCK_RECORD
  5
1384D
330
1
100
AcDbSymbolTableRecord
100
AcDbBlockTableRecord
  2
*D6
340
0
  0
BLOCK_RECORD
  5
13859
330
1
100
AcDbSymbolTableRecord
100
AcDbBlockTableRecord
  2
*D7
340
0
  0
BLOCK_RECORD
  5
13865
330
1
100
AcDbSymbolTableRecord
100
AcDbBlockTableRecord
  2
*D8
340
0
  0
BLOCK_RECORD
  5
13871
330
1
100
AcDbSymbolTableRecord
100
AcDbBlockTableRecord
  2
*D9
340
0
  0
BLOCK_RECORD
  5
1387D
330
1
100
AcDbSymbolTableRecord
100
AcDbBlockTableRecord
  2
*D10
340
0
  0
BLOCK_RECORD
  5
13889
330
1
100
AcDbSymbolTableRecord
100
AcDbBlockTableRecord
  2
*D11
340
0
  0
BLOCK_RECORD
  5
13EE6
330
1
100
AcDbSymbolTableRecord
100
AcDbBlockTableRecord
  2
*D15
340
0
  0
BLOCK_RECORD
  5
13F6F
330
1
100
AcDbSymbolTableRecord
100
AcDbBlockTableRecord
  2
*D16
340
0
  0
ENDTAB
  0
ENDSEC
  0
SECTION
  2
BLOCKS
  0
BLOCK
  5
20
330
1F
100
AcDbEntity
  8
0
100
AcDbBlockBegin
  2
*MODEL_SPACE
 70
     0
 10
0.0
 20
0.0
 30
0.0
  3
*MODEL_SPACE
  1

  0
ENDBLK
  5
21
330
1F
100
AcDbEntity
  8
0
100
AcDbBlockEnd
  0
BLOCK
  5
103
330
101
100
AcDbEntity
 67
     1
  8
0
100
AcDbBlockBegin
  2
*PAPER_SPACE
 70
     0
 10
0.0
 20
0.0
 30
0.0
  3
*PAPER_SPACE
  1

  0
ENDBLK
  5
104
330
101
100
AcDbEntity
 67
     1
  8
0
100
AcDbBlockEnd
  0
BLOCK
  5
5D
330
59
100
AcDbEntity
  8
0
100
AcDbBlockBegin
  2
_OPEN30
 70
     0
 10
0.0
 20
0.0
 30
0.0
  3
_OPEN30
  1

  0
LINE
  5
5A
330
59
100
AcDbEntity
  8
0
 62
     0
100
AcDbLine
 10
-1.0
 20
0.26794919
 30
0.0
 11
0.0
 21
0.0
 31
0.0
  0
LINE
  5
5B
330
59
100
AcDbEntity
  8
0
 62
     0
100
AcDbLine
 10
0.0
 20
0.0
 30
0.0
 11
-1.0
 21
-0.26794919
 31
0.0
  0
LINE
  5
5C
330
59
100
AcDbEntity
  8
0
 62
     0
100
AcDbLine
 10
0.0
 20
0.0
 30
0.0
 11
-1.0
 21
0.0
 31
0.0
  0
ENDBLK
  5
5E
330
59
100
AcDbEntity
  8
0
100
AcDbBlockEnd
  0
BLOCK
  5
66
330
64
100
AcDbEntity
  8
0
100
AcDbBlockBegin
  2
GENAXEH
 70
     0
 10
0.0
 20
0.0
 30
0.0
  3
GENAXEH
  1

  0
LINE
  5
65
330
64
100
AcDbEntity
  8
0
100
AcDbLine
 10
-1.0
 20
0.0
 30
0.0
 11
1.0
 21
0.0
 31
0.0
  0
ENDBLK
  5
67
330
64
100
AcDbEntity
  8
0
100
AcDbBlockEnd
  0
BLOCK
  5
13827
330
1381D
100
AcDbEntity
  8
0
100
AcDbBlockBegin
  2
*D2
 70
     1
 10
0.0
 20
0.0
 30
0.0
  3
*D2
  1

  0
LINE
  5
13B96
330
1381D
100
AcDbEntity
  8
AM_5
100
AcDbLine
 10
-69.19999999999976
 20
120.0
 30
0.0
 11
-109.3240963311682
 21
120.0
 31
0.0
  0
LINE
  5
13B97
330
1381D
100
AcDbEntity
  8
AM_5
100
AcDbLine
 10
-69.19999999999999
 20
-119.9999999999997
 30
0.0
 11
-109.3240963311683
 21
-119.9999999999997
 31
0.0
  0
LINE
  5
13B98
330
1381D
100
AcDbEntity
  8
AM_5
100
AcDbLine
 10
-108.3240963311682
 20
117.5
 30
0.0
 11
-108.3240963311683
 21
-117.4999999999997
 31
0.0
  0
INSERT
  5
13B99
330
1381D
100
AcDbEntity
  8
AM_5
100
AcDbBlockReference
  2
_OPEN30
 10
-108.3240963311682
 20
120.0
 30
0.0
 41
2.5
 42
2.5
 43
2.5
 50
90.0
  0
INSERT
  5
13B9A
330
1381D
100
AcDbEntity
  8
AM_5
100
AcDbBlockReference
  2
_OPEN30
 10
-108.3240963311683
 20
-119.9999999999997
 30
0.0
 41
2.5
 42
2.5
 43
2.5
 50
270.0
  0
MTEXT
  5
13B9B
330
1381D
100
AcDbEntity
  8
AM_5
 62
     2
100
AcDbMText
 10
-111.4240963311682
 20
0.0000000000001065
 30
0.0
 40
3.2
 41
0.0
 71
     5
 72
     1
  1
%%c240
  7
ASAMI
 11
0.0000000000000001
 21
1.0
 31
0.0
 73
     1
 44
1.0
1001
ACAD
1000
MTEXTBEGIN
1070
    73
1070
     1
1070
    44
1040
1.0
1070
    74
1070
     0
1000
MTEXTEND
  0
POINT
  5
13B9C
330
1381D
100
AcDbEntity
  8
DEFPOINTS
 62
     0
100
AcDbPoint
 10
-68.19999999999976
 20
120.0
 30
0.0
  0
POINT
  5
13B9D
330
1381D
100
AcDbEntity
  8
DEFPOINTS
 62
     0
100
AcDbPoint
 10
-68.19999999999999
 20
-119.9999999999997
 30
0.0
  0
POINT
  5
13B9E
330
1381D
100
AcDbEntity
  8
DEFPOINTS
 62
     0
100
AcDbPoint
 10
-108.3240963311683
 20
-119.9999999999997
 30
0.0
  0
ENDBLK
  5
13828
330
1381D
100
AcDbEntity
  8
0
100
AcDbBlockEnd
  0
BLOCK
  5
13833
330
13829
100
AcDbEntity
  8
0
100
AcDbBlockBegin
  2
*D3
 70
     1
 10
0.0
 20
0.0
 30
0.0
  3
*D3
  1

  0
LINE
  5
13B9F
330
13829
100
AcDbEntity
  8
AM_5
100
AcDbLine
 10
-54.46534602404165
 20
161.4
 30
0.0
 11
-119.3240963311682
 21
161.4
 31
0.0
  0
LINE
  5
13BA0
330
13829
100
AcDbEntity
  8
AM_5
100
AcDbLine
 10
-54.46534602404165
 20
-161.4
 30
0.0
 11
-119.3240963311684
 21
-161.4
 31
0.0
  0
LINE
  5
13BA1
330
13829
100
AcDbEntity
  8
AM_5
100
AcDbLine
 10
-118.3240963311683
 20
158.9
 30
0.0
 11
-118.3240963311683
 21
-158.9
 31
0.0
  0
INSERT
  5
13BA2
330
13829
100
AcDbEntity
  8
AM_5
100
AcDbBlockReference
  2
_OPEN30
 10
-118.3240963311683
 20
161.4
 30
0.0
 41
2.5
 42
2.5
 43
2.5
 50
90.0
  0
INSERT
  5
13BA3
330
13829
100
AcDbEntity
  8
AM_5
100
AcDbBlockReference
  2
_OPEN30
 10
-118.3240963311684
 20
-161.4
 30
0.0
 41
2.5
 42
2.5
 43
2.5
 50
270.0
  0
MTEXT
  5
13BA4
330
13829
100
AcDbEntity
  8
AM_5
 62
     2
100
AcDbMText
 10
-121.4240963311683
 20
-0.0000000000000066
 30
0.0
 40
3.2
 41
0.0
 71
     5
 72
     1
  1
%%c322.8
  7
ASAMI
 11
0.0000000000000001
 21
1.0
 31
0.0
 73
     1
 44
1.0
1001
ACAD
1000
MTEXTBEGIN
1070
    73
1070
     1
1070
    44
1040
1.0
1070
    74
1070
     0
1000
MTEXTEND
  0
POINT
  5
13BA5
330
13829
100
AcDbEntity
  8
DEFPOINTS
 62
     0
100
AcDbPoint
 10
-53.46534602404165
 20
161.4
 30
0.0
  0
POINT
  5
13BA6
330
13829
100
AcDbEntity
  8
DEFPOINTS
 62
     0
100
AcDbPoint
 10
-53.46534602404165
 20
-161.4
 30
0.0
  0
POINT
  5
13BA7
330
13829
100
AcDbEntity
  8
DEFPOINTS
 62
     0
100
AcDbPoint
 10
-118.3240963311684
 20
-161.4
 30
0.0
  0
ENDBLK
  5
13834
330
13829
100
AcDbEntity
  8
0
100
AcDbBlockEnd
  0
BLOCK
  5
1383F
330
13835
100
AcDbEntity
  8
0
100
AcDbBlockBegin
  2
*D4
 70
     1
 10
0.0
 20
0.0
 30
0.0
  3
*D4
  1

  0
LINE
  5
13B8D
330
13835
100
AcDbEntity
  8
AM_5
100
AcDbLine
 10
-69.20000000000005
 20
23.81250000000002
 30
0.0
 11
-99.32409633116831
 21
23.81250000000004
 31
0.0
  0
LINE
  5
13B8E
330
13835
100
AcDbEntity
  8
AM_5
100
AcDbLine
 10
-69.20000000000005
 20
-23.81250000000002
 30
0.0
 11
-99.32409633116831
 21
-23.81250000000001
 31
0.0
  0
LINE
  5
13B8F
330
13835
100
AcDbEntity
  8
AM_5
100
AcDbLine
 10
-98.32409633116832
 20
21.31250000000004
 30
0.0
 11
-98.32409633116832
 21
-21.31250000000001
 31
0.0
  0
INSERT
  5
13B90
330
13835
100
AcDbEntity
  8
AM_5
100
AcDbBlockReference
  2
_OPEN30
 10
-98.32409633116832
 20
23.81250000000004
 30
0.0
 41
2.5
 42
2.5
 43
2.5
 50
90.0
  0
INSERT
  5
13B91
330
13835
100
AcDbEntity
  8
AM_5
100
AcDbBlockReference
  2
_OPEN30
 10
-98.32409633116832
 20
-23.81250000000001
 30
0.0
 41
2.5
 42
2.5
 43
2.5
 50
270.0
  0
MTEXT
  5
13B92
330
13835
100
AcDbEntity
  8
AM_5
 62
     2
100
AcDbMText
 10
-101.4240963311683
 20
-0.0000000000000043
 30
0.0
 40
3.2
 41
0.0
 71
     5
 72
     1
  1
%%c47.625
  7
ASAMI
 11
0.0000000000000001
 21
1.0
 31
0.0
 73
     1
 44
1.0
1001
ACAD
1000
MTEXTBEGIN
1070
    73
1070
     1
1070
    44
1040
1.0
1070
    74
1070
     0
1000
MTEXTEND
  0
POINT
  5
13B93
330
13835
100
AcDbEntity
  8
DEFPOINTS
 62
     0
100
AcDbPoint
 10
-68.20000000000003
 20
23.81250000000002
 30
0.0
  0
POINT
  5
13B94
330
13835
100
AcDbEntity
  8
DEFPOINTS
 62
     0
100
AcDbPoint
 10
-68.20000000000003
 20
-23.81250000000002
 30
0.0
  0
POINT
  5
13B95
330
13835
100
AcDbEntity
  8
DEFPOINTS
 62
     0
100
AcDbPoint
 10
-98.32409633116832
 20
-23.81250000000001
 30
0.0
  0
ENDBLK
  5
13840
330
13835
100
AcDbEntity
  8
0
100
AcDbBlockEnd
  0
BLOCK
  5
1384B
330
13841
100
AcDbEntity
  8
0
100
AcDbBlockBegin
  2
*D5
 70
     1
 10
0.0
 20
0.0
 30
0.0
  3
*D5
  1

  0
LINE
  5
13BA8
330
13841
100
AcDbEntity
  8
AM_5
100
AcDbLine
 10
-69.69999999999997
 20
12.70000000000005
 30
0.0
 11
-89.32409633116831
 21
12.70000000000005
 31
0.0
  0
LINE
  5
13BA9
330
13841
100
AcDbEntity
  8
AM_5
100
AcDbLine
 10
-69.70000000000005
 20
-12.70000000000004
 30
0.0
 11
-89.32409633116831
 21
-12.70000000000004
 31
0.0
  0
LINE
  5
13BAA
330
13841
100
AcDbEntity
  8
AM_5
100
AcDbLine
 10
-88.32409633116832
 20
10.20000000000005
 30
0.0
 11
-88.32409633116832
 21
-10.20000000000004
 31
0.0
  0
INSERT
  5
13BAB
330
13841
100
AcDbEntity
  8
AM_5
100
AcDbBlockReference
  2
_OPEN30
 10
-88.32409633116832
 20
12.70000000000005
 30
0.0
 41
2.5
 42
2.5
 43
2.5
 50
90.0
  0
INSERT
  5
13BAC
330
13841
100
AcDbEntity
  8
AM_5
100
AcDbBlockReference
  2
_OPEN30
 10
-88.32409633116832
 20
-12.70000000000004
 30
0.0
 41
2.5
 42
2.5
 43
2.5
 50
270.0
  0
MTEXT
  5
13BAD
330
13841
100
AcDbEntity
  8
AM_5
 62
     2
100
AcDbMText
 10
-91.42409633116832
 20
-0.0000000000001488
 30
0.0
 40
3.2
 41
0.0
 71
     5
 72
     1
  1
25.4
  7
ASAMI
 11
0.0000000000000001
 21
1.0
 31
0.0
 73
     1
 44
1.0
1001
ACAD
1000
MTEXTBEGIN
1070
    73
1070
     1
1070
    44
1040
1.0
1070
    74
1070
     0
1000
MTEXTEND
  0
POINT
  5
13BAE
330
13841
100
AcDbEntity
  8
DEFPOINTS
 62
     0
100
AcDbPoint
 10
-68.69999999999999
 20
12.70000000000005
 30
0.0
  0
POINT
  5
13BAF
330
13841
100
AcDbEntity
  8
DEFPOINTS
 62
     0
100
AcDbPoint
 10
-68.70000000000003
 20
-12.70000000000004
 30
0.0
  0
POINT
  5
13BB0
330
13841
100
AcDbEntity
  8
DEFPOINTS
 62
     0
100
AcDbPoint
 10
-88.32409633116832
 20
-12.70000000000004
 30
0.0
  0
ENDBLK
  5
1384C
330
13841
100
AcDbEntity
  8
0
100
AcDbBlockEnd
  0
BLOCK
  5
13857
330
1384D
100
AcDbEntity
  8
0
100
AcDbBlockBegin
  2
*D6
 70
     1
 10
0.0
 20
0.0
 30
0.0
  3
*D6
  1

  0
LINE
  5
13BD5
330
1384D
100
AcDbEntity
  8
AM_5
100
AcDbLine
 10
-69.99999999999977
 20
-119.1999999999999
 30
0.0
 11
-69.99999999999977
 21
-177.772182
 31
0.0
  0
LINE
  5
13BD6
330
1384D
100
AcDbEntity
  8
AM_5
100
AcDbLine
 10
-56.50000000000017
 20
-12.70000000000009
 30
0.0
 11
-56.50000000000019
 21
-177.772182
 31
0.0
  0
LINE
  5
13BD7
330
1384D
100
AcDbEntity
  8
AM_5
100
AcDbLine
 10
-67.49999999999977
 20
-176.772182
 30
0.0
 11
-59.00000000000019
 21
-176.772182
 31
0.0
  0
INSERT
  5
13BD8
330
1384D
100
AcDbEntity
  8
AM_5
100
AcDbBlockReference
  2
_OPEN30
 10
-69.99999999999977
 20
-176.772182
 30
0.0
 41
2.5
 42
2.5
 43
2.5
 50
180.0
  0
INSERT
  5
13BD9
330
1384D
100
AcDbEntity
  8
AM_5
100
AcDbBlockReference
  2
_OPEN30
 10
-56.50000000000019
 20
-176.772182
 30
0.0
 41
2.5
 42
2.5
 43
2.5
  0
MTEXT
  5
13BDA
330
1384D
100
AcDbEntity
  8
AM_5
 62
     2
100
AcDbMText
 10
-63.24999999999997
 20
-173.672182
 30
0.0
 40
3.2
 41
0.0
 71
     5
 72
     1
  1
13.5
  7
ASAMI
 73
     1
 44
1.0
1001
ACAD
1000
MTEXTBEGIN
1070
    73
1070
     1
1070
    44
1040
1.0
1070
    74
1070
     0
1000
MTEXTEND
  0
POINT
  5
13BDB
330
1384D
100
AcDbEntity
  8
DEFPOINTS
 62
     0
100
AcDbPoint
 10
-69.99999999999977
 20
-118.1999999999999
 30
0.0
  0
POINT
  5
13BDC
330
1384D
100
AcDbEntity
  8
DEFPOINTS
 62
     0
100
AcDbPoint
 10
-56.50000000000017
 20
-11.70000000000009
 30
0.0
  0
POINT
  5
13BDD
330
1384D
100
AcDbEntity
  8
DEFPOINTS
 62
     0
100
AcDbPoint
 10
-56.50000000000019
 20
-176.772182
 30
0.0
  0
ENDBLK
  5
13858
330
1384D
100
AcDbEntity
  8
0
100
AcDbBlockEnd
  0
BLOCK
  5
13863
330
13859
100
AcDbEntity
  8
0
100
AcDbBlockBegin
  2
*D7
 70
     1
 10
0.0
 20
0.0
 30
0.0
  3
*D7
  1

  0
LINE
  5
13BBA
330
13859
100
AcDbEntity
  8
AM_5
100
AcDbLine
 10
-69.99999999999977
 20
-119.1999999999999
 30
0.0
 11
-69.99999999999977
 21
-187.7721819999999
 31
0.0
  0
LINE
  5
13BBB
330
13859
100
AcDbEntity
  8
AM_5
100
AcDbLine
 10
-38.00000000000029
 20
-64.80000000000001
 30
0.0
 11
-38.00000000000029
 21
-187.7721819999999
 31
0.0
  0
LINE
  5
13BBC
330
13859
100
AcDbEntity
  8
AM_5
100
AcDbLine
 10
-67.49999999999977
 20
-186.7721819999999
 30
0.0
 11
-40.50000000000029
 21
-186.7721819999999
 31
0.0
  0
INSERT
  5
13BBD
330
13859
100
AcDbEntity
  8
AM_5
100
AcDbBlockReference
  2
_OPEN30
 10
-69.99999999999977
 20
-186.7721819999999
 30
0.0
 41
2.5
 42
2.5
 43
2.5
 50
180.0
  0
INSERT
  5
13BBE
330
13859
100
AcDbEntity
  8
AM_5
100
AcDbBlockReference
  2
_OPEN30
 10
-38.00000000000029
 20
-186.7721819999999
 30
0.0
 41
2.5
 42
2.5
 43
2.5
  0
MTEXT
  5
13BBF
330
13859
100
AcDbEntity
  8
AM_5
 62
     2
100
AcDbMText
 10
-54.00000000000003
 20
-183.6721819999999
 30
0.0
 40
3.2
 41
0.0
 71
     5
 72
     1
  1
32
  7
ASAMI
 73
     1
 44
1.0
1001
ACAD
1000
MTEXTBEGIN
1070
    73
1070
     1
1070
    44
1040
1.0
1070
    74
1070
     0
1000
MTEXTEND
  0
POINT
  5
13BC0
330
13859
100
AcDbEntity
  8
DEFPOINTS
 62
     0
100
AcDbPoint
 10
-69.99999999999977
 20
-118.1999999999999
 30
0.0
  0
POINT
  5
13BC1
330
13859
100
AcDbEntity
  8
DEFPOINTS
 62
     0
100
AcDbPoint
 10
-38.00000000000029
 20
-63.80000000000001
 30
0.0
  0
POINT
  5
13BC2
330
13859
100
AcDbEntity
  8
DEFPOINTS
 62
     0
100
AcDbPoint
 10
-38.00000000000029
 20
-186.7721819999999
 30
0.0
  0
ENDBLK
  5
13864
330
13859
100
AcDbEntity
  8
0
100
AcDbBlockEnd
  0
BLOCK
  5
1386F
330
13865
100
AcDbEntity
  8
0
100
AcDbBlockBegin
  2
*D8
 70
     1
 10
0.0
 20
0.0
 30
0.0
  3
*D8
  1

  0
LINE
  5
13BCC
330
13865
100
AcDbEntity
  8
AM_5
100
AcDbLine
 10
-69.99999999999977
 20
-119.1999999999999
 30
0.0
 11
-69.99999999999977
 21
-207.772182
 31
0.0
  0
LINE
  5
13BCD
330
13865
100
AcDbEntity
  8
AM_5
100
AcDbLine
 10
0.0000000000002842
 20
-158.4999999999999
 30
0.0
 11
0.0000000000002811
 21
-207.772182
 31
0.0
  0
LINE
  5
13BCE
330
13865
100
AcDbEntity
  8
AM_5
100
AcDbLine
 10
-67.49999999999977
 20
-206.772182
 30
0.0
 11
-2.499999999999718
 21
-206.772182
 31
0.0
  0
INSERT
  5
13BCF
330
13865
100
AcDbEntity
  8
AM_5
100
AcDbBlockReference
  2
_OPEN30
 10
-69.99999999999977
 20
-206.772182
 30
0.0
 41
2.5
 42
2.5
 43
2.5
 50
180.0
  0
INSERT
  5
13BD0
330
13865
100
AcDbEntity
  8
AM_5
100
AcDbBlockReference
  2
_OPEN30
 10
0.0000000000002812
 20
-206.772182
 30
0.0
 41
2.5
 42
2.5
 43
2.5
  0
MTEXT
  5
13BD1
330
13865
100
AcDbEntity
  8
AM_5
 62
     2
100
AcDbMText
 10
-34.99999999999974
 20
-203.672182
 30
0.0
 40
3.2
 41
0.0
 71
     5
 72
     1
  1
70
  7
ASAMI
 73
     1
 44
1.0
1001
ACAD
1000
MTEXTBEGIN
1070
    73
1070
     1
1070
    44
1040
1.0
1070
    74
1070
     0
1000
MTEXTEND
  0
POINT
  5
13BD2
330
13865
100
AcDbEntity
  8
DEFPOINTS
 62
     0
100
AcDbPoint
 10
-69.99999999999977
 20
-118.1999999999999
 30
0.0
  0
POINT
  5
13BD3
330
13865
100
AcDbEntity
  8
DEFPOINTS
 62
     0
100
AcDbPoint
 10
0.0000000000002842
 20
-157.5
 30
0.0
  0
POINT
  5
13BD4
330
13865
100
AcDbEntity
  8
DEFPOINTS
 62
     0
100
AcDbPoint
 10
0.0000000000002812
 20
-206.772182
 30
0.0
  0
ENDBLK
  5
13870
330
13865
100
AcDbEntity
  8
0
100
AcDbBlockEnd
  0
BLOCK
  5
1387B
330
13871
100
AcDbEntity
  8
0
100
AcDbBlockBegin
  2
*D9
 70
     1
 10
0.0
 20
0.0
 30
0.0
  3
*D9
  1

  0
LINE
  5
13BC3
330
13871
100
AcDbEntity
  8
AM_5
100
AcDbLine
 10
-69.99999999999977
 20
-119.1999999999999
 30
0.0
 11
-69.99999999999977
 21
-197.772182
 31
0.0
  0
LINE
  5
13BC4
330
13871
100
AcDbEntity
  8
AM_5
100
AcDbLine
 10
-29.99999999999954
 20
-110.0
 30
0.0
 11
-29.99999999999955
 21
-197.772182
 31
0.0
  0
LINE
  5
13BC5
330
13871
100
AcDbEntity
  8
AM_5
100
AcDbLine
 10
-67.49999999999977
 20
-196.772182
 30
0.0
 11
-32.49999999999956
 21
-196.772182
 31
0.0
  0
INSERT
  5
13BC6
330
13871
100
AcDbEntity
  8
AM_5
100
AcDbBlockReference
  2
_OPEN30
 10
-69.99999999999977
 20
-196.772182
 30
0.0
 41
2.5
 42
2.5
 43
2.5
 50
180.0
  0
INSERT
  5
13BC7
330
13871
100
AcDbEntity
  8
AM_5
100
AcDbBlockReference
  2
_OPEN30
 10
-29.99999999999955
 20
-196.772182
 30
0.0
 41
2.5
 42
2.5
 43
2.5
  0
MTEXT
  5
13BC8
330
13871
100
AcDbEntity
  8
AM_5
 62
     2
100
AcDbMText
 10
-49.99999999999966
 20
-193.672182
 30
0.0
 40
3.2
 41
0.0
 71
     5
 72
     1
  1
40
  7
ASAMI
 73
     1
 44
1.0
1001
ACAD
1000
MTEXTBEGIN
1070
    73
1070
     1
1070
    44
1040
1.0
1070
    74
1070
     0
1000
MTEXTEND
  0
POINT
  5
13BC9
330
13871
100
AcDbEntity
  8
DEFPOINTS
 62
     0
100
AcDbPoint
 10
-69.99999999999977
 20
-118.1999999999999
 30
0.0
  0
POINT
  5
13BCA
330
13871
100
AcDbEntity
  8
DEFPOINTS
 62
     0
100
AcDbPoint
 10
-29.99999999999954
 20
-109.0
 30
0.0
  0
POINT
  5
13BCB
330
13871
100
AcDbEntity
  8
DEFPOINTS
 62
     0
100
AcDbPoint
 10
-29.99999999999955
 20
-196.772182
 30
0.0
  0
ENDBLK
  5
1387C
330
13871
100
AcDbEntity
  8
0
100
AcDbBlockEnd
  0
BLOCK
  5
13887
330
1387D
100
AcDbEntity
  8
0
100
AcDbBlockBegin
  2
*D10
 70
     1
 10
0.0
 20
0.0
 30
0.0
  3
*D10
  1

  0
LINE
  5
13BDE
330
1387D
100
AcDbEntity
  8
AM_5
100
AcDbLine
 10
-28.99999999999954
 20
109.0
 30
0.0
 11
21.92830012287899
 21
109.0
 31
0.0
  0
LINE
  5
13BDF
330
1387D
100
AcDbEntity
  8
AM_5
100
AcDbLine
 10
-28.99999999999954
 20
-109.0
 30
0.0
 11
21.92830012287893
 21
-109.0
 31
0.0
  0
LINE
  5
13BE0
330
1387D
100
AcDbEntity
  8
AM_5
100
AcDbLine
 10
20.92830012287899
 20
106.5
 30
0.0
 11
20.92830012287894
 21
-106.5
 31
0.0
  0
INSERT
  5
13BE1
330
1387D
100
AcDbEntity
  8
AM_5
100
AcDbBlockReference
  2
_OPEN30
 10
20.92830012287899
 20
109.0
 30
0.0
 41
2.5
 42
2.5
 43
2.5
 50
90.0
  0
INSERT
  5
13BE2
330
1387D
100
AcDbEntity
  8
AM_5
100
AcDbBlockReference
  2
_OPEN30
 10
20.92830012287894
 20
-109.0
 30
0.0
 41
2.5
 42
2.5
 43
2.5
 50
270.0
  0
MTEXT
  5
13BE3
330
1387D
100
AcDbEntity
  8
AM_5
 62
     2
100
AcDbMText
 10
17.82830012287896
 20
0.8749999999998866
 30
0.0
 40
3.2
 41
0.0
 71
     5
 72
     1
  1
%%c218
  7
ASAMI
 11
0.0000000000000001
 21
1.0
 31
0.0
 73
     1
 44
1.0
1001
ACAD
1000
MTEXTBEGIN
1070
    73
1070
     1
1070
    44
1040
1.0
1070
    74
1070
     0
1000
MTEXTEND
  0
POINT
  5
13BE4
330
1387D
100
AcDbEntity
  8
DEFPOINTS
 62
     0
100
AcDbPoint
 10
-29.99999999999954
 20
109.0
 30
0.0
  0
POINT
  5
13BE5
330
1387D
100
AcDbEntity
  8
DEFPOINTS
 62
     0
100
AcDbPoint
 10
-29.99999999999954
 20
-109.0
 30
0.0
  0
POINT
  5
13BE6
330
1387D
100
AcDbEntity
  8
DEFPOINTS
 62
     0
100
AcDbPoint
 10
20.92830012287894
 20
-109.0
 30
0.0
  0
ENDBLK
  5
13888
330
1387D
100
AcDbEntity
  8
0
100
AcDbBlockEnd
  0
BLOCK
  5
13893
330
13889
100
AcDbEntity
  8
0
100
AcDbBlockBegin
  2
*D11
 70
     1
 10
0.0
 20
0.0
 30
0.0
  3
*D11
  1

  0
LINE
  5
13B84
330
13889
100
AcDbEntity
  8
AM_5
100
AcDbLine
 10
1.000000000000283
 20
157.5
 30
0.0
 11
31.92830012287898
 21
157.5
 31
0.0
  0
LINE
  5
13B85
330
13889
100
AcDbEntity
  8
AM_5
100
AcDbLine
 10
1.000000000000283
 20
-157.5
 30
0.0
 11
31.9283001228789
 21
-157.5
 31
0.0
  0
LINE
  5
13B86
330
13889
100
AcDbEntity
  8
AM_5
100
AcDbLine
 10
30.92830012287898
 20
155.0
 30
0.0
 11
30.9283001228789
 21
-155.0
 31
0.0
  0
INSERT
  5
13B87
330
13889
100
AcDbEntity
  8
AM_5
100
AcDbBlockReference
  2
_OPEN30
 10
30.92830012287898
 20
157.5
 30
0.0
 41
2.5
 42
2.5
 43
2.5
 50
90.0
  0
INSERT
  5
13B88
330
13889
100
AcDbEntity
  8
AM_5
100
AcDbBlockReference
  2
_OPEN30
 10
30.9283001228789
 20
-157.5
 30
0.0
 41
2.5
 42
2.5
 43
2.5
 50
270.0
  0
MTEXT
  5
13B89
330
13889
100
AcDbEntity
  8
AM_5
 62
     2
100
AcDbMText
 10
27.82830012287894
 20
-0.0000000000000015
 30
0.0
 40
3.2
 41
0.0
 71
     5
 72
     1
  1
%%c315
  7
ASAMI
 11
0.0000000000000001
 21
1.0
 31
0.0
 73
     1
 44
1.0
1001
ACAD
1000
MTEXTBEGIN
1070
    73
1070
     1
1070
    44
1040
1.0
1070
    74
1070
     0
1000
MTEXTEND
  0
POINT
  5
13B8A
330
13889
100
AcDbEntity
  8
DEFPOINTS
 62
     0
100
AcDbPoint
 10
0.0000000000002842
 20
157.5
 30
0.0
  0
POINT
  5
13B8B
330
13889
100
AcDbEntity
  8
DEFPOINTS
 62
     0
100
AcDbPoint
 10
0.0000000000002842
 20
-157.5
 30
0.0
  0
POINT
  5
13B8C
330
13889
100
AcDbEntity
  8
DEFPOINTS
 62
     0
100
AcDbPoint
 10
30.9283001228789
 20
-157.5
 30
0.0
  0
ENDBLK
  5
13894
330
13889
100
AcDbEntity
  8
0
100
AcDbBlockEnd
  0
BLOCK
  5
13F34
330
13EE6
100
AcDbEntity
  8
0
100
AcDbBlockBegin
  2
*D15
 70
     1
 10
0.0
 20
0.0
 30
0.0
  3
*D15
  1

  0
LINE
  5
13F29
330
13EE6
100
AcDbEntity
  8
AM_5
100
AcDbLine
 10
-0.9010167421592569
 20
-158.7126739385542
 30
0.0
 11
-23.71826396355179
 21
-169.6977793768057
 31
0.0
  0
LINE
  5
13F2A
330
13EE6
100
AcDbEntity
  8
AM_5
100
AcDbLine
 10
0.00000000000027
 20
-159.278889625389
 30
0.0
 11
0.00000000000027
 21
-184.6027777994362
 31
0.0
  0
ARC
  5
13F2B
330
13EE6
100
AcDbEntity
  8
AM_5
100
AcDbCircle
 10
0.0000000000002842
 20
-158.278889625389
 30
0.0
 40
25.32388817404719
100
AcDbArc
 50
211.3665600833186
 51
264.3414029529097
  0
INSERT
  5
13F2C
330
13EE6
100
AcDbEntity
  8
AM_5
100
AcDbBlockReference
  2
_OPEN30
 10
-22.81724722139224
 20
-169.2639950636404
 30
0.0
 41
2.5
 42
2.5
 43
2.5
 50
118.5372615597734
  0
INSERT
  5
13F2D
330
13EE6
100
AcDbEntity
  8
AM_5
100
AcDbBlockReference
  2
_OPEN30
 10
0.0000000000002842
 20
-183.6027777994362
 30
0.0
 41
2.5
 42
2.5
 43
2.5
 50
357.1707014764549
  0
MTEXT
  5
13F2E
330
13EE6
100
AcDbEntity
  8
AM_5
 62
     2
100
AcDbMText
 10
-11.82485962584304
 20
-177.095741126149
 30
0.0
 40
3.2
 41
0.0
 71
     5
 72
     1
  1
65%%d
  7
ASAMI
 11
0.8466948426573777
 21
-0.5320787943692164
 31
0.0
 73
     1
 44
1.0
1001
ACAD
1000
MTEXTBEGIN
1070
    73
1070
     1
1070
    44
1040
1.0
1070
    74
1070
     0
1000
MTEXTEND
  0
POINT
  5
13F2F
330
13EE6
100
AcDbEntity
  8
DEFPOINTS
 62
     0
100
AcDbPoint
 10
-17.22598399417953
 20
-176.8413460275979
 30
0.0
  0
POINT
  5
13F30
330
13EE6
100
AcDbEntity
  8
DEFPOINTS
 62
     0
100
AcDbPoint
 10
0.0000000000002842
 20
-158.278889625389
 30
0.0
  0
POINT
  5
13F31
330
13EE6
100
AcDbEntity
  8
DEFPOINTS
 62
     0
100
AcDbPoint
 10
0.0000000000002842
 20
-158.278889625389
 30
0.0
  0
POINT
  5
13F32
330
13EE6
100
AcDbEntity
  8
DEFPOINTS
 62
     0
100
AcDbPoint
 10
270.3050226478627
 20
-28.14359567582815
 30
0.0
  0
POINT
  5
13F33
330
13EE6
100
AcDbEntity
  8
DEFPOINTS
 62
     0
100
AcDbPoint
 10
0.0000000000002984
 20
141.721110374611
 30
0.0
  0
ENDBLK
  5
13F35
330
13EE6
100
AcDbEntity
  8
0
100
AcDbBlockEnd
  0
BLOCK
  5
13F85
330
13F6F
100
AcDbEntity
  8
0
100
AcDbBlockBegin
  2
*D16
 70
     1
 10
0.0
 20
0.0
 30
0.0
  3
*D16
  1

  0
LINE
  5
13F9B
330
13F6F
100
AcDbEntity
  8
AM_5
370
    -2
100
AcDbLine
 10
-16.26643199999944
 20
162.9847919999999
 30
0.0
 11
41.9283001228789
 21
162.9847919999999
 31
0.0
  0
LINE
  5
13F9C
330
13F6F
100
AcDbEntity
  8
AM_5
370
    -2
100
AcDbLine
 10
-16.26643199999944
 20
-162.9847919999999
 30
0.0
 11
41.92830012287883
 21
-162.9847919999999
 31
0.0
  0
LINE
  5
13F9D
330
13F6F
100
AcDbEntity
  8
AM_5
370
    -2
100
AcDbLine
 10
40.9283001228789
 20
160.4847919999999
 30
0.0
 11
40.92830012287882
 21
-160.4847919999999
 31
0.0
  0
INSERT
  5
13F9E
330
13F6F
100
AcDbEntity
  8
AM_5
370
    -2
100
AcDbBlockReference
  2
_OPEN30
 10
40.9283001228789
 20
162.9847919999999
 30
0.0
 41
2.5
 42
2.5
 43
2.5
 50
90.0
  0
INSERT
  5
13F9F
330
13F6F
100
AcDbEntity
  8
AM_5
370
    -2
100
AcDbBlockReference
  2
_OPEN30
 10
40.92830012287882
 20
-162.9847919999999
 30
0.0
 41
2.5
 42
2.5
 43
2.5
 50
270.0
  0
MTEXT
  5
13FA0
330
13F6F
100
AcDbEntity
  8
AM_5
 62
     2
100
AcDbMText
 10
37.82830012287887
 20
-0.0000000000000021
 30
0.0
 40
3.2
 41
0.0
 71
     5
 72
     1
  1
%%c325.97
  7
ASAMI
 11
0.0000000000000001
 21
1.0
 31
0.0
 73
     1
 44
1.0
1001
ACAD
1000
MTEXTBEGIN
1070
    73
1070
     1
1070
    44
1040
1.0
1070
    74
1070
     0
1000
MTEXTEND
  0
POINT
  5
13FA1
330
13F6F
100
AcDbEntity
  8
DEFPOINTS
 62
     0
100
AcDbPoint
 10
-17.26643199999944
 20
162.9847919999999
 30
0.0
  0
POINT
  5
13FA2
330
13F6F
100
AcDbEntity
  8
DEFPOINTS
 62
     0
100
AcDbPoint
 10
-17.26643199999944
 20
-162.9847919999999
 30
0.0
  0
POINT
  5
13FA3
330
13F6F
100
AcDbEntity
  8
DEFPOINTS
 62
     0
100
AcDbPoint
 10
40.92830012287882
 20
-162.9847919999999
 30
0.0
  0
ENDBLK
  5
13F86
330
13F6F
100
AcDbEntity
  8
0
100
AcDbBlockEnd
  0
ENDSEC
  0
SECTION
  2
ENTITIES
  0
TEXT
  5
E5A
330
1F
100
AcDbEntity
  8
AM_6
100
AcDbText
 10
-53.33333333333307
 20
-229.272182
 30
0.0
 40
5.0
  1
APG4315R
 72
     4
 11
-34.99999999999973
 21
-226.772182
 31
0.0
100
AcDbText
  0
LINE
  5
1323F
330
1F
100
AcDbEntity
  8
AM_0
100
AcDbLine
 10
-69.99999999999977
 20
118.1999999999999
 30
0.0
 11
-70.0
 21
14.00000000000004
 31
0.0
  0
LINE
  5
13240
330
1F
100
AcDbEntity
  8
AM_11
100
AcDbLine
 10
-29.99999999999954
 20
109.0
 30
0.0
 11
-29.99999999999948
 21
108.5381197846484
 31
0.0
  0
LINE
  5
13241
330
1F
100
AcDbEntity
  8
AM_0
100
AcDbLine
 10
-14.39999999999957
 20
119.5066641993581
 30
0.0
 11
-14.39999999999957
 21
0.0
 31
0.0
  0
LINE
  5
13245
330
1F
100
AcDbEntity
  8
AM_7
100
AcDbLine
 10
-74.32409533116835
 20
0.0
 30
0.0
 11
6.928299122878967
 21
0.0
 31
0.0
  0
LINE
  5
1326D
330
1F
100
AcDbEntity
  8
AM_0
100
AcDbLine
 10
-68.69999999999999
 20
12.70000000000005
 30
0.0
 11
-57.50000000000023
 21
12.70000000000015
 31
0.0
  0
LINE
  5
1326E
330
1F
100
AcDbEntity
  8
AM_0
100
AcDbLine
 10
-56.50000000000023
 20
11.70000000000015
 30
0.0
 11
-56.50000000000023
 21
0.0000000000000568
 31
0.0
  0
LINE
  5
1326F
330
1F
100
AcDbEntity
  8
AM_7
100
AcDbLine
 10
-74.32409533116835
 20
50.80000000000001
 30
0.0
 11
-26.40344516030774
 21
50.80000000000001
 31
0.0
  0
LINE
  5
13270
330
1F
100
AcDbEntity
  8
AM_7
100
AcDbLine
 10
-74.3240953311681
 20
90.0
 30
0.0
 11
-26.40344516030751
 21
90.0
 31
0.0
  0
LINE
  5
13271
330
1F
100
AcDbEntity
  8
AM_0
100
AcDbLine
 10
-31.44199999999972
 20
95.05800000000013
 30
0.0
 11
-31.44199999999972
 21
84.94200000000006
 31
0.0
  0
LINE
  5
13272
330
1F
100
AcDbEntity
  8
AM_0
100
AcDbLine
 10
-68.55799999999987
 20
95.05800000000013
 30
0.0
 11
-68.55799999999987
 21
84.94200000000006
 31
0.0
  0
LINE
  5
13273
330
1F
100
AcDbEntity
  8
AM_11
100
AcDbLine
 10
-38.00000000000029
 20
63.80000000000001
 30
0.0
 11
-38.00000000000029
 21
37.8
 31
0.0
  0
LINE
  5
13274
330
1F
100
AcDbEntity
  8
AM_0
100
AcDbLine
 10
-68.20000000000003
 20
23.81250000000002
 30
0.0
 11
-31.50000000000028
 21
23.81250000000001
 31
0.0
  0
LINE
  5
13275
330
1F
100
AcDbEntity
  8
AM_11
100
AcDbLine
 10
-69.00000000000004
 20
41.80000000000001
 30
0.0
 11
-38.50000000000017
 21
41.80000000000001
 31
0.0
  0
LINE
  5
13276
330
1F
100
AcDbEntity
  8
AM_11
100
AcDbLine
 10
-38.00000000000017
 20
37.80000000000001
 30
0.0
 11
-31.00000000000005
 21
37.8
 31
0.0
  0
LINE
  5
13277
330
1F
100
AcDbEntity
  8
AM_4
100
AcDbLine
 10
-69.49999999999988
 20
83.99999999999996
 30
0.0
 11
-30.49999999999994
 21
83.99999999999996
 31
0.0
  0
LINE
  5
13278
330
1F
100
AcDbEntity
  8
AM_11
100
AcDbLine
 10
-68.99999999999995
 20
59.80000000000001
 30
0.0
 11
-38.50000000000028
 21
59.79999999999993
 31
0.0
  0
LINE
  5
13279
330
1F
100
AcDbEntity
  8
AM_0
100
AcDbLine
 10
-68.55799999999987
 20
84.94200000000002
 30
0.0
 11
-31.44199999999983
 21
84.94200000000002
 31
0.0
  0
LINE
  5
1327A
330
1F
100
AcDbEntity
  8
AM_0
100
AcDbLine
 10
-69.9999999999999
 20
83.49999999999992
 30
0.0
 11
-68.55799999999987
 21
84.9419999999999
 31
0.0
  0
LINE
  5
1327B
330
1F
100
AcDbEntity
  8
AM_11
100
AcDbLine
 10
-38.00000000000017
 20
63.80000000000001
 30
0.0
 11
-30.99999999999988
 21
63.79999999999991
 31
0.0
  0
LINE
  5
1327C
330
1F
100
AcDbEntity
  8
AM_0
100
AcDbLine
 10
-29.99999999999971
 20
83.49999999999992
 30
0.0
 11
-31.44199999999972
 21
84.9419999999999
 31
0.0
  0
LINE
  5
1327E
330
1F
100
AcDbEntity
  8
AM_11
100
AcDbLine
 10
-29.99999999999954
 20
109.0
 30
0.0
 11
-29.5999999999994
 21
109.2309401076759
 31
0.0
  0
LINE
  5
1327F
330
1F
100
AcDbEntity
  8
AM_0
100
AcDbLine
 10
-55.39719767661978
 20
159.917638090205
 30
0.0
 11
-65.6958988900281
 21
121.4823619097949
 31
0.0
  0
LINE
  5
13280
330
1F
100
AcDbEntity
  8
AM_4
100
AcDbLine
 10
-69.49999999999988
 20
96.00000000000006
 30
0.0
 11
-30.49999999999994
 21
96.00000000000006
 31
0.0
  0
LINE
  5
13281
330
1F
100
AcDbEntity
  8
AM_0
100
AcDbLine
 10
-68.55799999999987
 20
95.05800000000006
 30
0.0
 11
-31.44199999999972
 21
95.05799999999998
 31
0.0
  0
LINE
  5
13282
330
1F
100
AcDbEntity
  8
AM_0
100
AcDbLine
 10
-69.9999999999999
 20
96.50000000000005
 30
0.0
 11
-68.55799999999987
 21
95.05800000000013
 31
0.0
  0
LINE
  5
13283
330
1F
100
AcDbEntity
  8
AM_0
100
AcDbLine
 10
-68.19999999999976
 20
120.0
 30
0.0
 11
-67.62775054260623
 21
120.0
 31
0.0
  0
LINE
  5
13284
330
1F
100
AcDbEntity
  8
AM_0
100
AcDbLine
 10
-29.99999999999971
 20
96.50000000000005
 30
0.0
 11
-31.44199999999972
 21
95.05800000000013
 31
0.0
  0
LINE
  5
13285
330
1F
100
AcDbEntity
  8
AM_0
100
AcDbLine
 10
-53.46534602404165
 20
161.4
 30
0.0
 11
-32.29999999999938
 21
161.3999999999999
 31
0.0
  0
LINE
  5
13289
330
1F
100
AcDbEntity
  8
AM_0
100
AcDbLine
 10
-15.39937677684434
 20
125.745
 30
0.0
 11
-15.39937677684434
 21
127.7449999999999
 31
0.0
  0
LINE
  5
1328A
330
1F
100
AcDbEntity
  8
AM_0
100
AcDbLine
 10
-15.39937677684434
 20
125.745
 30
0.0
 11
-14.39999999999957
 21
125.745
 31
0.0
  0
LINE
  5
1328B
330
1F
100
AcDbEntity
  8
AM_0
100
AcDbLine
 10
-14.39999999999957
 20
125.745
 30
0.0
 11
-14.39999999999957
 21
119.5066641993581
 31
0.0
  0
LINE
  5
1328E
330
1F
100
AcDbEntity
  8
AM_0
100
AcDbLine
 10
-15.39937677684434
 20
127.7449999999999
 30
0.0
 11
-14.39937677684435
 21
127.7449999999999
 31
0.0
  0
ARC
  5
135BB
330
1F
100
AcDbEntity
  8
AM_0
100
AcDbCircle
 10
-53.46534602404165
 20
159.4
 30
0.0
 40
2.0
100
AcDbArc
 50
90.0
 51
164.9999999999996
1001
GENIUS_GENODEF_13
1002
{
1000
HIER
1070
     0
1002
}
1002
{
1000
MANEDIT
1070
     0
1002
}
1002
{
1000
NOSEL
1070
     0
1002
}
1002
{
1000
BEHIND
1070
     0
1002
}
1002
{
1000
REACTOR
1002
}
1001
GENIUS_GENOBJ-N-FIL_13
1002
{
1000
OWNER
1000
GEN
1002
}
  0
ARC
  5
135BE
330
1F
100
AcDbEntity
  8
AM_0
100
AcDbCircle
 10
-67.62775054260623
 20
122.0
 30
0.0
 40
2.0
100
AcDbArc
 50
270.0
 51
344.9999999999997
1001
GENIUS_GENODEF_13
1002
{
1000
HIER
1070
     0
1002
}
1002
{
1000
MANEDIT
1070
     0
1002
}
1002
{
1000
NOSEL
1070
     0
1002
}
1002
{
1000
BEHIND
1070
     0
1002
}
1002
{
1000
REACTOR
1002
}
1001
GENIUS_GENOBJ-N-FIL_13
1002
{
1000
OWNER
1000
GEN
1002
}
  0
ARC
  5
135C1
330
1F
100
AcDbEntity
  8
AM_0
100
AcDbCircle
 10
-57.50000000000023
 20
11.70000000000015
 30
0.0
 40
1.0
100
AcDbArc
 50
0.0
 51
90.00000000000047
1001
GENIUS_GENODEF_13
1002
{
1000
HIER
1070
     0
1002
}
1002
{
1000
MANEDIT
1070
     0
1002
}
1002
{
1000
NOSEL
1070
     0
1002
}
1002
{
1000
BEHIND
1070
     0
1002
}
1002
{
1000
REACTOR
1002
}
1001
GENIUS_GENOBJ-N-FIL_13
1002
{
1000
OWNER
1000
GEN
1002
}
  0
ARC
  5
135C4
330
1F
100
AcDbEntity
  8
AM_0
100
AcDbCircle
 10
-29.19999999999943
 20
108.5381197846484
 30
0.0
 40
0.8
100
AcDbArc
 50
120.0
 51
179.9999999999995
1001
GENIUS_GENODEF_13
1002
{
1000
HIER
1070
     0
1002
}
1002
{
1000
MANEDIT
1070
     0
1002
}
1002
{
1000
NOSEL
1070
     0
1002
}
1002
{
1000
BEHIND
1070
     0
1002
}
1002
{
1000
REACTOR
1002
}
1001
GENIUS_GENOBJ-N-FIL_13
1002
{
1000
OWNER
1000
GEN
1002
}
  0
LINE
  5
135D0
330
1F
100
AcDbEntity
  8
AM_0
100
AcDbLine
 10
-29.5999999999994
 20
109.2309401076759
 30
0.0
 11
-15.69903810567626
 21
117.2566641993581
 31
0.0
  0
LINE
  5
135DA
330
1F
100
AcDbEntity
  8
AM_11
100
AcDbLine
 10
-38.50000000000028
 20
59.79999999999993
 30
0.0
 11
-38.00000000000029
 21
60.29999999999994
 31
0.0
1001
GENIUS_GENFIL_13
1070
     0
1040
0.5
1040
0.5
1040
20.0
1040
0.0
1002
{
1002
}
1001
GENIUS_GENODEF_13
1002
{
1000
HIER
1070
     0
1002
}
1002
{
1000
MANEDIT
1070
     0
1002
}
1002
{
1000
NOSEL
1070
     0
1002
}
1002
{
1000
BEHIND
1070
     0
1002
}
1002
{
1000
REACTOR
1002
}
1001
GENIUS_GENOBJ-N-CHA_13
1002
{
1000
OWNER
1000
GEN
1002
}
  0
LINE
  5
135DE
330
1F
100
AcDbEntity
  8
AM_11
100
AcDbLine
 10
-38.50000000000017
 20
41.80000000000001
 30
0.0
 11
-38.00000000000017
 21
41.30000000000001
 31
0.0
1001
GENIUS_GENFIL_13
1070
     0
1040
0.5
1040
0.5
1040
20.0
1040
0.0
1002
{
1002
}
1001
GENIUS_GENODEF_13
1002
{
1000
HIER
1070
     0
1002
}
1002
{
1000
MANEDIT
1070
     0
1002
}
1002
{
1000
NOSEL
1070
     0
1002
}
1002
{
1000
BEHIND
1070
     0
1002
}
1002
{
1000
REACTOR
1002
}
1001
GENIUS_GENOBJ-N-CHA_13
1002
{
1000
OWNER
1000
GEN
1002
}
  0
LINE
  5
135E0
330
1F
100
AcDbEntity
  8
AM_11
100
AcDbLine
 10
-38.50000000000028
 20
59.79999999999993
 30
0.0
 11
-38.50000000000028
 21
41.80000000000013
 31
0.0
  0
LINE
  5
135E3
330
1F
100
AcDbEntity
  8
AM_11
100
AcDbLine
 10
-31.00000000000005
 20
37.8
 30
0.0
 11
-30.00000000000005
 21
36.8
 31
0.0
1001
GENIUS_GENFIL_13
1070
     0
1040
1.0
1040
1.0
1040
20.0
1040
0.0
1002
{
1002
}
1001
GENIUS_GENODEF_13
1002
{
1000
HIER
1070
     0
1002
}
1002
{
1000
MANEDIT
1070
     0
1002
}
1002
{
1000
NOSEL
1070
     0
1002
}
1002
{
1000
BEHIND
1070
     0
1002
}
1002
{
1000
REACTOR
1002
}
1001
GENIUS_GENOBJ-N-CHA_13
1002
{
1000
OWNER
1000
GEN
1002
}
  0
LINE
  5
135E4
330
1F
100
AcDbEntity
  8
AM_0
100
AcDbLine
 10
-30.00000000000056
 20
0.0000000000000018
 30
0.0
 11
-29.99999999999943
 21
108.5381197846484
 31
0.0
  0
LINE
  5
135E7
330
1F
100
AcDbEntity
  8
AM_11
100
AcDbLine
 10
-30.99999999999988
 20
63.79999999999991
 30
0.0
 11
-29.99999999999988
 21
64.79999999999989
 31
0.0
1001
GENIUS_GENFIL_13
1070
     0
1040
1.0
1040
1.0
1040
20.0
1040
0.0
1002
{
1002
}
1001
GENIUS_GENODEF_13
1002
{
1000
HIER
1070
     0
1002
}
1002
{
1000
MANEDIT
1070
     0
1002
}
1002
{
1000
NOSEL
1070
     0
1002
}
1002
{
1000
BEHIND
1070
     0
1002
}
1002
{
1000
REACTOR
1002
}
1001
GENIUS_GENOBJ-N-CHA_13
1002
{
1000
OWNER
1000
GEN
1002
}
  0
LINE
  5
135E9
330
1F
100
AcDbEntity
  8
AM_11
100
AcDbLine
 10
-31.00000000000005
 20
37.8
 30
0.0
 11
-30.99999999999988
 21
63.79999999999991
 31
0.0
  0
LINE
  5
135EC
330
1F
100
AcDbEntity
  8
AM_11
100
AcDbLine
 10
-69.99999999999992
 20
60.80000000000001
 30
0.0
 11
-68.99999999999995
 21
59.80000000000001
 31
0.0
1001
GENIUS_GENFIL_13
1070
     0
1040
1.0
1040
1.0
1040
20.0
1040
0.0
1002
{
1002
}
1001
GENIUS_GENODEF_13
1002
{
1000
HIER
1070
     0
1002
}
1002
{
1000
MANEDIT
1070
     0
1002
}
1002
{
1000
NOSEL
1070
     0
1002
}
1002
{
1000
BEHIND
1070
     0
1002
}
1002
{
1000
REACTOR
1002
}
1001
GENIUS_GENOBJ-N-CHA_13
1002
{
1000
OWNER
1000
GEN
1002
}
  0
LINE
  5
135F0
330
1F
100
AcDbEntity
  8
AM_11
100
AcDbLine
 10
-69.00000000000004
 20
41.80000000000001
 30
0.0
 11
-70.00000000000007
 21
40.8
 31
0.0
1001
GENIUS_GENFIL_13
1070
     0
1040
1.0
1040
1.0
1040
20.0
1040
0.0
1002
{
1002
}
1001
GENIUS_GENODEF_13
1002
{
1000
HIER
1070
     0
1002
}
1002
{
1000
MANEDIT
1070
     0
1002
}
1002
{
1000
NOSEL
1070
     0
1002
}
1002
{
1000
BEHIND
1070
     0
1002
}
1002
{
1000
REACTOR
1002
}
1001
GENIUS_GENOBJ-N-CHA_13
1002
{
1000
OWNER
1000
GEN
1002
}
  0
LINE
  5
135F2
330
1F
100
AcDbEntity
  8
AM_11
100
AcDbLine
 10
-68.99999999999995
 20
59.80000000000001
 30
0.0
 11
-69.00000000000004
 21
41.80000000000001
 31
0.0
  0
LINE
  5
135F5
330
1F
100
AcDbEntity
  8
AM_0
100
AcDbLine
 10
-14.39999999999957
 20
119.5066641993581
 30
0.0
 11
-15.69903810567626
 21
117.2566641993581
 31
0.0
1001
GENIUS_GENFIL_13
1070
     0
1040
1.5
1040
1.5
1040
20.0
1040
0.0
1002
{
1002
}
1001
GENIUS_GENODEF_13
1002
{
1000
HIER
1070
     0
1002
}
1002
{
1000
MANEDIT
1070
     0
1002
}
1002
{
1000
NOSEL
1070
     0
1002
}
1002
{
1000
BEHIND
1070
     0
1002
}
1002
{
1000
REACTOR
1002
}
1001
GENIUS_GENOBJ-N-CHA_13
1002
{
1000
OWNER
1000
GEN
1002
}
  0
LINE
  5
135F9
330
1F
100
AcDbEntity
  8
AM_0
100
AcDbLine
 10
-68.19999999999976
 20
120.0
 30
0.0
 11
-69.99999999999977
 21
118.1999999999999
 31
0.0
1001
GENIUS_GENFIL_13
1070
     0
1040
1.8
1040
1.8
1040
20.0
1040
0.0
1002
{
1002
}
1001
GENIUS_GENODEF_13
1002
{
1000
HIER
1070
     0
1002
}
1002
{
1000
MANEDIT
1070
     0
1002
}
1002
{
1000
NOSEL
1070
     0
1002
}
1002
{
1000
BEHIND
1070
     0
1002
}
1002
{
1000
REACTOR
1002
}
1001
GENIUS_GENOBJ-N-CHA_13
1002
{
1000
OWNER
1000
GEN
1002
}
  0
LINE
  5
135FC
330
1F
100
AcDbEntity
  8
AM_0
100
AcDbLine
 10
-70.00000000000007
 20
25.61250000000002
 30
0.0
 11
-68.20000000000003
 21
23.81250000000002
 31
0.0
1001
GENIUS_GENFIL_13
1070
     0
1040
1.8
1040
1.8
1040
20.0
1040
0.0
1002
{
1002
}
1001
GENIUS_GENODEF_13
1002
{
1000
HIER
1070
     0
1002
}
1002
{
1000
MANEDIT
1070
     0
1002
}
1002
{
1000
NOSEL
1070
     0
1002
}
1002
{
1000
BEHIND
1070
     0
1002
}
1002
{
1000
REACTOR
1002
}
1001
GENIUS_GENOBJ-N-CHA_13
1002
{
1000
OWNER
1000
GEN
1002
}
  0
LINE
  5
135FF
330
1F
100
AcDbEntity
  8
AM_0
100
AcDbLine
 10
-68.69999999999999
 20
12.70000000000005
 30
0.0
 11
-70.0
 21
14.00000000000004
 31
0.0
1001
GENIUS_GENFIL_13
1070
     0
1040
1.3
1040
1.3
1040
20.0
1040
0.0
1002
{
1002
}
1001
GENIUS_GENODEF_13
1002
{
1000
HIER
1070
     0
1002
}
1002
{
1000
MANEDIT
1070
     0
1002
}
1002
{
1000
NOSEL
1070
     0
1002
}
1002
{
1000
BEHIND
1070
     0
1002
}
1002
{
1000
REACTOR
1002
}
1001
GENIUS_GENOBJ-N-CHA_13
1002
{
1000
OWNER
1000
GEN
1002
}
  0
LINE
  5
13600
330
1F
100
AcDbEntity
  8
AM_0
100
AcDbLine
 10
-68.20000000000003
 20
23.81250000000002
 30
0.0
 11
-68.20000000000003
 21
12.70000000000005
 31
0.0
  0
LINE
  5
13603
330
1F
100
AcDbEntity
  8
AM_0
100
AcDbLine
 10
-30.00000000000028
 20
25.31250000000001
 30
0.0
 11
-31.50000000000028
 21
23.81250000000001
 31
0.0
1001
GENIUS_GENFIL_13
1070
     0
1040
1.5
1040
1.5
1040
20.0
1040
0.0
1002
{
1002
}
1001
GENIUS_GENODEF_13
1002
{
1000
HIER
1070
     0
1002
}
1002
{
1000
MANEDIT
1070
     0
1002
}
1002
{
1000
NOSEL
1070
     0
1002
}
1002
{
1000
BEHIND
1070
     0
1002
}
1002
{
1000
REACTOR
1002
}
1001
GENIUS_GENOBJ-N-CHA_13
1002
{
1000
OWNER
1000
GEN
1002
}
  0
LINE
  5
13604
330
1F
100
AcDbEntity
  8
AM_0
100
AcDbLine
 10
-31.50000000000028
 20
23.81250000000001
 30
0.0
 11
-31.50000000000028
 21
0.0
 31
0.0
  0
LINE
  5
13605
330
1F
100
AcDbEntity
  8
AM_0
100
AcDbLine
 10
-68.20000000000003
 20
-23.81250000000002
 30
0.0
 11
-31.50000000000028
 21
-23.81250000000001
 31
0.0
  0
LINE
  5
13606
330
1F
100
AcDbEntity
  8
AM_11
100
AcDbLine
 10
-69.00000000000004
 20
-41.80000000000001
 30
0.0
 11
-38.50000000000017
 21
-41.80000000000001
 31
0.0
  0
LINE
  5
13607
330
1F
100
AcDbEntity
  8
AM_11
100
AcDbLine
 10
-68.99999999999995
 20
-59.80000000000001
 30
0.0
 11
-38.50000000000028
 21
-59.79999999999993
 31
0.0
  0
LINE
  5
13608
330
1F
100
AcDbEntity
  8
AM_0
100
AcDbLine
 10
-53.46534602404165
 20
-161.4
 30
0.0
 11
-32.29999999999938
 21
-161.3999999999999
 31
0.0
  0
LINE
  5
13609
330
1F
100
AcDbEntity
  8
AM_0
100
AcDbLine
 10
-68.55799999999987
 20
-95.05800000000006
 30
0.0
 11
-31.44199999999972
 21
-95.05799999999998
 31
0.0
  0
LINE
  5
1360A
330
1F
100
AcDbEntity
  8
AM_4
100
AcDbLine
 10
-69.49999999999988
 20
-96.00000000000006
 30
0.0
 11
-30.49999999999994
 21
-96.00000000000006
 31
0.0
  0
LINE
  5
1360B
330
1F
100
AcDbEntity
  8
AM_0
100
AcDbLine
 10
-68.55799999999987
 20
-84.94200000000002
 30
0.0
 11
-31.44199999999983
 21
-84.94200000000002
 31
0.0
  0
LINE
  5
1360C
330
1F
100
AcDbEntity
  8
AM_4
100
AcDbLine
 10
-69.49999999999988
 20
-83.99999999999996
 30
0.0
 11
-30.49999999999994
 21
-83.99999999999996
 31
0.0
  0
LINE
  5
1360D
330
1F
100
AcDbEntity
  8
AM_7
100
AcDbLine
 10
-74.3240953311681
 20
-90.0
 30
0.0
 11
-26.40344516030751
 21
-90.0
 31
0.0
  0
LINE
  5
1360E
330
1F
100
AcDbEntity
  8
AM_7
100
AcDbLine
 10
-74.32409533116835
 20
-50.80000000000001
 30
0.0
 11
-26.40344516030774
 21
-50.80000000000001
 31
0.0
  0
LINE
  5
1360F
330
1F
100
AcDbEntity
  8
AM_0
100
AcDbLine
 10
-55.39719767661978
 20
-159.917638090205
 30
0.0
 11
-65.6958988900281
 21
-121.4823619097949
 31
0.0
  0
LINE
  5
13610
330
1F
100
AcDbEntity
  8
AM_0
100
AcDbLine
 10
-69.99999999999977
 20
-118.1999999999999
 30
0.0
 11
-70.0
 21
-14.00000000000004
 31
0.0
  0
LINE
  5
13611
330
1F
100
AcDbEntity
  8
AM_11
100
AcDbLine
 10
-68.99999999999995
 20
-59.80000000000001
 30
0.0
 11
-69.00000000000004
 21
-41.80000000000001
 31
0.0
  0
LINE
  5
13612
330
1F
100
AcDbEntity
  8
AM_0
100
AcDbLine
 10
-70.00000000000007
 20
-25.61250000000002
 30
0.0
 11
-68.20000000000003
 21
-23.81250000000002
 31
0.0
1001
GENIUS_GENFIL_13
1070
     0
1040
1.8
1040
1.8
1040
20.0
1040
0.0
1002
{
1002
}
1001
GENIUS_GENODEF_13
1002
{
1000
HIER
1070
     0
1002
}
1002
{
1000
MANEDIT
1070
     0
1002
}
1002
{
1000
NOSEL
1070
     0
1002
}
1002
{
1000
BEHIND
1070
     0
1002
}
1002
{
1000
REACTOR
1002
}
1001
GENIUS_GENOBJ-N-CHA_13
1002
{
1000
OWNER
1000
GEN
1002
}
  0
LINE
  5
13613
330
1F
100
AcDbEntity
  8
AM_0
100
AcDbLine
 10
-56.50000000000023
 20
-11.70000000000015
 30
0.0
 11
-56.50000000000023
 21
-0.0000000000000568
 31
0.0
  0
LINE
  5
13614
330
1F
100
AcDbEntity
  8
AM_0
100
AcDbLine
 10
-68.69999999999999
 20
-12.70000000000005
 30
0.0
 11
-57.50000000000023
 21
-12.70000000000015
 31
0.0
  0
LINE
  5
13615
330
1F
100
AcDbEntity
  8
AM_0
100
AcDbLine
 10
-68.20000000000003
 20
-23.81250000000002
 30
0.0
 11
-68.20000000000003
 21
-12.70000000000005
 31
0.0
  0
LINE
  5
13616
330
1F
100
AcDbEntity
  8
AM_0
100
AcDbLine
 10
-68.69999999999999
 20
-12.70000000000005
 30
0.0
 11
-70.0
 21
-14.00000000000004
 31
0.0
1001
GENIUS_GENFIL_13
1070
     0
1040
1.3
1040
1.3
1040
20.0
1040
0.0
1002
{
1002
}
1001
GENIUS_GENODEF_13
1002
{
1000
HIER
1070
     0
1002
}
1002
{
1000
MANEDIT
1070
     0
1002
}
1002
{
1000
NOSEL
1070
     0
1002
}
1002
{
1000
BEHIND
1070
     0
1002
}
1002
{
1000
REACTOR
1002
}
1001
GENIUS_GENOBJ-N-CHA_13
1002
{
1000
OWNER
1000
GEN
1002
}
  0
ARC
  5
13617
330
1F
100
AcDbEntity
  8
AM_0
100
AcDbCircle
 10
-57.50000000000023
 20
-11.70000000000015
 30
0.0
 40
1.0
100
AcDbArc
 50
269.9999999999994
 51
0.0
1001
GENIUS_GENODEF_13
1002
{
1000
HIER
1070
     0
1002
}
1002
{
1000
MANEDIT
1070
     0
1002
}
1002
{
1000
NOSEL
1070
     0
1002
}
1002
{
1000
BEHIND
1070
     0
1002
}
1002
{
1000
REACTOR
1002
}
1001
GENIUS_GENOBJ-N-FIL_13
1002
{
1000
OWNER
1000
GEN
1002
}
  0
LINE
  5
13618
330
1F
100
AcDbEntity
  8
AM_11
100
AcDbLine
 10
-69.00000000000004
 20
-41.80000000000001
 30
0.0
 11
-70.00000000000007
 21
-40.8
 31
0.0
1001
GENIUS_GENFIL_13
1070
     0
1040
1.0
1040
1.0
1040
20.0
1040
0.0
1002
{
1002
}
1001
GENIUS_GENODEF_13
1002
{
1000
HIER
1070
     0
1002
}
1002
{
1000
MANEDIT
1070
     0
1002
}
1002
{
1000
NOSEL
1070
     0
1002
}
1002
{
1000
BEHIND
1070
     0
1002
}
1002
{
1000
REACTOR
1002
}
1001
GENIUS_GENOBJ-N-CHA_13
1002
{
1000
OWNER
1000
GEN
1002
}
  0
LINE
  5
13619
330
1F
100
AcDbEntity
  8
AM_0
100
AcDbLine
 10
-68.55799999999987
 20
-95.05800000000013
 30
0.0
 11
-68.55799999999987
 21
-84.94200000000006
 31
0.0
  0
LINE
  5
1361A
330
1F
100
AcDbEntity
  8
AM_11
100
AcDbLine
 10
-69.99999999999992
 20
-60.80000000000001
 30
0.0
 11
-68.99999999999995
 21
-59.80000000000001
 31
0.0
1001
GENIUS_GENFIL_13
1070
     0
1040
1.0
1040
1.0
1040
20.0
1040
0.0
1002
{
1002
}
1001
GENIUS_GENODEF_13
1002
{
1000
HIER
1070
     0
1002
}
1002
{
1000
MANEDIT
1070
     0
1002
}
1002
{
1000
NOSEL
1070
     0
1002
}
1002
{
1000
BEHIND
1070
     0
1002
}
1002
{
1000
REACTOR
1002
}
1001
GENIUS_GENOBJ-N-CHA_13
1002
{
1000
OWNER
1000
GEN
1002
}
  0
LINE
  5
1361B
330
1F
100
AcDbEntity
  8
AM_0
100
AcDbLine
 10
-69.9999999999999
 20
-83.49999999999992
 30
0.0
 11
-68.55799999999987
 21
-84.9419999999999
 31
0.0
  0
LINE
  5
1361C
330
1F
100
AcDbEntity
  8
AM_0
100
AcDbLine
 10
-69.9999999999999
 20
-96.50000000000005
 30
0.0
 11
-68.55799999999987
 21
-95.05800000000013
 31
0.0
  0
ARC
  5
1361D
330
1F
100
AcDbEntity
  8
AM_0
100
AcDbCircle
 10
-67.62775054260623
 20
-122.0
 30
0.0
 40
2.0
100
AcDbArc
 50
15.00000000000025
 51
90.00000000000005
1001
GENIUS_GENODEF_13
1002
{
1000
HIER
1070
     0
1002
}
1002
{
1000
MANEDIT
1070
     0
1002
}
1002
{
1000
NOSEL
1070
     0
1002
}
1002
{
1000
BEHIND
1070
     0
1002
}
1002
{
1000
REACTOR
1002
}
1001
GENIUS_GENOBJ-N-FIL_13
1002
{
1000
OWNER
1000
GEN
1002
}
  0
LINE
  5
1361E
330
1F
100
AcDbEntity
  8
AM_0
100
AcDbLine
 10
-68.19999999999976
 20
-120.0
 30
0.0
 11
-69.99999999999977
 21
-118.1999999999999
 31
0.0
1001
GENIUS_GENFIL_13
1070
     0
1040
1.8
1040
1.8
1040
20.0
1040
0.0
1002
{
1002
}
1001
GENIUS_GENODEF_13
1002
{
1000
HIER
1070
     0
1002
}
1002
{
1000
MANEDIT
1070
     0
1002
}
1002
{
1000
NOSEL
1070
     0
1002
}
1002
{
1000
BEHIND
1070
     0
1002
}
1002
{
1000
REACTOR
1002
}
1001
GENIUS_GENOBJ-N-CHA_13
1002
{
1000
OWNER
1000
GEN
1002
}
  0
LINE
  5
1361F
330
1F
100
AcDbEntity
  8
AM_0
100
AcDbLine
 10
-68.19999999999976
 20
-120.0
 30
0.0
 11
-67.62775054260623
 21
-120.0
 31
0.0
  0
ARC
  5
13620
330
1F
100
AcDbEntity
  8
AM_0
100
AcDbCircle
 10
-53.46534602404165
 20
-159.4
 30
0.0
 40
2.0
100
AcDbArc
 50
195.0000000000002
 51
270.0
1001
GENIUS_GENODEF_13
1002
{
1000
HIER
1070
     0
1002
}
1002
{
1000
MANEDIT
1070
     0
1002
}
1002
{
1000
NOSEL
1070
     0
1002
}
1002
{
1000
BEHIND
1070
     0
1002
}
1002
{
1000
REACTOR
1002
}
1001
GENIUS_GENOBJ-N-FIL_13
1002
{
1000
OWNER
1000
GEN
1002
}
  0
LINE
  5
13622
330
1F
100
AcDbEntity
  8
AM_0
100
AcDbLine
 10
-1.899999999999579
 20
-150.6983388475928
 30
0.0
 11
-1.899999999999579
 21
0.0
 31
0.0
  0
LINE
  5
13623
330
1F
100
AcDbEntity
  8
AM_0
100
AcDbLine
 10
-30.00000000000056
 20
-0.0000000000000018
 30
0.0
 11
-29.99999999999943
 21
-108.5381197846484
 31
0.0
  0
LINE
  5
13624
330
1F
100
AcDbEntity
  8
AM_0
100
AcDbLine
 10
-14.39999999999957
 20
-119.5066641993581
 30
0.0
 11
-14.39999999999957
 21
0.0
 31
0.0
  0
LINE
  5
13625
330
1F
100
AcDbEntity
  8
AM_11
100
AcDbLine
 10
-31.00000000000005
 20
-37.8
 30
0.0
 11
-30.99999999999988
 21
-63.79999999999991
 31
0.0
  0
LINE
  5
13626
330
1F
100
AcDbEntity
  8
AM_11
100
AcDbLine
 10
-38.50000000000028
 20
-59.79999999999993
 30
0.0
 11
-38.50000000000028
 21
-41.80000000000013
 31
0.0
  0
LINE
  5
13627
330
1F
100
AcDbEntity
  8
AM_11
100
AcDbLine
 10
-38.00000000000029
 20
-63.80000000000001
 30
0.0
 11
-38.00000000000029
 21
-37.8
 31
0.0
  0
LINE
  5
13628
330
1F
100
AcDbEntity
  8
AM_0
100
AcDbLine
 10
-30.00000000000028
 20
-25.31250000000001
 30
0.0
 11
-31.50000000000028
 21
-23.81250000000001
 31
0.0
1001
GENIUS_GENFIL_13
1070
     0
1040
1.5
1040
1.5
1040
20.0
1040
0.0
1002
{
1002
}
1001
GENIUS_GENODEF_13
1002
{
1000
HIER
1070
     0
1002
}
1002
{
1000
MANEDIT
1070
     0
1002
}
1002
{
1000
NOSEL
1070
     0
1002
}
1002
{
1000
BEHIND
1070
     0
1002
}
1002
{
1000
REACTOR
1002
}
1001
GENIUS_GENOBJ-N-CHA_13
1002
{
1000
OWNER
1000
GEN
1002
}
  0
LINE
  5
13629
330
1F
100
AcDbEntity
  8
AM_0
100
AcDbLine
 10
-31.50000000000028
 20
-23.81250000000001
 30
0.0
 11
-31.50000000000028
 21
0.0
 31
0.0
  0
LINE
  5
1362A
330
1F
100
AcDbEntity
  8
AM_11
100
AcDbLine
 10
-38.50000000000017
 20
-41.80000000000001
 30
0.0
 11
-38.00000000000017
 21
-41.30000000000001
 31
0.0
1001
GENIUS_GENFIL_13
1070
     0
1040
0.5
1040
0.5
1040
20.0
1040
0.0
1002
{
1002
}
1001
GENIUS_GENODEF_13
1002
{
1000
HIER
1070
     0
1002
}
1002
{
1000
MANEDIT
1070
     0
1002
}
1002
{
1000
NOSEL
1070
     0
1002
}
1002
{
1000
BEHIND
1070
     0
1002
}
1002
{
1000
REACTOR
1002
}
1001
GENIUS_GENOBJ-N-CHA_13
1002
{
1000
OWNER
1000
GEN
1002
}
  0
LINE
  5
1362B
330
1F
100
AcDbEntity
  8
AM_11
100
AcDbLine
 10
-38.00000000000017
 20
-37.80000000000001
 30
0.0
 11
-31.00000000000005
 21
-37.8
 31
0.0
  0
LINE
  5
1362C
330
1F
100
AcDbEntity
  8
AM_11
100
AcDbLine
 10
-31.00000000000005
 20
-37.8
 30
0.0
 11
-30.00000000000005
 21
-36.8
 31
0.0
1001
GENIUS_GENFIL_13
1070
     0
1040
1.0
1040
1.0
1040
20.0
1040
0.0
1002
{
1002
}
1001
GENIUS_GENODEF_13
1002
{
1000
HIER
1070
     0
1002
}
1002
{
1000
MANEDIT
1070
     0
1002
}
1002
{
1000
NOSEL
1070
     0
1002
}
1002
{
1000
BEHIND
1070
     0
1002
}
1002
{
1000
REACTOR
1002
}
1001
GENIUS_GENOBJ-N-CHA_13
1002
{
1000
OWNER
1000
GEN
1002
}
  0
LINE
  5
1362D
330
1F
100
AcDbEntity
  8
AM_0
100
AcDbLine
 10
-31.44199999999972
 20
-95.05800000000013
 30
0.0
 11
-31.44199999999972
 21
-84.94200000000006
 31
0.0
  0
LINE
  5
1362E
330
1F
100
AcDbEntity
  8
AM_11
100
AcDbLine
 10
-38.00000000000017
 20
-63.80000000000001
 30
0.0
 11
-30.99999999999988
 21
-63.79999999999991
 31
0.0
  0
LINE
  5
1362F
330
1F
100
AcDbEntity
  8
AM_11
100
AcDbLine
 10
-38.50000000000028
 20
-59.79999999999993
 30
0.0
 11
-38.00000000000029
 21
-60.29999999999994
 31
0.0
1001
GENIUS_GENFIL_13
1070
     0
1040
0.5
1040
0.5
1040
20.0
1040
0.0
1002
{
1002
}
1001
GENIUS_GENODEF_13
1002
{
1000
HIER
1070
     0
1002
}
1002
{
1000
MANEDIT
1070
     0
1002
}
1002
{
1000
NOSEL
1070
     0
1002
}
1002
{
1000
BEHIND
1070
     0
1002
}
1002
{
1000
REACTOR
1002
}
1001
GENIUS_GENOBJ-N-CHA_13
1002
{
1000
OWNER
1000
GEN
1002
}
  0
LINE
  5
13630
330
1F
100
AcDbEntity
  8
AM_11
100
AcDbLine
 10
-30.99999999999988
 20
-63.79999999999991
 30
0.0
 11
-29.99999999999988
 21
-64.79999999999989
 31
0.0
1001
GENIUS_GENFIL_13
1070
     0
1040
1.0
1040
1.0
1040
20.0
1040
0.0
1002
{
1002
}
1001
GENIUS_GENODEF_13
1002
{
1000
HIER
1070
     0
1002
}
1002
{
1000
MANEDIT
1070
     0
1002
}
1002
{
1000
NOSEL
1070
     0
1002
}
1002
{
1000
BEHIND
1070
     0
1002
}
1002
{
1000
REACTOR
1002
}
1001
GENIUS_GENOBJ-N-CHA_13
1002
{
1000
OWNER
1000
GEN
1002
}
  0
LINE
  5
13631
330
1F
100
AcDbEntity
  8
AM_0
100
AcDbLine
 10
-29.99999999999971
 20
-83.49999999999992
 30
0.0
 11
-31.44199999999972
 21
-84.9419999999999
 31
0.0
  0
LINE
  5
13632
330
1F
100
AcDbEntity
  8
AM_0
100
AcDbLine
 10
-29.5999999999994
 20
-109.2309401076759
 30
0.0
 11
-15.69903810567626
 21
-117.2566641993581
 31
0.0
  0
LINE
  5
13633
330
1F
100
AcDbEntity
  8
AM_0
100
AcDbLine
 10
-29.99999999999971
 20
-96.50000000000005
 30
0.0
 11
-31.44199999999972
 21
-95.05800000000013
 31
0.0
  0
LINE
  5
13634
330
1F
100
AcDbEntity
  8
AM_11
100
AcDbLine
 10
-29.99999999999954
 20
-109.0
 30
0.0
 11
-29.5999999999994
 21
-109.2309401076759
 31
0.0
  0
LINE
  5
13635
330
1F
100
AcDbEntity
  8
AM_11
100
AcDbLine
 10
-29.99999999999954
 20
-109.0
 30
0.0
 11
-29.99999999999948
 21
-108.5381197846484
 31
0.0
  0
ARC
  5
13636
330
1F
100
AcDbEntity
  8
AM_0
100
AcDbCircle
 10
-29.19999999999943
 20
-108.5381197846484
 30
0.0
 40
0.8
100
AcDbArc
 50
180.0000000000004
 51
239.9999999999999
1001
GENIUS_GENODEF_13
1002
{
1000
HIER
1070
     0
1002
}
1002
{
1000
MANEDIT
1070
     0
1002
}
1002
{
1000
NOSEL
1070
     0
1002
}
1002
{
1000
BEHIND
1070
     0
1002
}
1002
{
1000
REACTOR
1002
}
1001
GENIUS_GENOBJ-N-FIL_13
1002
{
1000
OWNER
1000
GEN
1002
}
  0
LINE
  5
13637
330
1F
100
AcDbEntity
  8
AM_0
100
AcDbLine
 10
-14.39999999999957
 20
-125.745
 30
0.0
 11
-14.39999999999957
 21
-119.5066641993581
 31
0.0
  0
LINE
  5
13638
330
1F
100
AcDbEntity
  8
AM_0
100
AcDbLine
 10
-14.39999999999957
 20
-119.5066641993581
 30
0.0
 11
-15.69903810567626
 21
-117.2566641993581
 31
0.0
1001
GENIUS_GENFIL_13
1070
     0
1040
1.5
1040
1.5
1040
20.0
1040
0.0
1002
{
1002
}
1001
GENIUS_GENODEF_13
1002
{
1000
HIER
1070
     0
1002
}
1002
{
1000
MANEDIT
1070
     0
1002
}
1002
{
1000
NOSEL
1070
     0
1002
}
1002
{
1000
BEHIND
1070
     0
1002
}
1002
{
1000
REACTOR
1002
}
1001
GENIUS_GENOBJ-N-CHA_13
1002
{
1000
OWNER
1000
GEN
1002
}
  0
LINE
  5
13639
330
1F
100
AcDbEntity
  8
AM_0
100
AcDbLine
 10
-15.39937677684434
 20
-127.7449999999999
 30
0.0
 11
-14.39937677684435
 21
-127.7449999999999
 31
0.0
  0
LINE
  5
1363A
330
1F
100
AcDbEntity
  8
AM_0
100
AcDbLine
 10
-15.39937677684434
 20
-125.745
 30
0.0
 11
-14.39999999999957
 21
-125.745
 31
0.0
  0
LINE
  5
1363B
330
1F
100
AcDbEntity
  8
AM_0
100
AcDbLine
 10
-15.39937677684434
 20
-125.745
 30
0.0
 11
-15.39937677684434
 21
-127.7449999999999
 31
0.0
  0
DIMENSION
  5
13813
330
1F
100
AcDbEntity
  8
AM_5
100
AcDbDimension
  2
*D5
 10
-88.32409633116832
 20
-12.70000000000004
 30
0.0
 11
-88.32409633116832
 21
-0.0000000000001492
 31
0.0
 70
   160
 71
     5
 42
-1.0
  3
AM_JIS
100
AcDbAlignedDimension
 13
-68.69999999999999
 23
12.70000000000005
 33
0.0
 14
-68.70000000000003
 24
-12.70000000000004
 34
0.0
 50
90.0
100
AcDbRotatedDimension
  0
DIMENSION
  5
13814
330
1F
100
AcDbEntity
  8
AM_5
100
AcDbDimension
  2
*D4
 10
-98.32409633116832
 20
-23.81250000000001
 30
0.0
 11
-101.4240963311683
 21
-0.0000000000000043
 31
0.0
 70
    32
  1
%%c<>
 71
     5
 42
-1.0
  3
AM_JIS
100
AcDbAlignedDimension
 13
-68.20000000000003
 23
23.81250000000002
 33
0.0
 14
-68.20000000000003
 24
-23.81250000000002
 34
0.0
 50
90.0
100
AcDbRotatedDimension
1001
GENIUS_GENDTOL_13
1000

1000
h7
1000

1040
0.0
  0
DIMENSION
  5
13815
330
1F
100
AcDbEntity
  8
AM_5
100
AcDbDimension
  2
*D3
 10
-118.3240963311684
 20
-161.4
 30
0.0
 11
-121.4240963311683
 21
-0.0000000000000066
 31
0.0
 70
    32
  1
%%c<>
 71
     5
 42
-1.0
  3
AM_JIS
100
AcDbAlignedDimension
 13
-53.46534602404165
 23
161.4
 33
0.0
 14
-53.46534602404165
 24
-161.4
 34
0.0
 50
90.0
100
AcDbRotatedDimension
1001
GENIUS_GENDTOL_13
1000

1000
h7
1000

1040
0.0
  0
DIMENSION
  5
13816
330
1F
100
AcDbEntity
  8
AM_5
100
AcDbDimension
  2
*D2
 10
-108.3240963311683
 20
-119.9999999999997
 30
0.0
 11
-111.4240963311682
 21
0.0000000000001065
 31
0.0
 70
    32
  1
%%c<>
 71
     5
 42
-1.0
  3
AM_JIS
100
AcDbAlignedDimension
 13
-68.19999999999976
 23
120.0
 33
0.0
 14
-68.19999999999999
 24
-119.9999999999997
 34
0.0
 50
90.0
100
AcDbRotatedDimension
1001
GENIUS_GENDTOL_13
1000

1000
h7
1000

1040
0.0
  0
DIMENSION
  5
13817
330
1F
100
AcDbEntity
  8
AM_5
100
AcDbDimension
  2
*D8
 10
0.0000000000002812
 20
-206.772182
 30
0.0
 11
-34.99999999999974
 21
-203.672182
 31
0.0
 70
    32
 71
     5
 42
-1.0
  3
AM_JIS
100
AcDbAlignedDimension
 13
-69.99999999999977
 23
-118.1999999999999
 33
0.0
 14
0.0000000000002842
 24
-157.5
 34
0.0
100
AcDbRotatedDimension
  0
DIMENSION
  5
13818
330
1F
100
AcDbEntity
  8
AM_5
100
AcDbDimension
  2
*D9
 10
-29.99999999999955
 20
-196.772182
 30
0.0
 11
-49.99999999999966
 21
-193.672182
 31
0.0
 70
    32
 71
     5
 42
-1.0
  3
AM_JIS
100
AcDbAlignedDimension
 13
-69.99999999999977
 23
-118.1999999999999
 33
0.0
 14
-29.99999999999954
 24
-109.0
 34
0.0
100
AcDbRotatedDimension
  0
DIMENSION
  5
13819
330
1F
100
AcDbEntity
  8
AM_5
100
AcDbDimension
  2
*D7
 10
-38.00000000000029
 20
-186.7721819999999
 30
0.0
 11
-54.00000000000003
 21
-183.6721819999999
 31
0.0
 70
    32
  1
<>
 71
     5
 42
-1.0
  3
AM_JIS$0
100
AcDbAlignedDimension
 13
-69.99999999999977
 23
-118.1999999999999
 33
0.0
 14
-38.00000000000029
 24
-63.80000000000001
 34
0.0
 50
0.0000000000001018
100
AcDbRotatedDimension
1001
ACAD
1000
DSTYLE
1002
{
1070
    40
1040
1.0
1070
    43
1040
12.0
1070
   140
1040
3.2
1070
   147
1040
1.5
1070
   178
1070
     2
1002
}
1001
GENIUS_GENDTOL_13
1000

1000
h7
1000

1040
0.0
  0
DIMENSION
  5
1381A
330
1F
100
AcDbEntity
  8
AM_5
100
AcDbDimension
  2
*D6
 10
-56.50000000000019
 20
-176.772182
 30
0.0
 11
-63.24999999999997
 21
-173.672182
 31
0.0
 70
    32
 71
     5
 42
-1.0
  3
AM_JIS
100
AcDbAlignedDimension
 13
-69.99999999999977
 23
-118.1999999999999
 33
0.0
 14
-56.50000000000017
 24
-11.70000000000009
 34
0.0
100
AcDbRotatedDimension
  0
DIMENSION
  5
1381B
330
1F
100
AcDbEntity
  8
AM_5
100
AcDbDimension
  2
*D11
 10
30.9283001228789
 20
-157.5
 30
0.0
 11
27.82830012287894
 21
-0.0000000000000015
 31
0.0
 70
    32
  1
%%c<>
 71
     5
 42
-1.0
  3
AM_JIS$0
100
AcDbAlignedDimension
 13
0.0000000000002842
 23
157.5
 33
0.0
 14
0.0000000000002842
 24
-157.5
 34
0.0
 50
90.0
100
AcDbRotatedDimension
1001
ACAD
1000
DSTYLE
1002
{
1070
    40
1040
1.0
1070
    43
1040
12.0
1070
   140
1040
3.2
1070
   147
1040
1.5
1070
   178
1070
     2
1002
}
1001
GENIUS_GENDTOL_13
1000

1000
h7
1000

1040
0.0
  0
DIMENSION
  5
1381C
330
1F
100
AcDbEntity
  8
AM_5
100
AcDbDimension
  2
*D10
 10
20.92830012287894
 20
-109.0
 30
0.0
 11
20.92830012287896
 21
0.8749999999998863
 31
0.0
 70
   160
  1
%%c<>
 71
     5
 42
-1.0
  3
AM_JIS
100
AcDbAlignedDimension
 13
-29.99999999999954
 23
109.0
 33
0.0
 14
-29.99999999999954
 24
-109.0
 34
0.0
 50
90.0
100
AcDbRotatedDimension
1001
GENIUS_GENDTOL_13
1000

1000
h7
1000

1040
0.0
  0
LINE
  5
13A46
330
1F
100
AcDbEntity
  8
AM_11
100
AcDbLine
 10
0.0000000000002842
 20
157.5
 30
0.0
 11
-0.0000000000003411
 21
-157.5000000000021
 31
0.0
  0
LINE
  5
13ABC
330
1F
100
AcDbEntity
  8
AM_0
100
AcDbLine
 10
-32.29999999999938
 20
161.3999999999999
 30
0.0
 11
-31.99999999999971
 21
161.1000000000002
 31
0.0
  0
LINE
  5
13AC1
330
1F
100
AcDbEntity
  8
AM_0
100
AcDbLine
 10
-6.505665191330521
 20
144.6731191236412
 30
0.0
 11
-14.39937677684435
 21
127.7449999999999
 31
0.0
  0
LINE
  5
13AC2
330
1F
100
AcDbEntity
  8
AM_0
100
AcDbLine
 10
-1.899999999999579
 20
150.6983388475927
 30
0.0
 11
-1.899999999999464
 21
0.0
 31
0.0
  0
LINE
  5
13CE1
330
1F
100
AcDbEntity
  8
AM_0
100
AcDbLine
 10
-15.69903810567626
 20
117.2566641993581
 30
0.0
 11
-15.69903810567618
 21
0.0
 31
0.0
  0
LINE
  5
13CE2
330
1F
100
AcDbEntity
  8
AM_0
100
AcDbLine
 10
-15.69903810567618
 20
0.0
 30
0.0
 11
-15.69903810567626
 21
-117.2566641993581
 31
0.0
  0
LINE
  5
13E58
330
1F
100
AcDbEntity
  8
0
100
AcDbLine
 10
-10.53511927084173
 20
161.2128556807348
 30
0.0
 11
-10.91882199999963
 21
161.4
 31
0.0
  0
LINE
  5
13E59
330
1F
100
AcDbEntity
  8
0
100
AcDbLine
 10
-31.99999999999955
 20
153.3999999999999
 30
0.0
 11
-31.99999999999955
 21
161.4
 31
0.0
  0
LINE
  5
13E5A
330
1F
100
AcDbEntity
  8
0
100
AcDbLine
 10
-31.99999999999955
 20
153.3999999999999
 30
0.0
 11
-25.99999999999955
 21
153.3999999999999
 31
0.0
  0
LINE
  5
13E5B
330
1F
100
AcDbEntity
  8
0
100
AcDbLine
 10
-25.99999999999955
 20
153.3999999999999
 30
0.0
 11
-25.99999999999955
 21
161.4
 31
0.0
  0
LINE
  5
13E5C
330
1F
100
AcDbEntity
  8
0
100
AcDbLine
 10
-10.91882199999963
 20
161.4
 30
0.0
 11
-25.99999999999955
 21
161.4
 31
0.0
  0
LINE
  5
13E5D
330
1F
100
AcDbEntity
  8
0
100
AcDbLine
 10
-13.66152499999953
 20
154.153509
 30
0.0
 11
-13.66152499999953
 21
151.653569
 31
0.0
  0
LINE
  5
13E5E
330
1F
100
AcDbEntity
  8
0
100
AcDbLine
 10
0.0000000000004547
 20
155.0015469999999
 30
0.0
 11
0.0000000000004547
 21
157.5
 31
0.0
  0
LINE
  5
13E5F
330
1F
100
AcDbEntity
  8
0
100
AcDbLine
 10
-31.99999999999955
 20
161.2742359999999
 30
0.0
 11
-31.99999999999955
 21
161.486742
 31
0.0
  0
SPLINE
  5
13E60
330
1F
100
AcDbEntity
  8
0
100
AcDbSpline
210
0.0
220
0.0
230
1.0
 70
     8
 71
     3
 72
    11
 73
     7
 74
     5
 42
0.0000000001
 43
0.0000000001
 44
0.0000000001
 40
0.0
 40
0.0
 40
0.0
 40
0.0
 40
0.0558402427017798
 40
0.111680080210569
 40
0.1675195125590172
 40
0.2233594198117767
 40
0.2233594198117767
 40
0.2233594198117767
 40
0.2233594198117767
 10
-17.0142479999995
 20
162.876457
 30
0.0
 10
-17.03062904461444
 20
162.8852955839817
 30
0.0
 10
-17.0633910149786
 20
162.9029726878096
 30
0.0
 10
-17.11253298917677
 20
162.9294897356678
 30
0.0
 10
-17.16167421678642
 20
162.9560079316109
 30
0.0
 10
-17.19443469249131
 20
162.9736872854771
 30
0.0
 10
-17.21081499999946
 20
162.982527
 30
0.0
 11
-17.0142479999995
 21
162.876457
 31
0.0
 11
-17.06339099999945
 21
162.902973
 31
0.0
 11
-17.11253299999953
 21
162.92949
 31
0.0
 11
-17.16167399999949
 21
162.956008
 31
0.0
 11
-17.21081499999946
 21
162.982527
 31
0.0
  0
SPLINE
  5
13E61
330
1F
100
AcDbEntity
  8
0
100
AcDbSpline
210
0.0
220
0.0
230
1.0
 70
     8
 71
     3
 72
    11
 73
     7
 74
     5
 42
0.0000000001
 43
0.0000000001
 44
0.0000000001
 40
0.0
 40
0.0
 40
0.0
 40
0.0
 40
4.435765946942708
 40
8.871514868098952
 40
13.30726377529562
 40
17.74303110557104
 40
17.74303110557104
 40
17.74303110557104
 40
17.74303110557104
 10
-17.0142479999995
 20
162.876457
 30
0.0
 10
-15.71261202866071
 20
162.1750514517915
 30
0.0
 10
-13.10934508204878
 20
160.7722430475772
 30
0.0
 10
-9.199220671765488
 20
158.6777556137634
 30
0.0
 10
-5.285443843984012
 20
156.5900983022543
 30
0.0
 10
-2.672440423429634
 20
155.2055090591894
 30
0.0
 10
-1.365935999999464
 20
154.5132129999999
 30
0.0
 11
-17.0142479999995
 21
162.876457
 31
0.0
 11
-13.10846899999956
 21
160.773861
 31
0.0
 11
-9.198611999999457
 21
158.678894
 31
0.0
 11
-5.284494999999651
 21
156.591897
 31
0.0
 11
-1.365935999999464
 21
154.5132129999999
 31
0.0
  0
SPLINE
  5
13E62
330
1F
100
AcDbEntity
  8
0
100
AcDbSpline
210
0.0
220
0.0
230
1.0
 70
     8
 71
     3
 72
    11
 73
     7
 74
     5
 42
0.0000000001
 43
0.0000000001
 44
0.0000000001
 40
0.0
 40
0.0
 40
0.0
 40
0.0
 40
0.0139155155134062
 40
0.0278310310265852
 40
0.0417475864193782
 40
0.0556631019325549
 40
0.0556631019325549
 40
0.0556631019325549
 40
0.0556631019325549
 10
-17.21081499999946
 20
162.982527
 30
0.0
 10
-17.21544966550505
 20
162.9827156951668
 30
0.0
 10
-17.22471899651623
 20
162.9830930855005
 30
0.0
 10
-17.23862336027355
 20
162.9836586720857
 30
0.0
 10
-17.25252764042238
 20
162.9842263108124
 30
0.0
 10
-17.26179732892046
 20
162.9846034416343
 30
0.0
 10
-17.26643199999944
 20
162.984792
 30
0.0
 11
-17.21081499999946
 21
162.982527
 31
0.0
 11
-17.22471899999959
 21
162.983093
 31
0.0
 11
-17.2386229999995
 21
162.983659
 31
0.0
 11
-17.25252799999953
 21
162.984226
 31
0.0
 11
-17.26643199999944
 21
162.984792
 31
0.0
  0
SPLINE
  5
13E63
330
1F
100
AcDbEntity
  8
0
100
AcDbSpline
210
0.0
220
0.0
230
1.0
 70
     8
 71
     3
 72
    11
 73
     7
 74
     5
 42
0.0000000001
 43
0.0000000001
 44
0.0000000001
 40
0.0
 40
0.0
 40
0.0
 40
0.0
 40
4.474618386296313
 40
8.949237735099575
 40
13.42385704708803
 40
17.89847535975438
 40
17.89847535975438
 40
17.89847535975438
 40
17.89847535975438
 10
-17.92536299999961
 20
145.09845
 30
0.0
 10
-17.87045159821309
 20
146.5889783308115
 30
0.0
 10
-17.76062878282846
 20
149.5700353130527
 30
0.0
 10
-17.59589578645614
 20
154.0416209798531
 30
0.0
 10
-17.43116407495904
 20
158.5132066694281
 30
0.0
 10
-17.32134268756476
 20
161.4942636674365
 30
0.0
 10
-17.26643199999944
 20
162.984792
 30
0.0
 11
-17.92536299999961
 21
145.09845
 31
0.0
 11
-17.76062899999965
 21
149.570035
 31
0.0
 11
-17.59589599999958
 21
154.0416209999999
 31
0.0
 11
-17.43116399999962
 21
158.513207
 31
0.0
 11
-17.26643199999944
 21
162.984792
 31
0.0
  0
SPLINE
  5
13E64
330
1F
100
AcDbEntity
  8
0
100
AcDbSpline
210
0.0
220
0.0
230
1.0
 70
     8
 71
     3
 72
    11
 73
     7
 74
     5
 42
0.0000000001
 43
0.0000000001
 44
0.0000000001
 40
0.0
 40
0.0
 40
0.0
 40
0.0
 40
0.2299119562354629
 40
0.4598244200167152
 40
0.6897363162225652
 40
0.9196477735383666
 40
0.9196477735383666
 40
0.9196477735383666
 40
0.9196477735383666
 10
-17.00648399999954
 20
145.060855
 30
0.0
 10
-17.08305810974184
 20
145.0639669725343
 30
0.0
 10
-17.23620649826921
 20
145.0701909244728
 30
0.0
 10
-17.46592700117912
 20
145.0795753426005
 30
0.0
 10
-17.69564619664265
 20
145.0889876519046
 30
0.0
 10
-17.84879078093831
 20
145.0952958859752
 30
0.0
 10
-17.92536299999961
 20
145.09845
 30
0.0
 11
-17.00648399999954
 21
145.060855
 31
0.0
 11
-17.23620599999958
 21
145.070199
 31
0.0
 11
-17.46592699999951
 21
145.0795799999999
 31
0.0
 11
-17.69564599999944
 21
145.088996
 31
0.0
 11
-17.92536299999961
 21
145.09845
 31
0.0
  0
SPLINE
  5
13E65
330
1F
100
AcDbEntity
  8
0
100
AcDbSpline
210
0.0
220
0.0
230
1.0
 70
     8
 71
     3
 72
    11
 73
     7
 74
     5
 42
0.0000000001
 43
0.0000000001
 44
0.0000000001
 40
0.0
 40
0.0
 40
0.0
 40
0.0
 40
2.709639796944926
 40
5.419270367574409
 40
8.128900910741599
 40
10.83854061954781
 40
10.83854061954781
 40
10.83854061954781
 40
10.83854061954781
 10
-17.00648399999954
 20
145.060855
 30
0.0
 10
-16.10399419659211
 20
145.0247038861365
 30
0.0
 10
-14.2990176627527
 20
144.952401781504
 30
0.0
 10
-11.59129886997584
 20
144.8504967099768
 30
0.0
 10
-8.883418941405352
 20
144.752967386641
 30
0.0
 10
-7.078012664965626
 20
144.692337829728
 30
0.0
 10
-6.175307999999631
 20
144.6620229999999
 30
0.0
 11
-17.00648399999954
 21
145.060855
 31
0.0
 11
-14.29897199999959
 21
144.9534929999999
 31
0.0
 11
-11.59127199999943
 21
144.851226
 31
0.0
 11
-8.883383999999523
 21
144.7540649999999
 31
0.0
 11
-6.175307999999631
 21
144.6620229999999
 31
0.0
  0
SPLINE
  5
13E66
330
1F
100
AcDbEntity
  8
0
100
AcDbSpline
210
0.0
220
0.0
230
1.0
 70
     8
 71
     3
 72
    11
 73
     7
 74
     5
 42
0.0000000001
 43
0.0000000001
 44
0.0000000001
 40
0.0
 40
0.0
 40
0.0
 40
0.0
 40
2.740620747690146
 40
5.481240752784731
 40
8.221861257952351
 40
10.96248170408799
 40
10.96248170408799
 40
10.96248170408799
 40
10.96248170408799
 10
-6.175307999999631
 20
144.6620229999999
 30
0.0
 10
-5.774375784466201
 20
145.4828817865462
 30
0.0
 10
-4.972511462035981
 20
147.1245991372199
 30
0.0
 10
-3.770066839059609
 20
149.5873470439236
 30
0.0
 10
-2.567844787057538
 20
152.050203495522
 30
0.0
 10
-1.766572259475651
 20
153.6922098377354
 30
0.0
 10
-1.365935999999464
 20
154.5132129999999
 30
0.0
 11
-6.175307999999631
 21
144.6620229999999
 31
0.0
 11
-4.97256999999945
 21
147.124628
 31
0.0
 11
-3.770103999999491
 21
149.587365
 31
0.0
 11
-2.567896999999447
 21
152.050229
 31
0.0
 11
-1.365935999999464
 21
154.5132129999999
 31
0.0
  0
SPLINE
  5
13E67
330
1F
100
AcDbEntity
  8
0
100
AcDbSpline
210
0.0
220
0.0
230
1.0
 70
     8
 71
     3
 72
    11
 73
     7
 74
     5
 42
0.0000000001
 43
0.0000000001
 44
0.0000000001
 40
0.0
 40
0.0
 40
0.0
 40
0.0
 40
0.0558402427017798
 40
0.111680080210569
 40
0.1675195125590172
 40
0.2233594198117767
 40
0.2233594198117767
 40
0.2233594198117767
 40
0.2233594198117767
 10
-17.0142479999995
 20
162.876457
 30
0.0
 10
-17.03062904461444
 20
162.8852955839817
 30
0.0
 10
-17.0633910149786
 20
162.9029726878096
 30
0.0
 10
-17.11253298917677
 20
162.9294897356678
 30
0.0
 10
-17.16167421678642
 20
162.9560079316109
 30
0.0
 10
-17.19443469249131
 20
162.9736872854771
 30
0.0
 10
-17.21081499999946
 20
162.982527
 30
0.0
 11
-17.0142479999995
 21
162.876457
 31
0.0
 11
-17.06339099999945
 21
162.902973
 31
0.0
 11
-17.11253299999953
 21
162.92949
 31
0.0
 11
-17.16167399999949
 21
162.956008
 31
0.0
 11
-17.21081499999946
 21
162.982527
 31
0.0
  0
SPLINE
  5
13E68
330
1F
100
AcDbEntity
  8
0
100
AcDbSpline
210
0.0
220
0.0
230
1.0
 70
     8
 71
     3
 72
    11
 73
     7
 74
     5
 42
0.0000000001
 43
0.0000000001
 44
0.0000000001
 40
0.0
 40
0.0
 40
0.0
 40
0.0
 40
4.435765946942708
 40
8.871514868098952
 40
13.30726377529562
 40
17.74303110557104
 40
17.74303110557104
 40
17.74303110557104
 40
17.74303110557104
 10
-17.0142479999995
 20
162.876457
 30
0.0
 10
-15.71261202866071
 20
162.1750514517915
 30
0.0
 10
-13.10934508204878
 20
160.7722430475772
 30
0.0
 10
-9.199220671765488
 20
158.6777556137634
 30
0.0
 10
-5.285443843984012
 20
156.5900983022543
 30
0.0
 10
-2.672440423429634
 20
155.2055090591894
 30
0.0
 10
-1.365935999999464
 20
154.5132129999999
 30
0.0
 11
-17.0142479999995
 21
162.876457
 31
0.0
 11
-13.10846899999956
 21
160.773861
 31
0.0
 11
-9.198611999999457
 21
158.678894
 31
0.0
 11
-5.284494999999651
 21
156.591897
 31
0.0
 11
-1.365935999999464
 21
154.5132129999999
 31
0.0
  0
SPLINE
  5
13E69
330
1F
100
AcDbEntity
  8
0
100
AcDbSpline
210
0.0
220
0.0
230
1.0
 70
     8
 71
     3
 72
    11
 73
     7
 74
     5
 42
0.0000000001
 43
0.0000000001
 44
0.0000000001
 40
0.0
 40
0.0
 40
0.0
 40
0.0
 40
1.904548868591161
 40
3.809095986470171
 40
5.713642787050231
 40
7.618191667333724
 40
7.618191667333724
 40
7.618191667333724
 40
7.618191667333724
 10
-7.189393999999538
 20
161.740142
 30
0.0
 10
-6.617850265701918
 20
161.4637873806609
 30
0.0
 10
-5.474763322484932
 20
160.9110783960153
 30
0.0
 10
-3.759096484094243
 20
160.0841622377855
 30
0.0
 10
-2.042725309167281
 20
159.2587089269282
 30
0.0
 10
-0.8977619780991972
 20
158.7098977421899
 30
0.0
 10
-0.3252799999995659
 20
158.4354919999999
 30
0.0
 11
-7.189393999999538
 21
161.740142
 31
0.0
 11
-5.474589999999579
 21
160.9114359999999
 31
0.0
 11
-3.758978999999499
 21
160.084406
 31
0.0
 11
-2.042546999999558
 21
159.259082
 31
0.0
 11
-0.3252799999995659
 21
158.4354919999999
 31
0.0
  0
SPLINE
  5
13E6A
330
1F
100
AcDbEntity
  8
0
100
AcDbSpline
210
0.0
220
0.0
230
1.0
 70
     8
 71
     3
 72
    11
 73
     7
 74
     5
 42
0.0000000001
 43
0.0000000001
 44
0.0000000001
 40
0.0
 40
0.0
 40
0.0
 40
0.0
 40
0.594419261754628
 40
1.188839146418811
 40
1.783258749161725
 40
2.377678153987059
 40
2.377678153987059
 40
2.377678153987059
 40
2.377678153987059
 10
-7.189393999999538
 20
161.740142
 30
0.0
 10
-7.387529900435538
 20
161.7389058091763
 30
0.0
 10
-7.783801908939722
 20
161.7364334262337
 30
0.0
 10
-8.378211723695358
 20
161.7330222869
 30
0.0
 10
-8.972622680132417
 20
161.7298074289976
 30
0.0
 10
-9.368897582034605
 20
161.7278624762246
 30
0.0
 10
-9.567034999999577
 20
161.72689
 30
0.0
 11
-7.189393999999538
 21
161.740142
 31
0.0
 11
-7.783801999999468
 21
161.736483
 31
0.0
 11
-8.378211999999621
 21
161.733055
 31
0.0
 11
-8.972622999999657
 21
161.729857
 31
0.0
 11
-9.567034999999577
 21
161.72689
 31
0.0
  0
SPLINE
  5
13E6B
330
1F
100
AcDbEntity
  8
0
100
AcDbSpline
210
0.0
220
0.0
230
1.0
 70
     8
 71
     3
 72
    11
 73
     7
 74
     5
 42
0.0000000001
 43
0.0000000001
 44
0.0000000001
 40
0.0
 40
0.0
 40
0.0
 40
0.0
 40
0.2395876420352804
 40
0.479173924868786
 40
0.7187609275649596
 40
0.9583478716521899
 40
0.9583478716521899
 40
0.9583478716521899
 40
0.9583478716521899
 10
-9.567034999999577
 20
161.72689
 30
0.0
 10
-9.641504293140769
 20
161.6980395084691
 30
0.0
 10
-9.790442456952177
 20
161.6403386890786
 30
0.0
 10
-10.01386243857246
 20
161.553820302517
 30
0.0
 10
-10.23729291441555
 20
161.4673296650547
 30
0.0
 10
-10.38625497754492
 20
161.4096905526682
 30
0.0
 10
-10.46073599999954
 20
161.3808709999999
 30
0.0
 11
-9.567034999999577
 21
161.72689
 31
0.0
 11
-9.790444999999635
 21
161.640344
 31
0.0
 11
-10.01386399999955
 21
161.5538249999999
 31
0.0
 11
-10.23729499999945
 21
161.467335
 31
0.0
 11
-10.46073599999954
 21
161.3808709999999
 31
0.0
  0
SPLINE
  5
13E6C
330
1F
100
AcDbEntity
  8
0
100
AcDbSpline
210
0.0
220
0.0
230
1.0
 70
     8
 71
     3
 72
    11
 73
     7
 74
     5
 42
0.0000000001
 43
0.0000000001
 44
0.0000000001
 40
0.0
 40
0.0
 40
0.0
 40
0.0
 40
1.97610427365061
 40
3.952208638155907
 40
5.928312896604782
 40
7.904417255896063
 40
7.904417255896063
 40
7.904417255896063
 40
7.904417255896063
 10
-13.66152499999953
 20
154.153509
 30
0.0
 10
-13.39471281092506
 20
154.7557538197986
 30
0.0
 10
-12.8610884205093
 20
155.9602434870853
 30
0.0
 10
-12.06083524641531
 20
157.767059213164
 30
0.0
 10
-11.26070066815828
 20
159.5739274924158
 30
0.0
 10
-10.72739089392189
 20
160.7785564872263
 30
0.0
 10
-10.46073599999954
 20
161.3808709999999
 30
0.0
 11
-13.66152499999953
 21
154.153509
 31
0.0
 11
-12.86111899999946
 21
155.960257
 31
0.0
 11
-12.06085499999949
 21
157.767068
 31
0.0
 11
-11.26072899999963
 21
159.57394
 31
0.0
 11
-10.46073599999954
 21
161.3808709999999
 31
0.0
  0
SPLINE
  5
13E6D
330
1F
100
AcDbEntity
  8
0
100
AcDbSpline
210
0.0
220
0.0
230
1.0
 70
     8
 71
     3
 72
    11
 73
     7
 74
     5
 42
0.0000000001
 43
0.0000000001
 44
0.0000000001
 40
0.0
 40
0.0
 40
0.0
 40
0.0
 40
0.248409951195578
 40
0.4968202297470045
 40
0.7452311630209517
 40
0.9936418061362781
 40
0.9936418061362781
 40
0.9936418061362781
 40
0.9936418061362781
 10
-13.66152499999953
 20
151.653569
 30
0.0
 10
-13.63441904967158
 20
151.5753279827915
 30
0.0
 10
-13.58020711329504
 20
151.4188458452681
 30
0.0
 10
-13.49888822533126
 20
151.1841226909674
 30
0.0
 10
-13.41756748121588
 20
150.9493999356366
 30
0.0
 10
-13.36335181651702
 20
150.7929186147489
 30
0.0
 10
-13.33624399999962
 20
150.714678
 30
0.0
 11
-13.66152499999953
 21
151.653569
 31
0.0
 11
-13.58020699999952
 21
151.418846
 31
0.0
 11
-13.49888799999962
 21
151.184123
 31
0.0
 11
-13.41756699999951
 21
150.9493999999999
 31
0.0
 11
-13.33624399999962
 21
150.714678
 31
0.0
  0
SPLINE
  5
13E6E
330
1F
100
AcDbEntity
  8
0
100
AcDbSpline
210
0.0
220
0.0
230
1.0
 70
     8
 71
     3
 72
    11
 73
     7
 74
     5
 42
0.0000000001
 43
0.0000000001
 44
0.0000000001
 40
0.0
 40
0.0
 40
0.0
 40
0.0
 40
1.907406903568264
 40
3.81481264259429
 40
5.722217019274998
 40
7.629623786327131
 40
7.629623786327131
 40
7.629623786327131
 40
7.629623786327131
 10
-6.472130999999535
 20
147.383757
 30
0.0
 10
-7.044634025784716
 20
147.6603161000497
 30
0.0
 10
-8.189639727820349
 20
148.2134341312996
 30
0.0
 10
-9.906025234138951
 20
149.0454310931201
 30
0.0
 10
-11.62167484315682
 20
149.8789442872495
 30
0.0
 10
-12.76472070897353
 20
150.4360999793781
 30
0.0
 10
-13.33624399999962
 20
150.714678
 30
0.0
 11
-6.472130999999535
 21
147.383757
 31
0.0
 11
-8.189452999999502
 21
148.213821
 31
0.0
 11
-9.905902999999625
 21
149.045684
 31
0.0
 11
-11.62149399999953
 21
149.879314
 31
0.0
 11
-13.33624399999962
 21
150.714678
 31
0.0
  0
SPLINE
  5
13E6F
330
1F
100
AcDbEntity
  8
0
100
AcDbSpline
210
0.0
220
0.0
230
1.0
 70
     8
 71
     3
 72
    11
 73
     7
 74
     5
 42
0.0000000001
 43
0.0000000001
 44
0.0000000001
 40
0.0
 40
0.0
 40
0.0
 40
0.0
 40
0.59443159814389
 40
1.188862196994624
 40
1.783292895665251
 40
2.377724818893569
 40
2.377724818893569
 40
2.377724818893569
 40
2.377724818893569
 10
-6.472130999999535
 20
147.383757
 30
0.0
 10
-6.273992858116571
 20
147.3852635647915
 30
0.0
 10
-5.877716907438752
 20
147.3882766918419
 30
0.0
 10
-5.28330566858267
 20
147.393122214536
 30
0.0
 10
-4.688896110237692
 20
147.3981824527143
 30
0.0
 10
-4.292624839468999
 20
147.4017741496716
 30
0.0
 10
-4.094488999999612
 20
147.40357
 30
0.0
 11
-6.472130999999535
 21
147.383757
 31
0.0
 11
-5.87771699999962
 21
147.388331
 31
0.0
 11
-5.283305999999583
 21
147.3931579999999
 31
0.0
 11
-4.688896999999542
 21
147.398237
 31
0.0
 11
-4.094488999999612
 21
147.40357
 31
0.0
  0
SPLINE
  5
13E70
330
1F
100
AcDbEntity
  8
0
100
AcDbSpline
210
0.0
220
0.0
230
1.0
 70
     8
 71
     3
 72
    11
 73
     7
 74
     5
 42
0.0000000001
 43
0.0000000001
 44
0.0000000001
 40
0.0
 40
0.0
 40
0.0
 40
0.0
 40
0.2399804772892899
 40
0.4799612939935544
 40
0.7199415231312165
 40
0.9599217345821308
 40
0.9599217345821308
 40
0.9599217345821308
 40
0.9599217345821308
 10
-4.094488999999612
 20
147.40357
 30
0.0
 10
-4.02000753028733
 20
147.4327499506519
 30
0.0
 10
-3.87104448551986
 20
147.4911098932262
 30
0.0
 10
-3.64761450289302
 20
147.5786866445754
 30
0.0
 10
-3.424194679466154
 20
147.6662890672154
 30
0.0
 10
-3.27525755799229
 20
147.724714356456
 30
0.0
 10
-3.200788999999531
 20
147.753927
 30
0.0
 11
-4.094488999999612
 21
147.40357
 31
0.0
 11
-3.871046999999634
 21
147.491116
 31
0.0
 11
-3.647615999999516
 21
147.578691
 31
0.0
 11
-3.424196999999594
 21
147.666295
 31
0.0
 11
-3.200788999999531
 21
147.753927
 31
0.0
  0
SPLINE
  5
13E71
330
1F
100
AcDbEntity
  8
0
100
AcDbSpline
210
0.0
220
0.0
230
1.0
 70
     8
 71
     3
 72
    11
 73
     7
 74
     5
 42
0.0000000001
 43
0.0000000001
 44
0.0000000001
 40
0.0
 40
0.0
 40
0.0
 40
0.0
 40
1.980735938903769
 40
3.961471427212329
 40
5.942208086327089
 40
7.922944283383595
 40
7.922944283383595
 40
7.922944283383595
 40
7.922944283383595
 10
0.0000000000004547
 20
155.0015469999999
 30
0.0
 10
-0.2666772987543027
 20
154.3975543743424
 30
0.0
 10
-0.8000318355980198
 20
153.1895692604288
 30
0.0
 10
-1.600184390568301
 20
151.3776445630741
 30
0.0
 10
-2.400419582872473
 20
149.565756266535
 30
0.0
 10
-2.933999215035555
 20
148.3578700418831
 30
0.0
 10
-3.200788999999531
 20
147.753927
 30
0.0
 11
0.0000000000004547
 21
155.0015469999999
 31
0.0
 11
-0.8000519999995958
 21
153.189578
 31
0.0
 11
-1.600197999999636
 21
151.377651
 31
0.0
 11
-2.400441999999657
 21
149.565766
 31
0.0
 11
-3.200788999999531
 21
147.753927
 31
0.0
  0
SPLINE
  5
13E72
330
1F
100
AcDbEntity
  8
0
100
AcDbSpline
210
0.0
220
0.0
230
1.0
 70
     8
 71
     3
 72
    11
 73
     7
 74
     5
 42
0.0000000001
 43
0.0000000001
 44
0.0000000001
 40
0.0
 40
0.0
 40
0.0
 40
0.0
 40
0.2476079670770072
 40
0.4952149488545843
 40
0.7428231628479603
 40
0.9904303916034685
 40
0.9904303916034685
 40
0.9904303916034685
 40
0.9904303916034685
 10
0.0000000000004547
 20
157.5
 30
0.0
 10
-0.0271081976409278
 20
157.5779572646087
 30
0.0
 10
-0.0813244850528463
 20
157.733871483613
 30
0.0
 10
-0.1626454396043755
 20
157.9677442820049
 30
0.0
 10
-0.2439644850765035
 20
158.2016174836428
 30
0.0
 10
-0.2981748643094306
 20
158.3575339312802
 30
0.0
 10
-0.3252799999995659
 20
158.4354919999999
 30
0.0
 11
0.0000000000004547
 21
157.5
 31
0.0
 11
-0.0813239999995403
 21
157.733872
 31
0.0
 11
-0.1626449999996566
 21
157.967744
 31
0.0
 11
-0.2439639999995506
 21
158.201618
 31
0.0
 11
-0.3252799999995659
 21
158.4354919999999
 31
0.0
  0
SPLINE
  5
13E73
330
1F
100
AcDbEntity
  8
0
100
AcDbSpline
210
0.0
220
0.0
230
1.0
 70
     8
 71
     3
 72
    11
 73
     7
 74
     5
 42
0.0000000001
 43
0.0000000001
 44
0.0000000001
 40
0.0
 40
0.0
 40
0.0
 40
0.0
 40
1.250408628627442
 40
2.500816296067464
 40
3.751223739341138
 40
5.001631851087473
 40
5.001631851087473
 40
5.001631851087473
 40
5.001631851087473
 10
-26.99999999999955
 20
161.614414
 30
0.0
 10
-27.41665173304523
 20
161.6031893472228
 30
0.0
 10
-28.24995487885667
 20
161.5807400502967
 30
0.0
 10
-29.49994416788582
 20
161.5483798599676
 30
0.0
 10
-30.74995582917745
 20
161.5169025258674
 30
0.0
 10
-31.58331853547224
 20
161.4967955104139
 30
0.0
 10
-31.99999999999955
 20
161.486742
 30
0.0
 11
-26.99999999999955
 21
161.614414
 31
0.0
 11
-28.24996099999953
 21
161.580959
 31
0.0
 11
-29.49994799999945
 21
161.548527
 31
0.0
 11
-30.74996099999953
 21
161.5171219999999
 31
0.0
 11
-31.99999999999955
 21
161.486742
 31
0.0
  0
SPLINE
  5
13E74
330
1F
100
AcDbEntity
  8
0
100
AcDbSpline
210
0.0
220
0.0
230
1.0
 70
     8
 71
     3
 72
    11
 73
     7
 74
     5
 42
0.0000000001
 43
0.0000000001
 44
0.0000000001
 40
0.0
 40
0.0
 40
0.0
 40
0.0
 40
2.666395011915045
 40
5.332782116576977
 40
7.999168401582448
 40
10.66556394927241
 40
10.66556394927241
 40
10.66556394927241
 40
10.66556394927241
 10
-16.33452099999954
 20
161.577256
 30
0.0
 10
-17.22331948174155
 20
161.5776985341206
 30
0.0
 10
-19.00091380947424
 20
161.5785836010495
 30
0.0
 10
-21.66729503865213
 20
161.585883565204
 30
0.0
 10
-24.33366257518696
 20
161.5971641373174
 30
0.0
 10
-26.11121982922941
 20
161.6086640391143
 30
0.0
 10
-26.99999999999955
 20
161.614414
 30
0.0
 11
-16.33452099999954
 21
161.577256
 31
0.0
 11
-19.00091499999962
 21
161.5795789999999
 31
0.0
 11
-21.66729299999952
 21
161.586547
 31
0.0
 11
-24.33365399999957
 21
161.598159
 31
0.0
 11
-26.99999999999955
 21
161.614414
 31
0.0
  0
SPLINE
  5
13E75
330
1F
100
AcDbEntity
  8
0
100
AcDbSpline
210
0.0
220
0.0
230
1.0
 70
     8
 71
     3
 72
    11
 73
     7
 74
     5
 42
0.0000000001
 43
0.0000000001
 44
0.0000000001
 40
0.0
 40
0.0
 40
0.0
 40
0.0
 40
1.518295186725639
 40
3.036588868746321
 40
4.554881536899912
 40
6.073176686479522
 40
6.073176686479522
 40
6.073176686479522
 40
6.073176686479522
 10
-16.33452099999954
 20
161.577256
 30
0.0
 10
-15.82842257758102
 20
161.5773993153707
 30
0.0
 10
-14.81622623431235
 20
161.5776859459701
 30
0.0
 10
-13.2979339116805
 20
161.5800542123572
 30
0.0
 10
-11.77964415907627
 20
161.5837112011169
 30
0.0
 10
-10.76745499540357
 20
161.5874403993564
 30
0.0
 10
-10.26135999999951
 20
161.5893049999999
 30
0.0
 11
-16.33452099999954
 21
161.577256
 31
0.0
 11
-14.81622599999946
 21
161.578009
 31
0.0
 11
-13.29793399999948
 21
161.580269
 31
0.0
 11
-11.7796459999995
 21
161.584034
 31
0.0
 11
-10.26135999999951
 21
161.5893049999999
 31
0.0
  0
SPLINE
  5
13E76
330
1F
100
AcDbEntity
  8
0
100
AcDbSpline
210
0.0
220
0.0
230
1.0
 70
     8
 71
     3
 72
    11
 73
     7
 74
     5
 42
0.0000000001
 43
0.0000000001
 44
0.0000000001
 40
0.0
 40
0.0
 40
0.0
 40
0.0
 40
2.140326096062197
 40
4.280624720586587
 40
6.420924628416474
 40
8.561249531409533
 40
8.561249531409533
 40
8.561249531409533
 40
8.561249531409533
 10
-23.44049099999961
 20
161.104852
 30
0.0
 10
-24.15386570744909
 20
161.1147122908808
 30
0.0
 10
-25.58060596603264
 20
161.1344327460833
 30
0.0
 10
-27.72056147161561
 20
161.1735959940858
 30
0.0
 10
-29.86039031548603
 20
161.2191373465502
 30
0.0
 10
-31.28679399550538
 20
161.2558697106883
 30
0.0
 10
-31.99999999999955
 20
161.2742359999999
 30
0.0
 11
-23.44049099999961
 21
161.104852
 31
0.0
 11
-25.58058999999957
 21
161.13603
 31
0.0
 11
-27.72053999999958
 21
161.174659
 31
0.0
 11
-29.86034399999949
 21
161.22073
 31
0.0
 11
-31.99999999999955
 21
161.2742359999999
 31
0.0
  0
SPLINE
  5
13E77
330
1F
100
AcDbEntity
  8
0
100
AcDbSpline
210
0.0
220
0.0
230
1.0
 70
     8
 71
     3
 72
    11
 73
     7
 74
     0
 42
0.0000000001
 43
0.0000000001
 40
0.0
 40
0.0
 40
0.0
 40
0.0
 40
3.367711437929324
 40
6.735405980349259
 40
10.10310025429649
 40
12.93001028678077
 40
12.93001028678077
 40
12.93001028678077
 40
12.93001028678077
 10
-23.44049099999961
 20
161.104852
 30
0.0
 10
-22.31796361933289
 20
161.1147485731582
 30
0.0
 10
-20.07291448961973
 20
161.1345416698242
 30
0.0
 10
-16.70544055177811
 20
161.1738809156257
 30
0.0
 10
-13.5182985222948
 20
161.2171969103013
 30
0.0
 10
-11.45370157084244
 20
161.2506861313866
 30
0.0
 10
-10.51152473170827
 20
161.2661504916943
 30
0.0
  0
SPLINE
  5
13E78
330
1F
100
AcDbEntity
  8
0
100
AcDbSpline
210
0.0
220
0.0
230
1.0
 70
     8
 71
     3
 72
     8
 73
     4
 74
     0
 42
0.0000000001
 43
0.0000000001
 40
0.0
 40
0.0
 40
0.0
 40
0.0
 40
0.3260059513221127
 40
0.3260059513221127
 40
0.3260059513221127
 40
0.3260059513221127
 10
-10.26135999999951
 20
161.5893049999999
 30
0.0
 10
-10.15270596814571
 20
161.5875102606584
 30
0.0
 10
-10.04405193629168
 20
161.5857155213168
 30
0.0
 10
-9.935393851511435
 20
161.584208631862
 30
0.0
  0
SPLINE
  5
13E79
330
1F
100
AcDbEntity
  8
0
100
AcDbSpline
210
0.0
220
0.0
230
1.0
 70
     8
 71
     3
 72
    11
 73
     7
 74
     5
 42
0.0000000001
 43
0.0000000001
 44
0.0000000001
 40
0.0
 40
0.0
 40
0.0
 40
0.0
 40
2.666395011915045
 40
5.332782116576977
 40
7.999168401582448
 40
10.66556394927241
 40
10.66556394927241
 40
10.66556394927241
 40
10.66556394927241
 10
-16.33452099999954
 20
161.577256
 30
0.0
 10
-17.22331948174155
 20
161.5776985341206
 30
0.0
 10
-19.00091380947424
 20
161.5785836010495
 30
0.0
 10
-21.66729503865213
 20
161.585883565204
 30
0.0
 10
-24.33366257518696
 20
161.5971641373174
 30
0.0
 10
-26.11121982922941
 20
161.6086640391143
 30
0.0
 10
-26.99999999999955
 20
161.614414
 30
0.0
 11
-16.33452099999954
 21
161.577256
 31
0.0
 11
-19.00091499999962
 21
161.5795789999999
 31
0.0
 11
-21.66729299999952
 21
161.586547
 31
0.0
 11
-24.33365399999957
 21
161.598159
 31
0.0
 11
-26.99999999999955
 21
161.614414
 31
0.0
  0
SPLINE
  5
13E7A
330
1F
100
AcDbEntity
  8
0
100
AcDbSpline
210
0.0
220
0.0
230
1.0
 70
     8
 71
     3
 72
    11
 73
     7
 74
     5
 42
0.0000000001
 43
0.0000000001
 44
0.0000000001
 40
0.0
 40
0.0
 40
0.0
 40
0.0
 40
1.518295186725639
 40
3.036588868746321
 40
4.554881536899912
 40
6.073176686479522
 40
6.073176686479522
 40
6.073176686479522
 40
6.073176686479522
 10
-16.33452099999954
 20
161.577256
 30
0.0
 10
-15.82842257758102
 20
161.5773993153707
 30
0.0
 10
-14.81622623431235
 20
161.5776859459701
 30
0.0
 10
-13.2979339116805
 20
161.5800542123572
 30
0.0
 10
-11.77964415907627
 20
161.5837112011169
 30
0.0
 10
-10.76745499540357
 20
161.5874403993564
 30
0.0
 10
-10.26135999999951
 20
161.5893049999999
 30
0.0
 11
-16.33452099999954
 21
161.577256
 31
0.0
 11
-14.81622599999946
 21
161.578009
 31
0.0
 11
-13.29793399999948
 21
161.580269
 31
0.0
 11
-11.7796459999995
 21
161.584034
 31
0.0
 11
-10.26135999999951
 21
161.5893049999999
 31
0.0
  0
LINE
  5
13E7B
330
1F
100
AcDbEntity
  8
AM_0
100
AcDbLine
 10
-32.29999999999938
 20
-161.3999999999999
 30
0.0
 11
-31.99999999999971
 21
-161.1000000000002
 31
0.0
  0
LINE
  5
13E7C
330
1F
100
AcDbEntity
  8
AM_0
100
AcDbLine
 10
-6.505665191330521
 20
-144.6731191236412
 30
0.0
 11
-14.39937677684435
 21
-127.7449999999999
 31
0.0
  0
LINE
  5
13E7E
330
1F
100
AcDbEntity
  8
0
100
AcDbLine
 10
-10.53511927084173
 20
-161.2128556807348
 30
0.0
 11
-10.91882199999963
 21
-161.4
 31
0.0
  0
LINE
  5
13E7F
330
1F
100
AcDbEntity
  8
0
100
AcDbLine
 10
-31.99999999999955
 20
-153.3999999999999
 30
0.0
 11
-31.99999999999955
 21
-161.4
 31
0.0
  0
LINE
  5
13E80
330
1F
100
AcDbEntity
  8
0
100
AcDbLine
 10
-31.99999999999955
 20
-153.3999999999999
 30
0.0
 11
-25.99999999999955
 21
-153.3999999999999
 31
0.0
  0
LINE
  5
13E81
330
1F
100
AcDbEntity
  8
0
100
AcDbLine
 10
-25.99999999999955
 20
-153.3999999999999
 30
0.0
 11
-25.99999999999955
 21
-161.4
 31
0.0
  0
LINE
  5
13E82
330
1F
100
AcDbEntity
  8
0
100
AcDbLine
 10
-10.91882199999963
 20
-161.4
 30
0.0
 11
-25.99999999999955
 21
-161.4
 31
0.0
  0
LINE
  5
13E83
330
1F
100
AcDbEntity
  8
0
100
AcDbLine
 10
-13.66152499999953
 20
-154.153509
 30
0.0
 11
-13.66152499999953
 21
-151.653569
 31
0.0
  0
LINE
  5
13E84
330
1F
100
AcDbEntity
  8
0
100
AcDbLine
 10
0.0000000000004547
 20
-155.0015469999999
 30
0.0
 11
0.0000000000004547
 21
-157.5
 31
0.0
  0
LINE
  5
13E85
330
1F
100
AcDbEntity
  8
0
100
AcDbLine
 10
-31.99999999999955
 20
-161.2742359999999
 30
0.0
 11
-31.99999999999955
 21
-161.486742
 31
0.0
  0
SPLINE
  5
13E86
330
1F
100
AcDbEntity
  8
0
100
AcDbSpline
210
0.0
220
0.0
230
1.0
 70
     8
 71
     3
 72
    11
 73
     7
 74
     5
 42
0.0000000001
 43
0.0000000001
 44
0.0000000001
 40
0.0
 40
0.0
 40
0.0
 40
0.0
 40
0.0558402427017798
 40
0.111680080210569
 40
0.1675195125590172
 40
0.2233594198117767
 40
0.2233594198117767
 40
0.2233594198117767
 40
0.2233594198117767
 10
-17.0142479999995
 20
-162.876457
 30
0.0
 10
-17.03062904461436
 20
-162.8852955839817
 30
0.0
 10
-17.06339101497847
 20
-162.9029726878096
 30
0.0
 10
-17.11253298917681
 20
-162.9294897356677
 30
0.0
 10
-17.16167421678636
 20
-162.9560079316109
 30
0.0
 10
-17.19443469249163
 20
-162.9736872854771
 30
0.0
 10
-17.21081499999946
 20
-162.982527
 30
0.0
 11
-17.0142479999995
 21
-162.876457
 31
0.0
 11
-17.06339099999945
 21
-162.902973
 31
0.0
 11
-17.11253299999953
 21
-162.92949
 31
0.0
 11
-17.16167399999949
 21
-162.956008
 31
0.0
 11
-17.21081499999946
 21
-162.982527
 31
0.0
  0
SPLINE
  5
13E87
330
1F
100
AcDbEntity
  8
0
100
AcDbSpline
210
0.0
220
0.0
230
1.0
 70
     8
 71
     3
 72
    11
 73
     7
 74
     5
 42
0.0000000001
 43
0.0000000001
 44
0.0000000001
 40
0.0
 40
0.0
 40
0.0
 40
0.0
 40
4.435765946942708
 40
8.871514868098952
 40
13.30726377529562
 40
17.74303110557104
 40
17.74303110557104
 40
17.74303110557104
 40
17.74303110557104
 10
-17.0142479999995
 20
-162.876457
 30
0.0
 10
-15.71261202866084
 20
-162.1750514517915
 30
0.0
 10
-13.10934508204879
 20
-160.7722430475773
 30
0.0
 10
-9.199220671765585
 20
-158.6777556137634
 30
0.0
 10
-5.285443843983831
 20
-156.5900983022543
 30
0.0
 10
-2.672440423429812
 20
-155.2055090591895
 30
0.0
 10
-1.365935999999464
 20
-154.5132129999999
 30
0.0
 11
-17.0142479999995
 21
-162.876457
 31
0.0
 11
-13.10846899999956
 21
-160.773861
 31
0.0
 11
-9.198611999999457
 21
-158.678894
 31
0.0
 11
-5.284494999999651
 21
-156.591897
 31
0.0
 11
-1.365935999999464
 21
-154.5132129999999
 31
0.0
  0
SPLINE
  5
13E88
330
1F
100
AcDbEntity
  8
0
100
AcDbSpline
210
0.0
220
0.0
230
1.0
 70
     8
 71
     3
 72
    11
 73
     7
 74
     5
 42
0.0000000001
 43
0.0000000001
 44
0.0000000001
 40
0.0
 40
0.0
 40
0.0
 40
0.0
 40
0.0139155155134062
 40
0.0278310310265852
 40
0.0417475864193782
 40
0.0556631019325549
 40
0.0556631019325549
 40
0.0556631019325549
 40
0.0556631019325549
 10
-17.21081499999946
 20
-162.982527
 30
0.0
 10
-17.21544966550501
 20
-162.9827156951668
 30
0.0
 10
-17.22471899651604
 20
-162.9830930855006
 30
0.0
 10
-17.23862336027356
 20
-162.9836586720857
 30
0.0
 10
-17.25252764042224
 20
-162.9842263108124
 30
0.0
 10
-17.26179732892038
 20
-162.9846034416343
 30
0.0
 10
-17.26643199999944
 20
-162.984792
 30
0.0
 11
-17.21081499999946
 21
-162.982527
 31
0.0
 11
-17.22471899999959
 21
-162.983093
 31
0.0
 11
-17.2386229999995
 21
-162.983659
 31
0.0
 11
-17.25252799999953
 21
-162.984226
 31
0.0
 11
-17.26643199999944
 21
-162.984792
 31
0.0
  0
SPLINE
  5
13E89
330
1F
100
AcDbEntity
  8
0
100
AcDbSpline
210
0.0
220
0.0
230
1.0
 70
     8
 71
     3
 72
    11
 73
     7
 74
     5
 42
0.0000000001
 43
0.0000000001
 44
0.0000000001
 40
0.0
 40
0.0
 40
0.0
 40
0.0
 40
4.474618386296313
 40
8.949237735099575
 40
13.42385704708803
 40
17.89847535975438
 40
17.89847535975438
 40
17.89847535975438
 40
17.89847535975438
 10
-17.92536299999961
 20
-145.09845
 30
0.0
 10
-17.87045159821302
 20
-146.5889783308115
 30
0.0
 10
-17.76062878282821
 20
-149.5700353130527
 30
0.0
 10
-17.59589578645605
 20
-154.0416209798531
 30
0.0
 10
-17.43116407495921
 20
-158.5132066694281
 30
0.0
 10
-17.32134268756494
 20
-161.4942636674365
 30
0.0
 10
-17.26643199999944
 20
-162.984792
 30
0.0
 11
-17.92536299999961
 21
-145.09845
 31
0.0
 11
-17.76062899999965
 21
-149.570035
 31
0.0
 11
-17.59589599999958
 21
-154.0416209999999
 31
0.0
 11
-17.43116399999962
 21
-158.513207
 31
0.0
 11
-17.26643199999944
 21
-162.984792
 31
0.0
  0
SPLINE
  5
13E8A
330
1F
100
AcDbEntity
  8
0
100
AcDbSpline
210
0.0
220
0.0
230
1.0
 70
     8
 71
     3
 72
    11
 73
     7
 74
     5
 42
0.0000000001
 43
0.0000000001
 44
0.0000000001
 40
0.0
 40
0.0
 40
0.0
 40
0.0
 40
0.2299119562354629
 40
0.4598244200167152
 40
0.6897363162225652
 40
0.9196477735383666
 40
0.9196477735383666
 40
0.9196477735383666
 40
0.9196477735383666
 10
-17.00648399999954
 20
-145.060855
 30
0.0
 10
-17.08305810974193
 20
-145.0639669725343
 30
0.0
 10
-17.23620649826909
 20
-145.0701909244728
 30
0.0
 10
-17.46592700117911
 20
-145.0795753426005
 30
0.0
 10
-17.69564619664276
 20
-145.0889876519045
 30
0.0
 10
-17.84879078093823
 20
-145.0952958859752
 30
0.0
 10
-17.92536299999961
 20
-145.09845
 30
0.0
 11
-17.00648399999954
 21
-145.060855
 31
0.0
 11
-17.23620599999958
 21
-145.070199
 31
0.0
 11
-17.46592699999951
 21
-145.0795799999999
 31
0.0
 11
-17.69564599999944
 21
-145.088996
 31
0.0
 11
-17.92536299999961
 21
-145.09845
 31
0.0
  0
SPLINE
  5
13E8B
330
1F
100
AcDbEntity
  8
0
100
AcDbSpline
210
0.0
220
0.0
230
1.0
 70
     8
 71
     3
 72
    11
 73
     7
 74
     5
 42
0.0000000001
 43
0.0000000001
 44
0.0000000001
 40
0.0
 40
0.0
 40
0.0
 40
0.0
 40
2.709639796944926
 40
5.419270367574409
 40
8.128900910741599
 40
10.83854061954781
 40
10.83854061954781
 40
10.83854061954781
 40
10.83854061954781
 10
-17.00648399999954
 20
-145.060855
 30
0.0
 10
-16.10399419659221
 20
-145.0247038861365
 30
0.0
 10
-14.29901766275263
 20
-144.9524017815041
 30
0.0
 10
-11.59129886997591
 20
-144.8504967099769
 30
0.0
 10
-8.883418941405112
 20
-144.752967386641
 30
0.0
 10
-7.078012664965695
 20
-144.692337829728
 30
0.0
 10
-6.175307999999631
 20
-144.6620229999999
 30
0.0
 11
-17.00648399999954
 21
-145.060855
 31
0.0
 11
-14.29897199999959
 21
-144.9534929999999
 31
0.0
 11
-11.59127199999943
 21
-144.851226
 31
0.0
 11
-8.883383999999523
 21
-144.7540649999999
 31
0.0
 11
-6.175307999999631
 21
-144.6620229999999
 31
0.0
  0
SPLINE
  5
13E8C
330
1F
100
AcDbEntity
  8
0
100
AcDbSpline
210
0.0
220
0.0
230
1.0
 70
     8
 71
     3
 72
    11
 73
     7
 74
     5
 42
0.0000000001
 43
0.0000000001
 44
0.0000000001
 40
0.0
 40
0.0
 40
0.0
 40
0.0
 40
2.740620747690146
 40
5.481240752784731
 40
8.221861257952351
 40
10.96248170408799
 40
10.96248170408799
 40
10.96248170408799
 40
10.96248170408799
 10
-6.175307999999631
 20
-144.6620229999999
 30
0.0
 10
-5.774375784466354
 20
-145.4828817865462
 30
0.0
 10
-4.972511462035946
 20
-147.1245991372198
 30
0.0
 10
-3.770066839059566
 20
-149.5873470439236
 30
0.0
 10
-2.567844787057616
 20
-152.050203495522
 30
0.0
 10
-1.766572259475661
 20
-153.6922098377353
 30
0.0
 10
-1.365935999999464
 20
-154.5132129999999
 30
0.0
 11
-6.175307999999631
 21
-144.6620229999999
 31
0.0
 11
-4.97256999999945
 21
-147.124628
 31
0.0
 11
-3.770103999999491
 21
-149.587365
 31
0.0
 11
-2.567896999999447
 21
-152.050229
 31
0.0
 11
-1.365935999999464
 21
-154.5132129999999
 31
0.0
  0
SPLINE
  5
13E8D
330
1F
100
AcDbEntity
  8
0
100
AcDbSpline
210
0.0
220
0.0
230
1.0
 70
     8
 71
     3
 72
    11
 73
     7
 74
     5
 42
0.0000000001
 43
0.0000000001
 44
0.0000000001
 40
0.0
 40
0.0
 40
0.0
 40
0.0
 40
0.0558402427017798
 40
0.111680080210569
 40
0.1675195125590172
 40
0.2233594198117767
 40
0.2233594198117767
 40
0.2233594198117767
 40
0.2233594198117767
 10
-17.0142479999995
 20
-162.876457
 30
0.0
 10
-17.03062904461436
 20
-162.8852955839817
 30
0.0
 10
-17.06339101497847
 20
-162.9029726878096
 30
0.0
 10
-17.11253298917681
 20
-162.9294897356677
 30
0.0
 10
-17.16167421678636
 20
-162.9560079316109
 30
0.0
 10
-17.19443469249163
 20
-162.9736872854771
 30
0.0
 10
-17.21081499999946
 20
-162.982527
 30
0.0
 11
-17.0142479999995
 21
-162.876457
 31
0.0
 11
-17.06339099999945
 21
-162.902973
 31
0.0
 11
-17.11253299999953
 21
-162.92949
 31
0.0
 11
-17.16167399999949
 21
-162.956008
 31
0.0
 11
-17.21081499999946
 21
-162.982527
 31
0.0
  0
SPLINE
  5
13E8E
330
1F
100
AcDbEntity
  8
0
100
AcDbSpline
210
0.0
220
0.0
230
1.0
 70
     8
 71
     3
 72
    11
 73
     7
 74
     5
 42
0.0000000001
 43
0.0000000001
 44
0.0000000001
 40
0.0
 40
0.0
 40
0.0
 40
0.0
 40
4.435765946942708
 40
8.871514868098952
 40
13.30726377529562
 40
17.74303110557104
 40
17.74303110557104
 40
17.74303110557104
 40
17.74303110557104
 10
-17.0142479999995
 20
-162.876457
 30
0.0
 10
-15.71261202866084
 20
-162.1750514517915
 30
0.0
 10
-13.10934508204879
 20
-160.7722430475773
 30
0.0
 10
-9.199220671765585
 20
-158.6777556137634
 30
0.0
 10
-5.285443843983831
 20
-156.5900983022543
 30
0.0
 10
-2.672440423429812
 20
-155.2055090591895
 30
0.0
 10
-1.365935999999464
 20
-154.5132129999999
 30
0.0
 11
-17.0142479999995
 21
-162.876457
 31
0.0
 11
-13.10846899999956
 21
-160.773861
 31
0.0
 11
-9.198611999999457
 21
-158.678894
 31
0.0
 11
-5.284494999999651
 21
-156.591897
 31
0.0
 11
-1.365935999999464
 21
-154.5132129999999
 31
0.0
  0
SPLINE
  5
13E8F
330
1F
100
AcDbEntity
  8
0
100
AcDbSpline
210
0.0
220
0.0
230
1.0
 70
     8
 71
     3
 72
    11
 73
     7
 74
     5
 42
0.0000000001
 43
0.0000000001
 44
0.0000000001
 40
0.0
 40
0.0
 40
0.0
 40
0.0
 40
1.904548868591161
 40
3.809095986470171
 40
5.713642787050231
 40
7.618191667333724
 40
7.618191667333724
 40
7.618191667333724
 40
7.618191667333724
 10
-7.189393999999538
 20
-161.740142
 30
0.0
 10
-6.617850265701987
 20
-161.4637873806609
 30
0.0
 10
-5.47476332248514
 20
-160.9110783960152
 30
0.0
 10
-3.75909648409414
 20
-160.0841622377855
 30
0.0
 10
-2.042725309167472
 20
-159.2587089269281
 30
0.0
 10
-0.8977619780992347
 20
-158.7098977421899
 30
0.0
 10
-0.3252799999995659
 20
-158.4354919999999
 30
0.0
 11
-7.189393999999538
 21
-161.740142
 31
0.0
 11
-5.474589999999579
 21
-160.9114359999999
 31
0.0
 11
-3.758978999999499
 21
-160.084406
 31
0.0
 11
-2.042546999999558
 21
-159.259082
 31
0.0
 11
-0.3252799999995659
 21
-158.4354919999999
 31
0.0
  0
SPLINE
  5
13E90
330
1F
100
AcDbEntity
  8
0
100
AcDbSpline
210
0.0
220
0.0
230
1.0
 70
     8
 71
     3
 72
    11
 73
     7
 74
     5
 42
0.0000000001
 43
0.0000000001
 44
0.0000000001
 40
0.0
 40
0.0
 40
0.0
 40
0.0
 40
0.594419261754628
 40
1.188839146418811
 40
1.783258749161725
 40
2.377678153987059
 40
2.377678153987059
 40
2.377678153987059
 40
2.377678153987059
 10
-7.189393999999538
 20
-161.740142
 30
0.0
 10
-7.387529900435477
 20
-161.7389058091763
 30
0.0
 10
-7.783801908939835
 20
-161.7364334262337
 30
0.0
 10
-8.378211723695262
 20
-161.7330222869001
 30
0.0
 10
-8.972622680132296
 20
-161.7298074289976
 30
0.0
 10
-9.368897582034396
 20
-161.7278624762246
 30
0.0
 10
-9.567034999999577
 20
-161.72689
 30
0.0
 11
-7.189393999999538
 21
-161.740142
 31
0.0
 11
-7.783801999999468
 21
-161.736483
 31
0.0
 11
-8.378211999999621
 21
-161.733055
 31
0.0
 11
-8.972622999999657
 21
-161.729857
 31
0.0
 11
-9.567034999999577
 21
-161.72689
 31
0.0
  0
SPLINE
  5
13E91
330
1F
100
AcDbEntity
  8
0
100
AcDbSpline
210
0.0
220
0.0
230
1.0
 70
     8
 71
     3
 72
    11
 73
     7
 74
     5
 42
0.0000000001
 43
0.0000000001
 44
0.0000000001
 40
0.0
 40
0.0
 40
0.0
 40
0.0
 40
0.2395876420352804
 40
0.479173924868786
 40
0.7187609275649596
 40
0.9583478716521899
 40
0.9583478716521899
 40
0.9583478716521899
 40
0.9583478716521899
 10
-9.567034999999577
 20
-161.72689
 30
0.0
 10
-9.641504293140652
 20
-161.6980395084691
 30
0.0
 10
-9.79044245695195
 20
-161.6403386890786
 30
0.0
 10
-10.0138624385727
 20
-161.553820302517
 30
0.0
 10
-10.23729291441544
 20
-161.4673296650547
 30
0.0
 10
-10.38625497754481
 20
-161.4096905526682
 30
0.0
 10
-10.46073599999954
 20
-161.3808709999999
 30
0.0
 11
-9.567034999999577
 21
-161.72689
 31
0.0
 11
-9.790444999999635
 21
-161.640344
 31
0.0
 11
-10.01386399999955
 21
-161.5538249999999
 31
0.0
 11
-10.23729499999945
 21
-161.467335
 31
0.0
 11
-10.46073599999954
 21
-161.3808709999999
 31
0.0
  0
SPLINE
  5
13E92
330
1F
100
AcDbEntity
  8
0
100
AcDbSpline
210
0.0
220
0.0
230
1.0
 70
     8
 71
     3
 72
    11
 73
     7
 74
     5
 42
0.0000000001
 43
0.0000000001
 44
0.0000000001
 40
0.0
 40
0.0
 40
0.0
 40
0.0
 40
1.97610427365061
 40
3.952208638155907
 40
5.928312896604782
 40
7.904417255896063
 40
7.904417255896063
 40
7.904417255896063
 40
7.904417255896063
 10
-13.66152499999953
 20
-154.153509
 30
0.0
 10
-13.39471281092524
 20
-154.7557538197987
 30
0.0
 10
-12.86108842050954
 20
-155.9602434870853
 30
0.0
 10
-12.06083524641535
 20
-157.767059213164
 30
0.0
 10
-11.26070066815838
 20
-159.5739274924158
 30
0.0
 10
-10.7273908939217
 20
-160.7785564872264
 30
0.0
 10
-10.46073599999954
 20
-161.3808709999999
 30
0.0
 11
-13.66152499999953
 21
-154.153509
 31
0.0
 11
-12.86111899999946
 21
-155.960257
 31
0.0
 11
-12.06085499999949
 21
-157.767068
 31
0.0
 11
-11.26072899999963
 21
-159.57394
 31
0.0
 11
-10.46073599999954
 21
-161.3808709999999
 31
0.0
  0
SPLINE
  5
13E93
330
1F
100
AcDbEntity
  8
0
100
AcDbSpline
210
0.0
220
0.0
230
1.0
 70
     8
 71
     3
 72
    11
 73
     7
 74
     5
 42
0.0000000001
 43
0.0000000001
 44
0.0000000001
 40
0.0
 40
0.0
 40
0.0
 40
0.0
 40
0.248409951195578
 40
0.4968202297470045
 40
0.7452311630209517
 40
0.9936418061362781
 40
0.9936418061362781
 40
0.9936418061362781
 40
0.9936418061362781
 10
-13.66152499999953
 20
-151.653569
 30
0.0
 10
-13.63441904967146
 20
-151.5753279827915
 30
0.0
 10
-13.58020711329498
 20
-151.4188458452681
 30
0.0
 10
-13.49888822533112
 20
-151.1841226909674
 30
0.0
 10
-13.41756748121583
 20
-150.9493999356366
 30
0.0
 10
-13.36335181651717
 20
-150.7929186147489
 30
0.0
 10
-13.33624399999962
 20
-150.714678
 30
0.0
 11
-13.66152499999953
 21
-151.653569
 31
0.0
 11
-13.58020699999952
 21
-151.418846
 31
0.0
 11
-13.49888799999962
 21
-151.184123
 31
0.0
 11
-13.41756699999951
 21
-150.9493999999999
 31
0.0
 11
-13.33624399999962
 21
-150.714678
 31
0.0
  0
SPLINE
  5
13E94
330
1F
100
AcDbEntity
  8
0
100
AcDbSpline
210
0.0
220
0.0
230
1.0
 70
     8
 71
     3
 72
    11
 73
     7
 74
     5
 42
0.0000000001
 43
0.0000000001
 44
0.0000000001
 40
0.0
 40
0.0
 40
0.0
 40
0.0
 40
1.907406903568264
 40
3.81481264259429
 40
5.722217019274998
 40
7.629623786327131
 40
7.629623786327131
 40
7.629623786327131
 40
7.629623786327131
 10
-6.472130999999535
 20
-147.383757
 30
0.0
 10
-7.044634025784554
 20
-147.6603161000497
 30
0.0
 10
-8.189639727820384
 20
-148.2134341312996
 30
0.0
 10
-9.906025234138997
 20
-149.0454310931201
 30
0.0
 10
-11.62167484315681
 20
-149.8789442872495
 30
0.0
 10
-12.76472070897343
 20
-150.4360999793781
 30
0.0
 10
-13.33624399999962
 20
-150.714678
 30
0.0
 11
-6.472130999999535
 21
-147.383757
 31
0.0
 11
-8.189452999999502
 21
-148.213821
 31
0.0
 11
-9.905902999999625
 21
-149.045684
 31
0.0
 11
-11.62149399999953
 21
-149.879314
 31
0.0
 11
-13.33624399999962
 21
-150.714678
 31
0.0
  0
SPLINE
  5
13E95
330
1F
100
AcDbEntity
  8
0
100
AcDbSpline
210
0.0
220
0.0
230
1.0
 70
     8
 71
     3
 72
    11
 73
     7
 74
     5
 42
0.0000000001
 43
0.0000000001
 44
0.0000000001
 40
0.0
 40
0.0
 40
0.0
 40
0.0
 40
0.59443159814389
 40
1.188862196994624
 40
1.783292895665251
 40
2.377724818893569
 40
2.377724818893569
 40
2.377724818893569
 40
2.377724818893569
 10
-6.472130999999535
 20
-147.383757
 30
0.0
 10
-6.273992858116558
 20
-147.3852635647915
 30
0.0
 10
-5.877716907438701
 20
-147.3882766918418
 30
0.0
 10
-5.283305668582849
 20
-147.393122214536
 30
0.0
 10
-4.688896110237944
 20
-147.3981824527143
 30
0.0
 10
-4.292624839468769
 20
-147.4017741496716
 30
0.0
 10
-4.094488999999612
 20
-147.40357
 30
0.0
 11
-6.472130999999535
 21
-147.383757
 31
0.0
 11
-5.87771699999962
 21
-147.388331
 31
0.0
 11
-5.283305999999583
 21
-147.3931579999999
 31
0.0
 11
-4.688896999999542
 21
-147.398237
 31
0.0
 11
-4.094488999999612
 21
-147.40357
 31
0.0
  0
SPLINE
  5
13E96
330
1F
100
AcDbEntity
  8
0
100
AcDbSpline
210
0.0
220
0.0
230
1.0
 70
     8
 71
     3
 72
    11
 73
     7
 74
     5
 42
0.0000000001
 43
0.0000000001
 44
0.0000000001
 40
0.0
 40
0.0
 40
0.0
 40
0.0
 40
0.2399804772892899
 40
0.4799612939935544
 40
0.7199415231312165
 40
0.9599217345821308
 40
0.9599217345821308
 40
0.9599217345821308
 40
0.9599217345821308
 10
-4.094488999999612
 20
-147.40357
 30
0.0
 10
-4.02000753028723
 20
-147.4327499506519
 30
0.0
 10
-3.871044485520038
 20
-147.4911098932262
 30
0.0
 10
-3.647614502893034
 20
-147.5786866445755
 30
0.0
 10
-3.424194679466223
 20
-147.6662890672154
 30
0.0
 10
-3.275257557992296
 20
-147.7247143564561
 30
0.0
 10
-3.200788999999531
 20
-147.753927
 30
0.0
 11
-4.094488999999612
 21
-147.40357
 31
0.0
 11
-3.871046999999634
 21
-147.491116
 31
0.0
 11
-3.647615999999516
 21
-147.578691
 31
0.0
 11
-3.424196999999594
 21
-147.666295
 31
0.0
 11
-3.200788999999531
 21
-147.753927
 31
0.0
  0
SPLINE
  5
13E97
330
1F
100
AcDbEntity
  8
0
100
AcDbSpline
210
0.0
220
0.0
230
1.0
 70
     8
 71
     3
 72
    11
 73
     7
 74
     5
 42
0.0000000001
 43
0.0000000001
 44
0.0000000001
 40
0.0
 40
0.0
 40
0.0
 40
0.0
 40
1.980735938903769
 40
3.961471427212329
 40
5.942208086327089
 40
7.922944283383595
 40
7.922944283383595
 40
7.922944283383595
 40
7.922944283383595
 10
0.0000000000004547
 20
-155.0015469999999
 30
0.0
 10
-0.2666772987542585
 20
-154.3975543743423
 30
0.0
 10
-0.800031835597591
 20
-153.1895692604288
 30
0.0
 10
-1.600184390568794
 20
-151.3776445630741
 30
0.0
 10
-2.400419582872146
 20
-149.5657562665349
 30
0.0
 10
-2.933999215035623
 20
-148.3578700418831
 30
0.0
 10
-3.200788999999531
 20
-147.753927
 30
0.0
 11
0.0000000000004547
 21
-155.0015469999999
 31
0.0
 11
-0.8000519999995958
 21
-153.189578
 31
0.0
 11
-1.600197999999636
 21
-151.377651
 31
0.0
 11
-2.400441999999657
 21
-149.565766
 31
0.0
 11
-3.200788999999531
 21
-147.753927
 31
0.0
  0
SPLINE
  5
13E98
330
1F
100
AcDbEntity
  8
0
100
AcDbSpline
210
0.0
220
0.0
230
1.0
 70
     8
 71
     3
 72
    11
 73
     7
 74
     5
 42
0.0000000001
 43
0.0000000001
 44
0.0000000001
 40
0.0
 40
0.0
 40
0.0
 40
0.0
 40
0.2476079670770072
 40
0.4952149488545843
 40
0.7428231628479603
 40
0.9904303916034685
 40
0.9904303916034685
 40
0.9904303916034685
 40
0.9904303916034685
 10
0.0000000000004547
 20
-157.5
 30
0.0
 10
-0.0271081976409203
 20
-157.5779572646087
 30
0.0
 10
-0.0813244850527808
 20
-157.733871483613
 30
0.0
 10
-0.1626454396043313
 20
-157.9677442820049
 30
0.0
 10
-0.2439644850763285
 20
-158.2016174836428
 30
0.0
 10
-0.2981748643092494
 20
-158.3575339312802
 30
0.0
 10
-0.3252799999995659
 20
-158.4354919999999
 30
0.0
 11
0.0000000000004547
 21
-157.5
 31
0.0
 11
-0.0813239999995403
 21
-157.733872
 31
0.0
 11
-0.1626449999996566
 21
-157.967744
 31
0.0
 11
-0.2439639999995506
 21
-158.201618
 31
0.0
 11
-0.3252799999995659
 21
-158.4354919999999
 31
0.0
  0
SPLINE
  5
13E99
330
1F
100
AcDbEntity
  8
0
100
AcDbSpline
210
0.0
220
0.0
230
1.0
 70
     8
 71
     3
 72
    11
 73
     7
 74
     5
 42
0.0000000001
 43
0.0000000001
 44
0.0000000001
 40
0.0
 40
0.0
 40
0.0
 40
0.0
 40
1.250408628627442
 40
2.500816296067464
 40
3.751223739341138
 40
5.001631851087473
 40
5.001631851087473
 40
5.001631851087473
 40
5.001631851087473
 10
-26.99999999999955
 20
-161.614414
 30
0.0
 10
-27.41665173304508
 20
-161.6031893472228
 30
0.0
 10
-28.24995487885652
 20
-161.5807400502966
 30
0.0
 10
-29.49994416788591
 20
-161.5483798599676
 30
0.0
 10
-30.74995582917725
 20
-161.5169025258674
 30
0.0
 10
-31.5833185354723
 20
-161.4967955104139
 30
0.0
 10
-31.99999999999955
 20
-161.486742
 30
0.0
 11
-26.99999999999955
 21
-161.614414
 31
0.0
 11
-28.24996099999953
 21
-161.580959
 31
0.0
 11
-29.49994799999945
 21
-161.548527
 31
0.0
 11
-30.74996099999953
 21
-161.5171219999999
 31
0.0
 11
-31.99999999999955
 21
-161.486742
 31
0.0
  0
SPLINE
  5
13E9A
330
1F
100
AcDbEntity
  8
0
100
AcDbSpline
210
0.0
220
0.0
230
1.0
 70
     8
 71
     3
 72
    11
 73
     7
 74
     5
 42
0.0000000001
 43
0.0000000001
 44
0.0000000001
 40
0.0
 40
0.0
 40
0.0
 40
0.0
 40
2.666395011915045
 40
5.332782116576977
 40
7.999168401582448
 40
10.66556394927241
 40
10.66556394927241
 40
10.66556394927241
 40
10.66556394927241
 10
-16.33452099999954
 20
-161.577256
 30
0.0
 10
-17.22331948174167
 20
-161.5776985341206
 30
0.0
 10
-19.00091380947449
 20
-161.5785836010495
 30
0.0
 10
-21.66729503865199
 20
-161.5858835652039
 30
0.0
 10
-24.3336625751868
 20
-161.5971641373174
 30
0.0
 10
-26.11121982922937
 20
-161.6086640391143
 30
0.0
 10
-26.99999999999955
 20
-161.614414
 30
0.0
 11
-16.33452099999954
 21
-161.577256
 31
0.0
 11
-19.00091499999962
 21
-161.5795789999999
 31
0.0
 11
-21.66729299999952
 21
-161.586547
 31
0.0
 11
-24.33365399999957
 21
-161.598159
 31
0.0
 11
-26.99999999999955
 21
-161.614414
 31
0.0
  0
SPLINE
  5
13E9B
330
1F
100
AcDbEntity
  8
0
100
AcDbSpline
210
0.0
220
0.0
230
1.0
 70
     8
 71
     3
 72
    11
 73
     7
 74
     5
 42
0.0000000001
 43
0.0000000001
 44
0.0000000001
 40
0.0
 40
0.0
 40
0.0
 40
0.0
 40
1.518295186725639
 40
3.036588868746321
 40
4.554881536899912
 40
6.073176686479522
 40
6.073176686479522
 40
6.073176686479522
 40
6.073176686479522
 10
-16.33452099999954
 20
-161.577256
 30
0.0
 10
-15.82842257758096
 20
-161.5773993153707
 30
0.0
 10
-14.81622623431215
 20
-161.5776859459701
 30
0.0
 10
-13.29793391168052
 20
-161.5800542123572
 30
0.0
 10
-11.77964415907622
 20
-161.5837112011169
 30
0.0
 10
-10.7674549954039
 20
-161.5874403993564
 30
0.0
 10
-10.26135999999951
 20
-161.5893049999999
 30
0.0
 11
-16.33452099999954
 21
-161.577256
 31
0.0
 11
-14.81622599999946
 21
-161.578009
 31
0.0
 11
-13.29793399999948
 21
-161.580269
 31
0.0
 11
-11.7796459999995
 21
-161.584034
 31
0.0
 11
-10.26135999999951
 21
-161.5893049999999
 31
0.0
  0
SPLINE
  5
13E9C
330
1F
100
AcDbEntity
  8
0
100
AcDbSpline
210
0.0
220
0.0
230
1.0
 70
     8
 71
     3
 72
    11
 73
     7
 74
     5
 42
0.0000000001
 43
0.0000000001
 44
0.0000000001
 40
0.0
 40
0.0
 40
0.0
 40
0.0
 40
2.140326096062197
 40
4.280624720586587
 40
6.420924628416474
 40
8.561249531409533
 40
8.561249531409533
 40
8.561249531409533
 40
8.561249531409533
 10
-23.44049099999961
 20
-161.104852
 30
0.0
 10
-24.15386570744907
 20
-161.1147122908807
 30
0.0
 10
-25.58060596603285
 20
-161.1344327460833
 30
0.0
 10
-27.72056147161559
 20
-161.1735959940858
 30
0.0
 10
-29.86039031548627
 20
-161.2191373465503
 30
0.0
 10
-31.28679399550535
 20
-161.2558697106883
 30
0.0
 10
-31.99999999999955
 20
-161.2742359999999
 30
0.0
 11
-23.44049099999961
 21
-161.104852
 31
0.0
 11
-25.58058999999957
 21
-161.13603
 31
0.0
 11
-27.72053999999958
 21
-161.174659
 31
0.0
 11
-29.86034399999949
 21
-161.22073
 31
0.0
 11
-31.99999999999955
 21
-161.2742359999999
 31
0.0
  0
SPLINE
  5
13E9D
330
1F
100
AcDbEntity
  8
0
100
AcDbSpline
210
0.0
220
0.0
230
1.0
 70
     8
 71
     3
 72
    11
 73
     7
 74
     0
 42
0.0000000001
 43
0.0000000001
 40
0.0
 40
0.0
 40
0.0
 40
0.0
 40
3.367711437929324
 40
6.735405980349259
 40
10.10310025429649
 40
12.93001028678077
 40
12.93001028678077
 40
12.93001028678077
 40
12.93001028678077
 10
-23.44049099999961
 20
-161.104852
 30
0.0
 10
-22.31796361933289
 20
-161.1147485731582
 30
0.0
 10
-20.07291448961973
 20
-161.1345416698242
 30
0.0
 10
-16.70544055177811
 20
-161.1738809156257
 30
0.0
 10
-13.5182985222948
 20
-161.2171969103013
 30
0.0
 10
-11.45370157084244
 20
-161.2506861313866
 30
0.0
 10
-10.51152473170827
 20
-161.2661504916943
 30
0.0
  0
SPLINE
  5
13E9E
330
1F
100
AcDbEntity
  8
0
100
AcDbSpline
210
0.0
220
0.0
230
1.0
 70
     8
 71
     3
 72
     8
 73
     4
 74
     0
 42
0.0000000001
 43
0.0000000001
 40
0.0
 40
0.0
 40
0.0
 40
0.0
 40
0.3260059513221127
 40
0.3260059513221127
 40
0.3260059513221127
 40
0.3260059513221127
 10
-10.26135999999951
 20
-161.5893049999999
 30
0.0
 10
-10.15270596814571
 20
-161.5875102606584
 30
0.0
 10
-10.04405193629168
 20
-161.5857155213168
 30
0.0
 10
-9.935393851511435
 20
-161.584208631862
 30
0.0
  0
SPLINE
  5
13E9F
330
1F
100
AcDbEntity
  8
0
100
AcDbSpline
210
0.0
220
0.0
230
1.0
 70
     8
 71
     3
 72
    11
 73
     7
 74
     5
 42
0.0000000001
 43
0.0000000001
 44
0.0000000001
 40
0.0
 40
0.0
 40
0.0
 40
0.0
 40
2.666395011915045
 40
5.332782116576977
 40
7.999168401582448
 40
10.66556394927241
 40
10.66556394927241
 40
10.66556394927241
 40
10.66556394927241
 10
-16.33452099999954
 20
-161.577256
 30
0.0
 10
-17.22331948174167
 20
-161.5776985341206
 30
0.0
 10
-19.00091380947449
 20
-161.5785836010495
 30
0.0
 10
-21.66729503865199
 20
-161.5858835652039
 30
0.0
 10
-24.3336625751868
 20
-161.5971641373174
 30
0.0
 10
-26.11121982922937
 20
-161.6086640391143
 30
0.0
 10
-26.99999999999955
 20
-161.614414
 30
0.0
 11
-16.33452099999954
 21
-161.577256
 31
0.0
 11
-19.00091499999962
 21
-161.5795789999999
 31
0.0
 11
-21.66729299999952
 21
-161.586547
 31
0.0
 11
-24.33365399999957
 21
-161.598159
 31
0.0
 11
-26.99999999999955
 21
-161.614414
 31
0.0
  0
SPLINE
  5
13EA0
330
1F
100
AcDbEntity
  8
0
100
AcDbSpline
210
0.0
220
0.0
230
1.0
 70
     8
 71
     3
 72
    11
 73
     7
 74
     5
 42
0.0000000001
 43
0.0000000001
 44
0.0000000001
 40
0.0
 40
0.0
 40
0.0
 40
0.0
 40
1.518295186725639
 40
3.036588868746321
 40
4.554881536899912
 40
6.073176686479522
 40
6.073176686479522
 40
6.073176686479522
 40
6.073176686479522
 10
-16.33452099999954
 20
-161.577256
 30
0.0
 10
-15.82842257758096
 20
-161.5773993153707
 30
0.0
 10
-14.81622623431215
 20
-161.5776859459701
 30
0.0
 10
-13.29793391168052
 20
-161.5800542123572
 30
0.0
 10
-11.77964415907622
 20
-161.5837112011169
 30
0.0
 10
-10.7674549954039
 20
-161.5874403993564
 30
0.0
 10
-10.26135999999951
 20
-161.5893049999999
 30
0.0
 11
-16.33452099999954
 21
-161.577256
 31
0.0
 11
-14.81622599999946
 21
-161.578009
 31
0.0
 11
-13.29793399999948
 21
-161.580269
 31
0.0
 11
-11.7796459999995
 21
-161.584034
 31
0.0
 11
-10.26135999999951
 21
-161.5893049999999
 31
0.0
  0
DIMENSION
  5
13EE5
330
1F
100
AcDbEntity
  8
AM_5
100
AcDbDimension
  2
*D15
 10
0.0000000000003026
 20
141.721110374611
 30
0.0
 11
-11.82485962584306
 21
-177.095741126149
 31
0.0
 70
    34
  1
65%%d
 71
     5
 42
1.122107727831714
  3
AM_JIS$2
100
AcDb2LineAngularDimension
 13
0.0000000000002878
 23
-158.278889625389
 33
0.0
 14
270.3050226478627
 24
-28.14359567582812
 34
0.0
 15
0.0000000000002842
 25
-158.278889625389
 35
0.0
 16
-17.22598399417953
 26
-176.8413460275979
 36
0.0
1001
ACAD
1000
DSTYLE
1002
{
1070
    79
1070
     2
1070
   371
1070
    -1
1070
   372
1070
    -1
1002
}
  0
DIMENSION
  5
13F6E
330
1F
100
AcDbEntity
  8
AM_5
100
AcDbDimension
  2
*D16
 10
40.92830012287882
 20
-162.9847919999999
 30
0.0
 11
37.82830012287887
 21
-0.0000000000000021
 31
0.0
 70
    32
  1
%%c<>
 71
     5
 42
325.9695839999999
  3
AM_JIS$0
100
AcDbAlignedDimension
 13
-17.26643199999944
 23
162.9847919999999
 33
0.0
 14
-17.26643199999944
 24
-162.9847919999999
 34
0.0
 50
90.00000000000003
100
AcDbRotatedDimension
1001
ACAD
1000
DSTYLE
1002
{
1070
    40
1040
1.0
1070
    43
1040
12.0
1070
   140
1040
3.2
1070
   147
1040
1.5
1070
   178
1070
     2
1070
   271
1070
     2
1002
}
  0
VIEWPORT
  5
110
102
{ACAD_XDICTIONARY
360
13FAB
102
}
330
101
100
AcDbEntity
 67
     1
  8
0
100
AcDbViewport
 10
420.5
 20
297.0
 30
0.0
 40
948.9782706766916
 41
628.452
 68
     1
 69
     1
 12
420.5
 22
297.0
 13
0.0
 23
0.0
 14
10.0
 24
10.0
 15
10.0
 25
10.0
 16
0.0
 26
0.0
 36
1.0
 17
0.0
 27
0.0
 37
0.0
 42
50.0
 43
0.0
 44
0.0
 45
628.452
 50
0.0
 51
0.0
 72
   100
 90
    32800
  1

281
     0
 71
     1
 74
     0
110
0.0
120
0.0
130
0.0
111
1.0
121
0.0
131
0.0
112
0.0
122
1.0
132
0.0
 79
     0
146
0.0
1001
GENIUS_GENSCREG_15
1000
PF
1040
1.0
1000
DF
1040
1.0
1000
MIN
1011
-53.98913533834582
1021
-17.226
1031
0.0
1000
MAX
1011
894.9891353383458
1021
611.226
1031
0.0
1000
FLAGS
1070
     4
1001
GENIUS_GENODEF_13
1002
{
1000
HIER
1070
     0
1002
}
1002
{
1000
MANEDIT
1070
     0
1002
}
1002
{
1000
NOSEL
1070
     0
1002
}
1002
{
1000
BEHIND
1070
     0
1002
}
1002
{
1000
OTHER
1070
     0
1002
}
1002
{
1000
REACTOR
1002
}
1001
GENIUS_GENOBJ-N-SDF_13
1002
{
1000
OWNER
1000
GEN
1002
}
  0
ENDSEC
  0
SECTION
  2
OBJECTS
  0
DICTIONARY
  5
C
330
0
100
AcDbDictionary
281
     1
  3
ACAD_COLOR
350
13D61
  3
ACAD_GROUP
350
D
  3
ACAD_LAYOUT
350
1A
  3
ACAD_MATERIAL
350
13D60
  3
ACAD_MLINESTYLE
350
17
  3
ACAD_PLOTSETTINGS
350
19
  3
ACAD_PLOTSTYLENAME
350
E
  3
ACAD_TABLESTYLE
350
13D62
  3
ACDBHEADERROUNDTRIPXREC
350
13FAA
  3
ACDBVARIABLEDICTIONARY
350
34
  3
ACMDICTIONARY
350
43
  3
AMG
350
2B
  3
AMGSNAPSETTINGS
350
6E
  3
DWGPROPS
350
13FA9
  0
DICTIONARY
  5
74
330
1F
100
AcDbDictionary
280
     1
281
     1
  3
ACAD_INDEX
360
13D24
  3
ACAD_LAYOUTSELFREF
360
13D53
  0
DICTIONARY
  5
13D58
330
101
100
AcDbDictionary
280
     1
281
     1
  3
ACAD_LAYOUTSELFREF
360
13D59
  0
DICTIONARY
  5
13FAB
330
110
100
AcDbDictionary
280
     1
281
     1
  3
ACAD_XREC_ROUNDTRIP
360
13FAC
  0
DICTIONARY
  5
13D61
102
{ACAD_REACTORS
330
C
102
}
330
C
100
AcDbDictionary
281
     1
  0
DICTIONARY
  5
D
102
{ACAD_REACTORS
330
C
102
}
330
C
100
AcDbDictionary
281
     1
  0
DICTIONARY
  5
1A
102
{ACAD_REACTORS
330
C
102
}
330
C
100
AcDbDictionary
281
     1
  3
Model
350
13D64
  3
レイアウト1
350
13D65
  0
DICTIONARY
  5
13D60
102
{ACAD_REACTORS
330
C
102
}
330
C
100
AcDbDictionary
281
     1
  0
DICTIONARY
  5
17
102
{ACAD_REACTORS
330
C
102
}
330
C
100
AcDbDictionary
281
     1
  3
STANDARD
350
18
  0
DICTIONARY
  5
19
102
{ACAD_REACTORS
330
C
102
}
330
C
100
AcDbDictionary
281
     1
  0
ACDBDICTIONARYWDFLT
  5
E
102
{ACAD_REACTORS
330
C
102
}
330
C
100
AcDbDictionary
281
     1
  3
Normal
350
F
100
AcDbDictionaryWithDefault
340
F
  0
DICTIONARY
  5
13D62
102
{ACAD_REACTORS
330
C
102
}
330
C
100
AcDbDictionary
281
     1
  3
Standard
350
13D63
  0
DICTIONARY
  5
13FAA
102
{ACAD_REACTORS
330
C
102
}
330
C
100
AcDbDictionary
281
     1
  0
DICTIONARY
  5
34
102
{ACAD_REACTORS
330
C
102
}
330
C
100
AcDbDictionary
281
     1
  3
CTABLESTYLE
350
13FA5
  3
DIMASSOC
350
13FA6
  3
INDEXCTL
350
35
  3
PROJECTNAME
350
13FA7
  3
SORTENTS
350
B5E
  0
DICTIONARY
  5
43
102
{ACAD_REACTORS
330
C
102
}
330
C
100
AcDbDictionary
281
     1
  3
ACMSTDDICTIONARY
350
260
  3
AMDTSECTSYM_ARROWCOLOR
350
13DDD
  0
DICTIONARY
  5
2B
102
{ACAD_REACTORS
330
C
102
}
330
C
100
AcDbDictionary
281
     1
  0
DICTIONARY
  5
6E
102
{ACAD_REACTORS
330
C
102
}
330
C
100
AcDbDictionary
281
     1
  0
XRECORD
  5
13FA9
102
{ACAD_REACTORS
330
C
102
}
330
C
100
AcDbXrecord
280
     1
  1
DWGPROPS COOKIE
  2

  3

  4

  6

  7

  8

  9

300
AmdtFileType=82
301
=
302
=
303
=
304
=
305
=
306
=
307
=
308
=
309
=
 40
0.3079773842592592
 41
2452836.771637361
 42
2455594.632657697
  1

 90
        1
  0
DICTIONARY
  5
13D24
102
{ACAD_REACTORS
330
74
102
}
330
74
100
AcDbDictionary
281
     1
  3
*A1
350
13D25
  0
XRECORD
  5
13D53
102
{ACAD_REACTORS
330
74
102
}
330
74
100
AcDbXrecord
280
     1
340
1F
  0
XRECORD
  5
13D59
102
{ACAD_REACTORS
330
13D58
102
}
330
13D58
100
AcDbXrecord
280
     1
340
101
  0
XRECORD
  5
13FAC
102
{ACAD_REACTORS
330
13FAB
102
}
330
13FAB
100
AcDbXrecord
280
     1
102
SHADEPLOT
 70
     0
  0
LAYOUT
  5
13D64
102
{ACAD_XDICTIONARY
360
13FAD
102
}
102
{ACAD_REACTORS
330
1A
102
}
330
1A
100
AcDbPlotSettings
  1

  2
SII LP-1010 (C2 VR)2R
  4

  6

 40
0.0
 41
0.0
 42
0.0
 43
0.0
 44
0.0
 45
0.0
 46
0.0
 47
0.0
 48
0.0
 49
0.0
140
0.0
141
0.0
142
1.0
143
1.0
 70
  1712
 72
     0
 73
     0
 74
     0
  7
sei_cad.ctb
 75
     0
147
1.0
148
0.0
149
0.0
100
AcDbLayout
  1
Model
 70
     1
 71
     0
 10
0.0
 20
0.0
 11
12.0
 21
9.0
 12
0.0
 22
0.0
 32
0.0
 14
0.0
 24
0.0
 34
0.0
 15
0.0
 25
0.0
 35
0.0
146
0.0
 13
0.0
 23
0.0
 33
0.0
 16
1.0
 26
0.0
 36
0.0
 17
0.0
 27
1.0
 37
0.0
 76
     0
330
1F
  0
LAYOUT
  5
13D65
102
{ACAD_XDICTIONARY
360
13FAF
102
}
102
{ACAD_REACTORS
330
1A
102
}
330
1A
100
AcDbPlotSettings
  1

  2
SII LP-1010 (C2 VR)2R
  4

  6

 40
0.0
 41
0.0
 42
0.0
 43
0.0
 44
0.0
 45
0.0
 46
0.0
 47
0.0
 48
0.0
 49
0.0
140
0.0
141
0.0
142
1.0
143
1.0
 70
   688
 72
     0
 73
     0
 74
     5
  7
sei_cad.ctb
 75
    16
147
1.0
148
0.0
149
0.0
100
AcDbLayout
  1
レイアウト1
 70
     0
 71
     1
 10
0.0
 20
0.0
 11
841.0
 21
594.0
 12
0.0
 22
0.0
 32
0.0
 14
1.000000000000000E+20
 24
1.000000000000000E+20
 34
1.000000000000000E+20
 15
-1.000000000000000E+20
 25
-1.000000000000000E+20
 35
-1.000000000000000E+20
146
0.0
 13
0.0
 23
0.0
 33
0.0
 16
1.0
 26
0.0
 36
0.0
 17
0.0
 27
1.0
 37
0.0
 76
     0
330
101
331
110
  0
MLINESTYLE
  5
18
102
{ACAD_REACTORS
330
17
102
}
330
17
100
AcDbMlineStyle
  2
STANDARD
 70
     0
  3

 62
   256
 51
90.0
 52
90.0
 71
     2
 49
0.5
 62
   256
  6
BYLAYER
 49
-0.5
 62
   256
  6
BYLAYER
  0
ACDBPLACEHOLDER
  5
F
102
{ACAD_REACTORS
330
E
102
}
330
E
  0
TABLESTYLE
  5
13D63
102
{ACAD_REACTORS
330
13D62
102
}
330
13D62
100
AcDbTableStyle
  3
Standard
 70
     0
 71
     0
 40
1.5
 41
1.5
280
     0
281
     0
  7
STANDARD
140
4.5
170
     2
 62
     0
 63
     7
283
     0
274
    -2
284
     1
 64
     0
275
    -2
285
     1
 65
     0
276
    -2
286
     1
 66
     0
277
    -2
287
     1
 67
     0
278
    -2
288
     1
 68
     0
279
    -2
289
     1
 69
     0
  7
STANDARD
140
6.0
170
     5
 62
     0
 63
     7
283
     0
274
    -2
284
     1
 64
     0
275
    -2
285
     1
 65
     0
276
    -2
286
     1
 66
     0
277
    -2
287
     1
 67
     0
278
    -2
288
     1
 68
     0
279
    -2
289
     1
 69
     0
  7
STANDARD
140
4.5
170
     5
 62
     0
 63
     7
283
     0
274
    -2
284
     1
 64
     0
275
    -2
285
     1
 65
     0
276
    -2
286
     1
 66
     0
277
    -2
287
     1
 67
     0
278
    -2
288
     1
 68
     0
279
    -2
289
     1
 69
     0
  0
DICTIONARYVAR
  5
13FA5
102
{ACAD_REACTORS
330
34
102
}
330
34
100
DictionaryVariables
280
     0
  1
STANDARD
  0
DICTIONARYVAR
  5
13FA6
102
{ACAD_REACTORS
330
34
102
}
330
34
100
DictionaryVariables
280
     0
  1
1
  0
DICTIONARYVAR
  5
35
102
{ACAD_REACTORS
330
34
102
}
330
34
100
DictionaryVariables
280
     0
  1
1
  0
DICTIONARYVAR
  5
13FA7
102
{ACAD_REACTORS
330
34
102
}
330
34
100
DictionaryVariables
280
     0
  1

  0
DICTIONARYVAR
  5
B5E
102
{ACAD_REACTORS
330
34
102
}
330
34
100
DictionaryVariables
280
     0
  1
96
  0
DICTIONARY
  5
260
102
{ACAD_REACTORS
330
43
102
}
330
43
100
AcDbDictionary
281
     1
  0
XRECORD
  5
13DDD
102
{ACAD_REACTORS
330
43
102
}
330
43
100
AcDbXrecord
280
     1
 90
-1023410169
  0
LAYER_INDEX
  5
13D25
102
{ACAD_REACTORS
330
13D24
102
}
330
13D24
100
AcDbIndex
 40
2455594.632657697
100
AcDbLayerIndex
  8
0
360
13D26
 90
       70
  8
AM_0
360
13D27
 90
       74
  8
AM_7
360
13D28
 90
        5
  8
AM_5
360
13D29
 90
       12
  8
DEFPOINTS
360
13D2A
 90
        0
  8
AM_6
360
13D2B
 90
        1
  8
AM_11
360
13D2C
 90
       33
  8
AM_4
360
13D2D
 90
        4
  0
DICTIONARY
  5
13FAD
330
13D64
100
AcDbDictionary
280
     1
281
     1
  3
ACAD_XREC_ROUNDTRIP
360
13FAE
  0
DICTIONARY
  5
13FAF
330
13D65
100
AcDbDictionary
280
     1
281
     1
  3
ACAD_XREC_ROUNDTRIP
360
13FB0
  0
IDBUFFER
  5
13D26
330
0
100
AcDbIdBuffer
330
13E58
330
13E59
330
13E5A
330
13E5B
330
13E5C
330
13E5D
330
13E5E
330
13E5F
330
13E60
330
13E61
330
13E62
330
13E63
330
13E64
330
13E65
330
13E66
330
13E67
330
13E68
330
13E69
330
13E6A
330
13E6B
330
13E6C
330
13E6D
330
13E6E
330
13E6F
330
13E70
330
13E71
330
13E72
330
13E73
330
13E74
330
13E75
330
13E76
330
13E77
330
13E78
330
13E79
330
13E7A
330
13E7E
330
13E7F
330
13E80
330
13E81
330
13E82
330
13E83
330
13E84
330
13E85
330
13E86
330
13E87
330
13E88
330
13E89
330
13E8A
330
13E8B
330
13E8C
330
13E8D
330
13E8E
330
13E8F
330
13E90
330
13E91
330
13E92
330
13E93
330
13E94
330
13E95
330
13E96
330
13E97
330
13E98
330
13E99
330
13E9A
330
13E9B
330
13E9C
330
13E9D
330
13E9E
330
13E9F
330
13EA0
  0
IDBUFFER
  5
13D27
330
0
100
AcDbIdBuffer
330
1323F
330
13241
330
1326D
330
1326E
330
13271
330
13272
330
13274
330
13279
330
1327A
330
1327C
330
1327F
330
13281
330
13282
330
13283
330
13284
330
13285
330
13289
330
1328A
330
1328B
330
1328E
330
135BB
330
135BE
330
135C1
330
135C4
330
135D0
330
135E4
330
135F5
330
135F9
330
135FC
330
135FF
330
13600
330
13603
330
13604
330
13605
330
13608
330
13609
330
1360B
330
1360F
330
13610
330
13612
330
13613
330
13614
330
13615
330
13616
330
13617
330
13619
330
1361B
330
1361C
330
1361D
330
1361E
330
1361F
330
13620
330
13622
330
13623
330
13624
330
13628
330
13629
330
1362D
330
13631
330
13632
330
13633
330
13636
330
13637
330
13638
330
13639
330
1363A
330
1363B
330
13ABC
330
13AC1
330
13AC2
330
13CE1
330
13CE2
330
13E7B
330
13E7C
  0
IDBUFFER
  5
13D28
330
0
100
AcDbIdBuffer
330
13245
330
1326F
330
13270
330
1360D
330
1360E
  0
IDBUFFER
  5
13D29
330
0
100
AcDbIdBuffer
330
13F6E
330
13813
330
13814
330
13815
330
13816
330
13817
330
13818
330
13819
330
1381A
330
1381B
330
1381C
330
13EE5
  0
IDBUFFER
  5
13D2A
330
0
100
AcDbIdBuffer
  0
IDBUFFER
  5
13D2B
330
0
100
AcDbIdBuffer
330
E5A
  0
IDBUFFER
  5
13D2C
330
0
100
AcDbIdBuffer
330
13240
330
13273
330
13275
330
13276
330
13278
330
1327B
330
1327E
330
135DA
330
135DE
330
135E0
330
135E3
330
135E7
330
135E9
330
135EC
330
135F0
330
135F2
330
13606
330
13607
330
13611
330
13618
330
1361A
330
13625
330
13626
330
13627
330
1362A
330
1362B
330
1362C
330
1362E
330
1362F
330
13630
330
13634
330
13635
330
13A46
  0
IDBUFFER
  5
13D2D
330
0
100
AcDbIdBuffer
330
13277
330
13280
330
1360A
330
1360C
  0
XRECORD
  5
13FAE
102
{ACAD_REACTORS
330
13FAD
102
}
330
13FAD
100
AcDbXrecord
280
     1
102
SHADEPLOT
 70
     0
102
SHADEPLOTRESLEVEL
 70
     2
102
SHADEPLOTCUSTOMDPI
 70
   300
  0
XRECORD
  5
13FB0
102
{ACAD_REACTORS
330
13FAF
102
}
330
13FAF
100
AcDbXrecord
280
     1
102
SHADEPLOT
 70
     0
102
SHADEPLOTRESLEVEL
 70
     2
102
SHADEPLOTCUSTOMDPI
 70
   300
  0
ENDSEC
  0
EOF
