  0
SECTION
  2
HEADER
  9
$ACADVER
  1
AC1018
  9
$ACADMAINTVER
 70
    39
  9
$DWGCODEPAGE
  3
ANSI_936
  9
$CUSTOMPROPERTYTAG
  1
AmdtFileType
  9
$CUSTOMPROPERTY
  1
84
  9
$INSBASE
 10
0.0
 20
0.0
 30
0.0
  9
$EXTMIN
 10
-316.5918479280096
 20
-41.34043055869156
 30
0.0
  9
$EXTMAX
 10
11.04767320546588
 20
24.4216078732491
 30
0.0
  9
$LIMMIN
 10
0.0
 20
0.0
  9
$LIMMAX
 10
420.0
 20
297.0
  9
$ORTHOMODE
 70
     1
  9
$REGENMODE
 70
     1
  9
$FILLMODE
 70
     1
  9
$QTEXTMODE
 70
     0
  9
$MIRRTEXT
 70
     1
  9
$LTSCALE
 40
1.0
  9
$ATTMODE
 70
     1
  9
$TEXTSIZE
 40
3.799999999999998
  9
$TRACEWID
 40
1.0
  9
$TEXTSTYLE
  7
ACISOTS
  9
$CLAYER
  8
AM_0
  9
$CELTYPE
  6
AM_ISO02W050x2
  9
$CECOLOR
 62
   256
  9
$CELTSCALE
 40
1.0
  9
$DISPSILH
 70
     0
  9
$DIMSCALE
 40
1.0
  9
$DIMASZ
 40
2.5
  9
$DIMEXO
 40
0.0
  9
$DIMDLI
 40
10.0
  9
$DIMRND
 40
0.0
  9
$DIMDLE
 40
0.0
  9
$DIMEXE
 40
1.0
  9
$DIMTP
 40
0.1
  9
$DIMTM
 40
0.1000000001
  9
$DIMTXT
 40
3.799999999999998
  9
$DIMCEN
 40
0.0
  9
$DIMTSZ
 40
0.0
  9
$DIMTOL
 70
     0
  9
$DIMLIM
 70
     0
  9
$DIMTIH
 70
     0
  9
$DIMTOH
 70
     0
  9
$DIMSE1
 70
     0
  9
$DIMSE2
 70
     0
  9
$DIMTAD
 70
     3
  9
$DIMZIN
 70
     1
  9
$DIMBLK
  1
Open30
  9
$DIMASO
 70
     1
  9
$DIMSHO
 70
     1
  9
$DIMPOST
  1

  9
$DIMAPOST
  1
"
  9
$DIMALT
 70
     0
  9
$DIMALTD
 70
     2
  9
$DIMALTF
 40
0.0393701
  9
$DIMLFAC
 40
1.0
  9
$DIMTOFL
 70
     1
  9
$DIMTVP
 40
0.0
  9
$DIMTIX
 70
     0
  9
$DIMSOXD
 70
     0
  9
$DIMSAH
 70
     0
  9
$DIMBLK1
  1

  9
$DIMBLK2
  1

  9
$DIMSTYLE
  2
AM_JIS
  9
$DIMCLRD
 70
   256
  9
$DIMCLRE
 70
   256
  9
$DIMCLRT
 70
     2
  9
$DIMTFAC
 40
0.71
  9
$DIMGAP
 40
1.5
  9
$DIMJUST
 70
     0
  9
$DIMSD1
 70
     0
  9
$DIMSD2
 70
     0
  9
$DIMTOLJ
 70
     0
  9
$DIMTZIN
 70
     8
  9
$DIMALTZ
 70
     0
  9
$DIMALTTZ
 70
     0
  9
$DIMUPT
 70
     0
  9
$DIMDEC
 70
     2
  9
$DIMTDEC
 70
     2
  9
$DIMALTU
 70
     2
  9
$DIMALTTD
 70
     2
  9
$DIMTXSTY
  7
STANDARD
  9
$DIMAUNIT
 70
     1
  9
$DIMADEC
 70
     1
  9
$DIMALTRND
 40
0.0
  9
$DIMAZIN
 70
     0
  9
$DIMDSEP
 70
    46
  9
$DIMATFIT
 70
     3
  9
$DIMFRAC
 70
     0
  9
$DIMLDRBLK
  1
Open30
  9
$DIMLUNIT
 70
     2
  9
$DIMLWD
 70
    -1
  9
$DIMLWE
 70
    -1
  9
$DIMTMOVE
 70
     0
  9
$LUNITS
 70
     2
  9
$LUPREC
 70
     2
  9
$SKETCHINC
 40
1.0
  9
$FILLETRAD
 40
0.8
  9
$AUNITS
 70
     0
  9
$AUPREC
 70
     0
  9
$MENU
  1
.
  9
$ELEVATION
 40
0.0
  9
$PELEVATION
 40
0.0
  9
$THICKNESS
 40
0.0
  9
$LIMCHECK
 70
     0
  9
$CHAMFERA
 40
1.0
  9
$CHAMFERB
 40
1.0
  9
$CHAMFERC
 40
20.0
  9
$CHAMFERD
 40
0.0
  9
$SKPOLY
 70
     0
  9
$TDCREATE
 40
2455413.706588172
  9
$TDUCREATE
 40
2455413.373254838
  9
$TDUPDATE
 40
2455540.733678021
  9
$TDUUPDATE
 40
2455540.400344688
  9
$TDINDWG
 40
0.3346920139
  9
$TDUSRTIMER
 40
0.3346920139
  9
$USRTIMER
 70
     1
  9
$ANGBASE
 50
0.0
  9
$ANGDIR
 70
     0
  9
$PDMODE
 70
     0
  9
$PDSIZE
 40
0.0
  9
$PLINEWID
 40
0.0
  9
$SPLFRAME
 70
     0
  9
$SPLINETYPE
 70
     6
  9
$SPLINESEGS
 70
     8
  9
$HANDSEED
  5
1AEA
  9
$SURFTAB1
 70
     6
  9
$SURFTAB2
 70
     6
  9
$SURFTYPE
 70
     6
  9
$SURFU
 70
     6
  9
$SURFV
 70
     6
  9
$UCSBASE
  2

  9
$UCSNAME
  2

  9
$UCSORG
 10
0.0
 20
0.0
 30
0.0
  9
$UCSXDIR
 10
1.0
 20
0.0
 30
0.0
  9
$UCSYDIR
 10
0.0
 20
1.0
 30
0.0
  9
$UCSORTHOREF
  2

  9
$UCSORTHOVIEW
 70
     0
  9
$UCSORGTOP
 10
0.0
 20
0.0
 30
0.0
  9
$UCSORGBOTTOM
 10
0.0
 20
0.0
 30
0.0
  9
$UCSORGLEFT
 10
0.0
 20
0.0
 30
0.0
  9
$UCSORGRIGHT
 10
0.0
 20
0.0
 30
0.0
  9
$UCSORGFRONT
 10
0.0
 20
0.0
 30
0.0
  9
$UCSORGBACK
 10
0.0
 20
0.0
 30
0.0
  9
$PUCSBASE
  2

  9
$PUCSNAME
  2

  9
$PUCSORG
 10
0.0
 20
0.0
 30
0.0
  9
$PUCSXDIR
 10
1.0
 20
0.0
 30
0.0
  9
$PUCSYDIR
 10
0.0
 20
1.0
 30
0.0
  9
$PUCSORTHOREF
  2

  9
$PUCSORTHOVIEW
 70
     0
  9
$PUCSORGTOP
 10
0.0
 20
0.0
 30
0.0
  9
$PUCSORGBOTTOM
 10
0.0
 20
0.0
 30
0.0
  9
$PUCSORGLEFT
 10
0.0
 20
0.0
 30
0.0
  9
$PUCSORGRIGHT
 10
0.0
 20
0.0
 30
0.0
  9
$PUCSORGFRONT
 10
0.0
 20
0.0
 30
0.0
  9
$PUCSORGBACK
 10
0.0
 20
0.0
 30
0.0
  9
$USERI1
 70
     0
  9
$USERI2
 70
     0
  9
$USERI3
 70
     0
  9
$USERI4
 70
     0
  9
$USERI5
 70
     0
  9
$USERR1
 40
0.0
  9
$USERR2
 40
0.0
  9
$USERR3
 40
0.0
  9
$USERR4
 40
0.0
  9
$USERR5
 40
0.0
  9
$WORLDVIEW
 70
     1
  9
$SHADEDGE
 70
     3
  9
$SHADEDIF
 70
    70
  9
$TILEMODE
 70
     1
  9
$MAXACTVP
 70
    64
  9
$PINSBASE
 10
0.0
 20
0.0
 30
0.0
  9
$PLIMCHECK
 70
     0
  9
$PEXTMIN
 10
1.000000000000000E+20
 20
1.000000000000000E+20
 30
1.000000000000000E+20
  9
$PEXTMAX
 10
-1.000000000000000E+20
 20
-1.000000000000000E+20
 30
-1.000000000000000E+20
  9
$PLIMMIN
 10
0.0
 20
0.0
  9
$PLIMMAX
 10
420.0
 20
297.0
  9
$UNITMODE
 70
     0
  9
$VISRETAIN
 70
     1
  9
$PLINEGEN
 70
     0
  9
$PSLTSCALE
 70
     1
  9
$TREEDEPTH
 70
  3020
  9
$CMLSTYLE
  2
Standard
  9
$CMLJUST
 70
     0
  9
$CMLSCALE
 40
20.0
  9
$PROXYGRAPHICS
 70
     1
  9
$MEASUREMENT
 70
     1
  9
$CELWEIGHT
370
    -1
  9
$ENDCAPS
280
     0
  9
$JOINSTYLE
280
     0
  9
$LWDISPLAY
290
     0
  9
$INSUNITS
 70
     4
  9
$HYPERLINKBASE
  1

  9
$STYLESHEET
  1

  9
$XEDIT
290
     1
  9
$CEPSNTYPE
380
     0
  9
$PSTYLEMODE
290
     1
  9
$FINGERPRINTGUID
  2
{4EF443E9-F763-4CB6-8927-D1E34FDC1C5A}
  9
$VERSIONGUID
  2
{82378AE2-CA68-4EA7-8266-70404CE0C3DC}
  9
$EXTNAMES
290
     1
  9
$PSVPSCALE
 40
0.0
  9
$OLESTARTUP
290
     0
  9
$SORTENTS
280
   127
  9
$INDEXCTL
280
     0
  9
$HIDETEXT
280
     0
  9
$XCLIPFRAME
290
     0
  9
$HALOGAP
280
     0
  9
$OBSCOLOR
 70
   257
  9
$OBSLTYPE
280
     0
  9
$INTERSECTIONDISPLAY
280
     0
  9
$INTERSECTIONCOLOR
 70
   257
  9
$DIMASSOC
280
     2
  9
$PROJECTNAME
  1

  0
ENDSEC
  0
SECTION
  2
CLASSES
  0
CLASS
  1
ACDBDICTIONARYWDFLT
  2
AcDbDictionaryWithDefault
  3
ObjectDBX Classes
 90
        0
 91
        1
280
     0
281
     0
  0
CLASS
  1
ACME_DOCUMENT
  2
AcMeDbDoc
  3
AcMeServices
 90
        0
 91
        2
280
     0
281
     0
  0
CLASS
  1
AMGSETTINGSOBJ
  2
AmgSettingsObj
  3
"AcadM|Product Description: AutoCAD Mechanical 2000|Company: Autodesk"
 90
        0
 91
        2
280
     0
281
     0
  0
CLASS
  1
ACMESCOPE
  2
AcMeScope
  3
AcMeServices
 90
        0
 91
        1
280
     0
281
     0
  0
CLASS
  1
ACMECOMMANDHISTORY
  2
AcMeCommandHistory
  3
AcMeServices
 90
        0
 91
        1
280
     0
281
     0
  0
CLASS
  1
ACIMSYSVARMAN
  2
AcImSysVarManager
  3
AcMeServices
 90
        0
 91
        5
280
     0
281
     0
  0
CLASS
  1
ACIMREALSYSVAR
  2
AcImRealSysVar
  3
AcMeServices
 90
        0
 91
        1
280
     0
281
     0
  0
CLASS
  1
ACIMINTSYSVAR
  2
AcImIntSysVar
  3
AcMeServices
 90
        0
 91
       26
280
     0
281
     0
  0
CLASS
  1
ACMEDRAWINGMAN
  2
AcMeDrawingMan
  3
AcMeServices
 90
        0
 91
        1
280
     0
281
     0
  0
CLASS
  1
ACMEVIEW
  2
AcMeView
  3
AcMeServices
 90
        0
 91
        1
280
     0
281
     0
  0
CLASS
  1
ACDBENTITYCACHE
  2
AcMeEntityCache
  3
AcMeServices
 90
        0
 91
        1
280
     0
281
     0
  0
CLASS
  1
GSMANAGER
  2
AcMeGSManager
  3
AcMeServices
 90
        0
 91
        1
280
     0
281
     0
  0
CLASS
  1
AMDTINTERNALREACTOR
  2
AmdtInternalReactor
  3
AcMeServices
 90
        0
 91
        2
280
     0
281
     0
  0
CLASS
  1
ACMESTATEMGR
  2
AcMeStateMgr
  3
AcMeServices
 90
        0
 91
        1
280
     0
281
     0
  0
CLASS
  1
ACGREFMASTER
  2
AcGrefMaster
  3
AcAttribServices
 90
        0
 91
        1
280
     0
281
     0
  0
CLASS
  1
ACME_DATABASE
  2
AcMeDbDatabase
  3
AcMeServices
 90
        0
 91
        1
280
     0
281
     0
  0
CLASS
  1
ACRFINSADJUSTERMGR
  2
AcRfInsAdjusterMgr
  3
AcMeServices
 90
        0
 91
        1
280
     0
281
     0
  0
CLASS
  1
ACGREFACADMASTER
  2
AcGrefacadMaster
  3
AcGrefServices
 90
        0
 91
        1
280
     0
281
     0
  0
CLASS
  1
AMIMASTER
  2
AmiMaster
  3
AmiServices
 90
        0
 91
        1
280
     0
281
     0
  0
CLASS
  1
ACMDATADICTIONARY
  2
AcmDataDictionary
  3
"AcmSymBB|Product Description: AutoCAD Mechanical 2004 DX|Company: Autodesk"
 90
        0
 91
        1
280
     0
281
     0
  0
CLASS
  1
ACMDATAENTRYBLOCK
  2
AcmDataEntryBlock
  3
"AcmSymBB|Product Description: AutoCAD Mechanical 2004 DX|Company: Autodesk"
 90
        0
 91
        0
280
     0
281
     0
  0
CLASS
  1
ACIMSTRSYSVAR
  2
AcImStrSysVar
  3
AcMeServices
 90
        0
 91
        5
280
     0
281
     0
  0
CLASS
  1
ACMSTANDARDISO
  2
AcmStandardISO
  3
"Amdt_StdImp|Product Description: AutoCAD Mechanical 2004 DX|Company: Autodesk"
 90
        0
 91
        1
280
     0
281
     0
  0
CLASS
  1
AMGOBJPROPCFG
  2
AmgObjPropCfg
  3
"AmgLay|Product Description: AutoCAD Mechanical 2000|Company: Autodesk"
 90
        1
 91
        1
280
     0
281
     0
  0
CLASS
  1
AMDTEDGESTANDARDISO
  2
AmdtEdgeStdISO
  3
"Amdt_StdImp|Product Description: AutoCAD Mechanical 2004 DX|Company: Autodesk"
 90
        0
 91
        0
280
     0
281
     0
  0
CLASS
  1
ACMSURFSTANDARDISO
  2
AcmSurfTextStdISO
  3
"Amdt_StdImp|Product Description: AutoCAD Mechanical 2004 DX|Company: Autodesk"
 90
        0
 91
        1
280
     0
281
     0
  0
CLASS
  1
ACMFCFSTANDARDISO
  2
AcmFCFStdISO
  3
"Amdt_StdImp|Product Description: AutoCAD Mechanical 2004 DX|Company: Autodesk"
 90
        0
 91
        1
280
     0
281
     0
  0
CLASS
  1
ACMWELDSTANDARDISO
  2
AcmWeldingStdISO
  3
"Amdt_StdImp|Product Description: AutoCAD Mechanical 2004 DX|Company: Autodesk"
 90
        0
 91
        1
280
     0
281
     0
  0
CLASS
  1
ACMIDSTANDARDISO
  2
AcmIdStdISO
  3
"Amdt_StdImp|Product Description: AutoCAD Mechanical 2004 DX|Company: Autodesk"
 90
        0
 91
        1
280
     0
281
     0
  0
CLASS
  1
ACMDATUMSTANDARDISO
  2
AcmDatumStdISO
  3
"Amdt_StdImp|Product Description: AutoCAD Mechanical 2004 DX|Company: Autodesk"
 90
        0
 91
        1
280
     0
281
     0
  0
CLASS
  1
ACMBOMSTANDARDISO
  2
AcmBOMStdISO
  3
"Amdt_StdImp|Product Description: AutoCAD Mechanical 2004 DX|Company: Autodesk"
 90
        0
 91
        1
280
     0
281
     0
  0
CLASS
  1
ACMDETAILSTANDARDISO
  2
AmdtDetailSymStdISO
  3
"Amdt_StdImp|Product Description: AutoCAD Mechanical 2004 DX|Company: Autodesk"
 90
        0
 91
        1
280
     0
281
     0
  0
CLASS
  1
ACMSECTIONSTANDARDISO
  2
AmdtSectionSymStdISO
  3
"Amdt_StdImp|Product Description: AutoCAD Mechanical 2004 DX|Company: Autodesk"
 90
        0
 91
        1
280
     0
281
     0
  0
CLASS
  1
ACMCENTERLINESTANDARDISO
  2
AmdtCenterLineStdISO
  3
"Amdt_StdImp|Product Description: AutoCAD Mechanical 2004 DX|Company: Autodesk"
 90
        0
 91
        1
280
     0
281
     0
  0
CLASS
  1
ACMNOTESTANDARDISO
  2
AmdtNoteStdISO
  3
"Amdt_StdImp|Product Description: AutoCAD Mechanical 2004 DX|Company: Autodesk"
 90
        0
 91
        1
280
     0
281
     0
  0
CLASS
  1
ACAMGLAYSTD
  2
AcAmgLayStd
  3
"AcAmgLayStd|Product Description: AutoCAD Mechanical 2000|Company: Autodesk"
 90
        0
 91
        1
280
     0
281
     0
  0
CLASS
  1
ACAMGDIMSTD
  2
AcAmgDimStd
  3
"AcAmgDimStd|Product Description: AutoCAD Mechanical 2000|Company: Autodesk"
 90
        0
 91
        1
280
     0
281
     0
  0
CLASS
  1
ACAMGHOLECHARTSTDISO
  2
AcAmgHoleChartStdISO
  3
ACMSYMBB_MODULE_NAME
 90
        0
 91
        1
280
     0
281
     0
  0
CLASS
  1
ACAMGTITLESTD
  2
AcAmgTitleStd
  3
"TITLEAPP"
 90
        0
 91
        1
280
     0
281
     0
  0
CLASS
  1
LAYER_INDEX
  2
AcDbLayerIndex
  3
ObjectDBX Classes
 90
        0
 91
        0
280
     0
281
     0
  0
CLASS
  1
IDBUFFER
  2
AcDbIdBuffer
  3
ObjectDBX Classes
 90
        0
 91
        0
280
     0
281
     0
  0
CLASS
  1
DICTIONARYVAR
  2
AcDbDictionaryVar
  3
ObjectDBX Classes
 90
        0
 91
        3
280
     0
281
     0
  0
CLASS
  1
AM_DRAWING_MGR
  2
AcDmDwgMgr
  3
AcMechDwgViewMgmt
 90
        0
 91
        1
280
     0
281
     0
  0
CLASS
  1
AM_DWG_DOCUMENT
  2
AcDmDwgDocument
  3
AcMechDwgViewMgmt
 90
        0
 91
        1
280
     0
281
     0
  0
CLASS
  1
AM_DWG_SHEET
  2
AcDmSheet
  3
AcMechDwgViewMgmt
 90
        0
 91
        2
280
     0
281
     0
  0
CLASS
  1
AM_VIEWDIMPARMAP
  2
AcDmViewDimParMap
  3
AcMechDwgViewMgmt
 90
        0
 91
        2
280
     0
281
     0
  0
CLASS
  1
AM_DWGMGR_NAME
  2
AcDmDwgMgrName
  3
AcMechDwgViewMgmt
 90
        0
 91
        1
280
     0
281
     0
  0
CLASS
  1
AMDTMENUSTATEMGR
  2
AmdtMenuStateMgr
  3
McadcomServices
 90
        0
 91
        1
280
     0
281
     0
  0
CLASS
  1
AMDTMCOMMENUSTATE
  2
AmdtMcomMenuState
  3
McadcomServices
 90
        0
 91
        1
280
     0
281
     0
  0
CLASS
  1
MAPIAMMOUDLE
  2
MApiAmModule
  3
MApiAmServices
 90
        0
 91
        1
280
     0
281
     0
  0
CLASS
  1
AMDTADMENUSTATE
  2
AmdtAdMenuState
  3
DesignerServices
 90
        0
 91
        1
280
     0
281
     0
  0
CLASS
  1
ADAPPL
  2
AcAdAppl
  3
DesignerServices
 90
        0
 91
        1
280
     0
281
     0
  0
CLASS
  1
DEPMGR
  2
AcAdDepMgr
  3
DesignerServices
 90
        0
 91
        1
280
     0
281
     0
  0
CLASS
  1
PARAMMGR
  2
AcAdParamMgr
  3
DesignerServices
 90
        0
 91
        1
280
     0
281
     0
  0
CLASS
  1
PARAMSCOPE
  2
AcAdParamScope
  3
DesignerServices
 90
        0
 91
        1
280
     0
281
     0
  0
CLASS
  1
NAMEDAPPL
  2
AcAdNamedAppl
  3
DesignerServices
 90
        0
 91
        1
280
     0
281
     0
  0
CLASS
  1
AMDTDMMENUSTATE
  2
AmdtDmMenuState
  3
AcMechDwgViewMgmt
 90
        0
 91
        1
280
     0
281
     0
  0
CLASS
  1
AMDTAMMENUSTATE
  2
AmdtAmMenuState
  3
DesignerAssemblies
 90
        0
 91
        1
280
     0
281
     0
  0
CLASS
  1
ACAMPROJECT
  2
AcAmProject
  3
DesignerAssemblies
 90
        0
 91
        1
280
     0
281
     0
  0
CLASS
  1
ACAMGRCOMPDEF
  2
AcAmGrCompDef
  3
DesignerAssemblies
 90
        0
 91
        1
280
     0
281
     0
  0
CLASS
  1
ACCMCONTEXT
  2
AcCmContext
  3
DesignerAssemblies
 90
        0
 91
        1
280
     0
281
     0
  0
CLASS
  1
ACAMCOMPDEF
  2
AcAmCompDef
  3
DesignerAssemblies
 90
        0
 91
        1
280
     0
281
     0
  0
CLASS
  1
ACAMCOMPDEFMGR
  2
AcAmCompDefMgr
  3
DesignerAssemblies
 90
        0
 91
        1
280
     0
281
     0
  0
CLASS
  1
AMCONTEXTMGR
  2
AcAmContextMgr
  3
DesignerAssemblies
 90
        0
 91
        1
280
     0
281
     0
  0
CLASS
  1
ACAMCONTEXTMODELER
  2
AcAmContextModeler
  3
DesignerAssemblies
 90
        0
 91
        1
280
     0
281
     0
  0
CLASS
  1
ACMTHREADLINESTANDARDISO
  2
AmdtThreadLineStdISO
  3
"Amdt_StdImp|Product Description: AutoCAD Mechanical 2004 DX|Company: Autodesk"
 90
        0
 91
        1
280
     0
281
     0
  0
CLASS
  1
CATALOGSTATE
  2
AcAmCatalogState
  3
DesignerAssemblies
 90
        0
 91
        1
280
     0
281
     0
  0
CLASS
  1
ACAMGRCOMPDEFSET
  2
AcAmGrCompDefSet
  3
DesignerAssemblies
 90
        0
 91
        1
280
     0
281
     0
  0
CLASS
  1
AMDTBROWSERDBTAB
  2
AmdtBrowserDbTab
  3
McadcomServices
 90
        0
 91
        1
280
     0
281
     0
  0
CLASS
  1
CBROWSERAPPOBJECT
  2
CBrowserAppObject
  3
McadcomServices
 90
        0
 91
        3
280
     0
281
     0
  0
CLASS
  1
DM_PLACEHOLDER
  2
AcDmSelsetPlaceholder
  3
AcMechDwgViewMgmt
 90
        0
 91
        1
280
     0
281
     0
  0
CLASS
  1
TABLESTYLE
  2
AcDbTableStyle
  3
ObjectDBX Classes
 90
     2047
 91
        1
280
     0
281
     0
  0
CLASS
  1
VAACXREFPANELOBJECT
  2
VaAcXREFPanelObject
  3
VAAC_ADDIN
 90
        0
 91
        0
280
     0
281
     0
  0
CLASS
  1
VAACIMAGEINVENTORY
  2
VaAcImageInventory
  3
VAAC_ADDIN
 90
        0
 91
        0
280
     0
281
     0
  0
CLASS
  1
AMDTNOTETEMPLATEDB
  2
AmdtNoteTemplateDB
  3
AMDT_STDIMP_MODULE_NAME
 90
        0
 91
        5
280
     0
281
     0
  0
CLASS
  1
ACMBOM
  2
AcmBom
  3
"AcmSymBB|Product Description: AutoCAD Mechanical 2004 DX|Company: Autodesk"
 90
        0
 91
        0
280
     0
281
     0
  0
CLASS
  1
AMDTFORMULAUPDATEDISPATCHER
  2
AmdtFormulaUpdateDispatcher
  3
AcMeServices
 90
        0
 91
        0
280
     0
281
     0
  0
CLASS
  1
ACMPARTLIST
  2
AcmPartList
  3
"AcmSymBB|Product Description: AutoCAD Mechanical 2004 DX|Company: Autodesk"
 90
     1023
 91
        0
280
     0
281
     1
  0
CLASS
  1
ACAMGFILTERDAT
  2
AcAmgFilterDat
  3
"AcadM|Product Description: AutoCAD Mechanical 2000|Company: Autodesk"
 90
        0
 91
        0
280
     0
281
     0
  0
CLASS
  1
ACMSTANDARDJIS
  2
AcmStandardJIS
  3
"Amdt_StdImp|Product Description: AutoCAD Mechanical 2004 DX|Company: Autodesk"
 90
        0
 91
        0
280
     0
281
     0
  0
CLASS
  1
ACMSURFSTANDARDJIS
  2
AcmSurfTextStdJIS
  3
"Amdt_StdImp|Product Description: AutoCAD Mechanical 2004 DX|Company: Autodesk"
 90
        0
 91
        0
280
     0
281
     0
  0
CLASS
  1
ACMFCFSTANDARDJIS98
  2
AcmFCFStdJIS98
  3
"Amdt_StdImp|Product Description: AutoCAD Mechanical 2004 DX|Company: Autodesk"
 90
        0
 91
        0
280
     0
281
     0
  0
CLASS
  1
ACMWELDSTANDARDJIS
  2
AcmWeldingStdJIS
  3
"Amdt_StdImp|Product Description: AutoCAD Mechanical 2004 DX|Company: Autodesk"
 90
        0
 91
        0
280
     0
281
     0
  0
CLASS
  1
ACMIDSTANDARDJIS
  2
AcmIdStdJIS
  3
"Amdt_StdImp|Product Description: AutoCAD Mechanical 2004 DX|Company: Autodesk"
 90
        0
 91
        0
280
     0
281
     0
  0
CLASS
  1
ACMDATUMSTANDARDJIS
  2
AcmDatumStdJIS
  3
"Amdt_StdImp|Product Description: AutoCAD Mechanical 2004 DX|Company: Autodesk"
 90
        0
 91
        0
280
     0
281
     0
  0
CLASS
  1
ACMBOMSTANDARDJIS
  2
AcmBOMStdJIS
  3
"Amdt_StdImp|Product Description: AutoCAD Mechanical 2004 DX|Company: Autodesk"
 90
        0
 91
        0
280
     0
281
     0
  0
CLASS
  1
ACMDETAILSTANDARDJIS
  2
AmdtDetailSymStdJIS
  3
"Amdt_StdImp|Product Description: AutoCAD Mechanical 2004 DX|Company: Autodesk"
 90
        0
 91
        0
280
     0
281
     0
  0
CLASS
  1
ACMSECTIONSTANDARDJIS
  2
AmdtSectionSymStdJIS
  3
"Amdt_StdImp|Product Description: AutoCAD Mechanical 2004 DX|Company: Autodesk"
 90
        0
 91
        0
280
     0
281
     0
  0
CLASS
  1
ACMCENTERLINESTANDARDJIS
  2
AmdtCenterLineStdJIS
  3
"Amdt_StdImp|Product Description: AutoCAD Mechanical 2004 DX|Company: Autodesk"
 90
        0
 91
        0
280
     0
281
     0
  0
CLASS
  1
ACMTHREADLINESTANDARDJIS
  2
AmdtThreadLineStdJIS
  3
"Amdt_StdImp|Product Description: AutoCAD Mechanical 2004 DX|Company: Autodesk"
 90
        0
 91
        0
280
     0
281
     0
  0
CLASS
  1
ACMNOTESTANDARDJIS
  2
AmdtNoteStdJIS
  3
"Amdt_StdImp|Product Description: AutoCAD Mechanical 2004 DX|Company: Autodesk"
 90
        0
 91
        0
280
     0
281
     0
  0
CLASS
  1
ACAMGHOLECHARTSTDJIS
  2
AcAmgHoleChartStdJIS
  3
ACMSYMBB_MODULE_NAME
 90
        0
 91
        0
280
     0
281
     0
  0
CLASS
  1
SORTENTSTABLE
  2
AcDbSortentsTable
  3
ObjectDBX Classes
 90
        0
 91
        1
280
     0
281
     0
  0
CLASS
  1
DIMASSOC
  2
AcDbDimAssoc
  3
"AcDbDimAssoc|Product Desc:     AcDim ARX App For Dimension|Company:          Autodesk, Inc.|WEB Address:      www.autodesk.com"
 90
        0
 91
        1
280
     0
281
     0
  0
CLASS
  1
ACRFATTGENMGR
  2
AcRfAttGeneralMgr
  3
AcAttribServices
 90
        0
 91
        1
280
     0
281
     0
  0
CLASS
  1
AMDTEDGESTANDARDISO13715
  2
AmdtEdgeStdISO13715
  3
"Amdt_StdImp|Product Description: AutoCAD Mechanical 2004 DX|Company: Autodesk"
 90
        0
 91
        1
280
     0
281
     0
  0
CLASS
  1
ACMSTANDARDANSI
  2
AcmStandardANSI
  3
"Amdt_StdImp|Product Description: AutoCAD Mechanical 2004 DX|Company: Autodesk"
 90
        0
 91
        0
280
     0
281
     0
  0
CLASS
  1
ACMSURFSTANDARDANSI
  2
AcmSurfTextStdANSI
  3
"Amdt_StdImp|Product Description: AutoCAD Mechanical 2004 DX|Company: Autodesk"
 90
        0
 91
        0
280
     0
281
     0
  0
CLASS
  1
ACMFCFSTANDARDANSI
  2
AcmFCFStdANSI
  3
"Amdt_StdImp|Product Description: AutoCAD Mechanical 2004 DX|Company: Autodesk"
 90
        0
 91
        0
280
     0
281
     0
  0
CLASS
  1
ACMWELDSTANDARDANSI
  2
AcmWeldingStdANSI
  3
"Amdt_StdImp|Product Description: AutoCAD Mechanical 2004 DX|Company: Autodesk"
 90
        0
 91
        0
280
     0
281
     0
  0
CLASS
  1
ACMIDSTANDARDANSI
  2
AcmIdStdANSI
  3
"Amdt_StdImp|Product Description: AutoCAD Mechanical 2004 DX|Company: Autodesk"
 90
        0
 91
        0
280
     0
281
     0
  0
CLASS
  1
ACMDATUMSTANDARDANSI
  2
AcmDatumStdANSI
  3
"Amdt_StdImp|Product Description: AutoCAD Mechanical 2004 DX|Company: Autodesk"
 90
        0
 91
        0
280
     0
281
     0
  0
CLASS
  1
ACMBOMSTANDARDANSI
  2
AcmBOMStdANSI
  3
"Amdt_StdImp|Product Description: AutoCAD Mechanical 2004 DX|Company: Autodesk"
 90
        0
 91
        0
280
     0
281
     0
  0
CLASS
  1
ACMDETAILSTANDARDANSI
  2
AmdtDetailSymStdANSI
  3
"Amdt_StdImp|Product Description: AutoCAD Mechanical 2004 DX|Company: Autodesk"
 90
        0
 91
        0
280
     0
281
     0
  0
CLASS
  1
ACMSECTIONSTANDARDANSI
  2
AmdtSectionSymStdANSI
  3
"Amdt_StdImp|Product Description: AutoCAD Mechanical 2004 DX|Company: Autodesk"
 90
        0
 91
        0
280
     0
281
     0
  0
CLASS
  1
ACMCENTERLINESTANDARDANSI
  2
AmdtCenterLineStdANSI
  3
"Amdt_StdImp|Product Description: AutoCAD Mechanical 2004 DX|Company: Autodesk"
 90
        0
 91
        0
280
     0
281
     0
  0
CLASS
  1
ACMTHREADLINESTANDARDANSI
  2
AmdtThreadLineStdANSI
  3
"Amdt_StdImp|Product Description: AutoCAD Mechanical 2004 DX|Company: Autodesk"
 90
        0
 91
        0
280
     0
281
     0
  0
CLASS
  1
ACMNOTESTANDARDANSI
  2
AmdtNoteStdANSI
  3
"Amdt_StdImp|Product Description: AutoCAD Mechanical 2004 DX|Company: Autodesk"
 90
        0
 91
        0
280
     0
281
     0
  0
CLASS
  1
ACAMGHOLECHARTSTDANSI
  2
AcAmgHoleChartStdANSI
  3
ACMSYMBB_MODULE_NAME
 90
        0
 91
        0
280
     0
281
     0
  0
ENDSEC
  0
SECTION
  2
TABLES
  0
TABLE
  2
VPORT
  5
8
330
0
100
AcDbSymbolTable
 70
    45
  0
VPORT
  5
1AE9
330
8
100
AcDbSymbolTableRecord
100
AcDbViewportTableRecord
  2
*Active
 70
     0
 10
0.0
 20
0.0
 11
1.0
 21
1.0
 12
-55.59231800816411
 22
-18.73894323266374
 13
0.0
 23
0.0
 14
2.5
 24
2.5
 15
10.0
 25
10.0
 16
0.0
 26
0.0
 36
1.0
 17
0.0
 27
0.0
 37
0.0
 40
134.6379964419255
 41
1.212005108556832
 42
50.0
 43
0.0
 44
0.0
 50
0.0
 51
0.0
 71
     0
 72
  2000
 73
     1
 74
     3
 75
     0
 76
     0
 77
     0
 78
     0
281
     0
 65
     0
110
0.0
120
0.0
130
0.0
111
1.0
121
0.0
131
0.0
112
0.0
122
1.0
132
0.0
 79
     0
146
0.0
  0
ENDTAB
  0
TABLE
  2
LTYPE
  5
5
330
0
100
AcDbSymbolTable
 70
    22
  0
LTYPE
  5
14
330
5
100
AcDbSymbolTableRecord
100
AcDbLinetypeTableRecord
  2
ByBlock
 70
     0
  3

 72
    65
 73
     0
 40
0.0
  0
LTYPE
  5
15
330
5
100
AcDbSymbolTableRecord
100
AcDbLinetypeTableRecord
  2
ByLayer
 70
     0
  3

 72
    65
 73
     0
 40
0.0
  0
LTYPE
  5
16
330
5
100
AcDbSymbolTableRecord
100
AcDbLinetypeTableRecord
  2
Continuous
 70
     0
  3
Solid line
 72
    65
 73
     0
 40
0.0
  0
LTYPE
  5
64
330
5
100
AcDbSymbolTableRecord
100
AcDbLinetypeTableRecord
  2
AM_ISO02W050
 70
     0
  3
__ __ __ __ __ __ __ __ __ __ __ __ __ __ __
 72
    65
 73
     2
 40
7.5
 49
6.0
 74
     0
 49
-1.5
 74
     0
  0
LTYPE
  5
65
330
5
100
AcDbSymbolTableRecord
100
AcDbLinetypeTableRecord
  2
AM_ISO08W050
 70
     0
  3
____ . ____ . ____ . ____ . ____ . ____ . ____
 72
    65
 73
     4
 40
18.0
 49
12.0
 74
     0
 49
-1.5
 74
     0
 49
3.0
 74
     0
 49
-1.5
 74
     0
  0
LTYPE
  5
66
330
5
100
AcDbSymbolTableRecord
100
AcDbLinetypeTableRecord
  2
AM_ISO09W050
 70
     0
  3
_____ . . _____ . . _____ . . ____ .. ____
 72
    65
 73
     6
 40
22.5
 49
12.0
 74
     0
 49
-1.5
 74
     0
 49
3.0
 74
     0
 49
-1.5
 74
     0
 49
3.0
 74
     0
 49
-1.5
 74
     0
  0
LTYPE
  5
67
330
5
100
AcDbSymbolTableRecord
100
AcDbLinetypeTableRecord
  2
Amconstr
 70
     0
  3
_______________________
 72
    65
 73
     2
 40
9999.0
 49
9999.0
 74
     0
 49
0.0
 74
     0
  0
LTYPE
  5
68
330
5
100
AcDbSymbolTableRecord
100
AcDbLinetypeTableRecord
  2
AM_ISO08W050x2
 70
     0
  3
__ . __ . __ . __ . __ . __
 72
    65
 73
     4
 40
9.0
 49
6.0
 74
     0
 49
-0.75
 74
     0
 49
1.5
 74
     0
 49
-0.75
 74
     0
  0
LTYPE
  5
69
330
5
100
AcDbSymbolTableRecord
100
AcDbLinetypeTableRecord
  2
AM_ISO02W050x2
 70
     0
  3
 _ _ _ _ _ _ _ _ _ _ _ _
 72
    65
 73
     2
 40
3.75
 49
3.0
 74
     0
 49
-0.75
 74
     0
  0
LTYPE
  5
6C
330
5
100
AcDbSymbolTableRecord
100
AcDbLinetypeTableRecord
  2
Amzigzag
 70
     0
  3
/\/-/\/-/\/-/\/-/\/-/\/
 72
    65
 73
     2
 40
11.0001
 49
0.0001
 74
     4
 75
   135
340
6B
 46
0.04
 50
0.0
 44
0.0
 45
0.0
 49
-11.0
 74
     0
  0
LTYPE
  5
7A
330
5
100
AcDbSymbolTableRecord
100
AcDbLinetypeTableRecord
  2
ACISOWELD
 70
     0
  3
_ _ _ _ _
 72
    65
 73
     2
 40
2.0
 49
2.0
 74
     0
 49
-1.0
 74
     0
  0
LTYPE
  5
7B
330
5
100
AcDbSymbolTableRecord
100
AcDbLinetypeTableRecord
  2
ACISOTGB
 70
     0
  3
__ . . __ . .
 72
    65
 73
     6
 40
9.0
 49
4.0
 74
     0
 49
-1.0
 74
     0
 49
1.0
 74
     0
 49
-1.0
 74
     0
 49
1.0
 74
     0
 49
-1.0
 74
     0
  0
LTYPE
  5
7C
330
5
100
AcDbSymbolTableRecord
100
AcDbLinetypeTableRecord
  2
ACISOTGL
 70
     0
  3
_ _ _ _ _
 72
    65
 73
     2
 40
3.0
 49
2.0
 74
     0
 49
-1.0
 74
     0
  0
LTYPE
  5
7E
330
5
100
AcDbSymbolTableRecord
100
AcDbLinetypeTableRecord
  2
CENTER
 70
     0
  3
__ . __
 72
    65
 73
     4
 40
7.0
 49
4.0
 74
     0
 49
-1.0
 74
     0
 49
1.0
 74
     0
 49
-1.0
 74
     0
  0
LTYPE
  5
D8
330
5
100
AcDbSymbolTableRecord
100
AcDbLinetypeTableRecord
  2
HIDDEN
 70
     0
  3
Hidden __ __ __ __ __ __ __ __ __ __ __ __ __ _
 72
    65
 73
     2
 40
9.524999999999996
 49
6.349999999999998
 74
     0
 49
-3.174999999999998
 74
     0
  0
LTYPE
  5
D9
330
5
100
AcDbSymbolTableRecord
100
AcDbLinetypeTableRecord
  2
PHANTOM2
 70
     0
  3
Phantom (.5x) ___ _ _ ___ _ _ ___ _ _ ___ _ _
 72
    65
 73
     6
 40
31.75
 49
15.875
 74
     0
 49
-3.174999999999998
 74
     0
 49
3.174999999999998
 74
     0
 49
-3.174999999999998
 74
     0
 49
3.174999999999998
 74
     0
 49
-3.174999999999998
 74
     0
  0
LTYPE
  5
20C
330
5
100
AcDbSymbolTableRecord
100
AcDbLinetypeTableRecord
  2
ACJISWELD
 70
     0
  3
_ _ _ _ _
 72
    65
 73
     2
 40
2.0
 49
2.0
 74
     0
 49
-1.0
 74
     0
  0
LTYPE
  5
20D
330
5
100
AcDbSymbolTableRecord
100
AcDbLinetypeTableRecord
  2
ACJISTGB
 70
     0
  3
__ . . __ . .
 72
    65
 73
     6
 40
9.0
 49
4.0
 74
     0
 49
-1.0
 74
     0
 49
1.0
 74
     0
 49
-1.0
 74
     0
 49
1.0
 74
     0
 49
-1.0
 74
     0
  0
LTYPE
  5
20E
330
5
100
AcDbSymbolTableRecord
100
AcDbLinetypeTableRecord
  2
ACJISTGL
 70
     0
  3
_ _ _ _ _
 72
    65
 73
     2
 40
3.0
 49
2.0
 74
     0
 49
-1.0
 74
     0
  0
LTYPE
  5
1240
330
5
100
AcDbSymbolTableRecord
100
AcDbLinetypeTableRecord
  2
CENTER2
 70
     0
  3
Center (.5x) ___ _ ___ _ ___ _ ___ _ ___ _ ___
 72
    65
 73
     4
 40
1.125
 49
0.75
 74
     0
 49
-0.125
 74
     0
 49
0.125
 74
     0
 49
-0.125
 74
     0
  0
LTYPE
  5
1241
330
5
100
AcDbSymbolTableRecord
100
AcDbLinetypeTableRecord
  2
HIDDEN2
 70
     0
  3
Hidden (.5x) _ _ _ _ _ _ _ _ _ _ _ _ _ _ _ _ _
 72
    65
 73
     2
 40
0.1875
 49
0.125
 74
     0
 49
-0.0625
 74
     0
  0
LTYPE
  5
1242
330
5
100
AcDbSymbolTableRecord
100
AcDbLinetypeTableRecord
  2
Amzigzag2
 70
     0
  3
/\/-/\/-/\/-/\/-/\/-/\/
 72
    65
 73
     2
 40
0.4401
 49
0.0001
 74
     4
 75
   135
340
6B
 46
0.0016
 50
0.0
 44
0.0
 45
0.0
 49
-0.4400000000000002
 74
     0
  0
LTYPE
  5
1243
330
5
100
AcDbSymbolTableRecord
100
AcDbLinetypeTableRecord
  2
ACANSTGB
 70
     0
  3
__ . . __ . .
 72
    65
 73
     6
 40
0.35433070866
 49
0.15748031496
 74
     0
 49
-0.03937007874
 74
     0
 49
0.03937007874
 74
     0
 49
-0.03937007874
 74
     0
 49
0.03937007874
 74
     0
 49
-0.03937007874
 74
     0
  0
LTYPE
  5
1244
330
5
100
AcDbSymbolTableRecord
100
AcDbLinetypeTableRecord
  2
ACANSTGL
 70
     0
  3
_ _ _ _ _
 72
    65
 73
     2
 40
0.11811023622
 49
0.07874015748
 74
     0
 49
-0.03937007874
 74
     0
  0
ENDTAB
  0
TABLE
  2
LAYER
  5
2
102
{ACAD_XDICTIONARY
360
34B
102
}
330
0
100
AcDbSymbolTable
 70
    10
  0
LAYER
  5
10
330
2
100
AcDbSymbolTableRecord
100
AcDbLayerTableRecord
  2
0
 70
     0
 62
     7
  6
Continuous
370
    -3
390
F
  0
LAYER
  5
34A
330
2
100
AcDbSymbolTableRecord
100
AcDbLayerTableRecord
  2
AM_0
 70
     0
 62
     7
  6
Continuous
370
    30
390
F
  0
LAYER
  5
69B
330
2
100
AcDbSymbolTableRecord
100
AcDbLayerTableRecord
  2
AM_CL
 70
     0
 62
     1
  6
Amconstr
370
    30
390
F
  0
LAYER
  5
72C
330
2
100
AcDbSymbolTableRecord
100
AcDbLayerTableRecord
  2
AM_7
 70
     0
 62
     4
  6
AM_ISO08W050
370
    13
390
F
  0
LAYER
  5
733
330
2
100
AcDbSymbolTableRecord
100
AcDbLayerTableRecord
  2
AM_5
 70
     0
 62
     3
  6
Continuous
370
    13
390
F
  0
LAYER
  5
78B
330
2
100
AcDbSymbolTableRecord
100
AcDbLayerTableRecord
  2
Defpoints
 70
     0
 62
     7
  6
Continuous
290
     0
370
    -3
390
F
  0
LAYER
  5
91E
330
2
100
AcDbSymbolTableRecord
100
AcDbLayerTableRecord
  2
AM_11
 70
     0
 62
     3
  6
AM_ISO09W050
370
    13
390
F
  0
LAYER
  5
9EB
330
2
100
AcDbSymbolTableRecord
100
AcDbLayerTableRecord
  2
AM_6
 70
     0
 62
     2
  6
Continuous
370
    30
390
F
  0
LAYER
  5
1245
330
2
100
AcDbSymbolTableRecord
100
AcDbLayerTableRecord
  2
1
 70
     0
 62
     7
  6
Continuous
370
    -3
390
F
  0
LAYER
  5
1AA6
330
2
100
AcDbSymbolTableRecord
100
AcDbLayerTableRecord
  2
AM_3
 70
     0
 62
     6
  6
AM_ISO02W050
370
    25
390
F
  0
ENDTAB
  0
TABLE
  2
STYLE
  5
3
330
0
100
AcDbSymbolTable
 70
    11
  0
STYLE
  5
11
330
3
100
AcDbSymbolTableRecord
100
AcDbTextStyleTableRecord
  2
STANDARD
 70
     0
 40
0.0
 41
1.0
 50
0.0
 71
     0
 42
3.799999999999998
  3
ISOCP.SHX
  4
EXTFONT.SHX
  0
STYLE
  5
6B
330
3
100
AcDbSymbolTableRecord
100
AcDbTextStyleTableRecord
  2

 70
     1
 40
0.0
 41
1.0
 50
0.0
 71
     0
 42
2.5
  3
ltypeshp.shx
  4

  0
STYLE
  5
6D
330
3
100
AcDbSymbolTableRecord
100
AcDbTextStyleTableRecord
  2
ACISOTS
 70
     0
 40
0.0
 41
1.0
 50
0.0
 71
     0
 42
3.799999999999998
  3
isocp.shx
  4
extfont.shx
  0
STYLE
  5
79
330
3
100
AcDbSymbolTableRecord
100
AcDbTextStyleTableRecord
  2
ACISOGDT
 70
     0
 40
0.0
 41
1.0
 50
0.0
 71
     0
 42
2.5
  3
amgdt.shx
  4
extfont.shx
  0
STYLE
  5
1F8
330
3
100
AcDbSymbolTableRecord
100
AcDbTextStyleTableRecord
  2
USER1
 70
     0
 40
0.0
 41
1.0
 50
0.0
 71
     0
 42
1.0
  3
TXT.SHX
  4

  0
STYLE
  5
1F9
330
3
100
AcDbSymbolTableRecord
100
AcDbTextStyleTableRecord
  2
USER2
 70
     0
 40
0.0
 41
1.0
 50
0.0
 71
     0
 42
1.0
  3
SIMPLEX.SHX
  4

  0
STYLE
  5
1FA
330
3
100
AcDbSymbolTableRecord
100
AcDbTextStyleTableRecord
  2
USER3
 70
     0
 40
0.0
 41
1.0
 50
0.0
 71
     0
 42
1.0
  3
ITALIC.SHX
  4

  0
STYLE
  5
1FF
330
3
100
AcDbSymbolTableRecord
100
AcDbTextStyleTableRecord
  2
ACJISTS
 70
     0
 40
1.0
 41
1.0
 50
0.0
 71
     0
 42
1.0
  3
isocp.shx
  4
extfont.shx
  0
STYLE
  5
20B
330
3
100
AcDbSymbolTableRecord
100
AcDbTextStyleTableRecord
  2
ACJISGDT
 70
     0
 40
0.0
 41
1.0
 50
0.0
 71
     0
 42
1.0
  3
amgdt.shx
  4

  0
STYLE
  5
1246
330
3
100
AcDbSymbolTableRecord
100
AcDbTextStyleTableRecord
  2
ACANSTS
 70
     0
 40
1.0
 41
1.0
 50
0.0
 71
     0
 42
2.5
  3
romans.shx
  4
gbcbig.shx
  0
STYLE
  5
1247
330
3
100
AcDbSymbolTableRecord
100
AcDbTextStyleTableRecord
  2
ACANSGDT
 70
     0
 40
0.0
 41
1.0
 50
0.0
 71
     0
 42
2.5
  3
amgdtans.shx
  4

  0
ENDTAB
  0
TABLE
  2
VIEW
  5
6
330
0
100
AcDbSymbolTable
 70
     0
  0
ENDTAB
  0
TABLE
  2
UCS
  5
7
330
0
100
AcDbSymbolTable
 70
     0
  0
ENDTAB
  0
TABLE
  2
APPID
  5
9
330
0
100
AcDbSymbolTable
 70
    14
  0
APPID
  5
12
330
9
100
AcDbSymbolTableRecord
100
AcDbRegAppTableRecord
  2
ACAD
 70
     0
  0
APPID
  5
46
330
9
100
AcDbSymbolTableRecord
100
AcDbRegAppTableRecord
  2
MCAD_NO_VIS
 70
     0
  0
APPID
  5
47
330
9
100
AcDbSymbolTableRecord
100
AcDbRegAppTableRecord
  2
ACAD_TEMP_GRAPHIC
 70
     0
  0
APPID
  5
58
330
9
100
AcDbSymbolTableRecord
100
AcDbRegAppTableRecord
  2
ACATTRIBSERVICES
 70
     0
  0
APPID
  5
EE
330
9
100
AcDbSymbolTableRecord
100
AcDbRegAppTableRecord
  2
AD_DRAW
 70
     0
  0
APPID
  5
10C
330
9
100
AcDbSymbolTableRecord
100
AcDbRegAppTableRecord
  2
DESIGNERASSEMBLIES
 70
     0
  0
APPID
  5
111
330
9
100
AcDbSymbolTableRecord
100
AcDbRegAppTableRecord
  2
ACADM_DIM_EDIT
 70
     0
  0
APPID
  5
112
330
9
100
AcDbSymbolTableRecord
100
AcDbRegAppTableRecord
  2
AMDT_DM_ADJ
 70
     0
  0
APPID
  5
243
330
9
100
AcDbSymbolTableRecord
100
AcDbRegAppTableRecord
  2
ACAD_DSTYLE_DIMTEXT_FILL
 70
     0
  0
APPID
  5
3AC
330
9
100
AcDbSymbolTableRecord
100
AcDbRegAppTableRecord
  2
ACAD_PSEXT
 70
     0
  0
APPID
  5
634
330
9
100
AcDbSymbolTableRecord
100
AcDbRegAppTableRecord
  2
GENIUS_GENODEF_13
 70
     0
  0
APPID
  5
635
330
9
100
AcDbSymbolTableRecord
100
AcDbRegAppTableRecord
  2
GENIUS_GENOBJ-N-FIL_13
 70
     0
  0
APPID
  5
72E
330
9
100
AcDbSymbolTableRecord
100
AcDbRegAppTableRecord
  2
GENIUS_GENOBJ-N-CEN_13
 70
     0
  0
APPID
  5
72F
330
9
100
AcDbSymbolTableRecord
100
AcDbRegAppTableRecord
  2
GENIUS_GENCEN_19
 70
     0
  0
ENDTAB
  0
TABLE
  2
DIMSTYLE
  5
A
330
0
100
AcDbSymbolTable
 70
    24
100
AcDbDimStyleTable
 71
     2
340
216
340
81
  0
DIMSTYLE
105
27
330
A
100
AcDbSymbolTableRecord
100
AcDbDimStyleTableRecord
  2
ISO-25
 70
     0
 41
2.5
 42
0.625
 43
3.75
 44
1.25
 73
     0
 74
     0
 77
     1
 78
     8
140
2.5
141
2.5
143
0.03937007874016
147
0.625
171
     3
172
     1
271
     2
272
     2
274
     3
278
    44
283
     0
284
     8
340
11
  0
DIMSTYLE
105
81
330
A
100
AcDbSymbolTableRecord
100
AcDbDimStyleTableRecord
  2
AM_ISO
 70
     0
  4
"
 41
2.5
 42
1.0
 43
10.0
 44
1.0
 47
0.1
 48
0.1
 73
     0
 74
     0
 77
     1
 78
     8
 79
     2
140
3.5
141
0.0
143
0.0393701
146
0.71
147
1.5
172
     1
176
   256
177
   256
178
     2
271
     2
272
     3
274
     4
283
     0
284
     8
340
11
371
    -1
372
    -1
  0
DIMSTYLE
105
82
330
A
100
AcDbSymbolTableRecord
100
AcDbDimStyleTableRecord
  2
AM_ISO$3
 70
     0
  4
"
 41
2.5
 42
1.0
 43
10.0
 44
1.0
 47
0.1
 48
0.1
 73
     0
 77
     1
 78
     8
 79
     2
140
3.5
141
0.0
143
0.0393701
146
0.71
147
1.5
176
   256
177
   256
178
     2
271
     2
272
     3
274
     4
283
     0
284
     8
288
     1
289
     0
340
11
371
    -1
372
    -1
  0
DIMSTYLE
105
83
330
A
100
AcDbSymbolTableRecord
100
AcDbDimStyleTableRecord
  2
AM_ISO$4
 70
     0
  4
"
 41
2.5
 42
1.0
 43
10.0
 44
1.0
 47
0.1
 48
0.1
 73
     0
 77
     1
 78
     8
 79
     2
140
3.5
141
0.0
143
0.0393701
146
0.71
147
1.5
176
   256
177
   256
178
     2
271
     2
272
     3
274
     4
283
     0
284
     8
288
     1
289
     0
340
11
371
    -1
372
    -1
  0
DIMSTYLE
105
84
330
A
100
AcDbSymbolTableRecord
100
AcDbDimStyleTableRecord
  2
AM_ISO$6
 70
     0
  4
"
 41
2.5
 42
1.0
 43
10.0
 44
1.0
 47
0.1
 48
0.1
 73
     0
 74
     0
 78
     8
 79
     2
140
3.5
141
0.0
143
0.0393701
146
0.71
147
1.5
172
     1
176
   256
177
   256
178
     2
271
     2
272
     3
274
     4
283
     0
284
     8
340
11
371
    -1
372
    -1
  0
DIMSTYLE
105
85
330
A
100
AcDbSymbolTableRecord
100
AcDbDimStyleTableRecord
  2
AM_ISO$7
 70
     0
  4
"
 41
2.5
 42
1.0
 43
10.0
 44
1.0
 47
0.1
 48
0.1
 73
     0
 74
     0
 77
     1
 78
     8
 79
     2
140
5.0
141
0.0
143
0.0393701
146
0.71
147
1.5
172
     1
176
   256
177
   256
178
     2
271
     2
272
     3
274
     4
283
     0
284
     8
340
11
371
    -1
372
    -1
  0
DIMSTYLE
105
86
330
A
100
AcDbSymbolTableRecord
100
AcDbDimStyleTableRecord
  2
AM_ISO$SF
 70
     0
  4
"
 41
2.5
 42
1.0
 43
10.0
 44
1.0
 47
0.1
 48
0.1
 73
     0
 74
     0
 75
     1
 76
     1
 77
     1
 78
     8
 79
     2
140
3.5
141
0.0
143
0.0393701
146
0.71
147
1.5
172
     1
176
   256
177
   256
178
     2
271
     2
272
     3
274
     4
283
     0
284
     8
340
11
371
    -1
372
    -1
  0
DIMSTYLE
105
8B
330
A
100
AcDbSymbolTableRecord
100
AcDbDimStyleTableRecord
  2
AM_ISO$SH
 70
     0
  4
"
 41
2.5
 42
1.0
 43
10.0
 44
1.0
 47
0.1
 48
0.1
 73
     0
 74
     0
 75
     1
 76
     1
 77
     1
 78
     8
 79
     2
140
3.5
141
0.0
143
0.0393701
144
2.0
146
0.71
147
1.5
172
     1
173
     1
176
   256
177
   256
178
     2
271
     2
272
     3
274
     4
283
     0
284
     8
340
11
343
87
371
    -1
372
    -1
  0
DIMSTYLE
105
216
330
A
100
AcDbSymbolTableRecord
100
AcDbDimStyleTableRecord
  2
AM_JIS
 70
     0
  4
"
 41
2.5
 42
0.0
 43
10.0
 44
1.0
 47
0.1
 48
0.1000000001
 73
     0
 74
     0
 77
     3
 78
     1
140
3.799999999999998
141
0.0
143
0.0393701
146
0.71
147
1.5
172
     1
176
   256
177
   256
178
     2
179
     1
271
     2
272
     2
275
     1
283
     0
284
     8
340
11
341
217
342
217
371
    -1
372
    -1
  0
DIMSTYLE
105
21D
330
A
100
AcDbSymbolTableRecord
100
AcDbDimStyleTableRecord
  2
AM_JIS$3
 70
     0
  4
"
 41
2.5
 42
0.0
 43
10.0
 44
1.0
 47
0.1
 48
0.1000000001
 73
     0
 77
     3
 78
     1
140
3.799999999999998
141
0.0
143
0.0393701
146
0.71
147
1.5
176
   256
177
   256
178
     2
179
     1
271
     2
272
     2
275
     1
283
     0
284
     8
288
     1
289
     0
340
11
341
217
342
217
371
    -1
372
    -1
  0
DIMSTYLE
105
21E
330
A
100
AcDbSymbolTableRecord
100
AcDbDimStyleTableRecord
  2
AM_JIS$4
 70
     0
  4
"
 41
2.5
 42
0.0
 43
10.0
 44
1.0
 47
0.1
 48
0.1000000001
 73
     0
 77
     3
 78
     1
140
3.799999999999998
141
0.0
143
0.0393701
146
0.71
147
1.5
176
   256
177
   256
178
     2
179
     1
271
     2
272
     2
275
     1
283
     0
284
     8
288
     1
289
     0
340
11
341
217
342
217
371
    -1
372
    -1
  0
DIMSTYLE
105
21F
330
A
100
AcDbSymbolTableRecord
100
AcDbDimStyleTableRecord
  2
AM_JIS$6
 70
     0
  4
"
 41
2.5
 42
0.0
 43
10.0
 44
1.0
 47
0.1
 48
0.1000000001
 73
     0
 74
     0
 78
     1
140
3.799999999999998
141
0.0
143
0.0393701
146
0.71
147
1.5
172
     1
176
   256
177
   256
178
     2
179
     1
271
     2
272
     2
275
     1
283
     0
284
     8
340
11
341
217
342
217
371
    -1
372
    -1
  0
DIMSTYLE
105
220
330
A
100
AcDbSymbolTableRecord
100
AcDbDimStyleTableRecord
  2
AM_JIS$7
 70
     0
  4
"
 41
2.5
 42
0.0
 43
10.0
 44
1.0
 47
0.1
 48
0.1000000001
 73
     0
 74
     0
 77
     3
 78
     1
140
5.0
141
0.0
143
0.0393701
146
0.71
147
1.5
172
     1
176
   256
177
   256
178
     2
179
     1
271
     2
272
     2
275
     1
283
     0
284
     8
340
11
341
217
342
217
371
    -1
372
    -1
  0
DIMSTYLE
105
221
330
A
100
AcDbSymbolTableRecord
100
AcDbDimStyleTableRecord
  2
AM_JIS$SF
 70
     0
  4
"
 41
2.5
 42
1.0
 43
10.0
 44
1.0
 47
0.1
 48
0.1
 73
     0
 74
     0
 75
     1
 76
     1
 77
     3
 78
     8
 79
     2
140
3.5
141
0.0
143
0.0393701
146
0.71
147
1.5
172
     1
176
   256
177
   256
178
     2
271
     2
272
     3
274
     4
283
     0
284
     8
340
11
341
217
342
217
343
217
344
217
371
    -1
372
    -1
  0
DIMSTYLE
105
222
330
A
100
AcDbSymbolTableRecord
100
AcDbDimStyleTableRecord
  2
AM_JIS$SH
 70
     0
  4
"
 41
2.5
 42
1.0
 43
10.0
 44
1.0
 47
0.1
 48
0.1
 73
     0
 74
     0
 75
     1
 76
     1
 77
     3
 78
     8
 79
     2
140
3.5
141
0.0
143
0.0393701
144
2.0
146
0.71
147
1.5
172
     1
173
     1
176
   256
177
   256
178
     2
271
     2
272
     3
274
     4
283
     0
284
     8
340
11
341
217
342
217
343
87
344
217
371
    -1
372
    -1
  0
DIMSTYLE
105
632
330
A
100
AcDbSymbolTableRecord
100
AcDbDimStyleTableRecord
  2
AM_JIS$2
 70
     0
  4
"
 41
2.5
 42
0.1
 43
8.0
 44
1.0
 47
0.1
 48
0.1
 73
     0
 74
     0
 77
     3
 78
     1
 79
     2
140
3.399999999999999
141
0.0
143
0.0393701
146
0.71
147
0.9999999999999996
172
     1
176
     3
177
     3
178
     2
179
     1
271
     2
272
     2
275
     1
283
     0
284
     1
340
11
341
217
342
217
371
    -1
372
    -1
  0
DIMSTYLE
105
633
102
{ACAD_REACTORS
330
78A
330
7F6
330
86B
330
F9E
330
14C9
330
15E2
102
}
330
A
100
AcDbSymbolTableRecord
100
AcDbDimStyleTableRecord
  2
AM_JIS$0
 70
     0
  4
"
 41
2.5
 42
0.1
 43
8.0
 44
0.5
 47
0.1
 48
0.1
 73
     0
 74
     0
 77
     3
 78
     1
 79
     2
140
3.399999999999999
141
0.0
143
0.0393701
146
0.71
147
0.9999999999999996
172
     1
176
     3
177
     3
178
     2
179
     1
271
     2
272
     2
275
     1
283
     0
284
     1
340
11
341
217
342
217
371
    -1
372
    -1
  0
DIMSTYLE
105
1248
330
A
100
AcDbSymbolTableRecord
100
AcDbDimStyleTableRecord
  2
STANDARD
 70
     0
340
11
  0
DIMSTYLE
105
1249
330
A
100
AcDbSymbolTableRecord
100
AcDbDimStyleTableRecord
  2
AM_ANSI
 70
     0
  4
mm
 41
0.1
 42
0.05
 43
0.5
 44
0.1
 47
0.1
 48
0.1
 78
     7
 79
     2
140
0.12
141
0.0
146
0.71
147
0.06
176
   256
177
   256
178
     2
274
     4
284
     7
340
11
371
    -1
372
    -1
  0
DIMSTYLE
105
124A
330
A
100
AcDbSymbolTableRecord
100
AcDbDimStyleTableRecord
  2
AM_ANSI$3
 70
     0
  4
mm
 41
0.1
 42
0.05
 43
0.5
 44
0.1
 47
0.1
 48
0.1
 78
     7
 79
     2
140
0.12
141
0.0
146
0.71
147
0.06
176
   256
177
   256
178
     2
274
     4
284
     7
288
     1
289
     0
340
11
371
    -1
372
    -1
  0
DIMSTYLE
105
124B
330
A
100
AcDbSymbolTableRecord
100
AcDbDimStyleTableRecord
  2
AM_ANSI$4
 70
     0
  4
mm
 41
0.1
 42
0.05
 43
0.5
 44
0.1
 47
0.1
 48
0.1
 78
     7
 79
     2
140
0.12
141
0.0
146
0.71
147
0.06
176
   256
177
   256
178
     2
274
     4
284
     7
288
     1
289
     0
340
11
371
    -1
372
    -1
  0
DIMSTYLE
105
124C
330
A
100
AcDbSymbolTableRecord
100
AcDbDimStyleTableRecord
  2
AM_ANSI$7
 70
     0
  4
mm
 41
0.1
 42
0.05
 43
0.5
 44
0.1
 47
0.1
 48
0.1
 78
     7
 79
     2
140
0.24
141
0.0
146
0.71
147
0.06
176
   256
177
   256
178
     2
274
     4
284
     7
340
11
371
    -1
372
    -1
  0
DIMSTYLE
105
124D
330
A
100
AcDbSymbolTableRecord
100
AcDbDimStyleTableRecord
  2
AM_ANSI$SF
 70
     0
  4
mm
 41
0.1
 42
0.05
 43
0.5
 44
0.1
 47
0.1
 48
0.1
 75
     1
 76
     1
 78
     7
 79
     2
140
0.12
141
0.0
146
0.71
147
0.06
176
   256
177
   256
178
     2
274
     4
284
     7
340
11
371
    -1
372
    -1
  0
DIMSTYLE
105
124E
330
A
100
AcDbSymbolTableRecord
100
AcDbDimStyleTableRecord
  2
AM_ANSI$SH
 70
     0
  4
mm
 41
0.1
 42
0.05
 43
0.5
 44
0.1
 47
0.1
 48
0.1
 75
     1
 76
     1
 78
     7
 79
     2
140
0.12
141
0.0
146
0.71
147
0.06
173
     1
176
   256
177
   256
178
     2
274
     4
284
     7
340
11
343
87
371
    -1
372
    -1
  0
ENDTAB
  0
TABLE
  2
BLOCK_RECORD
  5
1
330
0
100
AcDbSymbolTable
 70
    14
  0
BLOCK_RECORD
  5
1F
102
{ACAD_XDICTIONARY
360
8F
102
}
330
1
100
AcDbSymbolTableRecord
100
AcDbBlockTableRecord
  2
*Model_Space
340
22
  0
BLOCK_RECORD
  5
1B
330
1
100
AcDbSymbolTableRecord
100
AcDbBlockTableRecord
  2
*Paper_Space
340
1E
  0
BLOCK_RECORD
  5
23
330
1
100
AcDbSymbolTableRecord
100
AcDbBlockTableRecord
  2
*Paper_Space0
340
26
  0
BLOCK_RECORD
  5
87
330
1
100
AcDbSymbolTableRecord
100
AcDbBlockTableRecord
  2
GENAXEH
340
0
  0
BLOCK_RECORD
  5
217
330
1
100
AcDbSymbolTableRecord
100
AcDbBlockTableRecord
  2
_Open30
340
0
102
{BLKREFS
331
186A
331
186B
331
1874
331
1875
331
19AA
331
19AB
331
19C5
331
19C6
331
1A5A
331
1A5B
331
1A65
331
1A66
331
1AD5
331
1AD6
331
1AE0
331
1AE1
102
}
  0
BLOCK_RECORD
  5
78C
330
1
100
AcDbSymbolTableRecord
100
AcDbBlockTableRecord
  2
*D3
340
0
  0
BLOCK_RECORD
  5
7F7
330
1
100
AcDbSymbolTableRecord
100
AcDbBlockTableRecord
  2
*D4
340
0
  0
BLOCK_RECORD
  5
86C
330
1
100
AcDbSymbolTableRecord
100
AcDbBlockTableRecord
  2
*D5
340
0
  0
BLOCK_RECORD
  5
9EE
330
1
100
AcDbSymbolTableRecord
100
AcDbBlockTableRecord
  2
ta
340
0
310
2800000020000000200000000100080000000000000400000000000000000000000000000000000000000000000080000080000000808000800000008000800080800000C0C0C000C0DCC000F0CAA6000020400000206000002080000020A0000020C0000020E00000400000004020000040400000406000004080000040A0
310
000040C0000040E00000600000006020000060400000606000006080000060A0000060C0000060E00000800000008020000080400000806000008080000080A0000080C0000080E00000A0000000A0200000A0400000A0600000A0800000A0A00000A0C00000A0E00000C0000000C0200000C0400000C0600000C0800000C0
310
A00000C0C00000C0E00000E0000000E0200000E0400000E0600000E0800000E0A00000E0C00000E0E00040000000400020004000400040006000400080004000A0004000C0004000E00040200000402020004020400040206000402080004020A0004020C0004020E000404000004040200040404000404060004040800040
310
40A0004040C0004040E00040600000406020004060400040606000406080004060A0004060C0004060E00040800000408020004080400040806000408080004080A0004080C0004080E00040A0000040A0200040A0400040A0600040A0800040A0A00040A0C00040A0E00040C0000040C0200040C0400040C0600040C08000
310
40C0A00040C0C00040C0E00040E0000040E0200040E0400040E0600040E0800040E0A00040E0C00040E0E00080000000800020008000400080006000800080008000A0008000C0008000E00080200000802020008020400080206000802080008020A0008020C0008020E00080400000804020008040400080406000804080
310
008040A0008040C0008040E00080600000806020008060400080606000806080008060A0008060C0008060E00080800000808020008080400080806000808080008080A0008080C0008080E00080A0000080A0200080A0400080A0600080A0800080A0A00080A0C00080A0E00080C0000080C0200080C0400080C0600080C0
310
800080C0A00080C0C00080C0E00080E0000080E0200080E0400080E0600080E0800080E0A00080E0C00080E0E000C0000000C0002000C0004000C0006000C0008000C000A000C000C000C000E000C0200000C0202000C0204000C0206000C0208000C020A000C020C000C020E000C0400000C0402000C0404000C0406000C0
310
408000C040A000C040C000C040E000C0600000C0602000C0604000C0606000C0608000C060A000C060C000C060E000C0800000C0802000C0804000C0806000C0808000C080A000C080C000C080E000C0A00000C0A02000C0A04000C0A06000C0A08000C0A0A000C0A0C000C0A0E000C0C00000C0C02000C0C04000C0C06000
310
C0C08000C0C0A000F0FBFF00A4A0A000808080000000FF0000FF000000FFFF00FF000000FF00FF00FFFF0000FFFFFF0000000000000000000000000000000000000000000000000000000000000000000000000000000000000000000000000000000000000000000000000000000000000000000000000000000000000000
310
00000000000000000000000000000000000000000000000000000000000000000000000000000000000000000000000000000000000000000000000000000000000000000000000000000000000000000000000000000000000000000000000000000000000000000000000000000000000000000000000000000000000000
310
0000000000000000000000000000000000000000FFFFFFFFFFFFFFFFFFFFFFFFFFFFFFFFFFFFFFFFFFFFFFFFFFFF0000000000FF0000000000000000000000000000000000000000000000000000FF00000000FF0000000000000000000000000000000000000000000000000000FF00000000FF0000000000000000000000
310
000000000000000000000000000000FF00000000FFFF00000000000000000000FFFFFFFFFFFF000000000000000000FF0000000000FF000000000000000000FF000000000000FF0000000000000000FF0000000000FF000000000000000000FF00000000000000FF0000000000000000FF00000000FF0000000000000000FF
310
0000000000000000FF0000000000000000FF00000000FF00000000000000FF00000000000000000000FF00000000000000FF00000000FF0000000000000000FF0000000000000000FF0000000000000000FF00000000FF0000000000000000FF0000000000000000FF0000000000000000FF0000000000FF00000000000000
310
00FF000000000000FF000000000000000000FF0000000000FF0000000000000000FF000000000000FF000000000000000000FF0000000000FF000000000000000000FFFFFFFFFFFF00000000000000000000FFFF00000000FF0000000000000000000000000000000000000000000000000000FF00000000FF000000000000
310
0000000000000000000000000000000000000000FF00000000FF0000000000000000000000000000000000000000000000000000FF0000000000FFFFFFFFFFFFFFFFFFFFFFFFFFFFFFFFFFFFFFFFFFFFFFFFFFFF00000000000000000000000000000000000000000000000000000000000000000000000000000000000000
310
00000000000000000000000000000000000000000000000000000000000000000000000000000000000000000000000000000000000000000000000000000000000000000000000000000000000000000000000000000000000000000000000000000000000000000000000000000000000000000000000000000000000000
310
0000000000000000000000000000000000000000000000000000000000000000000000000000000000000000000000000000000000000000
1001
ACAD
1000
DesignCenter Data
1002
{
1070
     1
1070
     4
1002
}
  0
BLOCK_RECORD
  5
F9F
330
1
100
AcDbSymbolTableRecord
100
AcDbBlockTableRecord
  2
*D7
340
0
  0
BLOCK_RECORD
  5
148E
330
1
100
AcDbSymbolTableRecord
100
AcDbBlockTableRecord
  2
1
340
0
310
2800000020000000200000000100080000000000000400000000000000000000000000000000000000000000000080000080000000808000800000008000800080800000C0C0C000C0DCC000F0CAA6000020400000206000002080000020A0000020C0000020E00000400000004020000040400000406000004080000040A0
310
000040C0000040E00000600000006020000060400000606000006080000060A0000060C0000060E00000800000008020000080400000806000008080000080A0000080C0000080E00000A0000000A0200000A0400000A0600000A0800000A0A00000A0C00000A0E00000C0000000C0200000C0400000C0600000C0800000C0
310
A00000C0C00000C0E00000E0000000E0200000E0400000E0600000E0800000E0A00000E0C00000E0E00040000000400020004000400040006000400080004000A0004000C0004000E00040200000402020004020400040206000402080004020A0004020C0004020E000404000004040200040404000404060004040800040
310
40A0004040C0004040E00040600000406020004060400040606000406080004060A0004060C0004060E00040800000408020004080400040806000408080004080A0004080C0004080E00040A0000040A0200040A0400040A0600040A0800040A0A00040A0C00040A0E00040C0000040C0200040C0400040C0600040C08000
310
40C0A00040C0C00040C0E00040E0000040E0200040E0400040E0600040E0800040E0A00040E0C00040E0E00080000000800020008000400080006000800080008000A0008000C0008000E00080200000802020008020400080206000802080008020A0008020C0008020E00080400000804020008040400080406000804080
310
008040A0008040C0008040E00080600000806020008060400080606000806080008060A0008060C0008060E00080800000808020008080400080806000808080008080A0008080C0008080E00080A0000080A0200080A0400080A0600080A0800080A0A00080A0C00080A0E00080C0000080C0200080C0400080C0600080C0
310
800080C0A00080C0C00080C0E00080E0000080E0200080E0400080E0600080E0800080E0A00080E0C00080E0E000C0000000C0002000C0004000C0006000C0008000C000A000C000C000C000E000C0200000C0202000C0204000C0206000C0208000C020A000C020C000C020E000C0400000C0402000C0404000C0406000C0
310
408000C040A000C040C000C040E000C0600000C0602000C0604000C0606000C0608000C060A000C060C000C060E000C0800000C0802000C0804000C0806000C0808000C080A000C080C000C080E000C0A00000C0A02000C0A04000C0A06000C0A08000C0A0A000C0A0C000C0A0E000C0C00000C0C02000C0C04000C0C06000
310
C0C08000C0C0A000F0FBFF00A4A0A000808080000000FF0000FF000000FFFF00FF000000FF00FF00FFFF0000FFFFFF0000000000000000000000000000000000000000000000000000000000000000000000000000000000000000000000000000000000000000000000000000000000000000000000000000000000000000
310
000000000000000000000000000000000000000000FFFFFFFFFFFFFFFFFFFF0000000000000000000000000000000000000000FFFF0000000000000000000000000000000000000000000000000000000000FF00000000000000000000000000000000000000000000000000000000000000FF000000000000000000000000
310
00000000000000000000000000000000000000FF00000000000000000000000000000000000000000000000000000000000000FF0000000000000000000000000000000000000000000000000000000000000000FF00000000000000000000000000000000000000000000000000000000000000FF00000000000000000000
310
00000000000000000000000000000000000000000000FF0000000000000000000000000000000000000000000000000000000000000000FF00000000000000000000000000000000000000000000000000000000000000FF0000000000000000000000000000000000000000000000000000000000000000FF000000000000
310
00000000000000000000000000000000000000000000000000FF0000000000000000000000000000000000000000000000000000000000000000FF0000000000000000000000000000000000000000000000000000000000000000FF00000000000000000000000000000000000000000000000000000000000000FF000000
310
0000000000000000000000000000000000000000000000000000000000FF0000000000000000000000000000000000000000000000000000000000000000FF00000000000000000000000000000000000000000000000000000000000000FF0000000000000000000000000000000000000000000000000000000000000000
310
FF00000000000000000000000000000000000000000000000000000000000000FF0000000000000000000000000000000000000000000000000000000000000000FF0000000000000000000000000000000000000000000000000000000000000000FF00000000000000000000000000000000000000000000000000000000
310
000000FF0000000000000000000000000000000000000000000000000000000000000000FF000000000000000000000000000000000000000000000000000000000000000000000000000000000000000000000000000000000000000000000000000000000000000000000000000000000000000000000000000000000000
310
0000000000000000000000000000000000000000000000000000000000000000000000000000000000000000000000000000000000000000
1001
ACAD
1000
DesignCenter Data
1002
{
1070
     1
1070
     4
1002
}
  0
BLOCK_RECORD
  5
14CA
330
1
100
AcDbSymbolTableRecord
100
AcDbBlockTableRecord
  2
*D9
340
0
  0
BLOCK_RECORD
  5
15E3
330
1
100
AcDbSymbolTableRecord
100
AcDbBlockTableRecord
  2
*D10
340
0
  0
ENDTAB
  0
ENDSEC
  0
SECTION
  2
BLOCKS
  0
BLOCK
  5
20
330
1F
100
AcDbEntity
  8
0
100
AcDbBlockBegin
  2
*Model_Space
 70
     0
 10
0.0
 20
0.0
 30
0.0
  3
*Model_Space
  1

  0
ENDBLK
  5
21
330
1F
100
AcDbEntity
  8
0
100
AcDbBlockEnd
  0
BLOCK
  5
1C
330
1B
100
AcDbEntity
 67
     1
  8
0
100
AcDbBlockBegin
  2
*Paper_Space
 70
     0
 10
0.0
 20
0.0
 30
0.0
  3
*Paper_Space
  1

  0
ENDBLK
  5
1D
330
1B
100
AcDbEntity
 67
     1
  8
0
100
AcDbBlockEnd
  0
BLOCK
  5
24
330
23
100
AcDbEntity
  8
0
100
AcDbBlockBegin
  2
*Paper_Space0
 70
     0
 10
0.0
 20
0.0
 30
0.0
  3
*Paper_Space0
  1

  0
ENDBLK
  5
25
330
23
100
AcDbEntity
  8
0
100
AcDbBlockEnd
  0
BLOCK
  5
89
330
87
100
AcDbEntity
  8
0
100
AcDbBlockBegin
  2
GENAXEH
 70
     0
 10
0.0
 20
0.0
 30
0.0
  3
GENAXEH
  1

  0
LINE
  5
88
330
87
100
AcDbEntity
  8
0
100
AcDbLine
 10
-1.0
 20
0.0
 30
0.0
 11
1.0
 21
0.0
 31
0.0
  0
ENDBLK
  5
8A
330
87
100
AcDbEntity
  8
0
100
AcDbBlockEnd
  0
BLOCK
  5
21B
330
217
100
AcDbEntity
  8
0
100
AcDbBlockBegin
  2
_Open30
 70
     0
 10
0.0
 20
0.0
 30
0.0
  3
_Open30
  1

  0
LINE
  5
218
330
217
100
AcDbEntity
  8
0
  6
ByBlock
 62
     0
370
    -2
100
AcDbLine
 10
-1.0
 20
0.26794919
 30
0.0
 11
0.0
 21
0.0
 31
0.0
  0
LINE
  5
219
330
217
100
AcDbEntity
  8
0
  6
ByBlock
 62
     0
370
    -2
100
AcDbLine
 10
0.0
 20
0.0
 30
0.0
 11
-1.0
 21
-0.26794919
 31
0.0
  0
LINE
  5
21A
330
217
100
AcDbEntity
  8
0
  6
ByBlock
 62
     0
370
    -2
100
AcDbLine
 10
0.0
 20
0.0
 30
0.0
 11
-1.0
 21
0.0
 31
0.0
  0
ENDBLK
  5
21C
330
217
100
AcDbEntity
  8
0
100
AcDbBlockEnd
  0
BLOCK
  5
7AD
330
78C
100
AcDbEntity
  8
0
100
AcDbBlockBegin
  2
*D3
 70
     1
 10
0.0
 20
0.0
 30
0.0
  3
*D3
  1

  0
LINE
  5
19C2
330
78C
100
AcDbEntity
  8
AM_5
 62
     3
100
AcDbLine
 10
-120.0
 20
-8.36028381907753
 30
0.0
 11
-120.0
 21
-19.49999999999997
 31
0.0
  0
LINE
  5
19C3
330
78C
100
AcDbEntity
  8
AM_5
 62
     3
100
AcDbLine
 10
-34.99999999999973
 20
-9.099999999999999
 30
0.0
 11
-34.99999999999973
 21
-19.49999999999997
 31
0.0
  0
LINE
  5
19C4
330
78C
100
AcDbEntity
  8
AM_5
 62
     3
100
AcDbLine
 10
-117.5
 20
-18.99999999999996
 30
0.0
 11
-37.49999999999973
 21
-18.99999999999996
 31
0.0
  0
INSERT
  5
19C5
330
78C
100
AcDbEntity
  8
AM_5
 62
     3
100
AcDbBlockReference
  2
_Open30
 10
-120.0
 20
-18.99999999999996
 30
0.0
 41
2.5
 42
2.5
 43
2.5
 50
180.0
  0
INSERT
  5
19C6
330
78C
100
AcDbEntity
  8
AM_5
 62
     3
100
AcDbBlockReference
  2
_Open30
 10
-34.99999999999973
 20
-18.99999999999996
 30
0.0
 41
2.5
 42
2.5
 43
2.5
  0
MTEXT
  5
19C7
330
78C
100
AcDbEntity
  8
AM_5
 62
     2
100
AcDbMText
 10
-77.49999999999987
 20
-16.29999999999997
 30
0.0
 40
3.399999999999999
 41
0.0
 71
     5
 72
     1
  1
85
 73
     1
 44
1.0
  0
POINT
  5
19C8
330
78C
100
AcDbEntity
  8
Defpoints
 62
     0
100
AcDbPoint
 10
-120.0
 20
-8.26028381907753
 30
0.0
  0
POINT
  5
19C9
330
78C
100
AcDbEntity
  8
Defpoints
 62
     0
100
AcDbPoint
 10
-34.99999999999973
 20
-9.0
 30
0.0
  0
POINT
  5
19CA
330
78C
100
AcDbEntity
  8
Defpoints
 62
     0
100
AcDbPoint
 10
-34.99999999999973
 20
-18.99999999999996
 30
0.0
  0
ENDBLK
  5
7AE
330
78C
100
AcDbEntity
  8
0
100
AcDbBlockEnd
  0
BLOCK
  5
818
330
7F7
100
AcDbEntity
  8
0
100
AcDbBlockBegin
  2
*D4
 70
     1
 10
0.0
 20
0.0
 30
0.0
  3
*D4
  1

  0
LINE
  5
1A62
330
7F7
100
AcDbEntity
  8
AM_5
 62
     3
100
AcDbLine
 10
-112.128639073519
 20
12.5
 30
0.0
 11
-125.9763694490094
 21
12.5
 31
0.0
  0
LINE
  5
1A63
330
7F7
100
AcDbEntity
  8
AM_5
 62
     3
100
AcDbLine
 10
-115.5449994147969
 20
-12.5
 30
0.0
 11
-125.9763694490094
 21
-12.49999999999999
 31
0.0
  0
LINE
  5
1A64
330
7F7
100
AcDbEntity
  8
AM_5
 62
     3
100
AcDbLine
 10
-125.4763694490094
 20
10.0
 30
0.0
 11
-125.4763694490094
 21
-9.999999999999994
 31
0.0
  0
INSERT
  5
1A65
330
7F7
100
AcDbEntity
  8
AM_5
 62
     3
100
AcDbBlockReference
  2
_Open30
 10
-125.4763694490094
 20
12.5
 30
0.0
 41
2.5
 42
2.5
 43
2.5
 50
90.0
  0
INSERT
  5
1A66
330
7F7
100
AcDbEntity
  8
AM_5
 62
     3
100
AcDbBlockReference
  2
_Open30
 10
-125.4763694490094
 20
-12.49999999999999
 30
0.0
 41
2.5
 42
2.5
 43
2.5
 50
270.0
  0
MTEXT
  5
1A67
330
7F7
100
AcDbEntity
  8
AM_5
 62
     2
100
AcDbMText
 10
-128.1767040946787
 20
0.4137514588147142
 30
0.0
 40
3.399999999999999
 41
0.0
 71
     5
 72
     1
  1
%%c25
 11
0.0000000000000001
 21
1.0
 31
0.0
 73
     1
 44
1.0
  0
POINT
  5
1A68
330
7F7
100
AcDbEntity
  8
Defpoints
 62
     0
100
AcDbPoint
 10
-112.028639073519
 20
12.5
 30
0.0
  0
POINT
  5
1A69
330
7F7
100
AcDbEntity
  8
Defpoints
 62
     0
100
AcDbPoint
 10
-115.4449994147969
 20
-12.5
 30
0.0
  0
POINT
  5
1A6A
330
7F7
100
AcDbEntity
  8
Defpoints
 62
     0
100
AcDbPoint
 10
-125.4763694490094
 20
-12.49999999999999
 30
0.0
  0
ENDBLK
  5
819
330
7F7
100
AcDbEntity
  8
0
100
AcDbBlockEnd
  0
BLOCK
  5
886
330
86C
100
AcDbEntity
  8
0
100
AcDbBlockBegin
  2
*D5
 70
     1
 10
0.0
 20
0.0
 30
0.0
  3
*D5
  1

  0
LINE
  5
19A7
330
86C
100
AcDbEntity
  8
AM_5
 62
     3
100
AcDbLine
 10
0.0
 20
-9.700000000000018
 30
0.0
 11
-0.0000000000000011
 21
-27.49999999999996
 31
0.0
  0
LINE
  5
19A8
330
86C
100
AcDbEntity
  8
AM_5
 62
     3
100
AcDbLine
 10
-120.0
 20
-8.36028381907753
 30
0.0
 11
-120.0
 21
-27.49999999999996
 31
0.0
  0
LINE
  5
19A9
330
86C
100
AcDbEntity
  8
AM_5
 62
     3
100
AcDbLine
 10
-2.5
 20
-26.99999999999996
 30
0.0
 11
-117.5
 21
-26.99999999999996
 31
0.0
  0
INSERT
  5
19AA
330
86C
100
AcDbEntity
  8
AM_5
 62
     3
100
AcDbBlockReference
  2
_Open30
 10
-0.0000000000000011
 20
-26.99999999999996
 30
0.0
 41
2.5
 42
2.5
 43
2.5
  0
INSERT
  5
19AB
330
86C
100
AcDbEntity
  8
AM_5
 62
     3
100
AcDbBlockReference
  2
_Open30
 10
-120.0
 20
-26.99999999999996
 30
0.0
 41
2.5
 42
2.5
 43
2.5
 50
180.0
  0
MTEXT
  5
19AC
330
86C
100
AcDbEntity
  8
AM_5
 62
     2
100
AcDbMText
 10
-60.0
 20
-24.29966535433067
 30
0.0
 40
3.399999999999999
 41
0.0
 71
     5
 72
     1
  1
120
 73
     1
 44
1.0
  0
POINT
  5
19AD
330
86C
100
AcDbEntity
  8
Defpoints
 62
     0
100
AcDbPoint
 10
0.0
 20
-9.600000000000019
 30
0.0
  0
POINT
  5
19AE
330
86C
100
AcDbEntity
  8
Defpoints
 62
     0
100
AcDbPoint
 10
-120.0
 20
-8.26028381907753
 30
0.0
  0
POINT
  5
19AF
330
86C
100
AcDbEntity
  8
Defpoints
 62
     0
100
AcDbPoint
 10
-120.0
 20
-26.99999999999996
 30
0.0
  0
ENDBLK
  5
887
330
86C
100
AcDbEntity
  8
0
100
AcDbBlockEnd
  0
BLOCK
  5
9EF
330
9EE
100
AcDbEntity
  8
0
100
AcDbBlockBegin
  2
ta
 70
     0
 10
0.0
 20
0.0
 30
0.0
  3
ta
  1

  0
LINE
  5
A2B
330
9EE
100
AcDbEntity
  8
AM_0
100
AcDbLine
 10
-10.94000000000007
 20
6.998578643761787
 30
0.0
 11
-0.4000000000000538
 21
6.998578643762527
 31
0.0
  0
ARC
  5
A2C
330
9EE
100
AcDbEntity
  8
AM_0
100
AcDbCircle
 10
-0.4000000000000538
 20
6.598578643762523
 30
0.0
 40
0.4
100
AcDbArc
 50
0.0000000000040711
 51
90.00000000000325
1001
GENIUS_GENOBJ-N-FIL_13
1002
{
1000
OWNER
1000
GEN
1002
}
1001
GENIUS_GENODEF_13
1002
{
1000
HIER
1070
     0
1002
}
1002
{
1000
MANEDIT
1070
     0
1002
}
1002
{
1000
NOSEL
1070
     0
1002
}
1002
{
1000
BEHIND
1070
     0
1002
}
1002
{
1000
OTHER
1070
     0
1002
}
1002
{
1000
REACTOR
1002
}
  0
ARC
  5
A2D
330
9EE
100
AcDbEntity
  8
AM_0
100
AcDbCircle
 10
-10.94000000000007
 20
6.598578643761782
 30
0.0
 40
0.4
100
AcDbArc
 50
90.00000000000325
 51
180.0
1001
GENIUS_GENOBJ-N-FIL_13
1002
{
1000
OWNER
1000
GEN
1002
}
1001
GENIUS_GENODEF_13
1002
{
1000
HIER
1070
     0
1002
}
1002
{
1000
MANEDIT
1070
     0
1002
}
1002
{
1000
NOSEL
1070
     0
1002
}
1002
{
1000
BEHIND
1070
     0
1002
}
1002
{
1000
OTHER
1070
     0
1002
}
1002
{
1000
REACTOR
1002
}
  0
LINE
  5
A2E
330
9EE
100
AcDbEntity
  8
AM_0
100
AcDbLine
 10
-1.060000000000077
 20
-0.0014213562374148
 30
0.0
 11
-11.6000000000001
 21
-0.0014213562374148
 31
0.0
  0
ARC
  5
A2F
330
9EE
100
AcDbEntity
  8
AM_0
100
AcDbCircle
 10
-11.6000000000001
 20
0.3985786437625909
 30
0.0
 40
0.4
100
AcDbArc
 50
180.0
 51
270.0
1001
GENIUS_GENODEF_13
1002
{
1000
HIER
1070
     0
1002
}
1002
{
1000
MANEDIT
1070
     0
1002
}
1002
{
1000
NOSEL
1070
     0
1002
}
1002
{
1000
BEHIND
1070
     0
1002
}
1002
{
1000
OTHER
1070
     0
1002
}
1002
{
1000
REACTOR
1002
}
1001
GENIUS_GENOBJ-N-FIL_13
1002
{
1000
OWNER
1000
GEN
1002
}
  0
LINE
  5
A30
330
9EE
100
AcDbEntity
  8
AM_0
100
AcDbLine
 10
-11.34000000000005
 20
6.598578643761782
 30
0.0
 11
-11.34000000000005
 21
5.465263475678084
 31
0.0
  0
LINE
  5
A31
330
9EE
100
AcDbEntity
  8
AM_0
100
AcDbLine
 10
-0.6600000000001014
 20
0.3985786437625909
 30
0.0
 11
-0.6600000000001014
 21
1.53189381184515
 31
0.0
  0
ARC
  5
A32
330
9EE
100
AcDbEntity
  8
AM_0
100
AcDbCircle
 10
-0.2600000000001241
 20
1.53189381184515
 30
0.0
 40
0.4
100
AcDbArc
 50
172.3666694127705
 51
180.0
1001
GENIUS_GENOBJ-N-FIL_13
1002
{
1000
OWNER
1000
GEN
1002
}
1001
GENIUS_GENODEF_13
1002
{
1000
HIER
1070
     0
1002
}
1002
{
1000
MANEDIT
1070
     0
1002
}
1002
{
1000
NOSEL
1070
     0
1002
}
1002
{
1000
BEHIND
1070
     0
1002
}
1002
{
1000
OTHER
1070
     0
1002
}
1002
{
1000
REACTOR
1002
}
  0
ARC
  5
A33
330
9EE
100
AcDbEntity
  8
AM_0
100
AcDbCircle
 10
-1.060000000000077
 20
0.3985786437625909
 30
0.0
 40
0.4
100
AcDbArc
 50
270.0
 51
0.0
1001
GENIUS_GENODEF_13
1002
{
1000
HIER
1070
     0
1002
}
1002
{
1000
MANEDIT
1070
     0
1002
}
1002
{
1000
NOSEL
1070
     0
1002
}
1002
{
1000
BEHIND
1070
     0
1002
}
1002
{
1000
OTHER
1070
     0
1002
}
1002
{
1000
REACTOR
1002
}
1001
GENIUS_GENOBJ-N-FIL_13
1002
{
1000
OWNER
1000
GEN
1002
}
  0
LINE
  5
A34
330
9EE
100
AcDbEntity
  8
AM_0
100
AcDbLine
 10
-12.00000000000007
 20
0.3985786437625909
 30
0.0
 11
-12.00000000000007
 21
1.392893218812843
 31
0.0
  0
LINE
  5
A35
330
9EE
100
AcDbEntity
  8
AM_0
100
AcDbLine
 10
-0.0000000000000764
 20
6.59857864376255
 30
0.0
 11
-0.0000000000000195
 21
5.604264068712353
 31
0.0
  0
ARC
  5
A36
330
9EE
100
AcDbEntity
  8
AM_0
100
AcDbCircle
 10
-0.0000000000000764
 20
5.038578643762548
 30
0.0
 40
0.3999999999999488
100
AcDbArc
 50
109.4712206344584
 51
180.0
  0
ARC
  5
A37
330
9EE
100
AcDbEntity
  8
AM_0
100
AcDbCircle
 10
-0.1999999999999513
 20
5.604264068712353
 30
0.0
 40
0.2
100
AcDbArc
 50
289.4712206344672
 51
0.0
1001
GENIUS_GENODEF_13
1002
{
1000
HIER
1070
     0
1002
}
1002
{
1000
MANEDIT
1070
     0
1002
}
1002
{
1000
NOSEL
1070
     0
1002
}
1002
{
1000
BEHIND
1070
     0
1002
}
1002
{
1000
OTHER
1070
     0
1002
}
1002
{
1000
REACTOR
1002
}
1001
GENIUS_GENOBJ-N-FIL_13
1002
{
1000
OWNER
1000
GEN
1002
}
  0
ARC
  5
A38
330
9EE
100
AcDbEntity
  8
AM_0
100
AcDbCircle
 10
-12.00000000000007
 20
1.958578643762592
 30
0.0
 40
0.4000000000000057
100
AcDbArc
 50
289.4712206344724
 51
0.0
  0
ARC
  5
A39
330
9EE
100
AcDbEntity
  8
AM_0
100
AcDbCircle
 10
-11.80000000000009
 20
1.392893218812843
 30
0.0
 40
0.2
100
AcDbArc
 50
109.4712206344756
 51
180.0
1001
GENIUS_GENODEF_13
1002
{
1000
HIER
1070
     0
1002
}
1002
{
1000
MANEDIT
1070
     0
1002
}
1002
{
1000
NOSEL
1070
     0
1002
}
1002
{
1000
BEHIND
1070
     0
1002
}
1002
{
1000
OTHER
1070
     0
1002
}
1002
{
1000
REACTOR
1002
}
1001
GENIUS_GENOBJ-N-FIL_13
1002
{
1000
OWNER
1000
GEN
1002
}
  0
LINE
  5
A3A
330
9EE
100
AcDbEntity
  8
AM_0
100
AcDbLine
 10
-11.34354462590877
 20
5.412130281212228
 30
0.0
 11
-11.59645537409166
 21
3.525027006309556
 31
0.0
  0
ARC
  5
A3B
330
9EE
100
AcDbEntity
  8
AM_0
100
AcDbCircle
 10
-11.2000000000004
 20
3.471893811843698
 30
0.0
 40
0.4
100
AcDbArc
 50
172.3666694127663
 51
180.0
1001
GENIUS_GENOBJ-N-FIL_13
1002
{
1000
OWNER
1000
GEN
1002
}
1001
GENIUS_GENODEF_13
1002
{
1000
HIER
1070
     0
1002
}
1002
{
1000
MANEDIT
1070
     0
1002
}
1002
{
1000
NOSEL
1070
     0
1002
}
1002
{
1000
BEHIND
1070
     0
1002
}
1002
{
1000
OTHER
1070
     0
1002
}
1002
{
1000
REACTOR
1002
}
  0
ARC
  5
A3C
330
9EE
100
AcDbEntity
  8
AM_0
100
AcDbCircle
 10
-11.74000000000003
 20
5.465263475678084
 30
0.0
 40
0.4
100
AcDbArc
 50
352.3666694127663
 51
0.0
1001
GENIUS_GENOBJ-N-FIL_13
1002
{
1000
OWNER
1000
GEN
1002
}
1001
GENIUS_GENODEF_13
1002
{
1000
HIER
1070
     0
1002
}
1002
{
1000
MANEDIT
1070
     0
1002
}
1002
{
1000
NOSEL
1070
     0
1002
}
1002
{
1000
BEHIND
1070
     0
1002
}
1002
{
1000
OTHER
1070
     0
1002
}
1002
{
1000
REACTOR
1002
}
  0
LINE
  5
A3D
330
9EE
100
AcDbEntity
  8
AM_0
100
AcDbLine
 10
-11.60000000000038
 20
3.471893811843698
 30
0.0
 11
-11.60000000000038
 21
1.958578643762592
 31
0.0
  0
LINE
  5
A3E
330
9EE
100
AcDbEntity
  8
AM_0
100
AcDbLine
 10
-0.4000000000000538
 20
5.038578643762463
 30
0.0
 11
-0.4000000000000538
 21
3.525263475678685
 31
0.0
  0
LINE
  5
A3F
330
9EE
100
AcDbEntity
  8
AM_0
100
AcDbLine
 10
-0.4035446259087704
 20
3.472130281212856
 30
0.0
 11
-0.6564553740913848
 21
1.585027006310979
 31
0.0
  0
ARC
  5
A40
330
9EE
100
AcDbEntity
  8
AM_0
100
AcDbCircle
 10
-0.8000000000000309
 20
3.525263475678685
 30
0.0
 40
0.4
100
AcDbArc
 50
352.3666694127705
 51
0.0
1001
GENIUS_GENODEF_13
1002
{
1000
HIER
1070
     0
1002
}
1002
{
1000
MANEDIT
1070
     0
1002
}
1002
{
1000
NOSEL
1070
     0
1002
}
1002
{
1000
BEHIND
1070
     0
1002
}
1002
{
1000
OTHER
1070
     0
1002
}
1002
{
1000
REACTOR
1002
}
1001
GENIUS_GENOBJ-N-FIL_13
1002
{
1000
OWNER
1000
GEN
1002
}
  0
CIRCLE
  5
A41
330
9EE
100
AcDbEntity
  8
AM_0
100
AcDbCircle
 10
-6.000000000000018
 20
3.498578643762186
 30
0.0
 40
2.25
  0
ENDBLK
  5
9F0
330
9EE
100
AcDbEntity
  8
0
100
AcDbBlockEnd
  0
BLOCK
  5
FB4
330
F9F
100
AcDbEntity
  8
0
100
AcDbBlockBegin
  2
*D7
 70
     1
 10
0.0
 20
0.0
 30
0.0
  3
*D7
  1

  0
LINE
  5
1A57
330
F9F
100
AcDbEntity
  8
AM_5
 62
     3
100
AcDbLine
 10
-34.99999999999973
 20
-9.099999999999999
 30
0.0
 11
-34.99999999999973
 21
-19.47155888423055
 31
0.0
  0
LINE
  5
1A58
330
F9F
100
AcDbEntity
  8
AM_5
 62
     3
100
AcDbLine
 10
-0.000000000000005
 20
11.4428309751162
 30
0.0
 11
-0.0000000000000069
 21
-19.47155888423055
 31
0.0
  0
LINE
  5
1A59
330
F9F
100
AcDbEntity
  8
AM_5
 62
     3
100
AcDbLine
 10
-32.49999999999973
 20
-18.97155888423055
 30
0.0
 11
-2.500000000000006
 21
-18.97155888423055
 31
0.0
  0
INSERT
  5
1A5A
330
F9F
100
AcDbEntity
  8
AM_5
 62
     3
100
AcDbBlockReference
  2
_Open30
 10
-34.99999999999973
 20
-18.97155888423055
 30
0.0
 41
2.5
 42
2.5
 43
2.5
 50
180.0
  0
INSERT
  5
1A5B
330
F9F
100
AcDbEntity
  8
AM_5
 62
     3
100
AcDbBlockReference
  2
_Open30
 10
-0.0000000000000069
 20
-18.97155888423055
 30
0.0
 41
2.5
 42
2.5
 43
2.5
  0
MTEXT
  5
1A5C
330
F9F
100
AcDbEntity
  8
AM_5
 62
     2
100
AcDbMText
 10
-17.49999999999987
 20
-16.27155888423055
 30
0.0
 40
3.399999999999999
 41
0.0
 71
     5
 72
     1
  1
35
 73
     1
 44
1.0
  0
POINT
  5
1A5D
330
F9F
100
AcDbEntity
  8
Defpoints
 62
     0
100
AcDbPoint
 10
-34.99999999999973
 20
-9.0
 30
0.0
  0
POINT
  5
1A5E
330
F9F
100
AcDbEntity
  8
Defpoints
 62
     0
100
AcDbPoint
 10
-0.000000000000005
 20
11.5428309751162
 30
0.0
  0
POINT
  5
1A5F
330
F9F
100
AcDbEntity
  8
Defpoints
 62
     0
100
AcDbPoint
 10
-0.0000000000000069
 20
-18.97155888423055
 30
0.0
  0
ENDBLK
  5
FB5
330
F9F
100
AcDbEntity
  8
0
100
AcDbBlockEnd
  0
BLOCK
  5
148F
330
148E
100
AcDbEntity
  8
0
100
AcDbBlockBegin
  2
1
 70
     0
 10
0.0
 20
0.0
 30
0.0
  3
1
  1

  0
LINE
  5
1491
330
148E
100
AcDbEntity
  8
AM_0
100
AcDbLine
 10
-28.60370807168352
 20
25.50599533795736
 30
0.0
 11
-32.30795913421629
 21
19.09004429365963
 31
0.0
  0
LINE
  5
1492
330
148E
100
AcDbEntity
  8
AM_0
100
AcDbLine
 10
-31.53401085494758
 20
17.46788359410398
 30
0.0
 11
-24.11910125582574
 21
17.46788359410398
 31
0.0
  0
LINE
  5
1493
330
148E
100
AcDbEntity
  8
AM_0
100
AcDbLine
 10
-23.10124302062583
 20
18.9492228149466
 30
0.0
 11
-26.80869782018508
 21
25.37072289454832
 31
0.0
  0
LINE
  5
1494
330
148E
100
AcDbEntity
  8
AM_0
100
AcDbLine
 10
-27.49288889688321
 20
25.78999572558725
 30
0.0
 11
-26.80869782018508
 21
25.37072289454832
 31
0.0
  0
ARC
  5
1495
330
148E
100
AcDbEntity
  8
AM_0
100
AcDbCircle
 10
-27.91063515740785
 20
25.10954886120155
 30
0.0
 40
0.7984484162641033
100
AcDbArc
 50
58.45301727443522
 51
150.2298972596087
  0
LINE
  5
1496
330
148E
100
AcDbEntity
  8
AM_0
100
AcDbLine
 10
-32.32896451866354
 20
18.28788102467696
 30
0.0
 11
-32.30795913421629
 21
19.09004429365963
 31
0.0
  0
ARC
  5
1497
330
148E
100
AcDbEntity
  8
AM_0
100
AcDbCircle
 10
-31.53080711791774
 20
18.26632558291951
 30
0.0
 40
0.7984484162641033
100
AcDbArc
 50
178.4530172744352
 51
270.2298972596087
  0
LINE
  5
1498
330
148E
100
AcDbEntity
  8
AM_0
100
AcDbLine
 10
-23.41390479468037
 20
17.8507740320477
 30
0.0
 11
-24.11910125582576
 21
17.46788359410397
 31
0.0
  0
ARC
  5
1499
330
148E
100
AcDbEntity
  8
AM_0
100
AcDbCircle
 10
-23.79431593490152
 20
18.55277633819085
 30
0.0
 40
0.7984484162641033
100
AcDbArc
 50
298.4530172744352
 51
30.22989725960868
  0
ENDBLK
  5
1490
330
148E
100
AcDbEntity
  8
0
100
AcDbBlockEnd
  0
BLOCK
  5
1507
330
14CA
100
AcDbEntity
  8
0
100
AcDbBlockBegin
  2
*D9
 70
     1
 10
0.0
 20
0.0
 30
0.0
  3
*D9
  1

  0
LINE
  5
1AD2
330
14CA
100
AcDbEntity
  8
AM_5
 62
     3
100
AcDbLine
 10
-0.7016521532942096
 20
12.49999999999999
 30
0.0
 11
10.87780023046589
 21
12.49999999999999
 31
0.0
  0
LINE
  5
1AD3
330
14CA
100
AcDbEntity
  8
AM_5
 62
     3
100
AcDbLine
 10
-2.925662854177255
 20
-12.5
 30
0.0
 11
10.87780023046588
 21
-12.5
 31
0.0
  0
LINE
  5
1AD4
330
14CA
100
AcDbEntity
  8
AM_5
 62
     3
100
AcDbLine
 10
10.37780023046588
 20
9.999999999999992
 30
0.0
 11
10.37780023046588
 21
-9.999999999999998
 31
0.0
  0
INSERT
  5
1AD5
330
14CA
100
AcDbEntity
  8
AM_5
 62
     3
100
AcDbBlockReference
  2
_Open30
 10
10.37780023046589
 20
12.49999999999999
 30
0.0
 41
2.5
 42
2.5
 43
2.5
 50
90.0
  0
INSERT
  5
1AD6
330
14CA
100
AcDbEntity
  8
AM_5
 62
     3
100
AcDbBlockReference
  2
_Open30
 10
10.37780023046588
 20
-12.5
 30
0.0
 41
2.5
 42
2.5
 43
2.5
 50
270.0
  0
MTEXT
  5
1AD7
330
14CA
100
AcDbEntity
  8
AM_5
 62
     2
100
AcDbMText
 10
7.677465584796593
 20
-0.1938565810206679
 30
0.0
 40
3.399999999999999
 41
0.0
 71
     5
 72
     1
  1
%%c25
 11
0.0000000000000001
 21
1.0
 31
0.0
 73
     1
 44
1.0
  0
POINT
  5
1AD8
330
14CA
100
AcDbEntity
  8
Defpoints
 62
     0
100
AcDbPoint
 10
-0.8016521532942096
 20
12.49999999999999
 30
0.0
  0
POINT
  5
1AD9
330
14CA
100
AcDbEntity
  8
Defpoints
 62
     0
100
AcDbPoint
 10
-3.025662854177255
 20
-12.5
 30
0.0
  0
POINT
  5
1ADA
330
14CA
100
AcDbEntity
  8
Defpoints
 62
     0
100
AcDbPoint
 10
10.37780023046588
 20
-12.5
 30
0.0
  0
ENDBLK
  5
1508
330
14CA
100
AcDbEntity
  8
0
100
AcDbBlockEnd
  0
BLOCK
  5
1601
330
15E3
100
AcDbEntity
  8
0
100
AcDbBlockBegin
  2
*D10
 70
     1
 10
0.0
 20
0.0
 30
0.0
  3
*D10
  1

  0
LINE
  5
1ADD
330
15E3
100
AcDbEntity
  8
AM_5
 62
     3
100
AcDbLine
 10
-8.0
 20
12.50545696485611
 30
0.0
 11
-8.0
 21
19.37058217135086
 31
0.0
  0
LINE
  5
1ADE
330
15E3
100
AcDbEntity
  8
AM_5
 62
     3
100
AcDbLine
 10
0.0000000000000011
 20
11.34460061994233
 30
0.0
 11
0.0000000000000016
 21
19.37058217135086
 31
0.0
  0
LINE
  5
1ADF
330
15E3
100
AcDbEntity
  8
AM_5
 62
     3
100
AcDbLine
 10
-5.5
 20
18.87058217135086
 30
0.0
 11
-2.499999999999998
 21
18.87058217135086
 31
0.0
  0
INSERT
  5
1AE0
330
15E3
100
AcDbEntity
  8
AM_5
 62
     3
100
AcDbBlockReference
  2
_Open30
 10
-8.0
 20
18.87058217135086
 30
0.0
 41
2.5
 42
2.5
 43
2.5
 50
180.0
  0
INSERT
  5
1AE1
330
15E3
100
AcDbEntity
  8
AM_5
 62
     3
100
AcDbBlockReference
  2
_Open30
 10
0.0000000000000016
 20
18.87058217135086
 30
0.0
 41
2.5
 42
2.5
 43
2.5
  0
MTEXT
  5
1AE2
330
15E3
100
AcDbEntity
  8
AM_5
 62
     2
100
AcDbMText
 10
-3.999999999999999
 20
21.57058217135086
 30
0.0
 40
3.399999999999999
 41
0.0
 71
     5
 72
     1
  1
8
 73
     1
 44
1.0
  0
POINT
  5
1AE3
330
15E3
100
AcDbEntity
  8
Defpoints
 62
     0
100
AcDbPoint
 10
-8.0
 20
12.40545696485611
 30
0.0
  0
POINT
  5
1AE4
330
15E3
100
AcDbEntity
  8
Defpoints
 62
     0
100
AcDbPoint
 10
0.0000000000000011
 20
11.24460061994233
 30
0.0
  0
POINT
  5
1AE5
330
15E3
100
AcDbEntity
  8
Defpoints
 62
     0
100
AcDbPoint
 10
0.0000000000000016
 20
18.87058217135086
 30
0.0
  0
ENDBLK
  5
1602
330
15E3
100
AcDbEntity
  8
0
100
AcDbBlockEnd
  0
ENDSEC
  0
SECTION
  2
ENTITIES
  0
LINE
  5
72D
330
1F
100
AcDbEntity
  8
AM_7
100
AcDbLine
 10
-123.2531164017442
 20
-0.0000000000000003
 30
0.0
 11
1.89345280124877
 21
-0.0000000000000008
 31
0.0
1001
GENIUS_GENODEF_13
1002
{
1000
HIER
1070
     0
1002
}
1002
{
1000
MANEDIT
1070
     0
1002
}
1002
{
1000
NOSEL
1070
     0
1002
}
1002
{
1000
BEHIND
1070
     0
1002
}
1002
{
1000
OTHER
1070
     0
1002
}
1002
{
1000
REACTOR
1002
}
1001
GENIUS_GENOBJ-N-CEN_13
1002
{
1000
OWNER
1000
GEN
1002
}
1001
GENIUS_GENCEN_19
1002
{
1040
2.793999999999999
1002
}
  0
DIMENSION
  5
78A
330
1F
100
AcDbEntity
  8
AM_5
100
AcDbDimension
  2
*D3
 10
-34.99999999999973
 20
-18.99999999999996
 30
0.0
 11
-77.49999999999987
 21
-16.29999999999997
 31
0.0
 70
    32
 71
     5
 42
85.00000000000028
  3
AM_JIS$0
100
AcDbAlignedDimension
 13
-120.0
 23
-8.26028381907753
 33
0.0
 14
-34.99999999999973
 24
-9.0
 34
0.0
 50
0.0000000000000509
100
AcDbRotatedDimension
1001
ACAD
1000
DSTYLE
1002
{
1070
   271
1070
     0
1002
}
  0
DIMENSION
  5
7F6
330
1F
100
AcDbEntity
  8
AM_5
100
AcDbDimension
  2
*D4
 10
-125.4763694490094
 20
-12.49999999999999
 30
0.0
 11
-125.4763694490094
 21
0.4137514588147139
 31
0.0
 70
   160
  1
%%c<>
 71
     5
 42
25.0
  3
AM_JIS$0
100
AcDbAlignedDimension
 13
-112.028639073519
 23
12.5
 33
0.0
 14
-115.4449994147969
 24
-12.5
 34
0.0
 50
90.0
100
AcDbRotatedDimension
1001
ACAD
1000
DSTYLE
1002
{
1070
   271
1070
     0
1002
}
  0
DIMENSION
  5
86B
330
1F
100
AcDbEntity
  8
AM_5
100
AcDbDimension
  2
*D5
 10
-120.0
 20
-26.99999999999996
 30
0.0
 11
-60.0
 21
-24.29966535433067
 31
0.0
 70
    32
 71
     5
 42
120.0
  3
AM_JIS$0
100
AcDbAlignedDimension
 13
0.0
 23
-9.600000000000019
 33
0.0
 14
-120.0
 24
-8.26028381907753
 34
0.0
 50
0.0000000000000509
100
AcDbRotatedDimension
1001
ACAD
1000
DSTYLE
1002
{
1070
   271
1070
     0
1002
}
  0
MTEXT
  5
B1F
330
1F
100
AcDbEntity
  8
AM_6
100
AcDbMText
 10
-58.49996222980188
 20
-37.552606229281
 30
0.0
 40
3.799999999999998
 41
60.06636689918345
 71
     1
 72
     5
  1
CHE2025R
  7
ACISOTS
 73
     1
 44
1.0
  0
LINE
  5
D13
330
1F
100
AcDbEntity
  8
AM_0
100
AcDbLine
 10
-114.0
 20
12.5
 30
0.0
 11
-37.07846096908258
 21
12.5
 31
0.0
1001
GENIUS_GENODEF_13
1002
{
1000
HIER
1070
     0
1002
}
1002
{
1000
MANEDIT
1070
     0
1002
}
1002
{
1000
NOSEL
1070
     0
1002
}
1002
{
1000
BEHIND
1070
     0
1002
}
1002
{
1000
OTHER
1070
     0
1002
}
1002
{
1000
REACTOR
1002
}
1001
GENIUS_GENOBJ-N-CEN_13
1002
{
1000
OWNER
1000
GEN
1002
}
1001
GENIUS_GENCEN_19
1002
{
1040
2.793999999999999
1002
}
  0
LINE
  5
D19
330
1F
100
AcDbEntity
  8
AM_0
100
AcDbLine
 10
-119.0
 20
-12.5
 30
0.0
 11
-37.07846096908257
 21
-12.5
 31
0.0
1001
GENIUS_GENODEF_13
1002
{
1000
HIER
1070
     0
1002
}
1002
{
1000
MANEDIT
1070
     0
1002
}
1002
{
1000
NOSEL
1070
     0
1002
}
1002
{
1000
BEHIND
1070
     0
1002
}
1002
{
1000
OTHER
1070
     0
1002
}
1002
{
1000
REACTOR
1002
}
1001
GENIUS_GENOBJ-N-CEN_13
1002
{
1000
OWNER
1000
GEN
1002
}
1001
GENIUS_GENCEN_19
1002
{
1040
2.793999999999999
1002
}
  0
LINE
  5
E68
330
1F
100
AcDbEntity
  8
AM_0
100
AcDbLine
 10
-120.0
 20
11.5
 30
0.0
 11
-120.0
 21
-11.5
 31
0.0
  0
DIMENSION
  5
F9E
330
1F
100
AcDbEntity
  8
AM_5
100
AcDbDimension
  2
*D7
 10
-0.0000000000000069
 20
-18.97155888423055
 30
0.0
 11
-17.49999999999987
 21
-16.27155888423055
 31
0.0
 70
    32
 71
     5
 42
34.99999999999972
  3
AM_JIS$0
100
AcDbAlignedDimension
 13
-34.99999999999973
 23
-9.0
 33
0.0
 14
-0.000000000000005
 24
11.5428309751162
 34
0.0
100
AcDbRotatedDimension
1001
ACAD
1000
DSTYLE
1002
{
1070
   271
1070
     0
1002
}
  0
LINE
  5
129E
330
1F
100
AcDbEntity
  8
AM_0
100
AcDbLine
 10
-7.591175999999999
 20
4.692917999999997
 30
0.0
 11
-10.247344
 21
3.726151999999997
 31
0.0
  0
LINE
  5
129F
330
1F
100
AcDbEntity
  8
AM_0
100
AcDbLine
 10
-18.0
 20
7.25
 30
0.0
 11
-18.0
 21
8.563017000000002
 31
0.0
  0
LINE
  5
12A0
330
1F
100
AcDbEntity
  8
AM_0
100
AcDbLine
 10
-14.25
 20
3.499999999999998
 30
0.0
 11
-11.52992
 21
3.499999999999998
 31
0.0
  0
LINE
  5
12A2
330
1F
100
AcDbEntity
  8
AM_0
100
AcDbLine
 10
-13.065591
 20
10.196202
 30
0.0
 11
-11.934409
 21
10.196202
 31
0.0
  0
LINE
  5
12A3
330
1F
100
AcDbEntity
  8
AM_0
100
AcDbLine
 10
-15.2
 20
11.0
 30
0.0
 11
-11.901924
 21
11.0
 31
0.0
  0
LINE
  5
12A4
330
1F
100
AcDbEntity
  8
AM_0
100
AcDbLine
 10
-4.285769999999999
 20
8.499038999999996
 30
0.0
 11
-7.000000000000003
 21
6.587980999999999
 31
0.0
  0
LINE
  5
12A6
330
1F
100
AcDbEntity
  8
AM_0
100
AcDbLine
 10
-7.076945999999999
 20
4.880082999999997
 30
0.0
 11
-4.285769999999999
 21
5.895987999999995
 31
0.0
  0
LINE
  5
12A7
330
1F
100
AcDbEntity
  8
AM_0
100
AcDbLine
 10
-4.000000000000003
 20
9.5
 30
0.0
 11
-7.000000000000003
 21
9.5
 31
0.0
  0
LINE
  5
12A8
330
1F
100
AcDbEntity
  8
AM_0
100
AcDbLine
 10
-4.000000000000003
 20
9.5
 30
0.0
 11
-4.000000000000003
 21
9.01326899999999
 31
0.0
  0
LINE
  5
12A9
330
1F
100
AcDbEntity
  8
AM_0
100
AcDbLine
 10
-4.000000000000003
 20
9.01326899999999
 30
0.0
 11
-4.000000000000003
 21
6.0
 31
0.0
  0
LINE
  5
12AA
330
1F
100
AcDbEntity
  8
AM_0
100
AcDbLine
 10
-9.0
 20
9.143283999999994
 30
0.0
 11
-9.0
 21
9.312705999999998
 31
0.0
  0
LINE
  5
12AB
330
1F
100
AcDbEntity
  8
AM_0
100
AcDbLine
 10
-18.0
 20
8.563017000000002
 30
0.0
 11
-18.0
 21
9.312705999999998
 31
0.0
  0
LINE
  5
12AC
330
1F
100
AcDbEntity
  8
AM_0
100
AcDbLine
 10
-9.0
 20
9.312705999999998
 30
0.0
 11
-9.0
 21
9.798152000000001
 31
0.0
  0
LINE
  5
12AD
330
1F
100
AcDbEntity
  8
AM_0
100
AcDbLine
 10
-18.0
 20
9.312705999999998
 30
0.0
 11
-18.0
 21
9.482414999999996
 31
0.0
  0
LINE
  5
12AE
330
1F
100
AcDbEntity
  8
AM_0
100
AcDbLine
 10
-7.076945999999999
 20
4.880082999999997
 30
0.0
 11
-7.591175999999999
 21
4.692917999999997
 31
0.0
  0
LINE
  5
12AF
330
1F
100
AcDbEntity
  8
AM_0
100
AcDbLine
 10
-7.000000000000003
 20
9.5
 30
0.0
 11
-7.696152999999998
 21
9.5
 31
0.0
  0
LINE
  5
12B0
330
1F
100
AcDbEntity
  8
AM_0
100
AcDbLine
 10
-17.258819
 20
10.448341
 30
0.0
 11
-15.2
 21
11.0
 31
0.0
  0
LINE
  5
12B1
330
1F
100
AcDbEntity
  8
AM_0
100
AcDbLine
 10
-9.196152999999997
 20
9.901922999999996
 30
0.0
 11
-10.401924
 21
10.598076
 31
0.0
  0
LINE
  5
12B2
330
1F
100
AcDbEntity
  8
AM_0
100
AcDbLine
 10
-4.000000000000003
 20
6.0
 30
0.0
 11
-4.285769999999999
 21
5.895987999999995
 31
0.0
  0
CIRCLE
  5
12B3
330
1F
100
AcDbEntity
  8
AM_0
100
AcDbCircle
 10
-12.5
 20
7.25
 30
0.0
 40
1.649999999999999
  0
CIRCLE
  5
12B4
330
1F
100
AcDbEntity
  8
AM_0
100
AcDbCircle
 10
-12.5
 20
7.25
 30
0.0
 40
2.85
  0
ARC
  5
12B5
330
1F
100
AcDbEntity
  8
AM_0
100
AcDbCircle
 10
-11.52992
 20
7.25
 30
0.0
 40
3.75
100
AcDbArc
 50
270.0
 51
290.0000031287959
  0
ARC
  5
12B6
330
1F
100
AcDbEntity
  8
AM_0
100
AcDbCircle
 10
-14.25
 20
7.25
 30
0.0
 40
3.75
100
AcDbArc
 50
180.0
 51
270.0
  0
ARC
  5
12B7
330
1F
100
AcDbEntity
  8
AM_0
100
AcDbCircle
 10
-12.5
 20
7.25
 30
0.0
 40
2.999999431116279
100
AcDbArc
 50
154.0445338102058
 51
25.95546618979414
  0
SPLINE
  5
12B8
330
1F
100
AcDbEntity
  8
AM_0
100
AcDbSpline
210
0.0
220
0.0
230
1.0
 70
     8
 71
     3
 72
    11
 73
     7
 74
     5
 42
0.0000000001
 43
0.0000000001
 44
0.0000000001
 40
0.0
 40
0.0
 40
0.0
 40
0.0
 40
0.7072227630061205
 40
1.381679943545399
 40
2.011632637618536
 40
2.597565678414155
 40
2.597565678414155
 40
2.597565678414155
 40
2.597565678414155
 10
-8.973380000000005
 20
8.563017000000002
 30
0.0
 10
-8.929699958372312
 20
8.330151803932329
 30
0.0
 10
-8.844363568472074
 20
7.875210040478815
 30
0.0
 10
-8.536498911990543
 20
7.27214247824666
 30
0.0
 10
-8.126638362304612
 20
6.776719879860385
 30
0.0
 10
-7.765302884686868
 20
6.585544874340346
 30
0.0
 10
-7.591175999999999
 20
6.493417999999998
 30
0.0
 11
-8.973380000000005
 21
8.563017000000002
 31
0.0
 11
-8.809297
 21
7.875091999999995
 31
0.0
 11
-8.507446999999999
 21
7.271951000000001
 31
0.0
 11
-8.090866000000001
 21
6.799403999999995
 31
0.0
 11
-7.591175999999999
 21
6.493417999999998
 31
0.0
  0
SPLINE
  5
12B9
330
1F
100
AcDbEntity
  8
AM_0
100
AcDbSpline
210
0.0
220
0.0
230
1.0
 70
     8
 71
     3
 72
    11
 73
     7
 74
     5
 42
0.0000000001
 43
0.0000000001
 44
0.0000000001
 40
0.0
 40
0.0
 40
0.0
 40
0.0
 40
0.0234621728959616
 40
0.0467850581591521
 40
0.069967840929992
 40
0.0930097708838849
 40
0.0930097708838849
 40
0.0930097708838849
 40
0.0930097708838849
 10
-7.000000000000002
 20
6.587980999999999
 30
0.0
 10
-7.006405607188193
 20
6.583494047802066
 30
0.0
 10
-7.01917879346438
 20
6.574546781047686
 30
0.0
 10
-7.038425087892397
 20
6.561373271652993
 30
0.0
 10
-7.057653141954277
 20
6.548422223782717
 30
0.0
 10
-7.070528124576724
 20
6.539957476859541
 30
0.0
 10
-7.076945999999998
 20
6.535737999999993
 30
0.0
 11
-7.000000000000002
 21
6.587980999999999
 31
0.0
 11
-7.019241
 21
6.574554999999996
 31
0.0
 11
-7.038480000000002
 21
6.561371000000001
 31
0.0
 11
-7.057715999999999
 21
6.548431999999998
 31
0.0
 11
-7.076945999999998
 21
6.535737999999993
 31
0.0
  0
SPLINE
  5
12BA
330
1F
100
AcDbEntity
  8
AM_0
100
AcDbSpline
210
0.0
220
0.0
230
1.0
 70
     8
 71
     3
 72
    11
 73
     7
 74
     5
 42
0.0000000001
 43
0.0000000001
 44
0.0000000001
 40
0.0
 40
0.0
 40
0.0
 40
0.0
 40
0.160155082804135
 40
0.314360438239674
 40
0.4636322600949696
 40
0.6101663697111213
 40
0.6101663697111213
 40
0.6101663697111213
 40
0.6101663697111213
 10
-4.285769999999998
 20
8.499038999999996
 30
0.0
 10
-4.243832157854172
 20
8.532461113027535
 30
0.0
 10
-4.161514455506185
 20
8.598063714670111
 30
0.0
 10
-4.071028872006316
 20
8.725363077013255
 30
0.0
 10
-4.011308588883668
 20
8.865372790837636
 30
0.0
 10
-4.003746199414844
 20
8.964275381262865
 30
0.0
 10
-4.000000000000002
 20
9.01326899999999
 30
0.0
 11
-4.285769999999998
 21
8.499038999999996
 31
0.0
 11
-4.165398000000003
 21
8.604680999999999
 31
0.0
 11
-4.074959999999999
 21
8.729582
 31
0.0
 11
-4.019016
 21
8.867973999999996
 31
0.0
 11
-4.000000000000002
 21
9.01326899999999
 31
0.0
  0
SPLINE
  5
12BB
330
1F
100
AcDbEntity
  8
AM_0
100
AcDbSpline
210
0.0
220
0.0
230
1.0
 70
     8
 71
     3
 72
    11
 73
     7
 74
     5
 42
0.0000000001
 43
0.0000000001
 44
0.0000000001
 40
0.0
 40
0.0
 40
0.0
 40
0.0
 40
0.2470617568969275
 40
0.4859765089843639
 40
0.7106332067723449
 40
0.915155077644378
 40
0.915155077644378
 40
0.915155077644378
 40
0.915155077644378
 10
-9.802597000000004
 20
8.563017000000002
 30
0.0
 10
-9.840396223776323
 20
8.636242180328595
 30
0.0
 10
-9.914748219989149
 20
8.780277898170133
 30
0.0
 10
-10.04492226169975
 20
8.978589456487735
 30
0.0
 10
-10.17938146686919
 20
9.156433228117364
 30
0.0
 10
-10.27572852326538
 20
9.262270182572766
 30
0.0
 10
-10.32164199999999
 20
9.312705999999998
 30
0.0
 11
-9.802597000000004
 21
8.563017000000002
 31
0.0
 11
-9.919786
 21
8.780516999999996
 31
0.0
 11
-10.04976
 21
8.980983999999999
 31
0.0
 11
-10.186166
 21
9.159489
 31
0.0
 11
-10.32164199999999
 21
9.312705999999998
 31
0.0
  0
SPLINE
  5
12BC
330
1F
100
AcDbEntity
  8
AM_0
100
AcDbSpline
210
0.0
220
0.0
230
1.0
 70
     8
 71
     3
 72
    11
 73
     7
 74
     5
 42
0.0000000001
 43
0.0000000001
 44
0.0000000001
 40
0.0
 40
0.0
 40
0.0
 40
0.0
 40
0.1326995145431942
 40
0.27613971204724
 40
0.4268558141232956
 40
0.5812385203115164
 40
0.5812385203115164
 40
0.5812385203115164
 40
0.5812385203115164
 10
-9.0
 20
9.143283999999994
 30
0.0
 10
-8.999926663515722
 20
9.099049575536536
 30
0.0
 10
-8.999774054700834
 20
9.007000397542457
 30
0.0
 10
-8.996766991092606
 20
8.864746394706912
 30
0.0
 10
-8.989860609276584
 20
8.71532291656427
 30
0.0
 10
-8.9789173741483
 20
8.614190766143099
 30
0.0
 10
-8.973380000000005
 20
8.563017000000002
 30
0.0
 11
-9.0
 21
9.143283999999994
 31
0.0
 11
-8.999366000000001
 21
9.010585999999996
 31
0.0
 11
-8.996234000000002
 21
8.867179999999997
 31
0.0
 11
-8.988393000000002
 21
8.716667999999998
 31
0.0
 11
-8.973380000000005
 21
8.563017000000002
 31
0.0
  0
SPLINE
  5
12BD
330
1F
100
AcDbEntity
  8
AM_0
100
AcDbSpline
210
0.0
220
0.0
230
1.0
 70
     8
 71
     3
 72
    11
 73
     7
 74
     5
 42
0.0000000001
 43
0.0000000001
 44
0.0000000001
 40
0.0
 40
0.0
 40
0.0
 40
0.0
 40
0.2045223598191667
 40
0.4291798521758643
 40
0.6680918380807115
 40
0.915155761697656
 40
0.915155761697656
 40
0.915155761697656
 40
0.915155761697656
 10
-14.678358
 20
9.312705999999998
 30
0.0
 10
-14.72427274884638
 20
9.26227108414692
 30
0.0
 10
-14.82062253250821
 20
9.156435958102685
 30
0.0
 10
-14.95507966818923
 20
8.978591112822702
 30
0.0
 10
-15.08525406783329
 20
8.780279740107172
 30
0.0
 10
-15.15960429663089
 20
8.636243286758265
 30
0.0
 10
-15.197403
 20
8.563017000000002
 30
0.0
 11
-14.678358
 21
9.312705999999998
 31
0.0
 11
-14.813837
 21
9.159490999999995
 31
0.0
 11
-14.950243
 21
8.980984999999996
 31
0.0
 11
-15.08021499999999
 21
8.780519999999995
 31
0.0
 11
-15.197403
 21
8.563017000000002
 31
0.0
  0
SPLINE
  5
12BE
330
1F
100
AcDbEntity
  8
AM_0
100
AcDbSpline
210
0.0
220
0.0
230
1.0
 70
     8
 71
     3
 72
    11
 73
     7
 74
     5
 42
0.0000000001
 43
0.0000000001
 44
0.0000000001
 40
0.0
 40
0.0
 40
0.0
 40
0.0
 40
0.1437734179499086
 40
0.2829648393091323
 40
0.4139707974369974
 40
0.5361907428878096
 40
0.5361907428878096
 40
0.5361907428878096
 40
0.5361907428878096
 10
-7.591175999999999
 20
6.493417999999998
 30
0.0
 10
-7.545519811147023
 20
6.478049644209814
 30
0.0
 10
-7.455662476415293
 20
6.447802715475532
 30
0.0
 10
-7.315791218220451
 20
6.445232558785189
 30
0.0
 10
-7.186264174573189
 20
6.473609140700482
 30
0.0
 10
-7.112532653488522
 20
6.515513017318372
 30
0.0
 10
-7.076945999999998
 20
6.535737999999993
 30
0.0
 11
-7.591175999999999
 21
6.493417999999998
 31
0.0
 11
-7.452723000000002
 21
6.454667999999998
 31
0.0
 11
-7.313584999999998
 21
6.450811999999999
 31
0.0
 11
-7.186000999999999
 21
6.480558999999999
 31
0.0
 11
-7.076945999999998
 21
6.535737999999993
 31
0.0
  0
SPLINE
  5
12BF
330
1F
100
AcDbEntity
  8
AM_0
100
AcDbSpline
210
0.0
220
0.0
230
1.0
 70
     8
 71
     3
 72
    11
 73
     7
 74
     5
 42
0.0000000001
 43
0.0000000001
 44
0.0000000001
 40
0.0
 40
0.0
 40
0.0
 40
0.0
 40
0.5957814161670364
 40
1.030344366766835
 40
1.274572009448829
 40
1.347401069067905
 40
1.347401069067905
 40
1.347401069067905
 40
1.347401069067905
 10
-7.696152999999998
 20
9.5
 30
0.0
 10
-7.895122718229631
 20
9.511153200002661
 30
0.0
 10
-8.239220944142758
 20
9.530441543818584
 30
0.0
 10
-8.64981651012984
 20
9.649383362872262
 30
0.0
 10
-8.882525903759564
 20
9.742532976333681
 30
0.0
 10
-8.978056321121711
 20
9.787762594727542
 30
0.0
 10
-9.0
 20
9.798152000000001
 30
0.0
 11
-7.696152999999998
 21
9.5
 31
0.0
 11
-8.288989999999998
 21
9.55915899999999
 31
0.0
 11
-8.707644999999999
 21
9.675662000000002
 31
0.0
 11
-8.934030000000008
 21
9.767296999999999
 31
0.0
 11
-9.0
 21
9.798152000000001
 31
0.0
  0
SPLINE
  5
12C0
330
1F
100
AcDbEntity
  8
AM_0
100
AcDbSpline
210
0.0
220
0.0
230
1.0
 70
     8
 71
     3
 72
    11
 73
     7
 74
     5
 42
0.0000000001
 43
0.0000000001
 44
0.0000000001
 40
0.0
 40
0.0
 40
0.0
 40
0.0
 40
0.3836311484551316
 40
0.7044541728782445
 40
1.003450722547308
 40
1.302991193258695
 40
1.302991193258695
 40
1.302991193258695
 40
1.302991193258695
 10
-17.258819
 20
10.448341
 30
0.0
 10
-17.37957755640049
 20
10.40118893666612
 30
0.0
 10
-17.60132406814659
 20
10.31460454979051
 30
0.0
 10
-17.83264077414242
 20
10.06164554494265
 30
0.0
 10
-17.97380643726067
 20
9.783200960061801
 30
0.0
 10
-17.99126352437248
 20
9.582737710405256
 30
0.0
 10
-18.0
 20
9.482414999999996
 30
0.0
 11
-17.258819
 21
10.448341
 31
0.0
 11
-17.603492
 21
10.279897
 31
0.0
 11
-17.82488999999999
 21
10.047711
 31
0.0
 11
-17.955145
 21
9.778577999999995
 31
0.0
 11
-18.0
 21
9.482414999999996
 31
0.0
  0
SPLINE
  5
12C1
330
1F
100
AcDbEntity
  8
AM_0
100
AcDbSpline
210
0.0
220
0.0
230
1.0
 70
     8
 71
     3
 72
    11
 73
     7
 74
     5
 42
0.0000000001
 43
0.0000000001
 44
0.0000000001
 40
0.0
 40
0.0
 40
0.0
 40
0.0
 40
0.3441404956830845
 40
0.7152413689264657
 40
1.124383139411952
 40
1.569642425065831
 40
1.569642425065831
 40
1.569642425065831
 40
1.569642425065831
 10
-10.401924
 20
10.598076
 30
0.0
 10
-10.50323598458336
 20
10.65219215302406
 30
0.0
 10
-10.713796855655
 20
10.76466398315011
 30
0.0
 10
-11.06840927047703
 20
10.88950337572751
 30
0.0
 10
-11.46821067784588
 20
10.98162136263872
 30
0.0
 10
-11.75333526662797
 20
10.99370354031771
 30
0.0
 10
-11.901924
 20
11.0
 30
0.0
 11
-10.401924
 21
10.598076
 31
0.0
 11
-10.709336
 21
10.75277099999999
 31
0.0
 11
-11.058327
 21
10.87894999999999
 31
0.0
 11
-11.457893
 21
10.96694999999999
 31
0.0
 11
-11.901924
 21
11.0
 31
0.0
  0
SPLINE
  5
12C2
330
1F
100
AcDbEntity
  8
AM_0
100
AcDbSpline
210
0.0
220
0.0
230
1.0
 70
     8
 71
     3
 72
    11
 73
     7
 74
     5
 42
0.0000000001
 43
0.0000000001
 44
0.0000000001
 40
0.0
 40
0.0
 40
0.0
 40
0.0
 40
0.0544552239183675
 40
0.1095869104153345
 40
0.165415187300803
 40
0.2219582576277633
 40
0.2219582576277633
 40
0.2219582576277633
 40
0.2219582576277633
 10
-9.196152999999997
 20
9.901922999999996
 30
0.0
 10
-9.180390117243423
 20
9.892920806833934
 30
0.0
 10
-9.148668539473002
 20
9.874804591987228
 30
0.0
 10
-9.100130386143174
 20
9.848636439565673
 30
0.0
 10
-9.050565075801992
 20
9.82292291244088
 30
0.0
 10
-9.016926350508201
 20
9.806443911753959
 30
0.0
 10
-9.0
 20
9.798152000000001
 30
0.0
 11
-9.196152999999997
 21
9.901922999999996
 31
0.0
 11
-9.148757000000003
 21
9.875108999999994
 31
0.0
 11
-9.100267000000002
 21
9.848874999999999
 31
0.0
 11
-9.050680999999997
 21
9.823222999999998
 31
0.0
 11
-9.0
 21
9.798152000000001
 31
0.0
  0
SPLINE
  5
12C3
330
1F
100
AcDbEntity
  8
AM_0
100
AcDbSpline
210
0.0
220
0.0
230
1.0
 70
     8
 71
     3
 72
    11
 73
     7
 74
     5
 42
0.0000000001
 43
0.0000000001
 44
0.0000000001
 40
0.0
 40
0.0
 40
0.0
 40
0.0
 40
0.4321146058269696
 40
0.8803071352125016
 40
1.355239503292421
 40
1.867083599635244
 40
1.867083599635244
 40
1.867083599635244
 40
1.867083599635244
 10
-14.678358
 20
9.312705999999998
 30
0.0
 10
-14.57489680887952
 20
9.413332917737736
 30
0.0
 10
-14.36412488973404
 20
9.618330833763849
 30
0.0
 10
-13.9853027027931
 20
9.86827194419321
 30
0.0
 10
-13.55232269165549
 20
10.07791730134427
 30
0.0
 10
-13.23183104060744
 20
10.15580263122068
 30
0.0
 10
-13.065591
 20
10.196202
 30
0.0
 11
-14.678358
 21
9.312705999999998
 31
0.0
 11
-14.35947
 21
9.604310999999995
 31
0.0
 11
-13.987944
 21
9.854999999999996
 31
0.0
 11
-13.558191
 21
10.057171
 31
0.0
 11
-13.065591
 21
10.196202
 31
0.0
  0
SPLINE
  5
12C4
330
1F
100
AcDbEntity
  8
AM_0
100
AcDbSpline
210
0.0
220
0.0
230
1.0
 70
     8
 71
     3
 72
    11
 73
     7
 74
     5
 42
0.0000000001
 43
0.0000000001
 44
0.0000000001
 40
0.0
 40
0.0
 40
0.0
 40
0.0
 40
0.5118544111571174
 40
0.9867863000506831
 40
1.434885183987021
 40
1.867075258436917
 40
1.867075258436917
 40
1.867075258436917
 40
1.867075258436917
 10
-11.934409
 20
10.196202
 30
0.0
 10
-11.76816689839029
 20
10.15580107038491
 30
0.0
 10
-11.44767453809347
 20
10.07791352466004
 30
0.0
 10
-11.01469639269184
 20
9.868311953003523
 30
0.0
 10
-10.6359621779855
 20
9.618259598773228
 30
0.0
 10
-10.42514541432205
 20
9.413322641712644
 30
0.0
 10
-10.32164199999999
 20
9.312705999999998
 30
0.0
 11
-11.934409
 21
10.196202
 31
0.0
 11
-11.441798
 21
10.057172
 31
0.0
 11
-11.01204599999999
 21
9.854999999999996
 31
0.0
 11
-10.640635
 21
9.604307999999996
 31
0.0
 11
-10.32164199999999
 21
9.312705999999998
 31
0.0
  0
LINE
  5
12C6
330
1F
100
AcDbEntity
  8
AM_0
100
AcDbLine
 10
-120.0
 20
11.5
 30
0.0
 11
-119.0
 21
12.5
 31
0.0
1001
GENIUS_GENODEF_13
1002
{
1000
HIER
1070
     0
1002
}
1002
{
1000
MANEDIT
1070
     0
1002
}
1002
{
1000
NOSEL
1070
     0
1002
}
1002
{
1000
BEHIND
1070
     0
1002
}
1002
{
1000
OTHER
1070
     0
1002
}
1002
{
1000
REACTOR
1002
}
1001
GENIUS_GENOBJ-N-CEN_13
1002
{
1000
OWNER
1000
GEN
1002
}
1001
GENIUS_GENCEN_19
1002
{
1040
2.793999999999999
1002
}
  0
LINE
  5
12C7
330
1F
100
AcDbEntity
  8
AM_0
100
AcDbLine
 10
-120.0
 20
-11.5
 30
0.0
 11
-119.0
 21
-12.5
 31
0.0
1001
GENIUS_GENODEF_13
1002
{
1000
HIER
1070
     0
1002
}
1002
{
1000
MANEDIT
1070
     0
1002
}
1002
{
1000
NOSEL
1070
     0
1002
}
1002
{
1000
BEHIND
1070
     0
1002
}
1002
{
1000
OTHER
1070
     0
1002
}
1002
{
1000
REACTOR
1002
}
1001
GENIUS_GENOBJ-N-CEN_13
1002
{
1000
OWNER
1000
GEN
1002
}
1001
GENIUS_GENCEN_19
1002
{
1040
2.793999999999999
1002
}
  0
LINE
  5
12C8
330
1F
100
AcDbEntity
  8
AM_0
100
AcDbLine
 10
-119.0
 20
12.5
 30
0.0
 11
-119.0
 21
-12.5
 31
0.0
  0
LINE
  5
1321
330
1F
100
AcDbEntity
  8
AM_0
100
AcDbLine
 10
-37.07846096908257
 20
12.5
 30
0.0
 11
-37.07846096908195
 21
-12.5
 31
0.0
  0
LINE
  5
1323
330
1F
100
AcDbEntity
  8
AM_0
100
AcDbLine
 10
-34.99999999999965
 20
-11.29999999999984
 30
0.0
 11
-34.99999999999992
 21
11.29999999999999
 31
0.0
  0
LINE
  5
1324
330
1F
100
AcDbEntity
  8
AM_0
100
AcDbLine
 10
-34.99999999999992
 20
11.3
 30
0.0
 11
-37.07846096908257
 21
12.5
 31
0.0
  0
LINE
  5
135F
330
1F
100
AcDbEntity
  8
AM_0
100
AcDbLine
 10
-34.99999999999992
 20
11.3
 30
0.0
 11
-9.328862199686728
 21
11.3
 31
0.0
  0
LINE
  5
1360
330
1F
100
AcDbEntity
  8
AM_0
100
AcDbLine
 10
-0.399999999999999
 20
10.22190542417547
 30
0.0
 11
-0.4000000000000112
 21
-11.425
 31
0.0
  0
DIMENSION
  5
14C9
330
1F
100
AcDbEntity
  8
AM_5
100
AcDbDimension
  2
*D9
 10
10.37780023046588
 20
-12.5
 30
0.0
 11
10.37780023046588
 21
-0.1938565810206683
 31
0.0
 70
   160
  1
%%c<>
 71
     5
 42
25.0
  3
AM_JIS$0
100
AcDbAlignedDimension
 13
-0.8016521532942096
 23
12.49999999999999
 33
0.0
 14
-3.025662854177255
 24
-12.5
 34
0.0
 50
90.0
100
AcDbRotatedDimension
1001
ACAD
1000
DSTYLE
1002
{
1070
   271
1070
     0
1002
}
  0
LINE
  5
156B
330
1F
100
AcDbEntity
  8
AM_0
100
AcDbLine
 10
-0.4000000000000051
 20
-11.425
 30
0.0
 11
-6.497556094518114
 21
-11.99423131251519
 31
0.0
  0
LINE
  5
156C
330
1F
100
AcDbEntity
  8
AM_0
100
AcDbLine
 10
-6.497556094518113
 20
-11.99423131251519
 30
0.0
 11
-7.699999999999651
 21
-11.3
 31
0.0
  0
LINE
  5
156D
330
1F
100
AcDbEntity
  8
AM_0
100
AcDbLine
 10
-7.699999999999652
 20
-11.29999999999999
 30
0.0
 11
-7.69999999999966
 21
4.653309306881311
 31
0.0
  0
LINE
  5
156E
330
1F
100
AcDbEntity
  8
AM_0
100
AcDbLine
 10
-6.497556094518118
 20
-11.99423131251519
 30
0.0
 11
-6.497556094518124
 21
5.090963683241956
 31
0.0
  0
DIMENSION
  5
15E2
330
1F
100
AcDbEntity
  8
AM_5
100
AcDbDimension
  2
*D10
 10
0.0000000000000016
 20
18.87058217135086
 30
0.0
 11
-3.999999999999999
 21
21.57058217135086
 31
0.0
 70
    32
 71
     5
 42
8.000000000000001
  3
AM_JIS$0
100
AcDbAlignedDimension
 13
-8.0
 23
12.40545696485611
 33
0.0
 14
0.0000000000000011
 24
11.24460061994233
 34
0.0
100
AcDbRotatedDimension
1001
ACAD
1000
DSTYLE
1002
{
1070
    40
1040
1.0
1070
   144
1040
1.0
1070
   271
1070
     0
1002
}
  0
LINE
  5
1632
330
1F
100
AcDbEntity
  8
AM_0
100
AcDbLine
 10
-3.72554746249833
 20
4.461888256146629
 30
0.0
 11
-0.0212963999655713
 21
10.87783930044434
 31
0.0
  0
LINE
  5
1633
330
1F
100
AcDbEntity
  8
AM_0
100
AcDbLine
 10
-0.7952446792342656
 20
12.5
 30
0.0
 11
-8.210154278356107
 21
12.5
 31
0.0
  0
LINE
  5
1634
330
1F
100
AcDbEntity
  8
AM_0
100
AcDbLine
 10
-9.228012513556024
 20
11.01866077915737
 30
0.0
 11
-8.398960364578442
 21
9.582700335004037
 31
0.0
  0
LINE
  5
1635
330
1F
100
AcDbEntity
  8
AM_0
100
AcDbLine
 10
-4.836366637298645
 20
4.17788786851673
 30
0.0
 11
-5.520557713996767
 21
4.597160699555658
 31
0.0
  0
ARC
  5
1636
330
1F
100
AcDbEntity
  8
AM_0
100
AcDbCircle
 10
-4.418620376773997
 20
4.858334732902427
 30
0.0
 40
0.7984484162641033
100
AcDbArc
 50
238.4530172744353
 51
330.2298972596088
  0
LINE
  5
1637
330
1F
100
AcDbEntity
  8
AM_0
100
AcDbLine
 10
-0.0002910155183073
 20
11.68000256942701
 30
0.0
 11
-0.0212963999655713
 21
10.87783930044434
 31
0.0
  0
ARC
  5
1638
330
1F
100
AcDbEntity
  8
AM_0
100
AcDbCircle
 10
-0.7984484162641082
 20
11.70155801118446
 30
0.0
 40
0.7984484162641033
100
AcDbArc
 50
358.4530172744353
 51
90.22989725960881
  0
LINE
  5
1639
330
1F
100
AcDbEntity
  8
AM_0
100
AcDbLine
 10
-8.91535073950148
 20
12.11710956205627
 30
0.0
 11
-8.210154278356087
 21
12.50000000000001
 31
0.0
  0
ARC
  5
163A
330
1F
100
AcDbEntity
  8
AM_0
100
AcDbCircle
 10
-8.534939599280331
 20
11.41510725591312
 30
0.0
 40
0.7984484162641033
100
AcDbArc
 50
118.453017274435
 51
210.2298972596087
  0
LINE
  5
163C
330
1F
100
AcDbEntity
  8
AM_0
100
AcDbLine
 10
-5.925802365521517
 20
5.299065025492069
 30
0.0
 11
-5.520557713996767
 21
4.597160699555658
 31
0.0
  0
LINE
  5
1A60
330
1F
100
AcDbEntity
  8
AM_0
100
AcDbLine
 10
-34.99999999999992
 20
-11.3
 30
0.0
 11
-37.07846096908257
 21
-12.5
 31
0.0
  0
LINE
  5
1A61
330
1F
100
AcDbEntity
  8
AM_0
100
AcDbLine
 10
-34.99999999999992
 20
-11.3
 30
0.0
 11
-7.699999999999651
 21
-11.3
 31
0.0
  0
LINE
  5
1A77
330
1F
100
AcDbEntity
  8
AM_3
 48
0.3
100
AcDbLine
 10
-7.591175999999999
 20
-4.692917999999998
 30
0.0
 11
-10.247344
 21
-3.726151999999998
 31
0.0
  0
LINE
  5
1A78
330
1F
100
AcDbEntity
  8
AM_3
 48
0.3
100
AcDbLine
 10
-18.0
 20
-7.250000000000001
 30
0.0
 11
-18.0
 21
-8.563017000000003
 31
0.0
  0
LINE
  5
1A79
330
1F
100
AcDbEntity
  8
AM_3
 48
0.3
100
AcDbLine
 10
-14.25
 20
-3.499999999999999
 30
0.0
 11
-11.52992
 21
-3.499999999999999
 31
0.0
  0
LINE
  5
1A7A
330
1F
100
AcDbEntity
  8
AM_3
 48
0.3
100
AcDbLine
 10
-13.065591
 20
-10.196202
 30
0.0
 11
-11.934409
 21
-10.196202
 31
0.0
  0
LINE
  5
1A7B
330
1F
100
AcDbEntity
  8
AM_3
 48
0.3
100
AcDbLine
 10
-15.2
 20
-11.0
 30
0.0
 11
-11.901924
 21
-11.0
 31
0.0
  0
LINE
  5
1A7C
330
1F
100
AcDbEntity
  8
AM_3
 48
0.3
100
AcDbLine
 10
-4.285769999999999
 20
-8.499038999999998
 30
0.0
 11
-7.000000000000003
 21
-6.587981
 31
0.0
  0
LINE
  5
1A7D
330
1F
100
AcDbEntity
  8
AM_3
 48
0.3
100
AcDbLine
 10
-7.076945999999999
 20
-4.880082999999999
 30
0.0
 11
-4.285769999999999
 21
-5.895987999999997
 31
0.0
  0
LINE
  5
1A7E
330
1F
100
AcDbEntity
  8
AM_3
 48
0.3
100
AcDbLine
 10
-4.000000000000003
 20
-9.500000000000001
 30
0.0
 11
-7.000000000000003
 21
-9.500000000000001
 31
0.0
  0
LINE
  5
1A7F
330
1F
100
AcDbEntity
  8
AM_3
 48
0.3
100
AcDbLine
 10
-4.000000000000003
 20
-9.500000000000001
 30
0.0
 11
-4.000000000000003
 21
-9.013268999999992
 31
0.0
  0
LINE
  5
1A80
330
1F
100
AcDbEntity
  8
AM_3
 48
0.3
100
AcDbLine
 10
-4.000000000000003
 20
-9.013268999999992
 30
0.0
 11
-4.000000000000003
 21
-6.000000000000001
 31
0.0
  0
LINE
  5
1A81
330
1F
100
AcDbEntity
  8
AM_3
 48
0.3
100
AcDbLine
 10
-9.0
 20
-9.143283999999995
 30
0.0
 11
-9.0
 21
-9.312706
 31
0.0
  0
LINE
  5
1A82
330
1F
100
AcDbEntity
  8
AM_3
 48
0.3
100
AcDbLine
 10
-18.0
 20
-8.563017000000003
 30
0.0
 11
-18.0
 21
-9.312706
 31
0.0
  0
LINE
  5
1A83
330
1F
100
AcDbEntity
  8
AM_3
 48
0.3
100
AcDbLine
 10
-9.0
 20
-9.312706
 30
0.0
 11
-9.0
 21
-9.798152000000003
 31
0.0
  0
LINE
  5
1A84
330
1F
100
AcDbEntity
  8
AM_3
 48
0.3
100
AcDbLine
 10
-18.0
 20
-9.312706
 30
0.0
 11
-18.0
 21
-9.482414999999997
 31
0.0
  0
LINE
  5
1A85
330
1F
100
AcDbEntity
  8
AM_3
 48
0.3
100
AcDbLine
 10
-7.076945999999999
 20
-4.880082999999999
 30
0.0
 11
-7.591175999999999
 21
-4.692917999999998
 31
0.0
  0
LINE
  5
1A86
330
1F
100
AcDbEntity
  8
AM_3
 48
0.3
100
AcDbLine
 10
-7.000000000000003
 20
-9.500000000000001
 30
0.0
 11
-7.696152999999998
 21
-9.500000000000001
 31
0.0
  0
LINE
  5
1A87
330
1F
100
AcDbEntity
  8
AM_3
 48
0.3
100
AcDbLine
 10
-17.258819
 20
-10.448341
 30
0.0
 11
-15.2
 21
-11.0
 31
0.0
  0
LINE
  5
1A88
330
1F
100
AcDbEntity
  8
AM_3
 48
0.3
100
AcDbLine
 10
-9.196152999999997
 20
-9.901922999999998
 30
0.0
 11
-10.401924
 21
-10.598076
 31
0.0
  0
LINE
  5
1A89
330
1F
100
AcDbEntity
  8
AM_3
 48
0.3
100
AcDbLine
 10
-4.000000000000003
 20
-6.000000000000001
 30
0.0
 11
-4.285769999999999
 21
-5.895987999999997
 31
0.0
  0
CIRCLE
  5
1A8A
330
1F
100
AcDbEntity
  8
AM_3
 48
0.3
100
AcDbCircle
 10
-12.5
 20
-7.250000000000001
 30
0.0
 40
1.649999999999999
  0
CIRCLE
  5
1A8B
330
1F
100
AcDbEntity
  8
AM_3
 48
0.3
100
AcDbCircle
 10
-12.5
 20
-7.250000000000001
 30
0.0
 40
2.85
  0
ARC
  5
1A8C
330
1F
100
AcDbEntity
  8
AM_3
 48
0.3
100
AcDbCircle
 10
-11.52992
 20
-7.250000000000001
 30
0.0
 40
3.75
100
AcDbArc
 50
69.99999687120411
 51
90.00000000000003
  0
ARC
  5
1A8D
330
1F
100
AcDbEntity
  8
AM_3
 48
0.3
100
AcDbCircle
 10
-14.25
 20
-7.250000000000001
 30
0.0
 40
3.75
100
AcDbArc
 50
90.00000000000003
 51
180.0
  0
ARC
  5
1A8E
330
1F
100
AcDbEntity
  8
AM_3
 48
0.3
100
AcDbCircle
 10
-12.5
 20
-7.250000000000001
 30
0.0
 40
2.999999431116279
100
AcDbArc
 50
334.0445338102059
 51
205.9554661897942
  0
SPLINE
  5
1A8F
330
1F
100
AcDbEntity
  8
AM_3
 48
0.3
100
AcDbSpline
210
0.0
220
0.0
230
1.0
 70
     8
 71
     3
 72
    11
 73
     7
 74
     5
 42
0.0000000001
 43
0.0000000001
 44
0.0000000001
 40
0.0
 40
0.0
 40
0.0
 40
0.0
 40
0.7072227630061205
 40
1.381679943545399
 40
2.011632637618536
 40
2.597565678414155
 40
2.597565678414155
 40
2.597565678414155
 40
2.597565678414155
 10
-8.973380000000005
 20
-8.563017000000003
 30
0.0
 10
-8.929699958372312
 20
-8.330151803932331
 30
0.0
 10
-8.844363568472074
 20
-7.875210040478817
 30
0.0
 10
-8.536498911990543
 20
-7.272142478246662
 30
0.0
 10
-8.126638362304612
 20
-6.776719879860387
 30
0.0
 10
-7.765302884686868
 20
-6.585544874340349
 30
0.0
 10
-7.591175999999999
 20
-6.493418
 30
0.0
 11
-8.973380000000005
 21
-8.563017000000003
 31
0.0
 11
-8.809297
 21
-7.875091999999996
 31
0.0
 11
-8.507446999999999
 21
-7.271951000000003
 31
0.0
 11
-8.090866000000001
 21
-6.799403999999997
 31
0.0
 11
-7.591175999999999
 21
-6.493418
 31
0.0
  0
SPLINE
  5
1A90
330
1F
100
AcDbEntity
  8
AM_3
 48
0.3
100
AcDbSpline
210
0.0
220
0.0
230
1.0
 70
     8
 71
     3
 72
    11
 73
     7
 74
     5
 42
0.0000000001
 43
0.0000000001
 44
0.0000000001
 40
0.0
 40
0.0
 40
0.0
 40
0.0
 40
0.0234621728959611
 40
0.0467850581591521
 40
0.0699678409299919
 40
0.0930097708838849
 40
0.0930097708838849
 40
0.0930097708838849
 40
0.0930097708838849
 10
-7.000000000000002
 20
-6.587981
 30
0.0
 10
-7.006405607188193
 20
-6.583494047802068
 30
0.0
 10
-7.01917879346438
 20
-6.574546781047689
 30
0.0
 10
-7.038425087892395
 20
-6.561373271652994
 30
0.0
 10
-7.057653141954278
 20
-6.548422223782718
 30
0.0
 10
-7.070528124576722
 20
-6.539957476859542
 30
0.0
 10
-7.076945999999998
 20
-6.535737999999994
 30
0.0
 11
-7.000000000000002
 21
-6.587981
 31
0.0
 11
-7.019241
 21
-6.574554999999998
 31
0.0
 11
-7.038480000000002
 21
-6.561371000000002
 31
0.0
 11
-7.057715999999999
 21
-6.548432
 31
0.0
 11
-7.076945999999998
 21
-6.535737999999994
 31
0.0
  0
SPLINE
  5
1A91
330
1F
100
AcDbEntity
  8
AM_3
 48
0.3
100
AcDbSpline
210
0.0
220
0.0
230
1.0
 70
     8
 71
     3
 72
    11
 73
     7
 74
     5
 42
0.0000000001
 43
0.0000000001
 44
0.0000000001
 40
0.0
 40
0.0
 40
0.0
 40
0.0
 40
0.1601550828041356
 40
0.3143604382396746
 40
0.4636322600949693
 40
0.6101663697111201
 40
0.6101663697111201
 40
0.6101663697111201
 40
0.6101663697111201
 10
-4.285769999999998
 20
-8.499038999999998
 30
0.0
 10
-4.243832157854172
 20
-8.532461113027537
 30
0.0
 10
-4.161514455506184
 20
-8.598063714670111
 30
0.0
 10
-4.071028872006316
 20
-8.725363077013259
 30
0.0
 10
-4.01130858888367
 20
-8.865372790837637
 30
0.0
 10
-4.003746199414844
 20
-8.964275381262867
 30
0.0
 10
-4.000000000000002
 20
-9.013268999999992
 30
0.0
 11
-4.285769999999998
 21
-8.499038999999998
 31
0.0
 11
-4.165398000000003
 21
-8.604681000000001
 31
0.0
 11
-4.074959999999999
 21
-8.729582000000002
 31
0.0
 11
-4.019016
 21
-8.867973999999998
 31
0.0
 11
-4.000000000000002
 21
-9.013268999999992
 31
0.0
  0
SPLINE
  5
1A92
330
1F
100
AcDbEntity
  8
AM_3
 48
0.3
100
AcDbSpline
210
0.0
220
0.0
230
1.0
 70
     8
 71
     3
 72
    11
 73
     7
 74
     5
 42
0.0000000001
 43
0.0000000001
 44
0.0000000001
 40
0.0
 40
0.0
 40
0.0
 40
0.0
 40
0.2470617568969275
 40
0.4859765089843646
 40
0.7106332067723456
 40
0.9151550776443787
 40
0.9151550776443787
 40
0.9151550776443787
 40
0.9151550776443787
 10
-9.802597000000004
 20
-8.563017000000003
 30
0.0
 10
-9.840396223776325
 20
-8.636242180328599
 30
0.0
 10
-9.914748219989151
 20
-8.780277898170135
 30
0.0
 10
-10.04492226169975
 20
-8.978589456487741
 30
0.0
 10
-10.17938146686919
 20
-9.156433228117366
 30
0.0
 10
-10.27572852326538
 20
-9.26227018257277
 30
0.0
 10
-10.32164199999999
 20
-9.312706
 30
0.0
 11
-9.802597000000004
 21
-8.563017000000003
 31
0.0
 11
-9.919786
 21
-8.780516999999997
 31
0.0
 11
-10.04976
 21
-8.980984000000001
 31
0.0
 11
-10.186166
 21
-9.159489000000002
 31
0.0
 11
-10.32164199999999
 21
-9.312706
 31
0.0
  0
SPLINE
  5
1A93
330
1F
100
AcDbEntity
  8
AM_3
 48
0.3
100
AcDbSpline
210
0.0
220
0.0
230
1.0
 70
     8
 71
     3
 72
    11
 73
     7
 74
     5
 42
0.0000000001
 43
0.0000000001
 44
0.0000000001
 40
0.0
 40
0.0
 40
0.0
 40
0.0
 40
0.1326995145431942
 40
0.27613971204724
 40
0.4268558141232947
 40
0.5812385203115164
 40
0.5812385203115164
 40
0.5812385203115164
 40
0.5812385203115164
 10
-9.0
 20
-9.143283999999995
 30
0.0
 10
-8.999926663515722
 20
-9.099049575536538
 30
0.0
 10
-8.999774054700834
 20
-9.007000397542459
 30
0.0
 10
-8.996766991092606
 20
-8.864746394706916
 30
0.0
 10
-8.989860609276583
 20
-8.715322916564273
 30
0.0
 10
-8.9789173741483
 20
-8.614190766143103
 30
0.0
 10
-8.973380000000005
 20
-8.563017000000003
 30
0.0
 11
-9.0
 21
-9.143283999999995
 31
0.0
 11
-8.999366000000001
 21
-9.010585999999998
 31
0.0
 11
-8.996234000000002
 21
-8.867179999999999
 31
0.0
 11
-8.988393000000002
 21
-8.716668
 31
0.0
 11
-8.973380000000005
 21
-8.563017000000003
 31
0.0
  0
SPLINE
  5
1A94
330
1F
100
AcDbEntity
  8
AM_3
 48
0.3
100
AcDbSpline
210
0.0
220
0.0
230
1.0
 70
     8
 71
     3
 72
    11
 73
     7
 74
     5
 42
0.0000000001
 43
0.0000000001
 44
0.0000000001
 40
0.0
 40
0.0
 40
0.0
 40
0.0
 40
0.2045223598191673
 40
0.4291798521758642
 40
0.6680918380807121
 40
0.9151557616976566
 40
0.9151557616976566
 40
0.9151557616976566
 40
0.9151557616976566
 10
-14.678358
 20
-9.312706
 30
0.0
 10
-14.72427274884638
 20
-9.262271084146922
 30
0.0
 10
-14.8206225325082
 20
-9.156435958102688
 30
0.0
 10
-14.95507966818924
 20
-8.978591112822702
 30
0.0
 10
-15.08525406783328
 20
-8.780279740107173
 30
0.0
 10
-15.15960429663088
 20
-8.636243286758265
 30
0.0
 10
-15.197403
 20
-8.563017000000003
 30
0.0
 11
-14.678358
 21
-9.312706
 31
0.0
 11
-14.813837
 21
-9.159490999999997
 31
0.0
 11
-14.950243
 21
-8.980984999999998
 31
0.0
 11
-15.08021499999999
 21
-8.780519999999997
 31
0.0
 11
-15.197403
 21
-8.563017000000003
 31
0.0
  0
SPLINE
  5
1A95
330
1F
100
AcDbEntity
  8
AM_3
 48
0.3
100
AcDbSpline
210
0.0
220
0.0
230
1.0
 70
     8
 71
     3
 72
    11
 73
     7
 74
     5
 42
0.0000000001
 43
0.0000000001
 44
0.0000000001
 40
0.0
 40
0.0
 40
0.0
 40
0.0
 40
0.1437734179499086
 40
0.2829648393091323
 40
0.4139707974369974
 40
0.5361907428878093
 40
0.5361907428878093
 40
0.5361907428878093
 40
0.5361907428878093
 10
-7.591175999999999
 20
-6.493418
 30
0.0
 10
-7.545519811147023
 20
-6.478049644209815
 30
0.0
 10
-7.455662476415294
 20
-6.447802715475534
 30
0.0
 10
-7.315791218220448
 20
-6.445232558785191
 30
0.0
 10
-7.186264174573191
 20
-6.473609140700483
 30
0.0
 10
-7.112532653488526
 20
-6.515513017318377
 30
0.0
 10
-7.076945999999998
 20
-6.535737999999994
 30
0.0
 11
-7.591175999999999
 21
-6.493418
 31
0.0
 11
-7.452723000000002
 21
-6.454667999999999
 31
0.0
 11
-7.313584999999998
 21
-6.450812
 31
0.0
 11
-7.186000999999999
 21
-6.480559000000001
 31
0.0
 11
-7.076945999999998
 21
-6.535737999999994
 31
0.0
  0
SPLINE
  5
1A96
330
1F
100
AcDbEntity
  8
AM_3
 48
0.3
100
AcDbSpline
210
0.0
220
0.0
230
1.0
 70
     8
 71
     3
 72
    11
 73
     7
 74
     5
 42
0.0000000001
 43
0.0000000001
 44
0.0000000001
 40
0.0
 40
0.0
 40
0.0
 40
0.0
 40
0.5957814161670362
 40
1.030344366766835
 40
1.274572009448829
 40
1.347401069067905
 40
1.347401069067905
 40
1.347401069067905
 40
1.347401069067905
 10
-7.696152999999998
 20
-9.500000000000001
 30
0.0
 10
-7.895122718229629
 20
-9.511153200002661
 30
0.0
 10
-8.239220944142754
 20
-9.53044154381858
 30
0.0
 10
-8.649816510129845
 20
-9.649383362872272
 30
0.0
 10
-8.882525903759562
 20
-9.742532976333679
 30
0.0
 10
-8.978056321121712
 20
-9.787762594727546
 30
0.0
 10
-9.0
 20
-9.798152000000003
 30
0.0
 11
-7.696152999999998
 21
-9.500000000000001
 31
0.0
 11
-8.288989999999998
 21
-9.559158999999992
 31
0.0
 11
-8.707644999999999
 21
-9.675662000000004
 31
0.0
 11
-8.934030000000008
 21
-9.767297000000001
 31
0.0
 11
-9.0
 21
-9.798152000000003
 31
0.0
  0
SPLINE
  5
1A97
330
1F
100
AcDbEntity
  8
AM_3
 48
0.3
100
AcDbSpline
210
0.0
220
0.0
230
1.0
 70
     8
 71
     3
 72
    11
 73
     7
 74
     5
 42
0.0000000001
 43
0.0000000001
 44
0.0000000001
 40
0.0
 40
0.0
 40
0.0
 40
0.0
 40
0.3836311484551312
 40
0.7044541728782443
 40
1.003450722547308
 40
1.302991193258696
 40
1.302991193258696
 40
1.302991193258696
 40
1.302991193258696
 10
-17.258819
 20
-10.448341
 30
0.0
 10
-17.37957755640049
 20
-10.40118893666612
 30
0.0
 10
-17.60132406814659
 20
-10.31460454979052
 30
0.0
 10
-17.83264077414243
 20
-10.06164554494266
 30
0.0
 10
-17.97380643726067
 20
-9.783200960061806
 30
0.0
 10
-17.99126352437248
 20
-9.582737710405256
 30
0.0
 10
-18.0
 20
-9.482414999999997
 30
0.0
 11
-17.258819
 21
-10.448341
 31
0.0
 11
-17.603492
 21
-10.279897
 31
0.0
 11
-17.82488999999999
 21
-10.047711
 31
0.0
 11
-17.955145
 21
-9.778577999999997
 31
0.0
 11
-18.0
 21
-9.482414999999997
 31
0.0
  0
SPLINE
  5
1A98
330
1F
100
AcDbEntity
  8
AM_3
 48
0.3
100
AcDbSpline
210
0.0
220
0.0
230
1.0
 70
     8
 71
     3
 72
    11
 73
     7
 74
     5
 42
0.0000000001
 43
0.0000000001
 44
0.0000000001
 40
0.0
 40
0.0
 40
0.0
 40
0.0
 40
0.3441404956830845
 40
0.7152413689264657
 40
1.124383139411952
 40
1.569642425065831
 40
1.569642425065831
 40
1.569642425065831
 40
1.569642425065831
 10
-10.401924
 20
-10.598076
 30
0.0
 10
-10.50323598458336
 20
-10.65219215302406
 30
0.0
 10
-10.713796855655
 20
-10.76466398315011
 30
0.0
 10
-11.06840927047703
 20
-10.88950337572751
 30
0.0
 10
-11.46821067784588
 20
-10.98162136263872
 30
0.0
 10
-11.75333526662797
 20
-10.99370354031771
 30
0.0
 10
-11.901924
 20
-11.0
 30
0.0
 11
-10.401924
 21
-10.598076
 31
0.0
 11
-10.709336
 21
-10.752771
 31
0.0
 11
-11.058327
 21
-10.87895
 31
0.0
 11
-11.457893
 21
-10.96695
 31
0.0
 11
-11.901924
 21
-11.0
 31
0.0
  0
SPLINE
  5
1A99
330
1F
100
AcDbEntity
  8
AM_3
 48
0.3
100
AcDbSpline
210
0.0
220
0.0
230
1.0
 70
     8
 71
     3
 72
    11
 73
     7
 74
     5
 42
0.0000000001
 43
0.0000000001
 44
0.0000000001
 40
0.0
 40
0.0
 40
0.0
 40
0.0
 40
0.0544552239183671
 40
0.1095869104153341
 40
0.1654151873008026
 40
0.2219582576277629
 40
0.2219582576277629
 40
0.2219582576277629
 40
0.2219582576277629
 10
-9.196152999999997
 20
-9.901922999999998
 30
0.0
 10
-9.180390117243423
 20
-9.892920806833936
 30
0.0
 10
-9.148668539473
 20
-9.87480459198723
 30
0.0
 10
-9.10013038614317
 20
-9.848636439565675
 30
0.0
 10
-9.050565075801996
 20
-9.822922912440885
 30
0.0
 10
-9.0169263505082
 20
-9.806443911753959
 30
0.0
 10
-9.0
 20
-9.798152000000003
 30
0.0
 11
-9.196152999999997
 21
-9.901922999999998
 31
0.0
 11
-9.148757000000003
 21
-9.875108999999996
 31
0.0
 11
-9.100267000000002
 21
-9.848875000000001
 31
0.0
 11
-9.050680999999997
 21
-9.823223
 31
0.0
 11
-9.0
 21
-9.798152000000003
 31
0.0
  0
SPLINE
  5
1A9A
330
1F
100
AcDbEntity
  8
AM_3
 48
0.3
100
AcDbSpline
210
0.0
220
0.0
230
1.0
 70
     8
 71
     3
 72
    11
 73
     7
 74
     5
 42
0.0000000001
 43
0.0000000001
 44
0.0000000001
 40
0.0
 40
0.0
 40
0.0
 40
0.0
 40
0.4321146058269691
 40
0.8803071352125016
 40
1.35523950329242
 40
1.867083599635244
 40
1.867083599635244
 40
1.867083599635244
 40
1.867083599635244
 10
-14.678358
 20
-9.312706
 30
0.0
 10
-14.57489680887952
 20
-9.413332917737738
 30
0.0
 10
-14.36412488973404
 20
-9.618330833763847
 30
0.0
 10
-13.9853027027931
 20
-9.868271944193216
 30
0.0
 10
-13.55232269165548
 20
-10.07791730134426
 30
0.0
 10
-13.23183104060744
 20
-10.15580263122069
 30
0.0
 10
-13.065591
 20
-10.196202
 30
0.0
 11
-14.678358
 21
-9.312706
 31
0.0
 11
-14.35947
 21
-9.604310999999997
 31
0.0
 11
-13.987944
 21
-9.854999999999998
 31
0.0
 11
-13.558191
 21
-10.057171
 31
0.0
 11
-13.065591
 21
-10.196202
 31
0.0
  0
SPLINE
  5
1A9B
330
1F
100
AcDbEntity
  8
AM_3
 48
0.3
100
AcDbSpline
210
0.0
220
0.0
230
1.0
 70
     8
 71
     3
 72
    11
 73
     7
 74
     5
 42
0.0000000001
 43
0.0000000001
 44
0.0000000001
 40
0.0
 40
0.0
 40
0.0
 40
0.0
 40
0.5118544111571177
 40
0.9867863000506829
 40
1.434885183987022
 40
1.867075258436917
 40
1.867075258436917
 40
1.867075258436917
 40
1.867075258436917
 10
-11.934409
 20
-10.196202
 30
0.0
 10
-11.76816689839029
 20
-10.15580107038491
 30
0.0
 10
-11.44767453809346
 20
-10.07791352466003
 30
0.0
 10
-11.01469639269184
 20
-9.868311953003527
 30
0.0
 10
-10.6359621779855
 20
-9.618259598773226
 30
0.0
 10
-10.42514541432205
 20
-9.413322641712646
 30
0.0
 10
-10.32164199999999
 20
-9.312706
 30
0.0
 11
-11.934409
 21
-10.196202
 31
0.0
 11
-11.441798
 21
-10.057172
 31
0.0
 11
-11.01204599999999
 21
-9.854999999999998
 31
0.0
 11
-10.640635
 21
-9.604307999999997
 31
0.0
 11
-10.32164199999999
 21
-9.312706
 31
0.0
  0
LINE
  5
1A9C
330
1F
100
AcDbEntity
  8
AM_3
 48
0.3
100
AcDbLine
 10
-3.72554746249833
 20
-4.461888256146631
 30
0.0
 11
-0.0212963999655713
 21
-10.87783930044434
 31
0.0
  0
LINE
  5
1A9D
330
1F
100
AcDbEntity
  8
AM_0
100
AcDbLine
 10
-0.7952446792342656
 20
-12.5
 30
0.0
 11
-8.210154278356107
 21
-12.5
 31
0.0
  0
LINE
  5
1A9E
330
1F
100
AcDbEntity
  8
AM_3
 48
0.3
100
AcDbLine
 10
-9.228012513556024
 20
-11.01866077915737
 30
0.0
 11
-8.398960364578442
 21
-9.582700335004039
 31
0.0
  0
LINE
  5
1A9F
330
1F
100
AcDbEntity
  8
AM_3
 48
0.3
100
AcDbLine
 10
-5.925802365521517
 20
-5.299065025492071
 30
0.0
 11
-5.520557713996767
 21
-4.59716069955566
 31
0.0
  0
LINE
  5
1AA0
330
1F
100
AcDbEntity
  8
AM_3
 48
0.3
100
AcDbLine
 10
-4.836366637298645
 20
-4.177887868516732
 30
0.0
 11
-5.520557713996767
 21
-4.59716069955566
 31
0.0
  0
ARC
  5
1AA1
330
1F
100
AcDbEntity
  8
AM_3
 48
0.3
100
AcDbCircle
 10
-4.418620376773997
 20
-4.858334732902429
 30
0.0
 40
0.7984484162641033
100
AcDbArc
 50
29.77010274039124
 51
121.5469827255647
  0
LINE
  5
1AA2
330
1F
100
AcDbEntity
  8
AM_0
100
AcDbLine
 10
-0.0002910155183073
 20
-11.68000256942701
 30
0.0
 11
-0.0212963999655713
 21
-10.87783930044435
 31
0.0
  0
ARC
  5
1AA3
330
1F
100
AcDbEntity
  8
AM_0
100
AcDbCircle
 10
-0.7984484162641082
 20
-11.70155801118447
 30
0.0
 40
0.7984484162641033
100
AcDbArc
 50
269.7701027403912
 51
1.546982725564667
  0
LINE
  5
1AA4
330
1F
100
AcDbEntity
  8
AM_0
100
AcDbLine
 10
-8.91535073950148
 20
-12.11710956205627
 30
0.0
 11
-8.210154278356087
 21
-12.50000000000001
 31
0.0
  0
ARC
  5
1AA5
330
1F
100
AcDbEntity
  8
AM_3
 48
0.3
100
AcDbCircle
 10
-8.534939599280331
 20
-11.41510725591313
 30
0.0
 40
0.7984484162641033
100
AcDbArc
 50
149.7701027403913
 51
171.7111476827908
  0
ARC
  5
1AA7
330
1F
100
AcDbEntity
  8
AM_0
100
AcDbCircle
 10
-8.534939599280331
 20
-11.41510725591313
 30
0.0
 40
0.7984484162641033
100
AcDbArc
 50
171.7111476827908
 51
241.546982725565
  0
LINE
  5
1AA8
330
1F
100
AcDbEntity
  8
AM_0
  6
AM_ISO02W050x2
100
AcDbLine
 10
-0.0212963999655714
 20
-10.87783930044434
 30
0.0
 11
-0.4000000000000106
 21
-10.22190542417545
 31
0.0
  0
ENDSEC
  0
SECTION
  2
OBJECTS
  0
DICTIONARY
  5
C
330
0
100
AcDbDictionary
281
     1
  3
ACAD_COLOR
350
BE
  3
ACAD_GROUP
350
D
  3
ACAD_LAYOUT
350
1A
  3
ACAD_MATERIAL
350
BD
  3
ACAD_MLINESTYLE
350
17
  3
ACAD_PLOTSETTINGS
350
19
  3
ACAD_PLOTSTYLENAME
350
E
  3
ACAD_TABLESTYLE
350
11A
  3
AcDbVariableDictionary
350
94
  3
AcmDictionary
350
5B
  3
AMG
350
41
  3
AMGSNAPSETTINGS
350
1B8
  0
DICTIONARY
  5
34B
330
2
100
AcDbDictionary
280
     1
281
     1
  3
AMLAYER_GROUPCOLORS
360
34C
  0
DICTIONARY
  5
8F
330
1F
100
AcDbDictionary
280
     1
281
     1
  3
ACAD_SORTENTS
360
7DB
  0
DICTIONARY
  5
BE
102
{ACAD_REACTORS
330
C
102
}
330
C
100
AcDbDictionary
281
     1
  0
DICTIONARY
  5
D
102
{ACAD_REACTORS
330
C
102
}
330
C
100
AcDbDictionary
281
     1
  0
DICTIONARY
  5
1A
102
{ACAD_REACTORS
330
C
102
}
330
C
100
AcDbDictionary
281
     1
  3
\M+1838C\M+18343\M+18341\M+18345\M+183671
350
1E
  3
\M+1838C\M+18343\M+18341\M+18345\M+183672
350
26
  3
Model
350
22
  0
DICTIONARY
  5
BD
102
{ACAD_REACTORS
330
C
102
}
330
C
100
AcDbDictionary
281
     1
  0
DICTIONARY
  5
17
102
{ACAD_REACTORS
330
C
102
}
330
C
100
AcDbDictionary
281
     1
  3
Standard
350
18
  0
DICTIONARY
  5
19
102
{ACAD_REACTORS
330
C
102
}
330
C
100
AcDbDictionary
281
     1
  0
ACDBDICTIONARYWDFLT
  5
E
102
{ACAD_REACTORS
330
C
102
}
330
C
100
AcDbDictionary
281
     1
  3
Normal
350
F
100
AcDbDictionaryWithDefault
340
F
  0
DICTIONARY
  5
11A
102
{ACAD_REACTORS
330
C
102
}
330
C
100
AcDbDictionary
281
     1
  3
Standard
350
11B
  0
DICTIONARY
  5
94
102
{ACAD_REACTORS
330
C
102
}
330
C
100
AcDbDictionary
281
     1
  3
CTABLESTYLE
350
138
  3
DIMASSOC
350
96
  3
INDEXCTL
350
95
  0
DICTIONARY
  5
5B
102
{ACAD_REACTORS
330
C
102
}
330
C
100
AcDbDictionary
281
     1
  3
AcmBOM
350
1B5
  3
AcmStdDictionary
350
61
  3
AMDTSECTSYM_ARROWCOLOR
350
123
  0
DICTIONARY
  5
41
102
{ACAD_REACTORS
330
C
102
}
330
C
100
AcDbDictionary
281
     1
  0
DICTIONARY
  5
1B8
102
{ACAD_REACTORS
330
C
102
}
330
C
100
AcDbDictionary
281
     1
  0
DICTIONARY
  5
34C
102
{ACAD_REACTORS
330
34B
102
}
330
34B
100
AcDbDictionary
280
     1
281
     1
  0
SORTENTSTABLE
  5
7DB
102
{ACAD_REACTORS
330
8F
102
}
330
8F
100
AcDbSortentsTable
330
1F
331
1A96
  5
1A96
331
12B1
  5
12B3
331
1A80
  5
1A80
331
B1F
  5
CB2
331
12BA
  5
12BC
331
1A9F
  5
1A9F
331
1A89
  5
1A89
331
156D
  5
156D
331
12C3
  5
12C6
331
163A
  5
163C
331
12AD
  5
12AF
331
12A4
  5
12A6
331
1A78
  5
1A78
331
12B2
  5
12B4
331
1A97
  5
1A97
331
1A81
  5
1A81
331
F9E
  5
100A
331
1AA0
  5
1AA0
331
156E
  5
156E
331
1A8A
  5
1A8A
331
D19
  5
7AF
331
12C4
  5
12C7
331
12BB
  5
12BD
331
12AE
  5
12B0
331
1632
  5
1632
331
1A79
  5
1A79
331
1A98
  5
1A98
331
1A82
  5
1A82
331
7F6
  5
A7B
331
12BC
  5
12BE
331
1AA1
  5
1AA1
331
1A8B
  5
1A8B
331
14C9
  5
14C9
331
12A6
  5
12A8
331
1633
  5
1633
331
12B3
  5
12B5
331
1321
  5
1321
331
12AF
  5
12B1
331
163C
  5
1636
331
1A90
  5
1A90
331
1A7A
  5
1A7A
331
1A99
  5
1A99
331
1A83
  5
1A83
331
129E
  5
12A0
331
12BD
  5
12BF
331
1AA2
  5
1AA2
331
1A8C
  5
1A8C
331
12C6
  5
A76
331
12A7
  5
12A9
331
1A77
  5
1A77
331
72D
  5
730
331
1634
  5
1634
331
12B4
  5
12B6
331
1A91
  5
1A91
331
1A7B
  5
1A7B
331
1A9A
  5
1A9A
331
78A
  5
A7A
331
129F
  5
12A1
331
12B5
  5
12B7
331
1323
  5
1323
331
1A84
  5
1A84
331
12BE
  5
12C0
331
1AA3
  5
1AA3
331
1A8D
  5
1A8D
331
12C7
  5
8A3
331
12A8
  5
12AA
331
1635
  5
1637
331
D13
  5
920
331
1A92
  5
1A92
331
1A7C
  5
1A7C
331
1A9B
  5
1A9B
331
1A85
  5
1A85
331
12A0
  5
12A2
331
1636
  5
1638
331
12B6
  5
12B8
331
1324
  5
1324
331
12A9
  5
12AB
331
1AA4
  5
1AA4
331
1A8E
  5
1A8E
331
15E2
  5
15E2
331
12C8
  5
12C8
331
12BF
  5
12C1
331
1A93
  5
1A93
331
1A7D
  5
1A7D
331
1A9C
  5
1A9C
331
1A86
  5
1A86
331
1637
  5
1639
331
12B7
  5
12B9
331
12C0
  5
12C2
331
1AA5
  5
1AA5
331
1A8F
  5
1A8F
331
86B
  5
A7D
331
12AA
  5
12AC
331
1A94
  5
1A94
331
1A7E
  5
1A7E
331
1A60
  5
1A60
331
12B8
  5
12BA
331
1A9D
  5
1A9D
331
156B
  5
156B
331
1A87
  5
1A87
331
1638
  5
163A
331
12C1
  5
12C3
331
135F
  5
135F
331
12AB
  5
12AD
331
12A2
  5
12A4
331
1A95
  5
1A95
331
1A7F
  5
1A7F
331
12B0
  5
12B2
331
1A61
  5
1A61
331
12B9
  5
12BB
331
1A9E
  5
1A9E
331
156C
  5
156C
331
1A88
  5
1A88
331
1639
  5
163B
331
1360
  5
1360
331
12C2
  5
12C4
331
12A3
  5
12A5
331
1AA7
  5
1AA7
331
E68
  5
ECF
331
12AC
  5
12AE
  0
LAYOUT
  5
1E
102
{ACAD_REACTORS
330
1A
102
}
330
1A
100
AcDbPlotSettings
  1

  2

  4

  6

 40
0.0
 41
0.0
 42
0.0
 43
0.0
 44
0.0
 45
0.0
 46
0.0
 47
0.0
 48
0.0
 49
0.0
140
0.0
141
0.0
142
1.0
143
1.0
 70
   688
 72
     0
 73
     0
 74
     5
  7
sei_cad.ctb
 75
    16
147
1.0
 76
     0
 77
     2
 78
   300
148
0.0
149
0.0
100
AcDbLayout
  1
\M+1838C\M+18343\M+18341\M+18345\M+183671
 70
     1
 71
     1
 10
0.0
 20
0.0
 11
420.0
 21
297.0
 12
0.0
 22
0.0
 32
0.0
 14
1.000000000000000E+20
 24
1.000000000000000E+20
 34
1.000000000000000E+20
 15
-1.000000000000000E+20
 25
-1.000000000000000E+20
 35
-1.000000000000000E+20
146
0.0
 13
0.0
 23
0.0
 33
0.0
 16
1.0
 26
0.0
 36
0.0
 17
0.0
 27
1.0
 37
0.0
 76
     0
330
1B
  0
LAYOUT
  5
26
102
{ACAD_REACTORS
330
1A
102
}
330
1A
100
AcDbPlotSettings
  1

  2

  4

  6

 40
0.0
 41
0.0
 42
0.0
 43
0.0
 44
0.0
 45
0.0
 46
0.0
 47
0.0
 48
0.0
 49
0.0
140
0.0
141
0.0
142
1.0
143
1.0
 70
   688
 72
     0
 73
     0
 74
     5
  7
sei_cad.ctb
 75
    16
147
1.0
 76
     0
 77
     2
 78
   300
148
0.0
149
0.0
100
AcDbLayout
  1
\M+1838C\M+18343\M+18341\M+18345\M+183672
 70
     1
 71
     2
 10
0.0
 20
0.0
 11
12.0
 21
9.0
 12
0.0
 22
0.0
 32
0.0
 14
0.0
 24
0.0
 34
0.0
 15
0.0
 25
0.0
 35
0.0
146
0.0
 13
0.0
 23
0.0
 33
0.0
 16
1.0
 26
0.0
 36
0.0
 17
0.0
 27
1.0
 37
0.0
 76
     0
330
23
  0
LAYOUT
  5
22
102
{ACAD_REACTORS
330
1A
102
}
330
1A
100
AcDbPlotSettings
  1

  2
SII LP-1010 (C2 VR)2R
  4
A4
  6

 40
3.174999952316283
 41
3.174999952316283
 42
3.175003051757812
 43
3.17498779296875
 44
209.9733276367186
 45
296.9259948730469
 46
0.0
 47
0.0
 48
0.0
 49
0.0
140
0.0
141
0.0
142
1.0
143
1.458575536647462
 70
 11952
 72
     1
 73
     1
 74
     2
  7
sei_cad.ctb
 75
     0
147
0.6856004196385343
 76
     0
 77
     2
 78
   300
148
0.0
149
0.0
100
AcDbLayout
  1
Model
 70
     1
 71
     0
 10
0.0
 20
0.0
 11
12.0
 21
9.0
 12
0.0
 22
0.0
 32
0.0
 14
0.0
 24
0.0
 34
0.0
 15
0.0
 25
0.0
 35
0.0
146
0.0
 13
0.0
 23
0.0
 33
0.0
 16
1.0
 26
0.0
 36
0.0
 17
0.0
 27
1.0
 37
0.0
 76
     0
330
1F
1001
ACAD_PSEXT
1000
SII LP-1010 (C2 VR)2R
1000
SII LP-1010 (C2 VR)2R
1000
133.153.16.130#9100
1000

1070
     0
  0
MLINESTYLE
  5
18
102
{ACAD_REACTORS
330
17
102
}
330
17
100
AcDbMlineStyle
  2
STANDARD
 70
     0
  3

 62
   256
 51
90.0
 52
90.0
 71
     2
 49
0.5
 62
   256
  6
BYLAYER
 49
-0.5
 62
   256
  6
BYLAYER
  0
ACDBPLACEHOLDER
  5
F
102
{ACAD_REACTORS
330
E
102
}
330
E
  0
TABLESTYLE
  5
11B
102
{ACAD_REACTORS
330
11A
102
}
330
11A
100
AcDbTableStyle
  3
Standard
 70
     0
 71
     0
 40
1.5
 41
1.5
280
     0
281
     0
  7
STANDARD
140
4.5
170
     2
 62
     0
 63
     7
283
     0
274
    -2
284
     1
 64
     0
275
    -2
285
     1
 65
     0
276
    -2
286
     1
 66
     0
277
    -2
287
     1
 67
     0
278
    -2
288
     1
 68
     0
279
    -2
289
     1
 69
     0
  7
STANDARD
140
6.0
170
     5
 62
     0
 63
     7
283
     0
274
    -2
284
     1
 64
     0
275
    -2
285
     1
 65
     0
276
    -2
286
     1
 66
     0
277
    -2
287
     1
 67
     0
278
    -2
288
     1
 68
     0
279
    -2
289
     1
 69
     0
  7
STANDARD
140
4.5
170
     5
 62
     0
 63
     7
283
     0
274
    -2
284
     1
 64
     0
275
    -2
285
     1
 65
     0
276
    -2
286
     1
 66
     0
277
    -2
287
     1
 67
     0
278
    -2
288
     1
 68
     0
279
    -2
289
     1
 69
     0
  0
DICTIONARYVAR
  5
138
102
{ACAD_REACTORS
330
94
102
}
330
94
100
DictionaryVariables
280
     0
  1
STANDARD
  0
DICTIONARYVAR
  5
96
102
{ACAD_REACTORS
330
94
102
}
330
94
100
DictionaryVariables
280
     0
  1
2
  0
DICTIONARYVAR
  5
95
102
{ACAD_REACTORS
330
94
102
}
330
94
100
DictionaryVariables
280
     0
  1
1
  0
DICTIONARY
  5
1B5
102
{ACAD_REACTORS
330
5B
102
}
330
5B
100
AcDbDictionary
281
     1
  0
DICTIONARY
  5
61
102
{ACAD_REACTORS
330
5B
102
}
330
5B
100
AcDbDictionary
281
     1
  0
XRECORD
  5
123
102
{ACAD_REACTORS
330
5B
102
}
330
5B
100
AcDbXrecord
280
     1
 90
-1023410169
  0
ENDSEC
  0
EOF
