  0
SECTION
  2
HEADER
  9
$ACADVER
  1
AC1018
  9
$ACADMAINTVER
 70
    39
  9
$DWGCODEPAGE
  3
ANSI_936
  9
$CUSTOMPROPERTYTAG
  1
AmdtFileType
  9
$CUSTOMPROPERTY
  1
84
  9
$INSBASE
 10
0.0
 20
0.0
 30
0.0
  9
$EXTMIN
 10
-135.6485797085176
 20
-64.88470129961228
 30
-0.0015258207003583
  9
$EXTMAX
 10
12.21237457093252
 20
31.69077277992903
 30
0.0000000349246037
  9
$LIMMIN
 10
0.0
 20
0.0
  9
$LIMMAX
 10
420.0
 20
297.0
  9
$ORTHOMODE
 70
     1
  9
$REGENMODE
 70
     1
  9
$FILLMODE
 70
     1
  9
$QTEXTMODE
 70
     0
  9
$MIRRTEXT
 70
     1
  9
$LTSCALE
 40
1.0
  9
$ATTMODE
 70
     1
  9
$TEXTSIZE
 40
3.799999999999999
  9
$TRACEWID
 40
1.0
  9
$TEXTSTYLE
  7
ACISOTS
  9
$CLAYER
  8
AM_0
  9
$CELTYPE
  6
ByLayer
  9
$CECOLOR
 62
   256
  9
$CELTSCALE
 40
1.0
  9
$DISPSILH
 70
     0
  9
$DIMSCALE
 40
1.0
  9
$DIMASZ
 40
2.5
  9
$DIMEXO
 40
0.0
  9
$DIMDLI
 40
10.0
  9
$DIMRND
 40
0.0
  9
$DIMDLE
 40
0.0
  9
$DIMEXE
 40
1.0
  9
$DIMTP
 40
0.1
  9
$DIMTM
 40
0.1000000001
  9
$DIMTXT
 40
3.799999999999999
  9
$DIMCEN
 40
0.0
  9
$DIMTSZ
 40
0.0
  9
$DIMTOL
 70
     0
  9
$DIMLIM
 70
     0
  9
$DIMTIH
 70
     0
  9
$DIMTOH
 70
     0
  9
$DIMSE1
 70
     0
  9
$DIMSE2
 70
     0
  9
$DIMTAD
 70
     3
  9
$DIMZIN
 70
     1
  9
$DIMBLK
  1
Open30
  9
$DIMASO
 70
     1
  9
$DIMSHO
 70
     1
  9
$DIMPOST
  1

  9
$DIMAPOST
  1
"
  9
$DIMALT
 70
     0
  9
$DIMALTD
 70
     2
  9
$DIMALTF
 40
0.0393701
  9
$DIMLFAC
 40
1.0
  9
$DIMTOFL
 70
     1
  9
$DIMTVP
 40
0.0
  9
$DIMTIX
 70
     0
  9
$DIMSOXD
 70
     0
  9
$DIMSAH
 70
     0
  9
$DIMBLK1
  1

  9
$DIMBLK2
  1

  9
$DIMSTYLE
  2
AM_JIS
  9
$DIMCLRD
 70
   256
  9
$DIMCLRE
 70
   256
  9
$DIMCLRT
 70
     2
  9
$DIMTFAC
 40
0.71
  9
$DIMGAP
 40
1.5
  9
$DIMJUST
 70
     0
  9
$DIMSD1
 70
     0
  9
$DIMSD2
 70
     0
  9
$DIMTOLJ
 70
     0
  9
$DIMTZIN
 70
     8
  9
$DIMALTZ
 70
     0
  9
$DIMALTTZ
 70
     0
  9
$DIMUPT
 70
     0
  9
$DIMDEC
 70
     1
  9
$DIMTDEC
 70
     2
  9
$DIMALTU
 70
     2
  9
$DIMALTTD
 70
     2
  9
$DIMTXSTY
  7
STANDARD
  9
$DIMAUNIT
 70
     1
  9
$DIMADEC
 70
     1
  9
$DIMALTRND
 40
0.0
  9
$DIMAZIN
 70
     0
  9
$DIMDSEP
 70
    46
  9
$DIMATFIT
 70
     3
  9
$DIMFRAC
 70
     0
  9
$DIMLDRBLK
  1
Open30
  9
$DIMLUNIT
 70
     2
  9
$DIMLWD
 70
    -1
  9
$DIMLWE
 70
    -1
  9
$DIMTMOVE
 70
     0
  9
$LUNITS
 70
     2
  9
$LUPREC
 70
     2
  9
$SKETCHINC
 40
1.0
  9
$FILLETRAD
 40
0.8
  9
$AUNITS
 70
     0
  9
$AUPREC
 70
     0
  9
$MENU
  1
.
  9
$ELEVATION
 40
0.0
  9
$PELEVATION
 40
0.0
  9
$THICKNESS
 40
0.0
  9
$LIMCHECK
 70
     0
  9
$CHAMFERA
 40
1.5
  9
$CHAMFERB
 40
1.5
  9
$CHAMFERC
 40
20.0
  9
$CHAMFERD
 40
0.0
  9
$SKPOLY
 70
     0
  9
$TDCREATE
 40
2455413.706588172
  9
$TDUCREATE
 40
2455413.373254838
  9
$TDUPDATE
 40
2455544.434711007
  9
$TDUUPDATE
 40
2455544.101377673
  9
$TDINDWG
 40
0.3057644560
  9
$TDUSRTIMER
 40
0.3057644560
  9
$USRTIMER
 70
     1
  9
$ANGBASE
 50
0.0
  9
$ANGDIR
 70
     0
  9
$PDMODE
 70
     0
  9
$PDSIZE
 40
0.0
  9
$PLINEWID
 40
0.0
  9
$SPLFRAME
 70
     0
  9
$SPLINETYPE
 70
     6
  9
$SPLINESEGS
 70
     8
  9
$HANDSEED
  5
1DB0
  9
$SURFTAB1
 70
     6
  9
$SURFTAB2
 70
     6
  9
$SURFTYPE
 70
     6
  9
$SURFU
 70
     6
  9
$SURFV
 70
     6
  9
$UCSBASE
  2

  9
$UCSNAME
  2

  9
$UCSORG
 10
0.0
 20
0.0
 30
0.0
  9
$UCSXDIR
 10
1.0
 20
0.0
 30
0.0
  9
$UCSYDIR
 10
0.0
 20
1.0
 30
0.0
  9
$UCSORTHOREF
  2

  9
$UCSORTHOVIEW
 70
     0
  9
$UCSORGTOP
 10
0.0
 20
0.0
 30
0.0
  9
$UCSORGBOTTOM
 10
0.0
 20
0.0
 30
0.0
  9
$UCSORGLEFT
 10
0.0
 20
0.0
 30
0.0
  9
$UCSORGRIGHT
 10
0.0
 20
0.0
 30
0.0
  9
$UCSORGFRONT
 10
0.0
 20
0.0
 30
0.0
  9
$UCSORGBACK
 10
0.0
 20
0.0
 30
0.0
  9
$PUCSBASE
  2

  9
$PUCSNAME
  2

  9
$PUCSORG
 10
0.0
 20
0.0
 30
0.0
  9
$PUCSXDIR
 10
1.0
 20
0.0
 30
0.0
  9
$PUCSYDIR
 10
0.0
 20
1.0
 30
0.0
  9
$PUCSORTHOREF
  2

  9
$PUCSORTHOVIEW
 70
     0
  9
$PUCSORGTOP
 10
0.0
 20
0.0
 30
0.0
  9
$PUCSORGBOTTOM
 10
0.0
 20
0.0
 30
0.0
  9
$PUCSORGLEFT
 10
0.0
 20
0.0
 30
0.0
  9
$PUCSORGRIGHT
 10
0.0
 20
0.0
 30
0.0
  9
$PUCSORGFRONT
 10
0.0
 20
0.0
 30
0.0
  9
$PUCSORGBACK
 10
0.0
 20
0.0
 30
0.0
  9
$USERI1
 70
     0
  9
$USERI2
 70
     0
  9
$USERI3
 70
     0
  9
$USERI4
 70
     0
  9
$USERI5
 70
     0
  9
$USERR1
 40
0.0
  9
$USERR2
 40
0.0
  9
$USERR3
 40
0.0
  9
$USERR4
 40
0.0
  9
$USERR5
 40
0.0
  9
$WORLDVIEW
 70
     1
  9
$SHADEDGE
 70
     3
  9
$SHADEDIF
 70
    70
  9
$TILEMODE
 70
     1
  9
$MAXACTVP
 70
    64
  9
$PINSBASE
 10
0.0
 20
0.0
 30
0.0
  9
$PLIMCHECK
 70
     0
  9
$PEXTMIN
 10
1.000000000000000E+20
 20
1.000000000000000E+20
 30
1.000000000000000E+20
  9
$PEXTMAX
 10
-1.000000000000000E+20
 20
-1.000000000000000E+20
 30
-1.000000000000000E+20
  9
$PLIMMIN
 10
0.0
 20
0.0
  9
$PLIMMAX
 10
420.0
 20
297.0
  9
$UNITMODE
 70
     0
  9
$VISRETAIN
 70
     1
  9
$PLINEGEN
 70
     0
  9
$PSLTSCALE
 70
     1
  9
$TREEDEPTH
 70
  3020
  9
$CMLSTYLE
  2
Standard
  9
$CMLJUST
 70
     0
  9
$CMLSCALE
 40
20.0
  9
$PROXYGRAPHICS
 70
     1
  9
$MEASUREMENT
 70
     1
  9
$CELWEIGHT
370
    -1
  9
$ENDCAPS
280
     0
  9
$JOINSTYLE
280
     0
  9
$LWDISPLAY
290
     0
  9
$INSUNITS
 70
     4
  9
$HYPERLINKBASE
  1

  9
$STYLESHEET
  1

  9
$XEDIT
290
     1
  9
$CEPSNTYPE
380
     0
  9
$PSTYLEMODE
290
     1
  9
$FINGERPRINTGUID
  2
{4EF443E9-F763-4CB6-8927-D1E34FDC1C5A}
  9
$VERSIONGUID
  2
{82E83575-8DE4-45AB-A92B-27D8CE576B91}
  9
$EXTNAMES
290
     1
  9
$PSVPSCALE
 40
0.0
  9
$OLESTARTUP
290
     0
  9
$SORTENTS
280
   127
  9
$INDEXCTL
280
     0
  9
$HIDETEXT
280
     0
  9
$XCLIPFRAME
290
     0
  9
$HALOGAP
280
     0
  9
$OBSCOLOR
 70
   257
  9
$OBSLTYPE
280
     0
  9
$INTERSECTIONDISPLAY
280
     0
  9
$INTERSECTIONCOLOR
 70
   257
  9
$DIMASSOC
280
     2
  9
$PROJECTNAME
  1

  0
ENDSEC
  0
SECTION
  2
CLASSES
  0
CLASS
  1
ACDBDICTIONARYWDFLT
  2
AcDbDictionaryWithDefault
  3
ObjectDBX Classes
 90
        0
 91
        1
280
     0
281
     0
  0
CLASS
  1
ACME_DOCUMENT
  2
AcMeDbDoc
  3
AcMeServices
 90
        0
 91
        2
280
     0
281
     0
  0
CLASS
  1
AMGSETTINGSOBJ
  2
AmgSettingsObj
  3
"AcadM|Product Description: AutoCAD Mechanical 2000|Company: Autodesk"
 90
        0
 91
        2
280
     0
281
     0
  0
CLASS
  1
ACMESCOPE
  2
AcMeScope
  3
AcMeServices
 90
        0
 91
        1
280
     0
281
     0
  0
CLASS
  1
ACMECOMMANDHISTORY
  2
AcMeCommandHistory
  3
AcMeServices
 90
        0
 91
        1
280
     0
281
     0
  0
CLASS
  1
ACIMSYSVARMAN
  2
AcImSysVarManager
  3
AcMeServices
 90
        0
 91
        5
280
     0
281
     0
  0
CLASS
  1
ACIMREALSYSVAR
  2
AcImRealSysVar
  3
AcMeServices
 90
        0
 91
        1
280
     0
281
     0
  0
CLASS
  1
ACIMINTSYSVAR
  2
AcImIntSysVar
  3
AcMeServices
 90
        0
 91
       26
280
     0
281
     0
  0
CLASS
  1
ACMEDRAWINGMAN
  2
AcMeDrawingMan
  3
AcMeServices
 90
        0
 91
        1
280
     0
281
     0
  0
CLASS
  1
ACMEVIEW
  2
AcMeView
  3
AcMeServices
 90
        0
 91
        1
280
     0
281
     0
  0
CLASS
  1
ACDBENTITYCACHE
  2
AcMeEntityCache
  3
AcMeServices
 90
        0
 91
        1
280
     0
281
     0
  0
CLASS
  1
GSMANAGER
  2
AcMeGSManager
  3
AcMeServices
 90
        0
 91
        1
280
     0
281
     0
  0
CLASS
  1
AMDTINTERNALREACTOR
  2
AmdtInternalReactor
  3
AcMeServices
 90
        0
 91
        2
280
     0
281
     0
  0
CLASS
  1
ACMESTATEMGR
  2
AcMeStateMgr
  3
AcMeServices
 90
        0
 91
        1
280
     0
281
     0
  0
CLASS
  1
ACGREFMASTER
  2
AcGrefMaster
  3
AcAttribServices
 90
        0
 91
        1
280
     0
281
     0
  0
CLASS
  1
ACME_DATABASE
  2
AcMeDbDatabase
  3
AcMeServices
 90
        0
 91
        1
280
     0
281
     0
  0
CLASS
  1
ACRFINSADJUSTERMGR
  2
AcRfInsAdjusterMgr
  3
AcMeServices
 90
        0
 91
        1
280
     0
281
     0
  0
CLASS
  1
ACGREFACADMASTER
  2
AcGrefacadMaster
  3
AcGrefServices
 90
        0
 91
        1
280
     0
281
     0
  0
CLASS
  1
AMIMASTER
  2
AmiMaster
  3
AmiServices
 90
        0
 91
        1
280
     0
281
     0
  0
CLASS
  1
ACMDATADICTIONARY
  2
AcmDataDictionary
  3
"AcmSymBB|Product Description: AutoCAD Mechanical 2004 DX|Company: Autodesk"
 90
        0
 91
        1
280
     0
281
     0
  0
CLASS
  1
ACMDATAENTRYBLOCK
  2
AcmDataEntryBlock
  3
"AcmSymBB|Product Description: AutoCAD Mechanical 2004 DX|Company: Autodesk"
 90
        0
 91
        0
280
     0
281
     0
  0
CLASS
  1
ACIMSTRSYSVAR
  2
AcImStrSysVar
  3
AcMeServices
 90
        0
 91
        5
280
     0
281
     0
  0
CLASS
  1
ACMSTANDARDISO
  2
AcmStandardISO
  3
"Amdt_StdImp|Product Description: AutoCAD Mechanical 2004 DX|Company: Autodesk"
 90
        0
 91
        1
280
     0
281
     0
  0
CLASS
  1
AMGOBJPROPCFG
  2
AmgObjPropCfg
  3
"AmgLay|Product Description: AutoCAD Mechanical 2000|Company: Autodesk"
 90
        1
 91
        1
280
     0
281
     0
  0
CLASS
  1
AMDTEDGESTANDARDISO
  2
AmdtEdgeStdISO
  3
"Amdt_StdImp|Product Description: AutoCAD Mechanical 2004 DX|Company: Autodesk"
 90
        0
 91
        0
280
     0
281
     0
  0
CLASS
  1
ACMSURFSTANDARDISO
  2
AcmSurfTextStdISO
  3
"Amdt_StdImp|Product Description: AutoCAD Mechanical 2004 DX|Company: Autodesk"
 90
        0
 91
        1
280
     0
281
     0
  0
CLASS
  1
ACMFCFSTANDARDISO
  2
AcmFCFStdISO
  3
"Amdt_StdImp|Product Description: AutoCAD Mechanical 2004 DX|Company: Autodesk"
 90
        0
 91
        1
280
     0
281
     0
  0
CLASS
  1
ACMWELDSTANDARDISO
  2
AcmWeldingStdISO
  3
"Amdt_StdImp|Product Description: AutoCAD Mechanical 2004 DX|Company: Autodesk"
 90
        0
 91
        1
280
     0
281
     0
  0
CLASS
  1
ACMIDSTANDARDISO
  2
AcmIdStdISO
  3
"Amdt_StdImp|Product Description: AutoCAD Mechanical 2004 DX|Company: Autodesk"
 90
        0
 91
        1
280
     0
281
     0
  0
CLASS
  1
ACMDATUMSTANDARDISO
  2
AcmDatumStdISO
  3
"Amdt_StdImp|Product Description: AutoCAD Mechanical 2004 DX|Company: Autodesk"
 90
        0
 91
        1
280
     0
281
     0
  0
CLASS
  1
ACMBOMSTANDARDISO
  2
AcmBOMStdISO
  3
"Amdt_StdImp|Product Description: AutoCAD Mechanical 2004 DX|Company: Autodesk"
 90
        0
 91
        1
280
     0
281
     0
  0
CLASS
  1
ACMDETAILSTANDARDISO
  2
AmdtDetailSymStdISO
  3
"Amdt_StdImp|Product Description: AutoCAD Mechanical 2004 DX|Company: Autodesk"
 90
        0
 91
        1
280
     0
281
     0
  0
CLASS
  1
ACMSECTIONSTANDARDISO
  2
AmdtSectionSymStdISO
  3
"Amdt_StdImp|Product Description: AutoCAD Mechanical 2004 DX|Company: Autodesk"
 90
        0
 91
        1
280
     0
281
     0
  0
CLASS
  1
ACMCENTERLINESTANDARDISO
  2
AmdtCenterLineStdISO
  3
"Amdt_StdImp|Product Description: AutoCAD Mechanical 2004 DX|Company: Autodesk"
 90
        0
 91
        1
280
     0
281
     0
  0
CLASS
  1
ACMNOTESTANDARDISO
  2
AmdtNoteStdISO
  3
"Amdt_StdImp|Product Description: AutoCAD Mechanical 2004 DX|Company: Autodesk"
 90
        0
 91
        1
280
     0
281
     0
  0
CLASS
  1
ACAMGLAYSTD
  2
AcAmgLayStd
  3
"AcAmgLayStd|Product Description: AutoCAD Mechanical 2000|Company: Autodesk"
 90
        0
 91
        2
280
     0
281
     0
  0
CLASS
  1
ACAMGDIMSTD
  2
AcAmgDimStd
  3
"AcAmgDimStd|Product Description: AutoCAD Mechanical 2000|Company: Autodesk"
 90
        0
 91
        2
280
     0
281
     0
  0
CLASS
  1
ACAMGHOLECHARTSTDISO
  2
AcAmgHoleChartStdISO
  3
ACMSYMBB_MODULE_NAME
 90
        0
 91
        1
280
     0
281
     0
  0
CLASS
  1
ACAMGTITLESTD
  2
AcAmgTitleStd
  3
"TITLEAPP"
 90
        0
 91
        2
280
     0
281
     0
  0
CLASS
  1
LAYER_INDEX
  2
AcDbLayerIndex
  3
ObjectDBX Classes
 90
        0
 91
        0
280
     0
281
     0
  0
CLASS
  1
IDBUFFER
  2
AcDbIdBuffer
  3
ObjectDBX Classes
 90
        0
 91
        0
280
     0
281
     0
  0
CLASS
  1
DICTIONARYVAR
  2
AcDbDictionaryVar
  3
ObjectDBX Classes
 90
        0
 91
        3
280
     0
281
     0
  0
CLASS
  1
AM_DRAWING_MGR
  2
AcDmDwgMgr
  3
AcMechDwgViewMgmt
 90
        0
 91
        1
280
     0
281
     0
  0
CLASS
  1
AM_DWG_DOCUMENT
  2
AcDmDwgDocument
  3
AcMechDwgViewMgmt
 90
        0
 91
        1
280
     0
281
     0
  0
CLASS
  1
AM_DWG_SHEET
  2
AcDmSheet
  3
AcMechDwgViewMgmt
 90
        0
 91
        2
280
     0
281
     0
  0
CLASS
  1
AM_VIEWDIMPARMAP
  2
AcDmViewDimParMap
  3
AcMechDwgViewMgmt
 90
        0
 91
        2
280
     0
281
     0
  0
CLASS
  1
AM_DWGMGR_NAME
  2
AcDmDwgMgrName
  3
AcMechDwgViewMgmt
 90
        0
 91
        1
280
     0
281
     0
  0
CLASS
  1
AMDTMENUSTATEMGR
  2
AmdtMenuStateMgr
  3
McadcomServices
 90
        0
 91
        1
280
     0
281
     0
  0
CLASS
  1
AMDTMCOMMENUSTATE
  2
AmdtMcomMenuState
  3
McadcomServices
 90
        0
 91
        1
280
     0
281
     0
  0
CLASS
  1
MAPIAMMOUDLE
  2
MApiAmModule
  3
MApiAmServices
 90
        0
 91
        1
280
     0
281
     0
  0
CLASS
  1
AMDTADMENUSTATE
  2
AmdtAdMenuState
  3
DesignerServices
 90
        0
 91
        1
280
     0
281
     0
  0
CLASS
  1
ADAPPL
  2
AcAdAppl
  3
DesignerServices
 90
        0
 91
        1
280
     0
281
     0
  0
CLASS
  1
DEPMGR
  2
AcAdDepMgr
  3
DesignerServices
 90
        0
 91
        1
280
     0
281
     0
  0
CLASS
  1
PARAMMGR
  2
AcAdParamMgr
  3
DesignerServices
 90
        0
 91
        1
280
     0
281
     0
  0
CLASS
  1
PARAMSCOPE
  2
AcAdParamScope
  3
DesignerServices
 90
        0
 91
        1
280
     0
281
     0
  0
CLASS
  1
NAMEDAPPL
  2
AcAdNamedAppl
  3
DesignerServices
 90
        0
 91
        1
280
     0
281
     0
  0
CLASS
  1
AMDTDMMENUSTATE
  2
AmdtDmMenuState
  3
AcMechDwgViewMgmt
 90
        0
 91
        1
280
     0
281
     0
  0
CLASS
  1
AMDTAMMENUSTATE
  2
AmdtAmMenuState
  3
DesignerAssemblies
 90
        0
 91
        1
280
     0
281
     0
  0
CLASS
  1
ACAMPROJECT
  2
AcAmProject
  3
DesignerAssemblies
 90
        0
 91
        1
280
     0
281
     0
  0
CLASS
  1
ACAMGRCOMPDEF
  2
AcAmGrCompDef
  3
DesignerAssemblies
 90
        0
 91
        1
280
     0
281
     0
  0
CLASS
  1
ACCMCONTEXT
  2
AcCmContext
  3
DesignerAssemblies
 90
        0
 91
        1
280
     0
281
     0
  0
CLASS
  1
ACAMCOMPDEF
  2
AcAmCompDef
  3
DesignerAssemblies
 90
        0
 91
        1
280
     0
281
     0
  0
CLASS
  1
ACAMCOMPDEFMGR
  2
AcAmCompDefMgr
  3
DesignerAssemblies
 90
        0
 91
        1
280
     0
281
     0
  0
CLASS
  1
AMCONTEXTMGR
  2
AcAmContextMgr
  3
DesignerAssemblies
 90
        0
 91
        1
280
     0
281
     0
  0
CLASS
  1
ACAMCONTEXTMODELER
  2
AcAmContextModeler
  3
DesignerAssemblies
 90
        0
 91
        1
280
     0
281
     0
  0
CLASS
  1
ACMTHREADLINESTANDARDISO
  2
AmdtThreadLineStdISO
  3
"Amdt_StdImp|Product Description: AutoCAD Mechanical 2004 DX|Company: Autodesk"
 90
        0
 91
        1
280
     0
281
     0
  0
CLASS
  1
CATALOGSTATE
  2
AcAmCatalogState
  3
DesignerAssemblies
 90
        0
 91
        1
280
     0
281
     0
  0
CLASS
  1
ACAMGRCOMPDEFSET
  2
AcAmGrCompDefSet
  3
DesignerAssemblies
 90
        0
 91
        1
280
     0
281
     0
  0
CLASS
  1
AMDTBROWSERDBTAB
  2
AmdtBrowserDbTab
  3
McadcomServices
 90
        0
 91
        1
280
     0
281
     0
  0
CLASS
  1
CBROWSERAPPOBJECT
  2
CBrowserAppObject
  3
McadcomServices
 90
        0
 91
        3
280
     0
281
     0
  0
CLASS
  1
DM_PLACEHOLDER
  2
AcDmSelsetPlaceholder
  3
AcMechDwgViewMgmt
 90
        0
 91
        1
280
     0
281
     0
  0
CLASS
  1
TABLESTYLE
  2
AcDbTableStyle
  3
ObjectDBX Classes
 90
     2047
 91
        1
280
     0
281
     0
  0
CLASS
  1
VAACXREFPANELOBJECT
  2
VaAcXREFPanelObject
  3
VAAC_ADDIN
 90
        0
 91
        0
280
     0
281
     0
  0
CLASS
  1
VAACIMAGEINVENTORY
  2
VaAcImageInventory
  3
VAAC_ADDIN
 90
        0
 91
        0
280
     0
281
     0
  0
CLASS
  1
AMDTNOTETEMPLATEDB
  2
AmdtNoteTemplateDB
  3
AMDT_STDIMP_MODULE_NAME
 90
        0
 91
       10
280
     0
281
     0
  0
CLASS
  1
ACMBOM
  2
AcmBom
  3
"AcmSymBB|Product Description: AutoCAD Mechanical 2004 DX|Company: Autodesk"
 90
        0
 91
        0
280
     0
281
     0
  0
CLASS
  1
AMDTFORMULAUPDATEDISPATCHER
  2
AmdtFormulaUpdateDispatcher
  3
AcMeServices
 90
        0
 91
        0
280
     0
281
     0
  0
CLASS
  1
ACMPARTLIST
  2
AcmPartList
  3
"AcmSymBB|Product Description: AutoCAD Mechanical 2004 DX|Company: Autodesk"
 90
     1023
 91
        0
280
     0
281
     1
  0
CLASS
  1
ACAMGFILTERDAT
  2
AcAmgFilterDat
  3
"AcadM|Product Description: AutoCAD Mechanical 2000|Company: Autodesk"
 90
        0
 91
        0
280
     0
281
     0
  0
CLASS
  1
ACMSTANDARDJIS
  2
AcmStandardJIS
  3
"Amdt_StdImp|Product Description: AutoCAD Mechanical 2004 DX|Company: Autodesk"
 90
        0
 91
        0
280
     0
281
     0
  0
CLASS
  1
ACMSURFSTANDARDJIS
  2
AcmSurfTextStdJIS
  3
"Amdt_StdImp|Product Description: AutoCAD Mechanical 2004 DX|Company: Autodesk"
 90
        0
 91
        0
280
     0
281
     0
  0
CLASS
  1
ACMFCFSTANDARDJIS98
  2
AcmFCFStdJIS98
  3
"Amdt_StdImp|Product Description: AutoCAD Mechanical 2004 DX|Company: Autodesk"
 90
        0
 91
        0
280
     0
281
     0
  0
CLASS
  1
ACMWELDSTANDARDJIS
  2
AcmWeldingStdJIS
  3
"Amdt_StdImp|Product Description: AutoCAD Mechanical 2004 DX|Company: Autodesk"
 90
        0
 91
        0
280
     0
281
     0
  0
CLASS
  1
ACMIDSTANDARDJIS
  2
AcmIdStdJIS
  3
"Amdt_StdImp|Product Description: AutoCAD Mechanical 2004 DX|Company: Autodesk"
 90
        0
 91
        0
280
     0
281
     0
  0
CLASS
  1
ACMDATUMSTANDARDJIS
  2
AcmDatumStdJIS
  3
"Amdt_StdImp|Product Description: AutoCAD Mechanical 2004 DX|Company: Autodesk"
 90
        0
 91
        0
280
     0
281
     0
  0
CLASS
  1
ACMBOMSTANDARDJIS
  2
AcmBOMStdJIS
  3
"Amdt_StdImp|Product Description: AutoCAD Mechanical 2004 DX|Company: Autodesk"
 90
        0
 91
        0
280
     0
281
     0
  0
CLASS
  1
ACMDETAILSTANDARDJIS
  2
AmdtDetailSymStdJIS
  3
"Amdt_StdImp|Product Description: AutoCAD Mechanical 2004 DX|Company: Autodesk"
 90
        0
 91
        0
280
     0
281
     0
  0
CLASS
  1
ACMSECTIONSTANDARDJIS
  2
AmdtSectionSymStdJIS
  3
"Amdt_StdImp|Product Description: AutoCAD Mechanical 2004 DX|Company: Autodesk"
 90
        0
 91
        0
280
     0
281
     0
  0
CLASS
  1
ACMCENTERLINESTANDARDJIS
  2
AmdtCenterLineStdJIS
  3
"Amdt_StdImp|Product Description: AutoCAD Mechanical 2004 DX|Company: Autodesk"
 90
        0
 91
        0
280
     0
281
     0
  0
CLASS
  1
ACMTHREADLINESTANDARDJIS
  2
AmdtThreadLineStdJIS
  3
"Amdt_StdImp|Product Description: AutoCAD Mechanical 2004 DX|Company: Autodesk"
 90
        0
 91
        0
280
     0
281
     0
  0
CLASS
  1
ACMNOTESTANDARDJIS
  2
AmdtNoteStdJIS
  3
"Amdt_StdImp|Product Description: AutoCAD Mechanical 2004 DX|Company: Autodesk"
 90
        0
 91
        0
280
     0
281
     0
  0
CLASS
  1
ACAMGHOLECHARTSTDJIS
  2
AcAmgHoleChartStdJIS
  3
ACMSYMBB_MODULE_NAME
 90
        0
 91
        0
280
     0
281
     0
  0
CLASS
  1
SORTENTSTABLE
  2
AcDbSortentsTable
  3
ObjectDBX Classes
 90
        0
 91
        1
280
     0
281
     0
  0
CLASS
  1
DIMASSOC
  2
AcDbDimAssoc
  3
"AcDbDimAssoc|Product Desc:     AcDim ARX App For Dimension|Company:          Autodesk, Inc.|WEB Address:      www.autodesk.com"
 90
        0
 91
        0
280
     0
281
     0
  0
CLASS
  1
ACRFATTGENMGR
  2
AcRfAttGeneralMgr
  3
AcAttribServices
 90
        0
 91
        0
280
     0
281
     0
  0
CLASS
  1
AMDTEDGESTANDARDISO13715
  2
AmdtEdgeStdISO13715
  3
"Amdt_StdImp|Product Description: AutoCAD Mechanical 2004 DX|Company: Autodesk"
 90
        0
 91
        1
280
     0
281
     0
  0
CLASS
  1
ACMSTANDARDANSI
  2
AcmStandardANSI
  3
"Amdt_StdImp|Product Description: AutoCAD Mechanical 2004 DX|Company: Autodesk"
 90
        0
 91
        1
280
     0
281
     0
  0
CLASS
  1
ACMSURFSTANDARDANSI
  2
AcmSurfTextStdANSI
  3
"Amdt_StdImp|Product Description: AutoCAD Mechanical 2004 DX|Company: Autodesk"
 90
        0
 91
        1
280
     0
281
     0
  0
CLASS
  1
ACMFCFSTANDARDANSI
  2
AcmFCFStdANSI
  3
"Amdt_StdImp|Product Description: AutoCAD Mechanical 2004 DX|Company: Autodesk"
 90
        0
 91
        1
280
     0
281
     0
  0
CLASS
  1
ACMWELDSTANDARDANSI
  2
AcmWeldingStdANSI
  3
"Amdt_StdImp|Product Description: AutoCAD Mechanical 2004 DX|Company: Autodesk"
 90
        0
 91
        1
280
     0
281
     0
  0
CLASS
  1
ACMIDSTANDARDANSI
  2
AcmIdStdANSI
  3
"Amdt_StdImp|Product Description: AutoCAD Mechanical 2004 DX|Company: Autodesk"
 90
        0
 91
        1
280
     0
281
     0
  0
CLASS
  1
ACMDATUMSTANDARDANSI
  2
AcmDatumStdANSI
  3
"Amdt_StdImp|Product Description: AutoCAD Mechanical 2004 DX|Company: Autodesk"
 90
        0
 91
        1
280
     0
281
     0
  0
CLASS
  1
ACMBOMSTANDARDANSI
  2
AcmBOMStdANSI
  3
"Amdt_StdImp|Product Description: AutoCAD Mechanical 2004 DX|Company: Autodesk"
 90
        0
 91
        1
280
     0
281
     0
  0
CLASS
  1
ACMDETAILSTANDARDANSI
  2
AmdtDetailSymStdANSI
  3
"Amdt_StdImp|Product Description: AutoCAD Mechanical 2004 DX|Company: Autodesk"
 90
        0
 91
        1
280
     0
281
     0
  0
CLASS
  1
ACMSECTIONSTANDARDANSI
  2
AmdtSectionSymStdANSI
  3
"Amdt_StdImp|Product Description: AutoCAD Mechanical 2004 DX|Company: Autodesk"
 90
        0
 91
        1
280
     0
281
     0
  0
CLASS
  1
ACMCENTERLINESTANDARDANSI
  2
AmdtCenterLineStdANSI
  3
"Amdt_StdImp|Product Description: AutoCAD Mechanical 2004 DX|Company: Autodesk"
 90
        0
 91
        1
280
     0
281
     0
  0
CLASS
  1
ACMTHREADLINESTANDARDANSI
  2
AmdtThreadLineStdANSI
  3
"Amdt_StdImp|Product Description: AutoCAD Mechanical 2004 DX|Company: Autodesk"
 90
        0
 91
        1
280
     0
281
     0
  0
CLASS
  1
ACMNOTESTANDARDANSI
  2
AmdtNoteStdANSI
  3
"Amdt_StdImp|Product Description: AutoCAD Mechanical 2004 DX|Company: Autodesk"
 90
        0
 91
        1
280
     0
281
     0
  0
CLASS
  1
ACAMGHOLECHARTSTDANSI
  2
AcAmgHoleChartStdANSI
  3
ACMSYMBB_MODULE_NAME
 90
        0
 91
        1
280
     0
281
     0
  0
ENDSEC
  0
SECTION
  2
TABLES
  0
TABLE
  2
VPORT
  5
8
330
0
100
AcDbSymbolTable
 70
     4
  0
VPORT
  5
1DAF
330
8
100
AcDbSymbolTableRecord
100
AcDbViewportTableRecord
  2
*Active
 70
     0
 10
0.0
 20
0.0
 11
1.0
 21
1.0
 12
-61.71810256879258
 22
-16.59696425984163
 13
0.0
 23
0.0
 14
2.5
 24
2.5
 15
10.0
 25
10.0
 16
0.0
 26
0.0
 36
1.0
 17
0.0
 27
0.0
 37
0.0
 40
122.7673081005199
 41
1.212005108556832
 42
50.0
 43
0.0
 44
0.0
 50
0.0
 51
0.0
 71
     0
 72
  2000
 73
     1
 74
     3
 75
     0
 76
     0
 77
     0
 78
     0
281
     0
 65
     1
110
0.0
120
0.0
130
0.0
111
1.0
121
0.0
131
0.0
112
0.0
122
1.0
132
0.0
 79
     0
146
0.0
  0
ENDTAB
  0
TABLE
  2
LTYPE
  5
5
330
0
100
AcDbSymbolTable
 70
    22
  0
LTYPE
  5
14
330
5
100
AcDbSymbolTableRecord
100
AcDbLinetypeTableRecord
  2
ByBlock
 70
     0
  3

 72
    65
 73
     0
 40
0.0
  0
LTYPE
  5
15
330
5
100
AcDbSymbolTableRecord
100
AcDbLinetypeTableRecord
  2
ByLayer
 70
     0
  3

 72
    65
 73
     0
 40
0.0
  0
LTYPE
  5
16
330
5
100
AcDbSymbolTableRecord
100
AcDbLinetypeTableRecord
  2
Continuous
 70
     0
  3
Solid line
 72
    65
 73
     0
 40
0.0
  0
LTYPE
  5
64
330
5
100
AcDbSymbolTableRecord
100
AcDbLinetypeTableRecord
  2
AM_ISO02W050
 70
     0
  3
__ __ __ __ __ __ __ __ __ __ __ __ __ __ __
 72
    65
 73
     2
 40
7.5
 49
6.0
 74
     0
 49
-1.5
 74
     0
  0
LTYPE
  5
65
330
5
100
AcDbSymbolTableRecord
100
AcDbLinetypeTableRecord
  2
AM_ISO08W050
 70
     0
  3
____ . ____ . ____ . ____ . ____ . ____ . ____
 72
    65
 73
     4
 40
18.0
 49
12.0
 74
     0
 49
-1.5
 74
     0
 49
3.0
 74
     0
 49
-1.5
 74
     0
  0
LTYPE
  5
66
330
5
100
AcDbSymbolTableRecord
100
AcDbLinetypeTableRecord
  2
AM_ISO09W050
 70
     0
  3
_____ . . _____ . . _____ . . ____ .. ____
 72
    65
 73
     6
 40
22.5
 49
12.0
 74
     0
 49
-1.5
 74
     0
 49
3.0
 74
     0
 49
-1.5
 74
     0
 49
3.0
 74
     0
 49
-1.5
 74
     0
  0
LTYPE
  5
67
330
5
100
AcDbSymbolTableRecord
100
AcDbLinetypeTableRecord
  2
Amconstr
 70
     0
  3
_______________________
 72
    65
 73
     2
 40
9999.0
 49
9999.0
 74
     0
 49
0.0
 74
     0
  0
LTYPE
  5
68
330
5
100
AcDbSymbolTableRecord
100
AcDbLinetypeTableRecord
  2
AM_ISO08W050x2
 70
     0
  3
__ . __ . __ . __ . __ . __
 72
    65
 73
     4
 40
9.0
 49
6.0
 74
     0
 49
-0.75
 74
     0
 49
1.5
 74
     0
 49
-0.75
 74
     0
  0
LTYPE
  5
69
330
5
100
AcDbSymbolTableRecord
100
AcDbLinetypeTableRecord
  2
AM_ISO02W050x2
 70
     0
  3
 _ _ _ _ _ _ _ _ _ _ _ _
 72
    65
 73
     2
 40
3.75
 49
3.0
 74
     0
 49
-0.75
 74
     0
  0
LTYPE
  5
6C
330
5
100
AcDbSymbolTableRecord
100
AcDbLinetypeTableRecord
  2
Amzigzag
 70
     0
  3
/\/-/\/-/\/-/\/-/\/-/\/
 72
    65
 73
     2
 40
11.0001
 49
0.0001
 74
     4
 75
   135
340
6B
 46
0.04
 50
0.0
 44
0.0
 45
0.0
 49
-11.0
 74
     0
  0
LTYPE
  5
7A
330
5
100
AcDbSymbolTableRecord
100
AcDbLinetypeTableRecord
  2
ACISOWELD
 70
     0
  3
_ _ _ _ _
 72
    65
 73
     2
 40
2.0
 49
2.0
 74
     0
 49
-1.0
 74
     0
  0
LTYPE
  5
7B
330
5
100
AcDbSymbolTableRecord
100
AcDbLinetypeTableRecord
  2
ACISOTGB
 70
     0
  3
__ . . __ . .
 72
    65
 73
     6
 40
9.0
 49
4.0
 74
     0
 49
-1.0
 74
     0
 49
1.0
 74
     0
 49
-1.0
 74
     0
 49
1.0
 74
     0
 49
-1.0
 74
     0
  0
LTYPE
  5
7C
330
5
100
AcDbSymbolTableRecord
100
AcDbLinetypeTableRecord
  2
ACISOTGL
 70
     0
  3
_ _ _ _ _
 72
    65
 73
     2
 40
3.0
 49
2.0
 74
     0
 49
-1.0
 74
     0
  0
LTYPE
  5
7E
330
5
100
AcDbSymbolTableRecord
100
AcDbLinetypeTableRecord
  2
CENTER
 70
     0
  3
__ . __
 72
    65
 73
     4
 40
7.0
 49
4.0
 74
     0
 49
-1.0
 74
     0
 49
1.0
 74
     0
 49
-1.0
 74
     0
  0
LTYPE
  5
D8
330
5
100
AcDbSymbolTableRecord
100
AcDbLinetypeTableRecord
  2
HIDDEN
 70
     0
  3
Hidden __ __ __ __ __ __ __ __ __ __ __ __ __ _
 72
    65
 73
     2
 40
9.524999999999998
 49
6.349999999999999
 74
     0
 49
-3.174999999999999
 74
     0
  0
LTYPE
  5
D9
330
5
100
AcDbSymbolTableRecord
100
AcDbLinetypeTableRecord
  2
PHANTOM2
 70
     0
  3
Phantom (.5x) ___ _ _ ___ _ _ ___ _ _ ___ _ _
 72
    65
 73
     6
 40
31.75
 49
15.875
 74
     0
 49
-3.174999999999999
 74
     0
 49
3.174999999999999
 74
     0
 49
-3.174999999999999
 74
     0
 49
3.174999999999999
 74
     0
 49
-3.174999999999999
 74
     0
  0
LTYPE
  5
20C
330
5
100
AcDbSymbolTableRecord
100
AcDbLinetypeTableRecord
  2
ACJISWELD
 70
     0
  3
_ _ _ _ _
 72
    65
 73
     2
 40
2.0
 49
2.0
 74
     0
 49
-1.0
 74
     0
  0
LTYPE
  5
20D
330
5
100
AcDbSymbolTableRecord
100
AcDbLinetypeTableRecord
  2
ACJISTGB
 70
     0
  3
__ . . __ . .
 72
    65
 73
     6
 40
9.0
 49
4.0
 74
     0
 49
-1.0
 74
     0
 49
1.0
 74
     0
 49
-1.0
 74
     0
 49
1.0
 74
     0
 49
-1.0
 74
     0
  0
LTYPE
  5
20E
330
5
100
AcDbSymbolTableRecord
100
AcDbLinetypeTableRecord
  2
ACJISTGL
 70
     0
  3
_ _ _ _ _
 72
    65
 73
     2
 40
3.0
 49
2.0
 74
     0
 49
-1.0
 74
     0
  0
LTYPE
  5
19A5
330
5
100
AcDbSymbolTableRecord
100
AcDbLinetypeTableRecord
  2
CENTER2
 70
     0
  3
Center (.5x) ___ _ ___ _ ___ _ ___ _ ___ _ ___
 72
    65
 73
     4
 40
1.125
 49
0.75
 74
     0
 49
-0.125
 74
     0
 49
0.125
 74
     0
 49
-0.125
 74
     0
  0
LTYPE
  5
19A6
330
5
100
AcDbSymbolTableRecord
100
AcDbLinetypeTableRecord
  2
HIDDEN2
 70
     0
  3
Hidden (.5x) _ _ _ _ _ _ _ _ _ _ _ _ _ _ _ _ _
 72
    65
 73
     2
 40
0.1875
 49
0.125
 74
     0
 49
-0.0625
 74
     0
  0
LTYPE
  5
19A7
330
5
100
AcDbSymbolTableRecord
100
AcDbLinetypeTableRecord
  2
Amzigzag2
 70
     0
  3
/\/-/\/-/\/-/\/-/\/-/\/
 72
    65
 73
     2
 40
0.4401
 49
0.0001
 74
     4
 75
   135
340
6B
 46
0.0016
 50
0.0
 44
0.0
 45
0.0
 49
-0.4400000000000001
 74
     0
  0
LTYPE
  5
19A8
330
5
100
AcDbSymbolTableRecord
100
AcDbLinetypeTableRecord
  2
ACANSTGB
 70
     0
  3
__ . . __ . .
 72
    65
 73
     6
 40
0.35433070866
 49
0.15748031496
 74
     0
 49
-0.03937007874
 74
     0
 49
0.03937007874
 74
     0
 49
-0.03937007874
 74
     0
 49
0.03937007874
 74
     0
 49
-0.03937007874
 74
     0
  0
LTYPE
  5
19A9
330
5
100
AcDbSymbolTableRecord
100
AcDbLinetypeTableRecord
  2
ACANSTGL
 70
     0
  3
_ _ _ _ _
 72
    65
 73
     2
 40
0.11811023622
 49
0.07874015748
 74
     0
 49
-0.03937007874
 74
     0
  0
ENDTAB
  0
TABLE
  2
LAYER
  5
2
102
{ACAD_XDICTIONARY
360
34B
102
}
330
0
100
AcDbSymbolTable
 70
    10
  0
LAYER
  5
10
330
2
100
AcDbSymbolTableRecord
100
AcDbLayerTableRecord
  2
0
 70
     0
 62
     7
  6
Continuous
370
    -3
390
F
  0
LAYER
  5
34A
330
2
100
AcDbSymbolTableRecord
100
AcDbLayerTableRecord
  2
AM_0
 70
     0
 62
     7
  6
Continuous
370
    30
390
F
  0
LAYER
  5
69B
330
2
100
AcDbSymbolTableRecord
100
AcDbLayerTableRecord
  2
AM_CL
 70
     0
 62
     1
  6
Amconstr
370
    30
390
F
  0
LAYER
  5
72C
330
2
100
AcDbSymbolTableRecord
100
AcDbLayerTableRecord
  2
AM_7
 70
     0
 62
     4
  6
AM_ISO08W050
370
    13
390
F
  0
LAYER
  5
733
330
2
100
AcDbSymbolTableRecord
100
AcDbLayerTableRecord
  2
AM_5
 70
     0
 62
     3
  6
Continuous
370
    13
390
F
  0
LAYER
  5
78B
330
2
100
AcDbSymbolTableRecord
100
AcDbLayerTableRecord
  2
Defpoints
 70
     0
 62
     7
  6
Continuous
290
     0
370
    -3
390
F
  0
LAYER
  5
91E
330
2
100
AcDbSymbolTableRecord
100
AcDbLayerTableRecord
  2
AM_11
 70
     0
 62
     3
  6
AM_ISO09W050
370
    13
390
F
  0
LAYER
  5
9EB
330
2
100
AcDbSymbolTableRecord
100
AcDbLayerTableRecord
  2
AM_6
 70
     0
 62
     2
  6
Continuous
370
    30
390
F
  0
LAYER
  5
19AA
330
2
100
AcDbSymbolTableRecord
100
AcDbLayerTableRecord
  2
1
 70
     0
 62
     7
  6
Continuous
370
    -3
390
F
  0
LAYER
  5
1BF7
330
2
100
AcDbSymbolTableRecord
100
AcDbLayerTableRecord
  2
AM_3
 70
     0
 62
     6
  6
AM_ISO02W050
370
    25
390
F
  0
ENDTAB
  0
TABLE
  2
STYLE
  5
3
330
0
100
AcDbSymbolTable
 70
    11
  0
STYLE
  5
11
330
3
100
AcDbSymbolTableRecord
100
AcDbTextStyleTableRecord
  2
STANDARD
 70
     0
 40
0.0
 41
1.0
 50
0.0
 71
     0
 42
3.799999999999999
  3
ISOCP.SHX
  4
EXTFONT.SHX
  0
STYLE
  5
6B
330
3
100
AcDbSymbolTableRecord
100
AcDbTextStyleTableRecord
  2

 70
     1
 40
0.0
 41
1.0
 50
0.0
 71
     0
 42
2.5
  3
ltypeshp.shx
  4

  0
STYLE
  5
6D
330
3
100
AcDbSymbolTableRecord
100
AcDbTextStyleTableRecord
  2
ACISOTS
 70
     0
 40
0.0
 41
1.0
 50
0.0
 71
     0
 42
3.799999999999999
  3
isocp.shx
  4
extfont.shx
  0
STYLE
  5
79
330
3
100
AcDbSymbolTableRecord
100
AcDbTextStyleTableRecord
  2
ACISOGDT
 70
     0
 40
0.0
 41
1.0
 50
0.0
 71
     0
 42
2.5
  3
amgdt.shx
  4
extfont.shx
  0
STYLE
  5
1F8
330
3
100
AcDbSymbolTableRecord
100
AcDbTextStyleTableRecord
  2
USER1
 70
     0
 40
0.0
 41
1.0
 50
0.0
 71
     0
 42
1.0
  3
TXT.SHX
  4

  0
STYLE
  5
1F9
330
3
100
AcDbSymbolTableRecord
100
AcDbTextStyleTableRecord
  2
USER2
 70
     0
 40
0.0
 41
1.0
 50
0.0
 71
     0
 42
1.0
  3
SIMPLEX.SHX
  4

  0
STYLE
  5
1FA
330
3
100
AcDbSymbolTableRecord
100
AcDbTextStyleTableRecord
  2
USER3
 70
     0
 40
0.0
 41
1.0
 50
0.0
 71
     0
 42
1.0
  3
ITALIC.SHX
  4

  0
STYLE
  5
1FF
330
3
100
AcDbSymbolTableRecord
100
AcDbTextStyleTableRecord
  2
ACJISTS
 70
     0
 40
1.0
 41
1.0
 50
0.0
 71
     0
 42
1.0
  3
isocp.shx
  4
extfont.shx
  0
STYLE
  5
20B
330
3
100
AcDbSymbolTableRecord
100
AcDbTextStyleTableRecord
  2
ACJISGDT
 70
     0
 40
0.0
 41
1.0
 50
0.0
 71
     0
 42
1.0
  3
amgdt.shx
  4

  0
STYLE
  5
19AB
330
3
100
AcDbSymbolTableRecord
100
AcDbTextStyleTableRecord
  2
ACANSTS
 70
     0
 40
1.0
 41
1.0
 50
0.0
 71
     0
 42
2.5
  3
romans.shx
  4
gbcbig.shx
  0
STYLE
  5
19AC
330
3
100
AcDbSymbolTableRecord
100
AcDbTextStyleTableRecord
  2
ACANSGDT
 70
     0
 40
0.0
 41
1.0
 50
0.0
 71
     0
 42
2.5
  3
amgdtans.shx
  4

  0
ENDTAB
  0
TABLE
  2
VIEW
  5
6
330
0
100
AcDbSymbolTable
 70
     0
  0
ENDTAB
  0
TABLE
  2
UCS
  5
7
330
0
100
AcDbSymbolTable
 70
     0
  0
ENDTAB
  0
TABLE
  2
APPID
  5
9
330
0
100
AcDbSymbolTable
 70
    14
  0
APPID
  5
12
330
9
100
AcDbSymbolTableRecord
100
AcDbRegAppTableRecord
  2
ACAD
 70
     0
  0
APPID
  5
46
330
9
100
AcDbSymbolTableRecord
100
AcDbRegAppTableRecord
  2
MCAD_NO_VIS
 70
     0
  0
APPID
  5
47
330
9
100
AcDbSymbolTableRecord
100
AcDbRegAppTableRecord
  2
ACAD_TEMP_GRAPHIC
 70
     0
  0
APPID
  5
58
330
9
100
AcDbSymbolTableRecord
100
AcDbRegAppTableRecord
  2
ACATTRIBSERVICES
 70
     0
  0
APPID
  5
EE
330
9
100
AcDbSymbolTableRecord
100
AcDbRegAppTableRecord
  2
AD_DRAW
 70
     0
  0
APPID
  5
10C
330
9
100
AcDbSymbolTableRecord
100
AcDbRegAppTableRecord
  2
DESIGNERASSEMBLIES
 70
     0
  0
APPID
  5
111
330
9
100
AcDbSymbolTableRecord
100
AcDbRegAppTableRecord
  2
ACADM_DIM_EDIT
 70
     0
  0
APPID
  5
112
330
9
100
AcDbSymbolTableRecord
100
AcDbRegAppTableRecord
  2
AMDT_DM_ADJ
 70
     0
  0
APPID
  5
243
330
9
100
AcDbSymbolTableRecord
100
AcDbRegAppTableRecord
  2
ACAD_DSTYLE_DIMTEXT_FILL
 70
     0
  0
APPID
  5
3AC
330
9
100
AcDbSymbolTableRecord
100
AcDbRegAppTableRecord
  2
ACAD_PSEXT
 70
     0
  0
APPID
  5
634
330
9
100
AcDbSymbolTableRecord
100
AcDbRegAppTableRecord
  2
GENIUS_GENODEF_13
 70
     0
  0
APPID
  5
635
330
9
100
AcDbSymbolTableRecord
100
AcDbRegAppTableRecord
  2
GENIUS_GENOBJ-N-FIL_13
 70
     0
  0
APPID
  5
72E
330
9
100
AcDbSymbolTableRecord
100
AcDbRegAppTableRecord
  2
GENIUS_GENOBJ-N-CEN_13
 70
     0
  0
APPID
  5
72F
330
9
100
AcDbSymbolTableRecord
100
AcDbRegAppTableRecord
  2
GENIUS_GENCEN_19
 70
     0
  0
ENDTAB
  0
TABLE
  2
DIMSTYLE
  5
A
330
0
100
AcDbSymbolTable
 70
    24
100
AcDbDimStyleTable
 71
     2
340
216
340
81
  0
DIMSTYLE
105
27
330
A
100
AcDbSymbolTableRecord
100
AcDbDimStyleTableRecord
  2
ISO-25
 70
     0
 41
2.5
 42
0.625
 43
3.75
 44
1.25
 73
     0
 74
     0
 77
     1
 78
     8
140
2.5
141
2.5
143
0.03937007874016
147
0.625
171
     3
172
     1
271
     2
272
     2
274
     3
278
    44
283
     0
284
     8
340
11
  0
DIMSTYLE
105
81
330
A
100
AcDbSymbolTableRecord
100
AcDbDimStyleTableRecord
  2
AM_ISO
 70
     0
  4
"
 41
2.5
 42
1.0
 43
10.0
 44
1.0
 47
0.1
 48
0.1
 73
     0
 74
     0
 77
     1
 78
     8
 79
     2
140
3.5
141
0.0
143
0.0393701
146
0.71
147
1.5
172
     1
176
   256
177
   256
178
     2
271
     2
272
     3
274
     4
283
     0
284
     8
340
11
371
    -1
372
    -1
  0
DIMSTYLE
105
82
330
A
100
AcDbSymbolTableRecord
100
AcDbDimStyleTableRecord
  2
AM_ISO$3
 70
     0
  4
"
 41
2.5
 42
1.0
 43
10.0
 44
1.0
 47
0.1
 48
0.1
 73
     0
 77
     1
 78
     8
 79
     2
140
3.5
141
0.0
143
0.0393701
146
0.71
147
1.5
176
   256
177
   256
178
     2
271
     2
272
     3
274
     4
283
     0
284
     8
288
     1
289
     0
340
11
371
    -1
372
    -1
  0
DIMSTYLE
105
83
330
A
100
AcDbSymbolTableRecord
100
AcDbDimStyleTableRecord
  2
AM_ISO$4
 70
     0
  4
"
 41
2.5
 42
1.0
 43
10.0
 44
1.0
 47
0.1
 48
0.1
 73
     0
 77
     1
 78
     8
 79
     2
140
3.5
141
0.0
143
0.0393701
146
0.71
147
1.5
176
   256
177
   256
178
     2
271
     2
272
     3
274
     4
283
     0
284
     8
288
     1
289
     0
340
11
371
    -1
372
    -1
  0
DIMSTYLE
105
84
330
A
100
AcDbSymbolTableRecord
100
AcDbDimStyleTableRecord
  2
AM_ISO$6
 70
     0
  4
"
 41
2.5
 42
1.0
 43
10.0
 44
1.0
 47
0.1
 48
0.1
 73
     0
 74
     0
 78
     8
 79
     2
140
3.5
141
0.0
143
0.0393701
146
0.71
147
1.5
172
     1
176
   256
177
   256
178
     2
271
     2
272
     3
274
     4
283
     0
284
     8
340
11
371
    -1
372
    -1
  0
DIMSTYLE
105
85
330
A
100
AcDbSymbolTableRecord
100
AcDbDimStyleTableRecord
  2
AM_ISO$7
 70
     0
  4
"
 41
2.5
 42
1.0
 43
10.0
 44
1.0
 47
0.1
 48
0.1
 73
     0
 74
     0
 77
     1
 78
     8
 79
     2
140
5.0
141
0.0
143
0.0393701
146
0.71
147
1.5
172
     1
176
   256
177
   256
178
     2
271
     2
272
     3
274
     4
283
     0
284
     8
340
11
371
    -1
372
    -1
  0
DIMSTYLE
105
86
330
A
100
AcDbSymbolTableRecord
100
AcDbDimStyleTableRecord
  2
AM_ISO$SF
 70
     0
  4
"
 41
2.5
 42
1.0
 43
10.0
 44
1.0
 47
0.1
 48
0.1
 73
     0
 74
     0
 75
     1
 76
     1
 77
     1
 78
     8
 79
     2
140
3.5
141
0.0
143
0.0393701
146
0.71
147
1.5
172
     1
176
   256
177
   256
178
     2
271
     2
272
     3
274
     4
283
     0
284
     8
340
11
371
    -1
372
    -1
  0
DIMSTYLE
105
8B
330
A
100
AcDbSymbolTableRecord
100
AcDbDimStyleTableRecord
  2
AM_ISO$SH
 70
     0
  4
"
 41
2.5
 42
1.0
 43
10.0
 44
1.0
 47
0.1
 48
0.1
 73
     0
 74
     0
 75
     1
 76
     1
 77
     1
 78
     8
 79
     2
140
3.5
141
0.0
143
0.0393701
144
2.0
146
0.71
147
1.5
172
     1
173
     1
176
   256
177
   256
178
     2
271
     2
272
     3
274
     4
283
     0
284
     8
340
11
343
87
371
    -1
372
    -1
  0
DIMSTYLE
105
216
330
A
100
AcDbSymbolTableRecord
100
AcDbDimStyleTableRecord
  2
AM_JIS
 70
     0
  4
"
 41
2.5
 42
0.0
 43
10.0
 44
1.0
 47
0.1
 48
0.1000000001
 73
     0
 74
     0
 77
     3
 78
     1
140
3.799999999999999
141
0.0
143
0.0393701
146
0.71
147
1.5
172
     1
176
   256
177
   256
178
     2
179
     1
271
     2
272
     2
275
     1
283
     0
284
     8
340
11
341
217
342
217
371
    -1
372
    -1
  0
DIMSTYLE
105
21D
330
A
100
AcDbSymbolTableRecord
100
AcDbDimStyleTableRecord
  2
AM_JIS$3
 70
     0
  4
"
 41
2.5
 42
0.0
 43
10.0
 44
1.0
 47
0.1
 48
0.1000000001
 73
     0
 77
     3
 78
     1
140
3.799999999999999
141
0.0
143
0.0393701
146
0.71
147
1.5
176
   256
177
   256
178
     2
179
     1
271
     2
272
     2
275
     1
283
     0
284
     8
288
     1
289
     0
340
11
341
217
342
217
371
    -1
372
    -1
  0
DIMSTYLE
105
21E
330
A
100
AcDbSymbolTableRecord
100
AcDbDimStyleTableRecord
  2
AM_JIS$4
 70
     0
  4
"
 41
2.5
 42
0.0
 43
10.0
 44
1.0
 47
0.1
 48
0.1000000001
 73
     0
 77
     3
 78
     1
140
3.799999999999999
141
0.0
143
0.0393701
146
0.71
147
1.5
176
   256
177
   256
178
     2
179
     1
271
     2
272
     2
275
     1
283
     0
284
     8
288
     1
289
     0
340
11
341
217
342
217
371
    -1
372
    -1
  0
DIMSTYLE
105
21F
330
A
100
AcDbSymbolTableRecord
100
AcDbDimStyleTableRecord
  2
AM_JIS$6
 70
     0
  4
"
 41
2.5
 42
0.0
 43
10.0
 44
1.0
 47
0.1
 48
0.1000000001
 73
     0
 74
     0
 78
     1
140
3.799999999999999
141
0.0
143
0.0393701
146
0.71
147
1.5
172
     1
176
   256
177
   256
178
     2
179
     1
271
     2
272
     2
275
     1
283
     0
284
     8
340
11
341
217
342
217
371
    -1
372
    -1
  0
DIMSTYLE
105
220
330
A
100
AcDbSymbolTableRecord
100
AcDbDimStyleTableRecord
  2
AM_JIS$7
 70
     0
  4
"
 41
2.5
 42
0.0
 43
10.0
 44
1.0
 47
0.1
 48
0.1000000001
 73
     0
 74
     0
 77
     3
 78
     1
140
5.0
141
0.0
143
0.0393701
146
0.71
147
1.5
172
     1
176
   256
177
   256
178
     2
179
     1
271
     2
272
     2
275
     1
283
     0
284
     8
340
11
341
217
342
217
371
    -1
372
    -1
  0
DIMSTYLE
105
221
330
A
100
AcDbSymbolTableRecord
100
AcDbDimStyleTableRecord
  2
AM_JIS$SF
 70
     0
  4
"
 41
2.5
 42
1.0
 43
10.0
 44
1.0
 47
0.1
 48
0.1
 73
     0
 74
     0
 75
     1
 76
     1
 77
     3
 78
     8
 79
     2
140
3.5
141
0.0
143
0.0393701
146
0.71
147
1.5
172
     1
176
   256
177
   256
178
     2
271
     2
272
     3
274
     4
283
     0
284
     8
340
11
341
217
342
217
343
217
344
217
371
    -1
372
    -1
  0
DIMSTYLE
105
222
330
A
100
AcDbSymbolTableRecord
100
AcDbDimStyleTableRecord
  2
AM_JIS$SH
 70
     0
  4
"
 41
2.5
 42
1.0
 43
10.0
 44
1.0
 47
0.1
 48
0.1
 73
     0
 74
     0
 75
     1
 76
     1
 77
     3
 78
     8
 79
     2
140
3.5
141
0.0
143
0.0393701
144
2.0
146
0.71
147
1.5
172
     1
173
     1
176
   256
177
   256
178
     2
271
     2
272
     3
274
     4
283
     0
284
     8
340
11
341
217
342
217
343
87
344
217
371
    -1
372
    -1
  0
DIMSTYLE
105
632
330
A
100
AcDbSymbolTableRecord
100
AcDbDimStyleTableRecord
  2
AM_JIS$2
 70
     0
  4
"
 41
2.5
 42
0.1
 43
8.0
 44
1.0
 47
0.1
 48
0.1
 73
     0
 74
     0
 77
     3
 78
     1
 79
     2
140
3.399999999999999
141
0.0
143
0.0393701
146
0.71
147
0.9999999999999996
172
     1
176
     3
177
     3
178
     2
179
     1
271
     2
272
     2
275
     1
283
     0
284
     1
340
11
341
217
342
217
371
    -1
372
    -1
  0
DIMSTYLE
105
633
102
{ACAD_REACTORS
330
78A
330
7F6
330
86B
330
8A3
330
F9E
102
}
330
A
100
AcDbSymbolTableRecord
100
AcDbDimStyleTableRecord
  2
AM_JIS$0
 70
     0
  4
"
 41
2.5
 42
0.1
 43
8.0
 44
0.5
 47
0.1
 48
0.1
 73
     0
 74
     0
 77
     3
 78
     1
 79
     2
140
3.399999999999999
141
0.0
143
0.0393701
146
0.71
147
0.9999999999999996
172
     1
176
     3
177
     3
178
     2
179
     1
271
     2
272
     2
275
     1
283
     0
284
     1
340
11
341
217
342
217
371
    -1
372
    -1
  0
DIMSTYLE
105
19AD
330
A
100
AcDbSymbolTableRecord
100
AcDbDimStyleTableRecord
  2
STANDARD
 70
     0
340
11
  0
DIMSTYLE
105
19AE
330
A
100
AcDbSymbolTableRecord
100
AcDbDimStyleTableRecord
  2
AM_ANSI
 70
     0
  4
mm
 41
0.1
 42
0.05
 43
0.5
 44
0.1
 47
0.1
 48
0.1
 78
     7
 79
     2
140
0.12
141
0.0
146
0.71
147
0.06
176
   256
177
   256
178
     2
274
     4
284
     7
340
11
371
    -1
372
    -1
  0
DIMSTYLE
105
19AF
330
A
100
AcDbSymbolTableRecord
100
AcDbDimStyleTableRecord
  2
AM_ANSI$3
 70
     0
  4
mm
 41
0.1
 42
0.05
 43
0.5
 44
0.1
 47
0.1
 48
0.1
 78
     7
 79
     2
140
0.12
141
0.0
146
0.71
147
0.06
176
   256
177
   256
178
     2
274
     4
284
     7
288
     1
289
     0
340
11
371
    -1
372
    -1
  0
DIMSTYLE
105
19B0
330
A
100
AcDbSymbolTableRecord
100
AcDbDimStyleTableRecord
  2
AM_ANSI$4
 70
     0
  4
mm
 41
0.1
 42
0.05
 43
0.5
 44
0.1
 47
0.1
 48
0.1
 78
     7
 79
     2
140
0.12
141
0.0
146
0.71
147
0.06
176
   256
177
   256
178
     2
274
     4
284
     7
288
     1
289
     0
340
11
371
    -1
372
    -1
  0
DIMSTYLE
105
19B1
330
A
100
AcDbSymbolTableRecord
100
AcDbDimStyleTableRecord
  2
AM_ANSI$7
 70
     0
  4
mm
 41
0.1
 42
0.05
 43
0.5
 44
0.1
 47
0.1
 48
0.1
 78
     7
 79
     2
140
0.24
141
0.0
146
0.71
147
0.06
176
   256
177
   256
178
     2
274
     4
284
     7
340
11
371
    -1
372
    -1
  0
DIMSTYLE
105
19B2
330
A
100
AcDbSymbolTableRecord
100
AcDbDimStyleTableRecord
  2
AM_ANSI$SF
 70
     0
  4
mm
 41
0.1
 42
0.05
 43
0.5
 44
0.1
 47
0.1
 48
0.1
 75
     1
 76
     1
 78
     7
 79
     2
140
0.12
141
0.0
146
0.71
147
0.06
176
   256
177
   256
178
     2
274
     4
284
     7
340
11
371
    -1
372
    -1
  0
DIMSTYLE
105
19B3
330
A
100
AcDbSymbolTableRecord
100
AcDbDimStyleTableRecord
  2
AM_ANSI$SH
 70
     0
  4
mm
 41
0.1
 42
0.05
 43
0.5
 44
0.1
 47
0.1
 48
0.1
 75
     1
 76
     1
 78
     7
 79
     2
140
0.12
141
0.0
146
0.71
147
0.06
173
     1
176
   256
177
   256
178
     2
274
     4
284
     7
340
11
343
87
371
    -1
372
    -1
  0
ENDTAB
  0
TABLE
  2
BLOCK_RECORD
  5
1
330
0
100
AcDbSymbolTable
 70
    11
  0
BLOCK_RECORD
  5
1F
102
{ACAD_XDICTIONARY
360
8F
102
}
330
1
100
AcDbSymbolTableRecord
100
AcDbBlockTableRecord
  2
*Model_Space
340
22
  0
BLOCK_RECORD
  5
1B
330
1
100
AcDbSymbolTableRecord
100
AcDbBlockTableRecord
  2
*Paper_Space
340
1E
  0
BLOCK_RECORD
  5
23
330
1
100
AcDbSymbolTableRecord
100
AcDbBlockTableRecord
  2
*Paper_Space0
340
26
  0
BLOCK_RECORD
  5
87
330
1
100
AcDbSymbolTableRecord
100
AcDbBlockTableRecord
  2
GENAXEH
340
0
  0
BLOCK_RECORD
  5
217
330
1
100
AcDbSymbolTableRecord
100
AcDbBlockTableRecord
  2
_Open30
340
0
102
{BLKREFS
331
18A3
331
18A4
331
1C35
331
1C36
331
1C50
331
1C51
331
1C59
331
1C5A
331
1C62
331
1C63
102
}
  0
BLOCK_RECORD
  5
78C
330
1
100
AcDbSymbolTableRecord
100
AcDbBlockTableRecord
  2
*D3
340
0
  0
BLOCK_RECORD
  5
7F7
330
1
100
AcDbSymbolTableRecord
100
AcDbBlockTableRecord
  2
*D4
340
0
  0
BLOCK_RECORD
  5
86C
330
1
100
AcDbSymbolTableRecord
100
AcDbBlockTableRecord
  2
*D5
340
0
  0
BLOCK_RECORD
  5
8A4
330
1
100
AcDbSymbolTableRecord
100
AcDbBlockTableRecord
  2
*D6
340
0
  0
BLOCK_RECORD
  5
9EE
330
1
100
AcDbSymbolTableRecord
100
AcDbBlockTableRecord
  2
ta
340
0
310
2800000020000000200000000100080000000000000400000000000000000000000000000000000000000000000080000080000000808000800000008000800080800000C0C0C000C0DCC000F0CAA6000020400000206000002080000020A0000020C0000020E00000400000004020000040400000406000004080000040A0
310
000040C0000040E00000600000006020000060400000606000006080000060A0000060C0000060E00000800000008020000080400000806000008080000080A0000080C0000080E00000A0000000A0200000A0400000A0600000A0800000A0A00000A0C00000A0E00000C0000000C0200000C0400000C0600000C0800000C0
310
A00000C0C00000C0E00000E0000000E0200000E0400000E0600000E0800000E0A00000E0C00000E0E00040000000400020004000400040006000400080004000A0004000C0004000E00040200000402020004020400040206000402080004020A0004020C0004020E000404000004040200040404000404060004040800040
310
40A0004040C0004040E00040600000406020004060400040606000406080004060A0004060C0004060E00040800000408020004080400040806000408080004080A0004080C0004080E00040A0000040A0200040A0400040A0600040A0800040A0A00040A0C00040A0E00040C0000040C0200040C0400040C0600040C08000
310
40C0A00040C0C00040C0E00040E0000040E0200040E0400040E0600040E0800040E0A00040E0C00040E0E00080000000800020008000400080006000800080008000A0008000C0008000E00080200000802020008020400080206000802080008020A0008020C0008020E00080400000804020008040400080406000804080
310
008040A0008040C0008040E00080600000806020008060400080606000806080008060A0008060C0008060E00080800000808020008080400080806000808080008080A0008080C0008080E00080A0000080A0200080A0400080A0600080A0800080A0A00080A0C00080A0E00080C0000080C0200080C0400080C0600080C0
310
800080C0A00080C0C00080C0E00080E0000080E0200080E0400080E0600080E0800080E0A00080E0C00080E0E000C0000000C0002000C0004000C0006000C0008000C000A000C000C000C000E000C0200000C0202000C0204000C0206000C0208000C020A000C020C000C020E000C0400000C0402000C0404000C0406000C0
310
408000C040A000C040C000C040E000C0600000C0602000C0604000C0606000C0608000C060A000C060C000C060E000C0800000C0802000C0804000C0806000C0808000C080A000C080C000C080E000C0A00000C0A02000C0A04000C0A06000C0A08000C0A0A000C0A0C000C0A0E000C0C00000C0C02000C0C04000C0C06000
310
C0C08000C0C0A000F0FBFF00A4A0A000808080000000FF0000FF000000FFFF00FF000000FF00FF00FFFF0000FFFFFF0000000000000000000000000000000000000000000000000000000000000000000000000000000000000000000000000000000000000000000000000000000000000000000000000000000000000000
310
00000000000000000000000000000000000000000000000000000000000000000000000000000000000000000000000000000000000000000000000000000000000000000000000000000000000000000000000000000000000000000000000000000000000000000000000000000000000000000000000000000000000000
310
0000000000000000000000000000000000000000FFFFFFFFFFFFFFFFFFFFFFFFFFFFFFFFFFFFFFFFFFFFFFFFFFFF0000000000FF0000000000000000000000000000000000000000000000000000FF00000000FF0000000000000000000000000000000000000000000000000000FF00000000FF0000000000000000000000
310
000000000000000000000000000000FF00000000FFFF00000000000000000000FFFFFFFFFFFF000000000000000000FF0000000000FF000000000000000000FF000000000000FF0000000000000000FF0000000000FF000000000000000000FF00000000000000FF0000000000000000FF00000000FF0000000000000000FF
310
0000000000000000FF0000000000000000FF00000000FF00000000000000FF00000000000000000000FF00000000000000FF00000000FF0000000000000000FF0000000000000000FF0000000000000000FF00000000FF0000000000000000FF0000000000000000FF0000000000000000FF0000000000FF00000000000000
310
00FF000000000000FF000000000000000000FF0000000000FF0000000000000000FF000000000000FF000000000000000000FF0000000000FF000000000000000000FFFFFFFFFFFF00000000000000000000FFFF00000000FF0000000000000000000000000000000000000000000000000000FF00000000FF000000000000
310
0000000000000000000000000000000000000000FF00000000FF0000000000000000000000000000000000000000000000000000FF0000000000FFFFFFFFFFFFFFFFFFFFFFFFFFFFFFFFFFFFFFFFFFFFFFFFFFFF00000000000000000000000000000000000000000000000000000000000000000000000000000000000000
310
00000000000000000000000000000000000000000000000000000000000000000000000000000000000000000000000000000000000000000000000000000000000000000000000000000000000000000000000000000000000000000000000000000000000000000000000000000000000000000000000000000000000000
310
0000000000000000000000000000000000000000000000000000000000000000000000000000000000000000000000000000000000000000
1001
ACAD
1000
DesignCenter Data
1002
{
1070
     1
1070
     4
1002
}
  0
BLOCK_RECORD
  5
F9F
330
1
100
AcDbSymbolTableRecord
100
AcDbBlockTableRecord
  2
*D8
340
0
  0
BLOCK_RECORD
  5
15E3
330
1
100
AcDbSymbolTableRecord
100
AcDbBlockTableRecord
  2
ta2
340
0
310
2800000020000000200000000100080000000000000400000000000000000000000000000000000000000000000080000080000000808000800000008000800080800000C0C0C000C0DCC000F0CAA6000020400000206000002080000020A0000020C0000020E00000400000004020000040400000406000004080000040A0
310
000040C0000040E00000600000006020000060400000606000006080000060A0000060C0000060E00000800000008020000080400000806000008080000080A0000080C0000080E00000A0000000A0200000A0400000A0600000A0800000A0A00000A0C00000A0E00000C0000000C0200000C0400000C0600000C0800000C0
310
A00000C0C00000C0E00000E0000000E0200000E0400000E0600000E0800000E0A00000E0C00000E0E00040000000400020004000400040006000400080004000A0004000C0004000E00040200000402020004020400040206000402080004020A0004020C0004020E000404000004040200040404000404060004040800040
310
40A0004040C0004040E00040600000406020004060400040606000406080004060A0004060C0004060E00040800000408020004080400040806000408080004080A0004080C0004080E00040A0000040A0200040A0400040A0600040A0800040A0A00040A0C00040A0E00040C0000040C0200040C0400040C0600040C08000
310
40C0A00040C0C00040C0E00040E0000040E0200040E0400040E0600040E0800040E0A00040E0C00040E0E00080000000800020008000400080006000800080008000A0008000C0008000E00080200000802020008020400080206000802080008020A0008020C0008020E00080400000804020008040400080406000804080
310
008040A0008040C0008040E00080600000806020008060400080606000806080008060A0008060C0008060E00080800000808020008080400080806000808080008080A0008080C0008080E00080A0000080A0200080A0400080A0600080A0800080A0A00080A0C00080A0E00080C0000080C0200080C0400080C0600080C0
310
800080C0A00080C0C00080C0E00080E0000080E0200080E0400080E0600080E0800080E0A00080E0C00080E0E000C0000000C0002000C0004000C0006000C0008000C000A000C000C000C000E000C0200000C0202000C0204000C0206000C0208000C020A000C020C000C020E000C0400000C0402000C0404000C0406000C0
310
408000C040A000C040C000C040E000C0600000C0602000C0604000C0606000C0608000C060A000C060C000C060E000C0800000C0802000C0804000C0806000C0808000C080A000C080C000C080E000C0A00000C0A02000C0A04000C0A06000C0A08000C0A0A000C0A0C000C0A0E000C0C00000C0C02000C0C04000C0C06000
310
C0C08000C0C0A000F0FBFF00A4A0A000808080000000FF0000FF000000FFFF00FF000000FF00FF00FFFF0000FFFFFF0000000000000000000000000000000000000000000000000000000000000000000000000000000000000000000000000000000000000000000000000000000000000000000000000000000000000000
310
00000000000000000000000000000000000000000000000000000000000000000000000000000000000000000000000000000000000000000000000000000000000000000000000000000000000000000000000000000000000000000000000000000000000000000000000000000000000000000000000000000000000000
310
000000000000000000000000000000000000000000FFFFFFFFFFFFFFFFFFFFFFFFFFFFFFFFFFFFFFFFFFFFFFFF00000000000000FF000000000000000000000000000000000000000000000000FF0000000000FF00000000000000000000000000000000000000000000000000FF0000000000FF0000000000000000000000
310
0000000000000000000000000000FF0000000000FF0000000000000000000000FFFFFFFFFFFF0000000000000000FF0000000000FFFF00000000000000000000FF00000000FF0000000000000000FF000000000000FF000000000000000000FF000000000000FF00000000000000FF00000000000000FF0000000000000000
310
FF000000000000FF0000000000000000FF000000000000FF00000000000000FF0000000000000000FF00000000000000FF000000000000FF00000000000000FF0000000000000000FF00000000000000FF000000000000FF0000000000000000FF00000000000000FF00000000000000FF00000000000000FF000000000000
310
00FF000000000000FF000000000000000000FF000000000000FF0000000000000000FF0000000000FF000000000000000000FFFF0000000000FF0000000000000000FFFFFFFFFFFF0000000000000000000000FF0000000000FF00000000000000000000000000000000000000000000000000FF0000000000FF0000000000
310
0000000000000000000000000000000000000000FF000000000000FF0000000000000000000000000000000000000000000000FF00000000000000FFFFFFFFFFFFFFFFFFFFFFFFFFFFFFFFFFFFFFFFFFFFFFFF0000000000000000000000000000000000000000000000000000000000000000000000000000000000000000
310
00000000000000000000000000000000000000000000000000000000000000000000000000000000000000000000000000000000000000000000000000000000000000000000000000000000000000000000000000000000000000000000000000000000000000000000000000000000000000000000000000000000000000
310
0000000000000000000000000000000000000000000000000000000000000000000000000000000000000000000000000000000000000000
1001
ACAD
1000
DesignCenter Data
1002
{
1070
     1
1070
     4
1002
}
  0
ENDTAB
  0
ENDSEC
  0
SECTION
  2
BLOCKS
  0
BLOCK
  5
20
330
1F
100
AcDbEntity
  8
0
100
AcDbBlockBegin
  2
*Model_Space
 70
     0
 10
0.0
 20
0.0
 30
0.0
  3
*Model_Space
  1

  0
ENDBLK
  5
21
330
1F
100
AcDbEntity
  8
0
100
AcDbBlockEnd
  0
BLOCK
  5
1C
330
1B
100
AcDbEntity
 67
     1
  8
0
100
AcDbBlockBegin
  2
*Paper_Space
 70
     0
 10
0.0
 20
0.0
 30
0.0
  3
*Paper_Space
  1

  0
ENDBLK
  5
1D
330
1B
100
AcDbEntity
 67
     1
  8
0
100
AcDbBlockEnd
  0
BLOCK
  5
24
330
23
100
AcDbEntity
  8
0
100
AcDbBlockBegin
  2
*Paper_Space0
 70
     0
 10
0.0
 20
0.0
 30
0.0
  3
*Paper_Space0
  1

  0
ENDBLK
  5
25
330
23
100
AcDbEntity
  8
0
100
AcDbBlockEnd
  0
BLOCK
  5
89
330
87
100
AcDbEntity
  8
0
100
AcDbBlockBegin
  2
GENAXEH
 70
     0
 10
0.0
 20
0.0
 30
0.0
  3
GENAXEH
  1

  0
LINE
  5
88
330
87
100
AcDbEntity
  8
0
100
AcDbLine
 10
-1.0
 20
0.0
 30
0.0
 11
1.0
 21
0.0
 31
0.0
  0
ENDBLK
  5
8A
330
87
100
AcDbEntity
  8
0
100
AcDbBlockEnd
  0
BLOCK
  5
21B
330
217
100
AcDbEntity
  8
0
100
AcDbBlockBegin
  2
_Open30
 70
     0
 10
0.0
 20
0.0
 30
0.0
  3
_Open30
  1

  0
LINE
  5
218
330
217
100
AcDbEntity
  8
0
  6
ByBlock
 62
     0
370
    -2
100
AcDbLine
 10
-1.0
 20
0.26794919
 30
0.0
 11
0.0
 21
0.0
 31
0.0
  0
LINE
  5
219
330
217
100
AcDbEntity
  8
0
  6
ByBlock
 62
     0
370
    -2
100
AcDbLine
 10
0.0
 20
0.0
 30
0.0
 11
-1.0
 21
-0.26794919
 31
0.0
  0
LINE
  5
21A
330
217
100
AcDbEntity
  8
0
  6
ByBlock
 62
     0
370
    -2
100
AcDbLine
 10
0.0
 20
0.0
 30
0.0
 11
-1.0
 21
0.0
 31
0.0
  0
ENDBLK
  5
21C
330
217
100
AcDbEntity
  8
0
100
AcDbBlockEnd
  0
BLOCK
  5
7AD
330
78C
100
AcDbEntity
  8
0
100
AcDbBlockBegin
  2
*D3
 70
     1
 10
0.0
 20
0.0
 30
0.0
  3
*D3
  1

  0
LINE
  5
1C32
330
78C
100
AcDbEntity
  8
AM_5
 62
     3
100
AcDbLine
 10
-120.0000556249927
 20
-10.37512652668571
 30
0.0
 11
-120.0000556249927
 21
-46.1018652981636
 31
0.0
  0
LINE
  5
1C33
330
78C
100
AcDbEntity
  8
AM_5
 62
     3
100
AcDbLine
 10
-40.00005562499272
 20
-16.10142135623746
 30
0.0
 11
-40.00005562499272
 21
-46.1018652981636
 31
0.0
  0
LINE
  5
1C34
330
78C
100
AcDbEntity
  8
AM_5
 62
     3
100
AcDbLine
 10
-117.5000556249927
 20
-45.6018652981636
 30
0.0
 11
-42.50005562499272
 21
-45.6018652981636
 31
0.0
  0
INSERT
  5
1C35
330
78C
100
AcDbEntity
  8
AM_5
 62
     3
100
AcDbBlockReference
  2
_Open30
 10
-120.0000556249927
 20
-45.6018652981636
 30
0.0
 41
2.5
 42
2.5
 43
2.5
 50
180.0
  0
INSERT
  5
1C36
330
78C
100
AcDbEntity
  8
AM_5
 62
     3
100
AcDbBlockReference
  2
_Open30
 10
-40.00005562499272
 20
-45.6018652981636
 30
0.0
 41
2.5
 42
2.5
 43
2.5
  0
MTEXT
  5
1C37
330
78C
100
AcDbEntity
  8
AM_5
 62
     2
100
AcDbMText
 10
-80.00005562499273
 20
-42.90186529816359
 30
0.0
 40
3.399999999999999
 41
0.0
 71
     5
 72
     1
  1
80
 73
     1
 44
1.0
  0
POINT
  5
1C38
330
78C
100
AcDbEntity
  8
Defpoints
 62
     0
100
AcDbPoint
 10
-120.0000556249927
 20
-10.27512652668571
 30
0.0
  0
POINT
  5
1C39
330
78C
100
AcDbEntity
  8
Defpoints
 62
     0
100
AcDbPoint
 10
-40.00005562499272
 20
-16.00142135623746
 30
0.0
  0
POINT
  5
1C3A
330
78C
100
AcDbEntity
  8
Defpoints
 62
     0
100
AcDbPoint
 10
-40.00005562499272
 20
-45.6018652981636
 30
0.0
  0
ENDBLK
  5
7AE
330
78C
100
AcDbEntity
  8
0
100
AcDbBlockEnd
  0
BLOCK
  5
818
330
7F7
100
AcDbEntity
  8
0
100
AcDbBlockBegin
  2
*D4
 70
     1
 10
0.0
 20
0.0
 30
0.0
  3
*D4
  1

  0
LINE
  5
18A0
330
7F7
100
AcDbEntity
  8
AM_5
 62
     3
100
AcDbLine
 10
-118.600055624993
 20
15.99857864376295
 30
0.0
 11
-131.7309551793317
 21
15.99857864376295
 31
0.0
  0
LINE
  5
18A1
330
7F7
100
AcDbEntity
  8
AM_5
 62
     3
100
AcDbLine
 10
-118.6000556249927
 20
-16.00142135623704
 30
0.0
 11
-131.7309551793317
 21
-16.00142135623704
 31
0.0
  0
LINE
  5
18A2
330
7F7
100
AcDbEntity
  8
AM_5
 62
     3
100
AcDbLine
 10
-131.2309551793317
 20
13.49857864376295
 30
0.0
 11
-131.2309551793317
 21
-13.50142135623704
 31
0.0
  0
INSERT
  5
18A3
330
7F7
100
AcDbEntity
  8
AM_5
 62
     3
100
AcDbBlockReference
  2
_Open30
 10
-131.2309551793317
 20
15.99857864376295
 30
0.0
 41
2.5
 42
2.5
 43
2.5
 50
90.0
  0
INSERT
  5
18A4
330
7F7
100
AcDbEntity
  8
AM_5
 62
     3
100
AcDbBlockReference
  2
_Open30
 10
-131.2309551793317
 20
-16.00142135623704
 30
0.0
 41
2.5
 42
2.5
 43
2.5
 50
270.0
  0
MTEXT
  5
18A5
330
7F7
100
AcDbEntity
  8
AM_5
 62
     2
100
AcDbMText
 10
-133.931289825001
 20
-0.0014213562370649
 30
0.0
 40
3.399999999999999
 41
0.0
 71
     5
 72
     1
  1
%%c32
 11
0.0000000000000001
 21
1.0
 31
0.0
 73
     1
 44
1.0
  0
POINT
  5
18A6
330
7F7
100
AcDbEntity
  8
Defpoints
 62
     0
100
AcDbPoint
 10
-118.500055624993
 20
15.99857864376295
 30
0.0
  0
POINT
  5
18A7
330
7F7
100
AcDbEntity
  8
Defpoints
 62
     0
100
AcDbPoint
 10
-118.5000556249927
 20
-16.00142135623704
 30
0.0
  0
POINT
  5
18A8
330
7F7
100
AcDbEntity
  8
Defpoints
 62
     0
100
AcDbPoint
 10
-131.2309551793317
 20
-16.00142135623704
 30
0.0
  0
ENDBLK
  5
819
330
7F7
100
AcDbEntity
  8
0
100
AcDbBlockEnd
  0
BLOCK
  5
886
330
86C
100
AcDbEntity
  8
0
100
AcDbBlockBegin
  2
*D5
 70
     1
 10
0.0
 20
0.0
 30
0.0
  3
*D5
  1

  0
LINE
  5
1C5F
330
86C
100
AcDbEntity
  8
AM_5
 62
     3
100
AcDbLine
 10
-0.0000000000000519
 20
-30.6995376475571
 30
0.0
 11
-0.0000000000000533
 21
-54.29431100460555
 31
0.0
  0
LINE
  5
1C60
330
86C
100
AcDbEntity
  8
AM_5
 62
     3
100
AcDbLine
 10
-120.0000556249927
 20
-10.37512652668571
 30
0.0
 11
-120.0000556249927
 21
-54.29431100460555
 31
0.0
  0
LINE
  5
1C61
330
86C
100
AcDbEntity
  8
AM_5
 62
     3
100
AcDbLine
 10
-2.500000000000053
 20
-53.79431100460555
 30
0.0
 11
-117.5000556249927
 21
-53.79431100460555
 31
0.0
  0
INSERT
  5
1C62
330
86C
100
AcDbEntity
  8
AM_5
 62
     3
100
AcDbBlockReference
  2
_Open30
 10
-0.0000000000000533
 20
-53.79431100460555
 30
0.0
 41
2.5
 42
2.5
 43
2.5
  0
INSERT
  5
1C63
330
86C
100
AcDbEntity
  8
AM_5
 62
     3
100
AcDbBlockReference
  2
_Open30
 10
-120.0000556249927
 20
-53.79431100460555
 30
0.0
 41
2.5
 42
2.5
 43
2.5
 50
180.0
  0
MTEXT
  5
1C64
330
86C
100
AcDbEntity
  8
AM_5
 62
     2
100
AcDbMText
 10
-60.0000278124964
 20
-51.09397635893626
 30
0.0
 40
3.399999999999999
 41
0.0
 71
     5
 72
     1
  1
120
 73
     1
 44
1.0
  0
POINT
  5
1C65
330
86C
100
AcDbEntity
  8
Defpoints
 62
     0
100
AcDbPoint
 10
-0.0000000000000519
 20
-30.5995376475571
 30
0.0
  0
POINT
  5
1C66
330
86C
100
AcDbEntity
  8
Defpoints
 62
     0
100
AcDbPoint
 10
-120.0000556249927
 20
-10.27512652668571
 30
0.0
  0
POINT
  5
1C67
330
86C
100
AcDbEntity
  8
Defpoints
 62
     0
100
AcDbPoint
 10
-120.0000556249927
 20
-53.79431100460555
 30
0.0
  0
ENDBLK
  5
887
330
86C
100
AcDbEntity
  8
0
100
AcDbBlockEnd
  0
BLOCK
  5
8CF
330
8A4
100
AcDbEntity
  8
0
100
AcDbBlockBegin
  2
*D6
 70
     1
 10
0.0
 20
0.0
 30
0.0
  3
*D6
  1

  0
LINE
  5
1C4D
330
8A4
100
AcDbEntity
  8
AM_5
 62
     3
100
AcDbLine
 10
-1.463249321825821
 20
31.49857864376253
 30
0.0
 11
12.0001780779495
 21
31.49857864376253
 31
0.0
  0
LINE
  5
1C4E
330
8A4
100
AcDbEntity
  8
AM_5
 62
     3
100
AcDbLine
 10
-2.44993361086025
 20
-31.50142135623748
 30
0.0
 11
12.00017807794948
 21
-31.50142135623748
 31
0.0
  0
LINE
  5
1C4F
330
8A4
100
AcDbEntity
  8
AM_5
 62
     3
100
AcDbLine
 10
11.5001780779495
 20
28.99857864376253
 30
0.0
 11
11.50017807794948
 21
-29.00142135623748
 31
0.0
  0
INSERT
  5
1C50
330
8A4
100
AcDbEntity
  8
AM_5
 62
     3
100
AcDbBlockReference
  2
_Open30
 10
11.5001780779495
 20
31.49857864376253
 30
0.0
 41
2.5
 42
2.5
 43
2.5
 50
90.0
  0
INSERT
  5
1C51
330
8A4
100
AcDbEntity
  8
AM_5
 62
     3
100
AcDbBlockReference
  2
_Open30
 10
11.50017807794948
 20
-31.50142135623748
 30
0.0
 41
2.5
 42
2.5
 43
2.5
 50
270.0
  0
MTEXT
  5
1C52
330
8A4
100
AcDbEntity
  8
AM_5
 62
     2
100
AcDbMText
 10
8.800178077949492
 20
0.2072271292833764
 30
0.0
 40
3.399999999999999
 41
0.0
 71
     5
 72
     1
  1
%%c63
 11
0.0000000000000001
 21
1.0
 31
0.0
 73
     1
 44
1.0
  0
POINT
  5
1C53
330
8A4
100
AcDbEntity
  8
Defpoints
 62
     0
100
AcDbPoint
 10
-1.563249321825821
 20
31.49857864376253
 30
0.0
  0
POINT
  5
1C54
330
8A4
100
AcDbEntity
  8
Defpoints
 62
     0
100
AcDbPoint
 10
-2.54993361086025
 20
-31.50142135623748
 30
0.0
  0
POINT
  5
1C55
330
8A4
100
AcDbEntity
  8
Defpoints
 62
     0
100
AcDbPoint
 10
11.50017807794948
 20
-31.50142135623748
 30
0.0
  0
ENDBLK
  5
8D0
330
8A4
100
AcDbEntity
  8
0
100
AcDbBlockEnd
  0
BLOCK
  5
9EF
330
9EE
100
AcDbEntity
  8
0
100
AcDbBlockBegin
  2
ta
 70
     0
 10
0.0
 20
0.0
 30
0.0
  3
ta
  1

  0
LINE
  5
A2B
330
9EE
100
AcDbEntity
  8
AM_0
100
AcDbLine
 10
-10.94000000000007
 20
6.998578643761788
 30
0.0
 11
-0.4000000000000537
 21
6.998578643762527
 31
0.0
  0
ARC
  5
A2C
330
9EE
100
AcDbEntity
  8
AM_0
100
AcDbCircle
 10
-0.4000000000000537
 20
6.598578643762522
 30
0.0
 40
0.4
100
AcDbArc
 50
0.0000000000040711
 51
90.00000000000323
1001
GENIUS_GENOBJ-N-FIL_13
1002
{
1000
OWNER
1000
GEN
1002
}
1001
GENIUS_GENODEF_13
1002
{
1000
HIER
1070
     0
1002
}
1002
{
1000
MANEDIT
1070
     0
1002
}
1002
{
1000
NOSEL
1070
     0
1002
}
1002
{
1000
BEHIND
1070
     0
1002
}
1002
{
1000
OTHER
1070
     0
1002
}
1002
{
1000
REACTOR
1002
}
  0
ARC
  5
A2D
330
9EE
100
AcDbEntity
  8
AM_0
100
AcDbCircle
 10
-10.94000000000007
 20
6.598578643761783
 30
0.0
 40
0.4
100
AcDbArc
 50
90.00000000000323
 51
180.0
1001
GENIUS_GENOBJ-N-FIL_13
1002
{
1000
OWNER
1000
GEN
1002
}
1001
GENIUS_GENODEF_13
1002
{
1000
HIER
1070
     0
1002
}
1002
{
1000
MANEDIT
1070
     0
1002
}
1002
{
1000
NOSEL
1070
     0
1002
}
1002
{
1000
BEHIND
1070
     0
1002
}
1002
{
1000
OTHER
1070
     0
1002
}
1002
{
1000
REACTOR
1002
}
  0
LINE
  5
A2E
330
9EE
100
AcDbEntity
  8
AM_0
100
AcDbLine
 10
-1.060000000000078
 20
-0.0014213562374148
 30
0.0
 11
-11.6000000000001
 21
-0.0014213562374148
 31
0.0
  0
ARC
  5
A2F
330
9EE
100
AcDbEntity
  8
AM_0
100
AcDbCircle
 10
-11.6000000000001
 20
0.3985786437625909
 30
0.0
 40
0.4
100
AcDbArc
 50
180.0
 51
270.0
1001
GENIUS_GENODEF_13
1002
{
1000
HIER
1070
     0
1002
}
1002
{
1000
MANEDIT
1070
     0
1002
}
1002
{
1000
NOSEL
1070
     0
1002
}
1002
{
1000
BEHIND
1070
     0
1002
}
1002
{
1000
OTHER
1070
     0
1002
}
1002
{
1000
REACTOR
1002
}
1001
GENIUS_GENOBJ-N-FIL_13
1002
{
1000
OWNER
1000
GEN
1002
}
  0
LINE
  5
A30
330
9EE
100
AcDbEntity
  8
AM_0
100
AcDbLine
 10
-11.34000000000005
 20
6.598578643761783
 30
0.0
 11
-11.34000000000005
 21
5.465263475678085
 31
0.0
  0
LINE
  5
A31
330
9EE
100
AcDbEntity
  8
AM_0
100
AcDbLine
 10
-0.6600000000001014
 20
0.3985786437625909
 30
0.0
 11
-0.6600000000001014
 21
1.531893811845151
 31
0.0
  0
ARC
  5
A32
330
9EE
100
AcDbEntity
  8
AM_0
100
AcDbCircle
 10
-0.2600000000001241
 20
1.531893811845151
 30
0.0
 40
0.4
100
AcDbArc
 50
172.3666694127705
 51
180.0
1001
GENIUS_GENOBJ-N-FIL_13
1002
{
1000
OWNER
1000
GEN
1002
}
1001
GENIUS_GENODEF_13
1002
{
1000
HIER
1070
     0
1002
}
1002
{
1000
MANEDIT
1070
     0
1002
}
1002
{
1000
NOSEL
1070
     0
1002
}
1002
{
1000
BEHIND
1070
     0
1002
}
1002
{
1000
OTHER
1070
     0
1002
}
1002
{
1000
REACTOR
1002
}
  0
ARC
  5
A33
330
9EE
100
AcDbEntity
  8
AM_0
100
AcDbCircle
 10
-1.060000000000078
 20
0.3985786437625909
 30
0.0
 40
0.4
100
AcDbArc
 50
270.0
 51
0.0
1001
GENIUS_GENODEF_13
1002
{
1000
HIER
1070
     0
1002
}
1002
{
1000
MANEDIT
1070
     0
1002
}
1002
{
1000
NOSEL
1070
     0
1002
}
1002
{
1000
BEHIND
1070
     0
1002
}
1002
{
1000
OTHER
1070
     0
1002
}
1002
{
1000
REACTOR
1002
}
1001
GENIUS_GENOBJ-N-FIL_13
1002
{
1000
OWNER
1000
GEN
1002
}
  0
LINE
  5
A34
330
9EE
100
AcDbEntity
  8
AM_0
100
AcDbLine
 10
-12.00000000000007
 20
0.3985786437625909
 30
0.0
 11
-12.00000000000007
 21
1.392893218812844
 31
0.0
  0
LINE
  5
A35
330
9EE
100
AcDbEntity
  8
AM_0
100
AcDbLine
 10
-0.0000000000000764
 20
6.59857864376255
 30
0.0
 11
-0.0000000000000195
 21
5.604264068712353
 31
0.0
  0
ARC
  5
A36
330
9EE
100
AcDbEntity
  8
AM_0
100
AcDbCircle
 10
-0.0000000000000764
 20
5.038578643762548
 30
0.0
 40
0.3999999999999488
100
AcDbArc
 50
109.4712206344584
 51
180.0
  0
ARC
  5
A37
330
9EE
100
AcDbEntity
  8
AM_0
100
AcDbCircle
 10
-0.1999999999999513
 20
5.604264068712353
 30
0.0
 40
0.2
100
AcDbArc
 50
289.4712206344672
 51
0.0
1001
GENIUS_GENODEF_13
1002
{
1000
HIER
1070
     0
1002
}
1002
{
1000
MANEDIT
1070
     0
1002
}
1002
{
1000
NOSEL
1070
     0
1002
}
1002
{
1000
BEHIND
1070
     0
1002
}
1002
{
1000
OTHER
1070
     0
1002
}
1002
{
1000
REACTOR
1002
}
1001
GENIUS_GENOBJ-N-FIL_13
1002
{
1000
OWNER
1000
GEN
1002
}
  0
ARC
  5
A38
330
9EE
100
AcDbEntity
  8
AM_0
100
AcDbCircle
 10
-12.00000000000007
 20
1.958578643762593
 30
0.0
 40
0.4000000000000057
100
AcDbArc
 50
289.4712206344724
 51
0.0
  0
ARC
  5
A39
330
9EE
100
AcDbEntity
  8
AM_0
100
AcDbCircle
 10
-11.80000000000009
 20
1.392893218812844
 30
0.0
 40
0.2
100
AcDbArc
 50
109.4712206344756
 51
180.0
1001
GENIUS_GENODEF_13
1002
{
1000
HIER
1070
     0
1002
}
1002
{
1000
MANEDIT
1070
     0
1002
}
1002
{
1000
NOSEL
1070
     0
1002
}
1002
{
1000
BEHIND
1070
     0
1002
}
1002
{
1000
OTHER
1070
     0
1002
}
1002
{
1000
REACTOR
1002
}
1001
GENIUS_GENOBJ-N-FIL_13
1002
{
1000
OWNER
1000
GEN
1002
}
  0
LINE
  5
A3A
330
9EE
100
AcDbEntity
  8
AM_0
100
AcDbLine
 10
-11.34354462590877
 20
5.412130281212228
 30
0.0
 11
-11.59645537409166
 21
3.525027006309557
 31
0.0
  0
ARC
  5
A3B
330
9EE
100
AcDbEntity
  8
AM_0
100
AcDbCircle
 10
-11.2000000000004
 20
3.471893811843699
 30
0.0
 40
0.4
100
AcDbArc
 50
172.3666694127663
 51
180.0
1001
GENIUS_GENOBJ-N-FIL_13
1002
{
1000
OWNER
1000
GEN
1002
}
1001
GENIUS_GENODEF_13
1002
{
1000
HIER
1070
     0
1002
}
1002
{
1000
MANEDIT
1070
     0
1002
}
1002
{
1000
NOSEL
1070
     0
1002
}
1002
{
1000
BEHIND
1070
     0
1002
}
1002
{
1000
OTHER
1070
     0
1002
}
1002
{
1000
REACTOR
1002
}
  0
ARC
  5
A3C
330
9EE
100
AcDbEntity
  8
AM_0
100
AcDbCircle
 10
-11.74000000000003
 20
5.465263475678085
 30
0.0
 40
0.4
100
AcDbArc
 50
352.3666694127664
 51
0.0
1001
GENIUS_GENOBJ-N-FIL_13
1002
{
1000
OWNER
1000
GEN
1002
}
1001
GENIUS_GENODEF_13
1002
{
1000
HIER
1070
     0
1002
}
1002
{
1000
MANEDIT
1070
     0
1002
}
1002
{
1000
NOSEL
1070
     0
1002
}
1002
{
1000
BEHIND
1070
     0
1002
}
1002
{
1000
OTHER
1070
     0
1002
}
1002
{
1000
REACTOR
1002
}
  0
LINE
  5
A3D
330
9EE
100
AcDbEntity
  8
AM_0
100
AcDbLine
 10
-11.60000000000038
 20
3.471893811843699
 30
0.0
 11
-11.60000000000038
 21
1.958578643762593
 31
0.0
  0
LINE
  5
A3E
330
9EE
100
AcDbEntity
  8
AM_0
100
AcDbLine
 10
-0.4000000000000537
 20
5.038578643762463
 30
0.0
 11
-0.4000000000000537
 21
3.525263475678685
 31
0.0
  0
LINE
  5
A3F
330
9EE
100
AcDbEntity
  8
AM_0
100
AcDbLine
 10
-0.4035446259087703
 20
3.472130281212856
 30
0.0
 11
-0.6564553740913848
 21
1.58502700631098
 31
0.0
  0
ARC
  5
A40
330
9EE
100
AcDbEntity
  8
AM_0
100
AcDbCircle
 10
-0.8000000000000309
 20
3.525263475678685
 30
0.0
 40
0.4
100
AcDbArc
 50
352.3666694127705
 51
0.0
1001
GENIUS_GENODEF_13
1002
{
1000
HIER
1070
     0
1002
}
1002
{
1000
MANEDIT
1070
     0
1002
}
1002
{
1000
NOSEL
1070
     0
1002
}
1002
{
1000
BEHIND
1070
     0
1002
}
1002
{
1000
OTHER
1070
     0
1002
}
1002
{
1000
REACTOR
1002
}
1001
GENIUS_GENOBJ-N-FIL_13
1002
{
1000
OWNER
1000
GEN
1002
}
  0
CIRCLE
  5
A41
330
9EE
100
AcDbEntity
  8
AM_0
100
AcDbCircle
 10
-6.000000000000019
 20
3.498578643762187
 30
0.0
 40
2.25
  0
ENDBLK
  5
9F0
330
9EE
100
AcDbEntity
  8
0
100
AcDbBlockEnd
  0
BLOCK
  5
FB4
330
F9F
100
AcDbEntity
  8
0
100
AcDbBlockBegin
  2
*D8
 70
     1
 10
0.0
 20
0.0
 30
0.0
  3
*D8
  1

  0
LINE
  5
1C56
330
F9F
100
AcDbEntity
  8
AM_5
 62
     3
100
AcDbLine
 10
-40.00005562499272
 20
-16.10142135623746
 30
0.0
 11
-40.00005562499272
 21
-46.1018652981636
 31
0.0
  0
LINE
  5
1C57
330
F9F
100
AcDbEntity
  8
AM_5
 62
     3
100
AcDbLine
 10
-0.0000000000000519
 20
-30.81008068723279
 30
0.0
 11
-0.0000000000000528
 21
-46.1018652981636
 31
0.0
  0
LINE
  5
1C58
330
F9F
100
AcDbEntity
  8
AM_5
 62
     3
100
AcDbLine
 10
-37.50005562499273
 20
-45.6018652981636
 30
0.0
 11
-2.500000000000052
 21
-45.6018652981636
 31
0.0
  0
INSERT
  5
1C59
330
F9F
100
AcDbEntity
  8
AM_5
 62
     3
100
AcDbBlockReference
  2
_Open30
 10
-40.00005562499272
 20
-45.6018652981636
 30
0.0
 41
2.5
 42
2.5
 43
2.5
 50
180.0
  0
INSERT
  5
1C5A
330
F9F
100
AcDbEntity
  8
AM_5
 62
     3
100
AcDbBlockReference
  2
_Open30
 10
-0.0000000000000528
 20
-45.6018652981636
 30
0.0
 41
2.5
 42
2.5
 43
2.5
  0
MTEXT
  5
1C5B
330
F9F
100
AcDbEntity
  8
AM_5
 62
     2
100
AcDbMText
 10
-20.00002781249639
 20
-42.90186529816359
 30
0.0
 40
3.399999999999999
 41
0.0
 71
     5
 72
     1
  1
40
 73
     1
 44
1.0
  0
POINT
  5
1C5C
330
F9F
100
AcDbEntity
  8
Defpoints
 62
     0
100
AcDbPoint
 10
-40.00005562499272
 20
-16.00142135623746
 30
0.0
  0
POINT
  5
1C5D
330
F9F
100
AcDbEntity
  8
Defpoints
 62
     0
100
AcDbPoint
 10
-0.0000000000000518
 20
-30.71008068723279
 30
0.0
  0
POINT
  5
1C5E
330
F9F
100
AcDbEntity
  8
Defpoints
 62
     0
100
AcDbPoint
 10
-0.0000000000000528
 20
-45.6018652981636
 30
0.0
  0
ENDBLK
  5
FB5
330
F9F
100
AcDbEntity
  8
0
100
AcDbBlockEnd
  0
BLOCK
  5
15E4
330
15E3
100
AcDbEntity
  8
0
100
AcDbBlockBegin
  2
ta2
 70
     0
 10
0.0
 20
0.0
 30
0.0
  3
ta2
  1

  0
LINE
  5
15E5
330
15E3
100
AcDbEntity
  8
AM_0
100
AcDbLine
 10
-55.23858755055481
 20
79.91153498646927
 30
0.0
 11
-40.66858755055493
 21
79.91153498646927
 31
0.0
  0
ARC
  5
15E6
330
15E3
100
AcDbEntity
  8
AM_0
100
AcDbCircle
 10
-55.23858755055481
 20
79.11153498646925
 30
0.0
 40
0.8
100
AcDbArc
 50
90.0
 51
180.0
1001
GENIUS_GENOBJ-N-FIL_13
1002
{
1000
OWNER
1000
GEN
1002
}
1001
GENIUS_GENODEF_13
1002
{
1000
HIER
1070
     0
1002
}
1002
{
1000
MANEDIT
1070
     0
1002
}
1002
{
1000
NOSEL
1070
     0
1002
}
1002
{
1000
BEHIND
1070
     0
1002
}
1002
{
1000
OTHER
1070
     0
1002
}
1002
{
1000
REACTOR
1002
}
  0
LINE
  5
15E7
330
15E3
100
AcDbEntity
  8
AM_0
100
AcDbLine
 10
-39.86858755055492
 20
79.11153498646925
 30
0.0
 11
-39.86858755055492
 21
77.09675790690505
 31
0.0
  0
ARC
  5
15E8
330
15E3
100
AcDbEntity
  8
AM_0
100
AcDbCircle
 10
-40.66858755055493
 20
77.09675790690505
 30
0.0
 40
0.8
100
AcDbArc
 50
333.9281571240058
 51
0.0
1001
GENIUS_GENODEF_13
1002
{
1000
HIER
1070
     0
1002
}
1002
{
1000
MANEDIT
1070
     0
1002
}
1002
{
1000
NOSEL
1070
     0
1002
}
1002
{
1000
BEHIND
1070
     0
1002
}
1002
{
1000
OTHER
1070
     0
1002
}
1002
{
1000
REACTOR
1002
}
1001
GENIUS_GENOBJ-N-FIL_13
1002
{
1000
OWNER
1000
GEN
1002
}
  0
ARC
  5
15E9
330
15E3
100
AcDbEntity
  8
AM_0
100
AcDbCircle
 10
-40.66858755055493
 20
79.11153498646925
 30
0.0
 40
0.8
100
AcDbArc
 50
0.0
 51
90.0
1001
GENIUS_GENOBJ-N-FIL_13
1002
{
1000
OWNER
1000
GEN
1002
}
1001
GENIUS_GENODEF_13
1002
{
1000
HIER
1070
     0
1002
}
1002
{
1000
MANEDIT
1070
     0
1002
}
1002
{
1000
NOSEL
1070
     0
1002
}
1002
{
1000
BEHIND
1070
     0
1002
}
1002
{
1000
OTHER
1070
     0
1002
}
1002
{
1000
REACTOR
1002
}
  0
LINE
  5
15EA
330
15E3
100
AcDbEntity
  8
AM_0
100
AcDbLine
 10
-57.40858755055494
 20
72.52631206603402
 30
0.0
 11
-57.40858755055488
 21
70.5115349864696
 31
0.0
  0
LINE
  5
15EB
330
15E3
100
AcDbEntity
  8
AM_0
100
AcDbLine
 10
-56.60858755055487
 20
69.71153498646959
 30
0.0
 11
-42.03858755055491
 21
69.71153498646962
 31
0.0
  0
ARC
  5
15EC
330
15E3
100
AcDbEntity
  8
AM_0
100
AcDbCircle
 10
-56.60858755055487
 20
70.5115349864696
 30
0.0
 40
0.8
100
AcDbArc
 50
180.0
 51
270.0
1001
GENIUS_GENOBJ-N-FIL_13
1002
{
1000
OWNER
1000
GEN
1002
}
1001
GENIUS_GENODEF_13
1002
{
1000
HIER
1070
     0
1002
}
1002
{
1000
MANEDIT
1070
     0
1002
}
1002
{
1000
NOSEL
1070
     0
1002
}
1002
{
1000
BEHIND
1070
     0
1002
}
1002
{
1000
OTHER
1070
     0
1002
}
1002
{
1000
REACTOR
1002
}
  0
LINE
  5
15ED
330
15E3
100
AcDbEntity
  8
AM_0
100
AcDbLine
 10
-56.03858755055482
 20
79.11153498646925
 30
0.0
 11
-56.03858755055488
 21
76.97634492328242
 31
0.0
  0
LINE
  5
15EE
330
15E3
100
AcDbEntity
  8
AM_0
100
AcDbLine
 10
-56.04901990267321
 20
76.84757019975887
 30
0.0
 11
-56.36206172632267
 21
74.92818967519295
 31
0.0
  0
ARC
  5
15EF
330
15E3
100
AcDbEntity
  8
AM_0
100
AcDbCircle
 10
-56.83858755055489
 20
76.97634492328245
 30
0.0
 40
0.8
100
AcDbArc
 50
350.7368896666856
 51
359.9999999999984
1001
GENIUS_GENOBJ-N-FIL_13
1002
{
1000
OWNER
1000
GEN
1002
}
1001
GENIUS_GENODEF_13
1002
{
1000
HIER
1070
     0
1002
}
1002
{
1000
MANEDIT
1070
     0
1002
}
1002
{
1000
NOSEL
1070
     0
1002
}
1002
{
1000
BEHIND
1070
     0
1002
}
1002
{
1000
OTHER
1070
     0
1002
}
1002
{
1000
REACTOR
1002
}
  0
ARC
  5
15F0
330
15E3
100
AcDbEntity
  8
AM_0
100
AcDbCircle
 10
-57.15162937420434
 20
75.0569643987165
 30
0.0
 40
0.8
100
AcDbArc
 50
333.928157124005
 51
350.7368896666872
1001
GENIUS_GENOBJ-N-FIL_13
1002
{
1000
OWNER
1000
GEN
1002
}
1001
GENIUS_GENODEF_13
1002
{
1000
HIER
1070
     0
1002
}
1002
{
1000
MANEDIT
1070
     0
1002
}
1002
{
1000
NOSEL
1070
     0
1002
}
1002
{
1000
BEHIND
1070
     0
1002
}
1002
{
1000
OTHER
1070
     0
1002
}
1002
{
1000
REACTOR
1002
}
  0
LINE
  5
15F1
330
15E3
100
AcDbEntity
  8
AM_0
100
AcDbLine
 10
-56.43303443931866
 20
74.70536616271886
 30
0.0
 11
-57.32718248544061
 21
72.87791030203166
 31
0.0
  0
ARC
  5
15F2
330
15E3
100
AcDbEntity
  8
AM_0
100
AcDbCircle
 10
-56.60858755055492
 20
72.52631206603402
 30
0.0
 40
0.8
100
AcDbArc
 50
153.9281571240049
 51
180.0
1001
GENIUS_GENOBJ-N-FIL_13
1002
{
1000
OWNER
1000
GEN
1002
}
1001
GENIUS_GENODEF_13
1002
{
1000
HIER
1070
     0
1002
}
1002
{
1000
MANEDIT
1070
     0
1002
}
1002
{
1000
NOSEL
1070
     0
1002
}
1002
{
1000
BEHIND
1070
     0
1002
}
1002
{
1000
OTHER
1070
     0
1002
}
1002
{
1000
REACTOR
1002
}
  0
LINE
  5
15F3
330
15E3
100
AcDbEntity
  8
AM_0
100
AcDbLine
 10
-41.23858755055489
 20
70.5115349864696
 30
0.0
 11
-41.23858755055486
 21
72.64672504965682
 31
0.0
  0
ARC
  5
15F4
330
15E3
100
AcDbEntity
  8
AM_0
100
AcDbCircle
 10
-42.03858755055491
 20
70.5115349864696
 30
0.0
 40
0.8
100
AcDbArc
 50
270.0
 51
0.0
1001
GENIUS_GENOBJ-N-FIL_13
1002
{
1000
OWNER
1000
GEN
1002
}
1001
GENIUS_GENODEF_13
1002
{
1000
HIER
1070
     0
1002
}
1002
{
1000
MANEDIT
1070
     0
1002
}
1002
{
1000
NOSEL
1070
     0
1002
}
1002
{
1000
BEHIND
1070
     0
1002
}
1002
{
1000
OTHER
1070
     0
1002
}
1002
{
1000
REACTOR
1002
}
  0
LINE
  5
15F5
330
15E3
100
AcDbEntity
  8
AM_0
100
AcDbLine
 10
-41.23858755055489
 20
72.71153498646961
 30
0.0
 11
-40.91511337478716
 21
74.69488029774618
 31
0.0
  0
ARC
  5
15F6
330
15E3
100
AcDbEntity
  8
AM_0
100
AcDbCircle
 10
-40.12554572690548
 20
74.5661055742226
 30
0.0
 40
0.8
100
AcDbArc
 50
153.9281571240058
 51
170.7368896666872
1001
GENIUS_GENOBJ-N-FIL_13
1002
{
1000
OWNER
1000
GEN
1002
}
1001
GENIUS_GENODEF_13
1002
{
1000
HIER
1070
     0
1002
}
1002
{
1000
MANEDIT
1070
     0
1002
}
1002
{
1000
NOSEL
1070
     0
1002
}
1002
{
1000
BEHIND
1070
     0
1002
}
1002
{
1000
OTHER
1070
     0
1002
}
1002
{
1000
REACTOR
1002
}
  0
ARC
  5
15F7
330
15E3
100
AcDbEntity
  8
AM_0
100
AcDbCircle
 10
-40.43858755055485
 20
72.64672504965682
 30
0.0
 40
0.8
100
AcDbArc
 50
170.7368896666872
 51
180.0
1001
GENIUS_GENODEF_13
1002
{
1000
HIER
1070
     0
1002
}
1002
{
1000
MANEDIT
1070
     0
1002
}
1002
{
1000
NOSEL
1070
     0
1002
}
1002
{
1000
BEHIND
1070
     0
1002
}
1002
{
1000
OTHER
1070
     0
1002
}
1002
{
1000
REACTOR
1002
}
1001
GENIUS_GENOBJ-N-FIL_13
1002
{
1000
OWNER
1000
GEN
1002
}
  0
LINE
  5
15F8
330
15E3
100
AcDbEntity
  8
AM_0
100
AcDbLine
 10
-40.84414066179117
 20
74.91770381022025
 30
0.0
 11
-39.94999261566924
 21
76.74515967090741
 31
0.0
  0
CIRCLE
  5
15F9
330
15E3
100
AcDbEntity
  8
AM_0
100
AcDbCircle
 10
-48.6385875505551
 20
74.81153498646958
 30
0.0
 40
3.0
  0
ENDBLK
  5
15FA
330
15E3
100
AcDbEntity
  8
0
100
AcDbBlockEnd
  0
ENDSEC
  0
SECTION
  2
ENTITIES
  0
LINE
  5
72D
330
1F
100
AcDbEntity
  8
AM_7
100
AcDbLine
 10
4.200864177107598
 20
-0.0014213562374712
 30
0.0
 11
-123.7133113500695
 21
-0.0014213562374708
 31
0.0
1001
GENIUS_GENODEF_13
1002
{
1000
HIER
1070
     0
1002
}
1002
{
1000
MANEDIT
1070
     0
1002
}
1002
{
1000
NOSEL
1070
     0
1002
}
1002
{
1000
BEHIND
1070
     0
1002
}
1002
{
1000
OTHER
1070
     0
1002
}
1002
{
1000
REACTOR
1002
}
1001
GENIUS_GENOBJ-N-CEN_13
1002
{
1000
OWNER
1000
GEN
1002
}
1001
GENIUS_GENCEN_19
1002
{
1040
2.794
1002
}
  0
DIMENSION
  5
78A
330
1F
100
AcDbEntity
  8
AM_5
100
AcDbDimension
  2
*D3
 10
-40.00005562499272
 20
-45.6018652981636
 30
0.0
 11
-80.00005562499273
 21
-42.90186529816359
 31
0.0
 70
    32
 71
     5
 42
80.00000000000001
  3
AM_JIS$0
100
AcDbAlignedDimension
 13
-120.0000556249927
 23
-10.27512652668571
 33
0.0
 14
-40.00005562499272
 24
-16.00142135623746
 34
0.0
 50
0.0000000000000509
100
AcDbRotatedDimension
1001
ACAD
1000
DSTYLE
1002
{
1070
   271
1070
     0
1002
}
  0
DIMENSION
  5
7F6
330
1F
100
AcDbEntity
  8
AM_5
100
AcDbDimension
  2
*D4
 10
-131.2309551793317
 20
-16.00142135623704
 30
0.0
 11
-133.931289825001
 21
-0.0014213562370649
 31
0.0
 70
    32
  1
%%c<>
 71
     5
 42
31.99999999999999
  3
AM_JIS$0
100
AcDbAlignedDimension
 13
-118.500055624993
 23
15.99857864376295
 33
0.0
 14
-118.5000556249927
 24
-16.00142135623704
 34
0.0
 50
90.0
100
AcDbRotatedDimension
1001
ACAD
1000
DSTYLE
1002
{
1070
   271
1070
     0
1002
}
  0
DIMENSION
  5
86B
330
1F
100
AcDbEntity
  8
AM_5
100
AcDbDimension
  2
*D5
 10
-120.0000556249927
 20
-53.79431100460555
 30
0.0
 11
-60.0000278124964
 21
-51.09397635893626
 31
0.0
 70
    32
 71
     5
 42
120.0000556249927
  3
AM_JIS$0
100
AcDbAlignedDimension
 13
-0.0000000000000519
 23
-30.5995376475571
 33
0.0
 14
-120.0000556249927
 24
-10.27512652668571
 34
0.0
 50
0.0000000000000509
100
AcDbRotatedDimension
1001
ACAD
1000
DSTYLE
1002
{
1070
   271
1070
     0
1002
}
  0
DIMENSION
  5
8A3
330
1F
100
AcDbEntity
  8
AM_5
100
AcDbDimension
  2
*D6
 10
11.50017807794948
 20
-31.50142135623748
 30
0.0
 11
11.50017807794949
 21
0.207227129283376
 31
0.0
 70
   160
  1
%%c<>
 71
     5
 42
63.0
  3
AM_JIS$0
100
AcDbAlignedDimension
 13
-1.563249321825821
 23
31.49857864376253
 33
0.0
 14
-2.54993361086025
 24
-31.50142135623748
 34
0.0
 50
90.00000000000397
100
AcDbRotatedDimension
1001
ACAD
1000
DSTYLE
1002
{
1070
   144
1040
1.0
1070
   271
1070
     0
1002
}
  0
MTEXT
  5
B1F
330
1F
100
AcDbEntity
  8
AM_6
100
AcDbMText
 10
-71.31848466213182
 20
-61.08658233658901
 30
0.0
 40
3.799999999999999
 41
60.06636689918345
 71
     1
 72
     5
  1
CHE4063R
  7
ACISOTS
 73
     1
 44
1.0
  0
LINE
  5
D13
330
1F
100
AcDbEntity
  8
AM_0
100
AcDbLine
 10
-118.500055624993
 20
15.99857864376281
 30
0.0
 11
-43.00005562499272
 21
15.9985786437625
 31
0.0
1001
GENIUS_GENODEF_13
1002
{
1000
HIER
1070
     0
1002
}
1002
{
1000
MANEDIT
1070
     0
1002
}
1002
{
1000
NOSEL
1070
     0
1002
}
1002
{
1000
BEHIND
1070
     0
1002
}
1002
{
1000
OTHER
1070
     0
1002
}
1002
{
1000
REACTOR
1002
}
1001
GENIUS_GENOBJ-N-CEN_13
1002
{
1000
OWNER
1000
GEN
1002
}
1001
GENIUS_GENCEN_19
1002
{
1040
2.794
1002
}
  0
LINE
  5
D19
330
1F
100
AcDbEntity
  8
AM_0
100
AcDbLine
 10
-118.5667639177245
 20
-16.00142135623746
 30
0.0
 11
-43.00005562499272
 21
-16.00142135623746
 31
0.0
1001
GENIUS_GENODEF_13
1002
{
1000
HIER
1070
     0
1002
}
1002
{
1000
MANEDIT
1070
     0
1002
}
1002
{
1000
NOSEL
1070
     0
1002
}
1002
{
1000
BEHIND
1070
     0
1002
}
1002
{
1000
OTHER
1070
     0
1002
}
1002
{
1000
REACTOR
1002
}
1001
GENIUS_GENOBJ-N-CEN_13
1002
{
1000
OWNER
1000
GEN
1002
}
1001
GENIUS_GENCEN_19
1002
{
1040
2.794
1002
}
  0
LINE
  5
E68
330
1F
100
AcDbEntity
  8
AM_0
100
AcDbLine
 10
-120.0000556249927
 20
14.43187035103077
 30
0.0
 11
-120.0000556249927
 21
-14.56812964896922
 31
0.0
  0
LINE
  5
E6B
330
1F
100
AcDbEntity
  8
AM_0
100
AcDbLine
 10
-118.500055624993
 20
15.92686722211841
 30
0.0
 11
-118.5000556249927
 21
-16.06812964896922
 31
0.0
  0
DIMENSION
  5
F9E
330
1F
100
AcDbEntity
  8
AM_5
100
AcDbDimension
  2
*D8
 10
-0.0000000000000528
 20
-45.6018652981636
 30
0.0
 11
-20.00002781249639
 21
-42.90186529816359
 31
0.0
 70
    32
 71
     5
 42
40.00005562499267
  3
AM_JIS$0
100
AcDbAlignedDimension
 13
-40.00005562499272
 23
-16.00142135623746
 33
0.0
 14
-0.0000000000000518
 24
-30.71008068723279
 34
0.0
100
AcDbRotatedDimension
1001
ACAD
1000
DSTYLE
1002
{
1070
   271
1070
     0
1002
}
  0
LINE
  5
17EE
330
1F
100
AcDbEntity
  8
AM_0
100
AcDbLine
 10
-120.0000556249927
 20
14.43187035103077
 30
0.0
 11
-118.5000556249927
 21
15.93187035103077
 31
0.0
1001
GENIUS_GENODEF_13
1002
{
1000
HIER
1070
     0
1002
}
1002
{
1000
MANEDIT
1070
     0
1002
}
1002
{
1000
NOSEL
1070
     0
1002
}
1002
{
1000
BEHIND
1070
     0
1002
}
1002
{
1000
OTHER
1070
     0
1002
}
1002
{
1000
REACTOR
1002
}
1001
GENIUS_GENOBJ-N-CEN_13
1002
{
1000
OWNER
1000
GEN
1002
}
1001
GENIUS_GENCEN_19
1002
{
1040
2.794
1002
}
  0
LINE
  5
17EF
330
1F
100
AcDbEntity
  8
AM_0
100
AcDbLine
 10
-120.0000556249927
 20
-14.56812964896922
 30
0.0
 11
-118.5000556249927
 21
-16.06812964896922
 31
0.0
1001
GENIUS_GENODEF_13
1002
{
1000
HIER
1070
     0
1002
}
1002
{
1000
MANEDIT
1070
     0
1002
}
1002
{
1000
NOSEL
1070
     0
1002
}
1002
{
1000
BEHIND
1070
     0
1002
}
1002
{
1000
OTHER
1070
     0
1002
}
1002
{
1000
REACTOR
1002
}
1001
GENIUS_GENOBJ-N-CEN_13
1002
{
1000
OWNER
1000
GEN
1002
}
1001
GENIUS_GENCEN_19
1002
{
1040
2.794
1002
}
  0
LINE
  5
18E5
330
1F
100
AcDbEntity
  8
AM_0
100
AcDbLine
 10
-43.00005562499272
 20
15.9985786437625
 30
0.0
 11
-43.00005562499272
 21
-0.0014213562374711
 31
0.0
  0
LINE
  5
18E6
330
1F
100
AcDbEntity
  8
AM_0
100
AcDbLine
 10
-43.00005562499272
 20
15.49857864376254
 30
0.0
 11
-40.00005562499272
 21
15.49857864376253
 31
0.0
  0
LINE
  5
18FA
330
1F
100
AcDbEntity
  8
AM_0
100
AcDbLine
 10
-40.00005562499272
 20
25.84387810538328
 30
0.0
 11
-40.00005562499272
 21
-0.0014213562374711
 31
0.0
  0
LINE
  5
1921
330
1F
100
AcDbEntity
  8
AM_0
100
AcDbLine
 10
-25.60005562499274
 20
27.74421241452535
 30
0.0
 11
-25.60005562499274
 21
29.14857864376253
 31
0.0
  0
LINE
  5
1949
330
1F
100
AcDbEntity
  8
AM_0
100
AcDbLine
 10
-19.66998255090637
 20
30.64857864376253
 30
0.0
 11
-24.10005562499274
 21
30.64857864376253
 31
0.0
  0
LINE
  5
194A
330
1F
100
AcDbEntity
  8
AM_0
100
AcDbLine
 10
-25.60005562499274
 20
29.14857864376253
 30
0.0
 11
-24.10005562499274
 21
30.64857864376253
 31
0.0
  0
LINE
  5
194C
330
1F
100
AcDbEntity
  8
AM_0
100
AcDbLine
 10
-43.00005562499272
 20
-16.00142135623744
 30
0.0
 11
-43.00005562499272
 21
-0.0014213562374696
 31
0.0
  0
LINE
  5
194D
330
1F
100
AcDbEntity
  8
AM_0
100
AcDbLine
 10
-43.00005562499272
 20
-15.50142135623748
 30
0.0
 11
-40.00005562499272
 21
-15.50142135623747
 31
0.0
  0
LINE
  5
194E
330
1F
100
AcDbEntity
  8
AM_0
100
AcDbLine
 10
-40.00005562499272
 20
-25.84672081785821
 30
0.0
 11
-40.00005562499271
 21
15.49857864376253
 31
0.0
  0
ARC
  5
194F
330
1F
100
AcDbEntity
  8
AM_0
100
AcDbCircle
 10
-38.00005562499272
 20
-25.84672081785821
 30
0.0
 40
2.0
100
AcDbArc
 50
180.0
 51
240.0
  0
LINE
  5
1950
330
1F
100
AcDbEntity
  8
AM_0
100
AcDbLine
 10
-39.00005562499273
 20
-27.57877162542709
 30
0.0
 11
-36.70915909061186
 21
-28.90142135623747
 31
0.0
  0
LINE
  5
1951
330
1F
100
AcDbEntity
  8
AM_0
100
AcDbLine
 10
-36.70915909061186
 20
-28.90142135623746
 30
0.0
 11
-29.80005562499273
 21
-28.90142135623746
 31
0.0
  0
LINE
  5
1952
330
1F
100
AcDbEntity
  8
AM_0
100
AcDbLine
 10
-29.80005562499273
 20
-28.90142135623747
 30
0.0
 11
-29.80005562499269
 21
22.03411220945087
 31
0.0
  0
LINE
  5
1953
330
1F
100
AcDbEntity
  8
AM_0
100
AcDbLine
 10
-29.80005562499273
 20
-24.00142135623748
 30
0.0
 11
-25.80005562499273
 21
-24.00142135623748
 31
0.0
  0
LINE
  5
1954
330
1F
100
AcDbEntity
  8
AM_0
100
AcDbLine
 10
-25.80005562499264
 20
16.39857864376253
 30
0.0
 11
-25.80005562499274
 21
-28.95142135623747
 31
0.0
  0
LINE
  5
1955
330
1F
100
AcDbEntity
  8
AM_0
100
AcDbLine
 10
-16.93062623372075
 20
-29.60142135623748
 30
0.0
 11
-1.500055624992729
 21
-28.25142135623747
 31
0.0
  0
LINE
  5
1956
330
1F
100
AcDbEntity
  8
AM_0
100
AcDbLine
 10
-1.500055624992724
 20
-28.25142135623747
 30
0.0
 11
-1.500055624992749
 21
-0.0014213562374703
 31
0.0
  0
LINE
  5
1957
330
1F
100
AcDbEntity
  8
AM_0
100
AcDbLine
 10
-16.93062623372076
 20
-29.60142135623748
 30
0.0
 11
-25.15005562499273
 21
-29.60142135623747
 31
0.0
  0
LINE
  5
1958
330
1F
100
AcDbEntity
  8
AM_0
100
AcDbLine
 10
-25.80005562499274
 20
-28.95142135623747
 30
0.0
 11
-25.15005562499273
 21
-29.60142135623747
 31
0.0
  0
LINE
  5
1A24
330
1F
100
AcDbEntity
  8
AM_0
100
AcDbLine
 10
-4.019245624992738
 20
22.43058964376253
 30
0.0
 11
-11.18044362499273
 21
22.43058964376253
 31
0.0
  0
LINE
  5
1A25
330
1F
100
AcDbEntity
  8
AM_0
100
AcDbLine
 10
-1.709844624992737
 20
26.43058964376253
 30
0.0
 11
-13.48984462499274
 21
26.43058964376253
 31
0.0
  0
LINE
  5
1A26
330
1F
100
AcDbEntity
  8
AM_0
100
AcDbLine
 10
-11.18044362499273
 20
22.43058964376253
 30
0.0
 11
-13.48984462499274
 21
26.43058964376253
 31
0.0
  0
LINE
  5
1A27
330
1F
100
AcDbEntity
  8
AM_0
100
AcDbLine
 10
-1.709844624992737
 20
26.43058964376253
 30
0.0
 11
-4.019245624992738
 21
22.43058964376253
 31
0.0
  0
LINE
  5
1A28
330
1F
100
AcDbEntity
  8
AM_0
100
AcDbLine
 10
-18.71240162499274
 20
24.30994964376253
 30
0.0
 11
-18.33861621395897
 21
16.39857864376253
 31
0.0
  0
LINE
  5
1A29
330
1F
100
AcDbEntity
  8
AM_0
100
AcDbLine
 10
-18.58046262499273
 20
24.39677364376253
 30
0.0
 11
-18.71240162499274
 21
24.30994964376253
 31
0.0
  0
LINE
  5
1A2A
330
1F
100
AcDbEntity
  8
AM_0
100
AcDbLine
 10
-15.57022962499273
 20
16.39857864376252
 30
0.0
 11
-15.57022962499273
 21
26.37769164376253
 31
0.0
  0
LINE
  5
1A2C
330
1F
100
AcDbEntity
  8
AM_0
100
AcDbLine
 10
-15.57022962499273
 20
26.37769164376253
 30
0.0
 11
-15.62178462499274
 21
26.34376564376253
 31
0.0
  0
LINE
  5
1A2F
330
1F
100
AcDbEntity
  8
AM_0
100
AcDbLine
 10
-13.45930462499273
 20
26.37769164376253
 30
0.0
 11
-15.57022962499273
 21
26.37769164376253
 31
0.0
  0
LINE
  5
1A30
330
1F
100
AcDbEntity
  8
AM_0
100
AcDbLine
 10
0.2875983750072635
 20
26.37769164376253
 30
0.0
 11
-1.740385624992736
 21
26.37769164376253
 31
0.0
  0
LINE
  5
1A31
330
1F
100
AcDbEntity
  8
AM_0
100
AcDbLine
 10
-16.15287562499274
 20
24.39677364376253
 30
0.0
 11
-18.58046262499273
 21
24.39677364376253
 31
0.0
  0
LINE
  5
1A32
330
1F
100
AcDbEntity
  8
AM_0
100
AcDbLine
 10
-23.73972362499273
 20
22.65764964376252
 30
0.0
 11
-23.73972362499273
 21
16.39857864376252
 31
0.0
  0
LINE
  5
1A33
330
1F
100
AcDbEntity
  8
AM_0
100
AcDbLine
 10
-23.73972362499273
 20
16.39857864376252
 30
0.0
 11
-26.08087162499274
 21
16.39857864376252
 31
0.0
  0
LINE
  5
1A34
330
1F
100
AcDbEntity
  8
AM_0
100
AcDbLine
 10
-26.08087162499274
 20
16.39857864376252
 30
0.0
 11
-26.08087162499274
 21
21.06268364376253
 31
0.0
  0
LINE
  5
1A36
330
1F
100
AcDbEntity
  8
AM_0
100
AcDbLine
 10
-17.07609562499273
 20
28.60958964376253
 30
0.0
 11
-15.76074062499273
 21
28.83544464376253
 31
0.0
  0
LINE
  5
1A37
330
1F
100
AcDbEntity
  8
AM_0
100
AcDbLine
 10
-15.76074062499273
 20
28.83544464376253
 30
0.0
 11
-15.71990662499274
 21
28.83687064376253
 31
0.0
  0
LINE
  5
1A38
330
1F
100
AcDbEntity
  8
AM_0
100
AcDbLine
 10
-15.71990662499274
 20
28.83687064376253
 30
0.0
 11
-14.94714062499274
 21
28.43070164376253
 31
0.0
  0
LINE
  5
1A39
330
1F
100
AcDbEntity
  8
AM_0
100
AcDbLine
 10
-13.66427662499274
 20
26.37769164376253
 30
0.0
 11
-14.94714062499274
 21
28.43070164376253
 31
0.0
  0
LINE
  5
1A3A
330
1F
100
AcDbEntity
  8
AM_0
100
AcDbLine
 10
-17.07609562499273
 20
28.60958964376253
 30
0.0
 11
-15.63084962499273
 21
26.29671364376253
 31
0.0
  0
LINE
  5
1A3C
330
1F
100
AcDbEntity
  8
AM_0
100
AcDbLine
 10
-15.76074062499273
 20
28.83544464376253
 30
0.0
 11
-15.78867962499274
 21
28.83446864376253
 31
0.0
  0
LINE
  5
1A3D
330
1F
100
AcDbEntity
  8
AM_0
100
AcDbLine
 10
-17.07609562499273
 20
28.60958964376253
 30
0.0
 11
-27.15613562499274
 21
27.58623464376253
 31
0.0
  0
LINE
  5
1A3E
330
1F
100
AcDbEntity
  8
AM_0
100
AcDbLine
 10
-27.55805862499274
 20
27.55382064376253
 30
0.0
 11
-27.15613562499274
 21
27.58623464376253
 31
0.0
  0
LINE
  5
1A3F
330
1F
100
AcDbEntity
  8
AM_0
100
AcDbLine
 10
-15.78867962499274
 20
28.83446864376253
 30
0.0
 11
-27.55805862499274
 21
27.55382064376253
 31
0.0
  0
LINE
  5
1A40
330
1F
100
AcDbEntity
  8
AM_0
100
AcDbLine
 10
-1.098638624992737
 20
26.37769164376253
 30
0.0
 11
-0.2241756249927356
 21
28.02231664376253
 31
0.0
  0
LINE
  5
1A41
330
1F
100
AcDbEntity
  8
AM_0
100
AcDbLine
 10
-0.2241756249927356
 20
28.02231664376253
 30
0.0
 11
0.3653133750072648
 21
27.42537464376253
 31
0.0
  0
LINE
  5
1A42
330
1F
100
AcDbEntity
  8
AM_0
100
AcDbLine
 10
0.2875983750072635
 20
25.34102264376253
 30
0.0
 11
0.3653133750072648
 21
25.48718364376253
 31
0.0
  0
LINE
  5
1A43
330
1F
100
AcDbEntity
  8
AM_0
100
AcDbLine
 10
0.3653133750072648
 20
27.42537464376253
 30
0.0
 11
0.3653133750072648
 21
25.48718364376253
 31
0.0
  0
LINE
  5
1A44
330
1F
100
AcDbEntity
  8
AM_0
100
AcDbLine
 10
-23.73972362499273
 20
16.39857864376252
 30
0.0
 11
-10.18468662499273
 21
16.39857864376252
 31
0.0
  0
LINE
  5
1A45
330
1F
100
AcDbEntity
  8
AM_0
100
AcDbLine
 10
-24.25736162499274
 20
23.14173964376253
 30
0.0
 11
-27.15613562499274
 21
23.00944864376253
 31
0.0
  0
LINE
  5
1A46
330
1F
100
AcDbEntity
  8
AM_0
100
AcDbLine
 10
-27.15613562499274
 20
27.58623464376253
 30
0.0
 11
-27.15613562499274
 21
23.00944864376253
 31
0.0
  0
LINE
  5
1A47
330
1F
100
AcDbEntity
  8
AM_0
100
AcDbLine
 10
-10.18468662499273
 20
16.43058964376253
 30
0.0
 11
-10.18468662499273
 21
16.39857864376252
 31
0.0
  0
LINE
  5
1A48
330
1F
100
AcDbEntity
  8
AM_0
100
AcDbLine
 10
-27.15613562499274
 20
23.00944864376253
 30
0.0
 11
-29.11097362499274
 21
22.66475764376253
 31
0.0
  0
LINE
  5
1A49
330
1F
100
AcDbEntity
  8
AM_0
100
AcDbLine
 10
-29.11097362499274
 20
22.66475764376253
 30
0.0
 11
-29.11097362499274
 21
26.59833164376253
 31
0.0
  0
LINE
  5
1A4A
330
1F
100
AcDbEntity
  8
AM_0
100
AcDbLine
 10
-29.11097362499274
 20
26.59833164376253
 30
0.0
 11
-27.55805862499274
 21
27.55382064376253
 31
0.0
  0
LINE
  5
1A4B
330
1F
100
AcDbEntity
  8
AM_0
100
AcDbLine
 10
-30.00005562499274
 20
22.05904864376253
 30
0.0
 11
-26.48912062499274
 21
21.62129764376253
 31
0.0
  0
LINE
  5
1A4C
330
1F
100
AcDbEntity
  8
AM_0
100
AcDbLine
 10
-29.11097362499274
 20
22.66475764376253
 30
0.0
 11
-30.00005562499274
 21
22.05904864376253
 31
0.0
  0
LINE
  5
1A4D
330
1F
100
AcDbEntity
  8
AM_0
100
AcDbLine
 10
-4.184686624992735
 20
16.39857864376252
 30
0.0
 11
0.3653133750072648
 21
16.39857864376252
 31
0.0
  0
LINE
  5
1A4E
330
1F
100
AcDbEntity
  8
AM_0
100
AcDbLine
 10
-4.184686624992735
 20
16.43058964376253
 30
0.0
 11
-4.184686624992735
 21
16.39857864376252
 31
0.0
  0
LINE
  5
1A4F
330
1F
100
AcDbEntity
  8
AM_0
100
AcDbLine
 10
0.3653133750072648
 20
25.48718364376253
 30
0.0
 11
0.3653133750072648
 21
16.39857864376252
 31
0.0
  0
LINE
  5
1A50
330
1F
100
AcDbEntity
  8
AM_0
100
AcDbLine
 10
-30.00005562499274
 20
22.05904864376253
 30
0.0
 11
-30.00005562499274
 21
24.76176864376253
 31
0.0
  0
LINE
  5
1A51
330
1F
100
AcDbEntity
  8
AM_0
100
AcDbLine
 10
-29.11097362499274
 20
26.59833164376253
 30
0.0
 11
-30.00005562499274
 21
24.76176864376253
 31
0.0
  0
LINE
  5
1A52
330
1F
100
AcDbEntity
  8
AM_0
100
AcDbLine
 10
-12.83395062499273
 20
28.93765064376253
 30
0.0
 11
-1.259451624992735
 21
29.34184064376253
 31
0.0
  0
LINE
  5
1A53
330
1F
100
AcDbEntity
  8
AM_0
100
AcDbLine
 10
-0.2241756249927356
 20
28.37738364376253
 30
0.0
 11
-1.259451624992735
 21
29.34184064376253
 31
0.0
  0
LINE
  5
1A54
330
1F
100
AcDbEntity
  8
AM_0
100
AcDbLine
 10
-0.2241756249927356
 20
28.37738364376253
 30
0.0
 11
-0.2241756249927356
 21
28.02231664376253
 31
0.0
  0
LINE
  5
1A55
330
1F
100
AcDbEntity
  8
AM_0
100
AcDbLine
 10
-12.83395062499273
 20
28.93765064376253
 30
0.0
 11
-14.94714062499274
 21
28.43070164376253
 31
0.0
  0
LINE
  5
1A56
330
1F
100
AcDbEntity
  8
AM_0
100
AcDbLine
 10
-10.18468662499273
 20
16.39857864376252
 30
0.0
 11
-4.184686624992735
 21
16.39857864376252
 31
0.0
  0
SPLINE
  5
1A6E
330
1F
100
AcDbEntity
  8
AM_0
100
AcDbSpline
210
0.0
220
0.0
230
1.0
 70
     8
 71
     3
 72
    11
 73
     7
 74
     5
 42
0.0000000001
 43
0.0000000001
 44
0.0000000001
 40
0.0
 40
0.0
 40
0.0
 40
0.0
 40
0.665622953944647
 40
1.199621285065636
 40
1.613232731006146
 40
1.947100173027677
 40
1.947100173027677
 40
1.947100173027677
 40
1.947100173027677
 10
-18.58046262499273
 20
24.39677364376253
 30
0.0
 10
-18.49419596415374
 20
24.19138336390698
 30
0.0
 10
-18.33872157445502
 20
23.82121801729424
 30
0.0
 10
-18.0430982900746
 20
23.37437308836153
 30
0.0
 10
-17.72775740769816
 20
23.05896155595905
 30
0.0
 10
-17.47815606649101
 20
23.01176456044902
 30
0.0
 10
-17.36666962499274
 20
22.99068364376253
 30
0.0
 11
-18.58046262499273
 21
24.39677364376253
 31
0.0
 11
-18.30184962499274
 21
23.79226664376253
 31
0.0
 11
-18.00213162499274
 21
23.35031264376253
 31
0.0
 11
-17.68802862499274
 21
23.08121464376253
 31
0.0
 11
-17.36666962499274
 21
22.99068364376253
 31
0.0
  0
SPLINE
  5
1A6F
330
1F
100
AcDbEntity
  8
AM_0
100
AcDbSpline
210
0.0
220
0.0
230
1.0
 70
     8
 71
     3
 72
    11
 73
     7
 74
     5
 42
0.0000000001
 43
0.0000000001
 44
0.0000000001
 40
0.0
 40
0.0
 40
0.0
 40
0.0
 40
0.5527503366846584
 40
1.368774888331237
 40
2.511868401507652
 40
3.955912621208004
 40
3.955912621208004
 40
3.955912621208004
 40
3.955912621208004
 10
-17.36666962499274
 20
22.99068364376253
 30
0.0
 10
-17.18690809674475
 20
23.05054203890846
 30
0.0
 10
-16.74176487488858
 20
23.19876929938012
 30
0.0
 10
-16.3123000698403
 20
23.98266174698298
 30
0.0
 10
-15.90212089703808
 20
25.02113689813452
 30
0.0
 10
-15.7222062824574
 20
25.86997547070605
 30
0.0
 10
-15.62178462499274
 20
26.34376564376253
 30
0.0
 11
-17.36666962499274
 21
22.99068364376253
 31
0.0
 11
-16.86181362499273
 21
23.21574664376253
 31
0.0
 11
-16.38536662499274
 21
23.87823764376253
 31
0.0
 11
-15.96414562499274
 21
24.94089264376253
 31
0.0
 11
-15.62178462499274
 21
26.34376564376253
 31
0.0
  0
SPLINE
  5
1A70
330
1F
100
AcDbEntity
  8
AM_0
100
AcDbSpline
210
0.0
220
0.0
230
1.0
 70
     8
 71
     3
 72
    11
 73
     7
 74
     5
 42
0.0000000001
 43
0.0000000001
 44
0.0000000001
 40
0.0
 40
0.0
 40
0.0
 40
0.0
 40
0.2003073796443853
 40
0.3969099540171538
 40
0.5919647858414358
 40
0.7884658612583471
 40
0.7884658612583471
 40
0.7884658612583471
 40
0.7884658612583471
 10
-24.25736162499274
 20
23.14173964376253
 30
0.0
 10
-24.18977850565998
 20
23.13733285232302
 30
0.0
 10
-24.05586225737037
 20
23.12860077569796
 30
0.0
 10
-23.88338470258318
 20
23.01917976133809
 30
0.0
 10
-23.76272629617373
 20
22.85535307742836
 30
0.0
 10
-23.74741003933322
 20
22.7237128629311
 30
0.0
 10
-23.73972362499273
 20
22.65764964376252
 30
0.0
 11
-24.25736162499274
 21
23.14173964376253
 31
0.0
 11
-24.05926562499274
 21
23.11205764376253
 31
0.0
 11
-23.89144262499273
 21
23.00964664376253
 31
0.0
 11
-23.77915562499274
 21
22.85015364376253
 31
0.0
 11
-23.73972362499273
 21
22.65764964376252
 31
0.0
  0
SPLINE
  5
1A71
330
1F
100
AcDbEntity
  8
AM_0
100
AcDbSpline
210
0.0
220
0.0
230
1.0
 70
     8
 71
     3
 72
    11
 73
     7
 74
     5
 42
0.0000000001
 43
0.0000000001
 44
0.0000000001
 40
0.0
 40
0.0
 40
0.0
 40
0.0
 40
0.2006066136945647
 40
0.3973090888010048
 40
0.5804735083616855
 40
0.7471885209220435
 40
0.7471885209220435
 40
0.7471885209220435
 40
0.7471885209220435
 10
-26.08087162499274
 20
21.06268364376253
 30
0.0
 10
-26.08698970823381
 20
21.12989884310061
 30
0.0
 10
-26.09910680663326
 20
21.26302112212602
 30
0.0
 10
-26.19000898440616
 20
21.43763634590906
 30
0.0
 10
-26.32058099312375
 20
21.57423187519386
 30
0.0
 10
-26.43472962808358
 20
21.60610861051048
 30
0.0
 10
-26.48912062499274
 20
21.62129764376253
 30
0.0
 11
-26.08087162499274
 21
21.06268364376253
 31
0.0
 11
-26.11199862499274
 21
21.26086064376253
 31
0.0
 11
-26.20051062499273
 21
21.43652364376253
 31
0.0
 11
-26.33288762499274
 21
21.56311564376253
 31
0.0
 11
-26.48912062499274
 21
21.62129764376253
 31
0.0
  0
LINE
  5
1A8B
330
1F
100
AcDbEntity
  8
AM_0
100
AcDbLine
 10
-0.8000556249927299
 20
31.49857864376253
 30
0.0
 11
-18.19027506246144
 21
31.49857864376253
 31
0.0
  0
LINE
  5
1A8C
330
1F
100
AcDbEntity
  8
AM_0
100
AcDbLine
 10
-19.74717032430067
 20
29.73770041577465
 30
0.0
 11
-19.02253044442671
 21
28.48258732664235
 31
0.0
  0
ARC
  5
1B5B
330
1F
100
AcDbEntity
  8
AM_0
100
AcDbCircle
 10
-0.8000556249927299
 20
30.69857864376253
 30
0.0
 40
0.8
100
AcDbArc
 50
357.8333299999986
 51
89.99999999999992
  0
LINE
  5
1B5C
330
1F
100
AcDbEntity
  8
AM_0
100
AcDbLine
 10
-0.0006275624129515
 20
30.66833343323415
 30
0.0
 11
-0.0535379775039431
 21
29.26982868198416
 31
0.0
  0
ARC
  5
1B5D
330
1F
100
AcDbEntity
  8
AM_0
100
AcDbCircle
 10
-19.05435000127307
 20
30.13770041577468
 30
0.0
 40
0.8
100
AcDbArc
 50
117.8333299999985
 51
210.0
  0
LINE
  5
1B5E
330
1F
100
AcDbEntity
  8
AM_0
100
AcDbLine
 10
-19.42787091190259
 20
30.84514803173116
 30
0.0
 11
-18.19027506246135
 21
31.49857864376257
 31
0.0
  0
LINE
  5
1BBD
330
1F
100
AcDbEntity
  8
AM_0
100
AcDbLine
 10
-0.4482640401966194
 20
28.58614308632885
 30
0.0
 11
-0.053537977503936
 21
29.26982868198419
 31
0.0
  0
LINE
  5
1BBF
330
1F
100
AcDbEntity
  8
AM_0
100
AcDbLine
 10
-1.500055624992734
 20
16.39857864376252
 30
0.0
 11
-1.500055624992749
 21
-0.0014213562374703
 31
0.0
  0
LINE
  5
1BC1
330
1F
100
AcDbEntity
  8
AM_3
 48
0.3
100
AcDbLine
 10
-8.748592071245607
 20
-14.21229958422538
 30
0.0
 11
-1.500055624992729
 21
-26.76713298965006
 31
0.0
  0
ARC
  5
1BC2
330
1F
100
AcDbEntity
  8
AM_3
 48
0.3
100
AcDbCircle
 10
-9.441412394273157
 20
-14.61229958422537
 30
0.0
 40
0.8
100
AcDbArc
 50
30.00000000000008
 51
122.1666700000014
  0
LINE
  5
1BC3
330
1F
100
AcDbEntity
  8
AM_0
100
AcDbLine
 10
-0.800000000000054
 20
-31.50142135623748
 30
0.0
 11
-18.19021943746876
 21
-31.50142135623748
 31
0.0
  0
LINE
  5
1BC4
330
1F
100
AcDbEntity
  8
AM_3
 48
0.3
100
AcDbLine
 10
-19.74711469930799
 20
-29.74054312824959
 30
0.0
 11
-17.39515072446249
 21
-25.66682202624555
 31
0.0
  0
LINE
  5
1BC5
330
1F
100
AcDbEntity
  8
AM_3
 48
0.3
100
AcDbLine
 10
-12.44883472634865
 20
-17.09955140722161
 30
0.0
 11
-11.05200498057368
 21
-14.68017131801585
 31
0.0
  0
LINE
  5
1BC6
330
1F
100
AcDbEntity
  8
AM_3
 48
0.3
100
AcDbLine
 10
-9.867319546223438
 20
-13.93509717879728
 30
0.0
 11
-11.05200498057367
 21
-14.68017131801586
 31
0.0
  0
LINE
  5
1BC7
330
1F
100
AcDbEntity
  8
AM_3
 48
0.3
100
AcDbLine
 10
-17.39515072446249
 20
-25.66682202624555
 30
0.0
 11
-12.44883472634865
 21
-17.09955140722161
 31
0.0
  0
ARC
  5
1BC8
330
1F
100
AcDbEntity
  8
AM_0
100
AcDbCircle
 10
-0.800000000000054
 20
-30.70142135623747
 30
0.0
 40
0.8
100
AcDbArc
 50
270.0000000000001
 51
2.166670000001469
  0
LINE
  5
1BC9
330
1F
100
AcDbEntity
  8
AM_0
100
AcDbLine
 10
-0.0005719374202755
 20
-30.6711761457091
 30
0.0
 11
-0.0534823525112671
 21
-29.27267139445911
 31
0.0
  0
ARC
  5
1BCA
330
1F
100
AcDbEntity
  8
AM_0
100
AcDbCircle
 10
-19.05429437628039
 20
-30.14054312824962
 30
0.0
 40
0.8
100
AcDbArc
 50
150.0
 51
219.6873391492556
  0
LINE
  5
1BCB
330
1F
100
AcDbEntity
  8
AM_0
100
AcDbLine
 10
-19.42781528690991
 20
-30.8479907442061
 30
0.0
 11
-18.19021943746868
 21
-31.50142135623752
 31
0.0
  0
ARC
  5
1BF5
330
1F
100
AcDbEntity
  8
AM_0
100
AcDbCircle
 10
-19.05429437628039
 20
-30.14054312824962
 30
0.0
 40
0.8
100
AcDbArc
 50
219.6873391492556
 51
242.1666700000015
  0
LINE
  5
1BF6
330
1F
100
AcDbEntity
  8
AM_0
100
AcDbLine
 10
-1.500055624992729
 20
-26.76713298965006
 30
0.0
 11
-0.05348235251126
 21
-29.27267139445914
 31
0.0
  0
LINE
  5
1D58
330
1F
100
AcDbEntity
  8
AM_0
100
AcDbLine
 10
-19.74711469930799
 20
-29.74054312824959
 30
0.0
 11
-19.66679270678666
 21
-29.60142135623748
 31
0.0
  0
ARC
  5
1D59
330
1F
100
AcDbEntity
  8
AM_0
100
AcDbCircle
 10
-38.00005562499272
 20
25.84387810538328
 30
0.0
 40
2.0
100
AcDbArc
 50
120.0
 51
180.0
  0
LINE
  5
1D5A
330
1F
100
AcDbEntity
  8
AM_0
100
AcDbLine
 10
-39.00005562499273
 20
27.57592891295215
 30
0.0
 11
-36.70915909061186
 21
28.89857864376253
 31
0.0
  0
LINE
  5
1D5B
330
1F
100
AcDbEntity
  8
AM_0
100
AcDbLine
 10
-36.70915909061186
 20
28.89857864376253
 30
0.0
 11
-29.80005562499273
 21
28.89857864376253
 31
0.0
  0
LINE
  5
1D5C
330
1F
100
AcDbEntity
  8
AM_0
100
AcDbLine
 10
-29.80005562499273
 20
28.89857864376253
 30
0.0
 11
-29.80005562499273
 21
25.17490556476648
 31
0.0
  0
LINE
  5
1D8C
330
1F
100
AcDbEntity
  8
AM_0
100
AcDbLine
 10
-36.70915909061186
 20
-28.90142135623746
 30
0.0
 11
-36.70915909061186
 21
28.89857864376253
 31
0.0
  0
ENDSEC
  0
SECTION
  2
OBJECTS
  0
DICTIONARY
  5
C
330
0
100
AcDbDictionary
281
     1
  3
ACAD_COLOR
350
BE
  3
ACAD_GROUP
350
D
  3
ACAD_LAYOUT
350
1A
  3
ACAD_MATERIAL
350
BD
  3
ACAD_MLINESTYLE
350
17
  3
ACAD_PLOTSETTINGS
350
19
  3
ACAD_PLOTSTYLENAME
350
E
  3
ACAD_TABLESTYLE
350
11A
  3
AcDbVariableDictionary
350
94
  3
AcmDictionary
350
5B
  3
AMG
350
41
  3
AMGSNAPSETTINGS
350
1B8
  0
DICTIONARY
  5
34B
330
2
100
AcDbDictionary
280
     1
281
     1
  3
AMLAYER_GROUPCOLORS
360
34C
  0
DICTIONARY
  5
8F
330
1F
100
AcDbDictionary
280
     1
281
     1
  3
ACAD_SORTENTS
360
7DB
  0
DICTIONARY
  5
BE
102
{ACAD_REACTORS
330
C
102
}
330
C
100
AcDbDictionary
281
     1
  0
DICTIONARY
  5
D
102
{ACAD_REACTORS
330
C
102
}
330
C
100
AcDbDictionary
281
     1
  0
DICTIONARY
  5
1A
102
{ACAD_REACTORS
330
C
102
}
330
C
100
AcDbDictionary
281
     1
  3
\M+1838C\M+18343\M+18341\M+18345\M+183671
350
1E
  3
\M+1838C\M+18343\M+18341\M+18345\M+183672
350
26
  3
Model
350
22
  0
DICTIONARY
  5
BD
102
{ACAD_REACTORS
330
C
102
}
330
C
100
AcDbDictionary
281
     1
  0
DICTIONARY
  5
17
102
{ACAD_REACTORS
330
C
102
}
330
C
100
AcDbDictionary
281
     1
  3
Standard
350
18
  0
DICTIONARY
  5
19
102
{ACAD_REACTORS
330
C
102
}
330
C
100
AcDbDictionary
281
     1
  0
ACDBDICTIONARYWDFLT
  5
E
102
{ACAD_REACTORS
330
C
102
}
330
C
100
AcDbDictionary
281
     1
  3
Normal
350
F
100
AcDbDictionaryWithDefault
340
F
  0
DICTIONARY
  5
11A
102
{ACAD_REACTORS
330
C
102
}
330
C
100
AcDbDictionary
281
     1
  3
Standard
350
11B
  0
DICTIONARY
  5
94
102
{ACAD_REACTORS
330
C
102
}
330
C
100
AcDbDictionary
281
     1
  3
CTABLESTYLE
350
138
  3
DIMASSOC
350
96
  3
INDEXCTL
350
95
  0
DICTIONARY
  5
5B
102
{ACAD_REACTORS
330
C
102
}
330
C
100
AcDbDictionary
281
     1
  3
AcmBOM
350
1B5
  3
AcmStdDictionary
350
61
  3
AMDTSECTSYM_ARROWCOLOR
350
123
  0
DICTIONARY
  5
41
102
{ACAD_REACTORS
330
C
102
}
330
C
100
AcDbDictionary
281
     1
  0
DICTIONARY
  5
1B8
102
{ACAD_REACTORS
330
C
102
}
330
C
100
AcDbDictionary
281
     1
  0
DICTIONARY
  5
34C
102
{ACAD_REACTORS
330
34B
102
}
330
34B
100
AcDbDictionary
280
     1
281
     1
  0
SORTENTSTABLE
  5
7DB
102
{ACAD_REACTORS
330
8F
102
}
330
8F
100
AcDbSortentsTable
330
1F
331
1A47
  5
1A48
331
1950
  5
1951
331
1A45
  5
1A46
331
194E
  5
194F
331
1A55
  5
1A56
331
194C
  5
194D
331
1A43
  5
1A44
331
18FA
  5
18FA
331
1A53
  5
1A54
331
1A41
  5
1A42
331
194A
  5
194C
331
1A2F
  5
1A30
331
1A51
  5
1A52
331
1A3F
  5
1A40
331
18E6
  5
18E6
331
1A3D
  5
1A3E
331
1A29
  5
1A2A
331
17EE
  5
C8C
331
1A39
  5
1A3A
331
1A27
  5
1A28
331
1A25
  5
1A26
331
E6B
  5
14D2
331
1BF6
  5
1BC2
331
1A37
  5
1A38
331
B1F
  5
1457
331
1A33
  5
1A34
331
1A31
  5
1A32
331
D19
  5
C86
331
7F6
  5
C91
331
1BCA
  5
1BCB
331
1BC8
  5
1BC9
331
1BC6
  5
1BC7
331
D13
  5
C8B
331
1BC4
  5
1BC5
331
1BC2
  5
1BC3
331
78A
  5
C90
331
1A8C
  5
1B5C
331
1B5E
  5
1BB3
331
1B5C
  5
1B5E
331
1A70
  5
1A71
331
1A4E
  5
1A4F
331
1957
  5
1958
331
1A6E
  5
1A6F
331
1A4C
  5
1A4D
331
1955
  5
1956
331
1953
  5
1954
331
1A4A
  5
1A4B
331
1921
  5
1922
331
1A48
  5
1A49
331
1951
  5
1952
331
1A46
  5
1A47
331
194F
  5
1950
331
1A56
  5
1A6E
331
1A44
  5
1A45
331
194D
  5
194E
331
1A54
  5
1A55
331
1A42
  5
1A43
331
F9E
  5
14D3
331
1A52
  5
1A53
331
1A40
  5
1A41
331
1949
  5
194A
331
1A50
  5
1A51
331
1A3E
  5
1A3F
331
1A2C
  5
1A2D
331
18E5
  5
18E5
331
1A3C
  5
1A3D
331
1A2A
  5
1A2B
331
17EF
  5
C88
331
1A3A
  5
1A3B
331
1A28
  5
1A29
331
86B
  5
CB1
331
1A38
  5
1A39
331
1A26
  5
1A27
331
8A3
  5
1456
331
1A24
  5
1A25
331
1BF5
  5
1BD6
331
1A36
  5
1A37
331
E68
  5
1458
331
1A34
  5
1A35
331
1A32
  5
1A33
331
1A30
  5
1A31
331
1BCB
  5
1BE0
331
1BC9
  5
1BCA
331
1BBF
  5
1949
331
1BC7
  5
1BC8
331
1BBD
  5
1A8D
331
1BC5
  5
1BC6
331
72D
  5
730
331
1BC3
  5
1BC4
331
1BC1
  5
1BC1
331
1A8B
  5
1A8E
331
1B5D
  5
1B69
331
1B5B
  5
1B5D
331
1A71
  5
1A8B
331
1A4F
  5
1A50
331
1958
  5
1A24
331
1A6F
  5
1A70
331
1A4D
  5
1A4E
331
1956
  5
1957
331
1954
  5
1955
331
1A4B
  5
1A4C
331
1A49
  5
1A4A
331
1952
  5
1953
  0
LAYOUT
  5
1E
102
{ACAD_REACTORS
330
1A
102
}
330
1A
100
AcDbPlotSettings
  1

  2

  4

  6

 40
0.0
 41
0.0
 42
0.0
 43
0.0
 44
0.0
 45
0.0
 46
0.0
 47
0.0
 48
0.0
 49
0.0
140
0.0
141
0.0
142
1.0
143
1.0
 70
   688
 72
     0
 73
     0
 74
     5
  7
sei_cad.ctb
 75
    16
147
1.0
 76
     0
 77
     2
 78
   300
148
0.0
149
0.0
100
AcDbLayout
  1
\M+1838C\M+18343\M+18341\M+18345\M+183671
 70
     1
 71
     1
 10
0.0
 20
0.0
 11
420.0
 21
297.0
 12
0.0
 22
0.0
 32
0.0
 14
1.000000000000000E+20
 24
1.000000000000000E+20
 34
1.000000000000000E+20
 15
-1.000000000000000E+20
 25
-1.000000000000000E+20
 35
-1.000000000000000E+20
146
0.0
 13
0.0
 23
0.0
 33
0.0
 16
1.0
 26
0.0
 36
0.0
 17
0.0
 27
1.0
 37
0.0
 76
     0
330
1B
  0
LAYOUT
  5
26
102
{ACAD_REACTORS
330
1A
102
}
330
1A
100
AcDbPlotSettings
  1

  2

  4

  6

 40
0.0
 41
0.0
 42
0.0
 43
0.0
 44
0.0
 45
0.0
 46
0.0
 47
0.0
 48
0.0
 49
0.0
140
0.0
141
0.0
142
1.0
143
1.0
 70
   688
 72
     0
 73
     0
 74
     5
  7
sei_cad.ctb
 75
    16
147
1.0
 76
     0
 77
     2
 78
   300
148
0.0
149
0.0
100
AcDbLayout
  1
\M+1838C\M+18343\M+18341\M+18345\M+183672
 70
     1
 71
     2
 10
0.0
 20
0.0
 11
12.0
 21
9.0
 12
0.0
 22
0.0
 32
0.0
 14
0.0
 24
0.0
 34
0.0
 15
0.0
 25
0.0
 35
0.0
146
0.0
 13
0.0
 23
0.0
 33
0.0
 16
1.0
 26
0.0
 36
0.0
 17
0.0
 27
1.0
 37
0.0
 76
     0
330
23
  0
LAYOUT
  5
22
102
{ACAD_REACTORS
330
1A
102
}
330
1A
100
AcDbPlotSettings
  1

  2
SII LP-1010 (C2 VR)2R
  4
A4
  6

 40
3.174999952316284
 41
3.174999952316284
 42
3.175003051757812
 43
3.17498779296875
 44
209.9733276367187
 45
296.9259948730469
 46
0.0
 47
0.0
 48
0.0
 49
0.0
140
0.0
141
0.0
142
1.0
143
1.458575536647462
 70
 11952
 72
     1
 73
     1
 74
     2
  7
sei_cad.ctb
 75
     0
147
0.6856004196385342
 76
     0
 77
     2
 78
   300
148
0.0
149
0.0
100
AcDbLayout
  1
Model
 70
     1
 71
     0
 10
0.0
 20
0.0
 11
12.0
 21
9.0
 12
0.0
 22
0.0
 32
0.0
 14
0.0
 24
0.0
 34
0.0
 15
0.0
 25
0.0
 35
0.0
146
0.0
 13
0.0
 23
0.0
 33
0.0
 16
1.0
 26
0.0
 36
0.0
 17
0.0
 27
1.0
 37
0.0
 76
     0
330
1F
1001
ACAD_PSEXT
1000
SII LP-1010 (C2 VR)2R
1000
SII LP-1010 (C2 VR)2R
1000
133.153.16.130#9100
1000

1070
     0
  0
MLINESTYLE
  5
18
102
{ACAD_REACTORS
330
17
102
}
330
17
100
AcDbMlineStyle
  2
STANDARD
 70
     0
  3

 62
   256
 51
90.0
 52
90.0
 71
     2
 49
0.5
 62
   256
  6
BYLAYER
 49
-0.5
 62
   256
  6
BYLAYER
  0
ACDBPLACEHOLDER
  5
F
102
{ACAD_REACTORS
330
E
102
}
330
E
  0
TABLESTYLE
  5
11B
102
{ACAD_REACTORS
330
11A
102
}
330
11A
100
AcDbTableStyle
  3
Standard
 70
     0
 71
     0
 40
1.5
 41
1.5
280
     0
281
     0
  7
STANDARD
140
4.5
170
     2
 62
     0
 63
     7
283
     0
274
    -2
284
     1
 64
     0
275
    -2
285
     1
 65
     0
276
    -2
286
     1
 66
     0
277
    -2
287
     1
 67
     0
278
    -2
288
     1
 68
     0
279
    -2
289
     1
 69
     0
  7
STANDARD
140
6.0
170
     5
 62
     0
 63
     7
283
     0
274
    -2
284
     1
 64
     0
275
    -2
285
     1
 65
     0
276
    -2
286
     1
 66
     0
277
    -2
287
     1
 67
     0
278
    -2
288
     1
 68
     0
279
    -2
289
     1
 69
     0
  7
STANDARD
140
4.5
170
     5
 62
     0
 63
     7
283
     0
274
    -2
284
     1
 64
     0
275
    -2
285
     1
 65
     0
276
    -2
286
     1
 66
     0
277
    -2
287
     1
 67
     0
278
    -2
288
     1
 68
     0
279
    -2
289
     1
 69
     0
  0
DICTIONARYVAR
  5
138
102
{ACAD_REACTORS
330
94
102
}
330
94
100
DictionaryVariables
280
     0
  1
STANDARD
  0
DICTIONARYVAR
  5
96
102
{ACAD_REACTORS
330
94
102
}
330
94
100
DictionaryVariables
280
     0
  1
2
  0
DICTIONARYVAR
  5
95
102
{ACAD_REACTORS
330
94
102
}
330
94
100
DictionaryVariables
280
     0
  1
1
  0
DICTIONARY
  5
1B5
102
{ACAD_REACTORS
330
5B
102
}
330
5B
100
AcDbDictionary
281
     1
  0
DICTIONARY
  5
61
102
{ACAD_REACTORS
330
5B
102
}
330
5B
100
AcDbDictionary
281
     1
  0
XRECORD
  5
123
102
{ACAD_REACTORS
330
5B
102
}
330
5B
100
AcDbXrecord
280
     1
 90
-1023410169
  0
ENDSEC
  0
EOF
